  0
SECTION
  2
HEADER
  9
$ACADVER
  1
AC1015
  9
$ACADMAINTVER
 70
     6
  9
$DWGCODEPAGE
  3
ANSI_949
  9
$INSBASE
 10
0.0
 20
0.0
 30
0.0
  9
$EXTMIN
 10
-62.02500000000002
 20
-49.97180738881174
 30
0.0
  9
$EXTMAX
 10
90.52153940838579
 20
43.93919134481795
 30
0.0
  9
$LIMMIN
 10
0.0
 20
0.0
  9
$LIMMAX
 10
420.0
 20
297.0
  9
$ORTHOMODE
 70
     1
  9
$REGENMODE
 70
     1
  9
$FILLMODE
 70
     1
  9
$QTEXTMODE
 70
     0
  9
$MIRRTEXT
 70
     1
  9
$LTSCALE
 40
1.0
  9
$ATTMODE
 70
     1
  9
$TEXTSIZE
 40
3.5
  9
$TRACEWID
 40
1.0
  9
$TEXTSTYLE
  7
Standard
  9
$CLAYER
  8
0
  9
$CELTYPE
  6
ByLayer
  9
$CECOLOR
 62
   256
  9
$CELTSCALE
 40
1.0
  9
$DISPSILH
 70
     0
  9
$DIMSCALE
 40
1.0
  9
$DIMASZ
 40
3.302
  9
$DIMEXO
 40
1.0
  9
$DIMDLI
 40
3.75
  9
$DIMRND
 40
0.0
  9
$DIMDLE
 40
0.0
  9
$DIMEXE
 40
1.0
  9
$DIMTP
 40
0.0
  9
$DIMTM
 40
0.0
  9
$DIMTXT
 40
3.5
  9
$DIMCEN
 40
2.5
  9
$DIMTSZ
 40
0.0
  9
$DIMTOL
 70
     0
  9
$DIMLIM
 70
     0
  9
$DIMTIH
 70
     1
  9
$DIMTOH
 70
     1
  9
$DIMSE1
 70
     0
  9
$DIMSE2
 70
     0
  9
$DIMTAD
 70
     1
  9
$DIMZIN
 70
     0
  9
$DIMBLK
  1

  9
$DIMASO
 70
     1
  9
$DIMSHO
 70
     1
  9
$DIMPOST
  1

  9
$DIMAPOST
  1

  9
$DIMALT
 70
     0
  9
$DIMALTD
 70
     3
  9
$DIMALTF
 40
0.0393700787401575
  9
$DIMLFAC
 40
1.0
  9
$DIMTOFL
 70
     1
  9
$DIMTVP
 40
0.0
  9
$DIMTIX
 70
     0
  9
$DIMSOXD
 70
     0
  9
$DIMSAH
 70
     0
  9
$DIMBLK1
  1

  9
$DIMBLK2
  1

  9
$DIMSTYLE
  2
ISO-25
  9
$DIMCLRD
 70
     0
  9
$DIMCLRE
 70
     0
  9
$DIMCLRT
 70
     0
  9
$DIMTFAC
 40
1.0
  9
$DIMGAP
 40
1.524
  9
$DIMJUST
 70
     0
  9
$DIMSD1
 70
     0
  9
$DIMSD2
 70
     0
  9
$DIMTOLJ
 70
     0
  9
$DIMTZIN
 70
     0
  9
$DIMALTZ
 70
     0
  9
$DIMALTTZ
 70
     0
  9
$DIMUPT
 70
     0
  9
$DIMDEC
 70
     2
  9
$DIMTDEC
 70
     2
  9
$DIMALTU
 70
     2
  9
$DIMALTTD
 70
     3
  9
$DIMTXSTY
  7
Standard
  9
$DIMAUNIT
 70
     0
  9
$DIMADEC
 70
     2
  9
$DIMALTRND
 40
0.0
  9
$DIMAZIN
 70
     0
  9
$DIMDSEP
 70
    44
  9
$DIMATFIT
 70
     3
  9
$DIMFRAC
 70
     0
  9
$DIMLDRBLK
  1

  9
$DIMLUNIT
 70
     2
  9
$DIMLWD
 70
    -2
  9
$DIMLWE
 70
    -2
  9
$DIMTMOVE
 70
     0
  9
$LUNITS
 70
     2
  9
$LUPREC
 70
     2
  9
$SKETCHINC
 40
1.0
  9
$FILLETRAD
 40
10.0
  9
$AUNITS
 70
     0
  9
$AUPREC
 70
     2
  9
$MENU
  1
.
  9
$ELEVATION
 40
0.0
  9
$PELEVATION
 40
0.0
  9
$THICKNESS
 40
0.0
  9
$LIMCHECK
 70
     0
  9
$CHAMFERA
 40
0.0
  9
$CHAMFERB
 40
0.0
  9
$CHAMFERC
 40
0.0
  9
$CHAMFERD
 40
0.0
  9
$SKPOLY
 70
     0
  9
$TDCREATE
 40
2458311.473215822
  9
$TDUCREATE
 40
2458311.098215822
  9
$TDUPDATE
 40
2458319.728544572
  9
$TDUUPDATE
 40
2458319.353544572
  9
$TDINDWG
 40
0.0000779745
  9
$TDUSRTIMER
 40
2458319.353509375
  9
$USRTIMER
 70
     1
  9
$ANGBASE
 50
0.0
  9
$ANGDIR
 70
     0
  9
$PDMODE
 70
     0
  9
$PDSIZE
 40
-1.0
  9
$PLINEWID
 40
0.0
  9
$SPLFRAME
 70
     0
  9
$SPLINETYPE
 70
     6
  9
$SPLINESEGS
 70
     8
  9
$HANDSEED
  5
206
  9
$SURFTAB1
 70
     6
  9
$SURFTAB2
 70
     6
  9
$SURFTYPE
 70
     6
  9
$SURFU
 70
     6
  9
$SURFV
 70
     6
  9
$UCSBASE
  2

  9
$UCSNAME
  2

  9
$UCSORG
 10
0.0
 20
0.0
 30
0.0
  9
$UCSXDIR
 10
1.0
 20
0.0
 30
0.0
  9
$UCSYDIR
 10
0.0
 20
1.0
 30
0.0
  9
$UCSORTHOREF
  2

  9
$UCSORTHOVIEW
 70
     0
  9
$UCSORGTOP
 10
0.0
 20
0.0
 30
0.0
  9
$UCSORGBOTTOM
 10
0.0
 20
0.0
 30
0.0
  9
$UCSORGLEFT
 10
0.0
 20
0.0
 30
0.0
  9
$UCSORGRIGHT
 10
0.0
 20
0.0
 30
0.0
  9
$UCSORGFRONT
 10
0.0
 20
0.0
 30
0.0
  9
$UCSORGBACK
 10
0.0
 20
0.0
 30
0.0
  9
$PUCSBASE
  2

  9
$PUCSNAME
  2

  9
$PUCSORG
 10
0.0
 20
0.0
 30
0.0
  9
$PUCSXDIR
 10
1.0
 20
0.0
 30
0.0
  9
$PUCSYDIR
 10
0.0
 20
1.0
 30
0.0
  9
$PUCSORTHOREF
  2

  9
$PUCSORTHOVIEW
 70
     0
  9
$PUCSORGTOP
 10
0.0
 20
0.0
 30
0.0
  9
$PUCSORGBOTTOM
 10
0.0
 20
0.0
 30
0.0
  9
$PUCSORGLEFT
 10
0.0
 20
0.0
 30
0.0
  9
$PUCSORGRIGHT
 10
0.0
 20
0.0
 30
0.0
  9
$PUCSORGFRONT
 10
0.0
 20
0.0
 30
0.0
  9
$PUCSORGBACK
 10
0.0
 20
0.0
 30
0.0
  9
$USERI1
 70
     0
  9
$USERI2
 70
     0
  9
$USERI3
 70
     0
  9
$USERI4
 70
     0
  9
$USERI5
 70
     0
  9
$USERR1
 40
0.0
  9
$USERR2
 40
0.0
  9
$USERR3
 40
0.0
  9
$USERR4
 40
0.0
  9
$USERR5
 40
0.0
  9
$WORLDVIEW
 70
     1
  9
$SHADEDGE
 70
     3
  9
$SHADEDIF
 70
    70
  9
$TILEMODE
 70
     1
  9
$MAXACTVP
 70
    64
  9
$PINSBASE
 10
0.0
 20
0.0
 30
0.0
  9
$PLIMCHECK
 70
     0
  9
$PEXTMIN
 10
1.000000000000000E+20
 20
1.000000000000000E+20
 30
1.000000000000000E+20
  9
$PEXTMAX
 10
-1.000000000000000E+20
 20
-1.000000000000000E+20
 30
-1.000000000000000E+20
  9
$PLIMMIN
 10
0.0
 20
0.0
  9
$PLIMMAX
 10
0.0
 20
0.0
  9
$UNITMODE
 70
     0
  9
$VISRETAIN
 70
     1
  9
$PLINEGEN
 70
     0
  9
$PSLTSCALE
 70
     1
  9
$TREEDEPTH
 70
  3020
  9
$CMLSTYLE
  2
Standard
  9
$CMLJUST
 70
     0
  9
$CMLSCALE
 40
20.0
  9
$PROXYGRAPHICS
 70
     1
  9
$MEASUREMENT
 70
     1
  9
$CELWEIGHT
370
    -1
  9
$ENDCAPS
280
     0
  9
$JOINSTYLE
280
     0
  9
$LWDISPLAY
290
     1
  9
$INSUNITS
 70
     4
  9
$HYPERLINKBASE
  1

  9
$STYLESHEET
  1

  9
$XEDIT
290
     1
  9
$CEPSNTYPE
380
     0
  9
$PSTYLEMODE
290
     1
  9
$FINGERPRINTGUID
  2
{89DDB07F-0189-41B4-82B2-DBD7A4E2B888}
  9
$VERSIONGUID
  2
{FAEB1C32-E019-11D5-929B-00C0DF256EC4}
  9
$EXTNAMES
290
     1
  9
$PSVPSCALE
 40
0.0
  9
$OLESTARTUP
290
     0
  0
ENDSEC
  0
SECTION
  2
CLASSES
  0
CLASS
  1
ACDBDICTIONARYWDFLT
  2
AcDbDictionaryWithDefault
  3
ObjectDBX Classes
 90
        0
280
     0
281
     0
  0
CLASS
  1
VISUALSTYLE
  2
AcDbVisualStyle
  3
ObjectDBX Classes
 90
     4095
280
     0
281
     0
  0
CLASS
  1
MATERIAL
  2
AcDbMaterial
  3
ObjectDBX Classes
 90
     1153
280
     0
281
     0
  0
CLASS
  1
SCALE
  2
AcDbScale
  3
ObjectDBX Classes
 90
     1153
280
     0
281
     0
  0
CLASS
  1
SUN
  2
AcDbSun
  3
SCENEOE
 90
     1153
280
     0
281
     0
  0
CLASS
  1
ACDBPLACEHOLDER
  2
AcDbPlaceHolder
  3
ObjectDBX Classes
 90
        0
280
     0
281
     0
  0
CLASS
  1
LAYOUT
  2
AcDbLayout
  3
ObjectDBX Classes
 90
        0
280
     0
281
     0
  0
CLASS
  1
TABLESTYLE
  2
AcDbTableStyle
  3
ObjectDBX Classes
 90
     4095
280
     0
281
     0
  0
CLASS
  1
MLEADERSTYLE
  2
AcDbMLeaderStyle
  3
ACDB_MLEADERSTYLE_CLASS
 90
     4095
280
     0
281
     0
  0
CLASS
  1
RASTERVARIABLES
  2
AcDbRasterVariables
  3
ISM
 90
        0
280
     0
281
     0
  0
ENDSEC
  0
SECTION
  2
TABLES
  0
TABLE
  2
VPORT
  5
8
330
0
100
AcDbSymbolTable
 70
     1
  0
VPORT
  5
29
330
8
100
AcDbSymbolTableRecord
100
AcDbViewportTableRecord
  2
*Active
 70
     0
 10
0.0
 20
0.0
 11
1.0
 21
1.0
 12
-10.7668569778129
 22
1.879488398588345
 13
0.0
 23
0.0
 14
10.0
 24
10.0
 15
10.0
 25
10.0
 16
0.0
 26
0.0
 36
1.0
 17
0.0
 27
0.0
 37
0.0
 40
121.6830974866123
 41
1.632093933463796
 42
50.0
 43
0.0
 44
0.0
 50
0.0
 51
0.0
 71
    16
 72
  2000
 73
     1
 74
     3
 75
     0
 76
     0
 77
     0
 78
     0
281
     0
 65
     1
110
0.0
120
0.0
130
0.0
111
1.0
121
0.0
131
0.0
112
0.0
122
1.0
132
0.0
 79
     0
146
0.0
  0
ENDTAB
  0
TABLE
  2
LTYPE
  5
5
330
0
100
AcDbSymbolTable
 70
     6
  0
LTYPE
  5
14
330
5
100
AcDbSymbolTableRecord
100
AcDbLinetypeTableRecord
  2
ByBlock
 70
     0
  3

 72
    65
 73
     0
 40
0.0
  0
LTYPE
  5
15
330
5
100
AcDbSymbolTableRecord
100
AcDbLinetypeTableRecord
  2
ByLayer
 70
     0
  3

 72
    65
 73
     0
 40
0.0
  0
LTYPE
  5
16
330
5
100
AcDbSymbolTableRecord
100
AcDbLinetypeTableRecord
  2
Continuous
 70
     0
  3
Solid line
 72
    65
 73
     0
 40
0.0
  0
LTYPE
  5
6A
330
5
100
AcDbSymbolTableRecord
100
AcDbLinetypeTableRecord
  2
HIDDEN
 70
     0
  3
Hidden __ __ __ __ __ __ __ __ __ __ __ __ __ __
 72
    65
 73
     2
 40
1.905
 49
1.27
 74
     0
 49
-0.635
 74
     0
  0
LTYPE
  5
6B
330
5
100
AcDbSymbolTableRecord
100
AcDbLinetypeTableRecord
  2
PHANTOM
 70
     0
  3
Phantom ______  __  __  ______  __  __  ______
 72
    65
 73
     6
 40
12.7
 49
6.35
 74
     0
 49
-1.27
 74
     0
 49
1.27
 74
     0
 49
-1.27
 74
     0
 49
1.27
 74
     0
 49
-1.27
 74
     0
  0
LTYPE
  5
6C
330
5
100
AcDbSymbolTableRecord
100
AcDbLinetypeTableRecord
  2
CENTER
 70
     0
  3
Center ____ _ ____ _ ____ _ ____ _ ____ _ ____
 72
    65
 73
     4
 40
10.16
 49
6.35
 74
     0
 49
-1.27
 74
     0
 49
1.27
 74
     0
 49
-1.27
 74
     0
  0
LTYPE
  5
6D
330
5
100
AcDbSymbolTableRecord
100
AcDbLinetypeTableRecord
  2
CENTERX2
 70
     0
  3
Center (2x) ________  __  ________  __  _____
 72
    65
 73
     4
 40
20.32
 49
12.7
 74
     0
 49
-2.54
 74
     0
 49
2.54
 74
     0
 49
-2.54
 74
     0
  0
LTYPE
  5
6E
330
5
100
AcDbSymbolTableRecord
100
AcDbLinetypeTableRecord
  2
DOT2
 70
     0
  3
Dot (.5x) ........................................
 72
    65
 73
     2
 40
0.635
 49
0.0
 74
     0
 49
-0.635
 74
     0
  0
ENDTAB
  0
TABLE
  2
LAYER
  5
2
102
{ACAD_XDICTIONARY
360
17A
102
}
330
0
100
AcDbSymbolTable
 70
    18
  0
LAYER
  5
10
330
2
100
AcDbSymbolTableRecord
100
AcDbLayerTableRecord
  2
0
 70
     0
 62
     7
  6
Continuous
370
    -3
390
F
  0
LAYER
  5
6F
330
2
100
AcDbSymbolTableRecord
100
AcDbLayerTableRecord
  2
FORMAT
 70
     0
 62
     2
  6
Continuous
370
    -3
390
F
  0
LAYER
  5
70
330
2
100
AcDbSymbolTableRecord
100
AcDbLayerTableRecord
  2
외형선
 70
     0
 62
     4
  6
Continuous
370
    30
390
F
  0
LAYER
  5
71
330
2
100
AcDbSymbolTableRecord
100
AcDbLayerTableRecord
  2
숨은선
 70
     0
 62
     2
  6
HIDDEN
370
    15
390
F
  0
LAYER
  5
72
330
2
100
AcDbSymbolTableRecord
100
AcDbLayerTableRecord
  2
중심선
 70
     0
 62
     1
  6
CENTERX2
370
    -3
390
F
  0
LAYER
  5
73
330
2
100
AcDbSymbolTableRecord
100
AcDbLayerTableRecord
  2
파단선
 70
     0
 62
     4
  6
Continuous
370
    -3
390
F
  0
LAYER
  5
74
330
2
100
AcDbSymbolTableRecord
100
AcDbLayerTableRecord
  2
해칭선
 70
     0
 62
   100
  6
Continuous
370
    -3
390
F
  0
LAYER
  5
75
330
2
100
AcDbSymbolTableRecord
100
AcDbLayerTableRecord
  2
가는실선
 70
     0
 62
     4
  6
Continuous
370
    -3
390
F
  0
LAYER
  5
76
330
2
100
AcDbSymbolTableRecord
100
AcDbLayerTableRecord
  2
치수_보조선
 70
     0
 62
     4
  6
Continuous
370
    -3
390
F
  0
LAYER
  5
77
330
2
100
AcDbSymbolTableRecord
100
AcDbLayerTableRecord
  2
치수문자_일반주서
 70
     0
 62
     7
  6
Continuous
370
    15
390
F
  0
LAYER
  5
78
330
2
100
AcDbSymbolTableRecord
100
AcDbLayerTableRecord
  2
개별주서
 70
     0
 62
   100
  6
Continuous
370
    30
390
F
  0
LAYER
  5
79
330
2
100
AcDbSymbolTableRecord
100
AcDbLayerTableRecord
  2
중간선
 70
     0
 62
     2
  6
Continuous
370
    15
390
F
  0
LAYER
  5
7A
330
2
100
AcDbSymbolTableRecord
100
AcDbLayerTableRecord
  2
윤곽선
 70
     0
 62
     3
  6
Continuous
370
    40
390
F
  0
LAYER
  5
7B
330
2
100
AcDbSymbolTableRecord
100
AcDbLayerTableRecord
  2
중심마크
 70
     0
 62
   100
  6
Continuous
370
    30
390
F
  0
LAYER
  5
7C
330
2
100
AcDbSymbolTableRecord
100
AcDbLayerTableRecord
  2
가상선
 70
     0
 62
     4
  6
PHANTOM
370
    -3
390
F
  0
LAYER
  5
7D
330
2
100
AcDbSymbolTableRecord
100
AcDbLayerTableRecord
  2
특수지정선
 70
     0
 62
     5
  6
CENTERX2
370
    60
390
F
  0
LAYER
  5
7E
330
2
100
AcDbSymbolTableRecord
100
AcDbLayerTableRecord
  2
참조1
 70
     0
 62
    -4
  6
Continuous
370
    -3
390
F
  0
LAYER
  5
181
330
2
100
AcDbSymbolTableRecord
100
AcDbLayerTableRecord
  2
Defpoints
 70
     0
 62
     7
  6
Continuous
290
     0
370
    -3
390
F
  0
ENDTAB
  0
TABLE
  2
STYLE
  5
3
330
0
100
AcDbSymbolTable
 70
     2
  0
STYLE
  5
11
330
3
100
AcDbSymbolTableRecord
100
AcDbTextStyleTableRecord
  2
Standard
 70
     0
 40
0.0
 41
1.0
 50
0.0
 71
     0
 42
3.5
  3
txt
  4

  0
STYLE
  5
94
330
3
100
AcDbSymbolTableRecord
100
AcDbTextStyleTableRecord
  2
SLDTEXTSTYLE0
 70
     0
 40
0.0
 41
0.75
 50
0.0
 71
     0
 42
3.5
  3
TXT
  4

  0
ENDTAB
  0
TABLE
  2
VIEW
  5
6
330
0
100
AcDbSymbolTable
 70
     0
  0
ENDTAB
  0
TABLE
  2
UCS
  5
7
330
0
100
AcDbSymbolTable
 70
     0
  0
ENDTAB
  0
TABLE
  2
APPID
  5
9
330
0
100
AcDbSymbolTable
 70
     1
  0
APPID
  5
12
330
9
100
AcDbSymbolTableRecord
100
AcDbRegAppTableRecord
  2
ACAD
 70
     0
  0
ENDTAB
  0
TABLE
  2
DIMSTYLE
  5
A
330
0
100
AcDbSymbolTable
 70
     3
100
AcDbDimStyleTable
  0
DIMSTYLE
105
27
330
A
100
AcDbSymbolTableRecord
100
AcDbDimStyleTableRecord
  2
ISO-25
 70
     0
 41
2.5
 42
0.625
 43
3.75
 44
1.25
 73
     0
 74
     0
 77
     1
 78
     8
140
2.5
141
2.5
143
0.03937007874016
147
0.625
171
     3
172
     1
178
     0
271
     2
272
     2
274
     3
278
    44
283
     0
284
     8
340
11
  0
DIMSTYLE
105
D3
102
{ACAD_REACTORS
330
D2
330
E7
330
FC
330
10F
102
}
330
A
100
AcDbSymbolTableRecord
100
AcDbDimStyleTableRecord
  2
SLDDIMSTYLE0
 70
     0
 41
3.302
 44
0.0
 45
0.000000001
 73
     0
 74
     0
 77
     1
 78
    12
 79
     3
140
3.5
143
0.0393700787401575
147
0.875
148
0.000000001
170
     1
172
     1
173
     1
178
     0
271
     2
272
     2
276
     2
284
    12
289
     0
340
94
  0
DIMSTYLE
105
E8
330
A
100
AcDbSymbolTableRecord
100
AcDbDimStyleTableRecord
  2
SLDDIMSTYLE1
 70
     0
 41
3.302
 44
0.0
 45
0.000000001
 73
     0
 74
     0
 77
     1
 78
    12
 79
     3
140
3.5
143
0.0393700787401575
147
0.875
148
0.000000001
170
     1
173
     1
178
     0
271
     2
272
     2
276
     2
284
    12
340
94
  0
ENDTAB
  0
TABLE
  2
BLOCK_RECORD
  5
1
330
0
100
AcDbSymbolTable
 70
     7
  0
BLOCK_RECORD
  5
1F
330
1
100
AcDbSymbolTableRecord
100
AcDbBlockTableRecord
  2
*Model_Space
340
22
  0
BLOCK_RECORD
  5
1B
330
1
100
AcDbSymbolTableRecord
100
AcDbBlockTableRecord
  2
*Paper_Space
340
1E
  0
BLOCK_RECORD
  5
23
330
1
100
AcDbSymbolTableRecord
100
AcDbBlockTableRecord
  2
*Paper_Space0
340
26
  0
BLOCK_RECORD
  5
7F
330
1
100
AcDbSymbolTableRecord
100
AcDbBlockTableRecord
  2
블럭10
340
0
102
{BLKREFS
331
CB
102
}
  0
BLOCK_RECORD
  5
D4
330
1
100
AcDbSymbolTableRecord
100
AcDbBlockTableRecord
  2
_D
340
0
  0
BLOCK_RECORD
  5
E9
330
1
100
AcDbSymbolTableRecord
100
AcDbBlockTableRecord
  2
_D_1
340
0
  0
BLOCK_RECORD
  5
FD
330
1
100
AcDbSymbolTableRecord
100
AcDbBlockTableRecord
  2
_D_2
340
0
  0
BLOCK_RECORD
  5
110
330
1
100
AcDbSymbolTableRecord
100
AcDbBlockTableRecord
  2
_D_3
340
0
  0
BLOCK_RECORD
  5
129
330
1
100
AcDbSymbolTableRecord
100
AcDbBlockTableRecord
  2
SW_DOWELSYMBOL_0
340
0
102
{BLKREFS
331
12F
102
}
  0
ENDTAB
  0
ENDSEC
  0
SECTION
  2
BLOCKS
  0
BLOCK
  5
20
330
1F
100
AcDbEntity
  8
0
100
AcDbBlockBegin
  2
*Model_Space
 70
     0
 10
0.0
 20
0.0
 30
0.0
  3
*Model_Space
  1
*Model_Space
  0
ENDBLK
  5
21
330
1F
100
AcDbEntity
  8
0
100
AcDbBlockEnd
  0
BLOCK
  5
1C
330
1B
100
AcDbEntity
 67
     1
  8
0
100
AcDbBlockBegin
  2
*Paper_Space
 70
     0
 10
0.0
 20
0.0
 30
0.0
  3
*Paper_Space
  1
*Paper_Space
  0
ENDBLK
  5
1D
330
1B
100
AcDbEntity
 67
     1
  8
0
100
AcDbBlockEnd
  0
BLOCK
  5
24
330
23
100
AcDbEntity
  8
0
100
AcDbBlockBegin
  2
*Paper_Space0
 70
     0
 10
0.0
 20
0.0
 30
0.0
  3
*Paper_Space0
  1
*Paper_Space0
  0
ENDBLK
  5
25
330
23
100
AcDbEntity
  8
0
100
AcDbBlockEnd
  0
BLOCK
  5
80
330
7F
100
AcDbEntity
  8
0
100
AcDbBlockBegin
  2
블럭10
 70
     2
 10
0.0
 20
0.0
 30
0.0
  3
블럭10
  1
블럭10
  0
ELLIPSE
  5
82
330
7F
100
AcDbEntity
  8
중심선
100
AcDbEllipse
 10
20.54032771741204
 20
12.0471743016438
 30
0.0
 11
6.600054785286829
 21
-1.261213355974178E-13
 31
0.0
210
0.0
220
0.0
230
1.0
 40
0.636358354079598
 41
0.9219305317359503
 42
6.513795318482858
  0
ELLIPSE
  5
83
330
7F
100
AcDbEntity
  8
중심선
100
AcDbEllipse
 10
20.54032771746488
 20
12.04717430159265
 30
0.0
 11
3.960054785062283
 21
1.540847449632565E-10
 31
0.0
210
0.0
220
0.0
230
1.0
 40
0.3939339440162632
 41
1.131841032648279
 42
5.62031148352944
  0
LINE
  5
84
330
7F
100
AcDbEntity
  8
중심선
100
AcDbLine
 10
2.268634060543552
 20
16.24717430164393
 30
0.0
 11
5.714909304380834
 21
16.24717430164393
 31
0.0
  0
LINE
  5
85
330
7F
100
AcDbEntity
  8
중심선
100
AcDbLine
 10
5.245725140726316
 20
7.84717430164391
 30
0.0
 11
8.692000384563599
 21
7.84717430164391
 31
0.0
  0
LINE
  5
86
330
7F
100
AcDbEntity
  8
중심선
100
AcDbLine
 10
15.74043728645272
 20
16.24717430164393
 30
0.0
 11
8.692000384563599
 21
7.84717430164391
 31
0.0
  0
LINE
  5
87
330
7F
100
AcDbEntity
  8
중심선
100
AcDbLine
 10
0.1404042013395286
 20
13.71084872107135
 30
0.0
 11
3.58671253028996
 21
13.71088815037384
 31
0.0
  0
LINE
  5
88
330
7F
100
AcDbEntity
  8
중심선
100
AcDbLine
 10
2.750260043222114
 20
10.84717430164391
 30
0.0
 11
6.196535287059397
 21
10.84717430164391
 31
0.0
  0
LINE
  5
89
330
7F
100
AcDbEntity
  8
중심선
100
AcDbLine
 10
12.29416204261559
 20
16.24717430164393
 30
0.0
 11
5.245725140726316
 21
7.84717430164391
 31
0.0
  0
LINE
  5
8A
330
7F
100
AcDbEntity
  8
중심선
100
AcDbLine
 10
10.72767329541681
 20
16.24717430164393
 30
0.0
 11
6.196535287059397
 21
10.84717430164391
 31
0.0
  0
LINE
  5
8B
330
7F
100
AcDbEntity
  8
중심선
100
AcDbLine
 10
7.28139805157953
 20
16.24717430164393
 30
0.0
 11
2.750260043222114
 21
10.84717430164391
 31
0.0
  0
LINE
  5
8C
330
7F
100
AcDbEntity
  8
중심선
100
AcDbLine
 10
5.714909304380834
 20
16.24717430164393
 30
0.0
 11
3.58671253028996
 21
13.71088815037384
 31
0.0
  0
LINE
  5
8D
330
7F
100
AcDbEntity
  8
중심선
100
AcDbLine
 10
2.268634060543552
 20
16.24717430164393
 30
0.0
 11
0.1404042013395286
 21
13.71084872107135
 31
0.0
  0
LINE
  5
8E
330
7F
100
AcDbEntity
  8
중심선
100
AcDbLine
 10
7.28139805157953
 20
16.24717430164393
 30
0.0
 11
10.72767329541681
 21
16.24717430164393
 31
0.0
  0
LINE
  5
8F
330
7F
100
AcDbEntity
  8
중심선
100
AcDbLine
 10
12.29416204261559
 20
16.24717430164393
 30
0.0
 11
15.74043728645272
 21
16.24717430164393
 31
0.0
  0
LINE
  5
90
330
7F
100
AcDbEntity
  8
중심선
100
AcDbLine
 10
19.22036997980202
 20
11.08717430171403
 30
0.0
 11
23.66174974927406
 21
11.08717430171406
 31
0.0
  0
LINE
  5
91
330
7F
100
AcDbEntity
  8
중심선
100
AcDbLine
 10
19.22039502424796
 20
13.00717430171391
 30
0.0
 11
19.22036997980202
 21
11.08717430171403
 31
0.0
  0
LINE
  5
92
330
7F
100
AcDbEntity
  8
중심선
100
AcDbLine
 10
19.22039502424796
 20
13.00717430171391
 30
0.0
 11
26.96566020931264
 21
13.00717430171391
 31
0.0
  0
LINE
  5
93
330
7F
100
AcDbEntity
  8
중심선
100
AcDbLine
 10
22.22332737316547
 20
13.45928029700563
 30
0.0
 11
24.52862924686651
 21
15.39360700705356
 31
0.0
  0
ATTDEF
  5
95
330
7F
100
AcDbEntity
  8
FORMAT
 62
     2
100
AcDbText
 10
4.408487351596664
 20
2.075366912832191
 30
0.0
 40
4.233333333333333
  1
E1163048
 41
0.75
  7
SLDTEXTSTYLE0
 11
4.408487351596664
 21
-0.0412997538344756
 31
0.0
100
AcDbAttributeDefinition
  3

  2
AUTOATTR0
 70
     0
 74
     1
  0
ENDBLK
  5
81
330
7F
100
AcDbEntity
  8
0
100
AcDbBlockEnd
  0
BLOCK
  5
D5
330
D4
100
AcDbEntity
  8
0
100
AcDbBlockBegin
  2
_D
 70
     0
 10
0.0
 20
0.0
 30
0.0
  3
_D
  1
_D
  0
LINE
  5
D7
330
D4
100
AcDbEntity
  8
치수문자_일반주서
 62
     0
370
    -2
100
AcDbLine
 10
-44.21249999999996
 20
9.525000000000004
 30
0.0
 11
-57.65000000000001
 21
9.524999999999954
 31
0.0
  0
LINE
  5
D8
330
D4
100
AcDbEntity
  8
치수문자_일반주서
 62
     0
370
    -2
100
AcDbLine
 10
-44.21249999999996
 20
-9.525000000000007
 30
0.0
 11
-57.64999999999994
 21
-9.525000000000057
 31
0.0
  0
LINE
  5
D9
330
D4
100
AcDbEntity
  8
치수문자_일반주서
 62
     0
370
    -2
100
AcDbLine
 10
-57.64999999999999
 20
6.222999999999955
 30
0.0
 11
-57.64999999999996
 21
-6.223000000000058
 31
0.0
  0
SOLID
  5
DA
330
D4
100
AcDbEntity
  8
치수문자_일반주서
 62
     0
100
AcDbTrace
 10
-57.09966666666666
 20
6.222999999999956
 30
0.0
 11
-58.20033333333333
 21
6.222999999999953
 31
0.0
 12
-57.65000000000001
 22
9.524999999999954
 32
0.0
 13
-57.65000000000001
 23
9.524999999999954
 33
0.0
  0
SOLID
  5
DB
330
D4
100
AcDbEntity
  8
치수문자_일반주서
 62
     0
100
AcDbTrace
 10
-58.20033333333329
 20
-6.223000000000059
 30
0.0
 11
-57.09966666666662
 21
-6.223000000000056
 31
0.0
 12
-57.64999999999994
 22
-9.525000000000057
 32
0.0
 13
-57.64999999999994
 23
-9.525000000000057
 33
0.0
  0
MTEXT
  5
DC
330
D4
100
AcDbEntity
  8
치수문자_일반주서
 62
     0
100
AcDbMText
 10
-62.02499999999998
 20
-0.0000000000000094
 30
0.0
 40
3.5
 41
0.0
 71
     2
 72
     1
  1
\A1;%%c19.05 [3/4]
  7
SLDTEXTSTYLE0
 11
-3.356894814614645E-15
 21
1.0
 31
0.0
 73
     1
 44
1.0
  0
POINT
  5
DD
330
D4
100
AcDbEntity
  8
Defpoints
 62
     0
100
AcDbPoint
 10
-44.14999999999996
 20
9.525000000000004
 30
0.0
  0
POINT
  5
DE
330
D4
100
AcDbEntity
  8
Defpoints
 62
     0
100
AcDbPoint
 10
-44.14999999999996
 20
-9.525000000000007
 30
0.0
  0
POINT
  5
DF
330
D4
100
AcDbEntity
  8
Defpoints
 62
     0
100
AcDbPoint
 10
-57.64999999999994
 20
-9.525000000000057
 30
0.0
  0
ENDBLK
  5
D6
330
D4
100
AcDbEntity
  8
0
100
AcDbBlockEnd
  0
BLOCK
  5
EA
330
E9
100
AcDbEntity
  8
0
100
AcDbBlockBegin
  2
_D_1
 70
     0
 10
0.0
 20
0.0
 30
0.0
  3
_D_1
  1
_D_1
  0
LINE
  5
EC
330
E9
100
AcDbEntity
  8
치수문자_일반주서
 62
     0
370
    -2
100
AcDbLine
 10
45.33750000000002
 20
9.58750000000001
 30
0.0
 11
45.33750000000002
 21
22.69329134588529
 31
0.0
  0
LINE
  5
ED
330
E9
100
AcDbEntity
  8
치수문자_일반주서
 62
     0
370
    -2
100
AcDbLine
 10
12.00000000000002
 20
7.50346304402461
 30
0.0
 11
12.00000000000002
 21
22.69329134588529
 31
0.0
  0
LINE
  5
EE
330
E9
100
AcDbEntity
  8
치수문자_일반주서
 62
     0
370
    -2
100
AcDbLine
 10
42.03550000000002
 20
22.69329134588529
 30
0.0
 11
15.30200000000002
 21
22.69329134588529
 31
0.0
  0
SOLID
  5
EF
330
E9
100
AcDbEntity
  8
치수문자_일반주서
 62
     0
100
AcDbTrace
 10
42.03550000000002
 20
22.14295801255196
 30
0.0
 11
42.03550000000002
 21
23.24362467921863
 31
0.0
 12
45.33750000000002
 22
22.69329134588529
 32
0.0
 13
45.33750000000002
 23
22.69329134588529
 33
0.0
  0
SOLID
  5
F0
330
E9
100
AcDbEntity
  8
치수문자_일반주서
 62
     0
100
AcDbTrace
 10
15.30200000000002
 20
23.24362467921863
 30
0.0
 11
15.30200000000002
 21
22.14295801255196
 31
0.0
 12
12.00000000000002
 22
22.69329134588529
 32
0.0
 13
12.00000000000002
 23
22.69329134588529
 33
0.0
  0
MTEXT
  5
F1
330
E9
100
AcDbEntity
  8
치수문자_일반주서
 62
     0
100
AcDbMText
 10
14.8433012937772
 20
27.06829134588529
 30
0.0
 40
3.5
 41
0.0
 71
     2
 72
     1
  1
\A1;33.34 [1 5/16]
  7
SLDTEXTSTYLE0
 73
     1
 44
1.0
  0
POINT
  5
F2
330
E9
100
AcDbEntity
  8
Defpoints
 62
     0
100
AcDbPoint
 10
45.33750000000002
 20
9.52500000000001
 30
0.0
  0
POINT
  5
F3
330
E9
100
AcDbEntity
  8
Defpoints
 62
     0
100
AcDbPoint
 10
12.00000000000002
 20
7.44096304402461
 30
0.0
  0
POINT
  5
F4
330
E9
100
AcDbEntity
  8
Defpoints
 62
     0
100
AcDbPoint
 10
12.00000000000002
 20
22.69329134588529
 30
0.0
  0
ENDBLK
  5
EB
330
E9
100
AcDbEntity
  8
0
100
AcDbBlockEnd
  0
BLOCK
  5
FE
330
FD
100
AcDbEntity
  8
0
100
AcDbBlockBegin
  2
_D_2
 70
     0
 10
0.0
 20
0.0
 30
0.0
  3
_D_2
  1
_D_2
  0
LINE
  5
100
330
FD
100
AcDbEntity
  8
치수문자_일반주서
 62
     0
370
    -2
100
AcDbLine
 10
45.33750000000002
 20
9.587500000000006
 30
0.0
 11
45.33750000000002
 21
39.56419134481795
 31
0.0
  0
LINE
  5
101
330
FD
100
AcDbEntity
  8
치수문자_일반주서
 62
     0
370
    -2
100
AcDbLine
 10
-45.14999999999999
 20
8.587499999999993
 30
0.0
 11
-45.14999999999999
 21
39.56419134481795
 31
0.0
  0
LINE
  5
102
330
FD
100
AcDbEntity
  8
치수문자_일반주서
 62
     0
370
    -2
100
AcDbLine
 10
42.03550000000002
 20
39.56419134481795
 30
0.0
 11
-41.84799999999999
 21
39.56419134481795
 31
0.0
  0
SOLID
  5
103
330
FD
100
AcDbEntity
  8
치수문자_일반주서
 62
     0
100
AcDbTrace
 10
42.03550000000002
 20
39.01385801148461
 30
0.0
 11
42.03550000000002
 21
40.11452467815128
 31
0.0
 12
45.33750000000002
 22
39.56419134481795
 32
0.0
 13
45.33750000000002
 23
39.56419134481795
 33
0.0
  0
SOLID
  5
104
330
FD
100
AcDbEntity
  8
치수문자_일반주서
 62
     0
100
AcDbTrace
 10
-41.84799999999999
 20
40.11452467815128
 30
0.0
 11
-41.84799999999999
 21
39.01385801148461
 31
0.0
 12
-45.14999999999999
 22
39.56419134481795
 32
0.0
 13
-45.14999999999999
 23
39.56419134481795
 33
0.0
  0
MTEXT
  5
105
330
FD
100
AcDbEntity
  8
치수문자_일반주서
 62
     0
100
AcDbMText
 10
0.0937500000000129
 20
43.93919134481795
 30
0.0
 40
3.5
 41
0.0
 71
     2
 72
     1
  1
\A1;90.49 [3 9/16]
  7
SLDTEXTSTYLE0
 73
     1
 44
1.0
  0
POINT
  5
106
330
FD
100
AcDbEntity
  8
Defpoints
 62
     0
100
AcDbPoint
 10
45.33750000000002
 20
9.525000000000006
 30
0.0
  0
POINT
  5
107
330
FD
100
AcDbEntity
  8
Defpoints
 62
     0
100
AcDbPoint
 10
-45.14999999999999
 20
8.524999999999993
 30
0.0
  0
POINT
  5
108
330
FD
100
AcDbEntity
  8
Defpoints
 62
     0
100
AcDbPoint
 10
-45.14999999999999
 20
39.56419134481795
 30
0.0
  0
ENDBLK
  5
FF
330
FD
100
AcDbEntity
  8
0
100
AcDbBlockEnd
  0
BLOCK
  5
111
330
110
100
AcDbEntity
  8
0
100
AcDbBlockBegin
  2
_D_3
 70
     0
 10
0.0
 20
0.0
 30
0.0
  3
_D_3
  1
_D_3
  0
LINE
  5
113
330
110
100
AcDbEntity
  8
치수문자_일반주서
 62
     0
370
    -2
100
AcDbLine
 10
45.40000000000002
 20
-9.524999999999999
 30
0.0
 11
68.79403862119536
 21
-9.524999999999913
 31
0.0
  0
LINE
  5
114
330
110
100
AcDbEntity
  8
치수문자_일반주서
 62
     0
370
    -2
100
AcDbLine
 10
45.40000000000002
 20
9.52500000000001
 30
0.0
 11
68.79403862119528
 21
9.525000000000095
 31
0.0
  0
LINE
  5
115
330
110
100
AcDbEntity
  8
치수문자_일반주서
 62
     0
370
    -2
100
AcDbLine
 10
68.79403862119528
 20
9.525000000000095
 30
0.0
 11
68.79403862119516
 21
43.69150000000009
 31
0.0
  0
LINE
  5
116
330
110
100
AcDbEntity
  8
치수문자_일반주서
 62
     0
370
    -2
100
AcDbLine
 10
68.79403862119536
 20
-9.524999999999913
 30
0.0
 11
68.79403862119528
 21
9.525000000000095
 31
0.0
  0
LINE
  5
117
330
110
100
AcDbEntity
  8
치수문자_일반주서
 62
     0
370
    -2
100
AcDbLine
 10
68.79403862119537
 20
-12.82699999999991
 30
0.0
 11
68.79403862119538
 21
-16.12899999999991
 31
0.0
  0
LINE
  5
118
330
110
100
AcDbEntity
  8
치수문자_일반주서
 62
     0
370
    -2
100
AcDbLine
 10
68.79403862119527
 20
12.82700000000009
 30
0.0
 11
68.79403862119526
 21
16.12900000000009
 31
0.0
  0
SOLID
  5
119
330
110
100
AcDbEntity
  8
치수문자_일반주서
 62
     0
100
AcDbTrace
 10
69.3443719545287
 20
-12.82699999999991
 30
0.0
 11
68.24370528786204
 21
-12.82699999999991
 31
0.0
 12
68.79403862119536
 22
-9.524999999999913
 32
0.0
 13
68.79403862119536
 23
-9.524999999999913
 33
0.0
  0
SOLID
  5
11A
330
110
100
AcDbEntity
  8
치수문자_일반주서
 62
     0
100
AcDbTrace
 10
68.24370528786194
 20
12.82700000000009
 30
0.0
 11
69.3443719545286
 21
12.8270000000001
 31
0.0
 12
68.79403862119528
 22
9.525000000000095
 32
0.0
 13
68.79403862119528
 23
9.525000000000095
 33
0.0
  0
MTEXT
  5
11B
330
110
100
AcDbEntity
  8
치수문자_일반주서
 62
     0
100
AcDbMText
 10
64.41903862119521
 20
29.91025000000008
 30
0.0
 40
3.5
 41
0.0
 71
     2
 72
     1
  1
\A1;%%c19.05 [3/4]
  7
SLDTEXTSTYLE0
 11
-3.729883127349606E-15
 21
1.0
 31
0.0
 73
     1
 44
1.0
  0
POINT
  5
11C
330
110
100
AcDbEntity
  8
Defpoints
 62
     0
100
AcDbPoint
 10
45.33750000000002
 20
-9.524999999999999
 30
0.0
  0
POINT
  5
184
330
110
100
AcDbEntity
  8
Defpoints
 62
     0
100
AcDbPoint
 10
45.33750000000002
 20
9.52500000000001
 30
0.0
  0
POINT
  5
185
330
110
100
AcDbEntity
  8
Defpoints
 62
     0
100
AcDbPoint
 10
68.79403862119528
 20
9.525000000000096
 30
0.0
  0
ENDBLK
  5
112
330
110
100
AcDbEntity
  8
0
100
AcDbBlockEnd
  0
BLOCK
  5
12A
330
129
100
AcDbEntity
  8
0
100
AcDbBlockBegin
  2
SW_DOWELSYMBOL_0
 70
     0
 10
0.0
 20
0.0
 30
0.0
  3
SW_DOWELSYMBOL_0
  1
SW_DOWELSYMBOL_0
  0
CIRCLE
  5
12C
330
129
100
AcDbEntity
  8
해칭선
 62
     0
100
AcDbCircle
 10
0.0
 20
0.0
 30
0.0
 40
2.999999999999996
  0
HATCH
  5
12D
330
129
100
AcDbEntity
  8
0
  6
Continuous
 62
     0
370
     0
100
AcDbHatch
 10
0.0
 20
0.0
 30
0.0
210
0.0
220
0.0
230
1.0
  2
SOLID
 70
     1
 71
     0
 91
        1
 92
        0
 93
        3
 72
     2
 10
0.0
 20
0.0
 40
2.999999999999996
 50
0.0
 51
90.0
 73
     1
 72
     1
 10
0.0
 20
2.999999999999996
 11
0.0
 21
0.0
 72
     1
 10
0.0
 20
0.0
 11
2.999999999999996
 21
0.0
 97
        0
 75
     0
 76
     1
 98
        1
 10
0.0
 20
0.0
  0
HATCH
  5
12E
330
129
100
AcDbEntity
  8
0
  6
Continuous
 62
     0
370
     0
100
AcDbHatch
 10
0.0
 20
0.0
 30
0.0
210
0.0
220
0.0
230
1.0
  2
SOLID
 70
     1
 71
     0
 91
        1
 92
        0
 93
        3
 72
     2
 10
0.0
 20
0.0
 40
2.999999999999996
 50
180.0
 51
270.0000000000007
 73
     1
 72
     1
 10
0.0
 20
-2.999999999999996
 11
0.0
 21
0.0
 72
     1
 10
0.0
 20
0.0
 11
-2.999999999999996
 21
0.0
 97
        0
 75
     0
 76
     1
 98
        1
 10
0.0
 20
0.0
  0
ENDBLK
  5
12B
330
129
100
AcDbEntity
  8
0
100
AcDbBlockEnd
  0
ENDSEC
  0
SECTION
  2
ENTITIES
  0
LINE
  5
96
330
1F
100
AcDbEntity
  8
외형선
  6
Continuous
370
    15
100
AcDbLine
 10
8.949935413622674
 20
9.525
 30
0.0
 11
-10.71942499999998
 21
9.524999999999999
 31
0.0
  0
LINE
  5
97
330
1F
100
AcDbEntity
  8
외형선
  6
Continuous
370
    15
100
AcDbLine
 10
-44.14999999999998
 20
-9.525000000000004
 30
0.0
 11
8.949935413622674
 21
-9.525
 31
0.0
  0
LINE
  5
98
330
1F
100
AcDbEntity
  8
외형선
  6
Continuous
370
    15
100
AcDbLine
 10
-44.14999999999998
 20
9.524999999999993
 30
0.0
 11
-45.14999999999999
 21
8.524999999999993
 31
0.0
  0
LINE
  5
99
330
1F
100
AcDbEntity
  8
외형선
  6
Continuous
370
    15
100
AcDbLine
 10
-45.14999999999999
 20
-8.525000000000004
 30
0.0
 11
-44.14999999999998
 21
-9.525000000000004
 31
0.0
  0
SPLINE
  5
9A
330
1F
100
AcDbEntity
  8
외형선
  6
Continuous
370
    15
100
AcDbSpline
210
0.0
220
0.0
230
1.0
 70
     8
 71
     3
 72
     9
 73
     5
 74
     0
 42
0.000000001
 43
0.00000001
 40
0.0
 40
0.0
 40
0.0
 40
0.0
 40
0.5887517481144096
 40
1.0
 40
1.0
 40
1.0
 40
1.0
 10
12.00000000000005
 20
7.440962401348936
 30
0.0
 10
11.56468343763967
 20
7.445495677371988
 30
0.0
 10
10.82529444430834
 20
7.453195486396027
 30
0.0
 10
10.08582083820896
 20
7.47691916227164
 30
0.0
 10
9.78171361038506
 20
7.486675482503786
 30
0.0
  0
SPLINE
  5
9B
330
1F
100
AcDbEntity
  8
외형선
  6
Continuous
370
    15
100
AcDbSpline
210
0.0
220
0.0
230
1.0
 70
     8
 71
     3
 72
    11
 73
     7
 74
     0
 42
0.000000001
 43
0.00000001
 40
0.0
 40
0.0
 40
0.0
 40
0.0
 40
0.1206246878192974
 40
0.6810330012537056
 40
0.8581246620480321
 40
1.0
 40
1.0
 40
1.0
 40
1.0
 10
9.215312760293644
 20
7.685947985484792
 30
0.0
 10
9.20155330923617
 20
7.698870667081952
 30
0.0
 10
9.123869043944532
 20
7.771830629022284
 30
0.0
 10
9.024780884361803
 20
7.881471093736903
 30
0.0
 10
8.955724939131276
 20
7.967311853638652
 30
0.0
 10
8.951717782174137
 20
7.97679799713647
 30
0.0
 10
8.949935413622674
 20
7.981017398578949
 30
0.0
  0
SPLINE
  5
9C
330
1F
100
AcDbEntity
  8
외형선
  6
Continuous
370
    15
100
AcDbSpline
210
0.0
220
0.0
230
1.0
 70
     8
 71
     3
 72
     9
 73
     5
 74
     0
 42
0.000000001
 43
0.00000001
 40
0.0
 40
0.0
 40
0.0
 40
0.0
 40
0.5003342574920766
 40
1.0
 40
1.0
 40
1.0
 40
1.0
 10
8.931616655364017
 20
-7.515836549150406
 30
0.0
 10
9.443375738601135
 20
-7.496846160231409
 30
0.0
 10
10.46621012496179
 20
-7.458890756149776
 30
0.0
 10
11.48896461722169
 20
-7.446935855605835
 30
0.0
 10
12.00000000000005
 20
-7.44096240134894
 30
0.0
  0
SPLINE
  5
9D
330
1F
100
AcDbEntity
  8
0
  6
Continuous
 62
     1
370
    15
100
AcDbSpline
210
0.0
220
0.0
230
1.0
 70
     8
 71
     3
 72
    10
 73
     6
 74
     0
 42
0.000000001
 43
0.00000001
 40
0.0
 40
0.0
 40
0.0
 40
0.0
 40
0.4242458144893579
 40
0.5976841977098445
 40
1.0
 40
1.0
 40
1.0
 40
1.0
 10
20.66103098374394
 20
2.440730809549039
 30
0.0
 10
20.28769546462961
 20
2.618474483349051
 30
0.0
 10
19.76173449436756
 20
2.868882575650514
 30
0.0
 10
18.87916675351257
 20
3.310822907247574
 30
0.0
 10
18.37221578273909
 20
3.576653838744439
 30
0.0
 10
18.01797713079145
 20
3.762406695033009
 30
0.0
  0
SPLINE
  5
9E
330
1F
100
AcDbEntity
  8
0
  6
Continuous
 62
     1
370
    15
100
AcDbSpline
210
0.0
220
0.0
230
1.0
 70
     8
 71
     3
 72
    14
 73
    10
 74
     0
 42
0.000000001
 43
0.00000001
 40
0.0
 40
0.0
 40
0.0
 40
0.0
 40
0.1078389044356542
 40
0.2123600554852848
 40
0.3207929027768083
 40
0.4398516330134553
 40
0.6125522528547804
 40
0.7989358311355259
 40
0.9999999999999999
 40
0.9999999999999999
 40
0.9999999999999999
 40
0.9999999999999999
 10
17.51259278887342
 20
7.568938423988498
 30
0.0
 10
17.36628113979642
 20
7.559794832618622
 30
0.0
 10
17.07815924094428
 20
7.541788960055251
 30
0.0
 10
16.51619172395137
 20
7.506276453031873
 30
0.0
 10
15.88339567734517
 20
7.480769102482732
 30
0.0
 10
15.11202179440181
 20
7.465698918817459
 30
0.0
 10
14.19446350953216
 20
7.449513523909733
 30
0.0
 10
13.11529913550913
 20
7.436809001710323
 30
0.0
 10
12.38104019241765
 20
7.439543398906364
 30
0.0
 10
12.00000000000001
 20
7.440962401348935
 30
0.0
  0
SPLINE
  5
9F
330
1F
100
AcDbEntity
  8
0
  6
Continuous
 62
     1
370
    15
100
AcDbSpline
210
0.0
220
0.0
230
1.0
 70
     8
 71
     3
 72
    37
 73
    33
 74
     0
 42
0.000000001
 43
0.00000001
 40
0.0
 40
0.0
 40
0.0
 40
0.0
 40
0.0482832565825038
 40
0.0871154616253079
 40
0.1172505988046712
 40
0.1422120839975747
 40
0.1633256170299832
 40
0.1822653163727942
 40
0.209240661597048
 40
0.2418268190301738
 40
0.2719017081023629
 40
0.2958575650705848
 40
0.324263824567067
 40
0.3611083828202035
 40
0.39727566928459
 40
0.4250716664939152
 40
0.4549053299131675
 40
0.4928269474487827
 40
0.5301722493277032
 40
0.5593557313485579
 40
0.5954890116539521
 40
0.637197585576073
 40
0.6698222744772204
 40
0.700832306548245
 40
0.7416855789071828
 40
0.7805901159434163
 40
0.8108011597076837
 40
0.8456655833985971
 40
0.8707726740983704
 40
0.9044867341766148
 40
0.9475775550732854
 40
1.0
 40
1.0
 40
1.0
 40
1.0
 10
41.79893020161069
 20
6.514649759161231
 30
0.0
 10
41.54413161867884
 20
6.493320162421652
 30
0.0
 10
41.08440918600378
 20
6.454836062595553
 30
0.0
 10
40.43847774733443
 20
6.409258034631357
 30
0.0
 10
39.89976110533431
 20
6.377366018615252
 30
0.0
 10
39.4644414723581
 20
6.353756046671889
 30
0.0
 10
39.09631274563284
 20
6.335818757120885
 30
0.0
 10
38.73337214123124
 20
6.320262513570437
 30
0.0
 10
38.30016865949487
 20
6.30401147001771
 30
0.0
 10
37.80294678192381
 20
6.289184026788872
 30
0.0
 10
37.32199303502335
 20
6.278681196596811
 30
0.0
 10
36.86409700170598
 20
6.27185125620912
 30
0.0
 10
36.36837370080214
 20
6.267788005354875
 30
0.0
 10
35.80549150919123
 20
6.267924217525089
 30
0.0
 10
35.24582780011431
 20
6.273325801650638
 30
0.0
 10
34.72476438182451
 20
6.282623959707561
 30
0.0
 10
34.19391211861966
 20
6.296015652336387
 30
0.0
 10
33.61024186572735
 20
6.315795648163136
 30
0.0
 10
33.03046594341919
 20
6.34109553583129
 30
0.0
 10
32.46037134515328
 20
6.370743290668403
 30
0.0
 10
31.86597670471977
 20
6.406468212391513
 30
0.0
 10
31.25230389805087
 20
6.449268053957192
 30
0.0
 10
30.66724130747266
 20
6.495446992940844
 30
0.0
 10
30.08733737132585
 20
6.545839810525603
 30
0.0
 10
29.47205509558081
 20
6.604669304489501
 30
0.0
 10
28.8614976382086
 20
6.6686583837351
 30
0.0
 10
28.29026370153475
 20
6.732971422738973
 30
0.0
 10
27.78359795543636
 20
6.793921502470097
 30
0.0
 10
27.25559690681874
 20
6.860996702812352
 30
0.0
 10
26.6889020945889
 20
6.937088999537544
 30
0.0
 10
25.97384082840762
 20
7.038320589672569
 30
0.0
 10
25.44723293430681
 20
7.1195149898579
 30
0.0
 10
25.15820425239033
 20
7.164078527031298
 30
0.0
  0
SPLINE
  5
A0
330
1F
100
AcDbEntity
  8
0
  6
Continuous
 62
     1
370
    15
100
AcDbSpline
210
0.0
220
0.0
230
1.0
 70
     8
 71
     3
 72
    19
 73
    15
 74
     0
 42
0.000000001
 43
0.00000001
 40
0.0
 40
0.0
 40
0.0
 40
0.0
 40
0.1169704425174804
 40
0.2107745238444578
 40
0.2896642715093695
 40
0.3587972918539666
 40
0.4297131635882971
 40
0.5235528827573055
 40
0.619130236091666
 40
0.7031374403123312
 40
0.8017730812224061
 40
0.9063298053784306
 40
0.9928825201897499
 40
1.0
 40
1.0
 40
1.0
 40
1.0
 10
25.15820425239033
 20
-7.1640785270313
 30
0.0
 10
25.4114999810232
 20
-7.124191588016224
 30
0.0
 10
25.86792542872936
 20
-7.052317442740085
 30
0.0
 10
26.56836126959474
 20
-6.952161978588597
 30
0.0
 10
27.15477504270994
 20
-6.874518720969564
 30
0.0
 10
27.68573524023409
 20
-6.805967277136627
 30
0.0
 10
28.23350360866141
 20
-6.739578817307041
 30
0.0
 10
28.85080042302265
 20
-6.66950750802793
 30
0.0
 10
29.49802848766508
 20
-6.602153530288115
 30
0.0
 10
30.15779731751979
 20
-6.53930603427567
 30
0.0
 10
30.83816458385963
 20
-6.480762735898903
 30
0.0
 10
31.52435020869028
 20
-6.429971624032282
 30
0.0
 10
31.99441746912562
 20
-6.397973494733919
 30
0.0
 10
32.21637957828767
 20
-6.385793652240576
 30
0.0
 10
32.23324525084216
 20
-6.384868173400817
 30
0.0
  0
SPLINE
  5
A1
330
1F
100
AcDbEntity
  8
0
  6
Continuous
 62
     1
370
    15
100
AcDbSpline
210
0.0
220
0.0
230
1.0
 70
     8
 71
     3
 72
    15
 73
    11
 74
     0
 42
0.000000001
 43
0.00000001
 40
0.0
 40
0.0
 40
0.0
 40
0.0
 40
0.1223603622367958
 40
0.2313424828609451
 40
0.3272679227129617
 40
0.412506721440798
 40
0.5153208033588468
 40
0.6470893448718303
 40
0.808813800525783
 40
1.0
 40
1.0
 40
1.0
 40
1.0
 10
12.00000000000001
 20
-7.440962401348938
 30
0.0
 10
12.22242916250402
 20
-7.439762561507834
 30
0.0
 10
12.64296824700572
 20
-7.437494066034286
 30
0.0
 10
13.24799702863763
 20
-7.439778882352805
 30
0.0
 10
13.79011364703562
 20
-7.445285677388115
 30
0.0
 10
14.32305240501867
 20
-7.452840499780651
 30
0.0
 10
14.92109680186962
 20
-7.464761036128035
 30
0.0
 10
15.65025720382935
 20
-7.485971994370877
 30
0.0
 10
16.53233147556424
 20
-7.519336350893947
 30
0.0
 10
17.1681459621772
 20
-7.551509115657136
 30
0.0
 10
17.51259278887341
 20
-7.568938423988499
 30
0.0
  0
SPLINE
  5
A2
330
1F
100
AcDbEntity
  8
외형선
  6
Continuous
370
    15
100
AcDbSpline
210
0.0
220
0.0
230
1.0
 70
     8
 71
     3
 72
    10
 73
     6
 74
     0
 42
0.000000001
 43
0.00000001
 40
0.0
 40
0.0
 40
0.0
 40
0.0
 40
0.5000000000000001
 40
0.5000000000000001
 40
1.0
 40
1.0
 40
1.0
 40
1.0
 10
12.00000000000001
 20
6.636407126728128
 30
0.0
 10
11.49301731981
 20
6.846752947299529
 30
0.0
 10
10.98542973413893
 20
7.047746400637037
 30
0.0
 10
9.966656091887211
 20
7.429534210898053
 30
0.0
 10
9.45684552498964
 20
7.610134726774277
 30
0.0
 10
8.949867857151808
 20
7.77933744675429
 30
0.0
  0
LINE
  5
A3
330
1F
100
AcDbEntity
  8
외형선
  6
Continuous
370
    15
100
AcDbLine
 10
12.00000000000001
 20
6.636407126728125
 30
0.0
 11
12.00000000000001
 21
4.491270090970854
 31
0.0
  0
SPLINE
  5
A4
330
1F
100
AcDbEntity
  8
외형선
  6
Continuous
370
    15
100
AcDbSpline
210
0.0
220
0.0
230
1.0
 70
     8
 71
     3
 72
    10
 73
     6
 74
     0
 42
0.000000001
 43
0.00000001
 40
0.0
 40
0.0
 40
0.0
 40
0.0
 40
0.5000000000000001
 40
0.5000000000000001
 40
1.0
 40
1.0
 40
1.0
 40
1.0
 10
8.949935413622667
 20
5.958807453621212
 30
0.0
 10
9.456902073217943
 20
5.730046759401234
 30
0.0
 10
9.966701362503239
 20
5.492371593159546
 30
0.0
 10
10.98545234100343
 20
5.002156727938816
 30
0.0
 10
11.49302857933034
 20
4.749854700143803
 30
0.0
 10
12.00000000000001
 20
4.491270090970853
 30
0.0
  0
LINE
  5
A5
330
1F
100
AcDbEntity
  8
외형선
  6
Continuous
370
    15
100
AcDbLine
 10
9.777890974320519
 20
-7.488020371474991
 30
0.0
 11
8.949867857151808
 21
-7.779337446754292
 31
0.0
  0
LINE
  5
A6
330
1F
100
AcDbEntity
  8
외형선
  6
Continuous
370
    15
100
AcDbLine
 10
8.949935413622674
 20
7.779572988626875
 30
0.0
 11
8.949935413622674
 21
9.525
 31
0.0
  0
LINE
  5
A7
330
1F
100
AcDbEntity
  8
외형선
  6
Continuous
370
    15
100
AcDbLine
 10
-44.14999999999998
 20
9.524999999999993
 30
0.0
 11
-44.14999999999998
 21
-9.525000000000011
 31
0.0
  0
LINE
  5
A8
330
1F
100
AcDbEntity
  8
외형선
  6
Continuous
370
    15
100
AcDbLine
 10
8.949935413622674
 20
-9.525
 30
0.0
 11
8.949935413622667
 21
5.958807758093854
 31
0.0
  0
LINE
  5
A9
330
1F
100
AcDbEntity
  8
외형선
  6
Continuous
370
    15
100
AcDbLine
 10
-45.14999999999999
 20
8.524999999999993
 30
0.0
 11
-45.14999999999999
 21
-8.525000000000011
 31
0.0
  0
SPLINE
  5
AA
330
1F
100
AcDbEntity
  8
외형선
  6
Continuous
370
    15
100
AcDbSpline
210
0.0
220
0.0
230
1.0
 70
    24
 71
     3
 72
    10
 73
     6
 74
     0
 42
0.000000001
 43
0.00000001
 40
0.0
 40
0.0
 40
0.0
 40
0.0
 40
0.4999999999999999
 40
0.4999999999999999
 40
1.0
 40
1.0
 40
1.0
 40
1.0
 10
12.00000000000001
 20
4.491270090970855
 30
0.0
 10
12.00000000000001
 20
4.393734757633735
 30
0.0
 10
12.00000000000001
 20
4.196630948229541
 30
0.0
 10
12.00000000000001
 20
3.641432750666214
 30
0.0
 10
12.00000000000001
 20
3.285430923391351
 30
0.0
 10
12.00000000000001
 20
2.899542126467244
 30
0.0
  0
SPLINE
  5
AB
330
1F
100
AcDbEntity
  8
외형선
  6
Continuous
370
    15
100
AcDbSpline
210
0.0
220
0.0
230
1.0
 70
     8
 71
     3
 72
    10
 73
     6
 74
     0
 42
0.000000001
 43
0.00000001
 40
0.0
 40
0.0
 40
0.0
 40
0.0
 40
0.5
 40
0.5
 40
1.0
 40
1.0
 40
1.0
 40
1.0
 10
12.0
 20
2.899542126467245
 30
0.0
 10
11.49302586511329
 20
3.084377749805825
 30
0.0
 10
10.98544689139888
 20
3.265164481679914
 30
0.0
 10
9.966690449580211
 20
3.617337421339816
 30
0.0
 10
9.456888441715856
 20
3.788553794792435
 30
0.0
 10
8.949919128474312
 20
3.953830027475293
 30
0.0
  0
SPLINE
  5
AC
330
1F
100
AcDbEntity
  8
외형선
  6
Continuous
370
    15
100
AcDbSpline
210
0.0
220
0.0
230
1.0
 70
     8
 71
     3
 72
    10
 73
     6
 74
     0
 42
0.000000001
 43
0.00000001
 40
0.0
 40
0.0
 40
0.0
 40
0.0
 40
0.5
 40
0.5
 40
1.0
 40
1.0
 40
1.0
 40
1.0
 10
12.0
 20
-6.861732912018293
 30
0.0
 10
11.49302446592991
 20
-6.759717360358614
 30
0.0
 10
10.98544408211865
 20
-6.647904421351387
 30
0.0
 10
9.966684823950366
 20
-6.405373026783973
 30
0.0
 10
9.456881414654202
 20
-6.274746872075884
 30
0.0
 10
8.949910733454164
 20
-6.135638306853292
 30
0.0
  0
SPLINE
  5
AD
330
1F
100
AcDbEntity
  8
외형선
  6
Continuous
370
    15
100
AcDbSpline
210
0.0
220
0.0
230
1.0
 70
    24
 71
     3
 72
    14
 73
    10
 74
     0
 42
0.000000001
 43
0.00000001
 40
0.0
 40
0.0
 40
0.0
 40
0.0
 40
0.25
 40
0.25
 40
0.5
 40
0.5
 40
0.75
 40
0.75
 40
1.0
 40
1.0
 40
1.0
 40
1.0
 10
12.0
 20
2.899542126467249
 30
0.0
 10
12.0
 20
2.079037481627663
 30
0.0
 10
12.0
 20
1.208066268783554
 30
0.0
 10
12.0
 20
-0.5619603268145822
 30
0.0
 10
12.0
 20
-1.460209842326089
 30
0.0
 10
12.0
 20
-3.195069845060181
 30
0.0
 10
12.0
 20
-4.030755926341903
 30
0.0
 10
12.0
 20
-5.562395622874678
 30
0.0
 10
12.0
 20
-6.257878198145708
 30
0.0
 10
12.0
 20
-6.861732912018292
 30
0.0
  0
SPLINE
  5
AE
330
1F
100
AcDbEntity
  8
외형선
  6
Continuous
370
    15
100
AcDbSpline
210
0.0
220
0.0
230
1.0
 70
    24
 71
     3
 72
    11
 73
     7
 74
     0
 42
0.000000001
 43
0.00000001
 40
0.0
 40
0.0
 40
0.0
 40
0.0
 40
0.1572099217257134
 40
0.3838467849392603
 40
0.6104836481528073
 40
1.0
 40
1.0
 40
1.0
 40
1.0
 10
12.00000000000001
 20
7.433523786671736
 30
0.0
 10
12.00000000000001
 20
7.432975570175214
 30
0.0
 10
12.0
 20
7.431637034176144
 30
0.0
 10
12.00000000000001
 20
7.340967961256574
 30
0.0
 10
12.00000000000002
 20
7.14280841674417
 30
0.0
 10
12.00000000000002
 20
6.872039675202683
 30
0.0
 10
12.00000000000001
 20
6.700866580878898
 30
0.0
  0
SPLINE
  5
AF
330
1F
100
AcDbEntity
  8
외형선
  6
Continuous
370
    15
100
AcDbSpline
210
0.0
220
0.0
230
1.0
 70
    24
 71
     3
 72
    11
 73
     7
 74
     0
 42
0.000000001
 43
0.00000001
 40
0.0
 40
0.0
 40
0.0
 40
0.0
 40
0.3377021187946903
 40
0.6797963511022184
 40
0.928700371941048
 40
1.0
 40
1.0
 40
1.0
 40
1.0
 10
12.00000000000001
 20
-6.861732912018293
 30
0.0
 10
12.00000000000001
 20
-6.979237694657936
 30
0.0
 10
12.00000000000001
 20
-7.215775513137104
 30
0.0
 10
12.00000000000002
 20
-7.380160900254522
 30
0.0
 10
12.00000000000001
 20
-7.445321608726232
 30
0.0
 10
12.00000000000001
 20
-7.435668965287478
 30
0.0
 10
12.00000000000001
 20
-7.433519614743417
 30
0.0
  0
SPLINE
  5
B0
330
1F
100
AcDbEntity
  8
0
  6
Continuous
 62
     1
370
    15
100
AcDbSpline
210
0.0
220
0.0
230
1.0
 70
     8
 71
     3
 72
    50
 73
    46
 74
     0
 42
0.000000001
 43
0.00000001
 40
0.0
 40
0.0
 40
0.0
 40
0.0
 40
0.0625
 40
0.0625
 40
0.125
 40
0.125
 40
0.1562499999999998
 40
0.1562499999999998
 40
0.1874999999999997
 40
0.1874999999999997
 40
0.2499999999999996
 40
0.2499999999999996
 40
0.2812499999999996
 40
0.2812499999999996
 40
0.3124999999999996
 40
0.3124999999999996
 40
0.3437499999999996
 40
0.3437499999999996
 40
0.3749999999999996
 40
0.3749999999999996
 40
0.4374999999999994
 40
0.4374999999999994
 40
0.4687499999999996
 40
0.4687499999999996
 40
0.4999999999999997
 40
0.4999999999999997
 40
0.5312499999999998
 40
0.5312499999999998
 40
0.5624999999999999
 40
0.5624999999999999
 40
0.6250000000000001
 40
0.6250000000000001
 40
0.6562500000000001
 40
0.6562500000000001
 40
0.6875000000000001
 40
0.6875000000000001
 40
0.7500000000000001
 40
0.7500000000000001
 40
0.8125000000000001
 40
0.8125000000000001
 40
0.875
 40
0.875
 40
0.9375
 40
0.9375
 40
1.0
 40
1.0
 40
1.0
 40
1.0
 10
12.00000000000001
 20
4.491270090970855
 30
0.0
 10
12.69264063678997
 20
4.137983493227246
 30
0.0
 10
13.39056643165652
 20
3.771836719246188
 30
0.0
 10
14.78035838756626
 20
3.022481861255948
 30
0.0
 10
15.47144097334924
 20
2.639467690581624
 30
0.0
 10
16.51532041260928
 20
2.054620466080809
 30
0.0
 10
16.86348620042158
 20
1.858134615124137
 30
0.0
 10
17.55814823495204
 20
1.463269168920805
 30
0.0
 10
17.90363448460374
 20
1.265084051527096
 30
0.0
 10
18.94369100818417
 20
0.6677216974141061
 30
0.0
 10
19.64173927972872
 20
0.2657472689551083
 30
0.0
 10
20.68334787599233
 20
-0.3356294864151086
 30
0.0
 10
21.02868646742295
 20
-0.5356400020031287
 30
0.0
 10
21.72238935918979
 20
-0.9352663710115503
 30
0.0
 10
22.07033332770453
 20
-1.13480033558199
 30
0.0
 10
22.76632922941958
 20
-1.532112710561763
 30
0.0
 10
23.11437977822506
 20
-1.729890329946492
 30
0.0
 10
23.80850687266861
 20
-2.122511812459678
 30
0.0
 10
24.15378492858827
 20
-2.317208904745666
 30
0.0
 10
25.19480369448019
 20
-2.897269094498505
 30
0.0
 10
25.89288354739108
 20
-3.278029425516209
 30
0.0
 10
26.93362278030127
 20
-3.833445566334063
 30
0.0
 10
27.27892742991091
 20
-4.015880011753574
 30
0.0
 10
27.97322726886987
 20
-4.375821186279059
 30
0.0
 10
28.32131776801273
 20
-4.553163529524094
 30
0.0
 10
29.01729993226967
 20
-4.901516989889949
 30
0.0
 10
29.36519021317991
 20
-5.072527418933502
 30
0.0
 10
30.05869315883153
 20
-5.407217354493023
 30
0.0
 10
30.40411152848059
 20
-5.570875253316297
 30
0.0
 10
31.44595879746913
 20
-6.051301578353253
 30
0.0
 10
32.14397932267438
 20
-6.356816515377084
 30
0.0
 10
33.18371557307966
 20
-6.787522766537031
 30
0.0
 10
33.52933477692438
 20
-6.926555960965923
 30
0.0
 10
34.2241422801358
 20
-7.195708866730069
 30
0.0
 10
34.57233426376073
 20
-7.325688351220495
 30
0.0
 10
35.61615189334221
 20
-7.700647492998471
 30
0.0
 10
36.30708083140501
 20
-7.93022596268597
 30
0.0
 10
37.69713640045152
 20
-8.346977608039536
 30
0.0
 10
38.39500671472822
 20
-8.533902825569738
 30
0.0
 10
39.77980682035401
 20
-8.860566040600826
 30
0.0
 10
40.4755206011199
 20
-9.001029193618614
 30
0.0
 10
41.86689002676955
 20
-9.233312409901702
 30
0.0
 10
42.55751432277544
 20
-9.324952979381866
 30
0.0
 10
43.94831657685819
 20
-9.458655723668988
 30
0.0
 10
44.64594586241805
 20
-9.500490630744101
 30
0.0
 10
45.33750000000002
 20
-9.524999999999995
 30
0.0
  0
SPLINE
  5
B1
330
1F
100
AcDbEntity
  8
0
  6
Continuous
 62
     1
370
    15
100
AcDbSpline
210
0.0
220
0.0
230
1.0
 70
     8
 71
     3
 72
    11
 73
     7
 74
     0
 42
0.000000001
 43
0.00000001
 40
0.0
 40
0.0
 40
0.0
 40
0.0
 40
0.0604864968026033
 40
0.3742715584191583
 40
0.6871360050383505
 40
1.0
 40
1.0
 40
1.0
 40
1.0
 10
21.6635960000535
 20
-0.8999147387876606
 30
0.0
 10
21.46875690670644
 20
-0.8228704526669903
 30
0.0
 10
20.26315342555325
 20
-0.3461444632651096
 30
0.0
 10
18.04975090859653
 20
0.5581329461793012
 30
0.0
 10
15.02339188418699
 20
1.770568941290645
 30
0.0
 10
13.00779680976958
 20
2.523217912498426
 30
0.0
 10
12.00000000000002
 20
2.89954212646724
 30
0.0
  0
SPLINE
  5
B2
330
1F
100
AcDbEntity
  8
외형선
  6
Continuous
370
    15
100
AcDbSpline
210
0.0
220
0.0
230
1.0
 70
    24
 71
     3
 72
    10
 73
     6
 74
     0
 42
0.000000001
 43
0.00000001
 40
0.0
 40
0.0
 40
0.0
 40
0.0
 40
0.4999999999999999
 40
0.4999999999999999
 40
1.0
 40
1.0
 40
1.0
 40
1.0
 10
12.00000000000001
 20
4.491270090970855
 30
0.0
 10
12.00000000000001
 20
4.393734757633735
 30
0.0
 10
12.00000000000001
 20
4.196630948229541
 30
0.0
 10
12.00000000000001
 20
3.641432750666214
 30
0.0
 10
12.00000000000001
 20
3.285430923391351
 30
0.0
 10
12.00000000000001
 20
2.899542126467244
 30
0.0
  0
SPLINE
  5
B3
330
1F
100
AcDbEntity
  8
0
  6
Continuous
 62
     1
370
    15
100
AcDbSpline
210
0.0
220
0.0
230
1.0
 70
     8
 71
     3
 72
    50
 73
    46
 74
     0
 42
0.000000001
 43
0.00000001
 40
0.0
 40
0.0
 40
0.0
 40
0.0
 40
0.0625000000000002
 40
0.0625000000000002
 40
0.1250000000000003
 40
0.1250000000000003
 40
0.1875000000000004
 40
0.1875000000000004
 40
0.2500000000000006
 40
0.2500000000000006
 40
0.3125000000000008
 40
0.3125000000000008
 40
0.343750000000001
 40
0.343750000000001
 40
0.3750000000000012
 40
0.3750000000000012
 40
0.4375000000000014
 40
0.4375000000000014
 40
0.4687500000000015
 40
0.4687500000000015
 40
0.5000000000000014
 40
0.5000000000000014
 40
0.5312500000000014
 40
0.5312500000000014
 40
0.5625000000000013
 40
0.5625000000000013
 40
0.6250000000000012
 40
0.6250000000000012
 40
0.656250000000001
 40
0.656250000000001
 40
0.6875000000000009
 40
0.6875000000000009
 40
0.7187500000000008
 40
0.7187500000000008
 40
0.7500000000000006
 40
0.7500000000000006
 40
0.8125000000000004
 40
0.8125000000000004
 40
0.8437500000000004
 40
0.8437500000000004
 40
0.8750000000000003
 40
0.8750000000000003
 40
0.9375000000000002
 40
0.9375000000000002
 40
1.0
 40
1.0
 40
1.0
 40
1.0
 10
45.33750000000002
 20
-9.038661779433847
 30
0.0
 10
44.64594586241799
 20
-8.912351113052416
 30
0.0
 10
43.94831657685806
 20
-8.76161682443506
 30
0.0
 10
42.5575143227752
 20
-8.414633241713236
 30
0.0
 10
41.86689002676927
 20
-8.218730647730611
 30
0.0
 10
40.47552060111951
 20
-7.783360776025846
 30
0.0
 10
39.77980682035356
 20
-7.54433157693412
 30
0.0
 10
38.39500671472764
 20
-7.028341605424165
 30
0.0
 10
37.69713640045089
 20
-6.750262630258609
 30
0.0
 10
36.30708083140426
 20
-6.160426206301466
 30
0.0
 10
35.61615189334139
 20
-5.848945063899288
 30
0.0
 10
34.57233426375983
 20
-5.358546435162994
 30
0.0
 10
34.22414228013487
 20
-5.191362542071113
 30
0.0
 10
33.52933477692341
 20
-4.850570119486799
 30
0.0
 10
33.18371557307866
 20
-4.677132827914842
 30
0.0
 10
32.14397932267328
 20
-4.147384825941721
 30
0.0
 10
31.44595879746797
 20
-3.78140148850362
 30
0.0
 10
30.40411152847935
 20
-3.219710796508508
 30
0.0
 10
30.05869315883028
 20
-3.030555200823901
 30
0.0
 10
29.36519021317858
 20
-2.647990816262012
 30
0.0
 10
29.0172999322683
 20
-2.454612399272887
 30
0.0
 10
28.3213177680113
 20
-2.064806642576725
 30
0.0
 10
27.97322726886843
 20
-1.868380075898964
 30
0.0
 10
27.27892742990941
 20
-1.473660386629766
 30
0.0
 10
26.93362278029975
 20
-1.275541932463073
 30
0.0
 10
25.89288354738946
 20
-0.6781235836125369
 30
0.0
 10
25.19480369447851
 20
-0.2761645376378442
 30
0.0
 10
24.15378492858651
 20
0.3251077793768866
 30
0.0
 10
23.80850687266681
 20
0.5251167276418519
 30
0.0
 10
23.1143797782232
 20
0.9248583531888451
 30
0.0
 10
22.76632922941771
 20
1.124436396001088
 30
0.0
 10
22.07033332770259
 20
1.521810076010793
 30
0.0
 10
21.72238935918783
 20
1.719604923496487
 30
0.0
 10
21.02868646742093
 20
2.112235548108623
 30
0.0
 10
20.68334787599028
 20
2.306995824598519
 30
0.0
 10
19.64173927972658
 20
2.887339680707228
 30
0.0
 10
18.94369100818198
 20
3.268234379044409
 30
0.0
 10
17.90363448460146
 20
3.823782762088878
 30
0.0
 10
17.55814823494973
 20
4.006340854340288
 30
0.0
 10
16.86348620041921
 20
4.36653871590185
 30
0.0
 10
16.51532041260687
 20
4.543996439054641
 30
0.0
 10
15.47144097334676
 20
5.066837968311423
 30
0.0
 10
14.78035838756372
 20
5.402048922973447
 30
0.0
 10
13.39056643165386
 20
6.043249328288359
 30
0.0
 10
12.69264063678725
 20
6.349032293624399
 30
0.0
 10
11.99999999999724
 20
6.636407126729276
 30
0.0
  0
SPLINE
  5
B4
330
1F
100
AcDbEntity
  8
0
  6
Continuous
 62
     1
370
    15
100
AcDbSpline
210
0.0
220
0.0
230
1.0
 70
     8
 71
     3
 72
    18
 73
    14
 74
     0
 42
0.000000001
 43
0.00000001
 40
0.0
 40
0.0
 40
0.0
 40
0.0
 40
0.0920212318391545
 40
0.1839550789556547
 40
0.2758918219278211
 40
0.3679209854417003
 40
0.4599339268346178
 40
0.5518652487995699
 40
0.6438052582076123
 40
0.7358412685214483
 40
0.8278462867931098
 40
0.9197754544186927
 40
1.0
 40
1.0
 40
1.0
 40
1.0
 10
45.33750000000002
 20
-7.514960818107256
 30
0.0
 10
44.57900710989509
 20
-7.362781729991682
 30
0.0
 10
43.06274160575106
 20
-7.058568065273189
 30
0.0
 10
40.78916154979049
 20
-6.429772429220753
 30
0.0
 10
38.51551419409071
 20
-5.689103523881811
 30
0.0
 10
36.24067671238916
 20
-4.83832344794987
 30
0.0
 10
33.96600213434746
 20
-3.896380417212965
 30
0.0
 10
31.69248479333818
 20
-2.879850234069798
 30
0.0
 10
29.41876865106475
 20
-1.80871193974021
 30
0.0
 10
27.14386548600803
 20
-0.7037930841014501
 30
0.0
 10
24.86926361736329
 20
0.4136785765112383
 30
0.0
 10
22.69241067903933
 20
1.480790779882036
 30
0.0
 10
21.27362909973461
 20
2.149547960087485
 30
0.0
 10
20.61246934105974
 20
2.46119236140076
 30
0.0
  0
LINE
  5
B5
330
1F
100
AcDbEntity
  8
0
  6
Continuous
 62
     1
370
    15
100
AcDbLine
 10
45.33750000000002
 20
-9.038661779433848
 30
0.0
 11
45.33750000000002
 21
-7.514960818107256
 31
0.0
  0
LINE
  5
B6
330
1F
100
AcDbEntity
  8
0
  6
Continuous
 62
     1
370
    15
100
AcDbLine
 10
45.33750000000002
 20
-9.524999999999999
 30
0.0
 11
45.33750000000002
 21
-9.038661779433848
 31
0.0
  0
SPLINE
  5
B7
330
1F
100
AcDbEntity
  8
0
  6
Continuous
 62
     1
370
    15
100
AcDbSpline
210
0.0
220
0.0
230
1.0
 70
     8
 71
     3
 72
    12
 73
     8
 74
     0
 42
0.000000001
 43
0.00000001
 40
0.0
 40
0.0
 40
0.0
 40
0.0
 40
0.5000000000000011
 40
0.5000000000000011
 40
0.7500000000000006
 40
0.7500000000000006
 40
1.0
 40
1.0
 40
1.0
 40
1.0
 10
45.33750000000002
 20
-2.545489060932364
 30
0.0
 10
44.47929496967377
 20
-1.870798261156447
 30
0.0
 10
43.63323740577396
 20
-1.17267716032445
 30
0.0
 10
42.38242402574462
 20
-0.0902502097417887
 30
0.0
 10
41.96857042667415
 20
0.2765076356954149
 30
0.0
 10
41.14748841918657
 20
1.022802140366348
 30
0.0
 10
40.73888535338717
 20
1.403657852354439
 30
0.0
 10
40.33750000000001
 20
1.788486169330864
 30
0.0
  0
LINE
  5
B8
330
1F
100
AcDbEntity
  8
0
  6
Continuous
 62
     1
370
    15
100
AcDbLine
 10
40.33750000000001
 20
2.937719435296591
 30
0.0
 11
45.33750000000002
 21
0.0000000000000033
 31
0.0
  0
LINE
  5
B9
330
1F
100
AcDbEntity
  8
0
  6
Continuous
 62
     1
370
    15
100
AcDbLine
 10
45.33750000000002
 20
0.0000000000000033
 30
0.0
 11
45.33750000000002
 21
-2.545489060932365
 31
0.0
  0
SPLINE
  5
BA
330
1F
100
AcDbEntity
  8
0
  6
Continuous
 62
     1
370
    15
100
AcDbSpline
210
0.0
220
0.0
230
1.0
 70
     8
 71
     3
 72
    18
 73
    14
 74
     0
 42
0.000000001
 43
0.00000001
 40
0.0
 40
0.0
 40
0.0
 40
0.0
 40
0.0896855708166722
 40
0.1794928198122961
 40
0.2791617176431004
 40
0.3787409697104921
 40
0.4783297658558034
 40
0.5780240062116857
 40
0.6776841999624428
 40
0.7772610854304024
 40
0.876853877238419
 40
0.9765544465413573
 40
1.0
 40
1.0
 40
1.0
 40
1.0
 10
40.33750000000001
 20
2.273962504588734
 30
0.0
 10
39.65523440223485
 20
2.571610735489857
 30
0.0
 10
38.28977756354099
 20
3.167311022504726
 30
0.0
 10
36.16552670870927
 20
4.032321483435573
 30
0.0
 10
33.96602870867705
 20
4.861233303205765
 30
0.0
 10
31.6925004080347
 20
5.625804977528611
 30
0.0
 10
29.4187677462316
 20
6.283778962238206
 30
0.0
 10
27.14389142532259
 20
6.822210456851828
 30
0.0
 10
24.86931228072471
 20
7.230763209313664
 30
0.0
 10
22.59582477204184
 20
7.504957438062923
 30
0.0
 10
20.32205955645198
 20
7.626486440121774
 30
0.0
 10
18.62694924724543
 20
7.637596136994996
 30
0.0
 10
17.6900048572622
 20
7.570696976535064
 30
0.0
 10
17.51162181693167
 20
7.557960174046054
 30
0.0
  0
SPLINE
  5
BB
330
1F
100
AcDbEntity
  8
0
  6
Continuous
 62
     1
370
    15
100
AcDbSpline
210
0.0
220
0.0
230
1.0
 70
    24
 71
     3
 72
     8
 73
     4
 74
     0
 42
0.000000001
 43
0.00000001
 40
0.0
 40
0.0
 40
0.0
 40
0.0
 40
1.0
 40
1.0
 40
1.0
 40
1.0
 10
40.33750000000001
 20
1.788486169330774
 30
0.0
 10
40.33750000000001
 20
1.951691093477691
 30
0.0
 10
40.33750000000001
 20
2.113595766767041
 30
0.0
 10
40.33750000000001
 20
2.273962504588736
 30
0.0
  0
SPLINE
  5
BC
330
1F
100
AcDbEntity
  8
0
  6
Continuous
 62
     1
370
    15
100
AcDbSpline
210
0.0
220
0.0
230
1.0
 70
    24
 71
     3
 72
    10
 73
     6
 74
     0
 42
0.000000001
 43
0.00000001
 40
0.0
 40
0.0
 40
0.0
 40
0.0
 40
0.5
 40
0.5
 40
1.0
 40
1.0
 40
1.0
 40
1.0
 10
45.33750000000002
 20
-7.514960818107256
 30
0.0
 10
45.33750000000001
 20
-6.938880480261241
 30
0.0
 10
45.33750000000002
 20
-6.210980884209112
 30
0.0
 10
45.33750000000001
 20
-4.518684375910226
 30
0.0
 10
45.33750000000002
 20
-3.555753395063725
 30
0.0
 10
45.33750000000002
 20
-2.545489060932669
 30
0.0
  0
SPLINE
  5
BD
330
1F
100
AcDbEntity
  8
외형선
  6
Continuous
370
    15
100
AcDbSpline
210
0.0
220
0.0
230
1.0
 70
    24
 71
     3
 72
    11
 73
     7
 74
     0
 42
0.000000001
 43
0.00000001
 40
0.0
 40
0.0
 40
0.0
 40
0.0
 40
0.1579275178103912
 40
0.3843714104018606
 40
0.61081530299333
 40
1.0
 40
1.0
 40
1.0
 40
1.0
 10
12.00000000000002
 20
7.43358332138054
 30
0.0
 10
12.00000000000002
 20
7.433041544521265
 30
0.0
 10
12.00000000000002
 20
7.431722942554937
 30
0.0
 10
12.00000000000002
 20
7.340980169375181
 30
0.0
 10
12.00000000000002
 20
7.142802709069357
 30
0.0
 10
12.00000000000001
 20
6.872037464503718
 30
0.0
 10
12.00000000000001
 20
6.700866580878897
 30
0.0
  0
SPLINE
  5
BE
330
1F
100
AcDbEntity
  8
0
  6
Continuous
 62
     1
370
    15
100
AcDbSpline
210
0.0
220
0.0
230
1.0
 70
    24
 71
     3
 72
    10
 73
     6
 74
     0
 42
0.000000001
 43
0.00000001
 40
0.0
 40
0.0
 40
0.0
 40
0.0
 40
0.4999999999999999
 40
0.4999999999999999
 40
1.0
 40
1.0
 40
1.0
 40
1.0
 10
40.33750000000001
 20
2.273962504588738
 30
0.0
 10
40.33750000000001
 20
2.801767246870177
 30
0.0
 10
40.33750000000002
 20
3.304266617507634
 30
0.0
 10
40.33749999999999
 20
4.221095501631603
 30
0.0
 10
40.33750000000001
 20
4.63516056970896
 30
0.0
 10
40.33750000000001
 20
4.9891594832221
 30
0.0
  0
SPLINE
  5
BF
330
1F
100
AcDbEntity
  8
0
  6
Continuous
 62
     1
370
    15
100
AcDbSpline
210
0.0
220
0.0
230
1.0
 70
     8
 71
     3
 72
     9
 73
     5
 74
     0
 42
0.000000001
 43
0.00000001
 40
0.0
 40
0.0
 40
0.0
 40
0.0
 40
0.8559499426092196
 40
1.0
 40
1.0
 40
1.0
 40
1.0
 10
45.33750000000002
 20
6.6675
 30
0.0
 10
44.32672982964141
 20
6.661567882398502
 30
0.0
 10
43.14585450032315
 20
6.654637433190904
 30
0.0
 10
41.96497929470335
 20
6.518713588496516
 30
0.0
 10
41.79487415356247
 20
6.499133750867516
 30
0.0
  0
SPLINE
  5
C0
330
1F
100
AcDbEntity
  8
0
  6
Continuous
 62
     1
370
    15
100
AcDbSpline
210
0.0
220
0.0
230
1.0
 70
     8
 71
     3
 72
    10
 73
     6
 74
     0
 42
0.000000001
 43
0.00000001
 40
0.0
 40
0.0
 40
0.0
 40
0.0
 40
0.5
 40
0.5
 40
1.0
 40
1.0
 40
1.0
 40
1.0
 10
45.33750000000002
 20
6.667500000000004
 30
0.0
 10
44.49455417514778
 20
6.438941566832866
 30
0.0
 10
43.65592461786647
 20
6.186028406994866
 30
0.0
 10
41.98784462458523
 20
5.628489846077763
 30
0.0
 10
41.15924154135759
 20
5.324646660889367
 30
0.0
 10
40.3375
 20
4.989159483222098
 30
0.0
  0
SPLINE
  5
C1
330
1F
100
AcDbEntity
  8
0
  6
Continuous
 62
     1
370
    15
100
AcDbSpline
210
0.0
220
0.0
230
1.0
 70
     8
 71
     3
 72
    14
 73
    10
 74
     0
 42
0.000000001
 43
0.00000001
 40
0.0
 40
0.0
 40
0.0
 40
0.0
 40
0.0221815418831213
 40
0.1948860139235161
 40
0.3676180736520448
 40
0.5405370608514499
 40
0.6936980980847518
 40
0.8467238428791419
 40
1.0
 40
1.0
 40
1.0
 40
1.0
 10
25.16067196186678
 20
-7.156144597509173
 30
0.0
 10
25.06335788785374
 20
-7.173886709819523
 30
0.0
 10
24.20836087804307
 20
-7.329768098271525
 30
0.0
 10
22.59584812190666
 20
-7.495019980247102
 30
0.0
 10
20.32203289425408
 20
-7.634973371983393
 30
0.0
 10
18.13340068923741
 20
-7.618043125811341
 30
0.0
 10
16.03160197757145
 20
-7.477172632902002
 30
0.0
 10
14.01643973787278
 20
-7.236776467305916
 30
0.0
 10
12.6725128147657
 20
-6.986815547660206
 30
0.0
 10
12.0
 20
-6.861732912018292
 30
0.0
  0
SPLINE
  5
C2
330
1F
100
AcDbEntity
  8
외형선
  6
Continuous
370
    15
100
AcDbSpline
210
0.0
220
0.0
230
1.0
 70
    24
 71
     3
 72
    14
 73
    10
 74
     0
 42
0.000000001
 43
0.00000001
 40
0.0
 40
0.0
 40
0.0
 40
0.0
 40
0.25
 40
0.25
 40
0.5
 40
0.5
 40
0.75
 40
0.75
 40
1.0
 40
1.0
 40
1.0
 40
1.0
 10
12.0
 20
2.899542126467249
 30
0.0
 10
12.0
 20
2.079037481627663
 30
0.0
 10
12.0
 20
1.208066268783554
 30
0.0
 10
12.0
 20
-0.5619603268145822
 30
0.0
 10
12.0
 20
-1.460209842326089
 30
0.0
 10
12.0
 20
-3.195069845060181
 30
0.0
 10
12.0
 20
-4.030755926341903
 30
0.0
 10
12.0
 20
-5.562395622874678
 30
0.0
 10
12.0
 20
-6.257878198145708
 30
0.0
 10
12.0
 20
-6.861732912018292
 30
0.0
  0
LINE
  5
C3
330
1F
100
AcDbEntity
  8
0
  6
Continuous
 62
     1
370
    15
100
AcDbLine
 10
45.33750000000002
 20
0.0000000000000033
 30
0.0
 11
45.33750000000002
 21
6.667500000000003
 31
0.0
  0
SPLINE
  5
C4
330
1F
100
AcDbEntity
  8
외형선
  6
Continuous
370
    15
100
AcDbSpline
210
0.0
220
0.0
230
1.0
 70
    24
 71
     3
 72
    11
 73
     7
 74
     0
 42
0.000000001
 43
0.00000001
 40
0.0
 40
0.0
 40
0.0
 40
0.0
 40
0.3380514398230641
 40
0.6804995363866317
 40
0.929661024986802
 40
1.0
 40
1.0
 40
1.0
 40
1.0
 10
12.00000000000001
 20
-6.861732912018293
 30
0.0
 10
12.00000000000001
 20
-6.979240792141776
 30
0.0
 10
12.00000000000001
 20
-7.215784845874132
 30
0.0
 10
12.00000000000001
 20
-7.380127309329958
 30
0.0
 10
12.00000000000002
 20
-7.445282346404603
 30
0.0
 10
12.00000000000002
 20
-7.435694323243474
 30
0.0
 10
12.00000000000002
 20
-7.433583491497162
 30
0.0
  0
SPLINE
  5
C5
330
1F
100
AcDbEntity
  8
0
  6
Continuous
 62
     1
370
    15
100
AcDbSpline
210
0.0
220
0.0
230
1.0
 70
    24
 71
     3
 72
    10
 73
     6
 74
     0
 42
0.000000001
 43
0.00000001
 40
0.0
 40
0.0
 40
0.0
 40
0.0
 40
0.5
 40
0.5
 40
1.0
 40
1.0
 40
1.0
 40
1.0
 10
45.33750000000002
 20
6.667499999999999
 30
0.0
 10
45.33750000000001
 20
7.071667246089661
 30
0.0
 10
45.33750000000002
 20
7.541347015959288
 30
0.0
 10
45.33750000000001
 20
8.526733908152151
 30
0.0
 10
45.33750000000002
 20
9.039924476009023
 30
0.0
 10
45.33750000000002
 20
9.525000000000006
 30
0.0
  0
SPLINE
  5
C6
330
1F
100
AcDbEntity
  8
0
  6
Continuous
 62
     1
370
    15
100
AcDbSpline
210
0.0
220
0.0
230
1.0
 70
     8
 71
     3
 72
    16
 73
    12
 74
     0
 42
0.000000001
 43
0.00000001
 40
0.0
 40
0.0
 40
0.0
 40
0.0
 40
0.0693384599040536
 40
0.1746345082295173
 40
0.2761963517800253
 40
0.4797757978691293
 40
0.5818366557154723
 40
0.6860410444419254
 40
0.7904242116540366
 40
0.8951214221777068
 40
1.0
 40
1.0
 40
1.0
 40
1.0
 10
32.23402634929537
 20
6.385245939863044
 30
0.0
 10
32.53686400826084
 20
6.515031170948738
 30
0.0
 10
33.29958509724944
 20
6.841905751628306
 30
0.0
 10
34.50581249699755
 20
7.306763914746542
 30
0.0
 10
36.29872648667141
 20
7.940011405141592
 30
0.0
 10
38.07832376503656
 20
8.464847395363543
 30
0.0
 10
39.86714900423355
 20
8.881392942772887
 30
0.0
 10
41.22493549843731
 20
9.136537953803614
 30
0.0
 10
42.5924112933902
 20
9.330793684215658
 30
0.0
 10
43.96424681290976
 20
9.465239639785677
 30
0.0
 10
44.87948492135094
 20
9.49970301507924
 30
0.0
 10
45.33750000000002
 20
9.525000000000006
 30
0.0
  0
LINE
  5
C7
330
1F
100
AcDbEntity
  8
중심선
100
AcDbLine
 10
-48.15
 20
-0.0000000000000053
 30
0.0
 11
48.33750000000002
 21
0.0000000000000053
 31
0.0
  0
LINE
  5
C8
330
1F
100
AcDbEntity
  8
참조1
100
AcDbLine
 10
2.943011314031158
 20
0.0010749287238892
 30
0.0
 11
2.943011314031163
 21
-39.99892507127611
 31
0.0
  0
LINE
  5
C9
330
1F
100
AcDbEntity
  8
참조1
100
AcDbLine
 10
2.943011314031163
 20
-39.99892507127611
 30
0.0
 11
-20.15080122126847
 21
-39.9989250712761
 31
0.0
  0
CIRCLE
  5
CA
330
1F
100
AcDbEntity
  8
해칭선
100
AcDbCircle
 10
0.0
 20
0.0
 30
0.0
 40
2.999999999999995
  0
INSERT
  5
CB
330
1F
100
AcDbEntity
  8
0
  6
Continuous
 62
     7
100
AcDbBlockReference
 66
     1
  2
블럭10
 10
-13.8465229321252
 20
-52.04717430164393
 30
0.0
  0
ATTRIB
  5
CC
330
CB
100
AcDbEntity
  8
FORMAT
 62
     2
100
AcDbText
 10
-23.02781822086648
 20
-49.97180738881174
 30
0.0
 40
4.233333333333333
  1
E2163048 [ 2 FLUTE ]
 41
0.75
  7
SLDTEXTSTYLE0
 11
-23.02781822086648
 21
-52.08847405547841
 31
0.0
100
AcDbAttribute
  2
AUTOATTR0
 70
     0
 74
     1
  0
SEQEND
  5
CD
330
CB
100
AcDbEntity
  8
0
  6
Continuous
 62
     7
  0
HATCH
  5
CE
330
1F
100
AcDbEntity
  8
중심선
100
AcDbHatch
 10
0.0
 20
0.0
 30
0.0
210
0.0
220
0.0
230
1.0
  2
SOLID
 70
     1
 71
     0
 91
        1
 92
        0
 93
        4
 72
     1
 10
-8.131613627744365
 20
-35.8
 11
-11.57788887158165
 21
-35.8
 72
     1
 10
-11.57788887158165
 20
-35.8
 11
-13.7061187307857
 21
-38.3363255805726
 72
     1
 10
-13.7061187307857
 20
-38.3363255805726
 11
-10.25981040183524
 21
-38.33628615127011
 72
     1
 10
-10.25981040183524
 20
-38.33628615127011
 11
-8.131613627744365
 21
-35.8
 97
        0
 75
     0
 76
     1
 98
        1
 10
-2.849261314031153
 20
-0.0010749287238949
  0
HATCH
  5
CF
330
1F
100
AcDbEntity
  8
중심선
100
AcDbHatch
 10
0.0
 20
0.0
 30
0.0
210
0.0
220
0.0
230
1.0
  2
SOLID
 70
     1
 71
     0
 91
        1
 92
        0
 93
        4
 72
     1
 10
-3.118849636708386
 20
-35.8
 11
-6.565124880545669
 21
-35.80000000000003
 72
     1
 10
-6.565124880545669
 20
-35.80000000000003
 11
-11.09626288890309
 21
-41.20000000000002
 72
     1
 10
-11.09626288890309
 20
-41.20000000000002
 11
-7.649987645065803
 21
-41.20000000000002
 72
     1
 10
-7.649987645065803
 20
-41.20000000000002
 11
-3.118849636708386
 21
-35.8
 97
        0
 75
     0
 76
     1
 98
        1
 10
-2.849261314031153
 20
-0.0010749287238949
  0
HATCH
  5
D0
330
1F
100
AcDbEntity
  8
중심선
100
AcDbHatch
 10
0.0
 20
0.0
 30
0.0
210
0.0
220
0.0
230
1.0
  2
SOLID
 70
     1
 71
     0
 91
        1
 92
        0
 93
        4
 72
     1
 10
1.893914354327509
 20
-35.79999999999998
 11
-1.552360889509635
 21
-35.8
 72
     1
 10
-1.552360889509635
 20
-35.8
 11
-8.600797791398882
 21
-44.20000000000002
 72
     1
 10
-8.600797791398882
 20
-44.20000000000002
 11
-5.154522547561601
 21
-44.20000000000002
 72
     1
 10
-5.154522547561601
 20
-44.20000000000002
 11
1.893914354327509
 21
-35.79999999999998
 97
        0
 75
     0
 76
     1
 98
        1
 10
-2.849261314031153
 20
-0.0010749287238949
  0
HATCH
  5
D1
330
1F
100
AcDbEntity
  8
중심선
100
AcDbHatch
 10
0.0
 20
0.0
 30
0.0
210
0.0
220
0.0
230
1.0
  2
SOLID
 70
     1
 71
     0
 91
        1
 92
        0
 93
        6
 72
     3
 10
6.69380478533968
 20
-40.00000000005127
 11
3.960054785062283
 21
1.540882976769353E-10
 40
0.3939339440162628
 50
17.09539180608436
 51
320.0019657685075
 73
     0
 72
     1
 10
8.376804441040276
 20
-38.58789400463827
 11
10.68210631474134
 21
-36.65356729459038
 72
     3
 10
6.693804785286833
 20
-40.00000000000015
 11
6.600054785286829
 21
-1.278976924368180E-13
 40
0.636358354079598
 50
39.99873849337385
 51
368.4976242363724
 73
     1
 72
     1
 10
13.11913727718744
 20
-39.03999999993002
 11
5.373872092122756
 21
-39.03999999993002
 72
     1
 10
5.373872092122756
 20
-39.03999999993002
 11
5.373847047676822
 21
-40.95999999992991
 72
     1
 10
5.373847047676822
 20
-40.95999999992991
 11
9.81522681714886
 21
-40.95999999992988
 97
        0
 75
     0
 76
     1
 98
        1
 10
-2.849261314031153
 20
-0.0010749287238949
  0
DIMENSION
  5
D2
330
1F
100
AcDbEntity
  8
치수문자_일반주서
100
AcDbDimension
  2
_D
 10
-57.64999999999994
 20
-9.525000000000057
 30
0.0
 11
-57.64999999999998
 21
0.0000000000000052
 31
0.0
 70
   160
  1
%%c<>
 71
     2
 42
19.05000000000001
 52
-270.0
  3
SLDDIMSTYLE0
100
AcDbAlignedDimension
 13
-44.14999999999996
 23
9.525000000000004
 33
0.0
 14
-44.14999999999996
 24
-9.525000000000007
 34
0.0
 50
90.0000000000002
100
AcDbRotatedDimension
1001
ACAD
1000
DSTYLE
1002
{
1070
   171
1070
     6
1070
   273
1070
     7
1002
}
  0
DIMENSION
  5
E7
330
1F
100
AcDbEntity
  8
치수문자_일반주서
100
AcDbDimension
  2
_D_1
 10
12.00000000000002
 20
22.69329134588529
 30
0.0
 11
14.8433012937772
 21
22.69329134588529
 31
0.0
 70
   160
  1
<>
 71
     2
 42
33.33750000000001
  3
SLDDIMSTYLE0
100
AcDbAlignedDimension
 13
45.33750000000002
 23
9.52500000000001
 33
0.0
 14
12.00000000000002
 24
7.44096304402461
 34
0.0
 50
0.0000000000000061
100
AcDbRotatedDimension
1001
ACAD
1000
DSTYLE
1002
{
1070
   171
1070
     6
1070
   273
1070
     7
1002
}
  0
DIMENSION
  5
FC
330
1F
100
AcDbEntity
  8
치수문자_일반주서
100
AcDbDimension
  2
_D_2
 10
-45.14999999999999
 20
39.56419134481795
 30
0.0
 11
0.0937500000000129
 21
39.56419134481795
 31
0.0
 70
   160
  1
<>
 71
     2
 42
90.48750000000001
  3
SLDDIMSTYLE0
100
AcDbAlignedDimension
 13
45.33750000000002
 23
9.525000000000006
 33
0.0
 14
-45.14999999999999
 24
8.524999999999993
 34
0.0
 50
0.0000000000000045
100
AcDbRotatedDimension
1001
ACAD
1000
DSTYLE
1002
{
1070
   171
1070
     6
1070
   273
1070
     7
1002
}
  0
DIMENSION
  5
10F
330
1F
100
AcDbEntity
  8
치수문자_일반주서
100
AcDbDimension
  2
_D_3
 10
68.79403862119528
 20
9.525000000000095
 30
0.0
 11
68.79403862119521
 21
29.91025000000009
 31
0.0
 70
   160
  1
%%c<>
 71
     2
 42
19.05000000000001
 52
-270.0
  3
SLDDIMSTYLE0
100
AcDbAlignedDimension
 13
45.33750000000002
 23
-9.524999999999999
 33
0.0
 14
45.33750000000002
 24
9.52500000000001
 34
0.0
 50
90.0000000000002
100
AcDbRotatedDimension
1001
ACAD
1000
DSTYLE
1002
{
1070
   171
1070
     6
1070
   273
1070
     7
1002
}
  0
LINE
  5
122
330
1F
100
AcDbEntity
  8
참조1
100
AcDbLine
 10
77.82153940838579
 20
7.441074928723896
 30
0.0
 11
77.82153940838579
 21
-7.438925071276109
 31
0.0
  0
LINE
  5
123
330
1F
100
AcDbEntity
  8
참조1
100
AcDbLine
 10
90.52153940838579
 20
5.441074928723896
 30
0.0
 11
77.82153940838579
 21
5.441074928723896
 31
0.0
  0
SOLID
  5
124
330
1F
100
AcDbEntity
  8
참조1
100
AcDbTrace
 10
77.82153940838579
 20
5.441074928723896
 30
0.0
 11
84.17153940838578
 21
4.425074928723896
 31
0.0
 12
84.17153940838578
 22
6.457074928723896
 32
0.0
 13
84.17153940838578
 23
6.457074928723896
 33
0.0
  0
LINE
  5
125
330
1F
100
AcDbEntity
  8
참조1
100
AcDbLine
 10
90.52153940838579
 20
-5.438925071276109
 30
0.0
 11
77.82153940838579
 21
-5.438925071276109
 31
0.0
  0
SOLID
  5
126
330
1F
100
AcDbEntity
  8
참조1
100
AcDbTrace
 10
77.82153940838579
 20
-5.438925071276109
 30
0.0
 11
84.17153940838578
 21
-6.454925071276109
 31
0.0
 12
84.17153940838578
 22
-4.422925071276109
 32
0.0
 13
84.17153940838578
 23
-4.422925071276109
 33
0.0
  0
MTEXT
  5
127
330
1F
100
AcDbEntity
  8
참조1
100
AcDbMText
 10
87.20588954101179
 20
11.01136670591222
 30
0.0
 40
3.5
 41
0.0
 71
     1
 72
     1
  1
A
  7
SLDTEXTSTYLE0
 73
     1
 44
1.0
  0
MTEXT
  5
128
330
1F
100
AcDbEntity
  8
참조1
100
AcDbMText
 10
87.20588954101179
 20
0.1313667059122192
 30
0.0
 40
3.5
 41
0.0
 71
     1
 72
     1
  1
A
  7
SLDTEXTSTYLE0
 73
     1
 44
1.0
  0
INSERT
  5
12F
330
1F
100
AcDbEntity
  8
해칭선
100
AcDbBlockReference
  2
SW_DOWELSYMBOL_0
 10
0.0
 20
0.0
 30
0.0
  0
LINE
  5
1DB
330
1F
100
AcDbEntity
  8
외형선
  6
Continuous
370
    15
100
AcDbLine
 10
-24.20682499999994
 20
7.620000000000005
 30
0.0
 11
-12.62442499999993
 21
7.620000000000005
 31
0.0
  0
LINE
  5
1DC
330
1F
100
AcDbEntity
  8
외형선
  6
Continuous
370
    15
100
AcDbLine
 10
-24.20682499999994
 20
7.61999999999999
 30
0.0
 11
-26.11182500000008
 21
9.52500000000002
 31
0.0
  0
LINE
  5
1DD
330
1F
100
AcDbEntity
  8
외형선
  6
Continuous
370
    15
100
AcDbLine
 10
-12.62442499999993
 20
7.61999999999999
 30
0.0
 11
-10.71942499999996
 21
9.52500000000002
 31
0.0
  0
LINE
  5
1DE
330
1F
100
AcDbEntity
  8
외형선
  6
Continuous
370
    15
100
AcDbLine
 10
-44.21249999999996
 20
9.525000000000006
 30
0.0
 11
-26.11182500000008
 21
9.525000000000006
 31
0.0
  0
ENDSEC
  0
SECTION
  2
OBJECTS
  0
DICTIONARY
  5
C
330
0
100
AcDbDictionary
281
     1
  3
ACAD_GROUP
350
D
  3
ACAD_IMAGE_VARS
350
153
  3
ACAD_LAYOUT
350
1A
  3
ACAD_MLINESTYLE
350
17
  3
ACAD_PLOTSETTINGS
350
19
  3
ACAD_PLOTSTYLENAME
350
E
  3
ACAD_SCALELIST
350
47
  3
APPDATA
350
151
  3
DWGPROPS
350
205
  0
DICTIONARY
  5
17A
330
2
100
AcDbDictionary
280
     1
281
     1
  3
ACAD_LAYERSTATES
360
17B
  0
DICTIONARY
  5
D
102
{ACAD_REACTORS
330
C
102
}
330
C
100
AcDbDictionary
281
     1
  0
RASTERVARIABLES
  5
153
102
{ACAD_REACTORS
330
C
102
}
330
C
100
AcDbRasterVariables
 90
        0
 70
     1
 71
     1
 72
     1
  0
DICTIONARY
  5
1A
102
{ACAD_REACTORS
330
C
102
}
330
C
100
AcDbDictionary
281
     1
  3
Layout1
350
1E
  3
Layout2
350
26
  3
Model
350
22
  0
DICTIONARY
  5
17
102
{ACAD_REACTORS
330
C
102
}
330
C
100
AcDbDictionary
281
     1
  3
Standard
350
18
  0
DICTIONARY
  5
19
102
{ACAD_REACTORS
330
C
102
}
330
C
100
AcDbDictionary
281
     1
  0
ACDBDICTIONARYWDFLT
  5
E
102
{ACAD_REACTORS
330
C
102
}
330
C
100
AcDbDictionary
281
     1
  3
Normal
350
F
100
AcDbDictionaryWithDefault
340
F
  0
DICTIONARY
  5
47
102
{ACAD_REACTORS
330
C
102
}
330
C
100
AcDbDictionary
281
     1
  3
A0
350
48
  3
A1
350
49
  3
A2
350
4A
  3
A3
350
4B
  3
A4
350
4C
  3
A5
350
4D
  3
A6
350
4E
  3
A7
350
4F
  3
A8
350
50
  3
A9
350
51
  3
B0
350
52
  3
B1
350
53
  3
B2
350
54
  3
B3
350
55
  3
B4
350
56
  3
B5
350
57
  3
B6
350
58
  3
B7
350
59
  3
B8
350
5A
  3
B9
350
5B
  3
C0
350
5C
  3
C1
350
5D
  3
C2
350
5E
  3
C3
350
5F
  3
C4
350
60
  3
C5
350
61
  3
C6
350
62
  3
C7
350
63
  3
C8
350
64
  3
C9
350
65
  3
D0
350
66
  3
D1
350
67
  3
D2
350
68
  0
DICTIONARY
  5
151
102
{ACAD_REACTORS
330
C
102
}
330
C
100
AcDbDictionary
281
     1
  0
XRECORD
  5
205
102
{ACAD_REACTORS
330
C
102
}
330
C
100
AcDbXrecord
280
     1
  1
DWGPROPS COOKIE
  2

  3

  4

  6

  7

  8
12016016
  9

300
=
301
=
302
=
303
=
304
=
305
=
306
=
307
=
308
=
309
=
 40
0.0
 41
2458311.098215822
 42
2458319.353544572
  1

 90
        0
  0
DICTIONARY
  5
17B
102
{ACAD_REACTORS
330
17A
102
}
330
17A
100
AcDbDictionary
281
     1
  0
LAYOUT
  5
1E
102
{ACAD_REACTORS
330
1A
102
}
330
1A
100
AcDbPlotSettings
  1

  2
none_device
  4

  6

 40
0.0
 41
0.0
 42
0.0
 43
0.0
 44
0.0
 45
0.0
 46
0.0
 47
0.0
 48
0.0
 49
0.0
140
0.0
141
0.0
142
1.0
143
1.0
 70
   688
 72
     1
 73
     0
 74
     5
  7

 75
    16
147
1.0
148
0.0
149
0.0
100
AcDbLayout
  1
Layout1
 70
     1
 71
     1
 10
0.0
 20
0.0
 11
420.0
 21
297.0
 12
0.0
 22
0.0
 32
0.0
 14
1.000000000000000E+20
 24
1.000000000000000E+20
 34
1.000000000000000E+20
 15
-1.000000000000000E+20
 25
-1.000000000000000E+20
 35
-1.000000000000000E+20
146
0.0
 13
0.0
 23
0.0
 33
0.0
 16
1.0
 26
0.0
 36
0.0
 17
0.0
 27
1.0
 37
0.0
 76
     0
330
1B
  0
LAYOUT
  5
26
102
{ACAD_REACTORS
330
1A
102
}
330
1A
100
AcDbPlotSettings
  1

  2
none_device
  4

  6

 40
0.0
 41
0.0
 42
0.0
 43
0.0
 44
0.0
 45
0.0
 46
0.0
 47
0.0
 48
0.0
 49
0.0
140
0.0
141
0.0
142
1.0
143
1.0
 70
   688
 72
     1
 73
     0
 74
     5
  7

 75
    16
147
1.0
148
0.0
149
0.0
100
AcDbLayout
  1
Layout2
 70
     1
 71
     2
 10
0.0
 20
0.0
 11
0.0
 21
0.0
 12
0.0
 22
0.0
 32
0.0
 14
0.0
 24
0.0
 34
0.0
 15
0.0
 25
0.0
 35
0.0
146
0.0
 13
0.0
 23
0.0
 33
0.0
 16
1.0
 26
0.0
 36
0.0
 17
0.0
 27
1.0
 37
0.0
 76
     0
330
23
  0
LAYOUT
  5
22
102
{ACAD_REACTORS
330
1A
102
}
330
1A
100
AcDbPlotSettings
  1

  2
none_device
  4
ANSI_A_(11.00_x_8.50_Inches)
  6

 40
6.35
 41
19.05
 42
6.35000508
 43
19.05000254
 44
279.4
 45
215.9
 46
114.8599682104634
 47
55.39601377234877
 48
0.0
 49
0.0
140
0.0
141
0.0
142
0.0569547996289623
143
1.0
 70
  1696
 72
     0
 73
     0
 74
     0
  7

 75
     0
147
0.0235690232323232
148
0.0
149
0.0
100
AcDbLayout
  1
Model
 70
     1
 71
     0
 10
0.0
 20
0.0
 11
420.0
 21
297.0
 12
0.0
 22
0.0
 32
0.0
 14
-62.02500000000002
 24
-49.97180738881174
 34
0.0
 15
90.52153940838579
 25
43.93919134481795
 35
0.0
146
0.0
 13
0.0
 23
0.0
 33
0.0
 16
1.0
 26
0.0
 36
0.0
 17
0.0
 27
1.0
 37
0.0
 76
     0
330
1F
331
29
  0
MLINESTYLE
  5
18
102
{ACAD_REACTORS
330
17
102
}
330
17
100
AcDbMlineStyle
  2
Standard
 70
     0
  3

 62
   256
 51
90.0
 52
90.0
 71
     2
 49
0.5
 62
   256
  6
BYLAYER
 49
-0.5
 62
   256
  6
BYLAYER
  0
ACDBPLACEHOLDER
  5
F
102
{ACAD_REACTORS
330
E
102
}
330
E
  0
SCALE
  5
48
102
{ACAD_REACTORS
330
47
102
}
330
47
100
AcDbScale
 70
     0
300
1:1
140
1.0
141
1.0
290
     1
  0
SCALE
  5
49
102
{ACAD_REACTORS
330
47
102
}
330
47
100
AcDbScale
 70
     0
300
1:2
140
1.0
141
2.0
290
     0
  0
SCALE
  5
4A
102
{ACAD_REACTORS
330
47
102
}
330
47
100
AcDbScale
 70
     0
300
1:4
140
1.0
141
4.0
290
     0
  0
SCALE
  5
4B
102
{ACAD_REACTORS
330
47
102
}
330
47
100
AcDbScale
 70
     0
300
1:5
140
1.0
141
5.0
290
     0
  0
SCALE
  5
4C
102
{ACAD_REACTORS
330
47
102
}
330
47
100
AcDbScale
 70
     0
300
1:8
140
1.0
141
8.0
290
     0
  0
SCALE
  5
4D
102
{ACAD_REACTORS
330
47
102
}
330
47
100
AcDbScale
 70
     0
300
1:10
140
1.0
141
10.0
290
     0
  0
SCALE
  5
4E
102
{ACAD_REACTORS
330
47
102
}
330
47
100
AcDbScale
 70
     0
300
1:16
140
1.0
141
16.0
290
     0
  0
SCALE
  5
4F
102
{ACAD_REACTORS
330
47
102
}
330
47
100
AcDbScale
 70
     0
300
1:20
140
1.0
141
20.0
290
     0
  0
SCALE
  5
50
102
{ACAD_REACTORS
330
47
102
}
330
47
100
AcDbScale
 70
     0
300
1:30
140
1.0
141
30.0
290
     0
  0
SCALE
  5
51
102
{ACAD_REACTORS
330
47
102
}
330
47
100
AcDbScale
 70
     0
300
1:40
140
1.0
141
40.0
290
     0
  0
SCALE
  5
52
102
{ACAD_REACTORS
330
47
102
}
330
47
100
AcDbScale
 70
     0
300
1:50
140
1.0
141
50.0
290
     0
  0
SCALE
  5
53
102
{ACAD_REACTORS
330
47
102
}
330
47
100
AcDbScale
 70
     0
300
1:100
140
1.0
141
100.0
290
     0
  0
SCALE
  5
54
102
{ACAD_REACTORS
330
47
102
}
330
47
100
AcDbScale
 70
     0
300
2:1
140
2.0
141
1.0
290
     0
  0
SCALE
  5
55
102
{ACAD_REACTORS
330
47
102
}
330
47
100
AcDbScale
 70
     0
300
4:1
140
4.0
141
1.0
290
     0
  0
SCALE
  5
56
102
{ACAD_REACTORS
330
47
102
}
330
47
100
AcDbScale
 70
     0
300
8:1
140
8.0
141
1.0
290
     0
  0
SCALE
  5
57
102
{ACAD_REACTORS
330
47
102
}
330
47
100
AcDbScale
 70
     0
300
10:1
140
10.0
141
1.0
290
     0
  0
SCALE
  5
58
102
{ACAD_REACTORS
330
47
102
}
330
47
100
AcDbScale
 70
     0
300
100:1
140
100.0
141
1.0
290
     0
  0
SCALE
  5
59
102
{ACAD_REACTORS
330
47
102
}
330
47
100
AcDbScale
 70
     0
300
1/128" = 1'-0"
140
0.0078125
141
12.0
290
     0
  0
SCALE
  5
5A
102
{ACAD_REACTORS
330
47
102
}
330
47
100
AcDbScale
 70
     0
300
1/64" = 1'-0"
140
0.015625
141
12.0
290
     0
  0
SCALE
  5
5B
102
{ACAD_REACTORS
330
47
102
}
330
47
100
AcDbScale
 70
     0
300
1/32" = 1'-0"
140
0.03125
141
12.0
290
     0
  0
SCALE
  5
5C
102
{ACAD_REACTORS
330
47
102
}
330
47
100
AcDbScale
 70
     0
300
1/16" = 1'-0"
140
0.0625
141
12.0
290
     0
  0
SCALE
  5
5D
102
{ACAD_REACTORS
330
47
102
}
330
47
100
AcDbScale
 70
     0
300
3/32" = 1'-0"
140
0.09375
141
12.0
290
     0
  0
SCALE
  5
5E
102
{ACAD_REACTORS
330
47
102
}
330
47
100
AcDbScale
 70
     0
300
1/8" = 1'-0"
140
0.125
141
12.0
290
     0
  0
SCALE
  5
5F
102
{ACAD_REACTORS
330
47
102
}
330
47
100
AcDbScale
 70
     0
300
3/16" = 1'-0"
140
0.1875
141
12.0
290
     0
  0
SCALE
  5
60
102
{ACAD_REACTORS
330
47
102
}
330
47
100
AcDbScale
 70
     0
300
1/4" = 1'-0"
140
0.25
141
12.0
290
     0
  0
SCALE
  5
61
102
{ACAD_REACTORS
330
47
102
}
330
47
100
AcDbScale
 70
     0
300
3/8" = 1'-0"
140
0.375
141
12.0
290
     0
  0
SCALE
  5
62
102
{ACAD_REACTORS
330
47
102
}
330
47
100
AcDbScale
 70
     0
300
1/2" = 1'-0"
140
0.5
141
12.0
290
     0
  0
SCALE
  5
63
102
{ACAD_REACTORS
330
47
102
}
330
47
100
AcDbScale
 70
     0
300
3/4" = 1'-0"
140
0.75
141
12.0
290
     0
  0
SCALE
  5
64
102
{ACAD_REACTORS
330
47
102
}
330
47
100
AcDbScale
 70
     0
300
1" = 1'-0"
140
1.0
141
12.0
290
     0
  0
SCALE
  5
65
102
{ACAD_REACTORS
330
47
102
}
330
47
100
AcDbScale
 70
     0
300
1-1/2" = 1'-0"
140
1.5
141
12.0
290
     0
  0
SCALE
  5
66
102
{ACAD_REACTORS
330
47
102
}
330
47
100
AcDbScale
 70
     0
300
3" = 1'-0"
140
3.0
141
12.0
290
     0
  0
SCALE
  5
67
102
{ACAD_REACTORS
330
47
102
}
330
47
100
AcDbScale
 70
     0
300
6" = 1'-0"
140
6.0
141
12.0
290
     0
  0
SCALE
  5
68
102
{ACAD_REACTORS
330
47
102
}
330
47
100
AcDbScale
 70
     0
300
1'-0" = 1'-0"
140
12.0
141
12.0
290
     0
  0
ENDSEC
  0
EOF
