  0
SECTION
  2
HEADER
  9
$ACADVER
  1
AC1015
  9
$ACADMAINTVER
 70
     6
  9
$DWGCODEPAGE
  3
ANSI_949
  9
$INSBASE
 10
0.0
 20
0.0
 30
0.0
  9
$EXTMIN
 10
1.000000000000000E+20
 20
1.000000000000000E+20
 30
1.000000000000000E+20
  9
$EXTMAX
 10
-1.000000000000000E+20
 20
-1.000000000000000E+20
 30
-1.000000000000000E+20
  9
$LIMMIN
 10
0.0
 20
0.0
  9
$LIMMAX
 10
420.0
 20
297.0
  9
$ORTHOMODE
 70
     0
  9
$REGENMODE
 70
     1
  9
$FILLMODE
 70
     1
  9
$QTEXTMODE
 70
     0
  9
$MIRRTEXT
 70
     1
  9
$LTSCALE
 40
1.0
  9
$ATTMODE
 70
     1
  9
$TEXTSIZE
 40
3.5
  9
$TRACEWID
 40
1.0
  9
$TEXTSTYLE
  7
Standard
  9
$CLAYER
  8
0
  9
$CELTYPE
  6
ByLayer
  9
$CECOLOR
 62
   256
  9
$CELTSCALE
 40
1.0
  9
$DISPSILH
 70
     0
  9
$DIMSCALE
 40
1.0
  9
$DIMASZ
 40
3.302
  9
$DIMEXO
 40
1.0
  9
$DIMDLI
 40
3.75
  9
$DIMRND
 40
0.0
  9
$DIMDLE
 40
0.0
  9
$DIMEXE
 40
1.0
  9
$DIMTP
 40
0.0
  9
$DIMTM
 40
0.0
  9
$DIMTXT
 40
3.5
  9
$DIMCEN
 40
2.5
  9
$DIMTSZ
 40
0.0
  9
$DIMTOL
 70
     0
  9
$DIMLIM
 70
     0
  9
$DIMTIH
 70
     1
  9
$DIMTOH
 70
     1
  9
$DIMSE1
 70
     0
  9
$DIMSE2
 70
     0
  9
$DIMTAD
 70
     1
  9
$DIMZIN
 70
     0
  9
$DIMBLK
  1

  9
$DIMASO
 70
     1
  9
$DIMSHO
 70
     1
  9
$DIMPOST
  1

  9
$DIMAPOST
  1

  9
$DIMALT
 70
     0
  9
$DIMALTD
 70
     3
  9
$DIMALTF
 40
0.0393700787401575
  9
$DIMLFAC
 40
1.0
  9
$DIMTOFL
 70
     1
  9
$DIMTVP
 40
0.0
  9
$DIMTIX
 70
     0
  9
$DIMSOXD
 70
     0
  9
$DIMSAH
 70
     0
  9
$DIMBLK1
  1

  9
$DIMBLK2
  1

  9
$DIMSTYLE
  2
ISO-25
  9
$DIMCLRD
 70
     0
  9
$DIMCLRE
 70
     0
  9
$DIMCLRT
 70
     0
  9
$DIMTFAC
 40
1.0
  9
$DIMGAP
 40
1.524
  9
$DIMJUST
 70
     0
  9
$DIMSD1
 70
     0
  9
$DIMSD2
 70
     0
  9
$DIMTOLJ
 70
     0
  9
$DIMTZIN
 70
     0
  9
$DIMALTZ
 70
     0
  9
$DIMALTTZ
 70
     0
  9
$DIMUPT
 70
     0
  9
$DIMDEC
 70
     2
  9
$DIMTDEC
 70
     2
  9
$DIMALTU
 70
     2
  9
$DIMALTTD
 70
     3
  9
$DIMTXSTY
  7
Standard
  9
$DIMAUNIT
 70
     0
  9
$DIMADEC
 70
     2
  9
$DIMALTRND
 40
0.0
  9
$DIMAZIN
 70
     0
  9
$DIMDSEP
 70
    44
  9
$DIMATFIT
 70
     3
  9
$DIMFRAC
 70
     0
  9
$DIMLDRBLK
  1

  9
$DIMLUNIT
 70
     2
  9
$DIMLWD
 70
    -2
  9
$DIMLWE
 70
    -2
  9
$DIMTMOVE
 70
     0
  9
$LUNITS
 70
     2
  9
$LUPREC
 70
     2
  9
$SKETCHINC
 40
1.0
  9
$FILLETRAD
 40
10.0
  9
$AUNITS
 70
     0
  9
$AUPREC
 70
     2
  9
$MENU
  1
.
  9
$ELEVATION
 40
0.0
  9
$PELEVATION
 40
0.0
  9
$THICKNESS
 40
0.0
  9
$LIMCHECK
 70
     0
  9
$CHAMFERA
 40
0.0
  9
$CHAMFERB
 40
0.0
  9
$CHAMFERC
 40
0.0
  9
$CHAMFERD
 40
0.0
  9
$SKPOLY
 70
     0
  9
$TDCREATE
 40
2458319.41613912
  9
$TDUCREATE
 40
2458319.04113912
  9
$TDUPDATE
 40
2458331.647361065
  9
$TDUUPDATE
 40
2458331.272361065
  9
$TDINDWG
 40
0.0004828588
  9
$TDUSRTIMER
 40
2458331.271878484
  9
$USRTIMER
 70
     1
  9
$ANGBASE
 50
0.0
  9
$ANGDIR
 70
     0
  9
$PDMODE
 70
     0
  9
$PDSIZE
 40
-1.0
  9
$PLINEWID
 40
0.0
  9
$SPLFRAME
 70
     0
  9
$SPLINETYPE
 70
     6
  9
$SPLINESEGS
 70
     8
  9
$HANDSEED
  5
34B
  9
$SURFTAB1
 70
     6
  9
$SURFTAB2
 70
     6
  9
$SURFTYPE
 70
     6
  9
$SURFU
 70
     6
  9
$SURFV
 70
     6
  9
$UCSBASE
  2

  9
$UCSNAME
  2

  9
$UCSORG
 10
0.0
 20
0.0
 30
0.0
  9
$UCSXDIR
 10
1.0
 20
0.0
 30
0.0
  9
$UCSYDIR
 10
0.0
 20
1.0
 30
0.0
  9
$UCSORTHOREF
  2

  9
$UCSORTHOVIEW
 70
     0
  9
$UCSORGTOP
 10
0.0
 20
0.0
 30
0.0
  9
$UCSORGBOTTOM
 10
0.0
 20
0.0
 30
0.0
  9
$UCSORGLEFT
 10
0.0
 20
0.0
 30
0.0
  9
$UCSORGRIGHT
 10
0.0
 20
0.0
 30
0.0
  9
$UCSORGFRONT
 10
0.0
 20
0.0
 30
0.0
  9
$UCSORGBACK
 10
0.0
 20
0.0
 30
0.0
  9
$PUCSBASE
  2

  9
$PUCSNAME
  2

  9
$PUCSORG
 10
0.0
 20
0.0
 30
0.0
  9
$PUCSXDIR
 10
1.0
 20
0.0
 30
0.0
  9
$PUCSYDIR
 10
0.0
 20
1.0
 30
0.0
  9
$PUCSORTHOREF
  2

  9
$PUCSORTHOVIEW
 70
     0
  9
$PUCSORGTOP
 10
0.0
 20
0.0
 30
0.0
  9
$PUCSORGBOTTOM
 10
0.0
 20
0.0
 30
0.0
  9
$PUCSORGLEFT
 10
0.0
 20
0.0
 30
0.0
  9
$PUCSORGRIGHT
 10
0.0
 20
0.0
 30
0.0
  9
$PUCSORGFRONT
 10
0.0
 20
0.0
 30
0.0
  9
$PUCSORGBACK
 10
0.0
 20
0.0
 30
0.0
  9
$USERI1
 70
     0
  9
$USERI2
 70
     0
  9
$USERI3
 70
     0
  9
$USERI4
 70
     0
  9
$USERI5
 70
     0
  9
$USERR1
 40
0.0
  9
$USERR2
 40
0.0
  9
$USERR3
 40
0.0
  9
$USERR4
 40
0.0
  9
$USERR5
 40
0.0
  9
$WORLDVIEW
 70
     1
  9
$SHADEDGE
 70
     3
  9
$SHADEDIF
 70
    70
  9
$TILEMODE
 70
     1
  9
$MAXACTVP
 70
    64
  9
$PINSBASE
 10
0.0
 20
0.0
 30
0.0
  9
$PLIMCHECK
 70
     0
  9
$PEXTMIN
 10
1.000000000000000E+20
 20
1.000000000000000E+20
 30
1.000000000000000E+20
  9
$PEXTMAX
 10
-1.000000000000000E+20
 20
-1.000000000000000E+20
 30
-1.000000000000000E+20
  9
$PLIMMIN
 10
0.0
 20
0.0
  9
$PLIMMAX
 10
0.0
 20
0.0
  9
$UNITMODE
 70
     0
  9
$VISRETAIN
 70
     1
  9
$PLINEGEN
 70
     0
  9
$PSLTSCALE
 70
     1
  9
$TREEDEPTH
 70
  3020
  9
$CMLSTYLE
  2
Standard
  9
$CMLJUST
 70
     0
  9
$CMLSCALE
 40
20.0
  9
$PROXYGRAPHICS
 70
     1
  9
$MEASUREMENT
 70
     1
  9
$CELWEIGHT
370
    -1
  9
$ENDCAPS
280
     0
  9
$JOINSTYLE
280
     0
  9
$LWDISPLAY
290
     1
  9
$INSUNITS
 70
     4
  9
$HYPERLINKBASE
  1

  9
$STYLESHEET
  1

  9
$XEDIT
290
     1
  9
$CEPSNTYPE
380
     0
  9
$PSTYLEMODE
290
     1
  9
$FINGERPRINTGUID
  2
{495D95FE-F94E-452F-9197-1C5B1D74E62B}
  9
$VERSIONGUID
  2
{FAEB1C32-E019-11D5-929B-00C0DF256EC4}
  9
$EXTNAMES
290
     1
  9
$PSVPSCALE
 40
0.0
  9
$OLESTARTUP
290
     0
  0
ENDSEC
  0
SECTION
  2
CLASSES
  0
CLASS
  1
ACDBDICTIONARYWDFLT
  2
AcDbDictionaryWithDefault
  3
ObjectDBX Classes
 90
        0
280
     0
281
     0
  0
CLASS
  1
VISUALSTYLE
  2
AcDbVisualStyle
  3
ObjectDBX Classes
 90
     4095
280
     0
281
     0
  0
CLASS
  1
MATERIAL
  2
AcDbMaterial
  3
ObjectDBX Classes
 90
     1153
280
     0
281
     0
  0
CLASS
  1
SCALE
  2
AcDbScale
  3
ObjectDBX Classes
 90
     1153
280
     0
281
     0
  0
CLASS
  1
SUN
  2
AcDbSun
  3
SCENEOE
 90
     1153
280
     0
281
     0
  0
CLASS
  1
ACDBPLACEHOLDER
  2
AcDbPlaceHolder
  3
ObjectDBX Classes
 90
        0
280
     0
281
     0
  0
CLASS
  1
LAYOUT
  2
AcDbLayout
  3
ObjectDBX Classes
 90
        0
280
     0
281
     0
  0
CLASS
  1
TABLESTYLE
  2
AcDbTableStyle
  3
ObjectDBX Classes
 90
     4095
280
     0
281
     0
  0
CLASS
  1
MLEADERSTYLE
  2
AcDbMLeaderStyle
  3
ACDB_MLEADERSTYLE_CLASS
 90
     4095
280
     0
281
     0
  0
CLASS
  1
RASTERVARIABLES
  2
AcDbRasterVariables
  3
ISM
 90
        0
280
     0
281
     0
  0
ENDSEC
  0
SECTION
  2
TABLES
  0
TABLE
  2
VPORT
  5
8
330
0
100
AcDbSymbolTable
 70
     1
  0
VPORT
  5
29
330
8
100
AcDbSymbolTableRecord
100
AcDbViewportTableRecord
  2
*Active
 70
     0
 10
0.0
 20
0.0
 11
1.0
 21
1.0
 12
23.38425738453317
 22
-2.285786829321871
 13
0.0
 23
0.0
 14
10.0
 24
10.0
 15
10.0
 25
10.0
 16
0.0
 26
0.0
 36
1.0
 17
0.0
 27
0.0
 37
0.0
 40
178.8999211403483
 41
1.516441005802708
 42
50.0
 43
0.0
 44
0.0
 50
0.0
 51
0.0
 71
    16
 72
  2000
 73
     1
 74
     3
 75
     0
 76
     0
 77
     0
 78
     0
281
     0
 65
     1
110
0.0
120
0.0
130
0.0
111
1.0
121
0.0
131
0.0
112
0.0
122
1.0
132
0.0
 79
     0
146
0.0
  0
ENDTAB
  0
TABLE
  2
LTYPE
  5
5
330
0
100
AcDbSymbolTable
 70
     6
  0
LTYPE
  5
14
330
5
100
AcDbSymbolTableRecord
100
AcDbLinetypeTableRecord
  2
ByBlock
 70
     0
  3

 72
    65
 73
     0
 40
0.0
  0
LTYPE
  5
15
330
5
100
AcDbSymbolTableRecord
100
AcDbLinetypeTableRecord
  2
ByLayer
 70
     0
  3

 72
    65
 73
     0
 40
0.0
  0
LTYPE
  5
16
330
5
100
AcDbSymbolTableRecord
100
AcDbLinetypeTableRecord
  2
Continuous
 70
     0
  3
Solid line
 72
    65
 73
     0
 40
0.0
  0
LTYPE
  5
6A
330
5
100
AcDbSymbolTableRecord
100
AcDbLinetypeTableRecord
  2
HIDDEN
 70
     0
  3
Hidden __ __ __ __ __ __ __ __ __ __ __ __ __ __
 72
    65
 73
     2
 40
1.905
 49
1.27
 74
     0
 49
-0.635
 74
     0
  0
LTYPE
  5
6B
330
5
100
AcDbSymbolTableRecord
100
AcDbLinetypeTableRecord
  2
PHANTOM
 70
     0
  3
Phantom ______  __  __  ______  __  __  ______
 72
    65
 73
     6
 40
12.7
 49
6.35
 74
     0
 49
-1.27
 74
     0
 49
1.27
 74
     0
 49
-1.27
 74
     0
 49
1.27
 74
     0
 49
-1.27
 74
     0
  0
LTYPE
  5
6C
330
5
100
AcDbSymbolTableRecord
100
AcDbLinetypeTableRecord
  2
CENTER
 70
     0
  3
Center ____ _ ____ _ ____ _ ____ _ ____ _ ____
 72
    65
 73
     4
 40
10.16
 49
6.35
 74
     0
 49
-1.27
 74
     0
 49
1.27
 74
     0
 49
-1.27
 74
     0
  0
LTYPE
  5
6D
330
5
100
AcDbSymbolTableRecord
100
AcDbLinetypeTableRecord
  2
CENTERX2
 70
     0
  3
Center (2x) ________  __  ________  __  _____
 72
    65
 73
     4
 40
20.32
 49
12.7
 74
     0
 49
-2.54
 74
     0
 49
2.54
 74
     0
 49
-2.54
 74
     0
  0
LTYPE
  5
6E
330
5
100
AcDbSymbolTableRecord
100
AcDbLinetypeTableRecord
  2
DOT2
 70
     0
  3
Dot (.5x) ........................................
 72
    65
 73
     2
 40
0.635
 49
0.0
 74
     0
 49
-0.635
 74
     0
  0
ENDTAB
  0
TABLE
  2
LAYER
  5
2
102
{ACAD_XDICTIONARY
360
337
102
}
330
0
100
AcDbSymbolTable
 70
    18
  0
LAYER
  5
10
330
2
100
AcDbSymbolTableRecord
100
AcDbLayerTableRecord
  2
0
 70
     0
 62
     7
  6
Continuous
370
    -3
390
F
  0
LAYER
  5
6F
330
2
100
AcDbSymbolTableRecord
100
AcDbLayerTableRecord
  2
FORMAT
 70
     0
 62
     2
  6
Continuous
370
    -3
390
F
  0
LAYER
  5
70
330
2
100
AcDbSymbolTableRecord
100
AcDbLayerTableRecord
  2
외형선
 70
     0
 62
     4
  6
Continuous
370
    30
390
F
  0
LAYER
  5
71
330
2
100
AcDbSymbolTableRecord
100
AcDbLayerTableRecord
  2
숨은선
 70
     0
 62
     2
  6
HIDDEN
370
    15
390
F
  0
LAYER
  5
72
330
2
100
AcDbSymbolTableRecord
100
AcDbLayerTableRecord
  2
중심선
 70
     0
 62
     1
  6
CENTERX2
370
    -3
390
F
  0
LAYER
  5
73
330
2
100
AcDbSymbolTableRecord
100
AcDbLayerTableRecord
  2
파단선
 70
     0
 62
     4
  6
Continuous
370
    -3
390
F
  0
LAYER
  5
74
330
2
100
AcDbSymbolTableRecord
100
AcDbLayerTableRecord
  2
해칭선
 70
     0
 62
   100
  6
Continuous
370
    -3
390
F
  0
LAYER
  5
75
330
2
100
AcDbSymbolTableRecord
100
AcDbLayerTableRecord
  2
가는실선
 70
     0
 62
     4
  6
Continuous
370
    -3
390
F
  0
LAYER
  5
76
330
2
100
AcDbSymbolTableRecord
100
AcDbLayerTableRecord
  2
치수_보조선
 70
     0
 62
     4
  6
Continuous
370
    -3
390
F
  0
LAYER
  5
77
330
2
100
AcDbSymbolTableRecord
100
AcDbLayerTableRecord
  2
치수문자_일반주서
 70
     0
 62
     7
  6
Continuous
370
    15
390
F
  0
LAYER
  5
78
330
2
100
AcDbSymbolTableRecord
100
AcDbLayerTableRecord
  2
개별주서
 70
     0
 62
   100
  6
Continuous
370
    30
390
F
  0
LAYER
  5
79
330
2
100
AcDbSymbolTableRecord
100
AcDbLayerTableRecord
  2
중간선
 70
     0
 62
     2
  6
Continuous
370
    15
390
F
  0
LAYER
  5
7A
330
2
100
AcDbSymbolTableRecord
100
AcDbLayerTableRecord
  2
윤곽선
 70
     0
 62
     3
  6
Continuous
370
    40
390
F
  0
LAYER
  5
7B
330
2
100
AcDbSymbolTableRecord
100
AcDbLayerTableRecord
  2
중심마크
 70
     0
 62
   100
  6
Continuous
370
    30
390
F
  0
LAYER
  5
7C
330
2
100
AcDbSymbolTableRecord
100
AcDbLayerTableRecord
  2
가상선
 70
     0
 62
     4
  6
PHANTOM
370
    -3
390
F
  0
LAYER
  5
7D
330
2
100
AcDbSymbolTableRecord
100
AcDbLayerTableRecord
  2
특수지정선
 70
     0
 62
     5
  6
CENTERX2
370
    60
390
F
  0
LAYER
  5
7E
330
2
100
AcDbSymbolTableRecord
100
AcDbLayerTableRecord
  2
참조1
 70
     0
 62
    -4
  6
Continuous
370
    -3
390
F
  0
LAYER
  5
30A
330
2
100
AcDbSymbolTableRecord
100
AcDbLayerTableRecord
  2
Defpoints
 70
     0
 62
     7
  6
Continuous
290
     0
370
    -3
390
F
  0
ENDTAB
  0
TABLE
  2
STYLE
  5
3
330
0
100
AcDbSymbolTable
 70
     2
  0
STYLE
  5
11
330
3
100
AcDbSymbolTableRecord
100
AcDbTextStyleTableRecord
  2
Standard
 70
     0
 40
0.0
 41
1.0
 50
0.0
 71
     0
 42
3.5
  3
txt
  4

  0
STYLE
  5
94
330
3
100
AcDbSymbolTableRecord
100
AcDbTextStyleTableRecord
  2
SLDTEXTSTYLE0
 70
     0
 40
0.0
 41
0.75
 50
0.0
 71
     0
 42
3.5
  3
TXT
  4

  0
ENDTAB
  0
TABLE
  2
VIEW
  5
6
330
0
100
AcDbSymbolTable
 70
     0
  0
ENDTAB
  0
TABLE
  2
UCS
  5
7
330
0
100
AcDbSymbolTable
 70
     0
  0
ENDTAB
  0
TABLE
  2
APPID
  5
9
330
0
100
AcDbSymbolTable
 70
     1
  0
APPID
  5
12
330
9
100
AcDbSymbolTableRecord
100
AcDbRegAppTableRecord
  2
ACAD
 70
     0
  0
ENDTAB
  0
TABLE
  2
DIMSTYLE
  5
A
330
0
100
AcDbSymbolTable
 70
     4
100
AcDbDimStyleTable
  0
DIMSTYLE
105
27
330
A
100
AcDbSymbolTableRecord
100
AcDbDimStyleTableRecord
  2
ISO-25
 70
     0
 41
2.5
 42
0.625
 43
3.75
 44
1.25
 73
     0
 74
     0
 77
     1
 78
     8
140
2.5
141
2.5
143
0.03937007874016
147
0.625
171
     3
172
     1
178
     0
271
     2
272
     2
274
     3
278
    44
283
     0
284
     8
340
11
  0
DIMSTYLE
105
288
102
{ACAD_REACTORS
330
287
102
}
330
A
100
AcDbSymbolTableRecord
100
AcDbDimStyleTableRecord
  2
SLDDIMSTYLE0
 70
     0
 41
3.302
 44
0.0
 45
0.000000001
 73
     0
 74
     0
 77
     1
 78
     4
 79
     1
140
3.5
143
0.0393700787401575
147
0.875
148
0.000000001
170
     1
172
     1
173
     1
178
     0
271
     2
272
     2
276
     2
284
    12
289
     0
340
94
  0
DIMSTYLE
105
29D
102
{ACAD_REACTORS
330
29C
102
}
330
A
100
AcDbSymbolTableRecord
100
AcDbDimStyleTableRecord
  2
SLDDIMSTYLE1
 70
     0
 41
3.302
 44
0.0
 45
0.000000001
 73
     0
 74
     0
 77
     1
 78
     4
 79
     1
140
3.5
143
0.0393700787401575
147
0.875
148
0.000000001
170
     1
173
     1
178
     0
271
     2
272
     2
276
     2
284
    12
340
94
  0
DIMSTYLE
105
2B1
102
{ACAD_REACTORS
330
2B0
330
2C5
102
}
330
A
100
AcDbSymbolTableRecord
100
AcDbDimStyleTableRecord
  2
SLDDIMSTYLE2
 70
     0
 41
3.302
 44
0.0
 45
0.000000001
 73
     0
 74
     0
 77
     1
 78
    12
 79
     3
140
3.5
143
0.0393700787401575
147
0.875
148
0.000000001
170
     1
173
     1
178
     0
271
     2
272
     2
276
     2
284
    12
340
94
  0
ENDTAB
  0
TABLE
  2
BLOCK_RECORD
  5
1
330
0
100
AcDbSymbolTable
 70
     8
  0
BLOCK_RECORD
  5
1F
330
1
100
AcDbSymbolTableRecord
100
AcDbBlockTableRecord
  2
*Model_Space
340
22
  0
BLOCK_RECORD
  5
1B
330
1
100
AcDbSymbolTableRecord
100
AcDbBlockTableRecord
  2
*Paper_Space
340
1E
  0
BLOCK_RECORD
  5
23
330
1
100
AcDbSymbolTableRecord
100
AcDbBlockTableRecord
  2
*Paper_Space0
340
26
  0
BLOCK_RECORD
  5
7F
330
1
100
AcDbSymbolTableRecord
100
AcDbBlockTableRecord
  2
블럭10
340
0
102
{BLKREFS
331
280
102
}
  0
BLOCK_RECORD
  5
289
330
1
100
AcDbSymbolTableRecord
100
AcDbBlockTableRecord
  2
_D
340
0
  0
BLOCK_RECORD
  5
29E
330
1
100
AcDbSymbolTableRecord
100
AcDbBlockTableRecord
  2
_D_1
340
0
  0
BLOCK_RECORD
  5
2B2
330
1
100
AcDbSymbolTableRecord
100
AcDbBlockTableRecord
  2
_D_2
340
0
  0
BLOCK_RECORD
  5
2C6
330
1
100
AcDbSymbolTableRecord
100
AcDbBlockTableRecord
  2
_D_3
340
0
  0
BLOCK_RECORD
  5
2DF
330
1
100
AcDbSymbolTableRecord
100
AcDbBlockTableRecord
  2
SW_DOWELSYMBOL_0
340
0
102
{BLKREFS
331
2E5
102
}
  0
ENDTAB
  0
ENDSEC
  0
SECTION
  2
BLOCKS
  0
BLOCK
  5
20
330
1F
100
AcDbEntity
  8
0
100
AcDbBlockBegin
  2
*Model_Space
 70
     0
 10
0.0
 20
0.0
 30
0.0
  3
*Model_Space
  1
*Model_Space
  0
ENDBLK
  5
21
330
1F
100
AcDbEntity
  8
0
100
AcDbBlockEnd
  0
BLOCK
  5
1C
330
1B
100
AcDbEntity
 67
     1
  8
0
100
AcDbBlockBegin
  2
*Paper_Space
 70
     0
 10
0.0
 20
0.0
 30
0.0
  3
*Paper_Space
  1
*Paper_Space
  0
ENDBLK
  5
1D
330
1B
100
AcDbEntity
 67
     1
  8
0
100
AcDbBlockEnd
  0
BLOCK
  5
24
330
23
100
AcDbEntity
  8
0
100
AcDbBlockBegin
  2
*Paper_Space0
 70
     0
 10
0.0
 20
0.0
 30
0.0
  3
*Paper_Space0
  1
*Paper_Space0
  0
ENDBLK
  5
25
330
23
100
AcDbEntity
  8
0
100
AcDbBlockEnd
  0
BLOCK
  5
80
330
7F
100
AcDbEntity
  8
0
100
AcDbBlockBegin
  2
블럭10
 70
     2
 10
0.0
 20
0.0
 30
0.0
  3
블럭10
  1
블럭10
  0
ELLIPSE
  5
82
330
7F
100
AcDbEntity
  8
중심선
100
AcDbEllipse
 10
20.54032771741204
 20
12.0471743016438
 30
0.0
 11
6.600054785286829
 21
-1.261213355974178E-13
 31
0.0
210
0.0
220
0.0
230
1.0
 40
0.636358354079598
 41
0.9219305317359503
 42
6.513795318482858
  0
ELLIPSE
  5
83
330
7F
100
AcDbEntity
  8
중심선
100
AcDbEllipse
 10
20.54032771746488
 20
12.04717430159265
 30
0.0
 11
3.960054785062283
 21
1.540847449632565E-10
 31
0.0
210
0.0
220
0.0
230
1.0
 40
0.3939339440162632
 41
1.131841032648279
 42
5.62031148352944
  0
LINE
  5
84
330
7F
100
AcDbEntity
  8
중심선
100
AcDbLine
 10
2.268634060543552
 20
16.24717430164393
 30
0.0
 11
5.714909304380834
 21
16.24717430164393
 31
0.0
  0
LINE
  5
85
330
7F
100
AcDbEntity
  8
중심선
100
AcDbLine
 10
5.245725140726316
 20
7.84717430164391
 30
0.0
 11
8.692000384563599
 21
7.84717430164391
 31
0.0
  0
LINE
  5
86
330
7F
100
AcDbEntity
  8
중심선
100
AcDbLine
 10
15.74043728645272
 20
16.24717430164393
 30
0.0
 11
8.692000384563599
 21
7.84717430164391
 31
0.0
  0
LINE
  5
87
330
7F
100
AcDbEntity
  8
중심선
100
AcDbLine
 10
0.1404042013395286
 20
13.71084872107135
 30
0.0
 11
3.58671253028996
 21
13.71088815037384
 31
0.0
  0
LINE
  5
88
330
7F
100
AcDbEntity
  8
중심선
100
AcDbLine
 10
2.750260043222114
 20
10.84717430164391
 30
0.0
 11
6.196535287059397
 21
10.84717430164391
 31
0.0
  0
LINE
  5
89
330
7F
100
AcDbEntity
  8
중심선
100
AcDbLine
 10
12.29416204261559
 20
16.24717430164393
 30
0.0
 11
5.245725140726316
 21
7.84717430164391
 31
0.0
  0
LINE
  5
8A
330
7F
100
AcDbEntity
  8
중심선
100
AcDbLine
 10
10.72767329541681
 20
16.24717430164393
 30
0.0
 11
6.196535287059397
 21
10.84717430164391
 31
0.0
  0
LINE
  5
8B
330
7F
100
AcDbEntity
  8
중심선
100
AcDbLine
 10
7.28139805157953
 20
16.24717430164393
 30
0.0
 11
2.750260043222114
 21
10.84717430164391
 31
0.0
  0
LINE
  5
8C
330
7F
100
AcDbEntity
  8
중심선
100
AcDbLine
 10
5.714909304380834
 20
16.24717430164393
 30
0.0
 11
3.58671253028996
 21
13.71088815037384
 31
0.0
  0
LINE
  5
8D
330
7F
100
AcDbEntity
  8
중심선
100
AcDbLine
 10
2.268634060543552
 20
16.24717430164393
 30
0.0
 11
0.1404042013395286
 21
13.71084872107135
 31
0.0
  0
LINE
  5
8E
330
7F
100
AcDbEntity
  8
중심선
100
AcDbLine
 10
7.28139805157953
 20
16.24717430164393
 30
0.0
 11
10.72767329541681
 21
16.24717430164393
 31
0.0
  0
LINE
  5
8F
330
7F
100
AcDbEntity
  8
중심선
100
AcDbLine
 10
12.29416204261559
 20
16.24717430164393
 30
0.0
 11
15.74043728645272
 21
16.24717430164393
 31
0.0
  0
LINE
  5
90
330
7F
100
AcDbEntity
  8
중심선
100
AcDbLine
 10
19.22036997980202
 20
11.08717430171403
 30
0.0
 11
23.66174974927406
 21
11.08717430171406
 31
0.0
  0
LINE
  5
91
330
7F
100
AcDbEntity
  8
중심선
100
AcDbLine
 10
19.22039502424796
 20
13.00717430171391
 30
0.0
 11
19.22036997980202
 21
11.08717430171403
 31
0.0
  0
LINE
  5
92
330
7F
100
AcDbEntity
  8
중심선
100
AcDbLine
 10
19.22039502424796
 20
13.00717430171391
 30
0.0
 11
26.96566020931264
 21
13.00717430171391
 31
0.0
  0
LINE
  5
93
330
7F
100
AcDbEntity
  8
중심선
100
AcDbLine
 10
22.22332737316547
 20
13.45928029700563
 30
0.0
 11
24.52862924686651
 21
15.39360700705356
 31
0.0
  0
ATTDEF
  5
95
330
7F
100
AcDbEntity
  8
FORMAT
 62
     2
100
AcDbText
 10
-9.18129528874128
 20
2.075366912832191
 30
0.0
 40
4.233333333333333
  1
E2170032 [ 4 FLUTE ]
 41
0.75
  7
SLDTEXTSTYLE0
 11
-9.18129528874128
 21
-0.0412997538344756
 31
0.0
100
AcDbAttributeDefinition
  3

  2
AUTOATTR0
 70
     0
 74
     1
  0
ENDBLK
  5
81
330
7F
100
AcDbEntity
  8
0
100
AcDbBlockEnd
  0
BLOCK
  5
28A
330
289
100
AcDbEntity
  8
0
100
AcDbBlockBegin
  2
_D
 70
     0
 10
0.0
 20
0.0
 30
0.0
  3
_D
  1
_D
  0
LINE
  5
28C
330
289
100
AcDbEntity
  8
치수문자_일반주서
 62
     0
370
    -2
100
AcDbLine
 10
-39.59249999999998
 20
6.37952872972047
 30
0.0
 11
-53.80000000000003
 21
6.379528729720421
 31
0.0
  0
LINE
  5
28D
330
289
100
AcDbEntity
  8
치수문자_일반주서
 62
     0
370
    -2
100
AcDbLine
 10
-39.59249999999998
 20
-6.320471270279518
 30
0.0
 11
-53.79999999999999
 21
-6.320471270279568
 31
0.0
  0
LINE
  5
28E
330
289
100
AcDbEntity
  8
치수문자_일반주서
 62
     0
370
    -2
100
AcDbLine
 10
-53.80000000000002
 20
3.077528729720421
 30
0.0
 11
-53.8
 21
-3.018471270279568
 31
0.0
  0
SOLID
  5
28F
330
289
100
AcDbEntity
  8
치수문자_일반주서
 62
     0
100
AcDbTrace
 10
-53.24966666666668
 20
3.077528729720423
 30
0.0
 11
-54.35033333333335
 21
3.077528729720419
 31
0.0
 12
-53.80000000000003
 22
6.379528729720421
 32
0.0
 13
-53.80000000000003
 23
6.379528729720421
 33
0.0
  0
SOLID
  5
290
330
289
100
AcDbEntity
  8
치수문자_일반주서
 62
     0
100
AcDbTrace
 10
-54.35033333333334
 20
-3.01847127027957
 30
0.0
 11
-53.24966666666667
 21
-3.018471270279567
 31
0.0
 12
-53.79999999999999
 22
-6.320471270279568
 32
0.0
 13
-53.79999999999999
 23
-6.320471270279568
 33
0.0
  0
MTEXT
  5
291
330
289
100
AcDbEntity
  8
치수문자_일반주서
 62
     0
100
AcDbMText
 10
-58.17500000000001
 20
0.0295287297204562
 30
0.0
 40
3.5
 41
0.0
 71
     2
 72
     1
  1
\A1;%%c12.70 [1/2]
  7
SLDTEXTSTYLE0
 11
-3.356894814614650E-15
 21
1.0
 31
0.0
 73
     1
 44
1.0
  0
POINT
  5
292
330
289
100
AcDbEntity
  8
Defpoints
 62
     0
100
AcDbPoint
 10
-39.52999999999998
 20
6.37952872972047
 30
0.0
  0
POINT
  5
293
330
289
100
AcDbEntity
  8
Defpoints
 62
     0
100
AcDbPoint
 10
-39.52999999999998
 20
-6.320471270279518
 30
0.0
  0
POINT
  5
294
330
289
100
AcDbEntity
  8
Defpoints
 62
     0
100
AcDbPoint
 10
-53.79999999999999
 20
-6.320471270279568
 30
0.0
  0
ENDBLK
  5
28B
330
289
100
AcDbEntity
  8
0
100
AcDbBlockEnd
  0
BLOCK
  5
29F
330
29E
100
AcDbEntity
  8
0
100
AcDbBlockBegin
  2
_D_1
 70
     0
 10
0.0
 20
0.0
 30
0.0
  3
_D_1
  1
_D_1
  0
LINE
  5
2A1
330
29E
100
AcDbEntity
  8
치수문자_일반주서
 62
     0
370
    -2
100
AcDbLine
 10
8.032283843699846
 20
6.379528729720476
 30
0.0
 11
60.60273101556584
 21
6.379528729720658
 31
0.0
  0
LINE
  5
2A2
330
29E
100
AcDbEntity
  8
치수문자_일반주서
 62
     0
370
    -2
100
AcDbLine
 10
8.032283843699847
 20
-6.320471270279524
 30
0.0
 11
60.60273101556588
 21
-6.320471270279342
 31
0.0
  0
LINE
  5
2A3
330
29E
100
AcDbEntity
  8
치수문자_일반주서
 62
     0
370
    -2
100
AcDbLine
 10
60.60273101556584
 20
6.379528729720658
 30
0.0
 11
60.60273101556574
 21
36.36902872972065
 31
0.0
  0
LINE
  5
2A4
330
29E
100
AcDbEntity
  8
치수문자_일반주서
 62
     0
370
    -2
100
AcDbLine
 10
60.60273101556585
 20
3.077528729720658
 30
0.0
 11
60.60273101556587
 21
-3.018471270279342
 31
0.0
  0
SOLID
  5
2A5
330
29E
100
AcDbEntity
  8
치수문자_일반주서
 62
     0
100
AcDbTrace
 10
61.15306434889919
 20
3.07752872972066
 30
0.0
 11
60.05239768223252
 21
3.077528729720656
 31
0.0
 12
60.60273101556584
 22
6.379528729720658
 32
0.0
 13
60.60273101556584
 23
6.379528729720658
 33
0.0
  0
SOLID
  5
2A6
330
29E
100
AcDbEntity
  8
치수문자_일반주서
 62
     0
100
AcDbTrace
 10
60.05239768223253
 20
-3.018471270279344
 30
0.0
 11
61.1530643488992
 21
-3.01847127027934
 31
0.0
 12
60.60273101556588
 22
-6.320471270279342
 32
0.0
 13
60.60273101556588
 23
-6.320471270279342
 33
0.0
  0
MTEXT
  5
2A7
330
29E
100
AcDbEntity
  8
치수문자_일반주서
 62
     0
100
AcDbMText
 10
56.22773101556578
 20
23.02527872972064
 30
0.0
 40
3.5
 41
0.0
 71
     2
 72
     1
  1
\A1;%%c12.70 [1/2]
  7
SLDTEXTSTYLE0
 11
-3.356894814614647E-15
 21
1.0
 31
0.0
 73
     1
 44
1.0
  0
POINT
  5
2A8
330
29E
100
AcDbEntity
  8
Defpoints
 62
     0
100
AcDbPoint
 10
7.969783843699846
 20
6.379528729720476
 30
0.0
  0
POINT
  5
2A9
330
29E
100
AcDbEntity
  8
Defpoints
 62
     0
100
AcDbPoint
 10
7.969783843699847
 20
-6.320471270279524
 30
0.0
  0
POINT
  5
2AA
330
29E
100
AcDbEntity
  8
Defpoints
 62
     0
100
AcDbPoint
 10
60.60273101556588
 20
-6.32047127027934
 30
0.0
  0
ENDBLK
  5
2A0
330
29E
100
AcDbEntity
  8
0
100
AcDbBlockEnd
  0
BLOCK
  5
2B3
330
2B2
100
AcDbEntity
  8
0
100
AcDbBlockBegin
  2
_D_2
 70
     0
 10
0.0
 20
0.0
 30
0.0
  3
_D_2
  1
_D_2
  0
LINE
  5
2B5
330
2B2
100
AcDbEntity
  8
치수문자_일반주서
 62
     0
370
    -2
100
AcDbLine
 10
41.75000000000001
 20
6.233827631508126
 30
0.0
 11
41.75000000000001
 21
25.58279748238182
 31
0.0
  0
LINE
  5
2B6
330
2B2
100
AcDbEntity
  8
치수문자_일반주서
 62
     0
370
    -2
100
AcDbLine
 10
10.00000000000001
 20
-5.798071551938518
 30
0.0
 11
10.00000000000001
 21
25.58279748238182
 31
0.0
  0
LINE
  5
2B7
330
2B2
100
AcDbEntity
  8
치수문자_일반주서
 62
     0
370
    -2
100
AcDbLine
 10
38.44800000000001
 20
25.58279748238182
 30
0.0
 11
13.30200000000001
 21
25.58279748238182
 31
0.0
  0
SOLID
  5
2B8
330
2B2
100
AcDbEntity
  8
치수문자_일반주서
 62
     0
100
AcDbTrace
 10
38.44800000000001
 20
25.03246414904849
 30
0.0
 11
38.44800000000001
 21
26.13313081571516
 31
0.0
 12
41.75000000000001
 22
25.58279748238182
 32
0.0
 13
41.75000000000001
 23
25.58279748238182
 33
0.0
  0
SOLID
  5
2B9
330
2B2
100
AcDbEntity
  8
치수문자_일반주서
 62
     0
100
AcDbTrace
 10
13.30200000000001
 20
26.13313081571516
 30
0.0
 11
13.30200000000001
 21
25.03246414904849
 31
0.0
 12
10.00000000000001
 22
25.58279748238182
 32
0.0
 13
10.00000000000001
 23
25.58279748238182
 33
0.0
  0
MTEXT
  5
2BA
330
2B2
100
AcDbEntity
  8
치수문자_일반주서
 62
     0
100
AcDbMText
 10
26.94047892942831
 20
29.95779748238182
 30
0.0
 40
3.5
 41
0.0
 71
     2
 72
     1
  1
\A1;31.75 [1 1/4]
  7
SLDTEXTSTYLE0
 73
     1
 44
1.0
  0
POINT
  5
2BB
330
2B2
100
AcDbEntity
  8
Defpoints
 62
     0
100
AcDbPoint
 10
41.75000000000001
 20
6.171327631508126
 30
0.0
  0
POINT
  5
2BC
330
2B2
100
AcDbEntity
  8
Defpoints
 62
     0
100
AcDbPoint
 10
10.00000000000001
 20
-5.860571551938518
 30
0.0
  0
POINT
  5
2BD
330
2B2
100
AcDbEntity
  8
Defpoints
 62
     0
100
AcDbPoint
 10
10.00000000000001
 20
25.58279748238182
 30
0.0
  0
ENDBLK
  5
2B4
330
2B2
100
AcDbEntity
  8
0
100
AcDbBlockEnd
  0
BLOCK
  5
2C7
330
2C6
100
AcDbEntity
  8
0
100
AcDbBlockBegin
  2
_D_3
 70
     0
 10
0.0
 20
0.0
 30
0.0
  3
_D_3
  1
_D_3
  0
LINE
  5
2C9
330
2C6
100
AcDbEntity
  8
치수문자_일반주서
 62
     0
370
    -2
100
AcDbLine
 10
41.75000000000001
 20
6.233827631508126
 30
0.0
 11
41.75000000000001
 21
36.43444453646562
 31
0.0
  0
LINE
  5
2CA
330
2C6
100
AcDbEntity
  8
치수문자_일반주서
 62
     0
370
    -2
100
AcDbLine
 10
-40.8
 20
5.172028729720468
 30
0.0
 11
-40.79999999999999
 21
36.43444453646562
 31
0.0
  0
LINE
  5
2CB
330
2C6
100
AcDbEntity
  8
치수문자_일반주서
 62
     0
370
    -2
100
AcDbLine
 10
38.44800000000001
 20
36.43444453646562
 30
0.0
 11
-37.49799999999999
 21
36.43444453646562
 31
0.0
  0
SOLID
  5
2CC
330
2C6
100
AcDbEntity
  8
치수문자_일반주서
 62
     0
100
AcDbTrace
 10
38.44800000000001
 20
35.88411120313229
 30
0.0
 11
38.44800000000001
 21
36.98477786979895
 31
0.0
 12
41.75000000000001
 22
36.43444453646562
 32
0.0
 13
41.75000000000001
 23
36.43444453646562
 33
0.0
  0
SOLID
  5
2CD
330
2C6
100
AcDbEntity
  8
치수문자_일반주서
 62
     0
100
AcDbTrace
 10
-37.49799999999999
 20
36.98477786979895
 30
0.0
 11
-37.49799999999999
 21
35.88411120313229
 31
0.0
 12
-40.79999999999999
 22
36.43444453646562
 32
0.0
 13
-40.79999999999999
 23
36.43444453646562
 33
0.0
  0
MTEXT
  5
2CE
330
2C6
100
AcDbEntity
  8
치수문자_일반주서
 62
     0
100
AcDbMText
 10
-0.5208319829470156
 20
40.80944453646562
 30
0.0
 40
3.5
 41
0.0
 71
     2
 72
     1
  1
\A1;82.55 [3 1/4]
  7
SLDTEXTSTYLE0
 73
     1
 44
1.0
  0
POINT
  5
2CF
330
2C6
100
AcDbEntity
  8
Defpoints
 62
     0
100
AcDbPoint
 10
41.75000000000001
 20
6.171327631508126
 30
0.0
  0
POINT
  5
2D0
330
2C6
100
AcDbEntity
  8
Defpoints
 62
     0
100
AcDbPoint
 10
-40.8
 20
5.109528729720468
 30
0.0
  0
POINT
  5
2D1
330
2C6
100
AcDbEntity
  8
Defpoints
 62
     0
100
AcDbPoint
 10
-40.8
 20
36.43444453646562
 30
0.0
  0
ENDBLK
  5
2C8
330
2C6
100
AcDbEntity
  8
0
100
AcDbBlockEnd
  0
BLOCK
  5
2E0
330
2DF
100
AcDbEntity
  8
0
100
AcDbBlockBegin
  2
SW_DOWELSYMBOL_0
 70
     0
 10
0.0
 20
0.0
 30
0.0
  3
SW_DOWELSYMBOL_0
  1
SW_DOWELSYMBOL_0
  0
CIRCLE
  5
2E2
330
2DF
100
AcDbEntity
  8
해칭선
 62
     0
100
AcDbCircle
 10
0.0
 20
0.0
 30
0.0
 40
2.999999999999908
  0
HATCH
  5
2E3
330
2DF
100
AcDbEntity
  8
0
  6
Continuous
 62
     0
370
     0
100
AcDbHatch
 10
0.0
 20
0.0
 30
0.0
210
0.0
220
0.0
230
1.0
  2
SOLID
 70
     1
 71
     0
 91
        1
 92
        0
 93
        3
 72
     2
 10
0.0000000000000069
 20
0.0
 40
2.999999999999908
 50
0.0
 51
90.0
 73
     1
 72
     1
 10
0.0000000000000069
 20
2.999999999999908
 11
0.0000000000000069
 21
0.0
 72
     1
 10
0.0000000000000069
 20
0.0
 11
2.999999999999915
 21
0.0
 97
        0
 75
     0
 76
     1
 98
        1
 10
0.0
 20
0.0
  0
HATCH
  5
2E4
330
2DF
100
AcDbEntity
  8
0
  6
Continuous
 62
     0
370
     0
100
AcDbHatch
 10
0.0
 20
0.0
 30
0.0
210
0.0
220
0.0
230
1.0
  2
SOLID
 70
     1
 71
     0
 91
        1
 92
        0
 93
        3
 72
     2
 10
0.0000000000000069
 20
0.0
 40
2.999999999999908
 50
180.0
 51
270.0000000000008
 73
     1
 72
     1
 10
0.0000000000000069
 20
-2.999999999999908
 11
0.0000000000000069
 21
0.0
 72
     1
 10
0.0000000000000069
 20
0.0
 11
-2.999999999999901
 21
0.0
 97
        0
 75
     0
 76
     1
 98
        1
 10
0.0
 20
0.0
  0
ENDBLK
  5
2E1
330
2DF
100
AcDbEntity
  8
0
100
AcDbBlockEnd
  0
ENDSEC
  0
SECTION
  2
ENTITIES
  0
LINE
  5
96
330
1F
100
AcDbEntity
  8
외형선
  6
Continuous
 62
     1
370
    15
100
AcDbLine
 10
41.58929929439708
 20
1.573999021179952
 30
0.0
 11
41.75
 21
1.437915253571982
 31
0.0
  0
LINE
  5
97
330
1F
100
AcDbEntity
  8
외형선
  6
Continuous
370
    15
100
AcDbLine
 10
7.969783843699846
 20
6.379528729720476
 30
0.0
 11
-11.06612499999997
 21
6.379528729720473
 31
0.0
  0
LINE
  5
98
330
1F
100
AcDbEntity
  8
외형선
  6
Continuous
370
    15
100
AcDbLine
 10
-39.52999999999999
 20
-6.32047127027953
 30
0.0
 11
7.969783843699847
 21
-6.320471270279524
 31
0.0
  0
LINE
  5
99
330
1F
100
AcDbEntity
  8
외형선
  6
Continuous
370
    15
100
AcDbLine
 10
-39.52999999999999
 20
6.379528729720469
 30
0.0
 11
-40.8
 21
5.109528729720467
 31
0.0
  0
LINE
  5
9A
330
1F
100
AcDbEntity
  8
외형선
  6
Continuous
370
    15
100
AcDbLine
 10
-40.8
 20
-5.050471270279529
 30
0.0
 11
-39.52999999999999
 21
-6.320471270279532
 31
0.0
  0
SPLINE
  5
9B
330
1F
100
AcDbEntity
  8
외형선
  6
Continuous
 62
     1
370
    15
100
AcDbSpline
210
0.0
220
0.0
230
1.0
 70
     8
 71
     3
 72
    10
 73
     6
 74
     0
 42
0.000000001
 43
0.00000001
 40
0.0
 40
0.0
 40
0.0
 40
0.0
 40
0.1892585996425924
 40
0.6028787238631604
 40
1.0
 40
1.0
 40
1.0
 40
1.0
 10
40.1283512810471
 20
-6.298594127304812
 30
0.0
 10
40.17279003223452
 20
-6.30650248478213
 30
0.0
 10
40.31434860688604
 20
-6.331694367596346
 30
0.0
 10
40.55717921487491
 20
-6.287314076409863
 30
0.0
 10
40.72851493921588
 20
-6.196654521750014
 30
0.0
 10
40.81243943285606
 20
-6.152247219958535
 30
0.0
  0
SPLINE
  5
9C
330
1F
100
AcDbEntity
  8
외형선
  6
Continuous
 62
     1
370
    15
100
AcDbSpline
210
0.0
220
0.0
230
1.0
 70
     8
 71
     3
 72
    10
 73
     6
 74
     0
 42
0.000000001
 43
0.00000001
 40
0.0
 40
0.0
 40
0.0
 40
0.0
 40
0.2538907158560229
 40
0.6344986238817353
 40
1.0
 40
1.0
 40
1.0
 40
1.0
 10
30.06267143501131
 20
-6.291432505146275
 30
0.0
 10
30.12747546007439
 20
-6.303753093007644
 30
0.0
 10
30.28942728484233
 20
-6.334543490431571
 30
0.0
 10
30.55329880411215
 20
-6.290379931911845
 30
0.0
 10
30.7248996424138
 20
-6.199403817551807
 30
0.0
 10
30.80896285389664
 20
-6.154836760554738
 30
0.0
  0
LINE
  5
9D
330
1F
100
AcDbEntity
  8
외형선
  6
Continuous
 62
     1
370
    15
100
AcDbLine
 10
19.4705547524807
 20
-6.131982111903598
 30
0.0
 11
19.48659318891635
 21
-6.129886953427779
 31
0.0
  0
LINE
  5
9E
330
1F
100
AcDbEntity
  8
외형선
  6
Continuous
 62
     1
370
    15
100
AcDbLine
 10
23.41874150281627
 20
6.190791306732773
 30
0.0
 11
23.40219348723302
 21
6.188540483780945
 31
0.0
  0
SPLINE
  5
9F
330
1F
100
AcDbEntity
  8
외형선
  6
Continuous
 62
     1
370
    15
100
AcDbSpline
210
0.0
220
0.0
230
1.0
 70
     8
 71
     3
 72
    10
 73
     6
 74
     0
 42
0.000000001
 43
0.00000001
 40
0.0
 40
0.0
 40
0.0
 40
0.0
 40
0.3143486856393544
 40
0.6640640641790891
 40
1.0
 40
1.0
 40
1.0
 40
1.0
 10
19.99068224859251
 20
-6.28227093989345
 30
0.0
 10
20.07807976648898
 20
-6.299804964271637
 30
0.0
 10
20.26270770859552
 20
-6.336845728308274
 30
0.0
 10
20.55004584267077
 20
-6.29252046503033
 30
0.0
 10
20.72197206138517
 20
-6.201270886866714
 30
0.0
 10
20.8062075816362
 20
-6.156563013066107
 30
0.0
  0
LINE
  5
A0
330
1F
100
AcDbEntity
  8
외형선
  6
Continuous
 62
     1
370
    15
100
AcDbLine
 10
22.81791741474815
 20
6.367457365364685
 30
0.0
 11
22.75229919408405
 21
6.379346016919484
 31
0.0
  0
SPLINE
  5
A1
330
1F
100
AcDbEntity
  8
외형선
  6
Continuous
 62
     1
370
    15
100
AcDbSpline
210
0.0
220
0.0
230
1.0
 70
     8
 71
     3
 72
    10
 73
     6
 74
     0
 42
0.000000001
 43
0.00000001
 40
0.0
 40
0.0
 40
0.0
 40
0.0
 40
0.3038222842139602
 40
0.6588240986049891
 40
0.9999999999999999
 40
0.9999999999999999
 40
0.9999999999999999
 40
0.9999999999999999
 10
9.999734199406227
 20
-6.283912584491237
 30
0.0
 10
10.08315087240582
 20
-6.300701767616204
 30
0.0
 10
10.2640359399372
 20
-6.337108308588789
 30
0.0
 10
10.5478048182833
 20
-6.293237472658702
 30
0.0
 10
10.72012401768738
 20
-6.202109811852154
 30
0.0
 10
10.80457250957565
 20
-6.157450867572978
 30
0.0
  0
LINE
  5
A2
330
1F
100
AcDbEntity
  8
외형선
  6
Continuous
 62
     1
370
    15
100
AcDbLine
 10
32.92282294238318
 20
6.338420898654131
 30
0.0
 11
32.75229915995604
 21
6.379346021019265
 31
0.0
  0
SPLINE
  5
A3
330
1F
100
AcDbEntity
  8
외형선
  6
Continuous
 62
     1
370
    15
100
AcDbSpline
210
0.0
220
0.0
230
1.0
 70
     8
 71
     3
 72
     9
 73
     5
 74
     0
 42
0.000000001
 43
0.00000001
 40
0.0
 40
0.0
 40
0.0
 40
0.0
 40
0.5005231333544765
 40
1.0
 40
1.0
 40
1.0
 40
1.0
 10
12.7381848863986
 20
6.377092235116343
 30
0.0
 10
12.66042479762901
 20
6.362699669752282
 30
0.0
 10
12.50506716560817
 20
6.333944624470751
 30
0.0
 10
12.36767397230721
 20
6.254295116226641
 30
0.0
 10
12.29904925061883
 20
6.214512029419016
 30
0.0
  0
SPLINE
  5
A4
330
1F
100
AcDbEntity
  8
외형선
  6
Continuous
 62
     1
370
    15
100
AcDbSpline
210
0.0
220
0.0
230
1.0
 70
     8
 71
     3
 72
     9
 73
     5
 74
     0
 42
0.000000001
 43
0.00000001
 40
0.0
 40
0.0
 40
0.0
 40
0.0
 40
0.5006169764898495
 40
1.0
 40
1.0
 40
1.0
 40
1.0
 10
22.74221492744825
 20
6.378544442385865
 30
0.0
 10
22.66428194401367
 20
6.364295387101367
 30
0.0
 10
22.5086080713835
 20
6.335832398521939
 30
0.0
 10
22.37081720605127
 20
6.256250167840444
 30
0.0
 10
22.30200678710959
 20
6.216508152865036
 30
0.0
  0
SPLINE
  5
A5
330
1F
100
AcDbEntity
  8
외형선
  6
Continuous
 62
     1
370
    15
100
AcDbSpline
210
0.0
220
0.0
230
1.0
 70
     8
 71
     3
 72
     9
 73
     5
 74
     0
 42
0.000000001
 43
0.00000001
 40
0.0
 40
0.0
 40
0.0
 40
0.0
 40
0.5007679776568572
 40
1.0
 40
1.0
 40
1.0
 40
1.0
 10
32.74563469911968
 20
6.379268498775826
 30
0.0
 10
32.66743621716975
 20
6.3651578882128
 30
0.0
 10
32.51127910361821
 20
6.336979947145056
 30
0.0
 10
32.37287389085429
 20
6.257311558373931
 30
0.0
 10
32.30377757658332
 20
6.217538547530902
 30
0.0
  0
SPLINE
  5
A6
330
1F
100
AcDbEntity
  8
외형선
  6
Continuous
 62
     1
370
    15
100
AcDbSpline
210
0.0
220
0.0
230
1.0
 70
     8
 71
     3
 72
    11
 73
     7
 74
     0
 42
0.000000001
 43
0.00000001
 40
0.0
 40
0.0
 40
0.0
 40
0.0
 40
0.2481912806066501
 40
0.4997800711020473
 40
0.7514735537785355
 40
1.0
 40
1.0
 40
1.0
 40
1.0
 10
12.30375848355962
 20
6.217528094322299
 30
0.0
 10
12.28473670659325
 20
6.20692401659077
 30
0.0
 10
12.24643276206506
 20
6.185570701076701
 30
0.0
 10
12.17654188964356
 20
6.176056515466889
 30
0.0
 10
12.10655406089311
 20
6.186129232727269
 30
0.0
 10
12.06807697729765
 20
6.20794244681831
 30
0.0
 10
12.04896024024958
 20
6.218780000993047
 30
0.0
  0
SPLINE
  5
A7
330
1F
100
AcDbEntity
  8
외형선
  6
Continuous
 62
     1
370
    15
100
AcDbSpline
210
0.0
220
0.0
230
1.0
 70
     8
 71
     3
 72
     9
 73
     5
 74
     0
 42
0.000000001
 43
0.00000001
 40
0.0
 40
0.0
 40
0.0
 40
0.0
 40
0.5002407785432251
 40
1.0
 40
1.0
 40
1.0
 40
1.0
 10
40.80519560389119
 20
-6.15712453047799
 30
0.0
 10
40.84740260337248
 20
-6.138479237537449
 30
0.0
 10
40.93177597174166
 20
-6.101206600558838
 30
0.0
 10
41.01591426244566
 20
-6.140693854857987
 30
0.0
 10
41.05796314910261
 20
-6.160427974323995
 30
0.0
  0
LINE
  5
A8
330
1F
100
AcDbEntity
  8
외형선
  6
Continuous
370
    15
100
AcDbLine
 10
9.882067718368278
 20
-6.250581078743756
 30
0.0
 11
10.00000000000001
 21
-6.241236773788645
 31
0.0
  0
SPLINE
  5
A9
330
1F
100
AcDbEntity
  8
외형선
  6
Continuous
 62
     1
370
    15
100
AcDbSpline
210
0.0
220
0.0
230
1.0
 70
     8
 71
     3
 72
     9
 73
     5
 74
     0
 42
0.000000001
 43
0.00000001
 40
0.0
 40
0.0
 40
0.0
 40
0.0
 40
0.4996565050622472
 40
1.0
 40
1.0
 40
1.0
 40
1.0
 10
22.30257385422827
 20
6.216851530691611
 30
0.0
 10
22.26106826553857
 20
6.198142364259914
 30
0.0
 10
22.17800002111627
 20
6.160698307708769
 30
0.0
 10
22.09477450155878
 20
6.198361208338691
 30
0.0
 10
22.05313315423538
 20
6.217205595669358
 30
0.0
  0
SPLINE
  5
AA
330
1F
100
AcDbEntity
  8
외형선
  6
Continuous
 62
     1
370
    15
100
AcDbSpline
210
0.0
220
0.0
230
1.0
 70
     8
 71
     3
 72
    11
 73
     7
 74
     0
 42
0.000000001
 43
0.00000001
 40
0.0
 40
0.0
 40
0.0
 40
0.0
 40
0.2453939359148196
 40
0.5001660886394916
 40
0.7548541371639417
 40
1.0
 40
1.0
 40
1.0
 40
1.0
 10
12.05768031529141
 20
6.214733669772113
 30
0.0
 10
11.97226019807381
 20
6.260504190521885
 30
0.0
 10
11.79815546414639
 20
6.353794443408788
 30
0.0
 10
11.49918286581348
 20
6.3926494031554
 30
0.0
 10
11.20024363344445
 20
6.353753210021049
 30
0.0
 10
11.02613353812594
 20
6.260397563183481
 30
0.0
 10
10.94074043338612
 20
6.214610852689348
 30
0.0
  0
SPLINE
  5
AB
330
1F
100
AcDbEntity
  8
외형선
  6
Continuous
 62
     1
370
    15
100
AcDbSpline
210
0.0
220
0.0
230
1.0
 70
     8
 71
     3
 72
     9
 73
     5
 74
     0
 42
0.000000001
 43
0.00000001
 40
0.0
 40
0.0
 40
0.0
 40
0.0
 40
0.5004040411898654
 40
1.0
 40
1.0
 40
1.0
 40
1.0
 10
30.80799012585072
 20
-6.155479158528446
 30
0.0
 10
30.84904991992872
 20
-6.137688609849293
 30
0.0
 10
30.93110320227306
 20
-6.10213624173322
 30
0.0
 10
31.01304654538776
 20
-6.139784746066054
 30
0.0
 10
31.05398510845926
 20
-6.158593786685985
 30
0.0
  0
SPLINE
  5
AC
330
1F
100
AcDbEntity
  8
외형선
  6
Continuous
 62
     1
370
    15
100
AcDbSpline
210
0.0
220
0.0
230
1.0
 70
     8
 71
     3
 72
     9
 73
     5
 74
     0
 42
0.000000001
 43
0.00000001
 40
0.0
 40
0.0
 40
0.0
 40
0.0
 40
0.4993071269248196
 40
1.0
 40
1.0
 40
1.0
 40
1.0
 10
41.05299538699293
 20
-6.158041133229418
 30
0.0
 10
41.12195084224217
 20
-6.197798911897896
 30
0.0
 10
41.26005312745073
 20
-6.277424810517338
 30
0.0
 10
41.41597258065381
 20
-6.30574945116182
 30
0.0
 10
41.49404033964638
 20
-6.319931396864927
 30
0.0
  0
SPLINE
  5
AD
330
1F
100
AcDbEntity
  8
외형선
  6
Continuous
 62
     1
370
    15
100
AcDbSpline
210
0.0
220
0.0
230
1.0
 70
     8
 71
     3
 72
     9
 73
     5
 74
     0
 42
0.000000001
 43
0.00000001
 40
0.0
 40
0.0
 40
0.0
 40
0.0
 40
0.4995314471179957
 40
1.0
 40
1.0
 40
1.0
 40
1.0
 10
32.30093956691201
 20
6.215827605900678
 30
0.0
 10
32.26030070010943
 20
6.19773146505378
 30
0.0
 10
32.17894672922923
 20
6.16150523555151
 30
0.0
 10
32.09753315925564
 20
6.197344343268826
 30
0.0
 10
32.05678822770599
 20
6.215280689644694
 30
0.0
  0
SPLINE
  5
AE
330
1F
100
AcDbEntity
  8
외형선
  6
Continuous
 62
     1
370
    15
100
AcDbSpline
210
0.0
220
0.0
230
1.0
 70
     8
 71
     3
 72
    11
 73
     7
 74
     0
 42
0.000000001
 43
0.00000001
 40
0.0
 40
0.0
 40
0.0
 40
0.0
 40
0.2453304692309433
 40
0.5001470347456884
 40
0.7548891017783722
 40
1.0
 40
1.0
 40
1.0
 40
1.0
 10
22.05574811473879
 20
6.215880250035393
 30
0.0
 10
21.97047926305858
 20
6.261390060636448
 30
0.0
 10
21.79664450271384
 20
6.35416939169675
 30
0.0
 10
21.49820298976999
 20
6.392575607339172
 30
0.0
 10
21.19979144657283
 20
6.353539202416321
 30
0.0
 10
21.02595367534509
 20
6.260308215691665
 30
0.0
 10
20.94070954314555
 20
6.214590909830445
 30
0.0
  0
SPLINE
  5
AF
330
1F
100
AcDbEntity
  8
외형선
  6
Continuous
 62
     1
370
    15
100
AcDbSpline
210
0.0
220
0.0
230
1.0
 70
     8
 71
     3
 72
     9
 73
     5
 74
     0
 42
0.000000001
 43
0.00000001
 40
0.0
 40
0.0
 40
0.0
 40
0.0
 40
0.5004996017221698
 40
1.0
 40
1.0
 40
1.0
 40
1.0
 10
20.80801202864238
 20
-6.155465089404874
 30
0.0
 10
20.84851407038082
 20
-6.137860241925599
 30
0.0
 10
20.92943729509283
 20
-6.102685693496989
 30
0.0
 10
21.01032592611114
 20
-6.138661298639331
 30
0.0
 10
21.05072982952093
 20
-6.156631127736215
 30
0.0
  0
SPLINE
  5
B0
330
1F
100
AcDbEntity
  8
외형선
  6
Continuous
 62
     1
370
    15
100
AcDbSpline
210
0.0
220
0.0
230
1.0
 70
     8
 71
     3
 72
     9
 73
     5
 74
     0
 42
0.000000001
 43
0.00000001
 40
0.0
 40
0.0
 40
0.0
 40
0.0
 40
0.55458062928408
 40
1.0
 40
1.0
 40
1.0
 40
1.0
 10
31.04799277169748
 20
-6.154657850317268
 30
0.0
 10
31.1280386482572
 20
-6.200168685502938
 30
0.0
 10
31.27237451635821
 20
-6.282232199413297
 30
0.0
 10
31.42799295444999
 20
-6.308635432506088
 30
0.0
 10
31.49730842121663
 20
-6.320395943975145
 30
0.0
  0
SPLINE
  5
B1
330
1F
100
AcDbEntity
  8
외형선
  6
Continuous
 62
     1
370
    15
100
AcDbSpline
210
0.0
220
0.0
230
1.0
 70
     8
 71
     3
 72
    11
 73
     7
 74
     0
 42
0.000000001
 43
0.00000001
 40
0.0
 40
0.0
 40
0.0
 40
0.0
 40
0.2453328786779106
 40
0.5001434912746738
 40
0.7548814049952444
 40
1.0
 40
1.0
 40
1.0
 40
1.0
 10
32.05807198359825
 20
6.214483943885337
 30
0.0
 10
31.97278558380927
 20
6.260229114720854
 30
0.0
 10
31.79891798816301
 20
6.353486690199225
 30
0.0
 10
31.50041532193282
 20
6.392579815298556
 30
0.0
 10
31.20194186436587
 20
6.354197823791091
 30
0.0
 10
31.02807116655474
 20
6.261377744173697
 30
0.0
 10
30.94280881542794
 20
6.215860826604563
 30
0.0
  0
SPLINE
  5
B2
330
1F
100
AcDbEntity
  8
외형선
  6
Continuous
 62
     1
370
    15
100
AcDbSpline
210
0.0
220
0.0
230
1.0
 70
     8
 71
     3
 72
     9
 73
     5
 74
     0
 42
0.000000001
 43
0.00000001
 40
0.0
 40
0.0
 40
0.0
 40
0.0
 40
0.5005681668188744
 40
1.0
 40
1.0
 40
1.0
 40
1.0
 10
10.80804152158849
 20
-6.155446115986874
 30
0.0
 10
10.84815911314819
 20
-6.137962965671909
 30
0.0
 10
10.9283032258165
 20
-6.103036353326437
 30
0.0
 10
11.00846782836946
 20
-6.137724810635986
 30
0.0
 10
11.04850458277872
 20
-6.155049330460319
 30
0.0
  0
SPLINE
  5
B3
330
1F
100
AcDbEntity
  8
외형선
  6
Continuous
 62
     1
370
    15
100
AcDbSpline
210
0.0
220
0.0
230
1.0
 70
     8
 71
     3
 72
     9
 73
     5
 74
     0
 42
0.000000001
 43
0.00000001
 40
0.0
 40
0.0
 40
0.0
 40
0.0
 40
0.4514168053410521
 40
1.0
 40
1.0
 40
1.0
 40
1.0
 10
21.04948093485205
 20
-6.155767424405167
 30
0.0
 10
21.110077269125
 20
-6.191878015090747
 30
0.0
 10
21.24431315391261
 20
-6.271871914871021
 30
0.0
 10
21.40824685263912
 20
-6.303240094305409
 30
0.0
 10
21.49817812479876
 20
-6.320448150390158
 30
0.0
  0
LINE
  5
B4
330
1F
100
AcDbEntity
  8
외형선
  6
Continuous
 62
     1
370
    15
100
AcDbLine
 10
41.55000000000002
 20
-6.320471270279522
 30
0.0
 11
41.75000000000001
 21
-6.120471270279523
 31
0.0
  0
SPLINE
  5
B5
330
1F
100
AcDbEntity
  8
외형선
  6
Continuous
 62
     1
370
    15
100
AcDbSpline
210
0.0
220
0.0
230
1.0
 70
     8
 71
     3
 72
     9
 73
     5
 74
     0
 42
0.000000001
 43
0.00000001
 40
0.0
 40
0.0
 40
0.0
 40
0.0
 40
0.4989850119094815
 40
1.0
 40
1.0
 40
1.0
 40
1.0
 10
11.05268530831228
 20
-6.15786007391449
 30
0.0
 10
11.12222659337123
 20
-6.197912080075659
 30
0.0
 10
11.2615920720914
 20
-6.278179032399338
 30
0.0
 10
11.41849510658732
 20
-6.306293640503366
 30
0.0
 10
11.49710587854666
 20
-6.320379480547777
 30
0.0
  0
SPLINE
  5
B6
330
1F
100
AcDbEntity
  8
외형선
  6
Continuous
 62
     1
370
    15
100
AcDbSpline
210
0.0
220
0.0
230
1.0
 70
     8
 71
     3
 72
     9
 73
     5
 74
     0
 42
0.000000001
 43
0.00000001
 40
0.0
 40
0.0
 40
0.0
 40
0.0
 40
0.5503404276739146
 40
1.0
 40
1.0
 40
1.0
 40
1.0
 10
31.50041704693083
 20
-6.320444738560503
 30
0.0
 10
31.59010042558477
 20
-6.303333890763827
 30
0.0
 10
31.75306024853107
 20
-6.272242502713349
 30
0.0
 10
31.88777127743152
 20
-6.19228268167354
 30
0.0
 10
31.9483453810745
 20
-6.15632798274151
 30
0.0
  0
SPLINE
  5
B7
330
1F
100
AcDbEntity
  8
외형선
  6
Continuous
 62
     1
370
    15
100
AcDbSpline
210
0.0
220
0.0
230
1.0
 70
     8
 71
     3
 72
     9
 73
     5
 74
     0
 42
0.000000001
 43
0.00000001
 40
0.0
 40
0.0
 40
0.0
 40
0.0
 40
0.4340613015301519
 40
1.0
 40
1.0
 40
1.0
 40
1.0
 10
21.50078534424128
 20
-6.320425187667809
 30
0.0
 10
21.5710094715349
 20
-6.308238333997583
 30
0.0
 10
21.73279336483769
 20
-6.280161991722276
 30
0.0
 10
21.87212481231902
 20
-6.199861465126941
 30
0.0
 10
21.95097787036251
 20
-6.154416289619131
 30
0.0
  0
SPLINE
  5
B8
330
1F
100
AcDbEntity
  8
외형선
  6
Continuous
 62
     1
370
    15
100
AcDbSpline
210
0.0
220
0.0
230
1.0
 70
     8
 71
     3
 72
     9
 73
     5
 74
     0
 42
0.000000001
 43
0.00000001
 40
0.0
 40
0.0
 40
0.0
 40
0.0
 40
0.500948839295057
 40
1.0
 40
1.0
 40
1.0
 40
1.0
 10
11.50459828212976
 20
-6.319908179836489
 30
0.0
 10
11.58333657818386
 20
-6.305507541400781
 30
0.0
 10
11.74051489636281
 20
-6.276760816573604
 30
0.0
 10
11.88014366039636
 20
-6.195725985461656
 30
0.0
 10
11.9498255571551
 20
-6.155285458937709
 30
0.0
  0
SPLINE
  5
B9
330
1F
100
AcDbEntity
  8
외형선
  6
Continuous
 62
     1
370
    15
100
AcDbSpline
210
0.0
220
0.0
230
1.0
 70
     8
 71
     3
 72
     9
 73
     5
 74
     0
 42
0.000000001
 43
0.00000001
 40
0.0
 40
0.0
 40
0.0
 40
0.0
 40
0.5005957668345622
 40
1.0
 40
1.0
 40
1.0
 40
1.0
 10
31.94868644955491
 20
-6.156095136880524
 30
0.0
 10
31.98886480118072
 20
-6.138309823249952
 30
0.0
 10
32.06912587066574
 20
-6.102781529147435
 30
0.0
 10
32.15025892600869
 20
-6.137992513229424
 30
0.0
 10
32.19077711729661
 20
-6.155577027733893
 30
0.0
  0
SPLINE
  5
BA
330
1F
100
AcDbEntity
  8
외형선
  6
Continuous
 62
     1
370
    15
100
AcDbSpline
210
0.0
220
0.0
230
1.0
 70
     8
 71
     3
 72
     9
 73
     5
 74
     0
 42
0.000000001
 43
0.00000001
 40
0.0
 40
0.0
 40
0.0
 40
0.0
 40
0.4993884642298697
 40
1.0
 40
1.0
 40
1.0
 40
1.0
 10
10.93971208178677
 20
6.213926746435125
 30
0.0
 10
10.89923250497207
 20
6.19659495200895
 30
0.0
 10
10.8181742112505
 20
6.161888915190691
 30
0.0
 10
10.73800019050575
 20
6.197752656209354
 30
0.0
 10
10.69786415085185
 20
6.215706458679169
 30
0.0
  0
SPLINE
  5
BB
330
1F
100
AcDbEntity
  8
외형선
  6
Continuous
 62
     1
370
    15
100
AcDbSpline
210
0.0
220
0.0
230
1.0
 70
     8
 71
     3
 72
     9
 73
     5
 74
     0
 42
0.000000001
 43
0.00000001
 40
0.0
 40
0.0
 40
0.0
 40
0.0
 40
0.5005336016311726
 40
1.0
 40
1.0
 40
1.0
 40
1.0
 10
21.94555032708341
 20
-6.158069544631096
 30
0.0
 10
21.9862554145937
 20
-6.13946059390905
 30
0.0
 10
22.06757880103096
 20
-6.102282369187665
 30
0.0
 10
22.1497245005388
 20
-6.137814649046829
 30
0.0
 10
22.19075351721347
 20
-6.155561828893918
 30
0.0
  0
SPLINE
  5
BC
330
1F
100
AcDbEntity
  8
외형선
  6
Continuous
 62
     1
370
    15
100
AcDbSpline
210
0.0
220
0.0
230
1.0
 70
     8
 71
     3
 72
     9
 73
     5
 74
     0
 42
0.000000001
 43
0.00000001
 40
0.0
 40
0.0
 40
0.0
 40
0.0
 40
0.4994782152815371
 40
1.0
 40
1.0
 40
1.0
 40
1.0
 10
20.94274370739105
 20
6.215824042576117
 30
0.0
 10
20.9017653952208
 20
6.197684351569621
 30
0.0
 10
20.81972315410493
 20
6.161367069951495
 30
0.0
 10
20.73849442273903
 20
6.197592332703707
 30
0.0
 10
20.69783767314535
 20
6.215723865868339
 30
0.0
  0
SPLINE
  5
BD
330
1F
100
AcDbEntity
  8
외형선
  6
Continuous
 62
     1
370
    15
100
AcDbSpline
210
0.0
220
0.0
230
1.0
 70
     8
 71
     3
 72
     9
 73
     5
 74
     0
 42
0.000000001
 43
0.00000001
 40
0.0
 40
0.0
 40
0.0
 40
0.0
 40
0.5097275462377305
 40
1.0
 40
1.0
 40
1.0
 40
1.0
 10
41.58960449993154
 20
6.375395508475806
 30
0.0
 10
41.47305336495891
 20
6.375570895090194
 30
0.0
 10
41.24439957562988
 20
6.375914974227531
 30
0.0
 10
41.04241988941914
 20
6.268732852306067
 30
0.0
 10
40.94339481305045
 20
6.216184410392183
 30
0.0
  0
SPLINE
  5
BE
330
1F
100
AcDbEntity
  8
외형선
  6
Continuous
 62
     1
370
    15
100
AcDbSpline
210
0.0
220
0.0
230
1.0
 70
     8
 71
     3
 72
    10
 73
     6
 74
     0
 42
0.000000001
 43
0.00000001
 40
0.0
 40
0.0
 40
0.0
 40
0.0
 40
0.4375891274639589
 40
0.893183414736468
 40
0.9999999999999999
 40
0.9999999999999999
 40
0.9999999999999999
 40
0.9999999999999999
 10
32.19313679961493
 20
-6.156986137957272
 30
0.0
 10
32.27731630326821
 20
-6.200796758083627
 30
0.0
 10
32.44913898304917
 20
-6.290220641882939
 30
0.0
 10
32.67073014003076
 20
-6.334295940125728
 30
0.0
 10
32.79115306018533
 20
-6.314108179603158
 30
0.0
 10
32.81402453324269
 20
-6.310273994048717
 30
0.0
  0
LINE
  5
BF
330
1F
100
AcDbEntity
  8
외형선
  6
Continuous
 62
     1
370
    15
100
AcDbLine
 10
33.00095160268351
 20
-6.283416647652488
 30
0.0
 11
33.03454281475599
 21
-6.278590322491566
 31
0.0
  0
SPLINE
  5
C0
330
1F
100
AcDbEntity
  8
외형선
  6
Continuous
 62
     1
370
    15
100
AcDbSpline
210
0.0
220
0.0
230
1.0
 70
     8
 71
     3
 72
     9
 73
     5
 74
     0
 42
0.000000001
 43
0.00000001
 40
0.0
 40
0.0
 40
0.0
 40
0.0
 40
0.9091321597397247
 40
0.9999999999999999
 40
0.9999999999999999
 40
0.9999999999999999
 40
0.9999999999999999
 10
41.50290105300856
 20
-6.320209112119396
 30
0.0
 10
41.5199887415197
 20
-6.318109137341845
 30
0.0
 10
41.538784346018
 20
-6.315799269898424
 30
0.0
 10
41.55736067509601
 20
-6.312073334044763
 30
0.0
 10
41.55904866599931
 20
-6.311734766300794
 30
0.0
  0
SPLINE
  5
C1
330
1F
100
AcDbEntity
  8
외형선
  6
Continuous
 62
     1
370
    15
100
AcDbSpline
210
0.0
220
0.0
230
1.0
 70
     8
 71
     3
 72
     9
 73
     5
 74
     0
 42
0.000000001
 43
0.00000001
 40
0.0
 40
0.0
 40
0.0
 40
0.0
 40
0.4991263074299651
 40
1.0
 40
1.0
 40
1.0
 40
1.0
 10
10.69513604688754
 20
6.217359843478243
 30
0.0
 10
10.6256191667391
 20
6.257332512691139
 30
0.0
 10
10.48634203565301
 20
6.337417790942085
 30
0.0
 10
10.32944584489461
 20
6.365441599661351
 30
0.0
 10
10.25086067047928
 20
6.379477988214447
 30
0.0
  0
SPLINE
  5
C2
330
1F
100
AcDbEntity
  8
외형선
  6
Continuous
 62
     1
370
    15
100
AcDbSpline
210
0.0
220
0.0
230
1.0
 70
     8
 71
     3
 72
     9
 73
     5
 74
     0
 42
0.000000001
 43
0.00000001
 40
0.0
 40
0.0
 40
0.0
 40
0.0
 40
0.5003785109720185
 40
1.0
 40
1.0
 40
1.0
 40
1.0
 10
11.94174694258284
 20
-6.159961540023312
 30
0.0
 10
11.98352692097964
 20
-6.140427653490875
 30
0.0
 10
12.06702366890281
 20
-6.101389433215408
 30
0.0
 10
12.15122453933177
 20
-6.138520350035341
 30
0.0
 10
12.19329310359293
 20
-6.157071753985887
 30
0.0
  0
SPLINE
  5
C3
330
1F
100
AcDbEntity
  8
외형선
  6
Continuous
 62
     1
370
    15
100
AcDbSpline
210
0.0
220
0.0
230
1.0
 70
     8
 71
     3
 72
     9
 73
     5
 74
     0
 42
0.000000001
 43
0.00000001
 40
0.0
 40
0.0
 40
0.0
 40
0.0
 40
0.4996297389105593
 40
1.0
 40
1.0
 40
1.0
 40
1.0
 10
30.94650450009911
 20
6.217676423949607
 30
0.0
 10
30.90452740616739
 20
6.198619800169877
 30
0.0
 10
30.82051100229349
 20
6.160478307989523
 30
0.0
 10
30.73719236310325
 20
6.198253039704101
 30
0.0
 10
30.69550219385802
 20
6.217154392074708
 30
0.0
  0
SPLINE
  5
C4
330
1F
100
AcDbEntity
  8
외형선
  6
Continuous
 62
     1
370
    15
100
AcDbSpline
210
0.0
220
0.0
230
1.0
 70
     8
 71
     3
 72
    10
 73
     6
 74
     0
 42
0.000000001
 43
0.00000001
 40
0.0
 40
0.0
 40
0.0
 40
0.0
 40
0.3546347122435369
 40
0.7239646667885187
 40
0.9999999999999999
 40
0.9999999999999999
 40
0.9999999999999999
 40
0.9999999999999999
 10
22.19069352459984
 20
-6.155523093964597
 30
0.0
 10
22.274777072933
 20
-6.200131412440336
 30
0.0
 10
22.44642839737982
 20
-6.291196514942506
 30
0.0
 10
22.71830621451182
 20
-6.33536288568558
 30
0.0
 10
22.88802918587676
 20
-6.302437202477011
 30
0.0
 10
22.96062301427623
 20
-6.288354244951842
 30
0.0
  0
SPLINE
  5
C5
330
1F
100
AcDbEntity
  8
외형선
  6
Continuous
 62
     1
370
    15
100
AcDbSpline
210
0.0
220
0.0
230
1.0
 70
     8
 71
     3
 72
     9
 73
     5
 74
     0
 42
0.000000001
 43
0.00000001
 40
0.0
 40
0.0
 40
0.0
 40
0.0
 40
0.499330279253545
 40
1.0
 40
1.0
 40
1.0
 40
1.0
 10
20.6953173118627
 20
6.217258770592132
 30
0.0
 10
20.62626739967312
 20
6.257037704448446
 30
0.0
 10
20.48798235056132
 20
6.336702278196672
 30
0.0
 10
20.33188609526544
 20
6.364976912095609
 30
0.0
 10
20.25373342671689
 20
6.379133165154
 30
0.0
  0
SPLINE
  5
C6
330
1F
100
AcDbEntity
  8
외형선
  6
Continuous
 62
     1
370
    15
100
AcDbSpline
210
0.0
220
0.0
230
1.0
 70
     8
 71
     3
 72
    11
 73
     7
 74
     0
 42
0.000000001
 43
0.00000001
 40
0.0
 40
0.0
 40
0.0
 40
0.0
 40
0.2198461628331516
 40
0.4809737709731366
 40
0.7422319062938886
 40
1.0
 40
1.0
 40
1.0
 40
1.0
 10
40.94213368538768
 20
6.214885521766181
 30
0.0
 10
40.92568656378813
 20
6.205622476625009
 30
0.0
 10
40.889703974893
 20
6.185357025116421
 30
0.0
 10
40.82272711442054
 20
6.176021783546386
 30
0.0
 10
40.75275115275996
 20
6.18531670536513
 30
0.0
 10
40.71435332115347
 20
6.206671912291144
 30
0.0
 10
40.69528350290133
 20
6.21727771730092
 30
0.0
  0
SPLINE
  5
C7
330
1F
100
AcDbEntity
  8
외형선
  6
Continuous
 62
     1
370
    15
100
AcDbSpline
210
0.0
220
0.0
230
1.0
 70
     8
 71
     3
 72
    10
 73
     6
 74
     0
 42
0.000000001
 43
0.00000001
 40
0.0
 40
0.0
 40
0.0
 40
0.0
 40
0.3851760555967879
 40
0.7863900981908064
 40
0.9999999999999999
 40
0.9999999999999999
 40
0.9999999999999999
 40
0.9999999999999999
 10
12.18748698710184
 20
-6.153246285916265
 30
0.0
 10
12.2714236273512
 20
-6.197707804081658
 30
0.0
 10
12.44279186742839
 20
-6.288482132152548
 30
0.0
 10
12.69303128792698
 20
-6.332723086556997
 30
0.0
 10
12.84180607767242
 20
-6.305551197973553
 30
0.0
 10
12.89349529459135
 20
-6.296110797180584
 30
0.0
  0
SPLINE
  5
C8
330
1F
100
AcDbEntity
  8
외형선
  6
Continuous
 62
     1
370
    15
100
AcDbSpline
210
0.0
220
0.0
230
1.0
 70
     8
 71
     3
 72
     9
 73
     5
 74
     0
 42
0.000000001
 43
0.00000001
 40
0.0
 40
0.0
 40
0.0
 40
0.0
 40
0.4994441635387001
 40
1.0
 40
1.0
 40
1.0
 40
1.0
 10
30.69752012939827
 20
6.215930552032726
 30
0.0
 10
30.62872952564075
 20
6.255703424917656
 30
0.0
 10
30.49099520260827
 20
6.335337697952557
 30
0.0
 10
30.33534385978562
 20
6.363909106131116
 30
0.0
 10
30.2574316716827
 20
6.378210691250811
 30
0.0
  0
LINE
  5
C9
330
1F
100
AcDbEntity
  8
외형선
  6
Continuous
 62
     1
370
    15
100
AcDbLine
 10
41.75000000000001
 20
6.179528729720476
 30
0.0
 11
41.55000000000002
 21
6.379528729720474
 31
0.0
  0
SPLINE
  5
CA
330
1F
100
AcDbEntity
  8
외형선
  6
Continuous
 62
     1
370
    15
100
AcDbSpline
210
0.0
220
0.0
230
1.0
 70
     8
 71
     3
 72
     9
 73
     5
 74
     0
 42
0.000000001
 43
0.00000001
 40
0.0
 40
0.0
 40
0.0
 40
0.0
 40
0.4995172620396229
 40
1.0
 40
1.0
 40
1.0
 40
1.0
 10
40.70074437874545
 20
6.213653936772568
 30
0.0
 10
40.63212214137317
 20
6.25347777065848
 30
0.0
 10
40.4947450323378
 20
6.333202410650511
 30
0.0
 10
40.33938349752568
 20
6.362067427936857
 30
0.0
 10
40.26162773120919
 20
6.376513870819601
 30
0.0
  0
LINE
  5
CB
330
1F
100
AcDbEntity
  8
외형선
  6
Continuous
370
    15
100
AcDbLine
 10
10.24937997812087
 20
6.37952872972047
 30
0.0
 11
10.00000000000001
 21
6.37952872972047
 31
0.0
  0
LINE
  5
CC
330
1F
100
AcDbEntity
  8
외형선
  6
Continuous
 62
     1
370
    15
100
AcDbLine
 10
20.24622825470285
 20
6.379346797584612
 30
0.0
 11
20.11107411027163
 21
6.348455883839707
 31
0.0
  0
LINE
  5
CD
330
1F
100
AcDbEntity
  8
외형선
  6
Continuous
370
    15
100
AcDbLine
 10
10.00000000000001
 20
6.300294233229597
 30
0.0
 11
9.848781106319421
 21
6.312275986130286
 31
0.0
  0
LINE
  5
CE
330
1F
100
AcDbEntity
  8
외형선
  6
Continuous
 62
     1
370
    15
100
AcDbLine
 10
30.24622821629123
 20
6.379346792970238
 30
0.0
 11
30.21740497327833
 21
6.374905216744978
 31
0.0
  0
SPLINE
  5
CF
330
1F
100
AcDbEntity
  8
외형선
  6
Continuous
 62
     1
370
    15
100
AcDbSpline
210
0.0
220
0.0
230
1.0
 70
     8
 71
     3
 72
    14
 73
    10
 74
     0
 42
0.000000001
 43
0.00000001
 40
0.0
 40
0.0
 40
0.0
 40
0.0
 40
0.2500000000000002
 40
0.2500000000000002
 40
0.5000000000000003
 40
0.5000000000000003
 40
0.7500000000000001
 40
0.7500000000000001
 40
1.0
 40
1.0
 40
1.0
 40
1.0
 10
11.49491860912788
 20
1.243294450849147
 30
0.0
 10
11.41029900217609
 20
1.323412472857976
 30
0.0
 10
11.3244362137978
 20
1.407321582714632
 30
0.0
 10
11.14843595903642
 20
1.578466084664775
 30
0.0
 10
11.05926505166269
 20
1.664817001314572
 30
0.0
 10
10.88319145709729
 20
1.830899880166397
 30
0.0
 10
10.79777711697646
 20
1.909279894622185
 30
0.0
 10
10.63096121338681
 20
2.055820065273622
 30
0.0
 10
10.54960915032571
 20
2.123919386857401
 30
0.0
 10
10.47383418122157
 20
2.1831758219412
 30
0.0
  0
SPLINE
  5
D0
330
1F
100
AcDbEntity
  8
외형선
  6
Continuous
 62
     1
370
    15
100
AcDbSpline
210
0.0
220
0.0
230
1.0
 70
     8
 71
     3
 72
    14
 73
    10
 74
     0
 42
0.000000001
 43
0.00000001
 40
0.0
 40
0.0
 40
0.0
 40
0.0
 40
0.25
 40
0.25
 40
0.5
 40
0.5
 40
0.75
 40
0.75
 40
1.0
 40
1.0
 40
1.0
 40
1.0
 10
10.30441769092597
 20
-0.4247038127845185
 30
0.0
 10
10.3888692560713
 20
-0.4990641156215949
 30
0.0
 10
10.47441678719547
 20
-0.5798819374904431
 30
0.0
 10
10.64977875598959
 20
-0.7486287028916901
 30
0.0
 10
10.73871253146325
 20
-0.8356604216148765
 30
0.0
 10
10.91459178637782
 20
-1.006572589920149
 30
0.0
 10
11.000015027206
 20
-1.088991143052602
 30
0.0
 10
11.16701210308316
 20
-1.246775794148334
 30
0.0
 10
11.24859413020505
 20
-1.322091743659297
 30
0.0
 10
11.32452406354653
 20
-1.3901921093772
 30
0.0
  0
SPLINE
  5
D1
330
1F
100
AcDbEntity
  8
외형선
  6
Continuous
 62
     1
370
    15
100
AcDbSpline
210
0.0
220
0.0
230
1.0
 70
     8
 71
     3
 72
     8
 73
     4
 74
     0
 42
0.000000001
 43
0.00000001
 40
0.0
 40
0.0
 40
0.0
 40
0.0
 40
1.0
 40
1.0
 40
1.0
 40
1.0
 10
32.01026388866325
 20
-1.766392643253142
 30
0.0
 10
32.1531658113996
 20
-1.898396011024459
 30
0.0
 10
32.29121926025209
 20
-2.018244247947329
 30
0.0
 10
32.4149043989555
 20
-2.114865722828487
 30
0.0
  0
SPLINE
  5
D2
330
1F
100
AcDbEntity
  8
외형선
  6
Continuous
 62
     1
370
    15
100
AcDbSpline
210
0.0
220
0.0
230
1.0
 70
     8
 71
     3
 72
    10
 73
     6
 74
     0
 42
0.000000001
 43
0.00000001
 40
0.0
 40
0.0
 40
0.0
 40
0.0
 40
0.5
 40
0.5
 40
1.0
 40
1.0
 40
1.0
 40
1.0
 10
32.17834895614352
 20
0.8772298464694407
 30
0.0
 10
32.15180429506777
 20
0.4438070773999573
 30
0.0
 10
32.12394233563034
 20
-0.0028003866923575
 30
0.0
 10
32.06729750373555
 20
-0.893874629672616
 30
0.0
 10
32.03852791662369
 20
-1.338125000802437
 30
0.0
 10
32.01026394492971
 20
-1.766392695228307
 30
0.0
  0
SPLINE
  5
D3
330
1F
100
AcDbEntity
  8
외형선
  6
Continuous
 62
     1
370
    15
100
AcDbSpline
210
0.0
220
0.0
230
1.0
 70
     8
 71
     3
 72
     8
 73
     4
 74
     0
 42
0.000000001
 43
0.00000001
 40
0.0
 40
0.0
 40
0.0
 40
0.0
 40
1.0
 40
1.0
 40
1.0
 40
1.0
 10
32.58673236438667
 20
0.4913700509024487
 30
0.0
 10
32.45549518115384
 20
0.6068888435041812
 30
0.0
 10
32.3168055436031
 20
0.7423430691058888
 30
0.0
 10
32.17834895614354
 20
0.877229846469568
 30
0.0
  0
SPLINE
  5
D4
330
1F
100
AcDbEntity
  8
외형선
  6
Continuous
 62
     1
370
    15
100
AcDbSpline
210
0.0
220
0.0
230
1.0
 70
     8
 71
     3
 72
    14
 73
    10
 74
     0
 42
0.000000001
 43
0.00000001
 40
0.0
 40
0.0
 40
0.0
 40
0.0
 40
0.25
 40
0.25
 40
0.5
 40
0.5
 40
0.75
 40
0.75
 40
1.0
 40
1.0
 40
1.0
 40
1.0
 10
21.50347679012432
 20
1.375396701339352
 30
0.0
 10
21.41887307323788
 20
1.456875440813771
 30
0.0
 10
21.33353611730807
 20
1.541326683299023
 30
0.0
 10
21.15909634890569
 20
1.711853751291168
 30
0.0
 10
21.06953405275954
 20
1.798531848300472
 30
0.0
 10
20.89324248798467
 20
1.963729223041325
 30
0.0
 10
20.80764582801513
 20
2.041266152107628
 30
0.0
 10
20.64035086733125
 20
2.185337246463142
 30
0.0
 10
20.5586414328943
 20
2.251763148065566
 30
0.0
 10
20.48261280900289
 20
2.309093245372723
 30
0.0
  0
SPLINE
  5
D5
330
1F
100
AcDbEntity
  8
외형선
  6
Continuous
 62
     1
370
    15
100
AcDbSpline
210
0.0
220
0.0
230
1.0
 70
     8
 71
     3
 72
    14
 73
    10
 74
     0
 42
0.000000001
 43
0.00000001
 40
0.0
 40
0.0
 40
0.0
 40
0.0
 40
0.2500000000000001
 40
0.2500000000000001
 40
0.5000000000000001
 40
0.5000000000000001
 40
0.7500000000000001
 40
0.7500000000000001
 40
1.0
 40
1.0
 40
1.0
 40
1.0
 10
20.31313443472812
 20
-0.2907298076426453
 30
0.0
 10
20.39760303909992
 20
-0.3637715466993149
 30
0.0
 10
20.48333500977703
 20
-0.4435178384343183
 30
0.0
 10
20.65911841521219
 20
-0.6108058935883125
 30
0.0
 10
20.74820484259359
 20
-0.6975724802092287
 30
0.0
 10
20.92415718652135
 20
-0.8687305634271573
 30
0.0
 10
21.0095284237532
 20
-0.9516756306012818
 30
0.0
 10
21.17628489473849
 20
-1.111296292157116
 30
0.0
 10
21.25766735747188
 20
-1.187926683893813
 30
0.0
 10
21.33338543747612
 20
-1.257723848646964
 30
0.0
  0
SPLINE
  5
D6
330
1F
100
AcDbEntity
  8
외형선
  6
Continuous
 62
     1
370
    15
100
AcDbSpline
210
0.0
220
0.0
230
1.0
 70
     8
 71
     3
 72
     8
 73
     4
 74
     0
 42
0.000000001
 43
0.00000001
 40
0.0
 40
0.0
 40
0.0
 40
0.0
 40
1.0
 40
1.0
 40
1.0
 40
1.0
 10
12.16128010156301
 20
0.5996482796397583
 30
0.0
 10
12.01835696196593
 20
0.7409964211682711
 30
0.0
 10
11.88003078214164
 20
0.8775805042547911
 30
0.0
 10
11.75583091273465
 20
0.9975016352824959
 30
0.0
  0
SPLINE
  5
D7
330
1F
100
AcDbEntity
  8
외형선
  6
Continuous
 62
     1
370
    15
100
AcDbSpline
210
0.0
220
0.0
230
1.0
 70
     8
 71
     3
 72
    10
 73
     6
 74
     0
 42
0.000000001
 43
0.00000001
 40
0.0
 40
0.0
 40
0.0
 40
0.0
 40
0.5
 40
0.5
 40
1.0
 40
1.0
 40
1.0
 40
1.0
 10
12.16128010156179
 20
0.5996482796413137
 30
0.0
 10
12.13427485795381
 20
0.162225263470214
 30
0.0
 10
12.10612411918941
 20
-0.2854642455088882
 30
0.0
 10
12.04930707553643
 20
-1.172329138245984
 30
0.0
 10
12.02065439934854
 20
-1.611287709543221
 30
0.0
 10
11.99269844219768
 20
-2.031487380215324
 30
0.0
  0
SPLINE
  5
D8
330
1F
100
AcDbEntity
  8
외형선
  6
Continuous
 62
     1
370
    15
100
AcDbSpline
210
0.0
220
0.0
230
1.0
 70
     8
 71
     3
 72
     8
 73
     4
 74
     0
 42
0.000000001
 43
0.00000001
 40
0.0
 40
0.0
 40
0.0
 40
0.0
 40
1.0
 40
1.0
 40
1.0
 40
1.0
 10
11.58494527511985
 20
-1.631436465326057
 30
0.0
 10
11.71596395854186
 20
-1.760346509014613
 30
0.0
 10
11.85471134601962
 20
-1.899494681412171
 30
0.0
 10
11.9926984421977
 20
-2.031487380218045
 30
0.0
  0
SPLINE
  5
D9
330
1F
100
AcDbEntity
  8
외형선
  6
Continuous
 62
     1
370
    15
100
AcDbSpline
210
0.0
220
0.0
230
1.0
 70
     8
 71
     3
 72
    14
 73
    10
 74
     0
 42
0.000000001
 43
0.00000001
 40
0.0
 40
0.0
 40
0.0
 40
0.0
 40
0.2499999999999999
 40
0.2499999999999999
 40
0.4999999999999998
 40
0.4999999999999998
 40
0.7499999999999999
 40
0.7499999999999999
 40
1.0
 40
1.0
 40
1.0
 40
1.0
 10
31.51211798361955
 20
1.507440640964016
 30
0.0
 10
31.42748366235615
 20
1.589329060405433
 30
0.0
 10
31.34163164662229
 20
1.674150286318849
 30
0.0
 10
31.16571700339001
 20
1.845833509841245
 30
0.0
 10
31.07664292707368
 20
1.931761101373286
 30
0.0
 10
30.90082619375509
 20
2.095823494543124
 30
0.0
 10
30.81563237596957
 20
2.172702141130427
 30
0.0
 10
30.64891802083945
 20
2.314750016254623
 30
0.0
 10
30.56741674524067
 20
2.379785865831218
 30
0.0
 10
30.4915104385914
 20
2.435401710307043
 30
0.0
  0
SPLINE
  5
DA
330
1F
100
AcDbEntity
  8
외형선
  6
Continuous
 62
     1
370
    15
100
AcDbSpline
210
0.0
220
0.0
230
1.0
 70
     8
 71
     3
 72
    14
 73
    10
 74
     0
 42
0.000000001
 43
0.00000001
 40
0.0
 40
0.0
 40
0.0
 40
0.0
 40
0.2500000000000001
 40
0.2500000000000001
 40
0.5000000000000001
 40
0.5000000000000001
 40
0.7500000000000002
 40
0.7500000000000002
 40
1.0
 40
1.0
 40
1.0
 40
1.0
 10
30.32198245748764
 20
-0.1542157857627422
 30
0.0
 10
30.40655606463134
 20
-0.2261010728418772
 30
0.0
 10
30.49232450810153
 20
-0.3052306235830481
 30
0.0
 10
30.66801639726105
 20
-0.4721518548525349
 30
0.0
 10
30.75690153278654
 20
-0.5591882086016474
 30
0.0
 10
30.93247255772783
 20
-0.7315807955531036
 30
0.0
 10
31.0177964480733
 20
-0.8153278519624407
 30
0.0
 10
31.1846782417368
 20
-0.9769229649567747
 30
0.0
 10
31.26623690519743
 20
-1.05472962745824
 30
0.0
 10
31.34217116584027
 20
-1.125876128162752
 30
0.0
  0
SPLINE
  5
DB
330
1F
100
AcDbEntity
  8
외형선
  6
Continuous
 62
     1
370
    15
100
AcDbSpline
210
0.0
220
0.0
230
1.0
 70
     8
 71
     3
 72
     8
 73
     4
 74
     0
 42
0.000000001
 43
0.00000001
 40
0.0
 40
0.0
 40
0.0
 40
0.0
 40
1.0
 40
1.0
 40
1.0
 40
1.0
 10
22.00140756042033
 20
-1.900317451546337
 30
0.0
 10
22.14418464732408
 20
-2.030711700238198
 30
0.0
 10
22.28242354522513
 20
-2.147850912282255
 30
0.0
 10
22.40623963417205
 20
-2.241053006560615
 30
0.0
  0
SPLINE
  5
DC
330
1F
100
AcDbEntity
  8
외형선
  6
Continuous
 62
     1
370
    15
100
AcDbSpline
210
0.0
220
0.0
230
1.0
 70
     8
 71
     3
 72
    10
 73
     6
 74
     0
 42
0.000000001
 43
0.00000001
 40
0.0
 40
0.0
 40
0.0
 40
0.0
 40
0.5
 40
0.5
 40
1.0
 40
1.0
 40
1.0
 40
1.0
 10
22.16982381487095
 20
0.7383120045311661
 30
0.0
 10
22.14303565720866
 20
0.3026744140353779
 30
0.0
 10
22.11501482963767
 20
-0.1447012148028592
 30
0.0
 10
22.05825525921227
 20
-1.034103194987488
 30
0.0
 10
22.02953001754809
 20
-1.475912243809387
 30
0.0
 10
22.00140761669998
 20
-1.900317502944661
 30
0.0
  0
SPLINE
  5
DD
330
1F
100
AcDbEntity
  8
외형선
  6
Continuous
 62
     1
370
    15
100
AcDbSpline
210
0.0
220
0.0
230
1.0
 70
     8
 71
     3
 72
     8
 73
     4
 74
     0
 42
0.000000001
 43
0.00000001
 40
0.0
 40
0.0
 40
0.0
 40
0.0
 40
1.0
 40
1.0
 40
1.0
 40
1.0
 10
22.57819649312743
 20
0.3571834377041901
 30
0.0
 10
22.44714800930094
 20
0.4703987127103398
 30
0.0
 10
22.3082269447501
 20
0.6040363897757626
 30
0.0
 10
22.16982381487097
 20
0.7383120045315896
 30
0.0
  0
SPLINE
  5
DE
330
1F
100
AcDbEntity
  8
외형선
  6
Continuous
 62
     1
370
    15
100
AcDbSpline
210
0.0
220
0.0
230
1.0
 70
     8
 71
     3
 72
     8
 73
     4
 74
     0
 42
0.000000001
 43
0.00000001
 40
0.0
 40
0.0
 40
0.0
 40
0.0
 40
1.0
 40
1.0
 40
1.0
 40
1.0
 10
21.59369584826779
 20
-1.501535277568679
 30
0.0
 10
21.72446096457384
 20
-1.629367903169668
 30
0.0
 10
21.86313606513002
 20
-1.768167424630623
 30
0.0
 10
22.00140761670175
 20
-1.900317502946658
 30
0.0
  0
SPLINE
  5
DF
330
1F
100
AcDbEntity
  8
외형선
  6
Continuous
 62
     1
370
    15
100
AcDbSpline
210
0.0
220
0.0
230
1.0
 70
     8
 71
     3
 72
     8
 73
     4
 74
     0
 42
0.000000001
 43
0.00000001
 40
0.0
 40
0.0
 40
0.0
 40
0.0
 40
1.0
 40
1.0
 40
1.0
 40
1.0
 10
22.16982381489298
 20
0.7383120045094782
 30
0.0
 10
22.02671782718456
 20
0.8783097263083435
 30
0.0
 10
21.88824211975687
 20
1.012675417553214
 30
0.0
 10
21.76425649149448
 20
1.130042698725372
 30
0.0
  0
SPLINE
  5
E0
330
1F
100
AcDbEntity
  8
외형선
  6
Continuous
 62
     1
370
    15
100
AcDbSpline
210
0.0
220
0.0
230
1.0
 70
     8
 71
     3
 72
     8
 73
     4
 74
     0
 42
0.000000001
 43
0.00000001
 40
0.0
 40
0.0
 40
0.0
 40
0.0
 40
1.0
 40
1.0
 40
1.0
 40
1.0
 10
31.6025570235314
 20
-1.36947502766126
 30
0.0
 10
31.73346564849572
 20
-1.495477411936651
 30
0.0
 10
31.87218595474248
 20
-1.633757680934139
 30
0.0
 10
32.01026394492972
 20
-1.766392695228416
 30
0.0
  0
SPLINE
  5
E1
330
1F
100
AcDbEntity
  8
외형선
  6
Continuous
 62
     1
370
    15
100
AcDbSpline
210
0.0
220
0.0
230
1.0
 70
     8
 71
     3
 72
     8
 73
     4
 74
     0
 42
0.000000001
 43
0.00000001
 40
0.0
 40
0.0
 40
0.0
 40
0.0
 40
1.0
 40
1.0
 40
1.0
 40
1.0
 10
32.17834895614351
 20
0.8772298464696079
 30
0.0
 10
32.03549182706787
 20
1.016751062571166
 30
0.0
 10
31.89698986996905
 20
1.14955213727854
 30
0.0
 10
31.77287917335023
 20
1.264316484901081
 30
0.0
  0
SPLINE
  5
E2
330
1F
100
AcDbEntity
  8
외형선
  6
Continuous
 62
     1
370
    15
100
AcDbSpline
210
0.0
220
0.0
230
1.0
 70
    24
 71
     3
 72
     8
 73
     4
 74
     0
 42
0.000000001
 43
0.00000001
 40
0.0
 40
0.0
 40
0.0
 40
0.0
 40
1.0
 40
1.0
 40
1.0
 40
1.0
 10
41.37259550860561
 20
-0.6653757616739431
 30
0.0
 10
41.31464559381743
 20
-0.7233256764621233
 30
0.0
 10
41.25572607854767
 20
-0.7822451917318819
 30
0.0
 10
41.19598499179734
 20
-0.8419862784822195
 30
0.0
  0
SPLINE
  5
E3
330
1F
100
AcDbEntity
  8
외형선
  6
Continuous
 62
     1
370
    15
100
AcDbSpline
210
0.0
220
0.0
230
1.0
 70
     8
 71
     3
 72
    12
 73
     8
 74
     0
 42
0.000000001
 43
0.00000001
 40
0.0
 40
0.0
 40
0.0
 40
0.0
 40
0.25
 40
0.25
 40
0.5
 40
0.5
 40
1.0
 40
1.0
 40
1.0
 40
1.0
 10
40.33066406752177
 20
-0.0197533305314433
 30
0.0
 10
40.40140325963252
 20
-0.0791251411112928
 30
0.0
 10
40.47273550871889
 20
-0.1435588551759689
 30
0.0
 10
40.61772317786625
 20
-0.278675141799439
 30
0.0
 10
40.69205597603143
 20
-0.3501158154805419
 30
0.0
 10
40.91414493844579
 20
-0.565859054356937
 30
0.0
 10
41.05862769898788
 20
-0.7087401898400465
 30
0.0
 10
41.19598499179733
 20
-0.841986278482218
 30
0.0
  0
SPLINE
  5
E4
330
1F
100
AcDbEntity
  8
외형선
  6
Continuous
 62
     1
370
    15
100
AcDbSpline
210
0.0
220
0.0
230
1.0
 70
     8
 71
     3
 72
    14
 73
    10
 74
     0
 42
0.000000001
 43
0.00000001
 40
0.0
 40
0.0
 40
0.0
 40
0.0
 40
0.25
 40
0.25
 40
0.5
 40
0.5
 40
0.75
 40
0.75
 40
1.0
 40
1.0
 40
1.0
 40
1.0
 10
41.52084749783758
 20
1.639487627004818
 30
0.0
 10
41.43622955275897
 20
1.722479791316985
 30
0.0
 10
41.3507689820951
 20
1.807425684546519
 30
0.0
 10
41.17623526688644
 20
1.977790504986889
 30
0.0
 10
41.08663875425869
 20
2.063728101306719
 30
0.0
 10
40.91039213075231
 20
2.226229922781167
 30
0.0
 10
40.82485740140812
 20
2.301864308841857
 30
0.0
 10
40.65774697575492
 20
2.441065501730099
 30
0.0
 10
40.57616383853172
 20
2.504505644221824
 30
0.0
 10
40.50026374524906
 20
2.558374282251199
 30
0.0
  0
SPLINE
  5
E5
330
1F
100
AcDbEntity
  8
외형선
  6
Continuous
 62
     1
370
    15
100
AcDbSpline
210
0.0
220
0.0
230
1.0
 70
     8
 71
     3
 72
     8
 73
     4
 74
     0
 42
0.000000001
 43
0.00000001
 40
0.0
 40
0.0
 40
0.0
 40
0.0
 40
1.0
 40
1.0
 40
1.0
 40
1.0
 10
12.56946933019175
 20
0.2205249881620428
 30
0.0
 10
12.4382968794503
 20
0.3318802420990452
 30
0.0
 10
12.29940354086675
 20
0.4649467020657401
 30
0.0
 10
12.16128010156182
 20
0.5996482796421954
 30
0.0
  0
SPLINE
  5
E6
330
1F
100
AcDbEntity
  8
외형선
  6
Continuous
 62
     1
370
    15
100
AcDbSpline
210
0.0
220
0.0
230
1.0
 70
     8
 71
     3
 72
     8
 73
     4
 74
     0
 42
0.000000001
 43
0.00000001
 40
0.0
 40
0.0
 40
0.0
 40
0.0
 40
1.0
 40
1.0
 40
1.0
 40
1.0
 10
11.9926983859241
 20
-2.031487329089323
 30
0.0
 10
12.13543024349671
 20
-2.161169698963668
 30
0.0
 10
12.2735252808418
 20
-2.276941967016499
 30
0.0
 10
12.3975132315073
 20
-2.367607872953256
 30
0.0
  0
SPLINE
  5
E7
330
1F
100
AcDbEntity
  8
외형선
  6
Continuous
 62
     1
370
    15
100
AcDbSpline
210
0.0
220
0.0
230
1.0
 70
     8
 71
     3
 72
    14
 73
    10
 74
     0
 42
0.000000001
 43
0.00000001
 40
0.0
 40
0.0
 40
0.0
 40
0.0
 40
0.25
 40
0.25
 40
0.5
 40
0.5
 40
0.75
 40
0.75
 40
1.0
 40
1.0
 40
1.0
 40
1.0
 10
33.8681661071854
 20
-0.7327978245967725
 30
0.0
 10
33.78361275938079
 20
-0.6698225842266986
 30
0.0
 10
33.69820251089261
 20
-0.5971724023650011
 30
0.0
 10
33.52373202875864
 20
-0.4398161691611044
 30
0.0
 10
33.43414912249508
 20
-0.3543183408599528
 30
0.0
 10
33.2578913870795
 20
-0.1812574279770562
 30
0.0
 10
33.17232779280778
 20
-0.0948734309576606
 30
0.0
 10
33.00511773359922
 20
0.076498101665327
 30
0.0
 10
32.92346709358962
 20
0.161518852169428
 30
0.0
 10
32.84747727008902
 20
0.2421265526378566
 30
0.0
  0
SPLINE
  5
E8
330
1F
100
AcDbEntity
  8
외형선
  6
Continuous
 62
     1
370
    15
100
AcDbSpline
210
0.0
220
0.0
230
1.0
 70
     8
 71
     3
 72
    14
 73
    10
 74
     0
 42
0.000000001
 43
0.00000001
 40
0.0
 40
0.0
 40
0.0
 40
0.0
 40
0.25
 40
0.25
 40
0.5
 40
0.5
 40
0.75
 40
0.75
 40
1.0
 40
1.0
 40
1.0
 40
1.0
 10
32.67548701205366
 20
-2.347499303986012
 30
0.0
 10
32.7602775926794
 20
-2.43474935750892
 30
0.0
 10
32.84590915716841
 20
-2.521206927758382
 30
0.0
 10
33.02078073178427
 20
-2.690554334681586
 30
0.0
 10
33.11053740296818
 20
-2.773843406322382
 30
0.0
 10
33.28705961494605
 20
-2.927378097169849
 30
0.0
 10
33.37273601780439
 20
-2.996840683893692
 30
0.0
 10
33.54013541696884
 20
-3.120426101937996
 30
0.0
 10
33.62184678500157
 20
-3.174356226748231
 30
0.0
 10
33.69788261729781
 20
-3.217252124739543
 30
0.0
  0
SPLINE
  5
E9
330
1F
100
AcDbEntity
  8
외형선
  6
Continuous
 62
     1
370
    15
100
AcDbSpline
210
0.0
220
0.0
230
1.0
 70
     8
 71
     3
 72
    14
 73
    10
 74
     0
 42
0.000000001
 43
0.00000001
 40
0.0
 40
0.0
 40
0.0
 40
0.0
 40
0.25
 40
0.25
 40
0.5
 40
0.5
 40
0.75
 40
0.75
 40
1.0
 40
1.0
 40
1.0
 40
1.0
 10
23.85931661524714
 20
-0.8671128907912231
 30
0.0
 10
23.77472807800679
 20
-0.8060370584975018
 30
0.0
 10
23.68889478797805
 20
-0.7344402692358956
 30
0.0
 10
23.51295844977281
 20
-0.5775077451239645
 30
0.0
 10
23.42384868780557
 20
-0.4927968082819843
 30
0.0
 10
23.2479402300304
 20
-0.3198404935274694
 30
0.0
 10
23.16262142672403
 20
-0.2331044188691586
 30
0.0
 10
22.99600799863713
 20
-0.0602504996337061
 30
0.0
 10
22.91469456870383
 20
0.02585843660301
 30
0.0
 10
22.83886355500888
 20
0.1077159661709589
 30
0.0
  0
SPLINE
  5
EA
330
1F
100
AcDbEntity
  8
외형선
  6
Continuous
 62
     1
370
    15
100
AcDbSpline
210
0.0
220
0.0
230
1.0
 70
     8
 71
     3
 72
    14
 73
    10
 74
     0
 42
0.000000001
 43
0.00000001
 40
0.0
 40
0.0
 40
0.0
 40
0.0
 40
0.25
 40
0.25
 40
0.5
 40
0.5
 40
0.75
 40
0.75
 40
1.0
 40
1.0
 40
1.0
 40
1.0
 10
22.66694370707946
 20
-2.470929672332384
 30
0.0
 10
22.75164260358087
 20
-2.558585618616945
 30
0.0
 10
22.83750869118083
 20
-2.645548910295201
 30
0.0
 10
23.01333417643808
 20
-2.816089135258653
 30
0.0
 10
23.10229505677017
 20
-2.898621042763987
 30
0.0
 10
23.2784093794101
 20
-3.050647651949157
 30
0.0
 10
23.36398402333351
 20
-3.119017976611587
 30
0.0
 10
23.53133226463737
 20
-3.239726848127063
 30
0.0
 10
23.613098078023
 20
-3.291863196306124
 30
0.0
 10
23.68922004398133
 20
-3.332649484497486
 30
0.0
  0
SPLINE
  5
EB
330
1F
100
AcDbEntity
  8
외형선
  6
Continuous
 62
     1
370
    15
100
AcDbSpline
210
0.0
220
0.0
230
1.0
 70
     8
 71
     3
 72
    14
 73
    10
 74
     0
 42
0.000000001
 43
0.00000001
 40
0.0
 40
0.0
 40
0.0
 40
0.0
 40
0.25
 40
0.25
 40
0.5
 40
0.5
 40
0.75
 40
0.75
 40
1.0
 40
1.0
 40
1.0
 40
1.0
 10
13.85042295137973
 20
-1.001579315742703
 30
0.0
 10
13.76596187567941
 20
-0.9417795133196714
 30
0.0
 10
13.68040695861554
 20
-0.8709287954877878
 30
0.0
 10
13.50500193809959
 20
-0.7150523875162933
 30
0.0
 10
13.41604834146644
 20
-0.6307016520518928
 30
0.0
 10
13.24013702105252
 20
-0.4580141077935222
 30
0.0
 10
13.15469706731177
 20
-0.3712231701155568
 30
0.0
 10
12.98766256092512
 20
-0.1978530661190061
 30
0.0
 10
12.90606359470758
 20
-0.1112247167843763
 30
0.0
 10
12.83010693135528
 20
-0.028397808401534
 30
0.0
  0
SPLINE
  5
EC
330
1F
100
AcDbEntity
  8
외형선
  6
Continuous
 62
     1
370
    15
100
AcDbSpline
210
0.0
220
0.0
230
1.0
 70
     8
 71
     3
 72
    14
 73
    10
 74
     0
 42
0.000000001
 43
0.00000001
 40
0.0
 40
0.0
 40
0.0
 40
0.0
 40
0.25
 40
0.25
 40
0.5
 40
0.5
 40
0.75
 40
0.75
 40
1.0
 40
1.0
 40
1.0
 40
1.0
 10
12.65829236098937
 20
-2.595387178484724
 30
0.0
 10
12.74300484046145
 20
-2.683432569790827
 30
0.0
 10
12.82896514791602
 20
-2.770259933803761
 30
0.0
 10
13.00516645229577
 20
-2.939667820912427
 30
0.0
 10
13.09443070328549
 20
-3.021218681510792
 30
0.0
 10
13.27069656492926
 20
-3.170989894232478
 30
0.0
 10
13.35621341012738
 20
-3.238069259644588
 30
0.0
 10
13.52324299621774
 20
-3.355930451817077
 30
0.0
 10
13.6047010582697
 20
-3.406549034644577
 30
0.0
 10
13.68057355768763
 20
-3.445627965815329
 30
0.0
  0
SPLINE
  5
ED
330
1F
100
AcDbEntity
  8
외형선
  6
Continuous
370
    15
100
AcDbSpline
210
0.0
220
0.0
230
1.0
 70
     8
 71
     3
 72
     8
 73
     4
 74
     0
 42
0.000000001
 43
0.00000001
 40
0.0
 40
0.0
 40
0.0
 40
0.0
 40
1.0
 40
1.0
 40
1.0
 40
1.0
 10
9.351252309830409
 20
-5.440045794509462
 30
0.0
 10
9.233968387447808
 20
-5.391278927964577
 30
0.0
 10
9.116884717965702
 20
-5.33960163980098
 30
0.0
 10
9.000000000000007
 20
-5.284960541043698
 30
0.0
  0
SPLINE
  5
EE
330
1F
100
AcDbEntity
  8
외형선
  6
Continuous
370
    15
100
AcDbSpline
210
0.0
220
0.0
230
1.0
 70
     8
 71
     3
 72
     8
 73
     4
 74
     0
 42
0.000000001
 43
0.00000001
 40
0.0
 40
0.0
 40
0.0
 40
0.0
 40
1.0
 40
1.0
 40
1.0
 40
1.0
 10
9.00000000000008
 20
-5.284960541043736
 30
0.0
 10
8.658832388577077
 20
-5.100712481255074
 30
0.0
 10
8.314045414190277
 20
-4.893302847810901
 30
0.0
 10
7.969783843699846
 20
-4.665991032118535
 30
0.0
  0
SPLINE
  5
EF
330
1F
100
AcDbEntity
  8
외형선
  6
Continuous
370
    15
100
AcDbSpline
210
0.0
220
0.0
230
1.0
 70
     8
 71
     3
 72
     8
 73
     4
 74
     0
 42
0.000000001
 43
0.00000001
 40
0.0
 40
0.0
 40
0.0
 40
0.0
 40
1.0
 40
1.0
 40
1.0
 40
1.0
 10
9.00000000000008
 20
0.8684100129087265
 30
0.0
 10
8.658832388577077
 20
1.20210009346508
 30
0.0
 10
8.314045414190277
 20
1.533411917680291
 30
0.0
 10
7.969783843699846
 20
1.856784317325135
 30
0.0
  0
SPLINE
  5
F0
330
1F
100
AcDbEntity
  8
외형선
  6
Continuous
370
    15
100
AcDbSpline
210
0.0
220
0.0
230
1.0
 70
     8
 71
     3
 72
     8
 73
     4
 74
     0
 42
0.000000001
 43
0.00000001
 40
0.0
 40
0.0
 40
0.0
 40
0.0
 40
1.0
 40
1.0
 40
1.0
 40
1.0
 10
9.000000000000007
 20
0.8684100129088013
 30
0.0
 10
9.295681175971177
 20
0.5727624668789002
 30
0.0
 10
9.592377212120507
 20
0.2786776286603252
 30
0.0
 10
9.89018088077017
 20
-0.0137640409763434
 30
0.0
  0
SPLINE
  5
F1
330
1F
100
AcDbEntity
  8
외형선
  6
Continuous
370
    15
100
AcDbSpline
210
0.0
220
0.0
230
1.0
 70
     8
 71
     3
 72
     8
 73
     4
 74
     0
 42
0.000000001
 43
0.00000001
 40
0.0
 40
0.0
 40
0.0
 40
0.0
 40
1.0
 40
1.0
 40
1.0
 40
1.0
 10
9.890180880770744
 20
-0.013764040977472
 30
0.0
 10
9.943336794616679
 20
-0.0690025592025073
 30
0.0
 10
9.994843163715386
 20
-0.1230907413572452
 30
0.0
 10
10.04399237929929
 20
-0.1753905387613876
 30
0.0
  0
SPLINE
  5
F2
330
1F
100
AcDbEntity
  8
외형선
  6
Continuous
370
    15
100
AcDbSpline
210
0.0
220
0.0
230
1.0
 70
     8
 71
     3
 72
    10
 73
     6
 74
     0
 42
0.000000001
 43
0.00000001
 40
0.0
 40
0.0
 40
0.0
 40
0.0
 40
0.5
 40
0.5
 40
1.0
 40
1.0
 40
1.0
 40
1.0
 10
10.04399237930257
 20
-0.1753905387648861
 30
0.0
 10
10.08222910169126
 20
-0.2160783261602809
 30
0.0
 10
10.12570983968503
 20
-0.259476947234682
 30
0.0
 10
10.21498442562506
 20
-0.344555431260142
 30
0.0
 10
10.26167491244202
 20
-0.3870684421824674
 30
0.0
 10
10.30441769092596
 20
-0.4247038127844777
 30
0.0
  0
SPLINE
  5
F3
330
1F
100
AcDbEntity
  8
외형선
  6
Continuous
 62
     1
370
    15
100
AcDbSpline
210
0.0
220
0.0
230
1.0
 70
     8
 71
     3
 72
    10
 73
     6
 74
     0
 42
0.000000001
 43
0.00000001
 40
0.0
 40
0.0
 40
0.0
 40
0.0
 40
0.5
 40
0.5
 40
1.0
 40
1.0
 40
1.0
 40
1.0
 10
11.32452406354653
 20
-1.390192109377203
 30
0.0
 10
11.36291055587177
 20
-1.424620351981077
 30
0.0
 10
11.40646176788559
 20
-1.46407614772654
 30
0.0
 10
11.49575130277367
 20
-1.546142215598956
 30
0.0
 10
11.54239874938946
 20
-1.589574691512988
 30
0.0
 10
11.58494527511981
 20
-1.631436465326048
 30
0.0
  0
SPLINE
  5
F4
330
1F
100
AcDbEntity
  8
외형선
  6
Continuous
 62
     1
370
    15
100
AcDbSpline
210
0.0
220
0.0
230
1.0
 70
     8
 71
     3
 72
    10
 73
     6
 74
     0
 42
0.000000001
 43
0.00000001
 40
0.0
 40
0.0
 40
0.0
 40
0.0
 40
0.5
 40
0.5
 40
1.0
 40
1.0
 40
1.0
 40
1.0
 10
12.39751323150734
 20
-2.367607872953305
 30
0.0
 10
12.43576936243879
 20
-2.39558258138197
 30
0.0
 10
12.47928114814518
 20
-2.430539129777813
 30
0.0
 10
12.56866632351897
 20
-2.507787261127548
 30
0.0
 10
12.61544660702198
 20
-2.550855709244617
 30
0.0
 10
12.6582923609894
 20
-2.595387178484755
 30
0.0
  0
SPLINE
  5
F5
330
1F
100
AcDbEntity
  8
외형선
  6
Continuous
 62
     1
370
    15
100
AcDbSpline
210
0.0
220
0.0
230
1.0
 70
     8
 71
     3
 72
    10
 73
     6
 74
     0
 42
0.000000001
 43
0.00000001
 40
0.0
 40
0.0
 40
0.0
 40
0.0
 40
0.5
 40
0.5
 40
1.0
 40
1.0
 40
1.0
 40
1.0
 10
13.68057355768759
 20
-3.44562796581528
 30
0.0
 10
13.71896122852096
 20
-3.465399940612624
 30
0.0
 10
13.76250668684026
 20
-3.494027686157923
 30
0.0
 10
13.85182318668139
 20
-3.563145291495974
 30
0.0
 10
13.89852560192522
 20
-3.604356509805435
 30
0.0
 10
13.9411519599713
 20
-3.650400173346607
 30
0.0
  0
SPLINE
  5
F6
330
1F
100
AcDbEntity
  8
외형선
  6
Continuous
 62
     1
370
    15
100
AcDbSpline
210
0.0
220
0.0
230
1.0
 70
     8
 71
     3
 72
     8
 73
     4
 74
     0
 42
0.000000001
 43
0.00000001
 40
0.0
 40
0.0
 40
0.0
 40
0.0
 40
1.0
 40
1.0
 40
1.0
 40
1.0
 10
13.94115195997133
 20
-3.650400173346629
 30
0.0
 10
14.071992592445
 20
-3.791730146989198
 30
0.0
 10
14.21071525597731
 20
-3.9248967899156
 30
0.0
 10
14.34898232383673
 20
-4.038319847951831
 30
0.0
  0
SPLINE
  5
F7
330
1F
100
AcDbEntity
  8
외형선
  6
Continuous
 62
     1
370
    15
100
AcDbSpline
210
0.0
220
0.0
230
1.0
 70
     8
 71
     3
 72
     8
 73
     4
 74
     0
 42
0.000000001
 43
0.00000001
 40
0.0
 40
0.0
 40
0.0
 40
0.0
 40
1.0
 40
1.0
 40
1.0
 40
1.0
 10
14.34898226756625
 20
-4.038319809399313
 30
0.0
 10
14.49171955849041
 20
-4.136113026199566
 30
0.0
 10
14.62986062389428
 20
-4.207732175727631
 30
0.0
 10
14.75352414974811
 20
-4.244786119936092
 30
0.0
  0
SPLINE
  5
F8
330
1F
100
AcDbEntity
  8
외형선
  6
Continuous
 62
     1
370
    15
100
AcDbSpline
210
0.0
220
0.0
230
1.0
 70
     8
 71
     3
 72
    10
 73
     6
 74
     0
 42
0.000000001
 43
0.00000001
 40
0.0
 40
0.0
 40
0.0
 40
0.0
 40
0.5
 40
0.5
 40
1.0
 40
1.0
 40
1.0
 40
1.0
 10
14.75352414974814
 20
-4.2447861199361
 30
0.0
 10
14.7917415483025
 20
-4.256237397457489
 30
0.0
 10
14.83520417886645
 20
-4.278076192135448
 30
0.0
 10
14.92444306644324
 20
-4.337300447827644
 30
0.0
 10
14.97111303491304
 20
-4.375291702314035
 30
0.0
 10
15.01383591985604
 20
-4.420919081596155
 30
0.0
  0
SPLINE
  5
F9
330
1F
100
AcDbEntity
  8
외형선
  6
Continuous
 62
     1
370
    15
100
AcDbSpline
210
0.0
220
0.0
230
1.0
 70
     8
 71
     3
 72
    14
 73
    10
 74
     0
 42
0.000000001
 43
0.00000001
 40
0.0
 40
0.0
 40
0.0
 40
0.0
 40
0.2499999999999998
 40
0.2499999999999998
 40
0.4999999999999997
 40
0.4999999999999997
 40
0.7499999999999996
 40
0.7499999999999996
 40
1.0
 40
1.0
 40
1.0
 40
1.0
 10
15.01383591985604
 20
-4.420919081596158
 30
0.0
 10
15.09828292298223
 20
-4.511107172733205
 30
0.0
 10
15.1838105471311
 20
-4.59281402856927
 30
0.0
 10
15.35922826452234
 20
-4.74110776499634
 30
0.0
 10
15.44818880163421
 20
-4.806541126244284
 30
0.0
 10
15.62410650240452
 20
-4.915357792978267
 30
0.0
 10
15.70954624311489
 20
-4.958019528779754
 30
0.0
 10
15.87657478099514
 20
-5.019570950145144
 30
0.0
 10
15.95816858350898
 20
-5.038138797948477
 30
0.0
 10
16.03411793540793
 20
-5.042407348124457
 30
0.0
  0
SPLINE
  5
FA
330
1F
100
AcDbEntity
  8
외형선
  6
Continuous
 62
     1
370
    15
100
AcDbSpline
210
0.0
220
0.0
230
1.0
 70
     8
 71
     3
 72
    10
 73
     6
 74
     0
 42
0.000000001
 43
0.00000001
 40
0.0
 40
0.0
 40
0.0
 40
0.0
 40
0.5
 40
0.5
 40
1.0
 40
1.0
 40
1.0
 40
1.0
 10
16.03411793540791
 20
-5.042407348124465
 30
0.0
 10
16.07253849876615
 20
-5.044566683239031
 30
0.0
 10
16.11612378007805
 20
-5.058305951444225
 30
0.0
 10
16.20547499194605
 20
-5.104902843846594
 30
0.0
 10
16.25215270447629
 20
-5.138254430285571
 30
0.0
 10
16.29473279961637
 20
-5.182190091473644
 30
0.0
  0
SPLINE
  5
FB
330
1F
100
AcDbEntity
  8
외형선
  6
Continuous
 62
     1
370
    15
100
AcDbSpline
210
0.0
220
0.0
230
1.0
 70
     8
 71
     3
 72
     8
 73
     4
 74
     0
 42
0.000000001
 43
0.00000001
 40
0.0
 40
0.0
 40
0.0
 40
0.0
 40
1.0
 40
1.0
 40
1.0
 40
1.0
 10
16.29473279961643
 20
-5.182190091473689
 30
0.0
 10
16.42589647682471
 20
-5.317529452812541
 30
0.0
 10
16.56477515899726
 20
-5.427618653684221
 30
0.0
 10
16.7028764198577
 20
-5.508364322050828
 30
0.0
  0
SPLINE
  5
FC
330
1F
100
AcDbEntity
  8
외형선
  6
Continuous
 62
     1
370
    15
100
AcDbSpline
210
0.0
220
0.0
230
1.0
 70
     8
 71
     3
 72
     8
 73
     4
 74
     0
 42
0.000000001
 43
0.00000001
 40
0.0
 40
0.0
 40
0.0
 40
0.0
 40
1.0
 40
1.0
 40
1.0
 40
1.0
 10
16.70287636351331
 20
-5.50836430061654
 30
0.0
 10
16.8457559144799
 20
-5.562717009143336
 30
0.0
 10
16.98409937099079
 20
-5.582193848399836
 30
0.0
 10
17.10829641505235
 20
-5.561309223300219
 30
0.0
  0
SPLINE
  5
FD
330
1F
100
AcDbEntity
  8
외형선
  6
Continuous
 62
     1
370
    15
100
AcDbSpline
210
0.0
220
0.0
230
1.0
 70
     8
 71
     3
 72
    10
 73
     6
 74
     0
 42
0.000000001
 43
0.00000001
 40
0.0
 40
0.0
 40
0.0
 40
0.0
 40
0.5
 40
0.5
 40
1.0
 40
1.0
 40
1.0
 40
1.0
 10
17.10829641505235
 20
-5.561309223300222
 30
0.0
 10
17.14658891109118
 20
-5.554870065026027
 30
0.0
 10
17.19012894701671
 20
-5.560785211785814
 30
0.0
 10
17.27956414501241
 20
-5.594220904257571
 30
0.0
 10
17.3263738581228
 20
-5.622111062764842
 30
0.0
 10
17.36924415667771
 20
-5.662842802913384
 30
0.0
  0
SPLINE
  5
FE
330
1F
100
AcDbEntity
  8
외형선
  6
Continuous
 62
     1
370
    15
100
AcDbSpline
210
0.0
220
0.0
230
1.0
 70
     8
 71
     3
 72
    14
 73
    10
 74
     0
 42
0.000000001
 43
0.00000001
 40
0.0
 40
0.0
 40
0.0
 40
0.0
 40
0.25
 40
0.25
 40
0.5
 40
0.5
 40
0.75
 40
0.75
 40
1.0
 40
1.0
 40
1.0
 40
1.0
 10
17.36924415667773
 20
-5.662842802913411
 30
0.0
 10
17.45387838614633
 20
-5.743255106036813
 30
0.0
 10
17.53975356445438
 20
-5.808880443614115
 30
0.0
 10
17.71577358241405
 20
-5.916175117777168
 30
0.0
 10
17.80495124702019
 20
-5.956774756163565
 30
0.0
 10
17.98103287047895
 20
-6.010306437300144
 30
0.0
 10
18.06644926829442
 20
-6.023069043392917
 30
0.0
 10
18.23326655422794
 20
-6.020782864291624
 30
0.0
 10
18.31461096398754
 20
-6.005380261819767
 30
0.0
 10
18.39040664007828
 20
-5.97472221986216
 30
0.0
  0
SPLINE
  5
FF
330
1F
100
AcDbEntity
  8
외형선
  6
Continuous
 62
     1
370
    15
100
AcDbSpline
210
0.0
220
0.0
230
1.0
 70
     8
 71
     3
 72
    10
 73
     6
 74
     0
 42
0.000000001
 43
0.00000001
 40
0.0
 40
0.0
 40
0.0
 40
0.0
 40
0.5
 40
0.5
 40
1.0
 40
1.0
 40
1.0
 40
1.0
 10
18.39040664007827
 20
-5.974722219862156
 30
0.0
 10
18.42875812451196
 20
-5.959209706753928
 30
0.0
 10
18.47227037950614
 20
-5.956407655492614
 30
0.0
 10
18.56152462111092
 20
-5.974586395836364
 30
0.0
 10
18.60819210443212
 20
-5.995789141213551
 30
0.0
 10
18.65078062932128
 20
-6.031989120629699
 30
0.0
  0
SPLINE
  5
100
330
1F
100
AcDbEntity
  8
외형선
  6
Continuous
 62
     1
370
    15
100
AcDbSpline
210
0.0
220
0.0
230
1.0
 70
     8
 71
     3
 72
     8
 73
     4
 74
     0
 42
0.000000001
 43
0.00000001
 40
0.0
 40
0.0
 40
0.0
 40
0.0
 40
1.0
 40
1.0
 40
1.0
 40
1.0
 10
18.65078062932131
 20
-6.031989120629715
 30
0.0
 10
18.78155560928954
 20
-6.143147034535303
 30
0.0
 10
18.92022005601817
 20
-6.215394733496373
 30
0.0
 10
19.05841970903246
 20
-6.252258451570897
 30
0.0
  0
SPLINE
  5
101
330
1F
100
AcDbEntity
  8
외형선
  6
Continuous
 62
     1
370
    15
100
AcDbSpline
210
0.0
220
0.0
230
1.0
 70
     8
 71
     3
 72
     8
 73
     4
 74
     0
 42
0.000000001
 43
0.00000001
 40
0.0
 40
0.0
 40
0.0
 40
0.0
 40
1.0
 40
1.0
 40
1.0
 40
1.0
 10
19.05841965278112
 20
-6.252258450468481
 30
0.0
 10
19.20114357436668
 20
-6.255055544325534
 30
0.0
 10
19.33925635087259
 20
-6.218793398432408
 30
0.0
 10
19.46289839888052
 20
-6.142476468104859
 30
0.0
  0
SPLINE
  5
102
330
1F
100
AcDbEntity
  8
외형선
  6
Continuous
 62
     1
370
    15
100
AcDbSpline
210
0.0
220
0.0
230
1.0
 70
     8
 71
     3
 72
    13
 73
     9
 74
     0
 42
0.000000001
 43
0.00000001
 40
0.0
 40
0.0
 40
0.0
 40
0.0
 40
0.0758066697858988
 40
0.2688064885644871
 40
0.4867359322277728
 40
0.7110905461828317
 40
0.8542556992505271
 40
0.9999999999999999
 40
0.9999999999999999
 40
0.9999999999999999
 40
0.9999999999999999
 10
19.48708117056413
 20
-6.130803986762946
 30
0.0
 10
19.49243424369671
 20
-6.128053550077234
 30
0.0
 10
19.51141596121396
 20
-6.118300645357985
 30
0.0
 10
19.54922847521391
 20
-6.110360726492109
 30
0.0
 10
19.60003432930074
 20
-6.108177770471398
 30
0.0
 10
19.64802387622287
 20
-6.117893105080467
 30
0.0
 10
19.6896167910959
 20
-6.134306692050543
 30
0.0
 10
19.71197330232038
 20
-6.148720645347088
 30
0.0
 10
19.72325134827063
 20
-6.1559919599977
 30
0.0
  0
LINE
  5
103
330
1F
100
AcDbEntity
  8
외형선
  6
Continuous
 62
     1
370
    15
100
AcDbLine
 10
19.72325134827062
 20
-6.155991959997701
 30
0.0
 11
19.9913141679931
 21
-6.279354787746406
 31
0.0
  0
SPLINE
  5
104
330
1F
100
AcDbEntity
  8
외형선
  6
Continuous
 62
     1
370
    15
100
AcDbSpline
210
0.0
220
0.0
230
1.0
 70
     8
 71
     3
 72
    10
 73
     6
 74
     0
 42
0.000000001
 43
0.00000001
 40
0.0
 40
0.0
 40
0.0
 40
0.0
 40
0.1474320060289963
 40
0.7196759208476113
 40
0.9999999999999999
 40
0.9999999999999999
 40
0.9999999999999999
 40
0.9999999999999999
 10
36.62683457434134
 20
5.367949447168301
 30
0.0
 10
36.65795287409278
 20
5.387941614282548
 30
0.0
 10
36.8098540225071
 20
5.485531558726867
 30
0.0
 10
37.01926829544262
 20
5.550194716440243
 30
0.0
 10
37.17749784855649
 20
5.544946354698533
 30
0.0
 10
37.22952367416219
 20
5.543220695064688
 30
0.0
  0
SPLINE
  5
105
330
1F
100
AcDbEntity
  8
외형선
  6
Continuous
 62
     1
370
    15
100
AcDbSpline
210
0.0
220
0.0
230
1.0
 70
     8
 71
     3
 72
    10
 73
     6
 74
     0
 42
0.000000001
 43
0.00000001
 40
0.0
 40
0.0
 40
0.0
 40
0.0
 40
0.5
 40
0.5
 40
1.0
 40
1.0
 40
1.0
 40
1.0
 10
37.2295236741622
 20
5.543220695064716
 30
0.0
 10
37.26799174249344
 20
5.538652835130498
 30
0.0
 10
37.31162241325031
 20
5.54627839020455
 30
0.0
 10
37.40109373557926
 20
5.582709727176816
 30
0.0
 10
37.44786868590773
 20
5.611919391681221
 30
0.0
 10
37.49056450724166
 20
5.653627921517132
 30
0.0
  0
SPLINE
  5
106
330
1F
100
AcDbEntity
  8
외형선
  6
Continuous
 62
     1
370
    15
100
AcDbSpline
210
0.0
220
0.0
230
1.0
 70
     8
 71
     3
 72
     8
 73
     4
 74
     0
 42
0.000000001
 43
0.00000001
 40
0.0
 40
0.0
 40
0.0
 40
0.0
 40
1.0
 40
1.0
 40
1.0
 40
1.0
 10
37.49056450724169
 20
5.653627921517144
 30
0.0
 10
37.62163700631615
 20
5.781669520613132
 30
0.0
 10
37.76055534119734
 20
5.87879029722111
 30
0.0
 10
37.89896864848877
 20
5.943679237791234
 30
0.0
  0
SPLINE
  5
107
330
1F
100
AcDbEntity
  8
외형선
  6
Continuous
 62
     1
370
    15
100
AcDbSpline
210
0.0
220
0.0
230
1.0
 70
     8
 71
     3
 72
     8
 73
     4
 74
     0
 42
0.000000001
 43
0.00000001
 40
0.0
 40
0.0
 40
0.0
 40
0.0
 40
1.0
 40
1.0
 40
1.0
 40
1.0
 10
37.89896859214522
 20
5.943679223996832
 30
0.0
 10
38.04188056197445
 20
5.978667703953367
 30
0.0
 10
38.18015508121913
 20
5.976607858414877
 30
0.0
 10
38.30393146047199
 20
5.933883240098396
 30
0.0
  0
SPLINE
  5
108
330
1F
100
AcDbEntity
  8
외형선
  6
Continuous
 62
     1
370
    15
100
AcDbSpline
210
0.0
220
0.0
230
1.0
 70
     8
 71
     3
 72
    10
 73
     6
 74
     0
 42
0.000000001
 43
0.00000001
 40
0.0
 40
0.0
 40
0.0
 40
0.0
 40
0.5
 40
0.5
 40
1.0
 40
1.0
 40
1.0
 40
1.0
 10
38.30393146047199
 20
5.933883240098399
 30
0.0
 10
38.34218337617078
 20
5.920679602150916
 30
0.0
 10
38.38567351199956
 20
5.920226445153542
 30
0.0
 10
38.47495028299581
 20
5.942568679308141
 30
0.0
 10
38.52163577908667
 20
5.965620386162721
 30
0.0
 10
38.56437925980482
 20
6.003025491301924
 30
0.0
  0
SPLINE
  5
109
330
1F
100
AcDbEntity
  8
외형선
  6
Continuous
 62
     1
370
    15
100
AcDbSpline
210
0.0
220
0.0
230
1.0
 70
     8
 71
     3
 72
    14
 73
    10
 74
     0
 42
0.000000001
 43
0.00000001
 40
0.0
 40
0.0
 40
0.0
 40
0.0
 40
0.2500000000000001
 40
0.2500000000000001
 40
0.5000000000000001
 40
0.5000000000000001
 40
0.7500000000000002
 40
0.7500000000000002
 40
1.0
 40
1.0
 40
1.0
 40
1.0
 10
38.56437925980482
 20
6.003025491301928
 30
0.0
 10
38.64892855189866
 20
6.077015140883081
 30
0.0
 10
38.73419837592341
 20
6.133925097430806
 30
0.0
 10
38.90851646295972
 20
6.221319677363471
 30
0.0
 10
38.99802716150576
 20
6.251335536830952
 30
0.0
 10
39.17420889180637
 20
6.281885222448923
 30
0.0
 10
39.25975086806707
 20
6.282685174735851
 30
0.0
 10
39.42693841725378
 20
6.255662377483064
 30
0.0
 10
39.50859662671863
 20
6.227417889040123
 30
0.0
 10
39.58458010264014
 20
6.184103743405806
 30
0.0
  0
SPLINE
  5
10A
330
1F
100
AcDbEntity
  8
외형선
  6
Continuous
 62
     1
370
    15
100
AcDbSpline
210
0.0
220
0.0
230
1.0
 70
     8
 71
     3
 72
    10
 73
     6
 74
     0
 42
0.000000001
 43
0.00000001
 40
0.0
 40
0.0
 40
0.0
 40
0.0
 40
0.5
 40
0.5
 40
1.0
 40
1.0
 40
1.0
 40
1.0
 10
39.58458010264014
 20
6.184103743405809
 30
0.0
 10
39.62296912742001
 20
6.162220198465167
 30
0.0
 10
39.66651959963947
 20
6.153094460706126
 30
0.0
 10
39.7557956813659
 20
6.159639358564894
 30
0.0
 10
39.80242972994289
 20
6.175413441270231
 30
0.0
 10
39.84496396689175
 20
6.20729979827758
 30
0.0
  0
SPLINE
  5
10B
330
1F
100
AcDbEntity
  8
외형선
  6
Continuous
 62
     1
370
    15
100
AcDbSpline
210
0.0
220
0.0
230
1.0
 70
     8
 71
     3
 72
     8
 73
     4
 74
     0
 42
0.000000001
 43
0.00000001
 40
0.0
 40
0.0
 40
0.0
 40
0.0
 40
1.0
 40
1.0
 40
1.0
 40
1.0
 10
39.84496396689179
 20
6.207299798277605
 30
0.0
 10
39.97599230426673
 20
6.305526935833581
 30
0.0
 10
40.11456920378667
 20
6.360593692207479
 30
0.0
 10
40.25260891284173
 20
6.379306918320511
 30
0.0
  0
SPLINE
  5
10C
330
1F
100
AcDbEntity
  8
외형선
  6
Continuous
 62
     1
370
    15
100
AcDbSpline
210
0.0
220
0.0
230
1.0
 70
     8
 71
     3
 72
     8
 73
     4
 74
     0
 42
0.000000001
 43
0.00000001
 40
0.0
 40
0.0
 40
0.0
 40
0.0
 40
1.0
 40
1.0
 40
1.0
 40
1.0
 10
40.25260885658165
 20
6.379306925035405
 30
0.0
 10
40.39517584785502
 20
6.362290889205092
 30
0.0
 10
40.53342539541163
 20
6.305977993385246
 30
0.0
 10
40.65735450008287
 20
6.210785450462494
 30
0.0
  0
SPLINE
  5
10D
330
1F
100
AcDbEntity
  8
외형선
  6
Continuous
 62
     1
370
    15
100
AcDbSpline
210
0.0
220
0.0
230
1.0
 70
     8
 71
     3
 72
    10
 73
     6
 74
     0
 42
0.000000001
 43
0.00000001
 40
0.0
 40
0.0
 40
0.0
 40
0.0
 40
0.4999999999999998
 40
0.4999999999999998
 40
1.0
 40
1.0
 40
1.0
 40
1.0
 10
40.65735450008288
 20
6.210785450462494
 30
0.0
 10
40.69560344609495
 20
6.181405633310885
 30
0.0
 10
40.73910889158134
 20
6.164495845367888
 30
0.0
 10
40.82847508334503
 20
6.155973010724988
 30
0.0
 10
40.87523816006242
 20
6.164317990542349
 30
0.0
 10
40.91805998306445
 20
6.189742027573336
 30
0.0
  0
SPLINE
  5
10E
330
1F
100
AcDbEntity
  8
외형선
  6
Continuous
 62
     1
370
    15
100
AcDbSpline
210
0.0
220
0.0
230
1.0
 70
     8
 71
     3
 72
     8
 73
     4
 74
     0
 42
0.000000001
 43
0.00000001
 40
0.0
 40
0.0
 40
0.0
 40
0.0
 40
1.0
 40
1.0
 40
1.0
 40
1.0
 10
40.91805998306445
 20
6.189742027573334
 30
0.0
 10
41.00903809530407
 20
6.243757264021354
 30
0.0
 10
41.10143843412968
 20
6.274656887528598
 30
0.0
 10
41.19637024947748
 20
6.287899915982567
 30
0.0
  0
SPLINE
  5
10F
330
1F
100
AcDbEntity
  8
외형선
  6
Continuous
 62
     1
370
    15
100
AcDbSpline
210
0.0
220
0.0
230
1.0
 70
     8
 71
     3
 72
    16
 73
    12
 74
     0
 42
0.000000001
 43
0.00000001
 40
0.0
 40
0.0
 40
0.0
 40
0.0
 40
0.25
 40
0.25
 40
0.5
 40
0.5
 40
0.75
 40
0.75
 40
0.875
 40
0.875
 40
1.0
 40
1.0
 40
1.0
 40
1.0
 10
41.19637024947746
 20
6.287899915982591
 30
0.0
 10
41.19460636977968
 20
6.019050498402876
 30
0.0
 10
41.18049042732643
 20
5.753318726443164
 30
0.0
 10
41.12145296572653
 20
5.229630472623129
 30
0.0
 10
41.07675917413231
 20
4.971616512605488
 30
0.0
 10
40.943572455069
 20
4.466643441207503
 30
0.0
 10
40.85599437560945
 20
4.224964957662696
 30
0.0
 10
40.68567174829649
 20
3.899001615927444
 30
0.0
 10
40.62213447998419
 20
3.796387322484424
 30
0.0
 10
40.48482219771491
 20
3.612303562404966
 30
0.0
 10
40.41054402702751
 20
3.529737292205159
 30
0.0
 10
40.32997286272734
 20
3.457777503461975
 30
0.0
  0
SPLINE
  5
110
330
1F
100
AcDbEntity
  8
외형선
  6
Continuous
 62
     1
370
    15
100
AcDbSpline
210
0.0
220
0.0
230
1.0
 70
     8
 71
     3
 72
     8
 73
     4
 74
     0
 42
0.000000001
 43
0.00000001
 40
0.0
 40
0.0
 40
0.0
 40
0.0
 40
1.0
 40
1.0
 40
1.0
 40
1.0
 10
41.75000000000001
 20
2.568867169006397
 30
0.0
 10
41.2703414706946
 20
2.912904179319328
 30
0.0
 10
40.79711483338513
 20
3.208332919180529
 30
0.0
 10
40.32997286272735
 20
3.457777503461974
 30
0.0
  0
LINE
  5
111
330
1F
100
AcDbEntity
  8
외형선
  6
Continuous
 62
     1
370
    15
100
AcDbLine
 10
41.75000000000001
 20
1.438858341449501
 30
0.0
 11
41.75000000000001
 21
2.568867169006396
 31
0.0
  0
SPLINE
  5
112
330
1F
100
AcDbEntity
  8
외형선
  6
Continuous
 62
     1
370
    15
100
AcDbSpline
210
0.0
220
0.0
230
1.0
 70
     8
 71
     3
 72
     8
 73
     4
 74
     0
 42
0.000000001
 43
0.00000001
 40
0.0
 40
0.0
 40
0.0
 40
0.0
 40
1.0
 40
1.0
 40
1.0
 40
1.0
 10
41.73395392500828
 20
1.439886761768024
 30
0.0
 10
41.73929706697151
 20
1.434680194273372
 30
0.0
 10
41.74464573115111
 20
1.429489490585031
 30
0.0
 10
41.74999999999995
 20
1.42431475278885
 30
0.0
  0
SPLINE
  5
113
330
1F
100
AcDbEntity
  8
외형선
  6
Continuous
 62
     1
370
    15
100
AcDbSpline
210
0.0
220
0.0
230
1.0
 70
     8
 71
     3
 72
     8
 73
     4
 74
     0
 42
0.000000001
 43
0.00000001
 40
0.0
 40
0.0
 40
0.0
 40
0.0
 40
1.0
 40
1.0
 40
1.0
 40
1.0
 10
41.73395392500856
 20
1.439886761767792
 30
0.0
 10
41.6669941008843
 20
1.501272352389976
 30
0.0
 10
41.58960950016437
 20
1.57204676218308
 30
0.0
 10
41.52084749783758
 20
1.639487627004821
 30
0.0
  0
SPLINE
  5
114
330
1F
100
AcDbEntity
  8
외형선
  6
Continuous
 62
     1
370
    15
100
AcDbSpline
210
0.0
220
0.0
230
1.0
 70
     8
 71
     3
 72
    10
 73
     6
 74
     0
 42
0.000000001
 43
0.00000001
 40
0.0
 40
0.0
 40
0.0
 40
0.0
 40
0.5
 40
0.5
 40
1.0
 40
1.0
 40
1.0
 40
1.0
 10
40.50026374524908
 20
2.558374282251188
 30
0.0
 10
40.46186592499025
 20
2.58562640001785
 30
0.0
 10
40.41831664526875
 20
2.620053134497777
 30
0.0
 10
40.32907055920309
 20
2.696775041153506
 30
0.0
 10
40.2824635725378
 20
2.739847907937229
 30
0.0
 10
40.23994803308921
 20
2.784718784188678
 30
0.0
  0
SPLINE
  5
115
330
1F
100
AcDbEntity
  8
외형선
  6
Continuous
 62
     1
370
    15
100
AcDbSpline
210
0.0
220
0.0
230
1.0
 70
     8
 71
     3
 72
     8
 73
     4
 74
     0
 42
0.000000001
 43
0.00000001
 40
0.0
 40
0.0
 40
0.0
 40
0.0
 40
1.0
 40
1.0
 40
1.0
 40
1.0
 10
40.23994803308921
 20
2.784718784188674
 30
0.0
 10
40.10917213838261
 20
2.922739589385068
 30
0.0
 10
39.97066053916894
 20
3.061404212057
 30
0.0
 10
39.83240102779664
 20
3.185819943624162
 30
0.0
  0
SPLINE
  5
116
330
1F
100
AcDbEntity
  8
외형선
  6
Continuous
 62
     1
370
    15
100
AcDbSpline
210
0.0
220
0.0
230
1.0
 70
     8
 71
     3
 72
     8
 73
     4
 74
     0
 42
0.000000001
 43
0.00000001
 40
0.0
 40
0.0
 40
0.0
 40
0.0
 40
1.0
 40
1.0
 40
1.0
 40
1.0
 10
39.83240102779645
 20
3.185819943624334
 30
0.0
 10
39.68976969695628
 20
3.30063225601573
 30
0.0
 10
39.55159136446166
 20
3.394661167623176
 30
0.0
 10
39.42781229126001
 20
3.458293178837178
 30
0.0
  0
SPLINE
  5
117
330
1F
100
AcDbEntity
  8
외형선
  6
Continuous
 62
     1
370
    15
100
AcDbSpline
210
0.0
220
0.0
230
1.0
 70
     8
 71
     3
 72
    10
 73
     6
 74
     0
 42
0.000000001
 43
0.00000001
 40
0.0
 40
0.0
 40
0.0
 40
0.0
 40
0.5
 40
0.5
 40
1.0
 40
1.0
 40
1.0
 40
1.0
 10
39.42781229125999
 20
3.458293178837184
 30
0.0
 10
39.38958093493737
 20
3.477947051105915
 30
0.0
 10
39.3460948685582
 20
3.50649656450312
 30
0.0
 10
39.25678273117069
 20
3.575399049034394
 30
0.0
 10
39.21006090240954
 20
3.616447278307295
 30
0.0
 10
39.16728750605322
 20
3.662243165443703
 30
0.0
  0
SPLINE
  5
118
330
1F
100
AcDbEntity
  8
외형선
  6
Continuous
 62
     1
370
    15
100
AcDbSpline
210
0.0
220
0.0
230
1.0
 70
     8
 71
     3
 72
    14
 73
    10
 74
     0
 42
0.000000001
 43
0.00000001
 40
0.0
 40
0.0
 40
0.0
 40
0.0
 40
0.25
 40
0.25
 40
0.5
 40
0.5
 40
0.75
 40
0.75
 40
1.0
 40
1.0
 40
1.0
 40
1.0
 10
39.16728750605323
 20
3.662243165443698
 30
0.0
 10
39.08256726132245
 20
3.752949985485291
 30
0.0
 10
38.99664244205291
 20
3.838560947637782
 30
0.0
 10
38.82061424750007
 20
3.999826307073507
 30
0.0
 10
38.73152137017148
 20
4.074350565776912
 30
0.0
 10
38.55570485238584
 20
4.205430744160891
 30
0.0
 10
38.47029266017081
 20
4.260933267388711
 30
0.0
 10
38.30314535565005
 20
4.351237528617327
 30
0.0
 10
38.2214503772842
 20
4.385789816220518
 30
0.0
 10
38.14535487175218
 20
4.407102225648472
 30
0.0
  0
SPLINE
  5
119
330
1F
100
AcDbEntity
  8
외형선
  6
Continuous
 62
     1
370
    15
100
AcDbSpline
210
0.0
220
0.0
230
1.0
 70
     8
 71
     3
 72
    10
 73
     6
 74
     0
 42
0.000000001
 43
0.00000001
 40
0.0
 40
0.0
 40
0.0
 40
0.0
 40
0.5
 40
0.5
 40
1.0
 40
1.0
 40
1.0
 40
1.0
 10
38.14535487175218
 20
4.40710222564847
 30
0.0
 10
38.10688618337701
 20
4.41787632368588
 30
0.0
 10
38.06325769955679
 20
4.439080813738511
 30
0.0
 10
37.97380474343351
 20
4.497384041249174
 30
0.0
 10
37.9270535333824
 20
4.535097107950689
 30
0.0
 10
37.88439753705239
 20
4.580782587899753
 30
0.0
  0
SPLINE
  5
11A
330
1F
100
AcDbEntity
  8
외형선
  6
Continuous
 62
     1
370
    15
100
AcDbSpline
210
0.0
220
0.0
230
1.0
 70
     8
 71
     3
 72
     8
 73
     4
 74
     0
 42
0.000000001
 43
0.00000001
 40
0.0
 40
0.0
 40
0.0
 40
0.0
 40
1.0
 40
1.0
 40
1.0
 40
1.0
 10
37.88439753705239
 20
4.580782587899745
 30
0.0
 10
37.75331446909188
 20
4.721175343624892
 30
0.0
 10
37.61443874888501
 20
4.844322587125972
 30
0.0
 10
37.47618819910119
 20
4.942344417855661
 30
0.0
  0
SPLINE
  5
11B
330
1F
100
AcDbEntity
  8
외형선
  6
Continuous
 62
     1
370
    15
100
AcDbSpline
210
0.0
220
0.0
230
1.0
 70
     8
 71
     3
 72
     8
 73
     4
 74
     0
 42
0.000000001
 43
0.00000001
 40
0.0
 40
0.0
 40
0.0
 40
0.0
 40
1.0
 40
1.0
 40
1.0
 40
1.0
 10
37.47618819910098
 20
4.942344417855804
 30
0.0
 10
37.33326347879786
 20
5.018815694658319
 30
0.0
 10
37.19510250058596
 20
5.064132778687512
 30
0.0
 10
37.07146318400071
 20
5.07151440610858
 30
0.0
  0
SPLINE
  5
11C
330
1F
100
AcDbEntity
  8
외형선
  6
Continuous
 62
     1
370
    15
100
AcDbSpline
210
0.0
220
0.0
230
1.0
 70
     8
 71
     3
 72
    10
 73
     6
 74
     0
 42
0.000000001
 43
0.00000001
 40
0.0
 40
0.0
 40
0.0
 40
0.0
 40
0.5
 40
0.5
 40
1.0
 40
1.0
 40
1.0
 40
1.0
 10
37.07146318400069
 20
5.071514406108579
 30
0.0
 10
37.03328044244505
 20
5.073794027024183
 30
0.0
 10
36.98985807225854
 20
5.087658466579655
 30
0.0
 10
36.90062294235524
 20
5.134347568329831
 30
0.0
 10
36.85390065171121
 20
5.167674508226018
 30
0.0
 10
36.81110136857463
 20
5.211518835530986
 30
0.0
  0
SPLINE
  5
11D
330
1F
100
AcDbEntity
  8
외형선
  6
Continuous
 62
     1
370
    15
100
AcDbSpline
210
0.0
220
0.0
230
1.0
 70
     8
 71
     3
 72
    14
 73
    10
 74
     0
 42
0.000000001
 43
0.00000001
 40
0.0
 40
0.0
 40
0.0
 40
0.0
 40
0.25
 40
0.25
 40
0.5
 40
0.5
 40
0.75
 40
0.75
 40
1.0
 40
1.0
 40
1.0
 40
1.0
 10
36.81110136857463
 20
5.211518835530992
 30
0.0
 10
36.72670911754615
 20
5.297971719900302
 30
0.0
 10
36.64104315547974
 20
5.372441790820441
 30
0.0
 10
36.46536177080577
 20
5.501333840132835
 30
0.0
 10
36.37629918004946
 20
5.554652832096331
 30
0.0
 10
36.20034255959712
 20
5.63591406457093
 30
0.0
 10
36.11494780078842
 20
5.663420977744704
 30
0.0
 10
35.94811176583812
 20
5.692168220838476
 30
0.0
 10
35.86666779561495
 20
5.693041440283722
 30
0.0
 10
35.79088742012947
 20
5.678957107945804
 30
0.0
  0
SPLINE
  5
11E
330
1F
100
AcDbEntity
  8
외형선
  6
Continuous
 62
     1
370
    15
100
AcDbSpline
210
0.0
220
0.0
230
1.0
 70
     8
 71
     3
 72
    10
 73
     6
 74
     0
 42
0.000000001
 43
0.00000001
 40
0.0
 40
0.0
 40
0.0
 40
0.0
 40
0.5
 40
0.5
 40
1.0
 40
1.0
 40
1.0
 40
1.0
 10
35.79088742012947
 20
5.678957107945807
 30
0.0
 10
35.75247973077575
 20
5.671818760349565
 30
0.0
 10
35.70892044371959
 20
5.677098869325715
 30
0.0
 10
35.61965813936676
 20
5.709584366920699
 30
0.0
 10
35.5730445598909
 20
5.737144782692131
 30
0.0
 10
35.53051954717017
 20
5.777771620295382
 30
0.0
  0
SPLINE
  5
11F
330
1F
100
AcDbEntity
  8
외형선
  6
Continuous
 62
     1
370
    15
100
AcDbSpline
210
0.0
220
0.0
230
1.0
 70
     8
 71
     3
 72
     8
 73
     4
 74
     0
 42
0.000000001
 43
0.00000001
 40
0.0
 40
0.0
 40
0.0
 40
0.0
 40
1.0
 40
1.0
 40
1.0
 40
1.0
 10
35.53051954717017
 20
5.777771620295387
 30
0.0
 10
35.39971460342382
 20
5.902737866447635
 30
0.0
 10
35.26109321550886
 20
5.994777808469561
 30
0.0
 10
35.12276925033863
 20
6.05365566000376
 30
0.0
  0
SPLINE
  5
120
330
1F
100
AcDbEntity
  8
외형선
  6
Continuous
 62
     1
370
    15
100
AcDbSpline
210
0.0
220
0.0
230
1.0
 70
     8
 71
     3
 72
     8
 73
     4
 74
     0
 42
0.000000001
 43
0.00000001
 40
0.0
 40
0.0
 40
0.0
 40
0.0
 40
1.0
 40
1.0
 40
1.0
 40
1.0
 10
35.12276925033851
 20
6.053655660003802
 30
0.0
 10
34.98000703855046
 20
6.081536248023182
 30
0.0
 10
34.84170855307801
 20
6.071686214738121
 30
0.0
 10
34.71779592557274
 20
6.021091512045646
 30
0.0
  0
SPLINE
  5
121
330
1F
100
AcDbEntity
  8
외형선
  6
Continuous
 62
     1
370
    15
100
AcDbSpline
210
0.0
220
0.0
230
1.0
 70
     8
 71
     3
 72
    10
 73
     6
 74
     0
 42
0.000000001
 43
0.00000001
 40
0.0
 40
0.0
 40
0.0
 40
0.0
 40
0.5
 40
0.5
 40
1.0
 40
1.0
 40
1.0
 40
1.0
 10
34.71779592557274
 20
6.021091512045644
 30
0.0
 10
34.67950995492044
 20
6.005458986600544
 30
0.0
 10
34.63596973692145
 20
6.002633296666696
 30
0.0
 10
34.54655868391551
 20
6.020702555269184
 30
0.0
 10
34.49978737349078
 20
6.041813008555961
 30
0.0
 10
34.4569600661254
 20
6.077782654313427
 30
0.0
  0
SPLINE
  5
122
330
1F
100
AcDbEntity
  8
외형선
  6
Continuous
 62
     1
370
    15
100
AcDbSpline
210
0.0
220
0.0
230
1.0
 70
     8
 71
     3
 72
    14
 73
    10
 74
     0
 42
0.000000001
 43
0.00000001
 40
0.0
 40
0.0
 40
0.0
 40
0.0
 40
0.2500000000000001
 40
0.2500000000000001
 40
0.5000000000000001
 40
0.5000000000000001
 40
0.75
 40
0.75
 40
1.0
 40
1.0
 40
1.0
 40
1.0
 10
34.4569600661254
 20
6.077782654313421
 30
0.0
 10
34.3722121705939
 20
6.148960413749776
 30
0.0
 10
34.28627213518171
 20
6.202758564473295
 30
0.0
 10
34.11024382052531
 20
6.282975231644951
 30
0.0
 10
34.0211698776123
 20
6.308413194591432
 30
0.0
 10
33.84531093242251
 20
6.330170226686664
 30
0.0
 10
33.75983311877749
 20
6.326564154874628
 30
0.0
 10
33.59263008007549
 20
6.29061320005149
 30
0.0
 10
33.51091454111069
 20
6.257852591812151
 30
0.0
 10
33.43482550724971
 20
6.210105230471009
 30
0.0
  0
SPLINE
  5
123
330
1F
100
AcDbEntity
  8
외형선
  6
Continuous
 62
     1
370
    15
100
AcDbSpline
210
0.0
220
0.0
230
1.0
 70
     8
 71
     3
 72
    10
 73
     6
 74
     0
 42
0.000000001
 43
0.00000001
 40
0.0
 40
0.0
 40
0.0
 40
0.0
 40
0.5000000000000001
 40
0.5000000000000001
 40
1.0
 40
1.0
 40
1.0
 40
1.0
 10
33.4348255072497
 20
6.210105230471004
 30
0.0
 10
33.39641701886026
 20
6.186003150570138
 30
0.0
 10
33.35284564118983
 20
6.174571513427182
 30
0.0
 10
33.26350004076807
 20
6.176739548337983
 30
0.0
 10
33.2168071598328
 20
6.190401320973928
 30
0.0
 10
33.17421278718023
 20
6.220567374573471
 30
0.0
  0
SPLINE
  5
124
330
1F
100
AcDbEntity
  8
외형선
  6
Continuous
 62
     1
370
    15
100
AcDbSpline
210
0.0
220
0.0
230
1.0
 70
     8
 71
     3
 72
    11
 73
     7
 74
     0
 42
0.000000001
 43
0.00000001
 40
0.0
 40
0.0
 40
0.0
 40
0.0
 40
0.2716031463563178
 40
0.5452002476751071
 40
0.8096523372789441
 40
1.0
 40
1.0
 40
1.0
 40
1.0
 10
33.17421278718022
 20
6.220567374573482
 30
0.0
 10
33.15210222500579
 20
6.235410549775882
 30
0.0
 10
33.10771877755517
 20
6.265205870283753
 30
0.0
 10
33.04018041078368
 20
6.30003362137154
 30
0.0
 10
32.97884990006617
 20
6.32641246066634
 30
0.0
 10
32.94020323021824
 20
6.338082612266644
 30
0.0
 10
32.92402841209247
 20
6.342966929088196
 30
0.0
  0
SPLINE
  5
125
330
1F
100
AcDbEntity
  8
외형선
  6
Continuous
 62
     1
370
    15
100
AcDbSpline
210
0.0
220
0.0
230
1.0
 70
     8
 71
     3
 72
     9
 73
     5
 74
     0
 42
0.000000001
 43
0.00000001
 40
0.0
 40
0.0
 40
0.0
 40
0.0
 40
0.4914181694549611
 40
1.0
 40
1.0
 40
1.0
 40
1.0
 10
16.41787360084711
 20
-5.299501110680968
 30
0.0
 10
16.39560246653615
 20
-5.315783190671628
 30
0.0
 10
16.35028233859774
 20
-5.348916031503947
 30
0.0
 10
16.30484472459043
 20
-5.377418285389717
 30
0.0
 10
16.28173597968299
 20
-5.391914013845602
 30
0.0
  0
SPLINE
  5
126
330
1F
100
AcDbEntity
  8
외형선
  6
Continuous
 62
     1
370
    15
100
AcDbSpline
210
0.0
220
0.0
230
1.0
 70
     8
 71
     3
 72
     8
 73
     4
 74
     0
 42
0.000000001
 43
0.00000001
 40
0.0
 40
0.0
 40
0.0
 40
0.0
 40
1.0
 40
1.0
 40
1.0
 40
1.0
 10
16.28173597968356
 20
-5.3919140138503
 30
0.0
 10
16.13909216422499
 20
-5.45060484185775
 30
0.0
 10
16.0009532891846
 20
-5.475037553912403
 30
0.0
 10
15.87725360702735
 20
-5.459770290314339
 30
0.0
  0
SPLINE
  5
127
330
1F
100
AcDbEntity
  8
외형선
  6
Continuous
 62
     1
370
    15
100
AcDbSpline
210
0.0
220
0.0
230
1.0
 70
     8
 71
     3
 72
    10
 73
     6
 74
     0
 42
0.000000001
 43
0.00000001
 40
0.0
 40
0.0
 40
0.0
 40
0.0
 40
0.5
 40
0.5
 40
1.0
 40
1.0
 40
1.0
 40
1.0
 10
15.87725360702733
 20
-5.459770290314331
 30
0.0
 10
15.83904559216488
 20
-5.455054580263258
 30
0.0
 10
15.79558592360431
 20
-5.462594763298672
 30
0.0
 10
15.70633267274101
 20
-5.498826977959822
 30
0.0
 10
15.65964604770231
 20
-5.527909627435624
 30
0.0
 10
15.61691054390568
 20
-5.569331727293971
 30
0.0
  0
SPLINE
  5
128
330
1F
100
AcDbEntity
  8
외형선
  6
Continuous
 62
     1
370
    15
100
AcDbSpline
210
0.0
220
0.0
230
1.0
 70
     8
 71
     3
 72
    14
 73
    10
 74
     0
 42
0.000000001
 43
0.00000001
 40
0.0
 40
0.0
 40
0.0
 40
0.0
 40
0.2499999999999999
 40
0.2499999999999999
 40
0.4999999999999999
 40
0.4999999999999999
 40
0.7499999999999998
 40
0.7499999999999998
 40
1.0
 40
1.0
 40
1.0
 40
1.0
 10
15.61691054390568
 20
-5.569331727293969
 30
0.0
 10
15.53233873671885
 20
-5.651304362018607
 30
0.0
 10
15.44658010972748
 20
-5.719015630509609
 30
0.0
 10
15.27092784140971
 20
-5.831297450835976
 30
0.0
 10
15.18211309047304
 20
-5.87479429107512
 30
0.0
 10
15.00636935722105
 20
-5.934514674465514
 30
0.0
 10
14.92097378785491
 20
-5.950491450300744
 30
0.0
 10
14.75396580449932
 20
-5.954748094189104
 30
0.0
 10
14.6723561188149
 20
-5.942633835193726
 30
0.0
 10
14.59636403264276
 20
-5.915287288581114
 30
0.0
  0
SPLINE
  5
129
330
1F
100
AcDbEntity
  8
외형선
  6
Continuous
 62
     1
370
    15
100
AcDbSpline
210
0.0
220
0.0
230
1.0
 70
     8
 71
     3
 72
    10
 73
     6
 74
     0
 42
0.000000001
 43
0.00000001
 40
0.0
 40
0.0
 40
0.0
 40
0.0
 40
0.5
 40
0.5
 40
1.0
 40
1.0
 40
1.0
 40
1.0
 10
14.59636403264279
 20
-5.915287288581114
 30
0.0
 10
14.55792823775662
 20
-5.90145576599248
 30
0.0
 10
14.51432513274811
 20
-5.90032466353923
 30
0.0
 10
14.42492535663695
 20
-5.921525322254768
 30
0.0
 10
14.37821247152602
 20
-5.944104797738688
 30
0.0
 10
14.33559405065695
 20
-5.981291263825701
 30
0.0
  0
SPLINE
  5
12A
330
1F
100
AcDbEntity
  8
외형선
  6
Continuous
 62
     1
370
    15
100
AcDbSpline
210
0.0
220
0.0
230
1.0
 70
     8
 71
     3
 72
     8
 73
     4
 74
     0
 42
0.000000001
 43
0.00000001
 40
0.0
 40
0.0
 40
0.0
 40
0.0
 40
1.0
 40
1.0
 40
1.0
 40
1.0
 10
14.33559405065696
 20
-5.981291263825699
 30
0.0
 10
14.2043957173997
 20
-6.095767639788401
 30
0.0
 10
14.06541757023117
 20
-6.172312440651075
 30
0.0
 10
13.92712765228377
 20
-6.213942081640717
 30
0.0
  0
SPLINE
  5
12B
330
1F
100
AcDbEntity
  8
외형선
  6
Continuous
 62
     1
370
    15
100
AcDbSpline
210
0.0
220
0.0
230
1.0
 70
     8
 71
     3
 72
     8
 73
     4
 74
     0
 42
0.000000001
 43
0.00000001
 40
0.0
 40
0.0
 40
0.0
 40
0.0
 40
1.0
 40
1.0
 40
1.0
 40
1.0
 10
13.92712765228364
 20
-6.213942081640753
 30
0.0
 10
13.78399361736965
 20
-6.222155923987035
 30
0.0
 10
13.6457643440039
 20
-6.191624923097773
 30
0.0
 10
13.52172125509737
 20
-6.120454871135316
 30
0.0
  0
SPLINE
  5
12C
330
1F
100
AcDbEntity
  8
외형선
  6
Continuous
 62
     1
370
    15
100
AcDbSpline
210
0.0
220
0.0
230
1.0
 70
     8
 71
     3
 72
    10
 73
     6
 74
     0
 42
0.000000001
 43
0.00000001
 40
0.0
 40
0.0
 40
0.0
 40
0.0
 40
0.5
 40
0.5
 40
1.0
 40
1.0
 40
1.0
 40
1.0
 10
13.52172125509736
 20
-6.1204548711353
 30
0.0
 10
13.48347523343777
 20
-6.098511114551485
 30
0.0
 10
13.43998301266737
 20
-6.089342086130751
 30
0.0
 10
13.35062825866042
 20
-6.095698294225117
 30
0.0
 10
13.30384926931326
 20
-6.111328607356843
 30
0.0
 10
13.26099971315111
 20
-6.14304485233935
 30
0.0
  0
SPLINE
  5
12D
330
1F
100
AcDbEntity
  8
외형선
  6
Continuous
 62
     1
370
    15
100
AcDbSpline
210
0.0
220
0.0
230
1.0
 70
     8
 71
     3
 72
    14
 73
    10
 74
     0
 42
0.000000001
 43
0.00000001
 40
0.0
 40
0.0
 40
0.0
 40
0.0
 40
0.25
 40
0.25
 40
0.5
 40
0.5
 40
0.75
 40
0.75
 40
1.0
 40
1.0
 40
1.0
 40
1.0
 10
13.26099971315108
 20
-6.143044852339377
 30
0.0
 10
13.17649983083
 20
-6.205589700144744
 30
0.0
 10
13.09073961517964
 20
-6.249427235334021
 30
0.0
 10
12.91490194354324
 20
-6.307862650570547
 30
0.0
 10
12.82577883916619
 20
-6.321562043726839
 30
0.0
 10
12.64973742715275
 20
-6.319238603984974
 30
0.0
 10
12.5643157092413
 20
-6.303546044768573
 30
0.0
 10
12.39745089832315
 20
-6.243664255947298
 30
0.0
 10
12.31600960809164
 20
-6.199051351710797
 30
0.0
 10
12.24023873527121
 20
-6.140149489851245
 30
0.0
  0
SPLINE
  5
12E
330
1F
100
AcDbEntity
  8
외형선
  6
Continuous
 62
     1
370
    15
100
AcDbSpline
210
0.0
220
0.0
230
1.0
 70
     8
 71
     3
 72
    10
 73
     6
 74
     0
 42
0.000000001
 43
0.00000001
 40
0.0
 40
0.0
 40
0.0
 40
0.0
 40
0.5
 40
0.5
 40
1.0
 40
1.0
 40
1.0
 40
1.0
 10
12.2402387352712
 20
-6.140149489851237
 30
0.0
 10
12.20184351766078
 20
-6.110302271262166
 30
0.0
 10
12.15830641039729
 20
-6.092840400969023
 30
0.0
 10
12.0691010234273
 20
-6.083248218120342
 30
0.0
 10
12.02250137210984
 20
-6.091047232339877
 30
0.0
 10
11.97994018486095
 20
-6.11611371421113
 30
0.0
  0
SPLINE
  5
12F
330
1F
100
AcDbEntity
  8
외형선
  6
Continuous
 62
     1
370
    15
100
AcDbSpline
210
0.0
220
0.0
230
1.0
 70
     8
 71
     3
 72
     8
 73
     4
 74
     0
 42
0.000000001
 43
0.00000001
 40
0.0
 40
0.0
 40
0.0
 40
0.0
 40
1.0
 40
1.0
 40
1.0
 40
1.0
 10
11.97994018486098
 20
-6.116113714211113
 30
0.0
 10
11.84922599574243
 20
-6.193098052845619
 30
0.0
 10
11.71060119241886
 20
-6.223174239327108
 30
0.0
 10
11.57236131528542
 20
-6.216527873195449
 30
0.0
  0
SPLINE
  5
130
330
1F
100
AcDbEntity
  8
외형선
  6
Continuous
 62
     1
370
    15
100
AcDbSpline
210
0.0
220
0.0
230
1.0
 70
     8
 71
     3
 72
     8
 73
     4
 74
     0
 42
0.000000001
 43
0.00000001
 40
0.0
 40
0.0
 40
0.0
 40
0.0
 40
1.0
 40
1.0
 40
1.0
 40
1.0
 10
11.5723613152854
 20
-6.216527873195499
 30
0.0
 10
11.42968953752698
 20
-6.172897065363234
 30
0.0
 10
11.29153672871285
 20
-6.090879293138914
 30
0.0
 10
11.16781503578357
 20
-5.97316662825804
 30
0.0
  0
SPLINE
  5
131
330
1F
100
AcDbEntity
  8
외형선
  6
Continuous
 62
     1
370
    15
100
AcDbSpline
210
0.0
220
0.0
230
1.0
 70
     8
 71
     3
 72
    10
 73
     6
 74
     0
 42
0.000000001
 43
0.00000001
 40
0.0
 40
0.0
 40
0.0
 40
0.0
 40
0.5
 40
0.5
 40
1.0
 40
1.0
 40
1.0
 40
1.0
 10
11.16781503578357
 20
-5.973166628258038
 30
0.0
 10
11.1295860856207
 20
-5.936794416621382
 30
0.0
 10
11.08610513524033
 20
-5.912112097679438
 30
0.0
 10
10.99681415957625
 20
-5.887803306312382
 30
0.0
 10
10.95010986997511
 20
-5.88798033013176
 30
0.0
 10
10.90735405009247
 20
-5.905740793069986
 30
0.0
  0
SPLINE
  5
132
330
1F
100
AcDbEntity
  8
외형선
  6
Continuous
 62
     1
370
    15
100
AcDbSpline
210
0.0
220
0.0
230
1.0
 70
     8
 71
     3
 72
    14
 73
    10
 74
     0
 42
0.000000001
 43
0.00000001
 40
0.0
 40
0.0
 40
0.0
 40
0.0
 40
0.2500000000000003
 40
0.2500000000000003
 40
0.5000000000000002
 40
0.5000000000000002
 40
0.7500000000000001
 40
0.7500000000000001
 40
1.0
 40
1.0
 40
1.0
 40
1.0
 10
10.90735405009243
 20
-5.905740793070017
 30
0.0
 10
10.82270175294657
 20
-5.940904754145327
 30
0.0
 10
10.73686825541533
 20
-5.955140158771351
 30
0.0
 10
10.56107676150318
 20
-5.951998090036736
 30
0.0
 10
10.47218224248484
 20
-5.934012378405231
 30
0.0
 10
10.29623965708355
 20
-5.869966872676317
 30
0.0
 10
10.2107453089989
 20
-5.824701449101773
 30
0.0
 10
10.0435364800378
 20
-5.708519916761886
 30
0.0
 10
9.9618335555666
 20
-5.637216973688001
 30
0.0
 10
9.885737282374645
 20
-5.554353694890565
 30
0.0
  0
SPLINE
  5
133
330
1F
100
AcDbEntity
  8
외형선
  6
Continuous
370
    15
100
AcDbSpline
210
0.0
220
0.0
230
1.0
 70
     8
 71
     3
 72
    10
 73
     6
 74
     0
 42
0.000000001
 43
0.00000001
 40
0.0
 40
0.0
 40
0.0
 40
0.0
 40
0.5
 40
0.5
 40
1.0
 40
1.0
 40
1.0
 40
1.0
 10
9.885737282374643
 20
-5.554353694890564
 30
0.0
 10
9.847245023877287
 20
-5.512438439206971
 30
0.0
 10
9.80359106783185
 20
-5.480928566388779
 30
0.0
 10
9.714100882118125
 20
-5.441821700558864
 30
0.0
 10
9.66733804995783
 20
-5.433869207361462
 30
0.0
 10
9.624672282492691
 20
-5.44353721971243
 30
0.0
  0
SPLINE
  5
134
330
1F
100
AcDbEntity
  8
외형선
  6
Continuous
370
    15
100
AcDbSpline
210
0.0
220
0.0
230
1.0
 70
     8
 71
     3
 72
     8
 73
     4
 74
     0
 42
0.000000001
 43
0.00000001
 40
0.0
 40
0.0
 40
0.0
 40
0.0
 40
1.0
 40
1.0
 40
1.0
 40
1.0
 10
9.624672282492686
 20
-5.443537219712436
 30
0.0
 10
9.536238740977309
 20
-5.463576155430845
 30
0.0
 10
9.444250649942916
 20
-5.460495616413422
 30
0.0
 10
9.351252309830416
 20
-5.440045794509402
 30
0.0
  0
SPLINE
  5
135
330
1F
100
AcDbEntity
  8
외형선
  6
Continuous
 62
     1
370
    15
100
AcDbSpline
210
0.0
220
0.0
230
1.0
 70
     8
 71
     3
 72
    11
 73
     7
 74
     0
 42
0.000000001
 43
0.00000001
 40
0.0
 40
0.0
 40
0.0
 40
0.0
 40
0.0999881764143671
 40
0.3513196134381018
 40
0.7865650304589688
 40
1.0
 40
1.0
 40
1.0
 40
1.0
 10
16.41204054202344
 20
5.374618230270089
 30
0.0
 10
16.43933498522359
 20
5.398851295905994
 30
0.0
 10
16.53523705662797
 20
5.483996875682798
 30
0.0
 10
16.75453066135817
 20
5.599526060789037
 30
0.0
 10
17.00174371897799
 20
5.68191274943297
 30
0.0
 10
17.16038559519559
 20
5.666445630211149
 30
0.0
 10
17.21258344905379
 20
5.661356492034037
 30
0.0
  0
SPLINE
  5
136
330
1F
100
AcDbEntity
  8
외형선
  6
Continuous
 62
     1
370
    15
100
AcDbSpline
210
0.0
220
0.0
230
1.0
 70
     8
 71
     3
 72
    10
 73
     6
 74
     0
 42
0.000000001
 43
0.00000001
 40
0.0
 40
0.0
 40
0.0
 40
0.0
 40
0.5
 40
0.5
 40
1.0
 40
1.0
 40
1.0
 40
1.0
 10
17.2125834490538
 20
5.66135649203403
 30
0.0
 10
17.25104440677829
 20
5.65458203356664
 30
0.0
 10
17.29466541803938
 20
5.660144933532653
 30
0.0
 10
17.38410627300442
 20
5.693072645404209
 30
0.0
 10
17.43085275281912
 20
5.720804284390197
 30
0.0
 10
17.473504721451
 20
5.761558196664625
 30
0.0
  0
SPLINE
  5
137
330
1F
100
AcDbEntity
  8
외형선
  6
Continuous
 62
     1
370
    15
100
AcDbSpline
210
0.0
220
0.0
230
1.0
 70
     8
 71
     3
 72
     8
 73
     4
 74
     0
 42
0.000000001
 43
0.00000001
 40
0.0
 40
0.0
 40
0.0
 40
0.0
 40
1.0
 40
1.0
 40
1.0
 40
1.0
 10
17.47350472145109
 20
5.761558196664667
 30
0.0
 10
17.60456447648392
 20
5.886785658154485
 30
0.0
 10
17.74342617681403
 20
5.979400171104912
 30
0.0
 10
17.88167629548918
 20
6.03908380870732
 30
0.0
  0
SPLINE
  5
138
330
1F
100
AcDbEntity
  8
외형선
  6
Continuous
 62
     1
370
    15
100
AcDbSpline
210
0.0
220
0.0
230
1.0
 70
     8
 71
     3
 72
     8
 73
     4
 74
     0
 42
0.000000001
 43
0.00000001
 40
0.0
 40
0.0
 40
0.0
 40
0.0
 40
1.0
 40
1.0
 40
1.0
 40
1.0
 10
17.88167623918197
 20
6.039083797319366
 30
0.0
 10
18.02458468690302
 20
6.067986554233122
 30
0.0
 10
18.16274164013147
 20
6.059303156547327
 30
0.0
 10
18.28637889284695
 20
6.009957132998179
 30
0.0
  0
SPLINE
  5
139
330
1F
100
AcDbEntity
  8
외형선
  6
Continuous
 62
     1
370
    15
100
AcDbSpline
210
0.0
220
0.0
230
1.0
 70
     8
 71
     3
 72
    10
 73
     6
 74
     0
 42
0.000000001
 43
0.00000001
 40
0.0
 40
0.0
 40
0.0
 40
0.0
 40
0.5
 40
0.5
 40
1.0
 40
1.0
 40
1.0
 40
1.0
 10
18.28637889284696
 20
6.009957132998196
 30
0.0
 10
18.32457565395353
 20
5.994712065418089
 30
0.0
 10
18.36798341378291
 20
5.992256825032902
 30
0.0
 10
18.45720688400541
 20
6.010946115317641
 30
0.0
 10
18.50392378925985
 20
6.032330316568764
 30
0.0
 10
18.54672069778297
 20
6.068548242466879
 30
0.0
  0
SPLINE
  5
13A
330
1F
100
AcDbEntity
  8
외형선
  6
Continuous
 62
     1
370
    15
100
AcDbSpline
210
0.0
220
0.0
230
1.0
 70
     8
 71
     3
 72
    14
 73
    10
 74
     0
 42
0.000000001
 43
0.00000001
 40
0.0
 40
0.0
 40
0.0
 40
0.0
 40
0.25
 40
0.25
 40
0.5
 40
0.5
 40
0.75
 40
0.75
 40
1.0
 40
1.0
 40
1.0
 40
1.0
 10
18.546720697783
 20
6.068548242466898
 30
0.0
 10
18.63109839865121
 20
6.139954926336303
 30
0.0
 10
18.71675152587628
 20
6.194190755440498
 30
0.0
 10
18.89241279498736
 20
6.275414474554919
 30
0.0
 10
18.98147057679094
 20
6.301419901330314
 30
0.0
 10
19.15742778022274
 20
6.32422184988542
 30
0.0
 10
19.2428272642154
 20
6.321126985227351
 30
0.0
 10
19.40967966334307
 20
6.286351893853077
 30
0.0
 10
19.49113604202845
 20
6.254251632535226
 30
0.0
 10
19.56692947334793
 20
6.207282704738624
 30
0.0
  0
SPLINE
  5
13B
330
1F
100
AcDbEntity
  8
외형선
  6
Continuous
 62
     1
370
    15
100
AcDbSpline
210
0.0
220
0.0
230
1.0
 70
     8
 71
     3
 72
    10
 73
     6
 74
     0
 42
0.000000001
 43
0.00000001
 40
0.0
 40
0.0
 40
0.0
 40
0.0
 40
0.5
 40
0.5
 40
1.0
 40
1.0
 40
1.0
 40
1.0
 10
19.56692947334541
 20
6.207282704740727
 30
0.0
 10
19.60533781666145
 20
6.183481186949634
 30
0.0
 10
19.64889915468866
 20
6.172407363220162
 30
0.0
 10
19.73816887969858
 20
6.175258223086892
 30
0.0
 10
19.78478761031226
 20
6.189246370621825
 30
0.0
 10
19.82731640931276
 20
6.219648711624413
 30
0.0
  0
SPLINE
  5
13C
330
1F
100
AcDbEntity
  8
외형선
  6
Continuous
 62
     1
370
    15
100
AcDbSpline
210
0.0
220
0.0
230
1.0
 70
     8
 71
     3
 72
     8
 73
     4
 74
     0
 42
0.000000001
 43
0.00000001
 40
0.0
 40
0.0
 40
0.0
 40
0.0
 40
1.0
 40
1.0
 40
1.0
 40
1.0
 10
19.82731640931479
 20
6.219648711624152
 30
0.0
 10
19.95818095650047
 20
6.313199168777494
 30
0.0
 10
20.09675401462033
 20
6.362650898563873
 30
0.0
 10
20.23508377397804
 20
6.375531682010017
 30
0.0
  0
SPLINE
  5
13D
330
1F
100
AcDbEntity
  8
외형선
  6
Continuous
 62
     1
370
    15
100
AcDbSpline
210
0.0
220
0.0
230
1.0
 70
     8
 71
     3
 72
     8
 73
     4
 74
     0
 42
0.000000001
 43
0.00000001
 40
0.0
 40
0.0
 40
0.0
 40
0.0
 40
1.0
 40
1.0
 40
1.0
 40
1.0
 10
20.2350837176821
 20
6.375531691192177
 30
0.0
 10
20.37784563888197
 20
6.352246418587585
 30
0.0
 10
20.51615917600704
 20
6.289746601080307
 30
0.0
 10
20.64009525692446
 20
6.189055509142483
 30
0.0
  0
SPLINE
  5
13E
330
1F
100
AcDbEntity
  8
외형선
  6
Continuous
 62
     1
370
    15
100
AcDbSpline
210
0.0
220
0.0
230
1.0
 70
     8
 71
     3
 72
    10
 73
     6
 74
     0
 42
0.000000001
 43
0.00000001
 40
0.0
 40
0.0
 40
0.0
 40
0.0
 40
0.5
 40
0.5
 40
1.0
 40
1.0
 40
1.0
 40
1.0
 10
20.64009525692448
 20
6.189055509142472
 30
0.0
 10
20.67838521639813
 20
6.157947071622759
 30
0.0
 10
20.72192984938894
 20
6.139179364173032
 30
0.0
 10
20.81135155711034
 20
6.126962902326872
 30
0.0
 10
20.85812987718152
 20
6.133433923588989
 30
0.0
 10
20.90096466065303
 20
6.157150535942725
 30
0.0
  0
SPLINE
  5
13F
330
1F
100
AcDbEntity
  8
외형선
  6
Continuous
 62
     1
370
    15
100
AcDbSpline
210
0.0
220
0.0
230
1.0
 70
     8
 71
     3
 72
    14
 73
    10
 74
     0
 42
0.000000001
 43
0.00000001
 40
0.0
 40
0.0
 40
0.0
 40
0.0
 40
0.25
 40
0.25
 40
0.5
 40
0.5
 40
0.75
 40
0.75
 40
1.0
 40
1.0
 40
1.0
 40
1.0
 10
20.90096466065301
 20
6.157150535942728
 30
0.0
 10
20.98571590708569
 20
6.204075308177806
 30
0.0
 10
21.07166390817967
 20
6.230591229043868
 30
0.0
 10
21.24771464701318
 20
6.252490359390364
 30
0.0
 10
21.33682188126135
 20
6.247143048462028
 30
0.0
 10
21.51269332272116
 20
6.207169619245667
 30
0.0
 10
21.59810762114552
 20
6.173221307765223
 30
0.0
 10
21.76526465932788
 20
6.078043536959687
 30
0.0
 10
21.84696185568492
 20
6.016400068500801
 30
0.0
 10
21.92303714554322
 20
5.941816089787284
 30
0.0
  0
SPLINE
  5
140
330
1F
100
AcDbEntity
  8
외형선
  6
Continuous
 62
     1
370
    15
100
AcDbSpline
210
0.0
220
0.0
230
1.0
 70
     8
 71
     3
 72
    10
 73
     6
 74
     0
 42
0.000000001
 43
0.00000001
 40
0.0
 40
0.0
 40
0.0
 40
0.0
 40
0.4999999999999994
 40
0.4999999999999994
 40
1.0
 40
1.0
 40
1.0
 40
1.0
 10
21.92303714554325
 20
5.941816089787268
 30
0.0
 10
21.96144008083875
 20
5.904165970885967
 30
0.0
 10
22.00500614490237
 20
5.877868643366922
 30
0.0
 10
22.0943437148994
 20
5.850175680006403
 30
0.0
 10
22.1410339802549
 20
5.848542141969724
 30
0.0
 10
22.18362649126286
 20
5.864656937789425
 30
0.0
  0
SPLINE
  5
141
330
1F
100
AcDbEntity
  8
외형선
  6
Continuous
 62
     1
370
    15
100
AcDbSpline
210
0.0
220
0.0
230
1.0
 70
     8
 71
     3
 72
     8
 73
     4
 74
     0
 42
0.000000001
 43
0.00000001
 40
0.0
 40
0.0
 40
0.0
 40
0.0
 40
1.0
 40
1.0
 40
1.0
 40
1.0
 10
22.18362649126297
 20
5.864656937789481
 30
0.0
 10
22.31455620194337
 20
5.91419394569096
 30
0.0
 10
22.45329692413116
 20
5.914059339126344
 30
0.0
 10
22.59141807966513
 20
5.878467247936446
 30
0.0
  0
SPLINE
  5
142
330
1F
100
AcDbEntity
  8
외형선
  6
Continuous
 62
     1
370
    15
100
AcDbSpline
210
0.0
220
0.0
230
1.0
 70
     8
 71
     3
 72
     8
 73
     4
 74
     0
 42
0.000000001
 43
0.00000001
 40
0.0
 40
0.0
 40
0.0
 40
0.0
 40
1.0
 40
1.0
 40
1.0
 40
1.0
 10
22.59141802340604
 20
5.878467276467156
 30
0.0
 10
22.7342433153179
 20
5.806036586142286
 30
0.0
 10
22.87230070225191
 20
5.697837567371984
 30
0.0
 10
22.99584323767097
 20
5.559036942454477
 30
0.0
  0
SPLINE
  5
143
330
1F
100
AcDbEntity
  8
외형선
  6
Continuous
 62
     1
370
    15
100
AcDbSpline
210
0.0
220
0.0
230
1.0
 70
     8
 71
     3
 72
    10
 73
     6
 74
     0
 42
0.000000001
 43
0.00000001
 40
0.0
 40
0.0
 40
0.0
 40
0.0
 40
0.5
 40
0.5
 40
1.0
 40
1.0
 40
1.0
 40
1.0
 10
22.995843237671
 20
5.559036942454451
 30
0.0
 10
23.03401309630867
 20
5.51615292510811
 30
0.0
 10
23.07741487211829
 20
5.483495953474632
 30
0.0
 10
23.16661979216438
 20
5.441846702338143
 30
0.0
 10
23.21332562982837
 20
5.432481333540822
 30
0.0
 10
23.25610937172549
 20
5.440610383335822
 30
0.0
  0
SPLINE
  5
144
330
1F
100
AcDbEntity
  8
외형선
  6
Continuous
 62
     1
370
    15
100
AcDbSpline
210
0.0
220
0.0
230
1.0
 70
     8
 71
     3
 72
    14
 73
    10
 74
     0
 42
0.000000001
 43
0.00000001
 40
0.0
 40
0.0
 40
0.0
 40
0.0
 40
0.25
 40
0.25
 40
0.5
 40
0.5
 40
0.75
 40
0.75
 40
1.0
 40
1.0
 40
1.0
 40
1.0
 10
23.25610937172542
 20
5.440610383335819
 30
0.0
 10
23.34051689336591
 20
5.456648086352501
 30
0.0
 10
23.42620120636094
 20
5.452036327245179
 30
0.0
 10
23.60192614714181
 20
5.412029356137605
 30
0.0
 10
23.69101018584762
 20
5.376246753417268
 30
0.0
 10
23.86700699050602
 20
5.279117071762808
 30
0.0
 10
23.95242485347705
 20
5.218871649845611
 30
0.0
 10
24.11931477742651
 20
5.076100954044282
 30
0.0
 10
24.20078556012893
 20
4.993217379524417
 30
0.0
 10
24.2766032672162
 20
4.901214406810532
 30
0.0
  0
SPLINE
  5
145
330
1F
100
AcDbEntity
  8
외형선
  6
Continuous
 62
     1
370
    15
100
AcDbSpline
210
0.0
220
0.0
230
1.0
 70
     8
 71
     3
 72
    10
 73
     6
 74
     0
 42
0.000000001
 43
0.00000001
 40
0.0
 40
0.0
 40
0.0
 40
0.0
 40
0.5000000000000009
 40
0.5000000000000009
 40
1.0
 40
1.0
 40
1.0
 40
1.0
 10
24.27660326721438
 20
4.901214406812768
 30
0.0
 10
24.31505073078402
 20
4.854559330081903
 30
0.0
 10
24.35865046869454
 20
4.816467548945591
 30
0.0
 10
24.44798915784029
 20
4.761774036530919
 30
0.0
 10
24.49464201572571
 20
4.744652403241926
 30
0.0
 10
24.53720959398698
 20
4.744179160187954
 30
0.0
  0
SPLINE
  5
146
330
1F
100
AcDbEntity
  8
외형선
  6
Continuous
 62
     1
370
    15
100
AcDbSpline
210
0.0
220
0.0
230
1.0
 70
     8
 71
     3
 72
     8
 73
     4
 74
     0
 42
0.000000001
 43
0.00000001
 40
0.0
 40
0.0
 40
0.0
 40
0.0
 40
1.0
 40
1.0
 40
1.0
 40
1.0
 10
24.53720959398734
 20
4.744179160187337
 30
0.0
 10
24.668190009911
 20
4.742722991559083
 30
0.0
 10
24.80695103894364
 20
4.692464980436017
 30
0.0
 10
24.94542422640728
 20
4.612800587612357
 30
0.0
  0
SPLINE
  5
147
330
1F
100
AcDbEntity
  8
외형선
  6
Continuous
 62
     1
370
    15
100
AcDbSpline
210
0.0
220
0.0
230
1.0
 70
     8
 71
     3
 72
     8
 73
     4
 74
     0
 42
0.000000001
 43
0.00000001
 40
0.0
 40
0.0
 40
0.0
 40
0.0
 40
1.0
 40
1.0
 40
1.0
 40
1.0
 10
24.94542417003464
 20
4.612800631843161
 30
0.0
 10
25.08837643995187
 20
4.500638174673677
 30
0.0
 10
25.22689314136019
 20
4.361136482724191
 30
0.0
 10
25.35099972811076
 20
4.202557298379798
 30
0.0
  0
SPLINE
  5
148
330
1F
100
AcDbEntity
  8
외형선
  6
Continuous
 62
     1
370
    15
100
AcDbSpline
210
0.0
220
0.0
230
1.0
 70
     8
 71
     3
 72
    10
 73
     6
 74
     0
 42
0.000000001
 43
0.00000001
 40
0.0
 40
0.0
 40
0.0
 40
0.0
 40
0.5
 40
0.5
 40
1.0
 40
1.0
 40
1.0
 40
1.0
 10
25.35099972811076
 20
4.202557298379798
 30
0.0
 10
25.38929943364953
 20
4.153619234542979
 30
0.0
 10
25.43284587329941
 20
4.111503626658329
 30
0.0
 10
25.52226773227311
 20
4.046155858728481
 30
0.0
 10
25.56904961356133
 20
4.022307600282908
 30
0.0
 10
25.61188249775086
 20
4.013807703806724
 30
0.0
  0
SPLINE
  5
149
330
1F
100
AcDbEntity
  8
외형선
  6
Continuous
 62
     1
370
    15
100
AcDbSpline
210
0.0
220
0.0
230
1.0
 70
     8
 71
     3
 72
    14
 73
    10
 74
     0
 42
0.000000001
 43
0.00000001
 40
0.0
 40
0.0
 40
0.0
 40
0.0
 40
0.2499999999999998
 40
0.2499999999999998
 40
0.4999999999999999
 40
0.4999999999999999
 40
0.75
 40
0.75
 40
1.0
 40
1.0
 40
1.0
 40
1.0
 10
25.61188249775083
 20
4.013807703806756
 30
0.0
 10
25.69652869546808
 20
3.99701023776372
 30
0.0
 10
25.78236663285655
 20
3.961722422504456
 30
0.0
 10
25.95819452521683
 20
3.864483331354063
 30
0.0
 10
26.04718995204336
 20
3.802561534421844
 30
0.0
 10
26.22283462937075
 20
3.660124097305648
 30
0.0
 10
26.30820215525112
 20
3.581197112629442
 30
0.0
 10
26.47518040547246
 20
3.409018097019436
 30
0.0
 10
26.55678878041573
 20
3.31551952949139
 30
0.0
 10
26.63277157980414
 20
3.217832278894688
 30
0.0
  0
SPLINE
  5
14A
330
1F
100
AcDbEntity
  8
외형선
  6
Continuous
 62
     1
370
    15
100
AcDbSpline
210
0.0
220
0.0
230
1.0
 70
     8
 71
     3
 72
    10
 73
     6
 74
     0
 42
0.000000001
 43
0.00000001
 40
0.0
 40
0.0
 40
0.0
 40
0.0
 40
0.5
 40
0.5
 40
1.0
 40
1.0
 40
1.0
 40
1.0
 10
26.63277157980414
 20
3.217832278894687
 30
0.0
 10
26.67114321161706
 20
3.168499808350234
 30
0.0
 10
26.71468025420046
 20
3.123762697648008
 30
0.0
 10
26.80396278680838
 20
3.049621582525331
 30
0.0
 10
26.85062212530375
 20
3.019501523239018
 30
0.0
 10
26.89318220588333
 20
3.002846286562931
 30
0.0
  0
SPLINE
  5
14B
330
1F
100
AcDbEntity
  8
외형선
  6
Continuous
 62
     1
370
    15
100
AcDbSpline
210
0.0
220
0.0
230
1.0
 70
     8
 71
     3
 72
     8
 73
     4
 74
     0
 42
0.000000001
 43
0.00000001
 40
0.0
 40
0.0
 40
0.0
 40
0.0
 40
1.0
 40
1.0
 40
1.0
 40
1.0
 10
26.89318220588343
 20
3.002846286562962
 30
0.0
 10
27.02406140933501
 20
2.951628711789122
 30
0.0
 10
27.16275492242466
 20
2.858883500908198
 30
0.0
 10
27.30081868528904
 20
2.746160421540919
 30
0.0
  0
SPLINE
  5
14C
330
1F
100
AcDbEntity
  8
외형선
  6
Continuous
 62
     1
370
    15
100
AcDbSpline
210
0.0
220
0.0
230
1.0
 70
     8
 71
     3
 72
     8
 73
     4
 74
     0
 42
0.000000001
 43
0.00000001
 40
0.0
 40
0.0
 40
0.0
 40
0.0
 40
1.0
 40
1.0
 40
1.0
 40
1.0
 10
27.30081862904327
 20
2.74616047547971
 30
0.0
 10
27.44364245576469
 20
2.60919469369594
 30
0.0
 10
27.58166755361439
 20
2.456432755954838
 30
0.0
 10
27.70522274250679
 20
2.298670626319351
 30
0.0
  0
SPLINE
  5
14D
330
1F
100
AcDbEntity
  8
외형선
  6
Continuous
 62
     1
370
    15
100
AcDbSpline
210
0.0
220
0.0
230
1.0
 70
     8
 71
     3
 72
    10
 73
     6
 74
     0
 42
0.000000001
 43
0.00000001
 40
0.0
 40
0.0
 40
0.0
 40
0.0
 40
0.5
 40
0.5
 40
1.0
 40
1.0
 40
1.0
 40
1.0
 10
27.70522274250453
 20
2.298670626322245
 30
0.0
 10
27.74339708595058
 20
2.249927503726795
 30
0.0
 10
27.78682172733133
 20
2.203686171696722
 30
0.0
 10
27.87605467929486
 20
2.122877962590207
 30
0.0
 10
27.92277322162328
 20
2.087527306276179
 30
0.0
 10
27.96556960722794
 20
2.06344666623882
 30
0.0
  0
SPLINE
  5
14E
330
1F
100
AcDbEntity
  8
외형선
  6
Continuous
 62
     1
370
    15
100
AcDbSpline
210
0.0
220
0.0
230
1.0
 70
     8
 71
     3
 72
    14
 73
    10
 74
     0
 42
0.000000001
 43
0.00000001
 40
0.0
 40
0.0
 40
0.0
 40
0.0
 40
0.25
 40
0.25
 40
0.5
 40
0.5
 40
0.75
 40
0.75
 40
1.0
 40
1.0
 40
1.0
 40
1.0
 10
27.96556960722794
 20
2.063446666238824
 30
0.0
 10
28.05006055249944
 20
2.015905360804905
 30
0.0
 10
28.13582683266661
 20
1.954722642976269
 30
0.0
 10
28.31171275771048
 20
1.813678147662785
 30
0.0
 10
28.40087221211556
 20
1.734226017219075
 30
0.0
 10
28.57700476350071
 20
1.566394369802938
 30
0.0
 10
28.66249097728565
 20
1.479541256110775
 30
0.0
 10
28.82952231323064
 20
1.301156177830669
 30
0.0
 10
28.91105718206776
 20
1.209517325819998
 30
0.0
 10
28.98695200529772
 20
1.119117814290652
 30
0.0
  0
SPLINE
  5
14F
330
1F
100
AcDbEntity
  8
외형선
  6
Continuous
 62
     1
370
    15
100
AcDbSpline
210
0.0
220
0.0
230
1.0
 70
     8
 71
     3
 72
    10
 73
     6
 74
     0
 42
0.000000001
 43
0.00000001
 40
0.0
 40
0.0
 40
0.0
 40
0.0
 40
0.5
 40
0.5
 40
1.0
 40
1.0
 40
1.0
 40
1.0
 10
28.98695200529771
 20
1.119117814290697
 30
0.0
 10
29.02546537321953
 20
1.073243939113027
 30
0.0
 10
29.06912937839192
 20
1.027411788793709
 30
0.0
 10
29.15858502942935
 20
0.9428159037389118
 30
0.0
 10
29.20529745922453
 20
0.9032066973960372
 30
0.0
 10
29.24793006435294
 20
0.8720114830754081
 30
0.0
  0
SPLINE
  5
150
330
1F
100
AcDbEntity
  8
외형선
  6
Continuous
 62
     1
370
    15
100
AcDbSpline
210
0.0
220
0.0
230
1.0
 70
     8
 71
     3
 72
     8
 73
     4
 74
     0
 42
0.000000001
 43
0.00000001
 40
0.0
 40
0.0
 40
0.0
 40
0.0
 40
1.0
 40
1.0
 40
1.0
 40
1.0
 10
29.24793006435304
 20
0.8720114830754073
 30
0.0
 10
29.37895652588864
 20
0.776136540951504
 30
0.0
 10
29.51782319782207
 20
0.6517788778731901
 30
0.0
 10
29.65635971720658
 20
0.5200397424271935
 30
0.0
  0
SPLINE
  5
151
330
1F
100
AcDbEntity
  8
외형선
  6
Continuous
 62
     1
370
    15
100
AcDbSpline
210
0.0
220
0.0
230
1.0
 70
     8
 71
     3
 72
     8
 73
     4
 74
     0
 42
0.000000001
 43
0.00000001
 40
0.0
 40
0.0
 40
0.0
 40
0.0
 40
1.0
 40
1.0
 40
1.0
 40
1.0
 10
29.65635966085436
 20
0.5200397991901955
 30
0.0
 10
29.79916357867009
 20
0.3761949281731179
 30
0.0
 10
29.9375142048747
 20
0.2307356892752132
 30
0.0
 10
30.06143112069283
 20
0.0951269894565248
 30
0.0
  0
SPLINE
  5
152
330
1F
100
AcDbEntity
  8
외형선
  6
Continuous
 62
     1
370
    15
100
AcDbSpline
210
0.0
220
0.0
230
1.0
 70
     8
 71
     3
 72
    10
 73
     6
 74
     0
 42
0.000000001
 43
0.00000001
 40
0.0
 40
0.0
 40
0.0
 40
0.0
 40
0.5
 40
0.5
 40
1.0
 40
1.0
 40
1.0
 40
1.0
 10
30.06143112069283
 20
0.0951269894565428
 30
0.0
 10
30.09967308564631
 20
0.0532768262918611
 30
0.0
 10
30.1431644414881
 20
0.0092786136843306
 30
0.0
 10
30.23248243581127
 20
-0.075872800184684
 30
0.0
 10
30.27920819458895
 20
-0.1178588149308428
 30
0.0
 10
30.32198245748764
 20
-0.1542157857627239
 30
0.0
  0
SPLINE
  5
153
330
1F
100
AcDbEntity
  8
외형선
  6
Continuous
 62
     1
370
    15
100
AcDbSpline
210
0.0
220
0.0
230
1.0
 70
     8
 71
     3
 72
    10
 73
     6
 74
     0
 42
0.000000001
 43
0.00000001
 40
0.0
 40
0.0
 40
0.0
 40
0.0
 40
0.5
 40
0.5
 40
1.0
 40
1.0
 40
1.0
 40
1.0
 10
31.34217116584032
 20
-1.125876128162881
 30
0.0
 10
31.38053837198797
 20
-1.161824229008344
 30
0.0
 10
31.4240724788959
 20
-1.202273176327459
 30
0.0
 10
31.51334844596393
 20
-1.285203133612977
 30
0.0
 10
31.5600022533054
 20
-1.328515140470225
 30
0.0
 10
31.60255702353104
 20
-1.369475027660124
 30
0.0
  0
SPLINE
  5
154
330
1F
100
AcDbEntity
  8
외형선
  6
Continuous
 62
     1
370
    15
100
AcDbSpline
210
0.0
220
0.0
230
1.0
 70
     8
 71
     3
 72
    10
 73
     6
 74
     0
 42
0.000000001
 43
0.00000001
 40
0.0
 40
0.0
 40
0.0
 40
0.0
 40
0.5
 40
0.5
 40
1.0
 40
1.0
 40
1.0
 40
1.0
 10
32.41490439895566
 20
-2.114865722828989
 30
0.0
 10
32.45311924653362
 20
-2.144718742957741
 30
0.0
 10
32.49658531085141
 20
-2.181072216274676
 30
0.0
 10
32.585894922131
 20
-2.260024881012516
 30
0.0
 10
32.63265116075094
 20
-2.303420937128756
 30
0.0
 10
32.67548701205365
 20
-2.347499303986009
 30
0.0
  0
SPLINE
  5
155
330
1F
100
AcDbEntity
  8
외형선
  6
Continuous
 62
     1
370
    15
100
AcDbSpline
210
0.0
220
0.0
230
1.0
 70
     8
 71
     3
 72
    10
 73
     6
 74
     0
 42
0.000000001
 43
0.00000001
 40
0.0
 40
0.0
 40
0.0
 40
0.0
 40
0.5
 40
0.5
 40
1.0
 40
1.0
 40
1.0
 40
1.0
 10
33.69788261729781
 20
-3.217252124739546
 30
0.0
 10
33.73635602124988
 20
-3.238957038876309
 30
0.0
 10
33.77997294342391
 20
-3.269161159773766
 30
0.0
 10
33.86933692454948
 20
-3.340517344644935
 30
0.0
 10
33.915996120308
 20
-3.382411868920955
 30
0.0
 10
33.95858848539559
 20
-3.428393152034995
 30
0.0
  0
SPLINE
  5
156
330
1F
100
AcDbEntity
  8
외형선
  6
Continuous
 62
     1
370
    15
100
AcDbSpline
210
0.0
220
0.0
230
1.0
 70
     8
 71
     3
 72
     8
 73
     4
 74
     0
 42
0.000000001
 43
0.00000001
 40
0.0
 40
0.0
 40
0.0
 40
0.0
 40
1.0
 40
1.0
 40
1.0
 40
1.0
 10
33.9585884853957
 20
-3.428393152035047
 30
0.0
 10
34.08941642434876
 20
-3.569630589492566
 30
0.0
 10
34.22813907153087
 20
-3.704778213023115
 30
0.0
 10
34.36650702652324
 20
-3.821463235955483
 30
0.0
  0
SPLINE
  5
157
330
1F
100
AcDbEntity
  8
외형선
  6
Continuous
 62
     1
370
    15
100
AcDbSpline
210
0.0
220
0.0
230
1.0
 70
     8
 71
     3
 72
     8
 73
     4
 74
     0
 42
0.000000001
 43
0.00000001
 40
0.0
 40
0.0
 40
0.0
 40
0.0
 40
1.0
 40
1.0
 40
1.0
 40
1.0
 10
34.36650697023841
 20
-3.821463195551229
 30
0.0
 10
34.50918329097896
 20
-3.923883848514701
 30
0.0
 10
34.6473860501352
 20
-4.001364797656763
 30
0.0
 10
34.7711531597573
 20
-4.045133927451061
 30
0.0
  0
SPLINE
  5
158
330
1F
100
AcDbEntity
  8
외형선
  6
Continuous
 62
     1
370
    15
100
AcDbSpline
210
0.0
220
0.0
230
1.0
 70
     8
 71
     3
 72
    10
 73
     6
 74
     0
 42
0.000000001
 43
0.00000001
 40
0.0
 40
0.0
 40
0.0
 40
0.0
 40
0.5
 40
0.5
 40
1.0
 40
1.0
 40
1.0
 40
1.0
 10
34.7711531597573
 20
-4.045133927451069
 30
0.0
 10
34.80936421568164
 20
-4.05864692514033
 30
0.0
 10
34.85282655194514
 20
-4.082188045768893
 30
0.0
 10
34.94208909094598
 20
-4.143915325833428
 30
0.0
 10
34.98878396441658
 20
-4.182731584158488
 30
0.0
 10
35.03152658170298
 20
-4.22847823970902
 30
0.0
  0
SPLINE
  5
159
330
1F
100
AcDbEntity
  8
외형선
  6
Continuous
 62
     1
370
    15
100
AcDbSpline
210
0.0
220
0.0
230
1.0
 70
     8
 71
     3
 72
    14
 73
    10
 74
     0
 42
0.000000001
 43
0.00000001
 40
0.0
 40
0.0
 40
0.0
 40
0.0
 40
0.25
 40
0.25
 40
0.5
 40
0.5
 40
0.75
 40
0.75
 40
1.0
 40
1.0
 40
1.0
 40
1.0
 10
35.031526581703
 20
-4.228478239709034
 30
0.0
 10
35.11608070109802
 20
-4.318974994959768
 30
0.0
 10
35.20182991610493
 20
-4.40178021006802
 30
0.0
 10
35.3774820342831
 20
-4.553634730002559
 30
0.0
 10
35.46631769022154
 20
-4.621575855722223
 30
0.0
 10
35.6419085572759
 20
-4.736401620791058
 30
0.0
 10
35.7272377090376
 20
-4.782449066698917
 30
0.0
 10
35.89412519003164
 20
-4.851441833135129
 30
0.0
 10
35.97568338643335
 20
-4.87407507474927
 30
0.0
 10
36.05162172662257
 20
-4.882607455488964
 30
0.0
  0
SPLINE
  5
15A
330
1F
100
AcDbEntity
  8
외형선
  6
Continuous
 62
     1
370
    15
100
AcDbSpline
210
0.0
220
0.0
230
1.0
 70
     8
 71
     3
 72
    10
 73
     6
 74
     0
 42
0.000000001
 43
0.00000001
 40
0.0
 40
0.0
 40
0.0
 40
0.0
 40
0.5
 40
0.5
 40
1.0
 40
1.0
 40
1.0
 40
1.0
 10
36.05162172662378
 20
-4.882607455491449
 30
0.0
 10
36.09001142921826
 20
-4.886920896609606
 30
0.0
 10
36.13356872327704
 20
-4.902550989512936
 30
0.0
 10
36.22288662831193
 20
-4.952172443983022
 30
0.0
 10
36.26956029981376
 20
-4.986688677688212
 30
0.0
 10
36.31213686120703
 20
-5.031157366699174
 30
0.0
  0
SPLINE
  5
15B
330
1F
100
AcDbEntity
  8
외형선
  6
Continuous
 62
     1
370
    15
100
AcDbSpline
210
0.0
220
0.0
230
1.0
 70
     8
 71
     3
 72
     8
 73
     4
 74
     0
 42
0.000000001
 43
0.00000001
 40
0.0
 40
0.0
 40
0.0
 40
0.0
 40
1.0
 40
1.0
 40
1.0
 40
1.0
 10
36.31213686120714
 20
-5.031157366699233
 30
0.0
 10
36.44315489745922
 20
-5.167997922119
 30
0.0
 10
36.5819759130363
 20
-5.281558774680893
 30
0.0
 10
36.72013950161018
 20
-5.366725921583016
 30
0.0
  0
SPLINE
  5
15C
330
1F
100
AcDbEntity
  8
외형선
  6
Continuous
 62
     1
370
    15
100
AcDbSpline
210
0.0
220
0.0
230
1.0
 70
     8
 71
     3
 72
     8
 73
     4
 74
     0
 42
0.000000001
 43
0.00000001
 40
0.0
 40
0.0
 40
0.0
 40
0.0
 40
1.0
 40
1.0
 40
1.0
 40
1.0
 10
36.72013944528983
 20
-5.36672589797626
 30
0.0
 10
36.86319802799737
 20
-5.426688607108019
 30
0.0
 10
37.00137085704117
 20
-5.452700781158761
 30
0.0
 10
37.1252732117559
 20
-5.43905402181087
 30
0.0
  0
SPLINE
  5
15D
330
1F
100
AcDbEntity
  8
외형선
  6
Continuous
 62
     1
370
    15
100
AcDbSpline
210
0.0
220
0.0
230
1.0
 70
     8
 71
     3
 72
    10
 73
     6
 74
     0
 42
0.000000001
 43
0.00000001
 40
0.0
 40
0.0
 40
0.0
 40
0.0
 40
0.5
 40
0.5
 40
1.0
 40
1.0
 40
1.0
 40
1.0
 10
37.12527321175618
 20
-5.439054021811296
 30
0.0
 10
37.16355490388
 20
-5.434837628660028
 30
0.0
 10
37.20708777740488
 20
-5.442831205758957
 30
0.0
 10
37.29652117414406
 20
-5.479801890855557
 30
0.0
 10
37.34334034332446
 20
-5.509178656291099
 30
0.0
 10
37.38624086481055
 20
-5.550858466696581
 30
0.0
  0
SPLINE
  5
15E
330
1F
100
AcDbEntity
  8
외형선
  6
Continuous
 62
     1
370
    15
100
AcDbSpline
210
0.0
220
0.0
230
1.0
 70
     8
 71
     3
 72
    14
 73
    10
 74
     0
 42
0.000000001
 43
0.00000001
 40
0.0
 40
0.0
 40
0.0
 40
0.0
 40
0.25
 40
0.25
 40
0.5
 40
0.5
 40
0.75
 40
0.75
 40
1.0
 40
1.0
 40
1.0
 40
1.0
 10
37.38624086481055
 20
-5.550858466696575
 30
0.0
 10
37.47100643228952
 20
-5.633212075908111
 30
0.0
 10
37.5566044582758
 20
-5.700991794587183
 30
0.0
 10
37.7313906290305
 20
-5.81343164345224
 30
0.0
 10
37.82109357231317
 20
-5.857796729355774
 30
0.0
 10
37.99752793196311
 20
-5.918708856029113
 30
0.0
 10
38.08314753541142
 20
-5.935298413357924
 30
0.0
 10
38.2504134189771
 20
-5.940863567271966
 30
0.0
 10
38.33205902406817
 20
-5.929446056611773
 30
0.0
 10
38.408018456175
 20
-5.902811129677479
 30
0.0
  0
SPLINE
  5
15F
330
1F
100
AcDbEntity
  8
외형선
  6
Continuous
 62
     1
370
    15
100
AcDbSpline
210
0.0
220
0.0
230
1.0
 70
     8
 71
     3
 72
    10
 73
     6
 74
     0
 42
0.000000001
 43
0.00000001
 40
0.0
 40
0.0
 40
0.0
 40
0.0
 40
0.5
 40
0.5
 40
1.0
 40
1.0
 40
1.0
 40
1.0
 10
38.408018456175
 20
-5.902811129677479
 30
0.0
 10
38.44644180734637
 20
-5.889338107004264
 30
0.0
 10
38.49001001969719
 20
-5.888582571108429
 30
0.0
 10
38.57928080253721
 20
-5.910470792492232
 30
0.0
 10
38.62588495475799
 20
-5.933360711023344
 30
0.0
 10
38.66844219474945
 20
-5.970790570197122
 30
0.0
  0
SPLINE
  5
160
330
1F
100
AcDbEntity
  8
외형선
  6
Continuous
 62
     1
370
    15
100
AcDbSpline
210
0.0
220
0.0
230
1.0
 70
     8
 71
     3
 72
     8
 73
     4
 74
     0
 42
0.000000001
 43
0.00000001
 40
0.0
 40
0.0
 40
0.0
 40
0.0
 40
1.0
 40
1.0
 40
1.0
 40
1.0
 10
38.66844219474956
 20
-5.970790570197187
 30
0.0
 10
38.79916961893963
 20
-6.085767694619838
 30
0.0
 10
38.93780353161242
 20
-6.163237490403843
 30
0.0
 10
39.07607455646801
 20
-6.205749386078196
 30
0.0
  0
SPLINE
  5
161
330
1F
100
AcDbEntity
  8
외형선
  6
Continuous
 62
     1
370
    15
100
AcDbSpline
210
0.0
220
0.0
230
1.0
 70
     8
 71
     3
 72
     8
 73
     4
 74
     0
 42
0.000000001
 43
0.00000001
 40
0.0
 40
0.0
 40
0.0
 40
0.0
 40
1.0
 40
1.0
 40
1.0
 40
1.0
 10
39.07607450021588
 20
-6.205749382491258
 30
0.0
 10
39.21870426698133
 20
-6.214844062248859
 30
0.0
 10
39.35684347987892
 20
-6.185109788576097
 30
0.0
 10
39.48055030359096
 20
-6.114967784119092
 30
0.0
  0
SPLINE
  5
162
330
1F
100
AcDbEntity
  8
외형선
  6
Continuous
 62
     1
370
    15
100
AcDbSpline
210
0.0
220
0.0
230
1.0
 70
     8
 71
     3
 72
    10
 73
     6
 74
     0
 42
0.000000001
 43
0.00000001
 40
0.0
 40
0.0
 40
0.0
 40
0.0
 40
0.5
 40
0.5
 40
1.0
 40
1.0
 40
1.0
 40
1.0
 10
39.48055030359077
 20
-6.114967784119253
 30
0.0
 10
39.51875745000689
 20
-6.093304259393665
 30
0.0
 10
39.56221699263025
 20
-6.084455679027359
 30
0.0
 10
39.65147271011873
 20
-6.091447920534264
 30
0.0
 10
39.69816204269597
 20
-6.107399545406142
 30
0.0
 10
39.74090009596064
 20
-6.139312351263825
 30
0.0
  0
SPLINE
  5
163
330
1F
100
AcDbEntity
  8
외형선
  6
Continuous
 62
     1
370
    15
100
AcDbSpline
210
0.0
220
0.0
230
1.0
 70
     8
 71
     3
 72
     9
 73
     5
 74
     0
 42
0.000000001
 43
0.00000001
 40
0.0
 40
0.0
 40
0.0
 40
0.0
 40
0.7852084446684409
 40
1.0
 40
1.0
 40
1.0
 40
1.0
 10
39.74090009595885
 20
-6.139312351262491
 30
0.0
 10
39.84142165094396
 20
-6.203787708021819
 30
0.0
 10
39.96944059377073
 20
-6.285900116767695
 30
0.0
 10
40.09980758770421
 20
-6.299543014673523
 30
0.0
 10
40.12780931709507
 20
-6.302473393933946
 30
0.0
  0
SPLINE
  5
164
330
1F
100
AcDbEntity
  8
외형선
  6
Continuous
 62
     1
370
    15
100
AcDbSpline
210
0.0
220
0.0
230
1.0
 70
     8
 71
     3
 72
    12
 73
     8
 74
     0
 42
0.000000001
 43
0.00000001
 40
0.0
 40
0.0
 40
0.0
 40
0.0
 40
0.1393697084059651
 40
0.3518297691851816
 40
0.5654129036475288
 40
0.7822097416013022
 40
1.0
 40
1.0
 40
1.0
 40
1.0
 10
36.61518937669852
 20
-5.296032117852172
 30
0.0
 10
36.60081371163504
 20
-5.309236160404993
 30
0.0
 10
36.56452327966802
 20
-5.342568907504803
 30
0.0
 10
36.50519654442218
 20
-5.391164556697652
 30
0.0
 10
36.43737562107645
 20
-5.442490861497533
 30
0.0
 10
36.36863680534058
 20
-5.489713763272271
 30
0.0
 10
36.32250342789979
 20
-5.517252133260786
 30
0.0
 10
36.29938401115236
 20
-5.531052793165363
 30
0.0
  0
SPLINE
  5
165
330
1F
100
AcDbEntity
  8
외형선
  6
Continuous
 62
     1
370
    15
100
AcDbSpline
210
0.0
220
0.0
230
1.0
 70
     8
 71
     3
 72
     8
 73
     4
 74
     0
 42
0.000000001
 43
0.00000001
 40
0.0
 40
0.0
 40
0.0
 40
0.0
 40
1.0
 40
1.0
 40
1.0
 40
1.0
 10
36.29938401115233
 20
-5.531052793165366
 30
0.0
 10
36.1566519980661
 20
-5.583919926118022
 30
0.0
 10
36.01854468908004
 20
-5.601753072397137
 30
0.0
 10
35.89491319750044
 20
-5.579623730290285
 30
0.0
  0
SPLINE
  5
166
330
1F
100
AcDbEntity
  8
외형선
  6
Continuous
 62
     1
370
    15
100
AcDbSpline
210
0.0
220
0.0
230
1.0
 70
     8
 71
     3
 72
    10
 73
     6
 74
     0
 42
0.000000001
 43
0.00000001
 40
0.0
 40
0.0
 40
0.0
 40
0.0
 40
0.5
 40
0.5
 40
1.0
 40
1.0
 40
1.0
 40
1.0
 10
35.89491319750038
 20
-5.579623730290274
 30
0.0
 10
35.85668824402571
 20
-5.572781678466328
 30
0.0
 10
35.8132188400796
 20
-5.578371315741303
 30
0.0
 10
35.72397293390067
 20
-5.611292712503923
 30
0.0
 10
35.67730259748448
 20
-5.638981709649851
 30
0.0
 10
35.63457599420397
 20
-5.679548586656412
 30
0.0
  0
SPLINE
  5
167
330
1F
100
AcDbEntity
  8
외형선
  6
Continuous
 62
     1
370
    15
100
AcDbSpline
210
0.0
220
0.0
230
1.0
 70
     8
 71
     3
 72
    14
 73
    10
 74
     0
 42
0.000000001
 43
0.00000001
 40
0.0
 40
0.0
 40
0.0
 40
0.0
 40
0.25
 40
0.25
 40
0.5
 40
0.5
 40
0.75
 40
0.75
 40
1.0
 40
1.0
 40
1.0
 40
1.0
 10
35.63457599420397
 20
-5.679548586656415
 30
0.0
 10
35.55011116855564
 20
-5.759743920017234
 30
0.0
 10
35.46456758149896
 20
-5.825046955478885
 30
0.0
 10
35.28898270000688
 20
-5.931549379891004
 30
0.0
 10
35.19993774465431
 20
-5.971676019841024
 30
0.0
 10
35.02388327842131
 20
-6.024128313413074
 30
0.0
 10
34.93838174089061
 20
-6.036287096457985
 30
0.0
 10
34.77123653676119
 20
-6.032645542869922
 30
0.0
 10
34.68959414238427
 20
-6.0164450331526
 30
0.0
 10
34.61358842688757
 20
-5.985051162361968
 30
0.0
  0
SPLINE
  5
168
330
1F
100
AcDbEntity
  8
외형선
  6
Continuous
 62
     1
370
    15
100
AcDbSpline
210
0.0
220
0.0
230
1.0
 70
     8
 71
     3
 72
    10
 73
     6
 74
     0
 42
0.000000001
 43
0.00000001
 40
0.0
 40
0.0
 40
0.0
 40
0.0
 40
0.5
 40
0.5
 40
1.0
 40
1.0
 40
1.0
 40
1.0
 10
34.61358842688757
 20
-5.985051162361962
 30
0.0
 10
34.57511134426402
 20
-5.969158350191327
 30
0.0
 10
34.53147099019806
 20
-5.966032269478641
 30
0.0
 10
34.44202181794305
 20
-5.983641878039896
 30
0.0
 10
34.39529629944462
 20
-6.004587525933418
 30
0.0
 10
34.35266351592703
 20
-6.040562552042639
 30
0.0
  0
SPLINE
  5
169
330
1F
100
AcDbEntity
  8
외형선
  6
Continuous
 62
     1
370
    15
100
AcDbSpline
210
0.0
220
0.0
230
1.0
 70
     8
 71
     3
 72
     8
 73
     4
 74
     0
 42
0.000000001
 43
0.00000001
 40
0.0
 40
0.0
 40
0.0
 40
0.0
 40
1.0
 40
1.0
 40
1.0
 40
1.0
 10
34.35266351592702
 20
-6.040562552042643
 30
0.0
 10
34.22133176946203
 20
-6.151384849303602
 30
0.0
 10
34.08232240475299
 20
-6.222778473379489
 30
0.0
 10
33.94411993546036
 20
-6.258814449558005
 30
0.0
  0
SPLINE
  5
16A
330
1F
100
AcDbEntity
  8
외형선
  6
Continuous
 62
     1
370
    15
100
AcDbSpline
210
0.0
220
0.0
230
1.0
 70
     8
 71
     3
 72
     8
 73
     4
 74
     0
 42
0.000000001
 43
0.00000001
 40
0.0
 40
0.0
 40
0.0
 40
0.0
 40
1.0
 40
1.0
 40
1.0
 40
1.0
 10
33.94411993546032
 20
-6.258814449558006
 30
0.0
 10
33.8014443489992
 20
-6.260745798080354
 30
0.0
 10
33.66304208007843
 20
-6.223583596478443
 30
0.0
 10
33.5389744467069
 20
-6.146052713805782
 30
0.0
  0
SPLINE
  5
16B
330
1F
100
AcDbEntity
  8
외형선
  6
Continuous
 62
     1
370
    15
100
AcDbSpline
210
0.0
220
0.0
230
1.0
 70
     8
 71
     3
 72
    10
 73
     6
 74
     0
 42
0.000000001
 43
0.00000001
 40
0.0
 40
0.0
 40
0.0
 40
0.0
 40
0.5
 40
0.5
 40
1.0
 40
1.0
 40
1.0
 40
1.0
 10
33.53897444670684
 20
-6.146052713805752
 30
0.0
 10
33.50073853044898
 20
-6.122158775824422
 30
0.0
 10
33.45725176306423
 20
-6.111001204925011
 30
0.0
 10
33.36791802501571
 20
-6.113617400128061
 30
0.0
 10
33.32116499066196
 20
-6.127460448859643
 30
0.0
 10
33.27835634059495
 20
-6.157668795826348
 30
0.0
  0
SPLINE
  5
16C
330
1F
100
AcDbEntity
  8
외형선
  6
Continuous
 62
     1
370
    15
100
AcDbSpline
210
0.0
220
0.0
230
1.0
 70
     8
 71
     3
 72
    14
 73
    10
 74
     0
 42
0.000000001
 43
0.00000001
 40
0.0
 40
0.0
 40
0.0
 40
0.0
 40
0.25
 40
0.25
 40
0.5
 40
0.5
 40
0.75
 40
0.75
 40
1.0
 40
1.0
 40
1.0
 40
1.0
 10
33.27835634059494
 20
-6.157668795826347
 30
0.0
 10
33.19377711073572
 20
-6.217352965211839
 30
0.0
 10
33.10795528561631
 20
-6.257896260500235
 30
0.0
 10
32.93204331819965
 20
-6.309210922561103
 30
0.0
 10
32.84293273343687
 20
-6.31910573795678
 30
0.0
 10
32.66700209246902
 20
-6.309143657357553
 30
0.0
 10
32.58166911999385
 20
-6.289681705853446
 30
0.0
 10
32.41502878285785
 20
-6.222446201705469
 30
0.0
 10
32.33375750104549
 20
-6.174277550271682
 30
0.0
 10
32.25798205869616
 20
-6.111996418690267
 30
0.0
  0
SPLINE
  5
16D
330
1F
100
AcDbEntity
  8
외형선
  6
Continuous
 62
     1
370
    15
100
AcDbSpline
210
0.0
220
0.0
230
1.0
 70
     8
 71
     3
 72
    10
 73
     6
 74
     0
 42
0.000000001
 43
0.00000001
 40
0.0
 40
0.0
 40
0.0
 40
0.0
 40
0.5
 40
0.5
 40
1.0
 40
1.0
 40
1.0
 40
1.0
 10
32.25798205869617
 20
-6.111996418690266
 30
0.0
 10
32.21963791794884
 20
-6.080480713849488
 30
0.0
 10
32.1761303060837
 20
-6.061151379141102
 30
0.0
 10
32.08688623664347
 20
-6.047856590251348
 30
0.0
 10
32.04022819045608
 20
-6.05379817007324
 30
0.0
 10
31.99765251807696
 20
-6.077169686890733
 30
0.0
  0
SPLINE
  5
16E
330
1F
100
AcDbEntity
  8
외형선
  6
Continuous
 62
     1
370
    15
100
AcDbSpline
210
0.0
220
0.0
230
1.0
 70
     8
 71
     3
 72
     8
 73
     4
 74
     0
 42
0.000000001
 43
0.00000001
 40
0.0
 40
0.0
 40
0.0
 40
0.0
 40
1.0
 40
1.0
 40
1.0
 40
1.0
 10
31.99765251807696
 20
-6.077169686890739
 30
0.0
 10
31.86685867666815
 20
-6.148967741819614
 30
0.0
 10
31.72817813891674
 20
-6.173097245386076
 30
0.0
 10
31.5899859824645
 20
-6.160631775608933
 30
0.0
  0
SPLINE
  5
16F
330
1F
100
AcDbEntity
  8
외형선
  6
Continuous
 62
     1
370
    15
100
AcDbSpline
210
0.0
220
0.0
230
1.0
 70
     8
 71
     3
 72
     8
 73
     4
 74
     0
 42
0.000000001
 43
0.00000001
 40
0.0
 40
0.0
 40
0.0
 40
0.0
 40
1.0
 40
1.0
 40
1.0
 40
1.0
 10
31.58998598246447
 20
-6.160631775608926
 30
0.0
 10
31.44719261216061
 20
-6.111052320244552
 30
0.0
 10
31.30903613299659
 20
-6.023447113183687
 30
0.0
 10
31.18534396774297
 20
-5.901076154933664
 30
0.0
  0
SPLINE
  5
170
330
1F
100
AcDbEntity
  8
외형선
  6
Continuous
 62
     1
370
    15
100
AcDbSpline
210
0.0
220
0.0
230
1.0
 70
     8
 71
     3
 72
    10
 73
     6
 74
     0
 42
0.000000001
 43
0.00000001
 40
0.0
 40
0.0
 40
0.0
 40
0.0
 40
0.5
 40
0.5
 40
1.0
 40
1.0
 40
1.0
 40
1.0
 10
31.18534396774292
 20
-5.901076154933619
 30
0.0
 10
31.14708631342588
 20
-5.863227146392322
 30
0.0
 10
31.10358456857601
 20
-5.836838864084245
 30
0.0
 10
31.01428094376908
 20
-5.808916251686673
 30
0.0
 10
30.9675825186008
 20
-5.807145177180836
 30
0.0
 10
30.92482378717087
 20
-5.822982126062809
 30
0.0
  0
SPLINE
  5
171
330
1F
100
AcDbEntity
  8
외형선
  6
Continuous
 62
     1
370
    15
100
AcDbSpline
210
0.0
220
0.0
230
1.0
 70
     8
 71
     3
 72
    14
 73
    10
 74
     0
 42
0.000000001
 43
0.00000001
 40
0.0
 40
0.0
 40
0.0
 40
0.0
 40
0.25
 40
0.25
 40
0.5
 40
0.5
 40
0.75
 40
0.75
 40
1.0
 40
1.0
 40
1.0
 40
1.0
 10
30.92482378717087
 20
-5.822982126062822
 30
0.0
 10
30.84007859276115
 20
-5.854369991581217
 30
0.0
 10
30.75466773087807
 20
-5.864538454049729
 30
0.0
 10
30.58005081757019
 20
-5.854141166182041
 30
0.0
 10
30.49039142253076
 20
-5.832649321336756
 30
0.0
 10
30.3139197404738
 20
-5.761775667860089
 30
0.0
 10
30.22821618467978
 20
-5.713306385277871
 30
0.0
 10
30.06066811521066
 20
-5.59124802607944
 30
0.0
 10
29.97883043578497
 20
-5.517263107281306
 30
0.0
 10
29.90265577619778
 20
-5.432098993664183
 30
0.0
  0
SPLINE
  5
172
330
1F
100
AcDbEntity
  8
외형선
  6
Continuous
 62
     1
370
    15
100
AcDbSpline
210
0.0
220
0.0
230
1.0
 70
     8
 71
     3
 72
    10
 73
     6
 74
     0
 42
0.000000001
 43
0.00000001
 40
0.0
 40
0.0
 40
0.0
 40
0.0
 40
0.5
 40
0.5
 40
1.0
 40
1.0
 40
1.0
 40
1.0
 10
29.90265577619778
 20
-5.432098993664184
 30
0.0
 10
29.86418024200984
 20
-5.389082920040517
 30
0.0
 10
29.82054905684599
 20
-5.356135278264915
 30
0.0
 10
29.73112032039987
 20
-5.313761999589154
 30
0.0
 10
29.68440194485439
 20
-5.303944364067688
 30
0.0
 10
29.64178223582762
 20
-5.311607525000269
 30
0.0
  0
SPLINE
  5
173
330
1F
100
AcDbEntity
  8
외형선
  6
Continuous
 62
     1
370
    15
100
AcDbSpline
210
0.0
220
0.0
230
1.0
 70
     8
 71
     3
 72
     8
 73
     4
 74
     0
 42
0.000000001
 43
0.00000001
 40
0.0
 40
0.0
 40
0.0
 40
0.0
 40
1.0
 40
1.0
 40
1.0
 40
1.0
 10
29.64178223582761
 20
-5.311607525000272
 30
0.0
 10
29.51061667489599
 20
-5.335191515252296
 30
0.0
 10
29.37184215672259
 20
-5.308426180917259
 30
0.0
 10
29.23375800632082
 20
-5.2486886675159
 30
0.0
  0
SPLINE
  5
174
330
1F
100
AcDbEntity
  8
외형선
  6
Continuous
 62
     1
370
    15
100
AcDbSpline
210
0.0
220
0.0
230
1.0
 70
     8
 71
     3
 72
     8
 73
     4
 74
     0
 42
0.000000001
 43
0.00000001
 40
0.0
 40
0.0
 40
0.0
 40
0.0
 40
1.0
 40
1.0
 40
1.0
 40
1.0
 10
29.23375800632051
 20
-5.248688667515836
 30
0.0
 10
29.09123358722068
 20
-5.153886642946395
 30
0.0
 10
28.95299510409098
 20
-5.027326374927673
 30
0.0
 10
28.82910202140625
 20
-4.87570373993851
 30
0.0
  0
SPLINE
  5
175
330
1F
100
AcDbEntity
  8
외형선
  6
Continuous
 62
     1
370
    15
100
AcDbSpline
210
0.0
220
0.0
230
1.0
 70
     8
 71
     3
 72
    10
 73
     6
 74
     0
 42
0.000000001
 43
0.00000001
 40
0.0
 40
0.0
 40
0.0
 40
0.0
 40
0.5
 40
0.5
 40
1.0
 40
1.0
 40
1.0
 40
1.0
 10
28.82910202140619
 20
-4.875703739938444
 30
0.0
 10
28.79090404308019
 20
-4.828956350983851
 30
0.0
 10
28.74745262325733
 20
-4.790808051612092
 30
0.0
 10
28.65818546577894
 20
-4.73605889102099
 30
0.0
 10
28.61146926642051
 20
-4.718957345690846
 30
0.0
 10
28.56869961481926
 20
-4.718496921858532
 30
0.0
  0
SPLINE
  5
176
330
1F
100
AcDbEntity
  8
외형선
  6
Continuous
 62
     1
370
    15
100
AcDbSpline
210
0.0
220
0.0
230
1.0
 70
     8
 71
     3
 72
    14
 73
    10
 74
     0
 42
0.000000001
 43
0.00000001
 40
0.0
 40
0.0
 40
0.0
 40
0.0
 40
0.25
 40
0.25
 40
0.5
 40
0.5
 40
0.75
 40
0.75
 40
1.0
 40
1.0
 40
1.0
 40
1.0
 10
28.56869961481924
 20
-4.718496921858519
 30
0.0
 10
28.48414218917656
 20
-4.717586644301718
 30
0.0
 10
28.39833966078468
 20
-4.696796740554345
 30
0.0
 10
28.22246338369497
 20
-4.626052669285205
 30
0.0
 10
28.13337738128267
 20
-4.57592510738553
 30
0.0
 10
27.95750518888065
 20
-4.453361384076375
 30
0.0
 10
27.87220383836791
 20
-4.382204595010522
 30
0.0
 10
27.70562786179494
 20
-4.221348933538622
 30
0.0
 10
27.6243659267014
 20
-4.131358540021462
 30
0.0
 10
27.5485893898752
 20
-4.03477123084554
 30
0.0
  0
SPLINE
  5
177
330
1F
100
AcDbEntity
  8
외형선
  6
Continuous
 62
     1
370
    15
100
AcDbSpline
210
0.0
220
0.0
230
1.0
 70
     8
 71
     3
 72
    10
 73
     6
 74
     0
 42
0.000000001
 43
0.00000001
 40
0.0
 40
0.0
 40
0.0
 40
0.0
 40
0.5
 40
0.5
 40
1.0
 40
1.0
 40
1.0
 40
1.0
 10
27.54858938987521
 20
-4.034771230845537
 30
0.0
 10
27.51022973806205
 20
-3.985876735204295
 30
0.0
 10
27.46670521961567
 20
-3.943581063539277
 30
0.0
 10
27.37743024705704
 20
-3.877622277493865
 30
0.0
 10
27.33075827566835
 20
-3.853324293813736
 30
0.0
 10
27.2881681455637
 20
-3.844323284549954
 30
0.0
  0
SPLINE
  5
178
330
1F
100
AcDbEntity
  8
외형선
  6
Continuous
 62
     1
370
    15
100
AcDbSpline
210
0.0
220
0.0
230
1.0
 70
     8
 71
     3
 72
     8
 73
     4
 74
     0
 42
0.000000001
 43
0.00000001
 40
0.0
 40
0.0
 40
0.0
 40
0.0
 40
1.0
 40
1.0
 40
1.0
 40
1.0
 10
27.28816814556369
 20
-3.844323284549954
 30
0.0
 10
27.15728678891302
 20
-3.816662784317291
 30
0.0
 10
27.01852279612238
 20
-3.743339433321332
 30
0.0
 10
26.88026073151385
 20
-3.645061296262122
 30
0.0
  0
SPLINE
  5
179
330
1F
100
AcDbEntity
  8
외형선
  6
Continuous
 62
     1
370
    15
100
AcDbSpline
210
0.0
220
0.0
230
1.0
 70
     8
 71
     3
 72
     8
 73
     4
 74
     0
 42
0.000000001
 43
0.00000001
 40
0.0
 40
0.0
 40
0.0
 40
0.0
 40
1.0
 40
1.0
 40
1.0
 40
1.0
 10
26.88026073151822
 20
-3.645061296265805
 30
0.0
 10
26.73732442489837
 20
-3.518076579192943
 30
0.0
 10
26.59903448564451
 20
-3.369386300394612
 30
0.0
 10
26.47519257912629
 20
-3.208759335693648
 30
0.0
  0
SPLINE
  5
17A
330
1F
100
AcDbEntity
  8
외형선
  6
Continuous
 62
     1
370
    15
100
AcDbSpline
210
0.0
220
0.0
230
1.0
 70
     8
 71
     3
 72
    10
 73
     6
 74
     0
 42
0.000000001
 43
0.00000001
 40
0.0
 40
0.0
 40
0.0
 40
0.0
 40
0.5
 40
0.5
 40
1.0
 40
1.0
 40
1.0
 40
1.0
 10
26.47519257912624
 20
-3.208759335693572
 30
0.0
 10
26.43687518040297
 20
-3.159060428230056
 30
0.0
 10
26.39331489579304
 20
-3.114026133769114
 30
0.0
 10
26.30390501285837
 20
-3.039296688495769
 30
0.0
 10
26.25715328374464
 20
-3.008884889601738
 30
0.0
 10
26.2143354685811
 20
-2.99185823879577
 30
0.0
  0
SPLINE
  5
17B
330
1F
100
AcDbEntity
  8
외형선
  6
Continuous
 62
     1
370
    15
100
AcDbSpline
210
0.0
220
0.0
230
1.0
 70
     8
 71
     3
 72
    14
 73
    10
 74
     0
 42
0.000000001
 43
0.00000001
 40
0.0
 40
0.0
 40
0.0
 40
0.0
 40
0.25
 40
0.25
 40
0.5
 40
0.5
 40
0.75
 40
0.75
 40
1.0
 40
1.0
 40
1.0
 40
1.0
 10
26.2143354685811
 20
-2.991858238795775
 30
0.0
 10
26.12960655108912
 20
-2.958165494647255
 30
0.0
 10
26.04418435737268
 20
-2.908263884368393
 30
0.0
 10
25.86955941976137
 20
-2.786848898035888
 30
0.0
 10
25.77991394449
 20
-2.714308511492757
 30
0.0
 10
25.60343929807859
 20
-2.555986287529902
 30
0.0
 10
25.51774373110941
 20
-2.471479533074509
 30
0.0
 10
25.35024002072242
 20
-2.292962261968491
 30
0.0
 10
25.26842675897371
 20
-2.198760631140481
 30
0.0
 10
25.19229468734957
 20
-2.103169435368395
 30
0.0
  0
SPLINE
  5
17C
330
1F
100
AcDbEntity
  8
외형선
  6
Continuous
 62
     1
370
    15
100
AcDbSpline
210
0.0
220
0.0
230
1.0
 70
     8
 71
     3
 72
    10
 73
     6
 74
     0
 42
0.000000001
 43
0.00000001
 40
0.0
 40
0.0
 40
0.0
 40
0.0
 40
0.5
 40
0.5
 40
1.0
 40
1.0
 40
1.0
 40
1.0
 10
25.19229468734957
 20
-2.103169435368383
 30
0.0
 10
25.15387466346663
 20
-2.054929371145596
 30
0.0
 10
25.11029657976554
 20
-2.008958933880431
 30
0.0
 10
25.02096840194249
 20
-1.928240686756597
 30
0.0
 10
24.97430458466404
 20
-1.892702362784265
 30
0.0
 10
24.93174134919137
 20
-1.868188994820882
 30
0.0
  0
SPLINE
  5
17D
330
1F
100
AcDbEntity
  8
외형선
  6
Continuous
 62
     1
370
    15
100
AcDbSpline
210
0.0
220
0.0
230
1.0
 70
     8
 71
     3
 72
     8
 73
     4
 74
     0
 42
0.000000001
 43
0.00000001
 40
0.0
 40
0.0
 40
0.0
 40
0.0
 40
1.0
 40
1.0
 40
1.0
 40
1.0
 10
24.93174134919134
 20
-1.86818899482086
 30
0.0
 10
24.80070215910566
 20
-1.792719828801834
 30
0.0
 10
24.66209605856195
 20
-1.68140408950496
 30
0.0
 10
24.52407929736132
 20
-1.556403547703047
 30
0.0
  0
SPLINE
  5
17E
330
1F
100
AcDbEntity
  8
외형선
  6
Continuous
 62
     1
370
    15
100
AcDbSpline
210
0.0
220
0.0
230
1.0
 70
     8
 71
     3
 72
     8
 73
     4
 74
     0
 42
0.000000001
 43
0.00000001
 40
0.0
 40
0.0
 40
0.0
 40
0.0
 40
1.0
 40
1.0
 40
1.0
 40
1.0
 10
24.52407929736132
 20
-1.55640354770303
 30
0.0
 10
24.38161997654501
 20
-1.413211435669247
 30
0.0
 10
24.24346591727175
 20
-1.261732374466213
 30
0.0
 10
24.11965751040276
 20
-1.113158513572289
 30
0.0
  0
SPLINE
  5
17F
330
1F
100
AcDbEntity
  8
외형선
  6
Continuous
 62
     1
370
    15
100
AcDbSpline
210
0.0
220
0.0
230
1.0
 70
     8
 71
     3
 72
    10
 73
     6
 74
     0
 42
0.000000001
 43
0.00000001
 40
0.0
 40
0.0
 40
0.0
 40
0.0
 40
0.4999999999999998
 40
0.4999999999999998
 40
1.0
 40
1.0
 40
1.0
 40
1.0
 10
24.11965751040271
 20
-1.113158513572226
 30
0.0
 10
24.08147051408804
 20
-1.067332954372392
 30
0.0
 10
24.03802826286749
 20
-1.021596906790867
 30
0.0
 10
23.94877909559208
 20
-0.9373304985308887
 30
0.0
 10
23.90207437960862
 20
-0.89798546679967
 30
0.0
 10
23.85931661524714
 20
-0.8671128907912202
 30
0.0
  0
SPLINE
  5
180
330
1F
100
AcDbEntity
  8
외형선
  6
Continuous
 62
     1
370
    15
100
AcDbSpline
210
0.0
220
0.0
230
1.0
 70
     8
 71
     3
 72
    10
 73
     6
 74
     0
 42
0.000000001
 43
0.00000001
 40
0.0
 40
0.0
 40
0.0
 40
0.0
 40
0.5
 40
0.5
 40
1.0
 40
1.0
 40
1.0
 40
1.0
 10
22.83886355500886
 20
0.107715966170991
 30
0.0
 10
22.80046147048554
 20
0.1491699784038248
 30
0.0
 10
22.75689392908337
 20
0.1929699325701859
 30
0.0
 10
22.66753950510037
 20
0.2781333933470445
 30
0.0
 10
22.62082818915776
 20
0.3203531055315456
 30
0.0
 10
22.57819649312746
 20
0.3571834377041682
 30
0.0
  0
SPLINE
  5
181
330
1F
100
AcDbEntity
  8
외형선
  6
Continuous
 62
     1
370
    15
100
AcDbSpline
210
0.0
220
0.0
230
1.0
 70
     8
 71
     3
 72
    10
 73
     6
 74
     0
 42
0.000000001
 43
0.00000001
 40
0.0
 40
0.0
 40
0.0
 40
0.0
 40
0.5
 40
0.5
 40
1.0
 40
1.0
 40
1.0
 40
1.0
 10
21.76425649149446
 20
1.130042698725357
 30
0.0
 10
21.72594458414783
 20
1.166309518233484
 30
0.0
 10
21.68239798769143
 20
1.207084554708011
 30
0.0
 10
21.59301759041568
 20
1.290602361408705
 30
0.0
 10
21.54627759469718
 20
1.334176814868328
 30
0.0
 10
21.50347679012431
 20
1.375396701339382
 30
0.0
  0
SPLINE
  5
182
330
1F
100
AcDbEntity
  8
외형선
  6
Continuous
 62
     1
370
    15
100
AcDbSpline
210
0.0
220
0.0
230
1.0
 70
     8
 71
     3
 72
    10
 73
     6
 74
     0
 42
0.000000001
 43
0.00000001
 40
0.0
 40
0.0
 40
0.0
 40
0.0
 40
0.5
 40
0.5
 40
1.0
 40
1.0
 40
1.0
 40
1.0
 10
20.48261280900289
 20
2.309093245372723
 30
0.0
 10
20.44422152550796
 20
2.338042552960538
 30
0.0
 10
20.40067055525073
 20
2.373677461661542
 30
0.0
 10
20.31139460162587
 20
2.451735744991697
 30
0.0
 10
20.26476004505799
 20
2.494947865727617
 30
0.0
 10
20.22222628231875
 20
2.539173631984461
 30
0.0
  0
SPLINE
  5
183
330
1F
100
AcDbEntity
  8
외형선
  6
Continuous
 62
     1
370
    15
100
AcDbSpline
210
0.0
220
0.0
230
1.0
 70
     8
 71
     3
 72
     8
 73
     4
 74
     0
 42
0.000000001
 43
0.00000001
 40
0.0
 40
0.0
 40
0.0
 40
0.0
 40
1.0
 40
1.0
 40
1.0
 40
1.0
 10
20.22222628231875
 20
2.539173631984461
 30
0.0
 10
20.09123652974587
 20
2.675374189053575
 30
0.0
 10
19.95271661795968
 20
2.814710561675878
 30
0.0
 10
19.81469908367619
 20
2.941483120488284
 30
0.0
  0
SPLINE
  5
184
330
1F
100
AcDbEntity
  8
외형선
  6
Continuous
 62
     1
370
    15
100
AcDbSpline
210
0.0
220
0.0
230
1.0
 70
     8
 71
     3
 72
     8
 73
     4
 74
     0
 42
0.000000001
 43
0.00000001
 40
0.0
 40
0.0
 40
0.0
 40
0.0
 40
1.0
 40
1.0
 40
1.0
 40
1.0
 10
19.81469908367617
 20
2.941483120488316
 30
0.0
 10
19.67222344892724
 20
3.060333094539017
 30
0.0
 10
19.53406901218127
 20
3.159784571153305
 30
0.0
 10
19.4102552736297
 20
3.229905054190843
 30
0.0
  0
SPLINE
  5
185
330
1F
100
AcDbEntity
  8
외형선
  6
Continuous
 62
     1
370
    15
100
AcDbSpline
210
0.0
220
0.0
230
1.0
 70
     8
 71
     3
 72
    10
 73
     6
 74
     0
 42
0.000000001
 43
0.00000001
 40
0.0
 40
0.0
 40
0.0
 40
0.0
 40
0.5
 40
0.5
 40
1.0
 40
1.0
 40
1.0
 40
1.0
 10
19.41025527362963
 20
3.229905054190899
 30
0.0
 10
19.37205223385858
 20
3.251540905216688
 30
0.0
 10
19.32859290614503
 20
3.281647793897855
 30
0.0
 10
19.23931306137253
 20
3.352658256605554
 30
0.0
 10
19.19259445200636
 20
3.394278088464686
 30
0.0
 10
19.1498214584032
 20
3.439892787656357
 30
0.0
  0
SPLINE
  5
186
330
1F
100
AcDbEntity
  8
외형선
  6
Continuous
 62
     1
370
    15
100
AcDbSpline
210
0.0
220
0.0
230
1.0
 70
     8
 71
     3
 72
    14
 73
    10
 74
     0
 42
0.000000001
 43
0.00000001
 40
0.0
 40
0.0
 40
0.0
 40
0.0
 40
0.25
 40
0.25
 40
0.5
 40
0.5
 40
0.75
 40
0.75
 40
1.0
 40
1.0
 40
1.0
 40
1.0
 10
19.1498214584032
 20
3.439892787656357
 30
0.0
 10
19.06514895313292
 20
3.530190672661608
 30
0.0
 10
18.97923497156677
 20
3.616272537644259
 30
0.0
 10
18.80314323257042
 20
3.779737474182384
 30
0.0
 10
18.71396166853057
 20
3.856014116557387
 30
0.0
 10
18.53792279266304
 20
3.991532177744862
 30
0.0
 10
18.45253760678791
 20
4.049803713408154
 30
0.0
 10
18.28578500483576
 20
4.146905172631981
 30
0.0
 10
18.20435875275663
 20
4.18540009498641
 30
0.0
 10
18.12842003342436
 20
4.210974652353094
 30
0.0
  0
SPLINE
  5
187
330
1F
100
AcDbEntity
  8
외형선
  6
Continuous
 62
     1
370
    15
100
AcDbSpline
210
0.0
220
0.0
230
1.0
 70
     8
 71
     3
 72
    10
 73
     6
 74
     0
 42
0.000000001
 43
0.00000001
 40
0.0
 40
0.0
 40
0.0
 40
0.0
 40
0.5
 40
0.5
 40
1.0
 40
1.0
 40
1.0
 40
1.0
 10
18.12842003342436
 20
4.210974652353095
 30
0.0
 10
18.08995184529228
 20
4.223929925931937
 30
0.0
 10
18.0463192519073
 20
4.246992390876704
 30
0.0
 10
17.95684469818505
 20
4.308103444011175
 30
0.0
 10
17.9100711948148
 20
4.346792551630779
 30
0.0
 10
17.86737732418059
 20
4.39275708742658
 30
0.0
  0
SPLINE
  5
188
330
1F
100
AcDbEntity
  8
외형선
  6
Continuous
 62
     1
370
    15
100
AcDbSpline
210
0.0
220
0.0
230
1.0
 70
     8
 71
     3
 72
     8
 73
     4
 74
     0
 42
0.000000001
 43
0.00000001
 40
0.0
 40
0.0
 40
0.0
 40
0.0
 40
1.0
 40
1.0
 40
1.0
 40
1.0
 10
17.86737732418059
 20
4.39275708742658
 30
0.0
 10
17.7362790791557
 20
4.533898424267241
 30
0.0
 10
17.59734163348899
 20
4.6598198417852
 30
0.0
 10
17.45892218771133
 20
4.761743540135886
 30
0.0
  0
SPLINE
  5
189
330
1F
100
AcDbEntity
  8
외형선
  6
Continuous
 62
     1
370
    15
100
AcDbSpline
210
0.0
220
0.0
230
1.0
 70
     8
 71
     3
 72
     8
 73
     4
 74
     0
 42
0.000000001
 43
0.00000001
 40
0.0
 40
0.0
 40
0.0
 40
0.0
 40
1.0
 40
1.0
 40
1.0
 40
1.0
 10
17.45892218771125
 20
4.761743540135877
 30
0.0
 10
17.31598822713291
 20
4.843352001379619
 30
0.0
 10
17.17770449009766
 20
4.894847747607385
 30
0.0
 10
17.05392244734527
 20
4.909019331681971
 30
0.0
  0
SPLINE
  5
18A
330
1F
100
AcDbEntity
  8
외형선
  6
Continuous
 62
     1
370
    15
100
AcDbSpline
210
0.0
220
0.0
230
1.0
 70
     8
 71
     3
 72
    10
 73
     6
 74
     0
 42
0.000000001
 43
0.00000001
 40
0.0
 40
0.0
 40
0.0
 40
0.0
 40
0.5
 40
0.5
 40
1.0
 40
1.0
 40
1.0
 40
1.0
 10
17.05392244734522
 20
4.909019331681989
 30
0.0
 10
17.01566583992553
 20
4.913399262053158
 30
0.0
 10
16.97217255201521
 20
4.929162775875169
 30
0.0
 10
16.88289358894503
 20
4.978970654129076
 30
0.0
 10
16.8362082842594
 20
5.013534370738623
 30
0.0
 10
16.7934633745639
 20
5.057972255485779
 30
0.0
  0
SPLINE
  5
18B
330
1F
100
AcDbEntity
  8
외형선
  6
Continuous
 62
     1
370
    15
100
AcDbSpline
210
0.0
220
0.0
230
1.0
 70
     8
 71
     3
 72
    14
 73
    10
 74
     0
 42
0.000000001
 43
0.00000001
 40
0.0
 40
0.0
 40
0.0
 40
0.0
 40
0.25
 40
0.25
 40
0.5
 40
0.5
 40
0.75
 40
0.75
 40
1.0
 40
1.0
 40
1.0
 40
1.0
 10
16.79346337456388
 20
5.057972255485804
 30
0.0
 10
16.70894208218161
 20
5.145841138033943
 30
0.0
 10
16.62363340375615
 20
5.222017722175365
 30
0.0
 10
16.44928733841825
 20
5.355130460260903
 30
0.0
 10
16.35976533724683
 20
5.411951204822706
 30
0.0
 10
16.18357280447974
 20
5.500176160715646
 30
0.0
 10
16.0980304171108
 20
5.531394581570592
 30
0.0
 10
15.93085002764904
 20
5.56794784071854
 30
0.0
 10
15.84919957100531
 20
5.572923146598213
 30
0.0
 10
15.7732255058062
 20
5.562969408091089
 30
0.0
  0
SPLINE
  5
18C
330
1F
100
AcDbEntity
  8
외형선
  6
Continuous
 62
     1
370
    15
100
AcDbSpline
210
0.0
220
0.0
230
1.0
 70
     8
 71
     3
 72
    10
 73
     6
 74
     0
 42
0.000000001
 43
0.00000001
 40
0.0
 40
0.0
 40
0.0
 40
0.0
 40
0.5
 40
0.5
 40
1.0
 40
1.0
 40
1.0
 40
1.0
 10
15.77322550580622
 20
5.562969408091071
 30
0.0
 10
15.73483602961521
 20
5.557939812709683
 30
0.0
 10
15.69128603216091
 20
5.565157722505042
 30
0.0
 10
15.60201375828411
 20
5.600941159500955
 30
0.0
 10
15.55538306469042
 20
5.629895795017061
 30
0.0
 10
15.51285167012103
 20
5.671378486168842
 30
0.0
  0
SPLINE
  5
18D
330
1F
100
AcDbEntity
  8
외형선
  6
Continuous
 62
     1
370
    15
100
AcDbSpline
210
0.0
220
0.0
230
1.0
 70
     8
 71
     3
 72
     8
 73
     4
 74
     0
 42
0.000000001
 43
0.00000001
 40
0.0
 40
0.0
 40
0.0
 40
0.0
 40
1.0
 40
1.0
 40
1.0
 40
1.0
 10
15.51285167012101
 20
5.67137848616886
 30
0.0
 10
15.38183409636243
 20
5.799165538597059
 30
0.0
 10
15.24331883474824
 20
5.895712701076721
 30
0.0
 10
15.10523139485186
 20
5.959908073657998
 30
0.0
  0
SPLINE
  5
18E
330
1F
100
AcDbEntity
  8
외형선
  6
Continuous
 62
     1
370
    15
100
AcDbSpline
210
0.0
220
0.0
230
1.0
 70
     8
 71
     3
 72
     8
 73
     4
 74
     0
 42
0.000000001
 43
0.00000001
 40
0.0
 40
0.0
 40
0.0
 40
0.0
 40
1.0
 40
1.0
 40
1.0
 40
1.0
 10
15.10523139485185
 20
5.959908073658007
 30
0.0
 10
14.96265788617426
 20
5.994080640626691
 30
0.0
 10
14.82441832083347
 20
5.991009958391563
 30
0.0
 10
14.70050949175506
 20
5.947102927204127
 30
0.0
  0
SPLINE
  5
18F
330
1F
100
AcDbEntity
  8
외형선
  6
Continuous
 62
     1
370
    15
100
AcDbSpline
210
0.0
220
0.0
230
1.0
 70
     8
 71
     3
 72
    10
 73
     6
 74
     0
 42
0.000000001
 43
0.00000001
 40
0.0
 40
0.0
 40
0.0
 40
0.0
 40
0.5
 40
0.5
 40
1.0
 40
1.0
 40
1.0
 40
1.0
 10
14.700509491755
 20
5.947102927204114
 30
0.0
 10
14.66226342779183
 20
5.933550453698249
 30
0.0
 10
14.61876083566423
 20
5.932733780222065
 30
0.0
 10
14.52940176073789
 20
5.954407722239902
 30
0.0
 10
14.48264396357836
 20
5.977150707687698
 30
0.0
 10
14.43982873024757
 20
6.014328512322338
 30
0.0
  0
SPLINE
  5
190
330
1F
100
AcDbEntity
  8
외형선
  6
Continuous
 62
     1
370
    15
100
AcDbSpline
210
0.0
220
0.0
230
1.0
 70
     8
 71
     3
 72
    14
 73
    10
 74
     0
 42
0.000000001
 43
0.00000001
 40
0.0
 40
0.0
 40
0.0
 40
0.0
 40
0.25
 40
0.25
 40
0.5
 40
0.5
 40
0.75
 40
0.75
 40
1.0
 40
1.0
 40
1.0
 40
1.0
 10
14.43982873024756
 20
6.014328512322347
 30
0.0
 10
14.35506909597981
 20
6.087927950619561
 30
0.0
 10
14.2690756730594
 20
6.144679765103467
 30
0.0
 10
14.09284173937461
 20
6.231454651467451
 30
0.0
 10
14.0035957568401
 20
6.260455442748492
 30
0.0
 10
13.82742373579846
 20
6.289545607408913
 30
0.0
 10
13.74196898980952
 20
6.289693210330257
 30
0.0
 10
13.57508406822493
 20
6.261544479339084
 30
0.0
 10
13.49353485330437
 20
6.23278463292008
 30
0.0
 10
13.41753077818848
 20
6.188914175030522
 30
0.0
  0
SPLINE
  5
191
330
1F
100
AcDbEntity
  8
외형선
  6
Continuous
 62
     1
370
    15
100
AcDbSpline
210
0.0
220
0.0
230
1.0
 70
     8
 71
     3
 72
    10
 73
     6
 74
     0
 42
0.000000001
 43
0.00000001
 40
0.0
 40
0.0
 40
0.0
 40
0.0
 40
0.5000000000000001
 40
0.5000000000000001
 40
1.0
 40
1.0
 40
1.0
 40
1.0
 10
13.41753077818849
 20
6.188914175030524
 30
0.0
 10
13.37911394833396
 20
6.16673952302912
 30
0.0
 10
13.33553708006545
 20
6.157277603380305
 30
0.0
 10
13.24616824693246
 20
6.163164038312084
 30
0.0
 10
13.1994483789357
 20
6.178611013027829
 30
0.0
 10
13.15681520959732
 20
6.210287449715773
 30
0.0
  0
SPLINE
  5
192
330
1F
100
AcDbEntity
  8
외형선
  6
Continuous
 62
     1
370
    15
100
AcDbSpline
210
0.0
220
0.0
230
1.0
 70
     8
 71
     3
 72
     8
 73
     4
 74
     0
 42
0.000000001
 43
0.00000001
 40
0.0
 40
0.0
 40
0.0
 40
0.0
 40
1.0
 40
1.0
 40
1.0
 40
1.0
 10
13.15681520959732
 20
6.210287449715779
 30
0.0
 10
13.02588783008949
 20
6.30756646772126
 30
0.0
 10
12.88710760441774
 20
6.361773323317918
 30
0.0
 10
12.74885208475757
 20
6.379525455174336
 30
0.0
  0
SPLINE
  5
193
330
1F
100
AcDbEntity
  8
외형선
  6
Continuous
370
    15
100
AcDbSpline
210
0.0
220
0.0
230
1.0
 70
     8
 71
     3
 72
     8
 73
     4
 74
     0
 42
0.000000001
 43
0.00000001
 40
0.0
 40
0.0
 40
0.0
 40
0.0
 40
1.0
 40
1.0
 40
1.0
 40
1.0
 10
10.00000000000001
 20
2.623398560485862
 30
0.0
 10
9.665052480339044
 20
2.925850366766422
 30
0.0
 10
9.331722935554996
 20
3.219817118493994
 30
0.0
 10
9.000000000000007
 20
3.504971692988915
 30
0.0
  0
SPLINE
  5
194
330
1F
100
AcDbEntity
  8
외형선
  6
Continuous
370
    15
100
AcDbSpline
210
0.0
220
0.0
230
1.0
 70
     8
 71
     3
 72
     8
 73
     4
 74
     0
 42
0.000000001
 43
0.00000001
 40
0.0
 40
0.0
 40
0.0
 40
0.0
 40
1.0
 40
1.0
 40
1.0
 40
1.0
 10
9.000000000000078
 20
3.504971692988856
 30
0.0
 10
8.658832388577077
 20
3.786715444002718
 30
0.0
 10
8.314045414190275
 20
4.054729279449016
 30
0.0
 10
7.969783843699844
 20
4.304408162661118
 30
0.0
  0
SPLINE
  5
195
330
1F
100
AcDbEntity
  8
외형선
  6
Continuous
370
    15
100
AcDbSpline
210
0.0
220
0.0
230
1.0
 70
     8
 71
     3
 72
     8
 73
     4
 74
     0
 42
0.000000001
 43
0.00000001
 40
0.0
 40
0.0
 40
0.0
 40
0.0
 40
1.0
 40
1.0
 40
1.0
 40
1.0
 10
9.000000000000078
 20
6.323873667258955
 30
0.0
 10
8.658832388577077
 20
6.279400991270887
 30
0.0
 10
8.314045414190277
 20
6.208108304610416
 30
0.0
 10
7.969783843699846
 20
6.110946082407883
 30
0.0
  0
SPLINE
  5
196
330
1F
100
AcDbEntity
  8
외형선
  6
Continuous
370
    15
100
AcDbSpline
210
0.0
220
0.0
230
1.0
 70
     8
 71
     3
 72
     8
 73
     4
 74
     0
 42
0.000000001
 43
0.00000001
 40
0.0
 40
0.0
 40
0.0
 40
0.0
 40
1.0
 40
1.0
 40
1.0
 40
1.0
 10
9.000000000000007
 20
6.323873667258966
 30
0.0
 10
9.33201000493965
 20
6.341578146909989
 30
0.0
 10
9.66529980422393
 20
6.332902252833184
 30
0.0
 10
10.00000000000001
 20
6.29847567643091
 30
0.0
  0
SPLINE
  5
197
330
1F
100
AcDbEntity
  8
외형선
  6
Continuous
370
    15
100
AcDbSpline
210
0.0
220
0.0
230
1.0
 70
    24
 71
     3
 72
     9
 73
     5
 74
     0
 42
0.000000001
 43
0.00000001
 40
0.0
 40
0.0
 40
0.0
 40
0.0
 40
0.5
 40
1.0
 40
1.0
 40
1.0
 40
1.0
 10
10.00000000000001
 20
6.377971988960181
 30
0.0
 10
10.00000000000001
 20
6.364595595677491
 30
0.0
 10
10.00000000000001
 20
6.337969924205856
 30
0.0
 10
10.00000000000001
 20
6.311598174210851
 30
0.0
 10
10.00000000000001
 20
6.298475676431347
 30
0.0
  0
SPLINE
  5
198
330
1F
100
AcDbEntity
  8
외형선
  6
Continuous
370
    15
100
AcDbSpline
210
0.0
220
0.0
230
1.0
 70
     8
 71
     3
 72
     8
 73
     4
 74
     0
 42
0.000000001
 43
0.00000001
 40
0.0
 40
0.0
 40
0.0
 40
0.0
 40
1.0
 40
1.0
 40
1.0
 40
1.0
 10
10.22646439902725
 20
6.369155996680036
 30
0.0
 10
10.15110285608822
 20
6.37338899841274
 30
0.0
 10
10.07559167371077
 20
6.37632988015169
 30
0.0
 10
9.999999999990354
 20
6.377971988948049
 30
0.0
  0
SPLINE
  5
199
330
1F
100
AcDbEntity
  8
외형선
  6
Continuous
 62
     1
370
    15
100
AcDbSpline
210
0.0
220
0.0
230
1.0
 70
     8
 71
     3
 72
     8
 73
     4
 74
     0
 42
0.000000001
 43
0.00000001
 40
0.0
 40
0.0
 40
0.0
 40
0.0
 40
1.0
 40
1.0
 40
1.0
 40
1.0
 10
10.2264643427239
 20
6.369156007077764
 30
0.0
 10
10.3694762720584
 20
6.342746828255709
 30
0.0
 10
10.50755910413126
 20
6.277175710321806
 30
0.0
 10
10.63149203967757
 20
6.17369135164855
 30
0.0
  0
SPLINE
  5
19A
330
1F
100
AcDbEntity
  8
외형선
  6
Continuous
 62
     1
370
    15
100
AcDbSpline
210
0.0
220
0.0
230
1.0
 70
     8
 71
     3
 72
    10
 73
     6
 74
     0
 42
0.000000001
 43
0.00000001
 40
0.0
 40
0.0
 40
0.0
 40
0.0
 40
0.5
 40
0.5
 40
1.0
 40
1.0
 40
1.0
 40
1.0
 10
10.63149203967757
 20
6.173691351648544
 30
0.0
 10
10.66976510940363
 20
6.141733228026287
 30
0.0
 10
10.71329073108116
 20
6.122016056633893
 30
0.0
 10
10.80270912974668
 20
6.10788022937575
 30
0.0
 10
10.84951706015462
 20
6.113359963725034
 30
0.0
 10
10.89240361274276
 20
6.136212656599399
 30
0.0
  0
SPLINE
  5
19B
330
1F
100
AcDbEntity
  8
외형선
  6
Continuous
 62
     1
370
    15
100
AcDbSpline
210
0.0
220
0.0
230
1.0
 70
     8
 71
     3
 72
    14
 73
    10
 74
     0
 42
0.000000001
 43
0.00000001
 40
0.0
 40
0.0
 40
0.0
 40
0.0
 40
0.25
 40
0.25
 40
0.5
 40
0.5
 40
0.75
 40
0.75
 40
1.0
 40
1.0
 40
1.0
 40
1.0
 10
10.89240361274079
 20
6.136212656598349
 30
0.0
 10
10.97720888391301
 20
6.181402318608225
 30
0.0
 10
11.06284491493908
 20
6.205922206736988
 30
0.0
 10
11.23769332231271
 20
6.224240864794204
 30
0.0
 10
11.32742101520558
 20
6.217252206323778
 30
0.0
 10
11.5038855712586
 20
6.173836296195327
 30
0.0
 10
11.58951431903823
 20
6.13816774757337
 30
0.0
 10
11.7567896440353
 20
6.03970953379728
 30
0.0
 10
11.8384324744834
 20
5.976506487072741
 30
0.0
 10
11.9143896587743
 20
5.90058130955381
 30
0.0
  0
SPLINE
  5
19C
330
1F
100
AcDbEntity
  8
외형선
  6
Continuous
 62
     1
370
    15
100
AcDbSpline
210
0.0
220
0.0
230
1.0
 70
     8
 71
     3
 72
    10
 73
     6
 74
     0
 42
0.000000001
 43
0.00000001
 40
0.0
 40
0.0
 40
0.0
 40
0.0
 40
0.5
 40
0.5
 40
1.0
 40
1.0
 40
1.0
 40
1.0
 10
11.91438965877426
 20
5.900581309553853
 30
0.0
 10
11.95281371821722
 20
5.862173441207499
 30
0.0
 10
11.99637792631673
 20
5.835017372968602
 30
0.0
 10
12.08563434257209
 20
5.805443614839946
 30
0.0
 10
12.132255821691
 20
5.802751858650026
 30
0.0
 10
12.17484107031026
 20
5.817848354074289
 30
0.0
  0
SPLINE
  5
19D
330
1F
100
AcDbEntity
  8
외형선
  6
Continuous
 62
     1
370
    15
100
AcDbSpline
210
0.0
220
0.0
230
1.0
 70
     8
 71
     3
 72
     8
 73
     4
 74
     0
 42
0.000000001
 43
0.00000001
 40
0.0
 40
0.0
 40
0.0
 40
0.0
 40
1.0
 40
1.0
 40
1.0
 40
1.0
 10
12.1748410703103
 20
5.817848354074263
 30
0.0
 10
12.30559300004644
 20
5.864199989276009
 30
0.0
 10
12.44424759041457
 20
5.860945680743963
 30
0.0
 10
12.582520495468
 20
5.822500812501931
 30
0.0
  0
SPLINE
  5
19E
330
1F
100
AcDbEntity
  8
외형선
  6
Continuous
 62
     1
370
    15
100
AcDbSpline
210
0.0
220
0.0
230
1.0
 70
     8
 71
     3
 72
     8
 73
     4
 74
     0
 42
0.000000001
 43
0.00000001
 40
0.0
 40
0.0
 40
0.0
 40
0.0
 40
1.0
 40
1.0
 40
1.0
 40
1.0
 10
12.58252043921088
 20
5.822500842092426
 30
0.0
 10
12.72517306908047
 20
5.747467271229236
 30
0.0
 10
12.8633129948983
 20
5.637177404857042
 30
0.0
 10
12.98700962909227
 20
5.496871206077155
 30
0.0
  0
SPLINE
  5
19F
330
1F
100
AcDbEntity
  8
외형선
  6
Continuous
 62
     1
370
    15
100
AcDbSpline
210
0.0
220
0.0
230
1.0
 70
     8
 71
     3
 72
    10
 73
     6
 74
     0
 42
0.000000001
 43
0.00000001
 40
0.0
 40
0.0
 40
0.0
 40
0.0
 40
0.5
 40
0.5
 40
1.0
 40
1.0
 40
1.0
 40
1.0
 10
12.98700962909227
 20
5.496871206077156
 30
0.0
 10
13.02521805303518
 20
5.453532284531455
 30
0.0
 10
13.06867764478884
 20
5.420272374333594
 30
0.0
 10
13.15792919284227
 20
5.377207494655129
 30
0.0
 10
13.20461416533312
 20
5.367021226604366
 30
0.0
 10
13.24734811147939
 20
5.374189870779442
 30
0.0
  0
SPLINE
  5
1A0
330
1F
100
AcDbEntity
  8
외형선
  6
Continuous
 62
     1
370
    15
100
AcDbSpline
210
0.0
220
0.0
230
1.0
 70
     8
 71
     3
 72
    14
 73
    10
 74
     0
 42
0.000000001
 43
0.00000001
 40
0.0
 40
0.0
 40
0.0
 40
0.0
 40
0.25
 40
0.25
 40
0.5
 40
0.5
 40
0.75
 40
0.75
 40
1.0
 40
1.0
 40
1.0
 40
1.0
 10
13.2473481114794
 20
5.37418987077946
 30
0.0
 10
13.33190860059801
 20
5.38837494172253
 30
0.0
 10
13.41765266809761
 20
5.381793174117703
 30
0.0
 10
13.59326837421228
 20
5.33779823757862
 30
0.0
 10
13.68207253797512
 20
5.300014396549318
 30
0.0
 10
13.85783288704767
 20
5.199449164090174
 30
0.0
 10
13.94323265618297
 20
5.137743375000816
 30
0.0
 10
14.11024244696426
 20
4.992481402199412
 30
0.0
 10
14.19185092640638
 20
4.908575922831894
 30
0.0
 10
14.26783852269421
 20
4.81580540151059
 30
0.0
  0
SPLINE
  5
1A1
330
1F
100
AcDbEntity
  8
외형선
  6
Continuous
 62
     1
370
    15
100
AcDbSpline
210
0.0
220
0.0
230
1.0
 70
     8
 71
     3
 72
    10
 73
     6
 74
     0
 42
0.000000001
 43
0.00000001
 40
0.0
 40
0.0
 40
0.0
 40
0.0
 40
0.5
 40
0.5
 40
1.0
 40
1.0
 40
1.0
 40
1.0
 10
14.26783852269423
 20
4.815805401510563
 30
0.0
 10
14.30627071465179
 20
4.768884921621741
 30
0.0
 10
14.34987011137454
 20
4.730307527077938
 30
0.0
 10
14.4392617965315
 20
4.674382877703903
 30
0.0
 10
14.48596962224435
 20
4.656507852982172
 30
0.0
 10
14.52858234479286
 20
4.65518339496566
 30
0.0
  0
SPLINE
  5
1A2
330
1F
100
AcDbEntity
  8
외형선
  6
Continuous
 62
     1
370
    15
100
AcDbSpline
210
0.0
220
0.0
230
1.0
 70
     8
 71
     3
 72
     8
 73
     4
 74
     0
 42
0.000000001
 43
0.00000001
 40
0.0
 40
0.0
 40
0.0
 40
0.0
 40
1.0
 40
1.0
 40
1.0
 40
1.0
 10
14.52858234479286
 20
4.655183394965649
 30
0.0
 10
14.65976922931486
 20
4.65110593850488
 30
0.0
 10
14.79873146269042
 20
4.598282762648322
 30
0.0
 10
14.93699839822367
 20
4.516285544790655
 30
0.0
  0
SPLINE
  5
1A3
330
1F
100
AcDbEntity
  8
외형선
  6
Continuous
 62
     1
370
    15
100
AcDbSpline
210
0.0
220
0.0
230
1.0
 70
     8
 71
     3
 72
     8
 73
     4
 74
     0
 42
0.000000001
 43
0.00000001
 40
0.0
 40
0.0
 40
0.0
 40
0.0
 40
1.0
 40
1.0
 40
1.0
 40
1.0
 10
14.93699834183407
 20
4.51628558984495
 30
0.0
 10
15.08013215483429
 20
4.40192420492899
 30
0.0
 10
15.21836054327425
 20
4.260516061439735
 30
0.0
 10
15.34243681035231
 20
4.100946791453957
 30
0.0
  0
SPLINE
  5
1A4
330
1F
100
AcDbEntity
  8
외형선
  6
Continuous
 62
     1
370
    15
100
AcDbSpline
210
0.0
220
0.0
230
1.0
 70
     8
 71
     3
 72
    10
 73
     6
 74
     0
 42
0.000000001
 43
0.00000001
 40
0.0
 40
0.0
 40
0.0
 40
0.0
 40
0.5
 40
0.5
 40
1.0
 40
1.0
 40
1.0
 40
1.0
 10
15.34243681035231
 20
4.100946791453952
 30
0.0
 10
15.38068898809379
 20
4.051752274071071
 30
0.0
 10
15.42418746644807
 20
4.009131191833102
 30
0.0
 10
15.51355324740367
 20
3.942421446892505
 30
0.0
 10
15.56033703526107
 20
3.917696878715147
 30
0.0
 10
15.60319044695627
 20
3.908174538797566
 30
0.0
  0
SPLINE
  5
1A5
330
1F
100
AcDbEntity
  8
외형선
  6
Continuous
 62
     1
370
    15
100
AcDbSpline
210
0.0
220
0.0
230
1.0
 70
     8
 71
     3
 72
    14
 73
    10
 74
     0
 42
0.000000001
 43
0.00000001
 40
0.0
 40
0.0
 40
0.0
 40
0.0
 40
0.25
 40
0.25
 40
0.5
 40
0.5
 40
0.75
 40
0.75
 40
1.0
 40
1.0
 40
1.0
 40
1.0
 10
15.60319044695629
 20
3.90817453879755
 30
0.0
 10
15.6877043667028
 20
3.889394930832679
 30
0.0
 10
15.77347694192
 20
3.852486777482016
 30
0.0
 10
15.94933516864348
 20
3.752569930823768
 30
0.0
 10
16.03846561793339
 20
3.689594386907558
 30
0.0
 10
16.21451586418496
 20
3.545662727790627
 30
0.0
 10
16.29993980189826
 20
3.466131812200382
 30
0.0
 10
16.46680574684295
 20
3.293155739788051
 30
0.0
 10
16.54824496231636
 20
3.199464415222858
 30
0.0
 10
16.62401372269284
 20
3.10186859625412
 30
0.0
  0
SPLINE
  5
1A6
330
1F
100
AcDbEntity
  8
외형선
  6
Continuous
 62
     1
370
    15
100
AcDbSpline
210
0.0
220
0.0
230
1.0
 70
     8
 71
     3
 72
    10
 73
     6
 74
     0
 42
0.000000001
 43
0.00000001
 40
0.0
 40
0.0
 40
0.0
 40
0.0
 40
0.5
 40
0.5
 40
1.0
 40
1.0
 40
1.0
 40
1.0
 10
16.62401372269282
 20
3.101868596254113
 30
0.0
 10
16.66240617477452
 20
3.052416252246981
 30
0.0
 10
16.70593843358585
 20
3.007288634234198
 30
0.0
 10
16.79513140649569
 20
2.931836236497639
 30
0.0
 10
16.84174819734718
 20
2.900800715355378
 30
0.0
 10
16.88431651683889
 20
2.88302316886915
 30
0.0
  0
SPLINE
  5
1A7
330
1F
100
AcDbEntity
  8
외형선
  6
Continuous
 62
     1
370
    15
100
AcDbSpline
210
0.0
220
0.0
230
1.0
 70
     8
 71
     3
 72
     8
 73
     4
 74
     0
 42
0.000000001
 43
0.00000001
 40
0.0
 40
0.0
 40
0.0
 40
0.0
 40
1.0
 40
1.0
 40
1.0
 40
1.0
 10
16.88431651683887
 20
2.883023168869159
 30
0.0
 10
17.01503507454239
 20
2.828431978426704
 30
0.0
 10
17.15366285943376
 20
2.733235704158156
 30
0.0
 10
17.29189909056514
 20
2.618914991267122
 30
0.0
  0
SPLINE
  5
1A8
330
1F
100
AcDbEntity
  8
외형선
  6
Continuous
 62
     1
370
    15
100
AcDbSpline
210
0.0
220
0.0
230
1.0
 70
     8
 71
     3
 72
     8
 73
     4
 74
     0
 42
0.000000001
 43
0.00000001
 40
0.0
 40
0.0
 40
0.0
 40
0.0
 40
1.0
 40
1.0
 40
1.0
 40
1.0
 10
17.29189903431436
 20
2.618915045534186
 30
0.0
 10
17.43457313383339
 20
2.481272452159523
 30
0.0
 10
17.57272031861264
 20
2.328878019172036
 30
0.0
 10
17.69643200521687
 20
2.172436048444741
 30
0.0
  0
SPLINE
  5
1A9
330
1F
100
AcDbEntity
  8
외형선
  6
Continuous
 62
     1
370
    15
100
AcDbSpline
210
0.0
220
0.0
230
1.0
 70
     8
 71
     3
 72
    10
 73
     6
 74
     0
 42
0.000000001
 43
0.00000001
 40
0.0
 40
0.0
 40
0.0
 40
0.0
 40
0.5
 40
0.5
 40
1.0
 40
1.0
 40
1.0
 40
1.0
 10
17.69643200521711
 20
2.172436048443948
 30
0.0
 10
17.73465926071749
 20
2.124095044047917
 30
0.0
 10
17.77813806581331
 20
2.077980268260797
 30
0.0
 10
17.86742346923969
 20
1.996878085626004
 30
0.0
 10
17.91412409541996
 20
1.961114954966841
 30
0.0
 10
17.95687626102908
 20
1.936256797877754
 30
0.0
  0
SPLINE
  5
1AA
330
1F
100
AcDbEntity
  8
외형선
  6
Continuous
 62
     1
370
    15
100
AcDbSpline
210
0.0
220
0.0
230
1.0
 70
     8
 71
     3
 72
    14
 73
    10
 74
     0
 42
0.000000001
 43
0.00000001
 40
0.0
 40
0.0
 40
0.0
 40
0.0
 40
0.25
 40
0.25
 40
0.5
 40
0.5
 40
0.75
 40
0.75
 40
1.0
 40
1.0
 40
1.0
 40
1.0
 10
17.95687626102908
 20
1.936256797877767
 30
0.0
 10
18.04151242262812
 20
1.887045279105085
 30
0.0
 10
18.12732668907046
 20
1.824352864846226
 30
0.0
 10
18.3030724559719
 20
1.680556989118089
 30
0.0
 10
18.39196073255848
 20
1.599901602987583
 30
0.0
 10
18.56791091155622
 20
1.430594596310674
 30
0.0
 10
18.65340486802913
 20
1.343408797165225
 30
0.0
 10
18.82060610954613
 20
1.165116406525303
 30
0.0
 10
18.90230332262724
 20
1.073917558214448
 30
0.0
 10
18.97839047282807
 20
0.9843488040773692
 30
0.0
  0
SPLINE
  5
1AB
330
1F
100
AcDbEntity
  8
외형선
  6
Continuous
 62
     1
370
    15
100
AcDbSpline
210
0.0
220
0.0
230
1.0
 70
     8
 71
     3
 72
    10
 73
     6
 74
     0
 42
0.000000001
 43
0.00000001
 40
0.0
 40
0.0
 40
0.0
 40
0.0
 40
0.5
 40
0.5
 40
1.0
 40
1.0
 40
1.0
 40
1.0
 10
18.97839047282807
 20
0.9843488040774261
 30
0.0
 10
19.01688431687119
 20
0.9390343765586069
 30
0.0
 10
19.06054184398032
 20
0.8934995171876791
 30
0.0
 10
19.15003870702233
 20
0.8090104557944978
 30
0.0
 10
19.19680289889104
 20
0.7692141081991746
 30
0.0
 10
19.23947074924427
 20
0.737533814859159
 30
0.0
  0
SPLINE
  5
1AC
330
1F
100
AcDbEntity
  8
외형선
  6
Continuous
 62
     1
370
    15
100
AcDbSpline
210
0.0
220
0.0
230
1.0
 70
     8
 71
     3
 72
     8
 73
     4
 74
     0
 42
0.000000001
 43
0.00000001
 40
0.0
 40
0.0
 40
0.0
 40
0.0
 40
1.0
 40
1.0
 40
1.0
 40
1.0
 10
19.23947074924428
 20
0.7375338148591116
 30
0.0
 10
19.37066214199692
 20
0.640126006130012
 30
0.0
 10
19.50959517559534
 20
0.5147765719334362
 30
0.0
 10
19.64783325829143
 20
0.3825116899696308
 30
0.0
  0
SPLINE
  5
1AD
330
1F
100
AcDbEntity
  8
외형선
  6
Continuous
 62
     1
370
    15
100
AcDbSpline
210
0.0
220
0.0
230
1.0
 70
     8
 71
     3
 72
     8
 73
     4
 74
     0
 42
0.000000001
 43
0.00000001
 40
0.0
 40
0.0
 40
0.0
 40
0.0
 40
1.0
 40
1.0
 40
1.0
 40
1.0
 10
19.64783320196143
 20
0.3825117467333918
 30
0.0
 10
19.79075962008529
 20
0.2384847609031623
 30
0.0
 10
19.92877756388286
 20
0.0932243993023431
 30
0.0
 10
20.05267353904205
 20
-0.0409845725381622
 30
0.0
  0
SPLINE
  5
1AE
330
1F
100
AcDbEntity
  8
외형선
  6
Continuous
 62
     1
370
    15
100
AcDbSpline
210
0.0
220
0.0
230
1.0
 70
     8
 71
     3
 72
    10
 73
     6
 74
     0
 42
0.000000001
 43
0.00000001
 40
0.0
 40
0.0
 40
0.0
 40
0.0
 40
0.5
 40
0.5
 40
1.0
 40
1.0
 40
1.0
 40
1.0
 10
20.05267353904204
 20
-0.0409845725381693
 30
0.0
 10
20.09087407495685
 20
-0.0823648889067627
 30
0.0
 10
20.13432423457332
 20
-0.1261611558701922
 30
0.0
 10
20.2235996583379
 20
-0.2114171530174002
 30
0.0
 10
20.27033408512959
 20
-0.2537194652774831
 30
0.0
 10
20.31313443472813
 20
-0.2907298076426907
 30
0.0
  0
SPLINE
  5
1AF
330
1F
100
AcDbEntity
  8
외형선
  6
Continuous
 62
     1
370
    15
100
AcDbSpline
210
0.0
220
0.0
230
1.0
 70
     8
 71
     3
 72
    10
 73
     6
 74
     0
 42
0.000000001
 43
0.00000001
 40
0.0
 40
0.0
 40
0.0
 40
0.0
 40
0.5
 40
0.5
 40
1.0
 40
1.0
 40
1.0
 40
1.0
 10
21.33338543747554
 20
-1.257723848646406
 30
0.0
 10
21.37177215180352
 20
-1.293108842879388
 30
0.0
 10
21.41529003242431
 20
-1.333302256272305
 30
0.0
 10
21.50448140488949
 20
-1.41630485833233
 30
0.0
 10
21.55111889285749
 20
-1.459913137398299
 30
0.0
 10
21.59369584826803
 20
-1.501535277568216
 30
0.0
  0
SPLINE
  5
1B0
330
1F
100
AcDbEntity
  8
외형선
  6
Continuous
 62
     1
370
    15
100
AcDbSpline
210
0.0
220
0.0
230
1.0
 70
     8
 71
     3
 72
    10
 73
     6
 74
     0
 42
0.000000001
 43
0.00000001
 40
0.0
 40
0.0
 40
0.0
 40
0.0
 40
0.5
 40
0.5
 40
1.0
 40
1.0
 40
1.0
 40
1.0
 10
22.40623963417205
 20
-2.241053006560619
 30
0.0
 10
22.44451274287372
 20
-2.269862944880255
 30
0.0
 10
22.48803697187169
 20
-2.305438821265496
 30
0.0
 10
22.57740478857777
 20
-2.3834377638427
 30
0.0
 10
22.6241463316074
 20
-2.426638133711974
 30
0.0
 10
22.66694370707948
 20
-2.470929672332412
 30
0.0
  0
SPLINE
  5
1B1
330
1F
100
AcDbEntity
  8
외형선
  6
Continuous
 62
     1
370
    15
100
AcDbSpline
210
0.0
220
0.0
230
1.0
 70
     8
 71
     3
 72
    10
 73
     6
 74
     0
 42
0.000000001
 43
0.00000001
 40
0.0
 40
0.0
 40
0.0
 40
0.0
 40
0.5
 40
0.5
 40
1.0
 40
1.0
 40
1.0
 40
1.0
 10
23.68922004398133
 20
-3.332649484497479
 30
0.0
 10
23.72765392741094
 20
-3.353242429334608
 30
0.0
 10
23.77124880337293
 20
-3.382504340903929
 30
0.0
 10
23.86062770965697
 20
-3.452444616054406
 30
0.0
 10
23.90733022351031
 20
-3.4938433781322
 30
0.0
 10
23.94993206842429
 20
-3.539700730939392
 30
0.0
  0
SPLINE
  5
1B2
330
1F
100
AcDbEntity
  8
외형선
  6
Continuous
 62
     1
370
    15
100
AcDbSpline
210
0.0
220
0.0
230
1.0
 70
     8
 71
     3
 72
     8
 73
     4
 74
     0
 42
0.000000001
 43
0.00000001
 40
0.0
 40
0.0
 40
0.0
 40
0.0
 40
1.0
 40
1.0
 40
1.0
 40
1.0
 10
23.9499320684243
 20
-3.539700730939395
 30
0.0
 10
24.08096121598639
 20
-3.680742741207123
 30
0.0
 10
24.21974180231996
 20
-3.814843490665407
 30
0.0
 10
24.35781997880996
 20
-3.930058803073826
 30
0.0
  0
SPLINE
  5
1B3
330
1F
100
AcDbEntity
  8
외형선
  6
Continuous
 62
     1
370
    15
100
AcDbSpline
210
0.0
220
0.0
230
1.0
 70
     8
 71
     3
 72
     8
 73
     4
 74
     0
 42
0.000000001
 43
0.00000001
 40
0.0
 40
0.0
 40
0.0
 40
0.0
 40
1.0
 40
1.0
 40
1.0
 40
1.0
 10
24.35781992254291
 20
-3.930058763457105
 30
0.0
 10
24.50060531030463
 20
-4.030591634284214
 30
0.0
 10
24.6384934474715
 20
-4.105907583825561
 30
0.0
 10
24.76228528661861
 20
-4.146628243120447
 30
0.0
  0
SPLINE
  5
1B4
330
1F
100
AcDbEntity
  8
외형선
  6
Continuous
 62
     1
370
    15
100
AcDbSpline
210
0.0
220
0.0
230
1.0
 70
     8
 71
     3
 72
    10
 73
     6
 74
     0
 42
0.000000001
 43
0.00000001
 40
0.0
 40
0.0
 40
0.0
 40
0.0
 40
0.5
 40
0.5
 40
1.0
 40
1.0
 40
1.0
 40
1.0
 10
24.76228528661861
 20
-4.14662824312046
 30
0.0
 10
24.8004611015611
 20
-4.159185972000556
 30
0.0
 10
24.84388907318596
 20
-4.181922452972938
 30
0.0
 10
24.93312271194598
 20
-4.242448634127495
 30
0.0
 10
24.97983313772463
 20
-4.280863478326221
 30
0.0
 10
25.02260757818539
 20
-4.326565559819142
 30
0.0
  0
SPLINE
  5
1B5
330
1F
100
AcDbEntity
  8
외형선
  6
Continuous
 62
     1
370
    15
100
AcDbSpline
210
0.0
220
0.0
230
1.0
 70
     8
 71
     3
 72
    14
 73
    10
 74
     0
 42
0.000000001
 43
0.00000001
 40
0.0
 40
0.0
 40
0.0
 40
0.0
 40
0.2499999999999998
 40
0.2499999999999998
 40
0.4999999999999997
 40
0.4999999999999997
 40
0.7499999999999996
 40
0.7499999999999996
 40
1.0
 40
1.0
 40
1.0
 40
1.0
 10
25.0226075781854
 20
-4.326565559819172
 30
0.0
 10
25.10708439919499
 20
-4.41682428714454
 30
0.0
 10
25.19282652479339
 20
-4.498939012485467
 30
0.0
 10
25.36863250541292
 20
-4.648669259197057
 30
0.0
 10
25.45772416955555
 20
-4.71516109487589
 30
0.0
 10
25.63367496158383
 20
-4.82662165932564
 30
0.0
 10
25.7190435054595
 20
-4.870859523779486
 30
0.0
 10
25.88579435691438
 20
-4.936095179872113
 30
0.0
 10
25.96717019343361
 20
-4.956778715054457
 30
0.0
 10
26.04289079917095
 20
-4.963387547832297
 30
0.0
  0
SPLINE
  5
1B6
330
1F
100
AcDbEntity
  8
외형선
  6
Continuous
 62
     1
370
    15
100
AcDbSpline
210
0.0
220
0.0
230
1.0
 70
     8
 71
     3
 72
    10
 73
     6
 74
     0
 42
0.000000001
 43
0.00000001
 40
0.0
 40
0.0
 40
0.0
 40
0.0
 40
0.5
 40
0.5
 40
1.0
 40
1.0
 40
1.0
 40
1.0
 10
26.04289079917136
 20
-4.963387547833102
 30
0.0
 10
26.08129754505441
 20
-4.966739657323108
 30
0.0
 10
26.12482308377747
 20
-4.981589629800163
 30
0.0
 10
26.21408153091899
 20
-5.029971499108856
 30
0.0
 10
26.26075377347929
 20
-5.064019618754673
 30
0.0
 10
26.30336502933594
 20
-5.108359327541717
 30
0.0
  0
SPLINE
  5
1B7
330
1F
100
AcDbEntity
  8
외형선
  6
Continuous
 62
     1
370
    15
100
AcDbSpline
210
0.0
220
0.0
230
1.0
 70
     8
 71
     3
 72
     8
 73
     4
 74
     0
 42
0.000000001
 43
0.00000001
 40
0.0
 40
0.0
 40
0.0
 40
0.0
 40
1.0
 40
1.0
 40
1.0
 40
1.0
 10
26.30336502933595
 20
-5.108359327541719
 30
0.0
 10
26.43425652689789
 20
-5.244560215497733
 30
0.0
 10
26.57305289293371
 20
-5.356450168140253
 30
0.0
 10
26.71143144295678
 20
-5.43930338457943
 30
0.0
  0
SPLINE
  5
1B8
330
1F
100
AcDbEntity
  8
외형선
  6
Continuous
 62
     1
370
    15
100
AcDbSpline
210
0.0
220
0.0
230
1.0
 70
     8
 71
     3
 72
     8
 73
     4
 74
     0
 42
0.000000001
 43
0.00000001
 40
0.0
 40
0.0
 40
0.0
 40
0.0
 40
1.0
 40
1.0
 40
1.0
 40
1.0
 10
26.71143138661318
 20
-5.439303362158102
 30
0.0
 10
26.85439274823642
 20
-5.496193086539835
 30
0.0
 10
26.99280737868804
 20
-5.518534564014013
 30
0.0
 10
27.1168166122136
 20
-5.501118592397671
 30
0.0
  0
SPLINE
  5
1B9
330
1F
100
AcDbEntity
  8
외형선
  6
Continuous
 62
     1
370
    15
100
AcDbSpline
210
0.0
220
0.0
230
1.0
 70
     8
 71
     3
 72
    10
 73
     6
 74
     0
 42
0.000000001
 43
0.00000001
 40
0.0
 40
0.0
 40
0.0
 40
0.0
 40
0.5
 40
0.5
 40
1.0
 40
1.0
 40
1.0
 40
1.0
 10
27.11681661221359
 20
-5.501118592397676
 30
0.0
 10
27.15514999029782
 20
-5.495735017274327
 30
0.0
 10
27.19872990791447
 20
-5.502674587540306
 30
0.0
 10
27.28819689902691
 20
-5.537875165146922
 30
0.0
 10
27.33499193454735
 20
-5.566522143369187
 30
0.0
 10
27.37784206069674
 20
-5.607727100752621
 30
0.0
  0
SPLINE
  5
1BA
330
1F
100
AcDbEntity
  8
외형선
  6
Continuous
 62
     1
370
    15
100
AcDbSpline
210
0.0
220
0.0
230
1.0
 70
     8
 71
     3
 72
    14
 73
    10
 74
     0
 42
0.000000001
 43
0.00000001
 40
0.0
 40
0.0
 40
0.0
 40
0.0
 40
0.2500000000000001
 40
0.2500000000000001
 40
0.5000000000000002
 40
0.5000000000000002
 40
0.7500000000000003
 40
0.7500000000000003
 40
1.0
 40
1.0
 40
1.0
 40
1.0
 10
27.37784206069674
 20
-5.607727100752616
 30
0.0
 10
27.46246488692229
 20
-5.689100955665731
 30
0.0
 10
27.54824041646328
 20
-5.756010748872176
 30
0.0
 10
27.72385776469046
 20
-5.866434728193163
 30
0.0
 10
27.81277357703169
 20
-5.908872321865474
 30
0.0
 10
27.98877709670359
 20
-5.966257456195319
 30
0.0
 10
28.07428322256408
 20
-5.980994975627392
 30
0.0
 10
28.24147591459358
 20
-5.982614895574263
 30
0.0
 10
28.32316528429694
 20
-5.969098973000452
 30
0.0
 10
28.39920209914768
 20
-5.940298418625776
 30
0.0
  0
SPLINE
  5
1BB
330
1F
100
AcDbEntity
  8
외형선
  6
Continuous
 62
     1
370
    15
100
AcDbSpline
210
0.0
220
0.0
230
1.0
 70
     8
 71
     3
 72
    10
 73
     6
 74
     0
 42
0.000000001
 43
0.00000001
 40
0.0
 40
0.0
 40
0.0
 40
0.0
 40
0.5
 40
0.5
 40
1.0
 40
1.0
 40
1.0
 40
1.0
 10
28.39920209914767
 20
-5.940298418625784
 30
0.0
 10
28.43759367578814
 20
-5.925756795693075
 30
0.0
 10
28.4811485814432
 20
-5.923923936418193
 30
0.0
 10
28.57045177026247
 20
-5.943872936506937
 30
0.0
 10
28.61711262069462
 20
-5.965892239612959
 30
0.0
 10
28.65967111543697
 20
-6.00266124471682
 30
0.0
  0
SPLINE
  5
1BC
330
1F
100
AcDbEntity
  8
외형선
  6
Continuous
 62
     1
370
    15
100
AcDbSpline
210
0.0
220
0.0
230
1.0
 70
     8
 71
     3
 72
     8
 73
     4
 74
     0
 42
0.000000001
 43
0.00000001
 40
0.0
 40
0.0
 40
0.0
 40
0.0
 40
1.0
 40
1.0
 40
1.0
 40
1.0
 10
28.65967111543699
 20
-6.002661244716829
 30
0.0
 10
28.79061743750472
 20
-6.115794145999849
 30
0.0
 10
28.92931927242213
 20
-6.190613780895555
 30
0.0
 10
29.06730903685202
 20
-6.230340134023498
 30
0.0
  0
SPLINE
  5
1BD
330
1F
100
AcDbEntity
  8
외형선
  6
Continuous
 62
     1
370
    15
100
AcDbSpline
210
0.0
220
0.0
230
1.0
 70
     8
 71
     3
 72
     8
 73
     4
 74
     0
 42
0.000000001
 43
0.00000001
 40
0.0
 40
0.0
 40
0.0
 40
0.0
 40
1.0
 40
1.0
 40
1.0
 40
1.0
 10
29.06730898061304
 20
-6.230340131640326
 30
0.0
 10
29.21003244265493
 20
-6.236388132370723
 30
0.0
 10
29.34788269613072
 20
-6.203597232379275
 30
0.0
 10
29.47165702611851
 20
-6.130289784168944
 30
0.0
  0
SPLINE
  5
1BE
330
1F
100
AcDbEntity
  8
외형선
  6
Continuous
 62
     1
370
    15
100
AcDbSpline
210
0.0
220
0.0
230
1.0
 70
     8
 71
     3
 72
    10
 73
     6
 74
     0
 42
0.000000001
 43
0.00000001
 40
0.0
 40
0.0
 40
0.0
 40
0.0
 40
0.5
 40
0.5
 40
1.0
 40
1.0
 40
1.0
 40
1.0
 10
29.47165702611837
 20
-6.130289784169069
 30
0.0
 10
29.50983516057777
 20
-6.107678135898169
 30
0.0
 10
29.55326720154148
 20
-6.097838993935911
 30
0.0
 10
29.6425078003617
 20
-6.102951721329985
 30
0.0
 10
29.68921966333678
 20
-6.117997554817393
 30
0.0
 10
29.73199539732098
 20
-6.149200199040645
 30
0.0
  0
SPLINE
  5
1BF
330
1F
100
AcDbEntity
  8
외형선
  6
Continuous
 62
     1
370
    15
100
AcDbSpline
210
0.0
220
0.0
230
1.0
 70
     8
 71
     3
 72
     9
 73
     5
 74
     0
 42
0.000000001
 43
0.00000001
 40
0.0
 40
0.0
 40
0.0
 40
0.0
 40
0.9221937374797967
 40
1.0
 40
1.0
 40
1.0
 40
1.0
 10
29.73199539732097
 20
-6.149200199040645
 30
0.0
 10
29.83260972041397
 20
-6.214375594947165
 30
0.0
 10
29.94171295870742
 20
-6.285049893912407
 30
0.0
 10
30.05311741176664
 20
-6.296975496797148
 30
0.0
 10
30.06178537588728
 20
-6.297903383385909
 30
0.0
  0
SPLINE
  5
1C0
330
1F
100
AcDbEntity
  8
외형선
  6
Continuous
 62
     1
370
    15
100
AcDbSpline
210
0.0
220
0.0
230
1.0
 70
     8
 71
     3
 72
    11
 73
     7
 74
     0
 42
0.000000001
 43
0.00000001
 40
0.0
 40
0.0
 40
0.0
 40
0.0
 40
0.084711456686174
 40
0.3862880466500643
 40
0.6924387861544037
 40
1.0
 40
1.0
 40
1.0
 40
1.0
 10
26.51550341223091
 20
-5.302246894458958
 30
0.0
 10
26.5092158224847
 20
-5.307580913361149
 30
0.0
 10
26.48054413088344
 20
-5.331904279091421
 30
0.0
 10
26.42859131368258
 20
-5.371046935830353
 30
0.0
 10
26.3598104254197
 20
-5.419775644385689
 30
0.0
 10
26.31364218844304
 20
-5.448161343928791
 30
0.0
 10
26.2905050164715
 20
-5.462386812668123
 30
0.0
  0
SPLINE
  5
1C1
330
1F
100
AcDbEntity
  8
외형선
  6
Continuous
 62
     1
370
    15
100
AcDbSpline
210
0.0
220
0.0
230
1.0
 70
     8
 71
     3
 72
     8
 73
     4
 74
     0
 42
0.000000001
 43
0.00000001
 40
0.0
 40
0.0
 40
0.0
 40
0.0
 40
1.0
 40
1.0
 40
1.0
 40
1.0
 10
26.29050501647295
 20
-5.4623868126666
 30
0.0
 10
26.14781935069731
 20
-5.518482387697458
 30
0.0
 10
26.00994866928452
 20
-5.540123058251802
 30
0.0
 10
25.88615547853735
 20
-5.521490443554674
 30
0.0
  0
SPLINE
  5
1C2
330
1F
100
AcDbEntity
  8
외형선
  6
Continuous
 62
     1
370
    15
100
AcDbSpline
210
0.0
220
0.0
230
1.0
 70
     8
 71
     3
 72
    10
 73
     6
 74
     0
 42
0.000000001
 43
0.00000001
 40
0.0
 40
0.0
 40
0.0
 40
0.0
 40
0.5
 40
0.5
 40
1.0
 40
1.0
 40
1.0
 40
1.0
 10
25.88615547853734
 20
-5.521490443554674
 30
0.0
 10
25.84797654962892
 20
-5.515743978279761
 30
0.0
 10
25.80454334882296
 20
-5.522307909046039
 30
0.0
 10
25.71530185815828
 20
-5.556859213655036
 30
0.0
 10
25.66859122282694
 20
-5.585225136388245
 30
0.0
 10
25.62581863779518
 20
-5.626223090678613
 30
0.0
  0
SPLINE
  5
1C3
330
1F
100
AcDbEntity
  8
외형선
  6
Continuous
 62
     1
370
    15
100
AcDbSpline
210
0.0
220
0.0
230
1.0
 70
     8
 71
     3
 72
    14
 73
    10
 74
     0
 42
0.000000001
 43
0.00000001
 40
0.0
 40
0.0
 40
0.0
 40
0.0
 40
0.25
 40
0.25
 40
0.5
 40
0.5
 40
0.75
 40
0.75
 40
1.0
 40
1.0
 40
1.0
 40
1.0
 10
25.62581863779515
 20
-5.626223090678645
 30
0.0
 10
25.54127194815423
 20
-5.707261945700573
 30
0.0
 10
25.45546313075472
 20
-5.773717093385372
 30
0.0
 10
25.27953197539053
 20
-5.882944412827748
 30
0.0
 10
25.19038895032614
 20
-5.924634033706957
 30
0.0
 10
25.0143597681901
 20
-5.980501856017041
 30
0.0
 10
24.92895649826502
 20
-5.994490728788454
 30
0.0
 10
24.76213928668565
 20
-5.994795645285175
 30
0.0
 10
24.68074012820714
 20
-5.980719548027776
 30
0.0
 10
24.60498424900907
 20
-5.951541961777151
 30
0.0
  0
SPLINE
  5
1C4
330
1F
100
AcDbEntity
  8
외형선
  6
Continuous
 62
     1
370
    15
100
AcDbSpline
210
0.0
220
0.0
230
1.0
 70
     8
 71
     3
 72
    10
 73
     6
 74
     0
 42
0.000000001
 43
0.00000001
 40
0.0
 40
0.0
 40
0.0
 40
0.0
 40
0.5
 40
0.5
 40
1.0
 40
1.0
 40
1.0
 40
1.0
 10
24.60498424900907
 20
-5.951541961777157
 30
0.0
 10
24.56655194466507
 20
-5.936739653538144
 30
0.0
 10
24.52298926532395
 20
-5.934676703717851
 30
0.0
 10
24.43361625062186
 20
-5.954154818488916
 30
0.0
 10
24.38688495318134
 20
-5.975939510456278
 30
0.0
 10
24.34421714891026
 20
-6.012591120095055
 30
0.0
  0
SPLINE
  5
1C5
330
1F
100
AcDbEntity
  8
외형선
  6
Continuous
 62
     1
370
    15
100
AcDbSpline
210
0.0
220
0.0
230
1.0
 70
     8
 71
     3
 72
     8
 73
     4
 74
     0
 42
0.000000001
 43
0.00000001
 40
0.0
 40
0.0
 40
0.0
 40
0.0
 40
1.0
 40
1.0
 40
1.0
 40
1.0
 10
24.34421714891027
 20
-6.012591120095055
 30
0.0
 10
24.2131373391786
 20
-6.125188571496297
 30
0.0
 10
24.07416621730452
 20
-6.199201847125147
 30
0.0
 10
23.93564077800172
 20
-6.238000764546864
 30
0.0
  0
SPLINE
  5
1C6
330
1F
100
AcDbEntity
  8
외형선
  6
Continuous
 62
     1
370
    15
100
AcDbSpline
210
0.0
220
0.0
230
1.0
 70
     8
 71
     3
 72
     8
 73
     4
 74
     0
 42
0.000000001
 43
0.00000001
 40
0.0
 40
0.0
 40
0.0
 40
0.0
 40
1.0
 40
1.0
 40
1.0
 40
1.0
 10
23.93564077800173
 20
-6.238000764546868
 30
0.0
 10
23.79265625383186
 20
-6.242961373937024
 30
0.0
 10
23.65422188095321
 20
-6.208950042609871
 30
0.0
 10
23.53026077937843
 20
-6.134639599862364
 30
0.0
  0
SPLINE
  5
1C7
330
1F
100
AcDbEntity
  8
외형선
  6
Continuous
 62
     1
370
    15
100
AcDbSpline
210
0.0
220
0.0
230
1.0
 70
     8
 71
     3
 72
    10
 73
     6
 74
     0
 42
0.000000001
 43
0.00000001
 40
0.0
 40
0.0
 40
0.0
 40
0.0
 40
0.5
 40
0.5
 40
1.0
 40
1.0
 40
1.0
 40
1.0
 10
23.53026077937842
 20
-6.134639599862362
 30
0.0
 10
23.49198317493664
 20
-6.111693484530634
 30
0.0
 10
23.44846276031947
 20
-6.101539667541505
 30
0.0
 10
23.35911067842292
 20
-6.106062729110324
 30
0.0
 10
23.31237716039947
 20
-6.120824153471887
 30
0.0
 10
23.26959093043882
 20
-6.151776484911111
 30
0.0
  0
SPLINE
  5
1C8
330
1F
100
AcDbEntity
  8
외형선
  6
Continuous
 62
     1
370
    15
100
AcDbSpline
210
0.0
220
0.0
230
1.0
 70
     8
 71
     3
 72
    14
 73
    10
 74
     0
 42
0.000000001
 43
0.00000001
 40
0.0
 40
0.0
 40
0.0
 40
0.0
 40
0.25
 40
0.25
 40
0.5
 40
0.5
 40
0.75
 40
0.75
 40
1.0
 40
1.0
 40
1.0
 40
1.0
 10
23.26959093043883
 20
-6.151776484911102
 30
0.0
 10
23.18507805943663
 20
-6.212914622030138
 30
0.0
 10
23.09941731450266
 20
-6.255074473006576
 30
0.0
 10
22.92404409321542
 20
-6.309931230096163
 30
0.0
 10
22.83510495540557
 20
-6.321788423502642
 30
0.0
 10
22.65919340331335
 20
-6.315773630794685
 30
0.0
 10
22.57374611747678
 20
-6.298258135194922
 30
0.0
 10
22.40669030307345
 20
-6.234712510369327
 30
0.0
 10
22.32507403699993
 20
-6.188252871933627
 30
0.0
 10
22.24911250273538
 20
-6.127546968144554
 30
0.0
  0
SPLINE
  5
1C9
330
1F
100
AcDbEntity
  8
외형선
  6
Continuous
 62
     1
370
    15
100
AcDbSpline
210
0.0
220
0.0
230
1.0
 70
     8
 71
     3
 72
    10
 73
     6
 74
     0
 42
0.000000001
 43
0.00000001
 40
0.0
 40
0.0
 40
0.0
 40
0.0
 40
0.5
 40
0.5
 40
1.0
 40
1.0
 40
1.0
 40
1.0
 10
22.24911250273538
 20
-6.127546968144554
 30
0.0
 10
22.21073450882247
 20
-6.096876565964673
 30
0.0
 10
22.16719220747737
 20
-6.078492306255386
 30
0.0
 10
22.07791627591089
 20
-6.06710289907669
 30
0.0
 10
22.0312731685465
 20
-6.074025253458862
 30
0.0
 10
21.98873253167502
 20
-6.098251697468864
 30
0.0
  0
SPLINE
  5
1CA
330
1F
100
AcDbEntity
  8
외형선
  6
Continuous
 62
     1
370
    15
100
AcDbSpline
210
0.0
220
0.0
230
1.0
 70
     8
 71
     3
 72
     8
 73
     4
 74
     0
 42
0.000000001
 43
0.00000001
 40
0.0
 40
0.0
 40
0.0
 40
0.0
 40
1.0
 40
1.0
 40
1.0
 40
1.0
 10
21.98873253167504
 20
-6.098251697468857
 30
0.0
 10
21.85778213972455
 20
-6.172826564513306
 30
0.0
 10
21.71908911933677
 20
-6.199853932833739
 30
0.0
 10
21.58113419129809
 20
-6.190206315940769
 30
0.0
  0
SPLINE
  5
1CB
330
1F
100
AcDbEntity
  8
외형선
  6
Continuous
 62
     1
370
    15
100
AcDbSpline
210
0.0
220
0.0
230
1.0
 70
     8
 71
     3
 72
     8
 73
     4
 74
     0
 42
0.000000001
 43
0.00000001
 40
0.0
 40
0.0
 40
0.0
 40
0.0
 40
1.0
 40
1.0
 40
1.0
 40
1.0
 10
21.58113419129809
 20
-6.190206315940795
 30
0.0
 10
21.43844351674436
 20
-6.143483652436659
 30
0.0
 10
21.30051520692171
 20
-6.058554296060243
 30
0.0
 10
21.17666332788317
 20
-5.938253060969563
 30
0.0
  0
SPLINE
  5
1CC
330
1F
100
AcDbEntity
  8
외형선
  6
Continuous
 62
     1
370
    15
100
AcDbSpline
210
0.0
220
0.0
230
1.0
 70
     8
 71
     3
 72
    10
 73
     6
 74
     0
 42
0.000000001
 43
0.00000001
 40
0.0
 40
0.0
 40
0.0
 40
0.0
 40
0.5
 40
0.5
 40
1.0
 40
1.0
 40
1.0
 40
1.0
 10
21.17666332788317
 20
-5.938253060969566
 30
0.0
 10
21.13845725318767
 20
-5.901142296001649
 30
0.0
 10
21.09499592334965
 20
-5.875582313578245
 30
0.0
 10
21.00570289257783
 20
-5.849434315540288
 30
0.0
 10
20.95896755927409
 20
-5.848630852915159
 30
0.0
 10
20.91616874220925
 20
-5.865476568546174
 30
0.0
  0
SPLINE
  5
1CD
330
1F
100
AcDbEntity
  8
외형선
  6
Continuous
 62
     1
370
    15
100
AcDbSpline
210
0.0
220
0.0
230
1.0
 70
     8
 71
     3
 72
    14
 73
    10
 74
     0
 42
0.000000001
 43
0.00000001
 40
0.0
 40
0.0
 40
0.0
 40
0.0
 40
0.25
 40
0.25
 40
0.5
 40
0.5
 40
0.75
 40
0.75
 40
1.0
 40
1.0
 40
1.0
 40
1.0
 10
20.91616874220923
 20
-5.865476568546185
 30
0.0
 10
20.83151239336733
 20
-5.898797507692487
 30
0.0
 10
20.74559760676756
 20
-5.911229222305683
 30
0.0
 10
20.5694608737719
 20
-5.904521946321407
 30
0.0
 10
20.48022034616426
 20
-5.884796355070911
 30
0.0
 10
20.3040118639836
 20
-5.817279487519031
 30
0.0
 10
20.21851725523062
 20
-5.770351921076318
 30
0.0
 10
20.05151002447368
 20
-5.651149991309892
 30
0.0
 10
19.97001858445019
 20
-5.578513796766416
 30
0.0
 10
19.89417037686141
 20
-5.4945559476316
 30
0.0
  0
SPLINE
  5
1CE
330
1F
100
AcDbEntity
  8
외형선
  6
Continuous
 62
     1
370
    15
100
AcDbSpline
210
0.0
220
0.0
230
1.0
 70
     8
 71
     3
 72
    10
 73
     6
 74
     0
 42
0.000000001
 43
0.00000001
 40
0.0
 40
0.0
 40
0.0
 40
0.0
 40
0.5
 40
0.5
 40
1.0
 40
1.0
 40
1.0
 40
1.0
 10
19.8941703768614
 20
-5.494555947631572
 30
0.0
 10
19.85572320438378
 20
-5.451998028213926
 30
0.0
 10
19.81212941807365
 20
-5.419654983494799
 30
0.0
 10
19.72271532861846
 20
-5.378700335984838
 30
0.0
 10
19.67595853126049
 20
-5.369703920170406
 30
0.0
 10
19.63327193923828
 20
-5.378331115460389
 30
0.0
  0
SPLINE
  5
1CF
330
1F
100
AcDbEntity
  8
외형선
  6
Continuous
 62
     1
370
    15
100
AcDbSpline
210
0.0
220
0.0
230
1.0
 70
     8
 71
     3
 72
     8
 73
     4
 74
     0
 42
0.000000001
 43
0.00000001
 40
0.0
 40
0.0
 40
0.0
 40
0.0
 40
1.0
 40
1.0
 40
1.0
 40
1.0
 10
19.63327193923827
 20
-5.378331115460373
 30
0.0
 10
19.50230544856243
 20
-5.404800164357891
 30
0.0
 10
19.36346681459268
 20
-5.381356575148316
 30
0.0
 10
19.22506941508547
 20
-5.32463037706627
 30
0.0
  0
SPLINE
  5
1D0
330
1F
100
AcDbEntity
  8
외형선
  6
Continuous
 62
     1
370
    15
100
AcDbSpline
210
0.0
220
0.0
230
1.0
 70
     8
 71
     3
 72
     8
 73
     4
 74
     0
 42
0.000000001
 43
0.00000001
 40
0.0
 40
0.0
 40
0.0
 40
0.0
 40
1.0
 40
1.0
 40
1.0
 40
1.0
 10
19.22506941508521
 20
-5.32463037706616
 30
0.0
 10
19.08225399653208
 20
-5.232563816173277
 30
0.0
 10
18.94400971835442
 20
-5.108097226925406
 30
0.0
 10
18.8202418470098
 20
-4.957894358204904
 30
0.0
  0
SPLINE
  5
1D1
330
1F
100
AcDbEntity
  8
외형선
  6
Continuous
 62
     1
370
    15
100
AcDbSpline
210
0.0
220
0.0
230
1.0
 70
     8
 71
     3
 72
    10
 73
     6
 74
     0
 42
0.000000001
 43
0.00000001
 40
0.0
 40
0.0
 40
0.0
 40
0.0
 40
0.5
 40
0.5
 40
1.0
 40
1.0
 40
1.0
 40
1.0
 10
18.82024184700981
 20
-4.957894358204932
 30
0.0
 10
18.78200844081063
 20
-4.911494858644316
 30
0.0
 10
18.73853027276422
 20
-4.873913801532907
 30
0.0
 10
18.64925864747563
 20
-4.820557582467323
 30
0.0
 10
18.60256896307708
 20
-4.804294267596238
 30
0.0
 10
18.55982758353319
 20
-4.804756643262134
 30
0.0
  0
SPLINE
  5
1D2
330
1F
100
AcDbEntity
  8
외형선
  6
Continuous
 62
     1
370
    15
100
AcDbSpline
210
0.0
220
0.0
230
1.0
 70
     8
 71
     3
 72
    14
 73
    10
 74
     0
 42
0.000000001
 43
0.00000001
 40
0.0
 40
0.0
 40
0.0
 40
0.0
 40
0.25
 40
0.25
 40
0.5
 40
0.5
 40
0.75
 40
0.75
 40
1.0
 40
1.0
 40
1.0
 40
1.0
 10
18.55982758353318
 20
-4.804756643262145
 30
0.0
 10
18.47536699501647
 20
-4.805670336766532
 30
0.0
 10
18.38978904620549
 20
-4.7864732088254
 30
0.0
 10
18.21444856813357
 20
-4.718756398432125
 30
0.0
 10
18.12552609356733
 20
-4.670160957965037
 30
0.0
 10
17.94966207131428
 20
-4.5503691896407
 30
0.0
 10
17.86424311481663
 20
-4.480451921014598
 30
0.0
 10
17.69724925793563
 20
-4.321665495532896
 30
0.0
 10
17.61566654342188
 20
-4.232473356585885
 30
0.0
 10
17.53973389279071
 20
-4.136299442056784
 30
0.0
  0
SPLINE
  5
1D3
330
1F
100
AcDbEntity
  8
외형선
  6
Continuous
 62
     1
370
    15
100
AcDbSpline
210
0.0
220
0.0
230
1.0
 70
     8
 71
     3
 72
    10
 73
     6
 74
     0
 42
0.000000001
 43
0.00000001
 40
0.0
 40
0.0
 40
0.0
 40
0.0
 40
0.5
 40
0.5
 40
1.0
 40
1.0
 40
1.0
 40
1.0
 10
17.5397338927907
 20
-4.136299442056782
 30
0.0
 10
17.50134665734469
 20
-4.087679373218069
 30
0.0
 10
17.45779434055377
 20
-4.045903638546975
 30
0.0
 10
17.36850133331136
 20
-3.981334563962339
 30
0.0
 10
17.32185129187831
 20
-3.957928140244644
 30
0.0
 10
17.27930203550061
 20
-3.949961016758089
 30
0.0
  0
SPLINE
  5
1D4
330
1F
100
AcDbEntity
  8
외형선
  6
Continuous
 62
     1
370
    15
100
AcDbSpline
210
0.0
220
0.0
230
1.0
 70
     8
 71
     3
 72
     8
 73
     4
 74
     0
 42
0.000000001
 43
0.00000001
 40
0.0
 40
0.0
 40
0.0
 40
0.0
 40
1.0
 40
1.0
 40
1.0
 40
1.0
 10
17.27930203550063
 20
-3.949961016758116
 30
0.0
 10
17.14828070580894
 20
-3.925427964904979
 30
0.0
 10
17.00952448062629
 20
-3.854450284012182
 30
0.0
 10
16.87152087890412
 20
-3.757794617839088
 30
0.0
  0
SPLINE
  5
1D5
330
1F
100
AcDbEntity
  8
외형선
  6
Continuous
 62
     1
370
    15
100
AcDbSpline
210
0.0
220
0.0
230
1.0
 70
     8
 71
     3
 72
     8
 73
     4
 74
     0
 42
0.000000001
 43
0.00000001
 40
0.0
 40
0.0
 40
0.0
 40
0.0
 40
1.0
 40
1.0
 40
1.0
 40
1.0
 10
16.87152087890409
 20
-3.757794617839075
 30
0.0
 10
16.72874712344743
 20
-3.631850137260239
 30
0.0
 10
16.59066871626015
 20
-3.483441282687826
 30
0.0
 10
16.46667108822442
 20
-3.322495524275935
 30
0.0
  0
SPLINE
  5
1D6
330
1F
100
AcDbEntity
  8
외형선
  6
Continuous
 62
     1
370
    15
100
AcDbSpline
210
0.0
220
0.0
230
1.0
 70
     8
 71
     3
 72
    10
 73
     6
 74
     0
 42
0.000000001
 43
0.00000001
 40
0.0
 40
0.0
 40
0.0
 40
0.0
 40
0.5
 40
0.5
 40
1.0
 40
1.0
 40
1.0
 40
1.0
 10
16.46667108822439
 20
-3.3224955242759
 30
0.0
 10
16.42841092341441
 20
-3.272834806245616
 30
0.0
 10
16.38489531563744
 20
-3.228096420892327
 30
0.0
 10
16.29550222475021
 20
-3.154452782361126
 30
0.0
 10
16.24871691686262
 20
-3.124843420723713
 30
0.0
 10
16.20586489092635
 20
-3.108929178385134
 30
0.0
  0
SPLINE
  5
1D7
330
1F
100
AcDbEntity
  8
외형선
  6
Continuous
 62
     1
370
    15
100
AcDbSpline
210
0.0
220
0.0
230
1.0
 70
     8
 71
     3
 72
    14
 73
    10
 74
     0
 42
0.000000001
 43
0.00000001
 40
0.0
 40
0.0
 40
0.0
 40
0.0
 40
0.25
 40
0.25
 40
0.5
 40
0.5
 40
0.75
 40
0.75
 40
1.0
 40
1.0
 40
1.0
 40
1.0
 10
16.20586489092636
 20
-3.108929178385102
 30
0.0
 10
16.12116174654781
 20
-3.077472407391713
 30
0.0
 10
16.03521036029493
 20
-3.029472760376027
 30
0.0
 10
15.85902596556358
 20
-2.910118645822604
 30
0.0
 10
15.76976556222392
 20
-2.83897562366588
 30
0.0
 10
15.59350089177144
 20
-2.682315043717577
 30
0.0
 10
15.50798337442393
 20
-2.598280962209444
 30
0.0
 10
15.3409505328236
 20
-2.420031521294316
 30
0.0
 10
15.25947442956652
 20
-2.325621248184837
 30
0.0
 10
15.18362145200664
 20
-2.229496548777589
 30
0.0
  0
SPLINE
  5
1D8
330
1F
100
AcDbEntity
  8
외형선
  6
Continuous
 62
     1
370
    15
100
AcDbSpline
210
0.0
220
0.0
230
1.0
 70
     8
 71
     3
 72
    10
 73
     6
 74
     0
 42
0.000000001
 43
0.00000001
 40
0.0
 40
0.0
 40
0.0
 40
0.0
 40
0.5
 40
0.5
 40
1.0
 40
1.0
 40
1.0
 40
1.0
 10
15.18362145200662
 20
-2.229496548777549
 30
0.0
 10
15.145238838747
 20
-2.180856175245304
 30
0.0
 10
15.10169864961101
 20
-2.13476087934049
 30
0.0
 10
15.01239143278388
 20
-2.054341753407669
 30
0.0
 10
14.96569286057469
 20
-2.019218197232318
 30
0.0
 10
14.92306913340805
 20
-1.995486500220999
 30
0.0
  0
SPLINE
  5
1D9
330
1F
100
AcDbEntity
  8
외형선
  6
Continuous
 62
     1
370
    15
100
AcDbSpline
210
0.0
220
0.0
230
1.0
 70
     8
 71
     3
 72
     8
 73
     4
 74
     0
 42
0.000000001
 43
0.00000001
 40
0.0
 40
0.0
 40
0.0
 40
0.0
 40
1.0
 40
1.0
 40
1.0
 40
1.0
 10
14.92306913340803
 20
-1.995486500220962
 30
0.0
 10
14.79224157965626
 20
-1.92264538395183
 30
0.0
 10
14.65352903701259
 20
-1.813792669550473
 30
0.0
 10
14.51526508175439
 20
-1.690527579099116
 30
0.0
  0
SPLINE
  5
1DA
330
1F
100
AcDbEntity
  8
외형선
  6
Continuous
 62
     1
370
    15
100
AcDbSpline
210
0.0
220
0.0
230
1.0
 70
     8
 71
     3
 72
     8
 73
     4
 74
     0
 42
0.000000001
 43
0.00000001
 40
0.0
 40
0.0
 40
0.0
 40
0.0
 40
1.0
 40
1.0
 40
1.0
 40
1.0
 10
14.51526508175439
 20
-1.690527579099119
 30
0.0
 10
14.37253793425356
 20
-1.548356338261856
 30
0.0
 10
14.23439972137036
 20
-1.396819353602084
 30
0.0
 10
14.11073587092038
 20
-1.247123718844153
 30
0.0
  0
SPLINE
  5
1DB
330
1F
100
AcDbEntity
  8
외형선
  6
Continuous
 62
     1
370
    15
100
AcDbSpline
210
0.0
220
0.0
230
1.0
 70
     8
 71
     3
 72
    10
 73
     6
 74
     0
 42
0.000000001
 43
0.00000001
 40
0.0
 40
0.0
 40
0.0
 40
0.0
 40
0.5
 40
0.5
 40
1.0
 40
1.0
 40
1.0
 40
1.0
 10
14.11073587092036
 20
-1.247123718844117
 30
0.0
 10
14.07251967918983
 20
-1.200862850705883
 30
0.0
 10
14.02905754306113
 20
-1.154961512873878
 30
0.0
 10
13.9398177283984
 20
-1.070849914979354
 30
0.0
 10
13.89314654265137
 20
-1.031828306720647
 30
0.0
 10
13.85042295137973
 20
-1.001579315742703
 30
0.0
  0
SPLINE
  5
1DC
330
1F
100
AcDbEntity
  8
외형선
  6
Continuous
 62
     1
370
    15
100
AcDbSpline
210
0.0
220
0.0
230
1.0
 70
     8
 71
     3
 72
    10
 73
     6
 74
     0
 42
0.000000001
 43
0.00000001
 40
0.0
 40
0.0
 40
0.0
 40
0.0
 40
0.5
 40
0.5
 40
1.0
 40
1.0
 40
1.0
 40
1.0
 10
12.83010693135529
 20
-0.0283978084015213
 30
0.0
 10
12.79168353300827
 20
0.0135009685350674
 30
0.0
 10
12.74809509243309
 20
0.0574798341818906
 30
0.0
 10
12.65873655953845
 20
0.1424939796971212
 30
0.0
 10
12.61205424502898
 20
0.1843736928345656
 30
0.0
 10
12.56946933019173
 20
0.2205249881620773
 30
0.0
  0
SPLINE
  5
1DD
330
1F
100
AcDbEntity
  8
외형선
  6
Continuous
 62
     1
370
    15
100
AcDbSpline
210
0.0
220
0.0
230
1.0
 70
     8
 71
     3
 72
    10
 73
     6
 74
     0
 42
0.000000001
 43
0.00000001
 40
0.0
 40
0.0
 40
0.0
 40
0.0
 40
0.5
 40
0.5
 40
1.0
 40
1.0
 40
1.0
 40
1.0
 10
11.75583091273469
 20
0.9975016352824343
 30
0.0
 10
11.71754532480079
 20
1.03446826841188
 30
0.0
 10
11.67401207783866
 20
1.075645413722383
 30
0.0
 10
11.58458864986974
 20
1.159347342023325
 30
0.0
 10
11.53778417951841
 20
1.20270923855996
 30
0.0
 10
11.4949186091279
 20
1.243294450849166
 30
0.0
  0
SPLINE
  5
1DE
330
1F
100
AcDbEntity
  8
외형선
  6
Continuous
 62
     1
370
    15
100
AcDbSpline
210
0.0
220
0.0
230
1.0
 70
     8
 71
     3
 72
    10
 73
     6
 74
     0
 42
0.000000001
 43
0.00000001
 40
0.0
 40
0.0
 40
0.0
 40
0.0
 40
0.5
 40
0.5
 40
1.0
 40
1.0
 40
1.0
 40
1.0
 10
10.47383418122161
 20
2.183175821941144
 30
0.0
 10
10.43548566694512
 20
2.21316456721746
 30
0.0
 10
10.39197662858827
 20
2.249573194629994
 30
0.0
 10
10.30272782327574
 20
2.32857452159587
 30
0.0
 10
10.2560621768727
 20
2.371976489053387
 30
0.0
 10
10.21347419295512
 20
2.415983593972157
 30
0.0
  0
SPLINE
  5
1DF
330
1F
100
AcDbEntity
  8
외형선
  6
Continuous
 62
     1
370
    15
100
AcDbSpline
210
0.0
220
0.0
230
1.0
 70
     8
 71
     3
 72
     8
 73
     4
 74
     0
 42
0.000000001
 43
0.00000001
 40
0.0
 40
0.0
 40
0.0
 40
0.0
 40
1.0
 40
1.0
 40
1.0
 40
1.0
 10
10.21347419295511
 20
2.415983593972152
 30
0.0
 10
10.14415482595924
 20
2.487612827753076
 30
0.0
 10
10.07250478476315
 20
2.560513050757961
 30
0.0
 10
10.00000000000007
 20
2.631956302916062
 30
0.0
  0
SPLINE
  5
1E0
330
1F
100
AcDbEntity
  8
외형선
  6
Continuous
370
    15
100
AcDbSpline
210
0.0
220
0.0
230
1.0
 70
     8
 71
     3
 72
     8
 73
     4
 74
     0
 42
0.000000001
 43
0.00000001
 40
0.0
 40
0.0
 40
0.0
 40
0.0
 40
1.0
 40
1.0
 40
1.0
 40
1.0
 10
9.00000000000008
 20
-6.264816207817995
 30
0.0
 10
8.658832388577078
 20
-6.220343531829926
 30
0.0
 10
8.314045414190279
 20
-6.149050845169454
 30
0.0
 10
7.969783843699847
 20
-6.05188862296692
 30
0.0
  0
SPLINE
  5
1E1
330
1F
100
AcDbEntity
  8
외형선
  6
Continuous
370
    15
100
AcDbSpline
210
0.0
220
0.0
230
1.0
 70
     8
 71
     3
 72
     8
 73
     4
 74
     0
 42
0.000000001
 43
0.00000001
 40
0.0
 40
0.0
 40
0.0
 40
0.0
 40
1.0
 40
1.0
 40
1.0
 40
1.0
 10
9.000000000000007
 20
-6.264816207818008
 30
0.0
 10
9.033293892890672
 20
-6.266591609283073
 30
0.0
 10
9.066600642437514
 20
-6.268100162048488
 30
0.0
 10
9.09992038793304
 20
-6.269343365659781
 30
0.0
  0
SPLINE
  5
1E2
330
1F
100
AcDbEntity
  8
외형선
  6
Continuous
370
    15
100
AcDbSpline
210
0.0
220
0.0
230
1.0
 70
     8
 71
     3
 72
     8
 73
     4
 74
     0
 42
0.000000001
 43
0.00000001
 40
0.0
 40
0.0
 40
0.0
 40
0.0
 40
1.0
 40
1.0
 40
1.0
 40
1.0
 10
9.09992038793321
 20
-6.26934336566092
 30
0.0
 10
9.224220183733392
 20
-6.260925800381559
 30
0.0
 10
9.344855097961837
 20
-6.22199252417624
 30
0.0
 10
9.453996168820344
 20
-6.151901050288308
 30
0.0
  0
SPLINE
  5
1E3
330
1F
100
AcDbEntity
  8
외형선
  6
Continuous
370
    15
100
AcDbSpline
210
0.0
220
0.0
230
1.0
 70
     8
 71
     3
 72
    10
 73
     6
 74
     0
 42
0.000000001
 43
0.00000001
 40
0.0
 40
0.0
 40
0.0
 40
0.0
 40
0.5
 40
0.5
 40
1.0
 40
1.0
 40
1.0
 40
1.0
 10
9.453996168819295
 20
-6.151901050289182
 30
0.0
 10
9.492198048058919
 20
-6.127367426052841
 30
0.0
 10
9.535656171571068
 20
-6.11556246241582
 30
0.0
 10
9.624932753149013
 20
-6.116955213245474
 30
0.0
 10
9.67164880913257
 20
-6.130210288948239
 30
0.0
 10
9.714418507643602
 20
-6.159900083210759
 30
0.0
  0
SPLINE
  5
1E4
330
1F
100
AcDbEntity
  8
외형선
  6
Continuous
370
    15
100
AcDbSpline
210
0.0
220
0.0
230
1.0
 70
     8
 71
     3
 72
     8
 73
     4
 74
     0
 42
0.000000001
 43
0.00000001
 40
0.0
 40
0.0
 40
0.0
 40
0.0
 40
1.0
 40
1.0
 40
1.0
 40
1.0
 10
9.71441850764466
 20
-6.159900083210593
 30
0.0
 10
9.769086241039075
 20
-6.197849234450419
 30
0.0
 10
9.824273239748067
 20
-6.227575890278977
 30
0.0
 10
9.880213428412976
 20
-6.250638634298597
 30
0.0
  0
SPLINE
  5
1E5
330
1F
100
AcDbEntity
  8
외형선
  6
Continuous
 62
     1
370
    15
100
AcDbSpline
210
0.0
220
0.0
230
1.0
 70
     8
 71
     3
 72
    11
 73
     7
 74
     0
 42
0.000000001
 43
0.00000001
 40
0.0
 40
0.0
 40
0.0
 40
0.0
 40
0.0586598293580774
 40
0.2644278716560805
 40
0.7589554545367485
 40
1.0
 40
1.0
 40
1.0
 40
1.0
 10
26.51805570184077
 20
5.380149107178413
 30
0.0
 10
26.53233043300977
 20
5.390972827816995
 30
0.0
 10
26.59667833212212
 20
5.439764197365474
 30
0.0
 10
26.78199603599155
 20
5.53889448508977
 30
0.0
 10
27.01096273391938
 20
5.617978855045834
 30
0.0
 10
27.16925904083631
 20
5.60680518974142
 30
0.0
 10
27.22113221530691
 20
5.603143616700955
 30
0.0
  0
SPLINE
  5
1E6
330
1F
100
AcDbEntity
  8
외형선
  6
Continuous
 62
     1
370
    15
100
AcDbSpline
210
0.0
220
0.0
230
1.0
 70
     8
 71
     3
 72
    10
 73
     6
 74
     0
 42
0.000000001
 43
0.00000001
 40
0.0
 40
0.0
 40
0.0
 40
0.0
 40
0.5
 40
0.5
 40
1.0
 40
1.0
 40
1.0
 40
1.0
 10
27.22113221530696
 20
5.60314361670095
 30
0.0
 10
27.25963902742597
 20
5.597453367936967
 30
0.0
 10
27.30329586541632
 20
5.604059694986446
 30
0.0
 10
27.39275732628985
 20
5.638798454467782
 30
0.0
 10
27.43948588675015
 20
5.667311780431427
 30
0.0
 10
27.48212065837948
 20
5.708571726670677
 30
0.0
  0
SPLINE
  5
1E7
330
1F
100
AcDbEntity
  8
외형선
  6
Continuous
 62
     1
370
    15
100
AcDbSpline
210
0.0
220
0.0
230
1.0
 70
     8
 71
     3
 72
     8
 73
     4
 74
     0
 42
0.000000001
 43
0.00000001
 40
0.0
 40
0.0
 40
0.0
 40
0.0
 40
1.0
 40
1.0
 40
1.0
 40
1.0
 10
27.48212065837947
 20
5.708571726670674
 30
0.0
 10
27.61329957444246
 20
5.835520571888835
 30
0.0
 10
27.75190593040182
 20
5.930670926312877
 30
0.0
 10
27.89028266582453
 20
5.993137841333821
 30
0.0
  0
SPLINE
  5
1E8
330
1F
100
AcDbEntity
  8
외형선
  6
Continuous
 62
     1
370
    15
100
AcDbSpline
210
0.0
220
0.0
230
1.0
 70
     8
 71
     3
 72
     8
 73
     4
 74
     0
 42
0.000000001
 43
0.00000001
 40
0.0
 40
0.0
 40
0.0
 40
0.0
 40
1.0
 40
1.0
 40
1.0
 40
1.0
 10
27.89028260951079
 20
5.993137828686508
 30
0.0
 10
28.03293376783074
 20
6.025175220385347
 30
0.0
 10
28.17122036517859
 20
6.019827234555747
 30
0.0
 10
28.29511733322304
 20
5.973573467116752
 30
0.0
  0
SPLINE
  5
1E9
330
1F
100
AcDbEntity
  8
외형선
  6
Continuous
 62
     1
370
    15
100
AcDbSpline
210
0.0
220
0.0
230
1.0
 70
     8
 71
     3
 72
    10
 73
     6
 74
     0
 42
0.000000001
 43
0.00000001
 40
0.0
 40
0.0
 40
0.0
 40
0.0
 40
0.5
 40
0.5
 40
1.0
 40
1.0
 40
1.0
 40
1.0
 10
28.29511733322305
 20
5.973573467116751
 30
0.0
 10
28.33333357151569
 20
5.959306410979047
 30
0.0
 10
28.37680235799744
 20
5.957785405002035
 30
0.0
 10
28.46609233372531
 20
5.978204648876807
 30
0.0
 10
28.51281251279003
 20
6.000387005163359
 30
0.0
 10
28.55558213570126
 20
6.037151897193229
 30
0.0
  0
SPLINE
  5
1EA
330
1F
100
AcDbEntity
  8
외형선
  6
Continuous
 62
     1
370
    15
100
AcDbSpline
210
0.0
220
0.0
230
1.0
 70
     8
 71
     3
 72
    14
 73
    10
 74
     0
 42
0.000000001
 43
0.00000001
 40
0.0
 40
0.0
 40
0.0
 40
0.0
 40
0.25
 40
0.25
 40
0.5
 40
0.5
 40
0.75
 40
0.75
 40
1.0
 40
1.0
 40
1.0
 40
1.0
 10
28.55558213570128
 20
6.037151897193239
 30
0.0
 10
28.64016457307748
 20
6.109859205934606
 30
0.0
 10
28.72597216757937
 20
6.165591921192232
 30
0.0
 10
28.90181156643905
 20
6.25012862995793
 30
0.0
 10
28.99084724129223
 20
6.277918582758384
 30
0.0
 10
29.16658618491865
 20
6.304486607726514
 30
0.0
 10
29.25174168401382
 20
6.303366606957149
 30
0.0
 10
29.41835447741072
 20
6.272551021686984
 30
0.0
 10
29.49980720917236
 20
6.24241889222582
 30
0.0
 10
29.57567331188223
 20
6.197265615762571
 30
0.0
  0
SPLINE
  5
1EB
330
1F
100
AcDbEntity
  8
외형선
  6
Continuous
 62
     1
370
    15
100
AcDbSpline
210
0.0
220
0.0
230
1.0
 70
     8
 71
     3
 72
    10
 73
     6
 74
     0
 42
0.000000001
 43
0.00000001
 40
0.0
 40
0.0
 40
0.0
 40
0.0
 40
0.5
 40
0.5
 40
1.0
 40
1.0
 40
1.0
 40
1.0
 10
29.57567331188199
 20
6.197265615762794
 30
0.0
 10
29.61403516757808
 20
6.174433765779503
 30
0.0
 10
29.65756374119963
 20
6.16431204679572
 30
0.0
 10
29.74683965188578
 20
6.168967844246521
 30
0.0
 10
29.79350330713617
 20
6.183832426305741
 30
0.0
 10
29.83607550599827
 20
6.214997972494362
 30
0.0
  0
SPLINE
  5
1EC
330
1F
100
AcDbEntity
  8
외형선
  6
Continuous
 62
     1
370
    15
100
AcDbSpline
210
0.0
220
0.0
230
1.0
 70
     8
 71
     3
 72
    13
 73
     9
 74
     0
 42
0.000000001
 43
0.00000001
 40
0.0
 40
0.0
 40
0.0
 40
0.0
 40
0.1963668312260387
 40
0.3941752309273002
 40
0.585289588468841
 40
0.7774189573184858
 40
0.9724501511976551
 40
1.0
 40
1.0
 40
1.0
 40
1.0
 10
29.83607550599606
 20
6.214997972492749
 30
0.0
 10
29.85818437109491
 20
6.23036478051721
 30
0.0
 10
29.90256440692617
 20
6.261211207400194
 30
0.0
 10
29.97008825692052
 20
6.297908714373649
 30
0.0
 10
30.03781031182508
 20
6.328252314555008
 30
0.0
 10
30.10576149322208
 20
6.351261370710068
 30
0.0
 10
30.15469191779119
 20
6.364851620839923
 30
0.0
 10
30.18097958896572
 20
6.368919558323153
 30
0.0
 10
30.18423333132176
 20
6.369423065096464
 30
0.0
  0
LINE
  5
1ED
330
1F
100
AcDbEntity
  8
외형선
  6
Continuous
 62
     1
370
    15
100
AcDbLine
 10
30.21743245441029
 20
6.374728845599813
 30
0.0
 11
30.24388883434542
 21
6.378957021882501
 31
0.0
  0
SPLINE
  5
1EE
330
1F
100
AcDbEntity
  8
외형선
  6
Continuous
 62
     1
370
    15
100
AcDbSpline
210
0.0
220
0.0
230
1.0
 70
     8
 71
     3
 72
     8
 73
     4
 74
     0
 42
0.000000001
 43
0.00000001
 40
0.0
 40
0.0
 40
0.0
 40
0.0
 40
1.0
 40
1.0
 40
1.0
 40
1.0
 10
30.24388877805628
 20
6.378957029824243
 30
0.0
 10
30.38681179606668
 20
6.358792243656641
 30
0.0
 10
30.52502064816506
 20
6.299317800014259
 30
0.0
 10
30.64875872388679
 20
6.201464460732831
 30
0.0
  0
SPLINE
  5
1EF
330
1F
100
AcDbEntity
  8
외형선
  6
Continuous
 62
     1
370
    15
100
AcDbSpline
210
0.0
220
0.0
230
1.0
 70
     8
 71
     3
 72
    10
 73
     6
 74
     0
 42
0.000000001
 43
0.00000001
 40
0.0
 40
0.0
 40
0.0
 40
0.0
 40
0.5
 40
0.5
 40
1.0
 40
1.0
 40
1.0
 40
1.0
 10
30.64875872388662
 20
6.201464460732972
 30
0.0
 10
30.68705266600413
 20
6.171181218581414
 30
0.0
 10
30.73058034505257
 20
6.153340597278578
 30
0.0
 10
30.81990984354464
 20
6.1429388974685
 30
0.0
 10
30.86662199876532
 20
6.150297165460836
 30
0.0
 10
30.90945669581055
 20
6.174857190000001
 30
0.0
  0
SPLINE
  5
1F0
330
1F
100
AcDbEntity
  8
외형선
  6
Continuous
 62
     1
370
    15
100
AcDbSpline
210
0.0
220
0.0
230
1.0
 70
     8
 71
     3
 72
    14
 73
    10
 74
     0
 42
0.000000001
 43
0.00000001
 40
0.0
 40
0.0
 40
0.0
 40
0.0
 40
0.25
 40
0.25
 40
0.5
 40
0.5
 40
0.75
 40
0.75
 40
1.0
 40
1.0
 40
1.0
 40
1.0
 10
30.90945669581056
 20
6.17485719000002
 30
0.0
 10
30.99416465624643
 20
6.223425984236402
 30
0.0
 10
31.07972674031891
 20
6.251538418732078
 30
0.0
 10
31.25449325571326
 20
6.277215884413414
 30
0.0
 10
31.34420342064631
 20
6.274039679402869
 30
0.0
 10
31.52073276439249
 20
6.238039307610035
 30
0.0
 10
31.60643463620672
 20
6.205918182725474
 30
0.0
 10
31.77391716930711
 20
6.114143331452522
 30
0.0
 10
31.85569733094583
 20
6.054070601416507
 30
0.0
 10
31.93179511183725
 20
5.980892003291512
 30
0.0
  0
SPLINE
  5
1F1
330
1F
100
AcDbEntity
  8
외형선
  6
Continuous
 62
     1
370
    15
100
AcDbSpline
210
0.0
220
0.0
230
1.0
 70
     8
 71
     3
 72
    10
 73
     6
 74
     0
 42
0.000000001
 43
0.00000001
 40
0.0
 40
0.0
 40
0.0
 40
0.0
 40
0.5
 40
0.5
 40
1.0
 40
1.0
 40
1.0
 40
1.0
 10
31.9317951118373
 20
5.980892003291469
 30
0.0
 10
31.97023758964477
 20
5.943924215250242
 30
0.0
 10
32.01383253327103
 20
5.918457349836864
 30
0.0
 10
32.10317673859125
 20
5.892507801258032
 30
0.0
 10
32.14984208376856
 20
5.891800918924655
 30
0.0
 10
32.19241161006449
 20
5.908798869524855
 30
0.0
  0
SPLINE
  5
1F2
330
1F
100
AcDbEntity
  8
외형선
  6
Continuous
 62
     1
370
    15
100
AcDbSpline
210
0.0
220
0.0
230
1.0
 70
     8
 71
     3
 72
     8
 73
     4
 74
     0
 42
0.000000001
 43
0.00000001
 40
0.0
 40
0.0
 40
0.0
 40
0.0
 40
1.0
 40
1.0
 40
1.0
 40
1.0
 10
32.1924116100645
 20
5.908798869524869
 30
0.0
 10
32.32341677768233
 20
5.961109044462208
 30
0.0
 10
32.4618823363848
 20
5.963614901617478
 30
0.0
 10
32.60014485793823
 20
5.930692635394313
 30
0.0
  0
SPLINE
  5
1F3
330
1F
100
AcDbEntity
  8
외형선
  6
Continuous
 62
     1
370
    15
100
AcDbSpline
210
0.0
220
0.0
230
1.0
 70
     8
 71
     3
 72
     8
 73
     4
 74
     0
 42
0.000000001
 43
0.00000001
 40
0.0
 40
0.0
 40
0.0
 40
0.0
 40
1.0
 40
1.0
 40
1.0
 40
1.0
 10
32.60014480164205
 20
5.930692662916036
 30
0.0
 10
32.74270302251751
 20
5.860993751635898
 30
0.0
 10
32.88087696714372
 20
5.755361352668599
 30
0.0
 10
33.0046603085141
 20
5.618484219893214
 30
0.0
  0
SPLINE
  5
1F4
330
1F
100
AcDbEntity
  8
외형선
  6
Continuous
 62
     1
370
    15
100
AcDbSpline
210
0.0
220
0.0
230
1.0
 70
     8
 71
     3
 72
    10
 73
     6
 74
     0
 42
0.000000001
 43
0.00000001
 40
0.0
 40
0.0
 40
0.0
 40
0.0
 40
0.5
 40
0.5
 40
1.0
 40
1.0
 40
1.0
 40
1.0
 10
33.0046603085141
 20
5.618484219893214
 30
0.0
 10
33.04285670567437
 20
5.576247411064425
 30
0.0
 10
33.08630749346712
 20
5.544417576335154
 30
0.0
 10
33.17556281587446
 20
5.504617633492303
 30
0.0
 10
33.2222628838227
 20
5.496299775861882
 30
0.0
 10
33.26501184212839
 20
5.505473384210489
 30
0.0
  0
SPLINE
  5
1F5
330
1F
100
AcDbEntity
  8
외형선
  6
Continuous
 62
     1
370
    15
100
AcDbSpline
210
0.0
220
0.0
230
1.0
 70
     8
 71
     3
 72
    14
 73
    10
 74
     0
 42
0.000000001
 43
0.00000001
 40
0.0
 40
0.0
 40
0.0
 40
0.0
 40
0.25
 40
0.25
 40
0.5
 40
0.5
 40
0.75
 40
0.75
 40
1.0
 40
1.0
 40
1.0
 40
1.0
 10
33.26501184212842
 20
5.5054733842105
 30
0.0
 10
33.34960259425725
 20
5.523625930160152
 30
0.0
 10
33.43541840862725
 20
5.520931166178265
 30
0.0
 10
33.61127280542357
 20
5.484447914306957
 30
0.0
 10
33.70030919437087
 20
5.45025764520815
 30
0.0
 10
33.87604113110325
 20
5.355934806135277
 30
0.0
 10
33.9611954888914
 20
5.296860886986976
 30
0.0
 10
34.12787330510673
 20
5.156192192698913
 30
0.0
 10
34.20935377144564
 20
5.074218453352182
 30
0.0
 10
34.28525221317923
 20
4.982858435528258
 30
0.0
  0
SPLINE
  5
1F6
330
1F
100
AcDbEntity
  8
외형선
  6
Continuous
 62
     1
370
    15
100
AcDbSpline
210
0.0
220
0.0
230
1.0
 70
     8
 71
     3
 72
    10
 73
     6
 74
     0
 42
0.000000001
 43
0.00000001
 40
0.0
 40
0.0
 40
0.0
 40
0.0
 40
0.5
 40
0.5
 40
1.0
 40
1.0
 40
1.0
 40
1.0
 10
34.28525221317762
 20
4.982858435530193
 30
0.0
 10
34.32364762748184
 20
4.936641337325425
 30
0.0
 10
34.36721038875285
 20
4.89917392411934
 30
0.0
 10
34.45654902401736
 20
4.846065026861487
 30
0.0
 10
34.50324334374312
 20
4.829924465006956
 30
0.0
 10
34.54584831256248
 20
4.830617939363814
 30
0.0
  0
SPLINE
  5
1F7
330
1F
100
AcDbEntity
  8
외형선
  6
Continuous
 62
     1
370
    15
100
AcDbSpline
210
0.0
220
0.0
230
1.0
 70
     8
 71
     3
 72
     8
 73
     4
 74
     0
 42
0.000000001
 43
0.00000001
 40
0.0
 40
0.0
 40
0.0
 40
0.0
 40
1.0
 40
1.0
 40
1.0
 40
1.0
 10
34.54584831256248
 20
4.830617939363809
 30
0.0
 10
34.67687843216562
 20
4.832750695951574
 30
0.0
 10
34.81575496345106
 20
4.78581363783745
 30
0.0
 10
34.95405144719273
 20
4.708793233456267
 30
0.0
  0
SPLINE
  5
1F8
330
1F
100
AcDbEntity
  8
외형선
  6
Continuous
 62
     1
370
    15
100
AcDbSpline
210
0.0
220
0.0
230
1.0
 70
     8
 71
     3
 72
     8
 73
     4
 74
     0
 42
0.000000001
 43
0.00000001
 40
0.0
 40
0.0
 40
0.0
 40
0.0
 40
1.0
 40
1.0
 40
1.0
 40
1.0
 10
34.95405139083249
 20
4.708793276827424
 30
0.0
 10
35.09716983961488
 20
4.598657063627413
 30
0.0
 10
35.23557299685923
 20
4.460356507504363
 30
0.0
 10
35.359512005551
 20
4.302201729763063
 30
0.0
  0
SPLINE
  5
1F9
330
1F
100
AcDbEntity
  8
외형선
  6
Continuous
 62
     1
370
    15
100
AcDbSpline
210
0.0
220
0.0
230
1.0
 70
     8
 71
     3
 72
    10
 73
     6
 74
     0
 42
0.000000001
 43
0.00000001
 40
0.0
 40
0.0
 40
0.0
 40
0.0
 40
0.5
 40
0.5
 40
1.0
 40
1.0
 40
1.0
 40
1.0
 10
35.359512005551
 20
4.302201729763064
 30
0.0
 10
35.3978407527711
 20
4.25329158789827
 30
0.0
 10
35.44139205326463
 20
4.211440717642042
 30
0.0
 10
35.53075959910347
 20
4.146919089583888
 30
0.0
 10
35.57752540952362
 20
4.123646959064716
 30
0.0
 10
35.62039976800438
 20
4.115985103345981
 30
0.0
  0
SPLINE
  5
1FA
330
1F
100
AcDbEntity
  8
외형선
  6
Continuous
 62
     1
370
    15
100
AcDbSpline
210
0.0
220
0.0
230
1.0
 70
     8
 71
     3
 72
    14
 73
    10
 74
     0
 42
0.000000001
 43
0.00000001
 40
0.0
 40
0.0
 40
0.0
 40
0.0
 40
0.25
 40
0.25
 40
0.5
 40
0.5
 40
0.75
 40
0.75
 40
1.0
 40
1.0
 40
1.0
 40
1.0
 10
35.6203997680044
 20
4.11598510334598
 30
0.0
 10
35.70503315409132
 20
4.100860706943012
 30
0.0
 10
35.79051507167021
 20
4.067278661981126
 30
0.0
 10
35.96511026458459
 20
3.974147682663247
 30
0.0
 10
36.05473723688145
 20
3.913629377357475
 30
0.0
 10
36.23109504987243
 20
3.773937163483052
 30
0.0
 10
36.31670176778509
 20
3.695995753108489
 30
0.0
 10
36.48398055905803
 20
3.525111362561508
 30
0.0
 10
36.56565991801866
 20
3.431896876999867
 30
0.0
 10
36.64165411493564
 20
3.334132359882304
 30
0.0
  0
SPLINE
  5
1FB
330
1F
100
AcDbEntity
  8
외형선
  6
Continuous
 62
     1
370
    15
100
AcDbSpline
210
0.0
220
0.0
230
1.0
 70
     8
 71
     3
 72
    10
 73
     6
 74
     0
 42
0.000000001
 43
0.00000001
 40
0.0
 40
0.0
 40
0.0
 40
0.0
 40
0.5
 40
0.5
 40
1.0
 40
1.0
 40
1.0
 40
1.0
 10
36.64165411493568
 20
3.334132359882259
 30
0.0
 10
36.68005899240953
 20
3.28472550444444
 30
0.0
 10
36.72361799773567
 20
3.240174033724557
 30
0.0
 10
36.81289325921509
 20
3.166801545632801
 30
0.0
 10
36.85952065961837
 20
3.137270625117734
 30
0.0
 10
36.90205190050848
 20
3.121414289770163
 30
0.0
  0
SPLINE
  5
1FC
330
1F
100
AcDbEntity
  8
외형선
  6
Continuous
 62
     1
370
    15
100
AcDbSpline
210
0.0
220
0.0
230
1.0
 70
     8
 71
     3
 72
     8
 73
     4
 74
     0
 42
0.000000001
 43
0.00000001
 40
0.0
 40
0.0
 40
0.0
 40
0.0
 40
1.0
 40
1.0
 40
1.0
 40
1.0
 10
36.90205190050848
 20
3.121414289770149
 30
0.0
 10
37.03296051725617
 20
3.072609437534554
 30
0.0
 10
37.1713666046012
 20
2.98132296951677
 30
0.0
 10
37.30958355380317
 20
2.869879662024054
 30
0.0
  0
SPLINE
  5
1FD
330
1F
100
AcDbEntity
  8
외형선
  6
Continuous
 62
     1
370
    15
100
AcDbSpline
210
0.0
220
0.0
230
1.0
 70
     8
 71
     3
 72
     8
 73
     4
 74
     0
 42
0.000000001
 43
0.00000001
 40
0.0
 40
0.0
 40
0.0
 40
0.0
 40
1.0
 40
1.0
 40
1.0
 40
1.0
 10
37.30958349756306
 20
2.86987971564671
 30
0.0
 10
37.45213001776553
 20
2.733967399571872
 30
0.0
 10
37.59027588728318
 20
2.581825394362923
 30
0.0
 10
37.71403538589296
 20
2.423920938450892
 30
0.0
  0
SPLINE
  5
1FE
330
1F
100
AcDbEntity
  8
외형선
  6
Continuous
 62
     1
370
    15
100
AcDbSpline
210
0.0
220
0.0
230
1.0
 70
     8
 71
     3
 72
    10
 73
     6
 74
     0
 42
0.000000001
 43
0.00000001
 40
0.0
 40
0.0
 40
0.0
 40
0.0
 40
0.5
 40
0.5
 40
1.0
 40
1.0
 40
1.0
 40
1.0
 10
37.71403538589229
 20
2.42392093845175
 30
0.0
 10
37.75223895486877
 20
2.375177093810363
 30
0.0
 10
37.79569797962868
 20
2.329211043875818
 30
0.0
 10
37.8849672921272
 20
2.249408916197415
 30
0.0
 10
37.93167260788045
 20
2.214812368989834
 30
0.0
 10
37.97442800091054
 20
2.191734159716404
 30
0.0
  0
SPLINE
  5
1FF
330
1F
100
AcDbEntity
  8
외형선
  6
Continuous
 62
     1
370
    15
100
AcDbSpline
210
0.0
220
0.0
230
1.0
 70
     8
 71
     3
 72
    14
 73
    10
 74
     0
 42
0.000000001
 43
0.00000001
 40
0.0
 40
0.0
 40
0.0
 40
0.0
 40
0.25
 40
0.25
 40
0.5
 40
0.5
 40
0.75
 40
0.75
 40
1.0
 40
1.0
 40
1.0
 40
1.0
 10
37.97442800090664
 20
2.191734159718535
 30
0.0
 10
38.05908008067879
 20
2.146041247691435
 30
0.0
 10
38.14495419523497
 20
2.086214226781617
 30
0.0
 10
38.32091923127173
 20
1.947095895456344
 30
0.0
 10
38.41000453136773
 20
1.868224409252501
 30
0.0
 10
38.58582381279209
 20
1.70078481318939
 30
0.0
 10
38.67103736186166
 20
1.613701411042589
 30
0.0
 10
38.83788288502178
 20
1.434562967619433
 30
0.0
 10
38.91944060904053
 20
1.342350415513774
 30
0.0
 10
38.99542412148772
 20
1.251134507096902
 30
0.0
  0
SPLINE
  5
200
330
1F
100
AcDbEntity
  8
외형선
  6
Continuous
 62
     1
370
    15
100
AcDbSpline
210
0.0
220
0.0
230
1.0
 70
     8
 71
     3
 72
    10
 73
     6
 74
     0
 42
0.000000001
 43
0.00000001
 40
0.0
 40
0.0
 40
0.0
 40
0.0
 40
0.5
 40
0.5
 40
1.0
 40
1.0
 40
1.0
 40
1.0
 10
38.99542412148778
 20
1.25113450709685
 30
0.0
 10
39.03387989022444
 20
1.204969519901481
 30
0.0
 10
39.07750281783363
 20
1.159144393331328
 30
0.0
 10
39.16695245216671
 20
1.075161267040864
 30
0.0
 10
39.2137026856477
 20
1.036167655421441
 30
0.0
 10
39.25636734070245
 20
1.005979936548484
 30
0.0
  0
SPLINE
  5
201
330
1F
100
AcDbEntity
  8
외형선
  6
Continuous
 62
     1
370
    15
100
AcDbSpline
210
0.0
220
0.0
230
1.0
 70
     8
 71
     3
 72
     8
 73
     4
 74
     0
 42
0.000000001
 43
0.00000001
 40
0.0
 40
0.0
 40
0.0
 40
0.0
 40
1.0
 40
1.0
 40
1.0
 40
1.0
 10
39.25636734070245
 20
1.005979936548482
 30
0.0
 10
39.38755823902776
 20
0.9131547642307045
 30
0.0
 10
39.52657145746995
 20
0.7906880109399069
 30
0.0
 10
39.6649925738859
 20
0.659833591970241
 30
0.0
  0
SPLINE
  5
202
330
1F
100
AcDbEntity
  8
외형선
  6
Continuous
 62
     1
370
    15
100
AcDbSpline
210
0.0
220
0.0
230
1.0
 70
     8
 71
     3
 72
     8
 73
     4
 74
     0
 42
0.000000001
 43
0.00000001
 40
0.0
 40
0.0
 40
0.0
 40
0.0
 40
1.0
 40
1.0
 40
1.0
 40
1.0
 10
39.66499251751121
 20
0.659833648751089
 30
0.0
 10
39.80802337629449
 20
0.5157723155736073
 30
0.0
 10
39.94634067383307
 20
0.3689937523193509
 30
0.0
 10
40.07014170569673
 20
0.2310346394015178
 30
0.0
  0
SPLINE
  5
203
330
1F
100
AcDbEntity
  8
외형선
  6
Continuous
 62
     1
370
    15
100
AcDbSpline
210
0.0
220
0.0
230
1.0
 70
     8
 71
     3
 72
    10
 73
     6
 74
     0
 42
0.000000001
 43
0.00000001
 40
0.0
 40
0.0
 40
0.0
 40
0.0
 40
0.5
 40
0.5
 40
1.0
 40
1.0
 40
1.0
 40
1.0
 10
40.07014170569671
 20
0.2310346394015212
 30
0.0
 10
40.10839938431283
 20
0.1884017523833363
 30
0.0
 10
40.15187412972768
 20
0.1438658659197749
 30
0.0
 10
40.24111835677375
 20
0.0581585129816348
 30
0.0
 10
40.2878459639297
 20
0.0161841499514418
 30
0.0
 10
40.33066406752175
 20
-0.0197533305314515
 30
0.0
  0
SPLINE
  5
204
330
1F
100
AcDbEntity
  8
외형선
  6
Continuous
 62
     1
370
    15
100
AcDbSpline
210
0.0
220
0.0
230
1.0
 70
    24
 71
     3
 72
    16
 73
    12
 74
     0
 42
0.000000001
 43
0.00000001
 40
0.0
 40
0.0
 40
0.0
 40
0.0
 40
0.2500000000000007
 40
0.2500000000000007
 40
0.5000000000000013
 40
0.5000000000000013
 40
0.750000000000002
 40
0.750000000000002
 40
0.875000000000001
 40
0.875000000000001
 40
1.0
 40
1.0
 40
1.0
 40
1.0
 10
41.19598499179741
 20
-0.8419862784823043
 30
0.0
 10
41.19293106034552
 20
-0.8450402099341962
 30
0.0
 10
41.17774250599132
 20
-0.8602287642882259
 30
0.0
 10
41.11702840299696
 20
-0.9209428672825964
 30
0.0
 10
41.07172743334593
 20
-0.9662438369334309
 30
0.0
 10
40.93794477916718
 20
-1.100026491112205
 30
0.0
 10
40.8506863333679
 20
-1.187284936911649
 30
0.0
 10
40.68154903164279
 20
-1.356422238636749
 30
0.0
 10
40.61864852131995
 20
-1.419322748959585
 30
0.0
 10
40.4828561490601
 20
-1.555115121219447
 30
0.0
 10
40.40947882425058
 20
-1.628492446028938
 30
0.0
 10
40.32997286272732
 20
-1.707998407552196
 30
0.0
  0
SPLINE
  5
205
330
1F
100
AcDbEntity
  8
외형선
  6
Continuous
 62
     1
370
    15
100
AcDbSpline
210
0.0
220
0.0
230
1.0
 70
     8
 71
     3
 72
     8
 73
     4
 74
     0
 42
0.000000001
 43
0.00000001
 40
0.0
 40
0.0
 40
0.0
 40
0.0
 40
1.0
 40
1.0
 40
1.0
 40
1.0
 10
41.75000000000001
 20
-2.827309709565461
 30
0.0
 10
41.2703414706946
 20
-2.493007122426744
 30
0.0
 10
40.79711483338514
 20
-2.119192333728678
 30
0.0
 10
40.32997286272735
 20
-1.707998407552193
 30
0.0
  0
LINE
  5
206
330
1F
100
AcDbEntity
  8
외형선
  6
Continuous
 62
     1
370
    15
100
AcDbLine
 10
41.75000000000001
 20
-5.960218506169642
 30
0.0
 11
41.75000000000001
 21
-2.827309709565461
 31
0.0
  0
SPLINE
  5
207
330
1F
100
AcDbEntity
  8
외형선
  6
Continuous
 62
     1
370
    15
100
AcDbSpline
210
0.0
220
0.0
230
1.0
 70
     8
 71
     3
 72
     8
 73
     4
 74
     0
 42
0.000000001
 43
0.00000001
 40
0.0
 40
0.0
 40
0.0
 40
0.0
 40
1.0
 40
1.0
 40
1.0
 40
1.0
 10
41.55645843365535
 20
-6.111238671556401
 30
0.0
 10
41.6202318467418
 20
-6.062897954823224
 30
0.0
 10
41.68470027130812
 20
-6.012569314177563
 30
0.0
 10
41.74999999999995
 20
-5.960218506169716
 30
0.0
  0
SPLINE
  5
208
330
1F
100
AcDbEntity
  8
외형선
  6
Continuous
 62
     1
370
    15
100
AcDbSpline
210
0.0
220
0.0
230
1.0
 70
     8
 71
     3
 72
     8
 73
     4
 74
     0
 42
0.000000001
 43
0.00000001
 40
0.0
 40
0.0
 40
0.0
 40
0.0
 40
1.0
 40
1.0
 40
1.0
 40
1.0
 10
41.55645843365534
 20
-6.111238671556396
 30
0.0
 10
41.4291938132796
 20
-6.057185196903151
 30
0.0
 10
41.30570167470464
 20
-5.972688360813154
 30
0.0
 10
41.19415238807058
 20
-5.860363042735604
 30
0.0
  0
SPLINE
  5
209
330
1F
100
AcDbEntity
  8
외형선
  6
Continuous
 62
     1
370
    15
100
AcDbSpline
210
0.0
220
0.0
230
1.0
 70
     8
 71
     3
 72
    10
 73
     6
 74
     0
 42
0.000000001
 43
0.00000001
 40
0.0
 40
0.0
 40
0.0
 40
0.0
 40
0.5
 40
0.5
 40
1.0
 40
1.0
 40
1.0
 40
1.0
 10
41.19415238807057
 20
-5.860363042735604
 30
0.0
 10
41.15591215205893
 20
-5.821856775210462
 30
0.0
 10
41.11241546741714
 20
-5.79465835787047
 30
0.0
 10
41.0230703553962
 20
-5.765025686425233
 30
0.0
 10
40.97632222835396
 20
-5.762341584964789
 30
0.0
 10
40.93351860905831
 20
-5.777303884177588
 30
0.0
  0
SPLINE
  5
20A
330
1F
100
AcDbEntity
  8
외형선
  6
Continuous
 62
     1
370
    15
100
AcDbSpline
210
0.0
220
0.0
230
1.0
 70
     8
 71
     3
 72
    14
 73
    10
 74
     0
 42
0.000000001
 43
0.00000001
 40
0.0
 40
0.0
 40
0.0
 40
0.0
 40
0.25
 40
0.25
 40
0.5
 40
0.5
 40
0.75
 40
0.75
 40
1.0
 40
1.0
 40
1.0
 40
1.0
 10
40.93351860905823
 20
-5.777303884177637
 30
0.0
 10
40.84875889705378
 20
-5.806932223861736
 30
0.0
 10
40.76277002812172
 20
-5.815563212976151
 30
0.0
 10
40.58655607871575
 20
-5.801239384970874
 30
0.0
 10
40.49732980212114
 20
-5.77774311651079
 30
0.0
 10
40.32121291009253
 20
-5.703150106694505
 30
0.0
 10
40.23583293829293
 20
-5.652968344510343
 30
0.0
 10
40.06890766241043
 20
-5.527890773563581
 30
0.0
 10
39.98729983901406
 20
-5.452636201174841
 30
0.0
 10
39.91126705472134
 20
-5.36646270912737
 30
0.0
  0
SPLINE
  5
20B
330
1F
100
AcDbEntity
  8
외형선
  6
Continuous
 62
     1
370
    15
100
AcDbSpline
210
0.0
220
0.0
230
1.0
 70
     8
 71
     3
 72
    10
 73
     6
 74
     0
 42
0.000000001
 43
0.00000001
 40
0.0
 40
0.0
 40
0.0
 40
0.0
 40
0.5
 40
0.5
 40
1.0
 40
1.0
 40
1.0
 40
1.0
 10
39.91126705472133
 20
-5.366462709127348
 30
0.0
 10
39.87283742430315
 20
-5.322907610073267
 30
0.0
 10
39.82924765127879
 20
-5.289229090117371
 30
0.0
 10
39.73985693822733
 20
-5.245197026960218
 30
0.0
 10
39.69312827889625
 20
-5.234434005623095
 30
0.0
 10
39.65048851953802
 20
-5.241125165834642
 30
0.0
  0
SPLINE
  5
20C
330
1F
100
AcDbEntity
  8
외형선
  6
Continuous
 62
     1
370
    15
100
AcDbSpline
210
0.0
220
0.0
230
1.0
 70
     8
 71
     3
 72
     8
 73
     4
 74
     0
 42
0.000000001
 43
0.00000001
 40
0.0
 40
0.0
 40
0.0
 40
0.0
 40
1.0
 40
1.0
 40
1.0
 40
1.0
 10
39.65048851953802
 20
-5.241125165834644
 30
0.0
 10
39.51952504772891
 20
-5.261676350572196
 30
0.0
 10
39.38072001620183
 20
-5.232346411370841
 30
0.0
 10
39.24245998689484
 20
-5.170413440690654
 30
0.0
  0
SPLINE
  5
20D
330
1F
100
AcDbEntity
  8
외형선
  6
Continuous
 62
     1
370
    15
100
AcDbSpline
210
0.0
220
0.0
230
1.0
 70
     8
 71
     3
 72
     8
 73
     4
 74
     0
 42
0.000000001
 43
0.00000001
 40
0.0
 40
0.0
 40
0.0
 40
0.0
 40
1.0
 40
1.0
 40
1.0
 40
1.0
 10
39.2424599868962
 20
-5.170413440692286
 30
0.0
 10
39.09962201197045
 20
-5.073573314302544
 30
0.0
 10
38.96147237842368
 20
-4.945258000909376
 30
0.0
 10
38.83782904664245
 20
-4.792619494731114
 30
0.0
  0
SPLINE
  5
20E
330
1F
100
AcDbEntity
  8
외형선
  6
Continuous
 62
     1
370
    15
100
AcDbSpline
210
0.0
220
0.0
230
1.0
 70
     8
 71
     3
 72
    10
 73
     6
 74
     0
 42
0.000000001
 43
0.00000001
 40
0.0
 40
0.0
 40
0.0
 40
0.0
 40
0.5
 40
0.5
 40
1.0
 40
1.0
 40
1.0
 40
1.0
 10
38.83782904664268
 20
-4.792619494731405
 30
0.0
 10
38.79959821677311
 20
-4.745423283846602
 30
0.0
 10
38.75613268506281
 20
-4.706632315247983
 30
0.0
 10
38.6669138728758
 20
-4.65024543185921
 30
0.0
 10
38.62027650295051
 20
-4.632102610204828
 30
0.0
 10
38.57753174419649
 20
-4.630480879606852
 30
0.0
  0
SPLINE
  5
20F
330
1F
100
AcDbEntity
  8
외형선
  6
Continuous
 62
     1
370
    15
100
AcDbSpline
210
0.0
220
0.0
230
1.0
 70
     8
 71
     3
 72
    14
 73
    10
 74
     0
 42
0.000000001
 43
0.00000001
 40
0.0
 40
0.0
 40
0.0
 40
0.0
 40
0.25
 40
0.25
 40
0.5
 40
0.5
 40
0.75
 40
0.75
 40
1.0
 40
1.0
 40
1.0
 40
1.0
 10
38.57753174419641
 20
-4.630480879606887
 30
0.0
 10
38.4930261344719
 20
-4.627274747744491
 30
0.0
 10
38.4076631946438
 20
-4.604463673631235
 30
0.0
 10
38.23328598364925
 20
-4.530905185964607
 30
0.0
 10
38.14374886671811
 20
-4.479186966026607
 30
0.0
 10
37.96756398988699
 20
-4.354175517908157
 30
0.0
 10
37.88203578241228
 20
-4.282062686703989
 30
0.0
 10
37.71489804546413
 20
-4.119787757249684
 30
0.0
 10
37.63327872494567
 20
-4.029310364917529
 30
0.0
 10
37.55733066746834
 20
-3.932435581158034
 30
0.0
  0
SPLINE
  5
210
330
1F
100
AcDbEntity
  8
외형선
  6
Continuous
 62
     1
370
    15
100
AcDbSpline
210
0.0
220
0.0
230
1.0
 70
     8
 71
     3
 72
    10
 73
     6
 74
     0
 42
0.000000001
 43
0.00000001
 40
0.0
 40
0.0
 40
0.0
 40
0.0
 40
0.5
 40
0.5
 40
1.0
 40
1.0
 40
1.0
 40
1.0
 10
37.55733066746834
 20
-3.932435581158015
 30
0.0
 10
37.51891950814741
 20
-3.883440611743847
 30
0.0
 10
37.47534935875339
 20
-3.840815195578513
 30
0.0
 10
37.38604640224753
 20
-3.773772267019097
 30
0.0
 10
37.33940367022031
 20
-3.748712623128205
 30
0.0
 10
37.2968561818525
 20
-3.738680482876286
 30
0.0
  0
SPLINE
  5
211
330
1F
100
AcDbEntity
  8
외형선
  6
Continuous
 62
     1
370
    15
100
AcDbSpline
210
0.0
220
0.0
230
1.0
 70
     8
 71
     3
 72
     8
 73
     4
 74
     0
 42
0.000000001
 43
0.00000001
 40
0.0
 40
0.0
 40
0.0
 40
0.0
 40
1.0
 40
1.0
 40
1.0
 40
1.0
 10
37.29685618185248
 20
-3.738680482876279
 30
0.0
 10
37.16578134718994
 20
-3.70777475435327
 30
0.0
 10
37.0272540222991
 20
-3.63102712450827
 30
0.0
 10
36.8889863963688
 20
-3.53026983853308
 30
0.0
  0
SPLINE
  5
212
330
1F
100
AcDbEntity
  8
외형선
  6
Continuous
 62
     1
370
    15
100
AcDbSpline
210
0.0
220
0.0
230
1.0
 70
     8
 71
     3
 72
     8
 73
     4
 74
     0
 42
0.000000001
 43
0.00000001
 40
0.0
 40
0.0
 40
0.0
 40
0.0
 40
1.0
 40
1.0
 40
1.0
 40
1.0
 10
36.88898639636857
 20
-3.530269838532907
 30
0.0
 10
36.74624031930396
 20
-3.401491015951723
 30
0.0
 10
36.60786357696974
 20
-3.251945119608066
 30
0.0
 10
36.48381944171108
 20
-3.091398426117815
 30
0.0
  0
SPLINE
  5
213
330
1F
100
AcDbEntity
  8
외형선
  6
Continuous
 62
     1
370
    15
100
AcDbSpline
210
0.0
220
0.0
230
1.0
 70
     8
 71
     3
 72
    10
 73
     6
 74
     0
 42
0.000000001
 43
0.00000001
 40
0.0
 40
0.0
 40
0.0
 40
0.0
 40
0.5
 40
0.5
 40
1.0
 40
1.0
 40
1.0
 40
1.0
 10
36.4838194417111
 20
-3.091398426117827
 30
0.0
 10
36.44551364354636
 20
-3.041820352764901
 30
0.0
 10
36.40195191641746
 20
-2.996646280333628
 30
0.0
 10
36.31248728920774
 20
-2.921238036024922
 30
0.0
 10
36.26567889411469
 20
-2.890281434037166
 30
0.0
 10
36.22281061161758
 20
-2.872497916866677
 30
0.0
  0
SPLINE
  5
214
330
1F
100
AcDbEntity
  8
외형선
  6
Continuous
 62
     1
370
    15
100
AcDbSpline
210
0.0
220
0.0
230
1.0
 70
     8
 71
     3
 72
    14
 73
    10
 74
     0
 42
0.000000001
 43
0.00000001
 40
0.0
 40
0.0
 40
0.0
 40
0.0
 40
0.25
 40
0.25
 40
0.5
 40
0.5
 40
0.75
 40
0.75
 40
1.0
 40
1.0
 40
1.0
 40
1.0
 10
36.2228106116175
 20
-2.872497916866705
 30
0.0
 10
36.13807344330204
 20
-2.837345473149876
 30
0.0
 10
36.05212419304982
 20
-2.786207954700672
 30
0.0
 10
35.87602218513943
 20
-2.661454378650019
 30
0.0
 10
35.78684657249304
 20
-2.588093286972772
 30
0.0
 10
35.61082282432172
 20
-2.428081373276524
 30
0.0
 10
35.52551696059606
 20
-2.342884655401954
 30
0.0
 10
35.35865289835326
 20
-2.163717622543931
 30
0.0
 10
35.27707588949227
 20
-2.06961328941921
 30
0.0
 10
35.20109149412401
 20
-1.974513155686353
 30
0.0
  0
SPLINE
  5
215
330
1F
100
AcDbEntity
  8
외형선
  6
Continuous
 62
     1
370
    15
100
AcDbSpline
210
0.0
220
0.0
230
1.0
 70
     8
 71
     3
 72
    10
 73
     6
 74
     0
 42
0.000000001
 43
0.00000001
 40
0.0
 40
0.0
 40
0.0
 40
0.0
 40
0.5
 40
0.5
 40
1.0
 40
1.0
 40
1.0
 40
1.0
 10
35.20109149412398
 20
-1.97451315568633
 30
0.0
 10
35.16271116011286
 20
-1.92647730727985
 30
0.0
 10
35.11916763725851
 20
-1.880437985380836
 30
0.0
 10
35.02986377940821
 20
-1.799120342377851
 30
0.0
 10
34.98318281589817
 20
-1.763041212229443
 30
0.0
 10
34.94059387650791
 20
-1.737720391257904
 30
0.0
  0
SPLINE
  5
216
330
1F
100
AcDbEntity
  8
외형선
  6
Continuous
 62
     1
370
    15
100
AcDbSpline
210
0.0
220
0.0
230
1.0
 70
     8
 71
     3
 72
     8
 73
     4
 74
     0
 42
0.000000001
 43
0.00000001
 40
0.0
 40
0.0
 40
0.0
 40
0.0
 40
1.0
 40
1.0
 40
1.0
 40
1.0
 10
34.94059387650792
 20
-1.7377203912579
 30
0.0
 10
34.80973470820145
 20
-1.659919403005761
 30
0.0
 10
34.67102549444147
 20
-1.547519464926634
 30
0.0
 10
34.53286972174915
 20
-1.422115268200875
 30
0.0
  0
SPLINE
  5
217
330
1F
100
AcDbEntity
  8
외형선
  6
Continuous
 62
     1
370
    15
100
AcDbSpline
210
0.0
220
0.0
230
1.0
 70
     8
 71
     3
 72
     8
 73
     4
 74
     0
 42
0.000000001
 43
0.00000001
 40
0.0
 40
0.0
 40
0.0
 40
0.0
 40
1.0
 40
1.0
 40
1.0
 40
1.0
 10
34.53286972174912
 20
-1.422115268200842
 30
0.0
 10
34.39008689449552
 20
-1.279058067286441
 30
0.0
 10
34.25200822839634
 20
-1.128207995697412
 30
0.0
 10
34.12843026988416
 20
-0.9809186840658402
 30
0.0
  0
SPLINE
  5
218
330
1F
100
AcDbEntity
  8
외형선
  6
Continuous
 62
     1
370
    15
100
AcDbSpline
210
0.0
220
0.0
230
1.0
 70
     8
 71
     3
 72
    10
 73
     6
 74
     0
 42
0.000000001
 43
0.00000001
 40
0.0
 40
0.0
 40
0.0
 40
0.0
 40
0.5
 40
0.5
 40
1.0
 40
1.0
 40
1.0
 40
1.0
 10
34.12843026988416
 20
-0.9809186840658399
 30
0.0
 10
34.09020787666751
 20
-0.9353624210107591
 30
0.0
 10
34.04675109670777
 20
-0.8895919062295676
 30
0.0
 10
33.95755135891752
 20
-0.8046504193916832
 30
0.0
 10
33.910916654828
 20
-0.7646383854218858
 30
0.0
 10
33.86816610718549
 20
-0.7327978245967791
 30
0.0
  0
SPLINE
  5
219
330
1F
100
AcDbEntity
  8
외형선
  6
Continuous
 62
     1
370
    15
100
AcDbSpline
210
0.0
220
0.0
230
1.0
 70
     8
 71
     3
 72
    10
 73
     6
 74
     0
 42
0.000000001
 43
0.00000001
 40
0.0
 40
0.0
 40
0.0
 40
0.0
 40
0.5
 40
0.5
 40
1.0
 40
1.0
 40
1.0
 40
1.0
 10
32.84747727008901
 20
0.242126552637861
 30
0.0
 10
32.80901827928125
 20
0.2829226838635778
 30
0.0
 10
32.76540105519047
 20
0.3263585684188905
 30
0.0
 10
32.67601272409189
 20
0.4114109459332363
 30
0.0
 10
32.62932730951286
 20
0.4538767390931989
 30
0.0
 10
32.58673236438668
 20
0.4913700509024312
 30
0.0
  0
SPLINE
  5
21A
330
1F
100
AcDbEntity
  8
외형선
  6
Continuous
 62
     1
370
    15
100
AcDbSpline
210
0.0
220
0.0
230
1.0
 70
     8
 71
     3
 72
    10
 73
     6
 74
     0
 42
0.000000001
 43
0.00000001
 40
0.0
 40
0.0
 40
0.0
 40
0.0
 40
0.5
 40
0.5
 40
1.0
 40
1.0
 40
1.0
 40
1.0
 10
31.77287917335023
 20
1.264316484901094
 30
0.0
 10
31.73460948225806
 20
1.299704217397649
 30
0.0
 10
31.69109027746165
 20
1.339835743543915
 30
0.0
 10
31.6017075158571
 20
1.42257698319485
 30
0.0
 10
31.55493843735296
 20
1.466009467137072
 30
0.0
 10
31.51211798361964
 20
1.507440640963986
 30
0.0
  0
SPLINE
  5
21B
330
1F
100
AcDbEntity
  8
외형선
  6
Continuous
 62
     1
370
    15
100
AcDbSpline
210
0.0
220
0.0
230
1.0
 70
     8
 71
     3
 72
    10
 73
     6
 74
     0
 42
0.000000001
 43
0.00000001
 40
0.0
 40
0.0
 40
0.0
 40
0.0
 40
0.5
 40
0.5
 40
1.0
 40
1.0
 40
1.0
 40
1.0
 10
30.49151043859138
 20
2.435401710307046
 30
0.0
 10
30.45315259674406
 20
2.463506144059386
 30
0.0
 10
30.4096293183321
 20
2.49851122413342
 30
0.0
 10
30.32036392670044
 20
2.575801628366415
 30
0.0
 10
30.27370528941911
 20
2.618873732957666
 30
0.0
 10
30.2311400496698
 20
2.663330538612078
 30
0.0
  0
SPLINE
  5
21C
330
1F
100
AcDbEntity
  8
외형선
  6
Continuous
 62
     1
370
    15
100
AcDbSpline
210
0.0
220
0.0
230
1.0
 70
     8
 71
     3
 72
     8
 73
     4
 74
     0
 42
0.000000001
 43
0.00000001
 40
0.0
 40
0.0
 40
0.0
 40
0.0
 40
1.0
 40
1.0
 40
1.0
 40
1.0
 10
30.2311400496698
 20
2.663330538612082
 30
0.0
 10
30.10030555115587
 20
2.799979219732699
 30
0.0
 10
29.96161831265965
 20
2.938367991971344
 30
0.0
 10
29.82349513939806
 20
3.063561928390188
 30
0.0
  0
SPLINE
  5
21D
330
1F
100
AcDbEntity
  8
외형선
  6
Continuous
 62
     1
370
    15
100
AcDbSpline
210
0.0
220
0.0
230
1.0
 70
     8
 71
     3
 72
     8
 73
     4
 74
     0
 42
0.000000001
 43
0.00000001
 40
0.0
 40
0.0
 40
0.0
 40
0.0
 40
1.0
 40
1.0
 40
1.0
 40
1.0
 10
29.82349513939802
 20
3.06356192839023
 30
0.0
 10
29.68068568545626
 20
3.180207806087392
 30
0.0
 10
29.54259336959124
 20
3.276995986374851
 30
0.0
 10
29.4189912343653
 20
3.344196860348115
 30
0.0
  0
SPLINE
  5
21E
330
1F
100
AcDbEntity
  8
외형선
  6
Continuous
 62
     1
370
    15
100
AcDbSpline
210
0.0
220
0.0
230
1.0
 70
     8
 71
     3
 72
    10
 73
     6
 74
     0
 42
0.000000001
 43
0.00000001
 40
0.0
 40
0.0
 40
0.0
 40
0.0
 40
0.5
 40
0.5
 40
1.0
 40
1.0
 40
1.0
 40
1.0
 10
29.4189912343653
 20
3.344196860348101
 30
0.0
 10
29.38075164998763
 20
3.364987225222109
 30
0.0
 10
29.33727916421567
 20
3.394506765651802
 30
0.0
 10
29.24805375977014
 20
3.464884546310843
 30
0.0
 10
29.20138661734816
 20
3.506441718675537
 30
0.0
 10
29.15860365295594
 20
3.552348668660287
 30
0.0
  0
SPLINE
  5
21F
330
1F
100
AcDbEntity
  8
외형선
  6
Continuous
 62
     1
370
    15
100
AcDbSpline
210
0.0
220
0.0
230
1.0
 70
     8
 71
     3
 72
    14
 73
    10
 74
     0
 42
0.000000001
 43
0.00000001
 40
0.0
 40
0.0
 40
0.0
 40
0.0
 40
0.25
 40
0.25
 40
0.5
 40
0.5
 40
0.75
 40
0.75
 40
1.0
 40
1.0
 40
1.0
 40
1.0
 10
29.15860365295585
 20
3.552348668660318
 30
0.0
 10
29.07395011879121
 20
3.643183551519326
 30
0.0
 10
28.98844080600253
 20
3.728813141658459
 30
0.0
 10
28.81377382203524
 20
3.890090665467126
 30
0.0
 10
28.72409785613508
 20
3.965942869352876
 30
0.0
 10
28.54767264947948
 20
4.099150379523181
 30
0.0
 10
28.46202431537391
 20
4.155929832569094
 30
0.0
 10
28.29463907145653
 20
4.249374581834631
 30
0.0
 10
28.21290819823333
 20
4.285776529718904
 30
0.0
 10
28.13682438107353
 20
4.309214183914153
 30
0.0
  0
SPLINE
  5
220
330
1F
100
AcDbEntity
  8
외형선
  6
Continuous
 62
     1
370
    15
100
AcDbSpline
210
0.0
220
0.0
230
1.0
 70
     8
 71
     3
 72
    10
 73
     6
 74
     0
 42
0.000000001
 43
0.00000001
 40
0.0
 40
0.0
 40
0.0
 40
0.0
 40
0.5
 40
0.5
 40
1.0
 40
1.0
 40
1.0
 40
1.0
 10
28.1368243810735
 20
4.309214183914175
 30
0.0
 10
28.09831147722428
 20
4.32107810131697
 30
0.0
 10
28.05464768686391
 20
4.343247194134458
 30
0.0
 10
27.96517760566018
 20
4.403063806281946
 30
0.0
 10
27.91844631220096
 20
4.441339513673283
 30
0.0
 10
27.87580729475173
 20
4.487245625302661
 30
0.0
  0
SPLINE
  5
221
330
1F
100
AcDbEntity
  8
외형선
  6
Continuous
 62
     1
370
    15
100
AcDbSpline
210
0.0
220
0.0
230
1.0
 70
     8
 71
     3
 72
     8
 73
     4
 74
     0
 42
0.000000001
 43
0.00000001
 40
0.0
 40
0.0
 40
0.0
 40
0.0
 40
1.0
 40
1.0
 40
1.0
 40
1.0
 10
27.87580729475175
 20
4.487245625302647
 30
0.0
 10
27.74463859953163
 20
4.628464751006601
 30
0.0
 10
27.6060200443523
 20
4.753596207092274
 30
0.0
 10
27.46760022693867
 20
4.853888349335749
 30
0.0
  0
SPLINE
  5
222
330
1F
100
AcDbEntity
  8
외형선
  6
Continuous
 62
     1
370
    15
100
AcDbSpline
210
0.0
220
0.0
230
1.0
 70
     8
 71
     3
 72
     8
 73
     4
 74
     0
 42
0.000000001
 43
0.00000001
 40
0.0
 40
0.0
 40
0.0
 40
0.0
 40
1.0
 40
1.0
 40
1.0
 40
1.0
 10
27.46760022694057
 20
4.853888349333057
 30
0.0
 10
27.32492156847017
 20
4.933042230479487
 30
0.0
 10
27.18662249755866
 20
4.9814015722476
 30
0.0
 10
27.06272099917991
 20
4.991858906760751
 30
0.0
  0
SPLINE
  5
223
330
1F
100
AcDbEntity
  8
외형선
  6
Continuous
 62
     1
370
    15
100
AcDbSpline
210
0.0
220
0.0
230
1.0
 70
     8
 71
     3
 72
    10
 73
     6
 74
     0
 42
0.000000001
 43
0.00000001
 40
0.0
 40
0.0
 40
0.0
 40
0.0
 40
0.5
 40
0.5
 40
1.0
 40
1.0
 40
1.0
 40
1.0
 10
27.06272099917992
 20
4.991858906760737
 30
0.0
 10
27.02450024591764
 20
4.995084753158383
 30
0.0
 10
26.98102734663432
 20
5.00978249177035
 30
0.0
 10
26.89173184489823
 20
5.057821392680128
 30
0.0
 10
26.84501030182502
 20
5.09166761098144
 30
0.0
 10
26.80223974498166
 20
5.135698358888833
 30
0.0
  0
SPLINE
  5
224
330
1F
100
AcDbEntity
  8
외형선
  6
Continuous
 62
     1
370
    15
100
AcDbSpline
210
0.0
220
0.0
230
1.0
 70
     8
 71
     3
 72
    14
 73
    10
 74
     0
 42
0.000000001
 43
0.00000001
 40
0.0
 40
0.0
 40
0.0
 40
0.0
 40
0.25
 40
0.25
 40
0.5
 40
0.5
 40
0.75
 40
0.75
 40
1.0
 40
1.0
 40
1.0
 40
1.0
 10
26.80223974498157
 20
5.13569835888888
 30
0.0
 10
26.71765557030246
 20
5.222774720459034
 30
0.0
 10
26.63185085034826
 20
5.298235663546499
 30
0.0
 10
26.45602783267142
 20
5.429703167032673
 30
0.0
 10
26.3670069221767
 20
5.484573471633372
 30
0.0
 10
26.19130231551963
 20
5.569407192980717
 30
0.0
 10
26.10615982622386
 20
5.598948504435361
 30
0.0
 10
25.9394935480477
 20
5.63184319082993
 30
0.0
 10
25.85801934546314
 20
5.634839924845072
 30
0.0
 10
25.78213880799967
 20
5.622810681389429
 30
0.0
  0
SPLINE
  5
225
330
1F
100
AcDbEntity
  8
외형선
  6
Continuous
 62
     1
370
    15
100
AcDbSpline
210
0.0
220
0.0
230
1.0
 70
     8
 71
     3
 72
    10
 73
     6
 74
     0
 42
0.000000001
 43
0.00000001
 40
0.0
 40
0.0
 40
0.0
 40
0.0
 40
0.5
 40
0.5
 40
1.0
 40
1.0
 40
1.0
 40
1.0
 10
25.78213880799965
 20
5.622810681389435
 30
0.0
 10
25.74377653873986
 20
5.616729160463742
 30
0.0
 10
25.70024738108
 20
5.622943285709515
 30
0.0
 10
25.61097190773095
 20
5.656992278572755
 30
0.0
 10
25.56431015603279
 20
5.685203282500022
 30
0.0
 10
25.52174144822927
 20
5.726229674589866
 30
0.0
  0
SPLINE
  5
226
330
1F
100
AcDbEntity
  8
외형선
  6
Continuous
 62
     1
370
    15
100
AcDbSpline
210
0.0
220
0.0
230
1.0
 70
     8
 71
     3
 72
     8
 73
     4
 74
     0
 42
0.000000001
 43
0.00000001
 40
0.0
 40
0.0
 40
0.0
 40
0.0
 40
1.0
 40
1.0
 40
1.0
 40
1.0
 10
25.52174144822925
 20
5.726229674589892
 30
0.0
 10
25.39085172983716
 20
5.852377100348515
 30
0.0
 10
25.25211249934839
 20
5.946468806488846
 30
0.0
 10
25.11395031552372
 20
6.007874419406057
 30
0.0
  0
SPLINE
  5
227
330
1F
100
AcDbEntity
  8
외형선
  6
Continuous
 62
     1
370
    15
100
AcDbSpline
210
0.0
220
0.0
230
1.0
 70
     8
 71
     3
 72
     8
 73
     4
 74
     0
 42
0.000000001
 43
0.00000001
 40
0.0
 40
0.0
 40
0.0
 40
0.0
 40
1.0
 40
1.0
 40
1.0
 40
1.0
 10
25.11395031552405
 20
6.007874419405834
 30
0.0
 10
24.9710323829981
 20
6.038839775053854
 30
0.0
 10
24.83284188887945
 20
6.032366346688891
 30
0.0
 10
24.70912624016514
 20
5.98531961292833
 30
0.0
  0
SPLINE
  5
228
330
1F
100
AcDbEntity
  8
외형선
  6
Continuous
 62
     1
370
    15
100
AcDbSpline
210
0.0
220
0.0
230
1.0
 70
     8
 71
     3
 72
    10
 73
     6
 74
     0
 42
0.000000001
 43
0.00000001
 40
0.0
 40
0.0
 40
0.0
 40
0.0
 40
0.5000000000000051
 40
0.5000000000000051
 40
1.0
 40
1.0
 40
1.0
 40
1.0
 10
24.70912624016515
 20
5.985319612928327
 30
0.0
 10
24.67084372685068
 20
5.970761493318494
 30
0.0
 10
24.62733091624939
 20
5.969017410530605
 30
0.0
 10
24.53803504686712
 20
5.98902571502753
 30
0.0
 10
24.49130021349161
 20
6.010994808979246
 30
0.0
 10
24.44845916181579
 20
6.047645001824853
 30
0.0
  0
SPLINE
  5
229
330
1F
100
AcDbEntity
  8
외형선
  6
Continuous
 62
     1
370
    15
100
AcDbSpline
210
0.0
220
0.0
230
1.0
 70
     8
 71
     3
 72
    14
 73
    10
 74
     0
 42
0.000000001
 43
0.00000001
 40
0.0
 40
0.0
 40
0.0
 40
0.0
 40
0.2499999999999999
 40
0.2499999999999999
 40
0.4999999999999998
 40
0.4999999999999998
 40
0.7499999999999999
 40
0.7499999999999999
 40
1.0
 40
1.0
 40
1.0
 40
1.0
 10
24.4484591618157
 20
6.047645001824909
 30
0.0
 10
24.36373577212762
 20
6.120125215291599
 30
0.0
 10
24.27816013230267
 20
6.175142568421798
 30
0.0
 10
24.10337147181642
 20
6.258232534557219
 30
0.0
 10
24.01365081965557
 20
6.285821860673321
 30
0.0
 10
23.83711743398009
 20
6.31139611242132
 30
0.0
 10
23.7514170309431
 20
6.30967681310118
 30
0.0
 10
23.58394315110602
 20
6.277553074784487
 30
0.0
 10
23.50217192356581
 20
6.246730439356512
 30
0.0
 10
23.42608229004636
 20
6.200897287343898
 30
0.0
  0
SPLINE
  5
22A
330
1F
100
AcDbEntity
  8
외형선
  6
Continuous
 62
     1
370
    15
100
AcDbSpline
210
0.0
220
0.0
230
1.0
 70
     8
 71
     3
 72
    13
 73
     9
 74
     0
 42
0.000000001
 43
0.00000001
 40
0.0
 40
0.0
 40
0.0
 40
0.0
 40
0.0754977644031608
 40
0.2684705784189513
 40
0.4874911384413984
 40
0.7130480855833368
 40
0.8552448915193679
 40
1.0
 40
1.0
 40
1.0
 40
1.0
 10
23.40172239501111
 20
6.189447899386272
 30
0.0
 10
23.39636612841341
 20
6.18676654597731
 30
0.0
 10
23.37731920691818
 20
6.177231634495619
 30
0.0
 10
23.33935949439045
 20
6.169619181216076
 30
0.0
 10
23.28829668275471
 20
6.167888249322297
 30
0.0
 10
23.240197681713
 20
6.178119070933962
 30
0.0
 10
23.19873449033792
 20
6.194973822428433
 30
0.0
 10
23.17660892411545
 20
6.209531418451218
 30
0.0
 10
23.16544751142636
 20
6.21687511014876
 30
0.0
  0
SPLINE
  5
22B
330
1F
100
AcDbEntity
  8
외형선
  6
Continuous
 62
     1
370
    15
100
AcDbSpline
210
0.0
220
0.0
230
1.0
 70
     8
 71
     3
 72
    13
 73
     9
 74
     0
 42
0.000000001
 43
0.00000001
 40
0.0
 40
0.0
 40
0.0
 40
0.0
 40
0.1964108654407581
 40
0.3942659945510711
 40
0.5860176164027674
 40
0.7787808821218369
 40
0.9744376880637975
 40
1.0
 40
1.0
 40
1.0
 40
1.0
 10
23.16544751142636
 20
6.21687511014876
 30
0.0
 10
23.14337153028805
 20
6.232089326347632
 30
0.0
 10
23.09905723718795
 20
6.262629633104603
 30
0.0
 10
23.03163130897722
 20
6.298874953883901
 30
0.0
 10
22.96398202181082
 20
6.328782055306807
 30
0.0
 10
22.89598957937213
 20
6.351357169056405
 30
0.0
 10
22.84726316943697
 20
6.364590464391516
 30
0.0
 10
22.82117948180283
 20
6.368448517102478
 30
0.0
 10
22.81816545947897
 20
6.368894322816784
 30
0.0
  0
SPLINE
  5
22C
330
1F
100
AcDbEntity
  8
외형선
  6
Continuous
 62
     1
370
    15
100
AcDbSpline
210
0.0
220
0.0
230
1.0
 70
     8
 71
     3
 72
    10
 73
     6
 74
     0
 42
0.000000001
 43
0.00000001
 40
0.0
 40
0.0
 40
0.0
 40
0.0
 40
0.4999999999999999
 40
0.4999999999999999
 40
1.0
 40
1.0
 40
1.0
 40
1.0
 10
19.81469908367542
 20
2.941483120477736
 30
0.0
 10
19.78605914143629
 20
2.541848944387682
 30
0.0
 10
19.75732128166974
 20
2.119670547750569
 30
0.0
 10
19.7015459058162
 20
1.259174765816156
 30
0.0
 10
19.67536093555276
 20
0.8256597315258352
 30
0.0
 10
19.64783325829131
 20
0.3825116899683146
 30
0.0
  0
LINE
  5
22D
330
1F
100
AcDbEntity
  8
외형선
  6
Continuous
370
    15
100
AcDbLine
 10
-39.52999999999999
 20
6.37952872972047
 30
0.0
 11
-39.52999999999999
 21
-6.32047127027953
 31
0.0
  0
LINE
  5
22E
330
1F
100
AcDbEntity
  8
외형선
  6
Continuous
370
    15
100
AcDbLine
 10
7.969783843699846
 20
6.379528729720476
 30
0.0
 11
7.969783843699844
 21
4.304405302124525
 31
0.0
  0
LINE
  5
230
330
1F
100
AcDbEntity
  8
외형선
  6
Continuous
370
    15
100
AcDbLine
 10
7.969783843699846
 20
1.856817451004275
 30
0.0
 11
7.969783843699846
 21
-4.665993636397119
 31
0.0
  0
LINE
  5
232
330
1F
100
AcDbEntity
  8
외형선
  6
Continuous
370
    15
100
AcDbLine
 10
7.969783843699847
 20
-6.051878667343882
 30
0.0
 11
7.969783843699847
 21
-6.320471270279524
 31
0.0
  0
LINE
  5
233
330
1F
100
AcDbEntity
  8
외형선
  6
Continuous
370
    15
100
AcDbLine
 10
-40.8
 20
5.109528729720468
 30
0.0
 11
-40.8
 21
-5.050471270279532
 31
0.0
  0
SPLINE
  5
234
330
1F
100
AcDbEntity
  8
외형선
  6
Continuous
370
    15
100
AcDbSpline
210
0.0
220
0.0
230
1.0
 70
     8
 71
     3
 72
     8
 73
     4
 74
     0
 42
0.000000001
 43
0.00000001
 40
0.0
 40
0.0
 40
0.0
 40
0.0
 40
1.0
 40
1.0
 40
1.0
 40
1.0
 10
10.00000000000001
 20
1.411607701140845
 30
0.0
 10
9.963334210217047
 20
0.9440491283317974
 30
0.0
 10
9.927742718487245
 20
0.4657864634540708
 30
0.0
 10
9.89018088076077
 20
-0.0137640409669363
 30
0.0
  0
SPLINE
  5
235
330
1F
100
AcDbEntity
  8
외형선
  6
Continuous
 62
     1
370
    15
100
AcDbSpline
210
0.0
220
0.0
230
1.0
 70
     8
 71
     3
 72
    12
 73
     8
 74
     0
 42
0.000000001
 43
0.00000001
 40
0.0
 40
0.0
 40
0.0
 40
0.0
 40
0.4999999999999998
 40
0.4999999999999998
 40
0.7499999999999999
 40
0.7499999999999999
 40
1.0
 40
1.0
 40
1.0
 40
1.0
 10
29.82349513939802
 20
3.063561928390217
 30
0.0
 10
29.79490404856177
 20
2.668895230418217
 30
0.0
 10
29.76611436418663
 20
2.250333821470649
 30
0.0
 10
29.72406276189229
 20
1.608056967471908
 30
0.0
 10
29.71023368067088
 20
1.391593675790118
 30
0.0
 10
29.68316525077495
 20
0.9576290820622976
 30
0.0
 10
29.670006000075
 20
0.7405775969052453
 30
0.0
 10
29.65635971720651
 20
0.5200397424261212
 30
0.0
  0
SPLINE
  5
236
330
1F
100
AcDbEntity
  8
외형선
  6
Continuous
 62
     1
370
    15
100
AcDbSpline
210
0.0
220
0.0
230
1.0
 70
     8
 71
     3
 72
    12
 73
     8
 74
     0
 42
0.000000001
 43
0.00000001
 40
0.0
 40
0.0
 40
0.0
 40
0.0
 40
0.5
 40
0.5
 40
0.75
 40
0.75
 40
1.0
 40
1.0
 40
1.0
 40
1.0
 10
39.83240102779645
 20
3.185819943624322
 30
0.0
 10
39.80389054192756
 20
2.796605674834932
 30
0.0
 10
39.77508032437524
 20
2.382187020176428
 30
0.0
 10
39.7328499999735
 20
1.743775566874467
 30
0.0
 10
39.71893705471029
 20
1.528214484575425
 30
0.0
 10
39.69165690658542
 20
1.095282087420657
 30
0.0
 10
39.67850495944543
 20
0.8790806353141214
 30
0.0
 10
39.66499257388587
 20
0.6598335919695992
 30
0.0
  0
SPLINE
  5
237
330
1F
100
AcDbEntity
  8
외형선
  6
Continuous
370
    15
100
AcDbSpline
210
0.0
220
0.0
230
1.0
 70
    24
 71
     3
 72
     8
 73
     4
 74
     0
 42
0.000000001
 43
0.00000001
 40
0.0
 40
0.0
 40
0.0
 40
0.0
 40
1.0
 40
1.0
 40
1.0
 40
1.0
 10
10.00000000000001
 20
1.411607701140844
 30
0.0
 10
10.00000000000001
 20
1.82950936501406
 30
0.0
 10
10.00000000000001
 20
2.236397603755707
 30
0.0
 10
10.00000000000001
 20
2.63195630291605
 30
0.0
  0
SPLINE
  5
238
330
1F
100
AcDbEntity
  8
외형선
  6
Continuous
 62
     1
370
    15
100
AcDbSpline
210
0.0
220
0.0
230
1.0
 70
     8
 71
     3
 72
    12
 73
     8
 74
     0
 42
0.000000001
 43
0.00000001
 40
0.0
 40
0.0
 40
0.0
 40
0.0
 40
0.4999999999999997
 40
0.4999999999999997
 40
0.7499999999999998
 40
0.7499999999999998
 40
1.0
 40
1.0
 40
1.0
 40
1.0
 10
34.53286972174915
 20
-1.422115268200879
 30
0.0
 10
34.50422641705418
 20
-1.860542702954438
 30
0.0
 10
34.47585148558297
 20
-2.28644086396172
 30
0.0
 10
34.43505438990834
 20
-2.886672540151809
 30
0.0
 10
34.42187321294145
 20
-3.079841108758038
 30
0.0
 10
34.39455680696227
 20
-3.45865517112754
 30
0.0
 10
34.3806176233854
 20
-3.643303338675458
 30
0.0
 10
34.36650702652325
 20
-3.821463235955525
 30
0.0
  0
LINE
  5
239
330
1F
100
AcDbEntity
  8
외형선
  6
Continuous
 62
     1
370
    15
100
AcDbLine
 10
41.75000000000001
 20
-0.2879712702795417
 30
0.0
 11
41.75000000000001
 21
1.424314752788774
 31
0.0
  0
SPLINE
  5
23A
330
1F
100
AcDbEntity
  8
외형선
  6
Continuous
 62
     1
370
    15
100
AcDbSpline
210
0.0
220
0.0
230
1.0
 70
    24
 71
     3
 72
     8
 73
     4
 74
     0
 42
0.000000001
 43
0.00000001
 40
0.0002430890809575
 40
0.0002430890809575
 40
0.0002430890809575
 40
0.0002430890809575
 40
0.000339451875911
 40
0.000339451875911
 40
0.000339451875911
 40
0.000339451875911
 10
41.69335452811553
 20
-0.3446167421640238
 30
0.0
 10
41.71226156086728
 20
-0.3257097094122726
 30
0.0
 10
41.73114361274759
 20
-0.3068276575319656
 30
0.0
 10
41.75000000000001
 20
-0.2879712702795413
 30
0.0
  0
SPLINE
  5
23B
330
1F
100
AcDbEntity
  8
외형선
  6
Continuous
 62
     1
370
    15
100
AcDbSpline
210
0.0
220
0.0
230
1.0
 70
     8
 71
     3
 72
     8
 73
     4
 74
     0
 42
0.000000001
 43
0.00000001
 40
0.0
 40
0.0
 40
0.0
 40
0.0
 40
1.0
 40
1.0
 40
1.0
 40
1.0
 10
41.70815352975596
 20
0.2442588821551814
 30
0.0
 10
41.70316010868822
 20
0.0479737226373396
 30
0.0
 10
41.69822549874687
 20
-0.148318116564304
 30
0.0
 10
41.69335452811493
 20
-0.3446167421633312
 30
0.0
  0
SPLINE
  5
23C
330
1F
100
AcDbEntity
  8
외형선
  6
Continuous
 62
     1
370
    15
100
AcDbSpline
210
0.0
220
0.0
230
1.0
 70
     8
 71
     3
 72
     8
 73
     4
 74
     0
 42
0.000000001
 43
0.00000001
 40
0.0
 40
0.0
 40
0.0
 40
0.0
 40
1.0
 40
1.0
 40
1.0
 40
1.0
 10
41.73395392500812
 20
1.439886761768024
 30
0.0
 10
41.72691561535776
 20
1.048096940007435
 30
0.0
 10
41.71842189436027
 20
0.6478954986158301
 30
0.0
 10
41.70815352975595
 20
0.2442588821551068
 30
0.0
  0
SPLINE
  5
23D
330
1F
100
AcDbEntity
  8
외형선
  6
Continuous
 62
     1
370
    15
100
AcDbSpline
210
0.0
220
0.0
230
1.0
 70
     8
 71
     3
 72
    12
 73
     8
 74
     0
 42
0.000000001
 43
0.00000001
 40
0.0
 40
0.0
 40
0.0
 40
0.0
 40
0.5
 40
0.5
 40
0.75
 40
0.75
 40
1.0
 40
1.0
 40
1.0
 40
1.0
 10
24.52407929736133
 20
-1.556403547703063
 30
0.0
 10
24.49549924349365
 20
-1.992158251187719
 30
0.0
 10
24.46728805177363
 20
-2.413869013107191
 30
0.0
 10
24.42686124835939
 20
-3.006104150181852
 30
0.0
 10
24.41355936279921
 20
-3.197594647489546
 30
0.0
 10
24.38602295040582
 20
-3.572362578034428
 30
0.0
 10
24.37199523502217
 20
-3.754623872278068
 30
0.0
 10
24.35781997880995
 20
-3.930058803073995
 30
0.0
  0
SPLINE
  5
23E
330
1F
100
AcDbEntity
  8
외형선
  6
Continuous
 62
     1
370
    15
100
AcDbSpline
210
0.0
220
0.0
230
1.0
 70
    24
 71
     3
 72
    10
 73
     6
 74
     0
 42
0.000000001
 43
0.00000001
 40
0.0
 40
0.0
 40
0.0
 40
0.0
 40
0.5
 40
0.5
 40
1.0
 40
1.0
 40
1.0
 40
1.0
 10
41.66856890018025
 20
-0.3694023700992999
 30
0.0
 10
41.62254191070802
 20
-0.4154293595715366
 30
0.0
 10
41.57289958401164
 20
-0.4650716862679067
 30
0.0
 10
41.47192171473545
 20
-0.5660495555440896
 30
0.0
 10
41.42080183899763
 20
-0.617169431281933
 30
0.0
 10
41.37259550860561
 20
-0.665375761673949
 30
0.0
  0
SPLINE
  5
23F
330
1F
100
AcDbEntity
  8
외형선
  6
Continuous
 62
     1
370
    15
100
AcDbSpline
210
0.0
220
0.0
230
1.0
 70
     8
 71
     3
 72
    10
 73
     6
 74
     0
 42
0.000000001
 43
0.00000001
 40
0.0
 40
0.0
 40
0.0
 40
0.0
 40
0.5
 40
0.5
 40
1.0
 40
1.0
 40
1.0
 40
1.0
 10
14.5152650817544
 20
-1.690527579099146
 30
0.0
 10
14.4867576427919
 20
-2.123461540052833
 30
0.0
 10
14.45871955091022
 20
-2.540842504453209
 30
0.0
 10
14.40532754798714
 20
-3.319582632906121
 30
0.0
 10
14.37745511833934
 20
-3.693111693037053
 30
0.0
 10
14.34898232383668
 20
-4.03831984795256
 30
0.0
  0
SPLINE
  5
240
330
1F
100
AcDbEntity
  8
외형선
  6
Continuous
 62
     1
370
    15
100
AcDbSpline
210
0.0
220
0.0
230
1.0
 70
    24
 71
     3
 72
     8
 73
     4
 74
     0
 42
0.000000001
 43
0.00000001
 40
0.0000869570417261
 40
0.0000869570417261
 40
0.0000869570417261
 40
0.0000869570417261
 40
0.000125633102994
 40
0.000125633102994
 40
0.000125633102994
 40
0.000125633102994
 10
41.69335452811619
 20
-0.3446167421633543
 30
0.0
 10
41.68504833411868
 20
-0.3529229361608571
 30
0.0
 10
41.67678512295846
 20
-0.3611861473211714
 30
0.0
 10
41.66856890018028
 20
-0.369402370099351
 30
0.0
  0
SPLINE
  5
241
330
1F
100
AcDbEntity
  8
외형선
  6
Continuous
 62
     1
370
    15
100
AcDbSpline
210
0.0
220
0.0
230
1.0
 70
     8
 71
     3
 72
    12
 73
     8
 74
     0
 42
0.000000001
 43
0.00000001
 40
0.0
 40
0.0
 40
0.0
 40
0.0
 40
0.2500000000000003
 40
0.2500000000000003
 40
0.5000000000000006
 40
0.5000000000000006
 40
1.0
 40
1.0
 40
1.0
 40
1.0
 10
17.45892218771136
 20
4.761743540135853
 30
0.0
 10
17.44521499274437
 20
4.613984368639855
 30
0.0
 10
17.43199197362878
 20
4.459408551393782
 30
0.0
 10
17.40503216731848
 20
4.132976935956831
 30
0.0
 10
17.39124705634693
 20
3.960814239477671
 30
0.0
 10
17.34929275490369
 20
3.420870338541047
 30
0.0
 10
17.32052109323422
 20
3.029405574297952
 30
0.0
 10
17.29189909056517
 20
2.618914991267449
 30
0.0
  0
SPLINE
  5
242
330
1F
100
AcDbEntity
  8
외형선
  6
Continuous
 62
     1
370
    15
100
AcDbSpline
210
0.0
220
0.0
230
1.0
 70
     8
 71
     3
 72
    10
 73
     6
 74
     0
 42
0.000000001
 43
0.00000001
 40
0.0
 40
0.0
 40
0.0
 40
0.0
 40
0.4999999999999998
 40
0.4999999999999998
 40
1.0
 40
1.0
 40
1.0
 40
1.0
 10
27.46760022693847
 20
4.8538883493359
 30
0.0
 10
27.43995604181578
 20
4.564800048543277
 30
0.0
 10
27.41381261734983
 20
4.246180088224997
 30
0.0
 10
27.35818950810311
 20
3.539050037012518
 30
0.0
 10
27.32948043828816
 20
3.152868284301531
 30
0.0
 10
27.30081868528903
 20
2.746160421540927
 30
0.0
  0
SPLINE
  5
243
330
1F
100
AcDbEntity
  8
외형선
  6
Continuous
 62
     1
370
    15
100
AcDbSpline
210
0.0
220
0.0
230
1.0
 70
     8
 71
     3
 72
    10
 73
     6
 74
     0
 42
0.000000001
 43
0.00000001
 40
0.0
 40
0.0
 40
0.0
 40
0.0
 40
0.5
 40
0.5
 40
1.0
 40
1.0
 40
1.0
 40
1.0
 10
37.476188199101
 20
4.942344417855775
 30
0.0
 10
37.44833620557205
 20
4.65983501698694
 30
0.0
 10
37.42216693071583
 20
4.347438260454415
 30
0.0
 10
37.36689140290296
 20
3.653305036448886
 30
0.0
 10
37.33826426238494
 20
3.272579692865901
 30
0.0
 10
37.30958355380309
 20
2.869879662022743
 30
0.0
  0
SPLINE
  5
244
330
1F
100
AcDbEntity
  8
외형선
  6
Continuous
 62
     1
370
    15
100
AcDbSpline
210
0.0
220
0.0
230
1.0
 70
     8
 71
     3
 72
    10
 73
     6
 74
     0
 42
0.000000001
 43
0.00000001
 40
0.0
 40
0.0
 40
0.0
 40
0.0
 40
0.5
 40
0.5
 40
1.0
 40
1.0
 40
1.0
 40
1.0
 10
36.88898639636861
 20
-3.530269838532953
 30
0.0
 10
36.8614429539269
 20
-3.89618518775819
 30
0.0
 10
36.83298377884611
 20
-4.239980579501856
 30
0.0
 10
36.77607486827422
 20
-4.858929991076492
 30
0.0
 10
36.74763893169534
 20
-5.133934713343932
 30
0.0
 10
36.72013950161031
 20
-5.366725921577203
 30
0.0
  0
SPLINE
  5
245
330
1F
100
AcDbEntity
  8
외형선
  6
Continuous
 62
     1
370
    15
100
AcDbSpline
210
0.0
220
0.0
230
1.0
 70
     8
 71
     3
 72
    10
 73
     6
 74
     0
 42
0.000000001
 43
0.00000001
 40
0.0
 40
0.0
 40
0.0
 40
0.0
 40
0.5
 40
0.5
 40
1.0
 40
1.0
 40
1.0
 40
1.0
 10
26.8802607315138
 20
-3.645061296262105
 30
0.0
 10
26.85252646429208
 20
-4.006349032236539
 30
0.0
 10
26.8239682036446
 20
-4.344061919568134
 30
0.0
 10
26.76706545428889
 20
-4.948623088146818
 30
0.0
 10
26.73873474486885
 20
-5.215332630223665
 30
0.0
 10
26.71143144295692
 20
-5.439303384578179
 30
0.0
  0
SPLINE
  5
246
330
1F
100
AcDbEntity
  8
외형선
  6
Continuous
 62
     1
370
    15
100
AcDbSpline
210
0.0
220
0.0
230
1.0
 70
     8
 71
     3
 72
    10
 73
     6
 74
     0
 42
0.000000001
 43
0.00000001
 40
0.0
 40
0.0
 40
0.0
 40
0.0
 40
0.5
 40
0.5
 40
1.0
 40
1.0
 40
1.0
 40
1.0
 10
16.8715208789041
 20
-3.757794617839085
 30
0.0
 10
16.84362352642576
 20
-4.114079110565432
 30
0.0
 10
16.81499602390472
 20
-4.445376022920276
 30
0.0
 10
16.75815721492026
 20
-5.035044025341669
 30
0.0
 10
16.72995957929228
 20
-5.293287756359589
 30
0.0
 10
16.70287641985618
 20
-5.508364322050429
 30
0.0
  0
SPLINE
  5
247
330
1F
100
AcDbEntity
  8
외형선
  6
Continuous
 62
     1
370
    15
100
AcDbSpline
210
0.0
220
0.0
230
1.0
 70
     8
 71
     3
 72
    10
 73
     6
 74
     0
 42
0.000000001
 43
0.00000001
 40
0.0
 40
0.0
 40
0.0
 40
0.0
 40
0.5
 40
0.5
 40
1.0
 40
1.0
 40
1.0
 40
1.0
 10
15.10523139485169
 20
5.959908073657097
 30
0.0
 10
15.07704044182929
 20
5.8004977985076
 30
0.0
 10
15.04829577638716
 20
5.595700323222373
 30
0.0
 10
14.99159962420282
 20
5.108416252002186
 30
0.0
 10
14.96366152586744
 20
4.826078184379998
 30
0.0
 10
14.93699839822367
 20
4.516285544790663
 30
0.0
  0
SPLINE
  5
248
330
1F
100
AcDbEntity
  8
외형선
  6
Continuous
 62
     1
370
    15
100
AcDbSpline
210
0.0
220
0.0
230
1.0
 70
     8
 71
     3
 72
    10
 73
     6
 74
     0
 42
0.000000001
 43
0.00000001
 40
0.0
 40
0.0
 40
0.0
 40
0.0
 40
0.5
 40
0.5
 40
1.0
 40
1.0
 40
1.0
 40
1.0
 10
25.11395031552299
 20
6.007874419402169
 30
0.0
 10
25.08590415139971
 20
5.857891762307247
 30
0.0
 10
25.05720904490602
 20
5.662245864707473
 30
0.0
 10
25.00041136556471
 20
5.191493161174014
 30
0.0
 10
24.97232237047931
 20
4.916523989471112
 30
0.0
 10
24.94542422640728
 20
4.61280058761235
 30
0.0
  0
SPLINE
  5
249
330
1F
100
AcDbEntity
  8
외형선
  6
Continuous
 62
     1
370
    15
100
AcDbSpline
210
0.0
220
0.0
230
1.0
 70
     8
 71
     3
 72
    10
 73
     6
 74
     0
 42
0.000000001
 43
0.00000001
 40
0.0
 40
0.0
 40
0.0
 40
0.0
 40
0.5
 40
0.5
 40
1.0
 40
1.0
 40
1.0
 40
1.0
 10
35.12276925033846
 20
6.05365566000386
 30
0.0
 10
35.09488716049564
 20
5.9132906043742
 30
0.0
 10
35.0662610709082
 20
5.727043465609693
 30
0.0
 10
35.00939694346692
 20
5.273393854851722
 30
0.0
 10
34.98117261234709
 20
5.006117340851678
 30
0.0
 10
34.95405144718978
 20
4.708793233457921
 30
0.0
  0
SPLINE
  5
24A
330
1F
100
AcDbEntity
  8
외형선
  6
Continuous
 62
     1
370
    15
100
AcDbSpline
210
0.0
220
0.0
230
1.0
 70
     8
 71
     3
 72
    12
 73
     8
 74
     0
 42
0.000000001
 43
0.00000001
 40
0.0
 40
0.0
 40
0.0
 40
0.0
 40
0.2499999999999999
 40
0.2499999999999999
 40
0.4999999999999999
 40
0.4999999999999999
 40
1.0
 40
1.0
 40
1.0
 40
1.0
 10
39.24245998689484
 20
-5.17041344069066
 30
0.0
 10
39.22836786095559
 20
-5.298956019716264
 30
0.0
 10
39.2144529694338
 20
-5.417230566301767
 30
0.0
 10
39.18719548560513
 20
-5.631962290026176
 30
0.0
 10
39.17402030376708
 20
-5.728151018779471
 30
0.0
 10
39.13313858554095
 20
-5.98800335932131
 30
0.0
 10
39.1047283224564
 20
-6.120524170445305
 30
0.0
 10
39.07607455646802
 20
-6.205749386078195
 30
0.0
  0
LINE
  5
24B
330
1F
100
AcDbEntity
  8
외형선
  6
Continuous
 62
     1
370
    15
100
AcDbLine
 10
23.42608229004635
 20
6.200897287343891
 30
0.0
 11
23.41955164954035
 21
6.1878294855613
 31
0.0
  0
SPLINE
  5
24C
330
1F
100
AcDbEntity
  8
외형선
  6
Continuous
 62
     1
370
    15
100
AcDbSpline
210
0.0
220
0.0
230
1.0
 70
     8
 71
     3
 72
    12
 73
     8
 74
     0
 42
0.000000001
 43
0.00000001
 40
0.0
 40
0.0
 40
0.0
 40
0.0
 40
0.2499999999999997
 40
0.2499999999999997
 40
0.4999999999999994
 40
0.4999999999999994
 40
1.0
 40
1.0
 40
1.0
 40
1.0
 10
29.23375800632082
 20
-5.248688667515983
 30
0.0
 10
29.21975257287219
 20
-5.372890995097102
 30
0.0
 10
29.20594765359572
 20
-5.486675103187528
 30
0.0
 10
29.17895084271035
 20
-5.692286609781442
 30
0.0
 10
29.16570436325635
 20
-5.784395503924038
 30
0.0
 10
29.12451128626903
 20
-6.031556473481957
 30
0.0
 10
29.09598142501866
 20
-6.1547417769814
 30
0.0
 10
29.067309036852
 20
-6.230340134023492
 30
0.0
  0
SPLINE
  5
24D
330
1F
100
AcDbEntity
  8
외형선
  6
Continuous
 62
     1
370
    15
100
AcDbSpline
210
0.0
220
0.0
230
1.0
 70
     8
 71
     3
 72
    10
 73
     6
 74
     0
 42
0.000000001
 43
0.00000001
 40
0.0
 40
0.0
 40
0.0
 40
0.0
 40
0.5
 40
0.5
 40
1.0
 40
1.0
 40
1.0
 40
1.0
 10
19.22506941508524
 20
-5.324630377066181
 30
0.0
 10
19.19723927029851
 20
-5.564306310248083
 30
0.0
 10
19.1710783097085
 20
-5.760481900547487
 30
0.0
 10
19.11574681437435
 20
-6.072754714097493
 30
0.0
 10
19.08710334932433
 20
-6.186434657806045
 30
0.0
 10
19.05841970903244
 20
-6.252258451570905
 30
0.0
  0
LINE
  5
24F
330
1F
100
AcDbEntity
  8
외형선
  6
Continuous
 62
     1
370
    15
100
AcDbLine
 10
19.46922326009145
 20
-6.127805766846962
 30
0.0
 11
19.46289839888053
 21
-6.142476468104857
 31
0.0
  0
LINE
  5
250
330
1F
100
AcDbEntity
  8
외형선
  6
Continuous
 62
     1
370
    15
100
AcDbLine
 10
41.75000000000001
 20
-0.2879712702795202
 30
0.0
 11
41.75000000000001
 21
-2.82730970956546
 31
0.0
  0
LINE
  5
251
330
1F
100
AcDbEntity
  8
외형선
  6
Continuous
 62
     1
370
    15
100
AcDbLine
 10
40.81202004787544
 20
-6.146248607213844
 30
0.0
 11
40.80506586713798
 21
-6.145890100840015
 31
0.0
  0
SPLINE
  5
252
330
1F
100
AcDbEntity
  8
외형선
  6
Continuous
 62
     1
370
    15
100
AcDbSpline
210
0.0
220
0.0
230
1.0
 70
     8
 71
     3
 72
    10
 73
     6
 74
     0
 42
0.000000001
 43
0.00000001
 40
0.0
 40
0.0
 40
0.0
 40
0.0
 40
0.3720987031558269
 40
0.6841775149036452
 40
1.0
 40
1.0
 40
1.0
 40
1.0
 10
12.73830885714731
 20
6.364633196044138
 30
0.0
 10
12.7189903585293
 20
6.347886901322508
 30
0.0
 10
12.68346945436047
 20
6.317095505896194
 30
0.0
 10
12.63254716232553
 20
6.117233814688124
 30
0.0
 10
12.59926220162227
 20
5.921134873624089
 30
0.0
 10
12.58252049546802
 20
5.822500812501936
 30
0.0
  0
LINE
  5
253
330
1F
100
AcDbEntity
  8
외형선
  6
Continuous
 62
     1
370
    15
100
AcDbLine
 10
20.80773020458114
 20
-6.148955117656357
 30
0.0
 11
20.80555934687366
 21
-6.152124793033404
 31
0.0
  0
SPLINE
  5
254
330
1F
100
AcDbEntity
  8
외형선
  6
Continuous
 62
     1
370
    15
100
AcDbSpline
210
0.0
220
0.0
230
1.0
 70
     8
 71
     3
 72
    11
 73
     7
 74
     0
 42
0.000000001
 43
0.00000001
 40
0.0
 40
0.0
 40
0.0
 40
0.0
 40
0.155911011320014
 40
0.4103586157298478
 40
0.7034853054894479
 40
1.0
 40
1.0
 40
1.0
 40
1.0
 10
22.74225528278313
 20
6.371215527892829
 30
0.0
 10
22.73430385085123
 20
6.369706205117031
 30
0.0
 10
22.71337563947594
 20
6.365733659498075
 30
0.0
 10
22.67867674809202
 20
6.286330290675241
 30
0.0
 10
22.63683017022438
 20
6.136513800355964
 30
0.0
 10
22.60661331725553
 20
5.964811625064034
 30
0.0
 10
22.59141807966511
 20
5.878467247936398
 30
0.0
  0
LINE
  5
255
330
1F
100
AcDbEntity
  8
외형선
  6
Continuous
 62
     1
370
    15
100
AcDbLine
 10
10.80752995467114
 20
-6.14326061225381
 30
0.0
 11
10.80394031795696
 21
-6.147285893212403
 31
0.0
  0
SPLINE
  5
256
330
1F
100
AcDbEntity
  8
외형선
  6
Continuous
370
    15
100
AcDbSpline
210
0.0
220
0.0
230
1.0
 70
    24
 71
     3
 72
    10
 73
     6
 74
     0
 42
0.000000001
 43
0.00000001
 40
0.0
 40
0.0
 40
0.0
 40
0.0
 40
0.3894150273877434
 40
0.8461138001069896
 40
1.0
 40
1.0
 40
1.0
 40
1.0
 10
9.999999999999414
 20
-6.282321269446138
 30
0.0
 10
9.999999999999817
 20
-6.270269608151123
 30
0.0
 10
10.00000000000069
 20
-6.244083980430665
 30
0.0
 10
9.999999999999957
 20
-6.06136336892373
 30
0.0
 10
9.999999999999998
 20
-5.900990459539973
 30
0.0
 10
10.00000000000001
 20
-5.860571551938518
 30
0.0
  0
SPLINE
  5
258
330
1F
100
AcDbEntity
  8
외형선
  6
Continuous
 62
     1
370
    15
100
AcDbSpline
210
0.0
220
0.0
230
1.0
 70
     8
 71
     3
 72
    11
 73
     7
 74
     0
 42
0.000000001
 43
0.00000001
 40
0.0
 40
0.0
 40
0.0
 40
0.0
 40
0.1553837106312335
 40
0.4480107799230849
 40
0.7224947532243764
 40
1.0
 40
1.0
 40
1.0
 40
1.0
 10
32.74566901444928
 20
6.369818737899491
 30
0.0
 10
32.7379995351545
 20
6.370376005730543
 30
0.0
 10
32.71588647461231
 20
6.371982750701439
 30
0.0
 10
32.68143358930939
 20
6.293969245765036
 30
0.0
 10
32.64108102726281
 20
6.152681530636534
 30
0.0
 10
32.61383994841128
 20
6.004958451041274
 30
0.0
 10
32.60014485793818
 20
5.93069263539396
 30
0.0
  0
LINE
  5
259
330
1F
100
AcDbEntity
  8
외형선
  6
Continuous
 62
     1
370
    15
100
AcDbLine
 10
12.303991708313
 20
6.211305590579828
 30
0.0
 11
12.29946869021076
 21
6.211674548776977
 31
0.0
  0
LINE
  5
25A
330
1F
100
AcDbEntity
  8
외형선
  6
Continuous
 62
     1
370
    15
100
AcDbLine
 10
32.30415052431663
 20
6.217339282760933
 30
0.0
 11
32.30114277879009
 21
6.212416783617589
 31
0.0
  0
LINE
  5
25B
330
1F
100
AcDbEntity
  8
외형선
  6
Continuous
 62
     1
370
    15
100
AcDbLine
 10
12.05693909009182
 20
6.199878947866123
 30
0.0
 11
12.04859089303601
 21
6.20444144277069
 31
0.0
  0
LINE
  5
25C
330
1F
100
AcDbEntity
  8
외형선
  6
Continuous
 62
     1
370
    15
100
AcDbLine
 10
41.05848769691511
 20
-6.1461727005888
 30
0.0
 11
41.05359892986581
 21
-6.14284206832001
 31
0.0
  0
SPLINE
  5
25D
330
1F
100
AcDbEntity
  8
외형선
  6
Continuous
 62
     1
370
    15
100
AcDbSpline
210
0.0
220
0.0
230
1.0
 70
     8
 71
     3
 72
     8
 73
     4
 74
     0
 42
0.000000001
 43
0.00000001
 40
0.0
 40
0.0
 40
0.0
 40
0.0
 40
1.0
 40
1.0
 40
1.0
 40
1.0
 10
41.55377014797529
 20
6.354931086399214
 30
0.0
 10
41.4338660052994
 20
6.355019268773007
 30
0.0
 10
41.31257238464865
 20
6.332204666348448
 30
0.0
 10
41.19637024947747
 20
6.287899915982552
 30
0.0
  0
SPLINE
  5
25E
330
1F
100
AcDbEntity
  8
외형선
  6
Continuous
 62
     1
370
    15
100
AcDbSpline
210
0.0
220
0.0
230
1.0
 70
     8
 71
     3
 72
     8
 73
     4
 74
     0
 42
0.000000001
 43
0.00000001
 40
0.0000067019150037
 40
0.0000067019150037
 40
0.0000067019150037
 40
0.0000067019150037
 40
0.000339451875911
 40
0.000339451875911
 40
0.000339451875911
 40
0.000339451875911
 10
41.55377014797507
 20
6.354931086398747
 30
0.0
 10
41.61946892602138
 20
6.294351837625652
 30
0.0
 10
41.68488789011669
 20
6.233160717704403
 30
0.0
 10
41.75000000000001
 20
6.171327631508126
 30
0.0
  0
LINE
  5
25F
330
1F
100
AcDbEntity
  8
외형선
  6
Continuous
 62
     1
370
    15
100
AcDbLine
 10
41.75000000000001
 20
2.568867169006397
 30
0.0
 11
41.75000000000001
 21
6.171327631508126
 31
0.0
  0
LINE
  5
260
330
1F
100
AcDbEntity
  8
외형선
  6
Continuous
 62
     1
370
    15
100
AcDbLine
 10
22.05504333022878
 20
6.199391601272193
 30
0.0
 11
22.05273766817748
 21
6.201227691383666
 31
0.0
  0
LINE
  5
261
330
1F
100
AcDbEntity
  8
외형선
  6
Continuous
 62
     1
370
    15
100
AcDbLine
 10
31.05458067831793
 20
-6.146501089229631
 30
0.0
 11
31.04924147509889
 21
-6.141001536111041
 31
0.0
  0
SPLINE
  5
262
330
1F
100
AcDbEntity
  8
외형선
  6
Continuous
 62
     1
370
    15
100
AcDbSpline
210
0.0
220
0.0
230
1.0
 70
     8
 71
     3
 72
     8
 73
     4
 74
     0
 42
0.000000001
 43
0.00000001
 40
0.0
 40
0.0
 40
0.0
 40
0.0
 40
1.0
 40
1.0
 40
1.0
 40
1.0
 10
41.55645843365534
 20
-6.111238671556397
 30
0.0
 10
41.55401209612285
 20
-6.181420953289311
 30
0.0
 10
41.5518474464989
 20
-6.234429457244812
 30
0.0
 10
41.54999999999971
 20
-6.270217936607604
 30
0.0
  0
SPLINE
  5
263
330
1F
100
AcDbEntity
  8
외형선
  6
Continuous
 62
     1
370
    15
100
AcDbSpline
210
0.0
220
0.0
230
1.0
 70
     8
 71
     3
 72
     9
 73
     5
 74
     0
 42
0.000000001
 43
0.00000001
 40
0.0
 40
0.0
 40
0.0
 40
0.0
 40
0.7994297301203227
 40
1.0
 40
1.0
 40
1.0
 40
1.0
 10
41.55000000000001
 20
-6.270217936607948
 30
0.0
 10
41.53497641536156
 20
-6.297140889859247
 30
0.0
 10
41.51618353829881
 20
-6.330818588144559
 30
0.0
 10
41.4977759882218
 20
-6.315666052820878
 30
0.0
 10
41.49408398093503
 20
-6.312626904721647
 30
0.0
  0
SPLINE
  5
264
330
1F
100
AcDbEntity
  8
외형선
  6
Continuous
 62
     1
370
    15
100
AcDbSpline
210
0.0
220
0.0
230
1.0
 70
     8
 71
     3
 72
     9
 73
     5
 74
     0
 42
0.000000001
 43
0.00000001
 40
0.0
 40
0.0
 40
0.0
 40
0.0
 40
0.6042582798023513
 40
1.0
 40
1.0
 40
1.0
 40
1.0
 10
31.5899859824644
 20
-6.160631775609366
 30
0.0
 10
31.57190552963598
 20
-6.216565875421358
 30
0.0
 10
31.541983800083
 20
-6.309132418043313
 30
0.0
 10
31.51235190323461
 20
-6.308100789619746
 30
0.0
 10
31.50062532540312
 20
-6.307692531212799
 30
0.0
  0
LINE
  5
265
330
1F
100
AcDbEntity
  8
외형선
  6
Continuous
 62
     1
370
    15
100
AcDbLine
 10
30.94703999588636
 20
6.203953919551752
 30
0.0
 11
30.94380864182527
 21
6.201452227709578
 31
0.0
  0
LINE
  5
266
330
1F
100
AcDbEntity
  8
외형선
  6
Continuous
 62
     1
370
    15
100
AcDbLine
 10
11.05327961403777
 20
-6.157574689948443
 30
0.0
 11
11.04882427824372
 21
-6.150223952392786
 31
0.0
  0
SPLINE
  5
267
330
1F
100
AcDbEntity
  8
외형선
  6
Continuous
 62
     1
370
    15
100
AcDbSpline
210
0.0
220
0.0
230
1.0
 70
     8
 71
     3
 72
     9
 73
     5
 74
     0
 42
0.000000001
 43
0.00000001
 40
0.0
 40
0.0
 40
0.0
 40
0.0
 40
0.6370486991778073
 40
1.0
 40
1.0
 40
1.0
 40
1.0
 10
21.58113419129804
 20
-6.190206315940807
 30
0.0
 10
21.56402578880877
 20
-6.238223382220143
 30
0.0
 10
21.53717006724251
 20
-6.313597629654141
 30
0.0
 10
21.51063383021098
 20
-6.309531015786077
 30
0.0
 10
21.50100246846145
 20
-6.308055032992722
 30
0.0
  0
SPLINE
  5
268
330
1F
100
AcDbEntity
  8
외형선
  6
Continuous
 62
     1
370
    15
100
AcDbSpline
210
0.0
220
0.0
230
1.0
 70
     8
 71
     3
 72
     9
 73
     5
 74
     0
 42
0.000000001
 43
0.00000001
 40
0.0
 40
0.0
 40
0.0
 40
0.0
 40
0.5953987472490906
 40
1.0
 40
1.0
 40
1.0
 40
1.0
 10
41.55000000000001
 20
-6.270217936607948
 30
0.0
 10
41.55146357945335
 20
-6.286306043468523
 30
0.0
 10
41.55392172949163
 20
-6.313326770225007
 30
0.0
 10
41.55768096351788
 20
-6.309043181425717
 30
0.0
 10
41.55920195431428
 20
-6.307310036031254
 30
0.0
  0
LINE
  5
269
330
1F
100
AcDbEntity
  8
외형선
  6
Continuous
 62
     1
370
    15
100
AcDbLine
 10
41.75000000000001
 20
-6.120471270279523
 30
0.0
 11
41.75000000000001
 21
-5.960218506169642
 31
0.0
  0
LINE
  5
26A
330
1F
100
AcDbEntity
  8
외형선
  6
Continuous
 62
     1
370
    15
100
AcDbLine
 10
11.57236131528526
 20
-6.216527873195443
 30
0.0
 11
11.50465863367786
 21
-6.313974648120327
 31
0.0
  0
LINE
  5
26B
330
1F
100
AcDbEntity
  8
외형선
  6
Continuous
 62
     1
370
    15
100
AcDbLine
 10
11.50015606605374
 20
-6.320455347014883
 30
0.0
 11
11.49713877412498
 21
-6.316273831761221
 31
0.0
  0
LINE
  5
26C
330
1F
100
AcDbEntity
  8
외형선
  6
Continuous
 62
     1
370
    15
100
AcDbLine
 10
21.94994914903789
 20
-6.136243203211266
 30
0.0
 11
21.94498120572328
 21
-6.141109711342706
 31
0.0
  0
LINE
  5
26D
330
1F
100
AcDbEntity
  8
외형선
  6
Continuous
 62
     1
370
    15
100
AcDbLine
 10
11.9493761493464
 20
-6.13846363674836
 30
0.0
 11
11.9414003314381
 21
-6.144295946174143
 31
0.0
  0
LINE
  5
26E
330
1F
100
AcDbEntity
  8
외형선
  6
Continuous
 62
     1
370
    15
100
AcDbLine
 10
32.19387039218049
 20
-6.153698459267915
 30
0.0
 11
32.19115629334374
 21
-6.149432984426255
 31
0.0
  0
LINE
  5
26F
330
1F
100
AcDbEntity
  8
외형선
  6
Continuous
 62
     1
370
    15
100
AcDbLine
 10
10.69748454581392
 20
6.207170932920593
 30
0.0
 11
10.69448547655221
 21
6.211278500098723
 31
0.0
  0
SPLINE
  5
270
330
1F
100
AcDbEntity
  8
외형선
  6
Continuous
 62
     1
370
    15
100
AcDbSpline
210
0.0
220
0.0
230
1.0
 70
     8
 71
     3
 72
     9
 73
     5
 74
     0
 42
0.000000001
 43
0.00000001
 40
0.0
 40
0.0
 40
0.0
 40
0.0
 40
0.4548441603143809
 40
1.0
 40
1.0
 40
1.0
 40
1.0
 10
20.69779133322924
 20
6.21465573078051
 30
0.0
 10
20.69744848412225
 20
6.215408819303567
 30
0.0
 10
20.69669471143064
 20
6.217064526002181
 30
0.0
 10
20.69595682021083
 20
6.216259928806353
 30
0.0
 10
20.6955545545033
 20
6.215821297946452
 30
0.0
  0
LINE
  5
271
330
1F
100
AcDbEntity
  8
외형선
  6
Continuous
 62
     1
370
    15
100
AcDbLine
 10
41.55161689550251
 20
6.371443508682458
 30
0.0
 11
41.55377014797529
 21
6.354931086399211
 31
0.0
  0
LINE
  5
272
330
1F
100
AcDbEntity
  8
외형선
  6
Continuous
370
    15
100
AcDbLine
 10
10.25110017167002
 20
6.364139566986499
 30
0.0
 11
10.22646439903106
 21
6.369155996679852
 31
0.0
  0
SPLINE
  5
273
330
1F
100
AcDbEntity
  8
외형선
  6
Continuous
 62
     1
370
    15
100
AcDbSpline
210
0.0
220
0.0
230
1.0
 70
     8
 71
     3
 72
     9
 73
     5
 74
     0
 42
0.000000001
 43
0.00000001
 40
0.0
 40
0.0
 40
0.0
 40
0.0
 40
0.9060414678793511
 40
1.0
 40
1.0
 40
1.0
 40
1.0
 10
12.19341097654916
 20
-6.152691697677677
 30
0.0
 10
12.19175551912165
 20
-6.154594398844402
 30
0.0
 10
12.18992838704636
 20
-6.156694414389142
 30
0.0
 10
12.18816583193853
 20
-6.153444126546707
 30
0.0
 10
12.18800022484781
 20
-6.153138734272061
 30
0.0
  0
LINE
  5
274
330
1F
100
AcDbEntity
  8
외형선
  6
Continuous
 62
     1
370
    15
100
AcDbLine
 10
20.24622298447401
 20
6.369436862636713
 30
0.0
 11
20.23508377397805
 21
6.375531682010018
 31
0.0
  0
LINE
  5
275
330
1F
100
AcDbEntity
  8
외형선
  6
Continuous
 62
     1
370
    15
100
AcDbLine
 10
40.70048885473689
 20
6.202219956385519
 30
0.0
 11
40.6949792998095
 21
6.20331402770004
 31
0.0
  0
LINE
  5
276
330
1F
100
AcDbEntity
  8
외형선
  6
Continuous
 62
     1
370
    15
100
AcDbLine
 10
30.25755274165715
 20
6.366727717694749
 30
0.0
 11
30.24388883434542
 21
6.378957021882501
 31
0.0
  0
LINE
  5
277
330
1F
100
AcDbEntity
  8
외형선
  6
Continuous
 62
     1
370
    15
100
AcDbLine
 10
41.75000000000001
 20
6.171327631508126
 30
0.0
 11
41.75000000000001
 21
6.179528729720476
 31
0.0
  0
LINE
  5
278
330
1F
100
AcDbEntity
  8
외형선
  6
Continuous
 62
     1
370
    15
100
AcDbLine
 10
40.26170091657003
 20
6.36806149626733
 30
0.0
 11
40.25260891284231
 21
6.379306918320435
 31
0.0
  0
LINE
  5
279
330
1F
100
AcDbEntity
  8
외형선
  6
Continuous
370
    15
100
AcDbLine
 10
10.00000000000001
 20
6.377971988960139
 30
0.0
 11
10.00000000000001
 21
6.37952872972047
 31
0.0
  0
LINE
  5
27A
330
1F
100
AcDbEntity
  8
외형선
  6
Continuous
 62
     1
370
    15
100
AcDbLine
 10
19.57574624532797
 20
6.18899804379328
 30
0.0
 11
19.56692947334451
 21
6.207282704740742
 31
0.0
  0
LINE
  5
27B
330
1F
100
AcDbEntity
  8
외형선
  6
Continuous
 62
     1
370
    15
100
AcDbLine
 10
33.53897444670684
 20
-6.146052713805752
 30
0.0
 11
33.53140665210599
 21
-6.131272018625967
 31
0.0
  0
LINE
  5
27C
330
1F
100
AcDbEntity
  8
중심선
 62
     1
100
AcDbLine
 10
-43.8
 20
0.0010749287238888
 30
0.0
 11
44.75000000000002
 21
0.0010749287238997
 31
0.0
  0
LINE
  5
27D
330
1F
100
AcDbEntity
  8
참조1
100
AcDbLine
 10
0.4750000000000101
 20
0.0010749287238892
 30
0.0
 11
0.4750000000000154
 21
-39.99892507127611
 31
0.0
  0
LINE
  5
27E
330
1F
100
AcDbEntity
  8
참조1
100
AcDbLine
 10
0.4750000000000154
 20
-39.99892507127611
 30
0.0
 11
-5.043307771833651
 21
-39.9989250712761
 31
0.0
  0
CIRCLE
  5
27F
330
1F
100
AcDbEntity
  8
해칭선
100
AcDbCircle
 10
0.0000000000000069
 20
0.0
 30
0.0
 40
2.999999999999908
  0
INSERT
  5
280
330
1F
100
AcDbEntity
  8
0
  6
Continuous
 62
     7
100
AcDbBlockReference
 66
     1
  2
블럭10
 10
-13.4652729321252
 20
-52.04609937292004
 30
0.0
  0
ATTRIB
  5
281
330
280
100
AcDbEntity
  8
FORMAT
 62
     2
100
AcDbText
 10
-22.64656822086648
 20
-49.97073246008785
 30
0.0
 40
4.233333333333333
  1
E2170032 [ 4 FLUTE ]
 41
0.75
  7
SLDTEXTSTYLE0
 11
-22.64656822086648
 21
-52.08739912675452
 31
0.0
100
AcDbAttribute
  2
AUTOATTR0
 70
     0
 74
     1
  0
SEQEND
  5
282
330
280
100
AcDbEntity
  8
0
  6
Continuous
 62
     7
  0
HATCH
  5
283
330
1F
100
AcDbEntity
  8
중심선
100
AcDbHatch
 10
0.0
 20
0.0
 30
0.0
210
0.0
220
0.0
230
1.0
  2
SOLID
 70
     1
 71
     0
 91
        1
 92
        0
 93
        4
 72
     1
 10
-7.750363627744338
 20
-35.7989250712761
 11
-11.19663887158162
 21
-35.7989250712761
 72
     1
 10
-11.19663887158162
 20
-35.7989250712761
 11
-13.32486873078564
 21
-38.3352506518487
 72
     1
 10
-13.32486873078564
 20
-38.3352506518487
 11
-9.878560401835184
 21
-38.33521122254621
 72
     1
 10
-9.878560401835184
 20
-38.33521122254621
 11
-7.750363627744338
 21
-35.7989250712761
 97
        0
 75
     0
 76
     1
 98
        1
 10
0.0
 20
0.0
  0
HATCH
  5
284
330
1F
100
AcDbEntity
  8
중심선
100
AcDbHatch
 10
0.0
 20
0.0
 30
0.0
210
0.0
220
0.0
230
1.0
  2
SOLID
 70
     1
 71
     0
 91
        1
 92
        0
 93
        4
 72
     1
 10
-2.737599636708388
 20
-35.79892507127613
 11
-6.18387488054567
 21
-35.7989250712761
 72
     1
 10
-6.18387488054567
 20
-35.7989250712761
 11
-10.71501288890306
 21
-41.19892507127612
 72
     1
 10
-10.71501288890306
 20
-41.19892507127612
 11
-7.268737645065776
 21
-41.19892507127612
 72
     1
 10
-7.268737645065776
 20
-41.19892507127612
 11
-2.737599636708388
 21
-35.79892507127613
 97
        0
 75
     0
 76
     1
 98
        1
 10
0.0
 20
0.0
  0
HATCH
  5
285
330
1F
100
AcDbEntity
  8
중심선
100
AcDbHatch
 10
0.0
 20
0.0
 30
0.0
210
0.0
220
0.0
230
1.0
  2
SOLID
 70
     1
 71
     0
 91
        1
 92
        0
 93
        4
 72
     1
 10
2.275164354327508
 20
-35.7989250712761
 11
-1.171110889509608
 21
-35.7989250712761
 72
     1
 10
-1.171110889509608
 20
-35.7989250712761
 11
-8.219547791398856
 21
-44.19892507127612
 72
     1
 10
-8.219547791398856
 20
-44.19892507127612
 11
-4.773272547561574
 21
-44.19892507127612
 72
     1
 10
-4.773272547561574
 20
-44.19892507127612
 11
2.275164354327508
 21
-35.7989250712761
 97
        0
 75
     0
 76
     1
 98
        1
 10
0.0
 20
0.0
  0
HATCH
  5
286
330
1F
100
AcDbEntity
  8
중심선
100
AcDbHatch
 10
0.0
 20
0.0
 30
0.0
210
0.0
220
0.0
230
1.0
  2
SOLID
 70
     1
 71
     0
 91
        1
 92
        0
 93
        6
 72
     3
 10
7.075054785339708
 20
-39.99892507132738
 11
3.960054785062284
 21
1.540850780301639E-10
 40
0.3939339440162633
 50
17.09539180608434
 51
320.0019657685079
 73
     0
 72
     1
 10
8.758054441040303
 20
-38.58681907591441
 11
11.06335631474134
 21
-36.65249236586649
 72
     3
 10
7.075054785286861
 20
-39.99892507127625
 11
6.600054785286829
 21
-1.249000902703301E-13
 40
0.6363583540795982
 50
39.99873849337408
 51
368.4976242363725
 73
     1
 72
     1
 10
13.50038727718747
 20
-39.03892507120613
 11
5.755122092122783
 21
-39.03892507120613
 72
     1
 10
5.755122092122783
 20
-39.03892507120613
 11
5.755097047676849
 21
-40.95892507120602
 72
     1
 10
5.755097047676849
 20
-40.95892507120602
 11
10.19647681714889
 21
-40.95892507120599
 97
        0
 75
     0
 76
     1
 98
        1
 10
0.0
 20
0.0
  0
DIMENSION
  5
287
330
1F
100
AcDbEntity
  8
치수문자_일반주서
100
AcDbDimension
  2
_D
 10
-53.79999999999999
 20
-6.320471270279568
 30
0.0
 11
-53.80000000000001
 21
0.0295287297204707
 31
0.0
 70
   160
  1
%%c<>
 71
     2
 42
12.69999999999999
  3
SLDDIMSTYLE0
100
AcDbAlignedDimension
 13
-39.52999999999998
 23
6.37952872972047
 33
0.0
 14
-39.52999999999998
 24
-6.320471270279518
 34
0.0
 50
90.0000000000002
100
AcDbRotatedDimension
1001
ACAD
1000
DSTYLE
1002
{
1070
   171
1070
     6
1070
   273
1070
     7
1002
}
  0
DIMENSION
  5
29C
330
1F
100
AcDbEntity
  8
치수문자_일반주서
100
AcDbDimension
  2
_D_1
 10
60.60273101556588
 20
-6.320471270279342
 30
0.0
 11
60.60273101556578
 21
23.02527872972066
 31
0.0
 70
   160
  1
%%c<>
 71
     2
 42
12.7
  3
SLDDIMSTYLE1
100
AcDbAlignedDimension
 13
7.969783843699846
 23
6.379528729720476
 33
0.0
 14
7.969783843699847
 24
-6.320471270279524
 34
0.0
 50
90.0000000000002
100
AcDbRotatedDimension
1001
ACAD
1000
DSTYLE
1002
{
1070
   171
1070
     6
1070
   273
1070
     7
1002
}
  0
DIMENSION
  5
2B0
330
1F
100
AcDbEntity
  8
치수문자_일반주서
100
AcDbDimension
  2
_D_2
 10
10.00000000000001
 20
25.58279748238182
 30
0.0
 11
26.94047892942831
 21
25.58279748238182
 31
0.0
 70
   160
  1
<>
 71
     2
 42
31.75
  3
SLDDIMSTYLE2
100
AcDbAlignedDimension
 13
41.75000000000001
 23
6.171327631508126
 33
0.0
 14
10.00000000000001
 24
-5.860571551938518
 34
0.0
 50
0.0000000000000128
100
AcDbRotatedDimension
1001
ACAD
1000
DSTYLE
1002
{
1070
   171
1070
     6
1070
   273
1070
     7
1002
}
  0
DIMENSION
  5
2C5
330
1F
100
AcDbEntity
  8
치수문자_일반주서
100
AcDbDimension
  2
_D_3
 10
-40.79999999999999
 20
36.43444453646562
 30
0.0
 11
-0.5208319829470156
 21
36.43444453646562
 31
0.0
 70
   160
  1
<>
 71
     2
 42
82.55000000000001
  3
SLDDIMSTYLE2
100
AcDbAlignedDimension
 13
41.75000000000001
 23
6.171327631508126
 33
0.0
 14
-40.8
 24
5.109528729720468
 34
0.0
 50
-0.0000000000000099
100
AcDbRotatedDimension
1001
ACAD
1000
DSTYLE
1002
{
1070
   171
1070
     6
1070
   273
1070
     7
1002
}
  0
LINE
  5
2D8
330
1F
100
AcDbEntity
  8
참조1
100
AcDbLine
 10
92.92903285782062
 20
7.441074928723896
 30
0.0
 11
92.92903285782062
 21
-7.438925071276109
 31
0.0
  0
LINE
  5
2D9
330
1F
100
AcDbEntity
  8
참조1
100
AcDbLine
 10
105.6290328578206
 20
5.441074928723896
 30
0.0
 11
92.92903285782062
 21
5.441074928723896
 31
0.0
  0
SOLID
  5
2DA
330
1F
100
AcDbEntity
  8
참조1
100
AcDbTrace
 10
92.92903285782062
 20
5.441074928723896
 30
0.0
 11
99.27903285782061
 21
4.425074928723896
 31
0.0
 12
99.27903285782061
 22
6.457074928723896
 32
0.0
 13
99.27903285782061
 23
6.457074928723896
 33
0.0
  0
LINE
  5
2DB
330
1F
100
AcDbEntity
  8
참조1
100
AcDbLine
 10
105.6290328578206
 20
-5.438925071276109
 30
0.0
 11
92.92903285782062
 21
-5.438925071276109
 31
0.0
  0
SOLID
  5
2DC
330
1F
100
AcDbEntity
  8
참조1
100
AcDbTrace
 10
92.92903285782062
 20
-5.438925071276109
 30
0.0
 11
99.27903285782061
 21
-6.454925071276109
 31
0.0
 12
99.27903285782061
 22
-4.422925071276109
 32
0.0
 13
99.27903285782061
 23
-4.422925071276109
 33
0.0
  0
MTEXT
  5
2DD
330
1F
100
AcDbEntity
  8
참조1
100
AcDbMText
 10
102.5291476683832
 20
11.06679249473997
 30
0.0
 40
3.5
 41
0.0
 71
     1
 72
     1
  1
A
  7
SLDTEXTSTYLE0
 73
     1
 44
1.0
  0
MTEXT
  5
2DE
330
1F
100
AcDbEntity
  8
참조1
100
AcDbMText
 10
102.5291476683832
 20
0.1867924947399641
 30
0.0
 40
3.5
 41
0.0
 71
     1
 72
     1
  1
A
  7
SLDTEXTSTYLE0
 73
     1
 44
1.0
  0
INSERT
  5
2E5
330
1F
100
AcDbEntity
  8
해칭선
100
AcDbBlockReference
  2
SW_DOWELSYMBOL_0
 10
0.0000000000000069
 20
0.0
 30
0.0
  0
LINE
  5
346
330
1F
100
AcDbEntity
  8
외형선
  6
Continuous
370
    15
100
AcDbLine
 10
-23.76612499999997
 20
4.855528729720461
 30
0.0
 11
-12.5901250000001
 21
4.855528729720461
 31
0.0
  0
LINE
  5
347
330
1F
100
AcDbEntity
  8
외형선
  6
Continuous
370
    15
100
AcDbLine
 10
-23.76612499999997
 20
4.855528729720461
 30
0.0
 11
-25.29012499999997
 21
6.379528729720462
 31
0.0
  0
LINE
  5
348
330
1F
100
AcDbEntity
  8
외형선
  6
Continuous
370
    15
100
AcDbLine
 10
-12.59012499999999
 20
4.855528729720461
 30
0.0
 11
-11.06612499999999
 21
6.379528729720462
 31
0.0
  0
LINE
  5
349
330
1F
100
AcDbEntity
  8
외형선
  6
Continuous
370
    15
100
AcDbLine
 10
-25.29012499999999
 20
6.379528729720471
 30
0.0
 11
-39.52999999999999
 21
6.379528729720469
 31
0.0
  0
ENDSEC
  0
SECTION
  2
OBJECTS
  0
DICTIONARY
  5
C
330
0
100
AcDbDictionary
281
     1
  3
ACAD_GROUP
350
D
  3
ACAD_IMAGE_VARS
350
309
  3
ACAD_LAYOUT
350
1A
  3
ACAD_MLINESTYLE
350
17
  3
ACAD_PLOTSETTINGS
350
19
  3
ACAD_PLOTSTYLENAME
350
E
  3
ACAD_SCALELIST
350
47
  3
APPDATA
350
307
  3
DWGPROPS
350
34A
  0
DICTIONARY
  5
337
330
2
100
AcDbDictionary
280
     1
281
     1
  3
ACAD_LAYERSTATES
360
338
  0
DICTIONARY
  5
D
102
{ACAD_REACTORS
330
C
102
}
330
C
100
AcDbDictionary
281
     1
  0
RASTERVARIABLES
  5
309
102
{ACAD_REACTORS
330
C
102
}
330
C
100
AcDbRasterVariables
 90
        0
 70
     1
 71
     1
 72
     1
  0
DICTIONARY
  5
1A
102
{ACAD_REACTORS
330
C
102
}
330
C
100
AcDbDictionary
281
     1
  3
Layout1
350
1E
  3
Layout2
350
26
  3
Model
350
22
  0
DICTIONARY
  5
17
102
{ACAD_REACTORS
330
C
102
}
330
C
100
AcDbDictionary
281
     1
  3
Standard
350
18
  0
DICTIONARY
  5
19
102
{ACAD_REACTORS
330
C
102
}
330
C
100
AcDbDictionary
281
     1
  0
ACDBDICTIONARYWDFLT
  5
E
102
{ACAD_REACTORS
330
C
102
}
330
C
100
AcDbDictionary
281
     1
  3
Normal
350
F
100
AcDbDictionaryWithDefault
340
F
  0
DICTIONARY
  5
47
102
{ACAD_REACTORS
330
C
102
}
330
C
100
AcDbDictionary
281
     1
  3
A0
350
48
  3
A1
350
49
  3
A2
350
4A
  3
A3
350
4B
  3
A4
350
4C
  3
A5
350
4D
  3
A6
350
4E
  3
A7
350
4F
  3
A8
350
50
  3
A9
350
51
  3
B0
350
52
  3
B1
350
53
  3
B2
350
54
  3
B3
350
55
  3
B4
350
56
  3
B5
350
57
  3
B6
350
58
  3
B7
350
59
  3
B8
350
5A
  3
B9
350
5B
  3
C0
350
5C
  3
C1
350
5D
  3
C2
350
5E
  3
C3
350
5F
  3
C4
350
60
  3
C5
350
61
  3
C6
350
62
  3
C7
350
63
  3
C8
350
64
  3
C9
350
65
  3
D0
350
66
  3
D1
350
67
  3
D2
350
68
  0
DICTIONARY
  5
307
102
{ACAD_REACTORS
330
C
102
}
330
C
100
AcDbDictionary
281
     1
  0
XRECORD
  5
34A
102
{ACAD_REACTORS
330
C
102
}
330
C
100
AcDbXrecord
280
     1
  1
DWGPROPS COOKIE
  2

  3

  4

  6

  7

  8
12016016
  9

300
=
301
=
302
=
303
=
304
=
305
=
306
=
307
=
308
=
309
=
 40
0.0
 41
2458319.04113912
 42
2458331.272361065
  1

 90
        0
  0
DICTIONARY
  5
338
102
{ACAD_REACTORS
330
337
102
}
330
337
100
AcDbDictionary
281
     1
  0
LAYOUT
  5
1E
102
{ACAD_REACTORS
330
1A
102
}
330
1A
100
AcDbPlotSettings
  1

  2
none_device
  4

  6

 40
0.0
 41
0.0
 42
0.0
 43
0.0
 44
0.0
 45
0.0
 46
0.0
 47
0.0
 48
0.0
 49
0.0
140
0.0
141
0.0
142
1.0
143
1.0
 70
   688
 72
     1
 73
     0
 74
     5
  7

 75
    16
147
1.0
148
0.0
149
0.0
100
AcDbLayout
  1
Layout1
 70
     1
 71
     1
 10
0.0
 20
0.0
 11
420.0
 21
297.0
 12
0.0
 22
0.0
 32
0.0
 14
1.000000000000000E+20
 24
1.000000000000000E+20
 34
1.000000000000000E+20
 15
-1.000000000000000E+20
 25
-1.000000000000000E+20
 35
-1.000000000000000E+20
146
0.0
 13
0.0
 23
0.0
 33
0.0
 16
1.0
 26
0.0
 36
0.0
 17
0.0
 27
1.0
 37
0.0
 76
     0
330
1B
  0
LAYOUT
  5
26
102
{ACAD_REACTORS
330
1A
102
}
330
1A
100
AcDbPlotSettings
  1

  2
none_device
  4

  6

 40
0.0
 41
0.0
 42
0.0
 43
0.0
 44
0.0
 45
0.0
 46
0.0
 47
0.0
 48
0.0
 49
0.0
140
0.0
141
0.0
142
1.0
143
1.0
 70
   688
 72
     1
 73
     0
 74
     5
  7

 75
    16
147
1.0
148
0.0
149
0.0
100
AcDbLayout
  1
Layout2
 70
     1
 71
     2
 10
0.0
 20
0.0
 11
0.0
 21
0.0
 12
0.0
 22
0.0
 32
0.0
 14
0.0
 24
0.0
 34
0.0
 15
0.0
 25
0.0
 35
0.0
146
0.0
 13
0.0
 23
0.0
 33
0.0
 16
1.0
 26
0.0
 36
0.0
 17
0.0
 27
1.0
 37
0.0
 76
     0
330
23
  0
LAYOUT
  5
22
102
{ACAD_REACTORS
330
1A
102
}
330
1A
100
AcDbPlotSettings
  1

  2
none_device
  4
ANSI_A_(11.00_x_8.50_Inches)
  6

 40
6.35
 41
19.05
 42
6.35000508
 43
19.05000254
 44
279.4
 45
215.9
 46
100.0086804764069
 47
83.45989520838677
 48
0.0
 49
0.0
140
0.0
141
0.0
142
0.0639753114471907
143
1.0
 70
  1696
 72
     0
 73
     0
 74
     0
  7

 75
     0
147
0.0235690232323232
148
0.0
149
0.0
100
AcDbLayout
  1
Model
 70
     1
 71
     0
 10
0.0
 20
0.0
 11
420.0
 21
297.0
 12
0.0
 22
0.0
 32
0.0
 14
1.000000000000000E+20
 24
1.000000000000000E+20
 34
1.000000000000000E+20
 15
-1.000000000000000E+20
 25
-1.000000000000000E+20
 35
-1.000000000000000E+20
146
0.0
 13
0.0
 23
0.0
 33
0.0
 16
1.0
 26
0.0
 36
0.0
 17
0.0
 27
1.0
 37
0.0
 76
     0
330
1F
331
29
  0
MLINESTYLE
  5
18
102
{ACAD_REACTORS
330
17
102
}
330
17
100
AcDbMlineStyle
  2
Standard
 70
     0
  3

 62
   256
 51
90.0
 52
90.0
 71
     2
 49
0.5
 62
   256
  6
BYLAYER
 49
-0.5
 62
   256
  6
BYLAYER
  0
ACDBPLACEHOLDER
  5
F
102
{ACAD_REACTORS
330
E
102
}
330
E
  0
SCALE
  5
48
102
{ACAD_REACTORS
330
47
102
}
330
47
100
AcDbScale
 70
     0
300
1:1
140
1.0
141
1.0
290
     1
  0
SCALE
  5
49
102
{ACAD_REACTORS
330
47
102
}
330
47
100
AcDbScale
 70
     0
300
1:2
140
1.0
141
2.0
290
     0
  0
SCALE
  5
4A
102
{ACAD_REACTORS
330
47
102
}
330
47
100
AcDbScale
 70
     0
300
1:4
140
1.0
141
4.0
290
     0
  0
SCALE
  5
4B
102
{ACAD_REACTORS
330
47
102
}
330
47
100
AcDbScale
 70
     0
300
1:5
140
1.0
141
5.0
290
     0
  0
SCALE
  5
4C
102
{ACAD_REACTORS
330
47
102
}
330
47
100
AcDbScale
 70
     0
300
1:8
140
1.0
141
8.0
290
     0
  0
SCALE
  5
4D
102
{ACAD_REACTORS
330
47
102
}
330
47
100
AcDbScale
 70
     0
300
1:10
140
1.0
141
10.0
290
     0
  0
SCALE
  5
4E
102
{ACAD_REACTORS
330
47
102
}
330
47
100
AcDbScale
 70
     0
300
1:16
140
1.0
141
16.0
290
     0
  0
SCALE
  5
4F
102
{ACAD_REACTORS
330
47
102
}
330
47
100
AcDbScale
 70
     0
300
1:20
140
1.0
141
20.0
290
     0
  0
SCALE
  5
50
102
{ACAD_REACTORS
330
47
102
}
330
47
100
AcDbScale
 70
     0
300
1:30
140
1.0
141
30.0
290
     0
  0
SCALE
  5
51
102
{ACAD_REACTORS
330
47
102
}
330
47
100
AcDbScale
 70
     0
300
1:40
140
1.0
141
40.0
290
     0
  0
SCALE
  5
52
102
{ACAD_REACTORS
330
47
102
}
330
47
100
AcDbScale
 70
     0
300
1:50
140
1.0
141
50.0
290
     0
  0
SCALE
  5
53
102
{ACAD_REACTORS
330
47
102
}
330
47
100
AcDbScale
 70
     0
300
1:100
140
1.0
141
100.0
290
     0
  0
SCALE
  5
54
102
{ACAD_REACTORS
330
47
102
}
330
47
100
AcDbScale
 70
     0
300
2:1
140
2.0
141
1.0
290
     0
  0
SCALE
  5
55
102
{ACAD_REACTORS
330
47
102
}
330
47
100
AcDbScale
 70
     0
300
4:1
140
4.0
141
1.0
290
     0
  0
SCALE
  5
56
102
{ACAD_REACTORS
330
47
102
}
330
47
100
AcDbScale
 70
     0
300
8:1
140
8.0
141
1.0
290
     0
  0
SCALE
  5
57
102
{ACAD_REACTORS
330
47
102
}
330
47
100
AcDbScale
 70
     0
300
10:1
140
10.0
141
1.0
290
     0
  0
SCALE
  5
58
102
{ACAD_REACTORS
330
47
102
}
330
47
100
AcDbScale
 70
     0
300
100:1
140
100.0
141
1.0
290
     0
  0
SCALE
  5
59
102
{ACAD_REACTORS
330
47
102
}
330
47
100
AcDbScale
 70
     0
300
1/128" = 1'-0"
140
0.0078125
141
12.0
290
     0
  0
SCALE
  5
5A
102
{ACAD_REACTORS
330
47
102
}
330
47
100
AcDbScale
 70
     0
300
1/64" = 1'-0"
140
0.015625
141
12.0
290
     0
  0
SCALE
  5
5B
102
{ACAD_REACTORS
330
47
102
}
330
47
100
AcDbScale
 70
     0
300
1/32" = 1'-0"
140
0.03125
141
12.0
290
     0
  0
SCALE
  5
5C
102
{ACAD_REACTORS
330
47
102
}
330
47
100
AcDbScale
 70
     0
300
1/16" = 1'-0"
140
0.0625
141
12.0
290
     0
  0
SCALE
  5
5D
102
{ACAD_REACTORS
330
47
102
}
330
47
100
AcDbScale
 70
     0
300
3/32" = 1'-0"
140
0.09375
141
12.0
290
     0
  0
SCALE
  5
5E
102
{ACAD_REACTORS
330
47
102
}
330
47
100
AcDbScale
 70
     0
300
1/8" = 1'-0"
140
0.125
141
12.0
290
     0
  0
SCALE
  5
5F
102
{ACAD_REACTORS
330
47
102
}
330
47
100
AcDbScale
 70
     0
300
3/16" = 1'-0"
140
0.1875
141
12.0
290
     0
  0
SCALE
  5
60
102
{ACAD_REACTORS
330
47
102
}
330
47
100
AcDbScale
 70
     0
300
1/4" = 1'-0"
140
0.25
141
12.0
290
     0
  0
SCALE
  5
61
102
{ACAD_REACTORS
330
47
102
}
330
47
100
AcDbScale
 70
     0
300
3/8" = 1'-0"
140
0.375
141
12.0
290
     0
  0
SCALE
  5
62
102
{ACAD_REACTORS
330
47
102
}
330
47
100
AcDbScale
 70
     0
300
1/2" = 1'-0"
140
0.5
141
12.0
290
     0
  0
SCALE
  5
63
102
{ACAD_REACTORS
330
47
102
}
330
47
100
AcDbScale
 70
     0
300
3/4" = 1'-0"
140
0.75
141
12.0
290
     0
  0
SCALE
  5
64
102
{ACAD_REACTORS
330
47
102
}
330
47
100
AcDbScale
 70
     0
300
1" = 1'-0"
140
1.0
141
12.0
290
     0
  0
SCALE
  5
65
102
{ACAD_REACTORS
330
47
102
}
330
47
100
AcDbScale
 70
     0
300
1-1/2" = 1'-0"
140
1.5
141
12.0
290
     0
  0
SCALE
  5
66
102
{ACAD_REACTORS
330
47
102
}
330
47
100
AcDbScale
 70
     0
300
3" = 1'-0"
140
3.0
141
12.0
290
     0
  0
SCALE
  5
67
102
{ACAD_REACTORS
330
47
102
}
330
47
100
AcDbScale
 70
     0
300
6" = 1'-0"
140
6.0
141
12.0
290
     0
  0
SCALE
  5
68
102
{ACAD_REACTORS
330
47
102
}
330
47
100
AcDbScale
 70
     0
300
1'-0" = 1'-0"
140
12.0
141
12.0
290
     0
  0
ENDSEC
  0
EOF
