  0
SECTION
  2
HEADER
  9
$ACADVER
  1
AC1015
  9
$ACADMAINTVER
 70
     6
  9
$DWGCODEPAGE
  3
ANSI_949
  9
$INSBASE
 10
0.0
 20
0.0
 30
0.0
  9
$EXTMIN
 10
-59.35000000000007
 20
-49.97073246008785
 30
0.0
  9
$EXTMAX
 10
133.8272864215856
 20
46.79563796711785
 30
0.0
  9
$LIMMIN
 10
0.0
 20
0.0
  9
$LIMMAX
 10
420.0
 20
297.0
  9
$ORTHOMODE
 70
     0
  9
$REGENMODE
 70
     1
  9
$FILLMODE
 70
     1
  9
$QTEXTMODE
 70
     0
  9
$MIRRTEXT
 70
     1
  9
$LTSCALE
 40
1.0
  9
$ATTMODE
 70
     1
  9
$TEXTSIZE
 40
3.5
  9
$TRACEWID
 40
1.0
  9
$TEXTSTYLE
  7
Standard
  9
$CLAYER
  8
0
  9
$CELTYPE
  6
ByLayer
  9
$CECOLOR
 62
   256
  9
$CELTSCALE
 40
1.0
  9
$DISPSILH
 70
     0
  9
$DIMSCALE
 40
1.0
  9
$DIMASZ
 40
3.302
  9
$DIMEXO
 40
1.0
  9
$DIMDLI
 40
3.75
  9
$DIMRND
 40
0.0
  9
$DIMDLE
 40
0.0
  9
$DIMEXE
 40
1.0
  9
$DIMTP
 40
0.0
  9
$DIMTM
 40
0.0
  9
$DIMTXT
 40
3.5
  9
$DIMCEN
 40
2.5
  9
$DIMTSZ
 40
0.0
  9
$DIMTOL
 70
     0
  9
$DIMLIM
 70
     0
  9
$DIMTIH
 70
     1
  9
$DIMTOH
 70
     1
  9
$DIMSE1
 70
     0
  9
$DIMSE2
 70
     0
  9
$DIMTAD
 70
     1
  9
$DIMZIN
 70
     0
  9
$DIMBLK
  1

  9
$DIMASO
 70
     1
  9
$DIMSHO
 70
     1
  9
$DIMPOST
  1

  9
$DIMAPOST
  1

  9
$DIMALT
 70
     0
  9
$DIMALTD
 70
     3
  9
$DIMALTF
 40
0.0393700787401575
  9
$DIMLFAC
 40
1.0
  9
$DIMTOFL
 70
     1
  9
$DIMTVP
 40
0.0
  9
$DIMTIX
 70
     0
  9
$DIMSOXD
 70
     0
  9
$DIMSAH
 70
     0
  9
$DIMBLK1
  1

  9
$DIMBLK2
  1

  9
$DIMSTYLE
  2
ISO-25
  9
$DIMCLRD
 70
     0
  9
$DIMCLRE
 70
     0
  9
$DIMCLRT
 70
     0
  9
$DIMTFAC
 40
1.0
  9
$DIMGAP
 40
1.524
  9
$DIMJUST
 70
     0
  9
$DIMSD1
 70
     0
  9
$DIMSD2
 70
     0
  9
$DIMTOLJ
 70
     0
  9
$DIMTZIN
 70
     0
  9
$DIMALTZ
 70
     0
  9
$DIMALTTZ
 70
     0
  9
$DIMUPT
 70
     0
  9
$DIMDEC
 70
     2
  9
$DIMTDEC
 70
     2
  9
$DIMALTU
 70
     2
  9
$DIMALTTD
 70
     3
  9
$DIMTXSTY
  7
Standard
  9
$DIMAUNIT
 70
     0
  9
$DIMADEC
 70
     2
  9
$DIMALTRND
 40
0.0
  9
$DIMAZIN
 70
     0
  9
$DIMDSEP
 70
    44
  9
$DIMATFIT
 70
     3
  9
$DIMFRAC
 70
     0
  9
$DIMLDRBLK
  1

  9
$DIMLUNIT
 70
     2
  9
$DIMLWD
 70
    -2
  9
$DIMLWE
 70
    -2
  9
$DIMTMOVE
 70
     0
  9
$LUNITS
 70
     2
  9
$LUPREC
 70
     2
  9
$SKETCHINC
 40
1.0
  9
$FILLETRAD
 40
10.0
  9
$AUNITS
 70
     0
  9
$AUPREC
 70
     2
  9
$MENU
  1
.
  9
$ELEVATION
 40
0.0
  9
$PELEVATION
 40
0.0
  9
$THICKNESS
 40
0.0
  9
$LIMCHECK
 70
     0
  9
$CHAMFERA
 40
0.0
  9
$CHAMFERB
 40
0.0
  9
$CHAMFERC
 40
0.0
  9
$CHAMFERD
 40
0.0
  9
$SKPOLY
 70
     0
  9
$TDCREATE
 40
2458323.441744873
  9
$TDUCREATE
 40
2458323.066744873
  9
$TDUPDATE
 40
2458323.745392257
  9
$TDUUPDATE
 40
2458323.370392257
  9
$TDINDWG
 40
0.0003550347
  9
$TDUSRTIMER
 40
2458323.370357824
  9
$USRTIMER
 70
     1
  9
$ANGBASE
 50
0.0
  9
$ANGDIR
 70
     0
  9
$PDMODE
 70
     0
  9
$PDSIZE
 40
-1.0
  9
$PLINEWID
 40
0.0
  9
$SPLFRAME
 70
     0
  9
$SPLINETYPE
 70
     6
  9
$SPLINESEGS
 70
     8
  9
$HANDSEED
  5
3A0
  9
$SURFTAB1
 70
     6
  9
$SURFTAB2
 70
     6
  9
$SURFTYPE
 70
     6
  9
$SURFU
 70
     6
  9
$SURFV
 70
     6
  9
$UCSBASE
  2

  9
$UCSNAME
  2

  9
$UCSORG
 10
0.0
 20
0.0
 30
0.0
  9
$UCSXDIR
 10
1.0
 20
0.0
 30
0.0
  9
$UCSYDIR
 10
0.0
 20
1.0
 30
0.0
  9
$UCSORTHOREF
  2

  9
$UCSORTHOVIEW
 70
     0
  9
$UCSORGTOP
 10
0.0
 20
0.0
 30
0.0
  9
$UCSORGBOTTOM
 10
0.0
 20
0.0
 30
0.0
  9
$UCSORGLEFT
 10
0.0
 20
0.0
 30
0.0
  9
$UCSORGRIGHT
 10
0.0
 20
0.0
 30
0.0
  9
$UCSORGFRONT
 10
0.0
 20
0.0
 30
0.0
  9
$UCSORGBACK
 10
0.0
 20
0.0
 30
0.0
  9
$PUCSBASE
  2

  9
$PUCSNAME
  2

  9
$PUCSORG
 10
0.0
 20
0.0
 30
0.0
  9
$PUCSXDIR
 10
1.0
 20
0.0
 30
0.0
  9
$PUCSYDIR
 10
0.0
 20
1.0
 30
0.0
  9
$PUCSORTHOREF
  2

  9
$PUCSORTHOVIEW
 70
     0
  9
$PUCSORGTOP
 10
0.0
 20
0.0
 30
0.0
  9
$PUCSORGBOTTOM
 10
0.0
 20
0.0
 30
0.0
  9
$PUCSORGLEFT
 10
0.0
 20
0.0
 30
0.0
  9
$PUCSORGRIGHT
 10
0.0
 20
0.0
 30
0.0
  9
$PUCSORGFRONT
 10
0.0
 20
0.0
 30
0.0
  9
$PUCSORGBACK
 10
0.0
 20
0.0
 30
0.0
  9
$USERI1
 70
     0
  9
$USERI2
 70
     0
  9
$USERI3
 70
     0
  9
$USERI4
 70
     0
  9
$USERI5
 70
     0
  9
$USERR1
 40
0.0
  9
$USERR2
 40
0.0
  9
$USERR3
 40
0.0
  9
$USERR4
 40
0.0
  9
$USERR5
 40
0.0
  9
$WORLDVIEW
 70
     1
  9
$SHADEDGE
 70
     3
  9
$SHADEDIF
 70
    70
  9
$TILEMODE
 70
     1
  9
$MAXACTVP
 70
    64
  9
$PINSBASE
 10
0.0
 20
0.0
 30
0.0
  9
$PLIMCHECK
 70
     0
  9
$PEXTMIN
 10
1.000000000000000E+20
 20
1.000000000000000E+20
 30
1.000000000000000E+20
  9
$PEXTMAX
 10
-1.000000000000000E+20
 20
-1.000000000000000E+20
 30
-1.000000000000000E+20
  9
$PLIMMIN
 10
0.0
 20
0.0
  9
$PLIMMAX
 10
0.0
 20
0.0
  9
$UNITMODE
 70
     0
  9
$VISRETAIN
 70
     1
  9
$PLINEGEN
 70
     0
  9
$PSLTSCALE
 70
     1
  9
$TREEDEPTH
 70
  3020
  9
$CMLSTYLE
  2
Standard
  9
$CMLJUST
 70
     0
  9
$CMLSCALE
 40
20.0
  9
$PROXYGRAPHICS
 70
     1
  9
$MEASUREMENT
 70
     1
  9
$CELWEIGHT
370
    -1
  9
$ENDCAPS
280
     0
  9
$JOINSTYLE
280
     0
  9
$LWDISPLAY
290
     1
  9
$INSUNITS
 70
     4
  9
$HYPERLINKBASE
  1

  9
$STYLESHEET
  1

  9
$XEDIT
290
     1
  9
$CEPSNTYPE
380
     0
  9
$PSTYLEMODE
290
     1
  9
$FINGERPRINTGUID
  2
{903BFCA2-168F-4DCD-B509-32C5A50178BB}
  9
$VERSIONGUID
  2
{FAEB1C32-E019-11D5-929B-00C0DF256EC4}
  9
$EXTNAMES
290
     1
  9
$PSVPSCALE
 40
0.0
  9
$OLESTARTUP
290
     0
  0
ENDSEC
  0
SECTION
  2
CLASSES
  0
CLASS
  1
ACDBDICTIONARYWDFLT
  2
AcDbDictionaryWithDefault
  3
ObjectDBX Classes
 90
        0
280
     0
281
     0
  0
CLASS
  1
VISUALSTYLE
  2
AcDbVisualStyle
  3
ObjectDBX Classes
 90
     4095
280
     0
281
     0
  0
CLASS
  1
MATERIAL
  2
AcDbMaterial
  3
ObjectDBX Classes
 90
     1153
280
     0
281
     0
  0
CLASS
  1
SCALE
  2
AcDbScale
  3
ObjectDBX Classes
 90
     1153
280
     0
281
     0
  0
CLASS
  1
SUN
  2
AcDbSun
  3
SCENEOE
 90
     1153
280
     0
281
     0
  0
CLASS
  1
ACDBPLACEHOLDER
  2
AcDbPlaceHolder
  3
ObjectDBX Classes
 90
        0
280
     0
281
     0
  0
CLASS
  1
LAYOUT
  2
AcDbLayout
  3
ObjectDBX Classes
 90
        0
280
     0
281
     0
  0
CLASS
  1
TABLESTYLE
  2
AcDbTableStyle
  3
ObjectDBX Classes
 90
     4095
280
     0
281
     0
  0
CLASS
  1
MLEADERSTYLE
  2
AcDbMLeaderStyle
  3
ACDB_MLEADERSTYLE_CLASS
 90
     4095
280
     0
281
     0
  0
CLASS
  1
RASTERVARIABLES
  2
AcDbRasterVariables
  3
ISM
 90
        0
280
     0
281
     0
  0
ENDSEC
  0
SECTION
  2
TABLES
  0
TABLE
  2
VPORT
  5
8
330
0
100
AcDbSymbolTable
 70
     1
  0
VPORT
  5
29
330
8
100
AcDbSymbolTableRecord
100
AcDbViewportTableRecord
  2
*Active
 70
     0
 10
0.0
 20
0.0
 11
1.0
 21
1.0
 12
51.68843026384312
 22
2.683741862766567
 13
0.0
 23
0.0
 14
10.0
 24
10.0
 15
10.0
 25
10.0
 16
0.0
 26
0.0
 36
1.0
 17
0.0
 27
0.0
 37
0.0
 40
155.2375058110654
 41
1.632093933463796
 42
50.0
 43
0.0
 44
0.0
 50
0.0
 51
0.0
 71
    16
 72
  2000
 73
     1
 74
     3
 75
     0
 76
     0
 77
     0
 78
     0
281
     0
 65
     1
110
0.0
120
0.0
130
0.0
111
1.0
121
0.0
131
0.0
112
0.0
122
1.0
132
0.0
 79
     0
146
0.0
  0
ENDTAB
  0
TABLE
  2
LTYPE
  5
5
330
0
100
AcDbSymbolTable
 70
     6
  0
LTYPE
  5
14
330
5
100
AcDbSymbolTableRecord
100
AcDbLinetypeTableRecord
  2
ByBlock
 70
     0
  3

 72
    65
 73
     0
 40
0.0
  0
LTYPE
  5
15
330
5
100
AcDbSymbolTableRecord
100
AcDbLinetypeTableRecord
  2
ByLayer
 70
     0
  3

 72
    65
 73
     0
 40
0.0
  0
LTYPE
  5
16
330
5
100
AcDbSymbolTableRecord
100
AcDbLinetypeTableRecord
  2
Continuous
 70
     0
  3
Solid line
 72
    65
 73
     0
 40
0.0
  0
LTYPE
  5
6A
330
5
100
AcDbSymbolTableRecord
100
AcDbLinetypeTableRecord
  2
HIDDEN
 70
     0
  3
Hidden __ __ __ __ __ __ __ __ __ __ __ __ __ __
 72
    65
 73
     2
 40
1.905
 49
1.27
 74
     0
 49
-0.635
 74
     0
  0
LTYPE
  5
6B
330
5
100
AcDbSymbolTableRecord
100
AcDbLinetypeTableRecord
  2
PHANTOM
 70
     0
  3
Phantom ______  __  __  ______  __  __  ______
 72
    65
 73
     6
 40
12.7
 49
6.35
 74
     0
 49
-1.27
 74
     0
 49
1.27
 74
     0
 49
-1.27
 74
     0
 49
1.27
 74
     0
 49
-1.27
 74
     0
  0
LTYPE
  5
6C
330
5
100
AcDbSymbolTableRecord
100
AcDbLinetypeTableRecord
  2
CENTER
 70
     0
  3
Center ____ _ ____ _ ____ _ ____ _ ____ _ ____
 72
    65
 73
     4
 40
10.16
 49
6.35
 74
     0
 49
-1.27
 74
     0
 49
1.27
 74
     0
 49
-1.27
 74
     0
  0
LTYPE
  5
6D
330
5
100
AcDbSymbolTableRecord
100
AcDbLinetypeTableRecord
  2
CENTERX2
 70
     0
  3
Center (2x) ________  __  ________  __  _____
 72
    65
 73
     4
 40
20.32
 49
12.7
 74
     0
 49
-2.54
 74
     0
 49
2.54
 74
     0
 49
-2.54
 74
     0
  0
LTYPE
  5
6E
330
5
100
AcDbSymbolTableRecord
100
AcDbLinetypeTableRecord
  2
DOT2
 70
     0
  3
Dot (.5x) ........................................
 72
    65
 73
     2
 40
0.635
 49
0.0
 74
     0
 49
-0.635
 74
     0
  0
ENDTAB
  0
TABLE
  2
LAYER
  5
2
102
{ACAD_XDICTIONARY
360
24D
102
}
330
0
100
AcDbSymbolTable
 70
    18
  0
LAYER
  5
10
330
2
100
AcDbSymbolTableRecord
100
AcDbLayerTableRecord
  2
0
 70
     0
 62
     7
  6
Continuous
370
    -3
390
F
  0
LAYER
  5
6F
330
2
100
AcDbSymbolTableRecord
100
AcDbLayerTableRecord
  2
FORMAT
 70
     0
 62
     2
  6
Continuous
370
    -3
390
F
  0
LAYER
  5
70
330
2
100
AcDbSymbolTableRecord
100
AcDbLayerTableRecord
  2
외형선
 70
     0
 62
     4
  6
Continuous
370
    30
390
F
  0
LAYER
  5
71
330
2
100
AcDbSymbolTableRecord
100
AcDbLayerTableRecord
  2
숨은선
 70
     0
 62
     2
  6
HIDDEN
370
    15
390
F
  0
LAYER
  5
72
330
2
100
AcDbSymbolTableRecord
100
AcDbLayerTableRecord
  2
중심선
 70
     0
 62
     1
  6
CENTERX2
370
    -3
390
F
  0
LAYER
  5
73
330
2
100
AcDbSymbolTableRecord
100
AcDbLayerTableRecord
  2
파단선
 70
     0
 62
     4
  6
Continuous
370
    -3
390
F
  0
LAYER
  5
74
330
2
100
AcDbSymbolTableRecord
100
AcDbLayerTableRecord
  2
해칭선
 70
     0
 62
   100
  6
Continuous
370
    -3
390
F
  0
LAYER
  5
75
330
2
100
AcDbSymbolTableRecord
100
AcDbLayerTableRecord
  2
가는실선
 70
     0
 62
     4
  6
Continuous
370
    -3
390
F
  0
LAYER
  5
76
330
2
100
AcDbSymbolTableRecord
100
AcDbLayerTableRecord
  2
치수_보조선
 70
     0
 62
     4
  6
Continuous
370
    -3
390
F
  0
LAYER
  5
77
330
2
100
AcDbSymbolTableRecord
100
AcDbLayerTableRecord
  2
치수문자_일반주서
 70
     0
 62
     7
  6
Continuous
370
    15
390
F
  0
LAYER
  5
78
330
2
100
AcDbSymbolTableRecord
100
AcDbLayerTableRecord
  2
개별주서
 70
     0
 62
   100
  6
Continuous
370
    30
390
F
  0
LAYER
  5
79
330
2
100
AcDbSymbolTableRecord
100
AcDbLayerTableRecord
  2
중간선
 70
     0
 62
     2
  6
Continuous
370
    15
390
F
  0
LAYER
  5
7A
330
2
100
AcDbSymbolTableRecord
100
AcDbLayerTableRecord
  2
윤곽선
 70
     0
 62
     3
  6
Continuous
370
    40
390
F
  0
LAYER
  5
7B
330
2
100
AcDbSymbolTableRecord
100
AcDbLayerTableRecord
  2
중심마크
 70
     0
 62
   100
  6
Continuous
370
    30
390
F
  0
LAYER
  5
7C
330
2
100
AcDbSymbolTableRecord
100
AcDbLayerTableRecord
  2
가상선
 70
     0
 62
     4
  6
PHANTOM
370
    -3
390
F
  0
LAYER
  5
7D
330
2
100
AcDbSymbolTableRecord
100
AcDbLayerTableRecord
  2
특수지정선
 70
     0
 62
     5
  6
CENTERX2
370
    60
390
F
  0
LAYER
  5
7E
330
2
100
AcDbSymbolTableRecord
100
AcDbLayerTableRecord
  2
참조1
 70
     0
 62
    -4
  6
Continuous
370
    -3
390
F
  0
LAYER
  5
183
330
2
100
AcDbSymbolTableRecord
100
AcDbLayerTableRecord
  2
Defpoints
 70
     0
 62
     7
  6
Continuous
290
     0
370
    -3
390
F
  0
ENDTAB
  0
TABLE
  2
STYLE
  5
3
330
0
100
AcDbSymbolTable
 70
     2
  0
STYLE
  5
11
330
3
100
AcDbSymbolTableRecord
100
AcDbTextStyleTableRecord
  2
Standard
 70
     0
 40
0.0
 41
1.0
 50
0.0
 71
     0
 42
3.5
  3
txt
  4

  0
STYLE
  5
94
330
3
100
AcDbSymbolTableRecord
100
AcDbTextStyleTableRecord
  2
SLDTEXTSTYLE0
 70
     0
 40
0.0
 41
0.75
 50
0.0
 71
     0
 42
3.5
  3
TXT
  4

  0
ENDTAB
  0
TABLE
  2
VIEW
  5
6
330
0
100
AcDbSymbolTable
 70
     0
  0
ENDTAB
  0
TABLE
  2
UCS
  5
7
330
0
100
AcDbSymbolTable
 70
     0
  0
ENDTAB
  0
TABLE
  2
APPID
  5
9
330
0
100
AcDbSymbolTable
 70
     1
  0
APPID
  5
12
330
9
100
AcDbSymbolTableRecord
100
AcDbRegAppTableRecord
  2
ACAD
 70
     0
  0
ENDTAB
  0
TABLE
  2
DIMSTYLE
  5
A
330
0
100
AcDbSymbolTable
 70
     4
100
AcDbDimStyleTable
  0
DIMSTYLE
105
27
330
A
100
AcDbSymbolTableRecord
100
AcDbDimStyleTableRecord
  2
ISO-25
 70
     0
 41
2.5
 42
0.625
 43
3.75
 44
1.25
 73
     0
 74
     0
 77
     1
 78
     8
140
2.5
141
2.5
143
0.03937007874016
147
0.625
171
     3
172
     1
178
     0
271
     2
272
     2
274
     3
278
    44
283
     0
284
     8
340
11
  0
DIMSTYLE
105
101
330
A
100
AcDbSymbolTableRecord
100
AcDbDimStyleTableRecord
  2
SLDDIMSTYLE0
 70
     0
 41
3.302
 44
0.0
 45
0.000000001
 73
     0
 74
     0
 77
     1
 78
    12
 79
     3
140
3.5
143
0.0393700787401575
147
0.875
148
0.000000001
170
     1
172
     1
173
     1
178
     0
271
     2
272
     2
276
     2
284
    12
289
     0
340
94
  0
DIMSTYLE
105
116
102
{ACAD_REACTORS
330
115
330
129
330
13D
330
100
102
}
330
A
100
AcDbSymbolTableRecord
100
AcDbDimStyleTableRecord
  2
SLDDIMSTYLE1
 70
     0
 41
3.302
 44
0.0
 45
0.000000001
 73
     0
 74
     0
 77
     1
 78
     4
 79
     1
140
3.5
143
0.0393700787401575
147
0.875
148
0.000000001
170
     1
173
     1
178
     0
271
     2
272
     2
276
     2
284
    12
340
94
  0
DIMSTYLE
105
12A
330
A
100
AcDbSymbolTableRecord
100
AcDbDimStyleTableRecord
  2
SLDDIMSTYLE2
 70
     0
 41
3.302
 44
0.0
 45
0.000000001
 73
     0
 74
     0
 77
     1
 78
    12
 79
     3
140
3.5
143
0.0393700787401575
147
0.875
148
0.000000001
170
     1
173
     1
178
     0
271
     2
272
     2
276
     2
284
    12
340
94
  0
ENDTAB
  0
TABLE
  2
BLOCK_RECORD
  5
1
330
0
100
AcDbSymbolTable
 70
    15
  0
BLOCK_RECORD
  5
1F
330
1
100
AcDbSymbolTableRecord
100
AcDbBlockTableRecord
  2
*Model_Space
340
22
  0
BLOCK_RECORD
  5
1B
330
1
100
AcDbSymbolTableRecord
100
AcDbBlockTableRecord
  2
*Paper_Space
340
1E
  0
BLOCK_RECORD
  5
23
330
1
100
AcDbSymbolTableRecord
100
AcDbBlockTableRecord
  2
*Paper_Space0
340
26
  0
BLOCK_RECORD
  5
7F
330
1
100
AcDbSymbolTableRecord
100
AcDbBlockTableRecord
  2
블럭10
340
0
102
{BLKREFS
331
F9
102
}
  0
BLOCK_RECORD
  5
102
330
1
100
AcDbSymbolTableRecord
100
AcDbBlockTableRecord
  2
_D
340
0
  0
BLOCK_RECORD
  5
117
330
1
100
AcDbSymbolTableRecord
100
AcDbBlockTableRecord
  2
_D_1
340
0
  0
BLOCK_RECORD
  5
12B
330
1
100
AcDbSymbolTableRecord
100
AcDbBlockTableRecord
  2
_D_2
340
0
  0
BLOCK_RECORD
  5
13E
330
1
100
AcDbSymbolTableRecord
100
AcDbBlockTableRecord
  2
_D_3
340
0
  0
BLOCK_RECORD
  5
157
330
1
100
AcDbSymbolTableRecord
100
AcDbBlockTableRecord
  2
SW_DOWELSYMBOL_0
340
0
102
{BLKREFS
331
15D
102
}
  0
BLOCK_RECORD
  5
251
330
1
100
AcDbSymbolTableRecord
100
AcDbBlockTableRecord
  2
*D7
340
0
  0
BLOCK_RECORD
  5
25D
330
1
100
AcDbSymbolTableRecord
100
AcDbBlockTableRecord
  2
*D8
340
0
  0
BLOCK_RECORD
  5
269
330
1
100
AcDbSymbolTableRecord
100
AcDbBlockTableRecord
  2
*D9
340
0
  0
BLOCK_RECORD
  5
275
330
1
100
AcDbSymbolTableRecord
100
AcDbBlockTableRecord
  2
*D10
340
0
  0
BLOCK_RECORD
  5
2ED
330
1
100
AcDbSymbolTableRecord
100
AcDbBlockTableRecord
  2
*D11
340
0
  0
BLOCK_RECORD
  5
2F9
330
1
100
AcDbSymbolTableRecord
100
AcDbBlockTableRecord
  2
*D12
340
0
  0
BLOCK_RECORD
  5
305
330
1
100
AcDbSymbolTableRecord
100
AcDbBlockTableRecord
  2
*D13
340
0
  0
BLOCK_RECORD
  5
311
330
1
100
AcDbSymbolTableRecord
100
AcDbBlockTableRecord
  2
*D14
340
0
  0
ENDTAB
  0
ENDSEC
  0
SECTION
  2
BLOCKS
  0
BLOCK
  5
20
330
1F
100
AcDbEntity
  8
0
100
AcDbBlockBegin
  2
*Model_Space
 70
     0
 10
0.0
 20
0.0
 30
0.0
  3
*Model_Space
  1
*Model_Space
  0
ENDBLK
  5
21
330
1F
100
AcDbEntity
  8
0
100
AcDbBlockEnd
  0
BLOCK
  5
1C
330
1B
100
AcDbEntity
 67
     1
  8
0
100
AcDbBlockBegin
  2
*Paper_Space
 70
     0
 10
0.0
 20
0.0
 30
0.0
  3
*Paper_Space
  1
*Paper_Space
  0
ENDBLK
  5
1D
330
1B
100
AcDbEntity
 67
     1
  8
0
100
AcDbBlockEnd
  0
BLOCK
  5
24
330
23
100
AcDbEntity
  8
0
100
AcDbBlockBegin
  2
*Paper_Space0
 70
     0
 10
0.0
 20
0.0
 30
0.0
  3
*Paper_Space0
  1
*Paper_Space0
  0
ENDBLK
  5
25
330
23
100
AcDbEntity
  8
0
100
AcDbBlockEnd
  0
BLOCK
  5
80
330
7F
100
AcDbEntity
  8
0
100
AcDbBlockBegin
  2
블럭10
 70
     2
 10
0.0
 20
0.0
 30
0.0
  3
블럭10
  1
블럭10
  0
ELLIPSE
  5
82
330
7F
100
AcDbEntity
  8
중심선
100
AcDbEllipse
 10
20.54032771741204
 20
12.0471743016438
 30
0.0
 11
6.600054785286829
 21
-1.261213355974178E-13
 31
0.0
210
0.0
220
0.0
230
1.0
 40
0.636358354079598
 41
0.9219305317359503
 42
6.513795318482858
  0
ELLIPSE
  5
83
330
7F
100
AcDbEntity
  8
중심선
100
AcDbEllipse
 10
20.54032771746488
 20
12.04717430159265
 30
0.0
 11
3.960054785062283
 21
1.540847449632565E-10
 31
0.0
210
0.0
220
0.0
230
1.0
 40
0.3939339440162632
 41
1.131841032648279
 42
5.62031148352944
  0
LINE
  5
84
330
7F
100
AcDbEntity
  8
중심선
100
AcDbLine
 10
2.268634060543552
 20
16.24717430164393
 30
0.0
 11
5.714909304380834
 21
16.24717430164393
 31
0.0
  0
LINE
  5
85
330
7F
100
AcDbEntity
  8
중심선
100
AcDbLine
 10
5.245725140726316
 20
7.84717430164391
 30
0.0
 11
8.692000384563599
 21
7.84717430164391
 31
0.0
  0
LINE
  5
86
330
7F
100
AcDbEntity
  8
중심선
100
AcDbLine
 10
15.74043728645272
 20
16.24717430164393
 30
0.0
 11
8.692000384563599
 21
7.84717430164391
 31
0.0
  0
LINE
  5
87
330
7F
100
AcDbEntity
  8
중심선
100
AcDbLine
 10
0.1404042013395286
 20
13.71084872107135
 30
0.0
 11
3.58671253028996
 21
13.71088815037384
 31
0.0
  0
LINE
  5
88
330
7F
100
AcDbEntity
  8
중심선
100
AcDbLine
 10
2.750260043222114
 20
10.84717430164391
 30
0.0
 11
6.196535287059397
 21
10.84717430164391
 31
0.0
  0
LINE
  5
89
330
7F
100
AcDbEntity
  8
중심선
100
AcDbLine
 10
12.29416204261559
 20
16.24717430164393
 30
0.0
 11
5.245725140726316
 21
7.84717430164391
 31
0.0
  0
LINE
  5
8A
330
7F
100
AcDbEntity
  8
중심선
100
AcDbLine
 10
10.72767329541681
 20
16.24717430164393
 30
0.0
 11
6.196535287059397
 21
10.84717430164391
 31
0.0
  0
LINE
  5
8B
330
7F
100
AcDbEntity
  8
중심선
100
AcDbLine
 10
7.28139805157953
 20
16.24717430164393
 30
0.0
 11
2.750260043222114
 21
10.84717430164391
 31
0.0
  0
LINE
  5
8C
330
7F
100
AcDbEntity
  8
중심선
100
AcDbLine
 10
5.714909304380834
 20
16.24717430164393
 30
0.0
 11
3.58671253028996
 21
13.71088815037384
 31
0.0
  0
LINE
  5
8D
330
7F
100
AcDbEntity
  8
중심선
100
AcDbLine
 10
2.268634060543552
 20
16.24717430164393
 30
0.0
 11
0.1404042013395286
 21
13.71084872107135
 31
0.0
  0
LINE
  5
8E
330
7F
100
AcDbEntity
  8
중심선
100
AcDbLine
 10
7.28139805157953
 20
16.24717430164393
 30
0.0
 11
10.72767329541681
 21
16.24717430164393
 31
0.0
  0
LINE
  5
8F
330
7F
100
AcDbEntity
  8
중심선
100
AcDbLine
 10
12.29416204261559
 20
16.24717430164393
 30
0.0
 11
15.74043728645272
 21
16.24717430164393
 31
0.0
  0
LINE
  5
90
330
7F
100
AcDbEntity
  8
중심선
100
AcDbLine
 10
19.22036997980202
 20
11.08717430171403
 30
0.0
 11
23.66174974927406
 21
11.08717430171406
 31
0.0
  0
LINE
  5
91
330
7F
100
AcDbEntity
  8
중심선
100
AcDbLine
 10
19.22039502424796
 20
13.00717430171391
 30
0.0
 11
19.22036997980202
 21
11.08717430171403
 31
0.0
  0
LINE
  5
92
330
7F
100
AcDbEntity
  8
중심선
100
AcDbLine
 10
19.22039502424796
 20
13.00717430171391
 30
0.0
 11
26.96566020931264
 21
13.00717430171391
 31
0.0
  0
LINE
  5
93
330
7F
100
AcDbEntity
  8
중심선
100
AcDbLine
 10
22.22332737316547
 20
13.45928029700563
 30
0.0
 11
24.52862924686651
 21
15.39360700705356
 31
0.0
  0
ATTDEF
  5
95
330
7F
100
AcDbEntity
  8
FORMAT
 62
     2
100
AcDbText
 10
4.408487351596664
 20
2.075366912832191
 30
0.0
 40
4.233333333333333
  1
E1175040
 41
0.75
  7
SLDTEXTSTYLE0
 11
4.408487351596664
 21
-0.0412997538344756
 31
0.0
100
AcDbAttributeDefinition
  3

  2
AUTOATTR0
 70
     0
 74
     1
  0
ENDBLK
  5
81
330
7F
100
AcDbEntity
  8
0
100
AcDbBlockEnd
  0
BLOCK
  5
103
330
102
100
AcDbEntity
  8
0
100
AcDbBlockBegin
  2
_D
 70
     0
 10
0.0
 20
0.0
 30
0.0
  3
_D
  1
_D
  0
LINE
  5
105
330
102
100
AcDbEntity
  8
치수문자_일반주서
 62
     0
370
    -2
100
AcDbLine
 10
-40.45000000000002
 20
7.938574928723908
 30
0.0
 11
-54.97500000000005
 21
7.938574928723853
 31
0.0
  0
LINE
  5
106
330
102
100
AcDbEntity
  8
치수문자_일반주서
 62
     0
370
    -2
100
AcDbLine
 10
-40.45000000000002
 20
-7.936425071276119
 30
0.0
 11
-54.97499999999999
 21
-7.936425071276174
 31
0.0
  0
LINE
  5
107
330
102
100
AcDbEntity
  8
치수문자_일반주서
 62
     0
370
    -2
100
AcDbLine
 10
-54.97500000000004
 20
4.636574928723854
 30
0.0
 11
-54.97500000000001
 21
-4.634425071276175
 31
0.0
  0
SOLID
  5
108
330
102
100
AcDbEntity
  8
치수문자_일반주서
 62
     0
100
AcDbTrace
 10
-54.4246666666667
 20
4.636574928723856
 30
0.0
 11
-55.52533333333337
 21
4.636574928723852
 31
0.0
 12
-54.97500000000005
 22
7.938574928723853
 32
0.0
 13
-54.97500000000005
 23
7.938574928723853
 33
0.0
  0
SOLID
  5
109
330
102
100
AcDbEntity
  8
치수문자_일반주서
 62
     0
100
AcDbTrace
 10
-55.52533333333334
 20
-4.634425071276176
 30
0.0
 11
-54.42466666666667
 21
-4.634425071276173
 31
0.0
 12
-54.97499999999999
 22
-7.936425071276174
 32
0.0
 13
-54.97499999999999
 23
-7.936425071276174
 33
0.0
  0
MTEXT
  5
10A
330
102
100
AcDbEntity
  8
치수문자_일반주서
 62
     0
100
AcDbMText
 10
-59.35000000000002
 20
0.0010749287238924
 30
0.0
 40
3.5
 41
0.0
 71
     2
 72
     1
  1
\A1;%%c15.88 [5/8]
  7
SLDTEXTSTYLE0
 11
-3.580687802255617E-15
 21
1.0
 31
0.0
 73
     1
 44
1.0
  0
POINT
  5
10B
330
102
100
AcDbEntity
  8
Defpoints
 62
     0
100
AcDbPoint
 10
-40.38750000000002
 20
7.938574928723908
 30
0.0
  0
POINT
  5
10C
330
102
100
AcDbEntity
  8
Defpoints
 62
     0
100
AcDbPoint
 10
-40.38750000000002
 20
-7.936425071276119
 30
0.0
  0
POINT
  5
10D
330
102
100
AcDbEntity
  8
Defpoints
 62
     0
100
AcDbPoint
 10
-54.97499999999999
 20
-7.936425071276173
 30
0.0
  0
ENDBLK
  5
104
330
102
100
AcDbEntity
  8
0
100
AcDbBlockEnd
  0
BLOCK
  5
118
330
117
100
AcDbEntity
  8
0
100
AcDbBlockBegin
  2
_D_1
 70
     0
 10
0.0
 20
0.0
 30
0.0
  3
_D_1
  1
_D_1
  0
LINE
  5
11A
330
117
100
AcDbEntity
  8
치수문자_일반주서
 62
     0
370
    -2
100
AcDbLine
 10
113.6
 20
8.001074928723902
 30
0.0
 11
113.6
 21
30.42063796711784
 31
0.0
  0
LINE
  5
11B
330
117
100
AcDbEntity
  8
치수문자_일반주서
 62
     0
370
    -2
100
AcDbLine
 10
11.99999999999999
 20
7.950710197335609
 30
0.0
 11
11.99999999999999
 21
30.42063796711784
 31
0.0
  0
LINE
  5
11C
330
117
100
AcDbEntity
  8
치수문자_일반주서
 62
     0
370
    -2
100
AcDbLine
 10
110.298
 20
30.42063796711784
 30
0.0
 11
15.30199999999999
 21
30.42063796711784
 31
0.0
  0
SOLID
  5
11D
330
117
100
AcDbEntity
  8
치수문자_일반주서
 62
     0
100
AcDbTrace
 10
110.298
 20
29.8703046337845
 30
0.0
 11
110.298
 21
30.97097130045117
 31
0.0
 12
113.6
 22
30.42063796711784
 32
0.0
 13
113.6
 23
30.42063796711784
 33
0.0
  0
SOLID
  5
11E
330
117
100
AcDbEntity
  8
치수문자_일반주서
 62
     0
100
AcDbTrace
 10
15.30199999999999
 20
30.97097130045117
 30
0.0
 11
15.30199999999999
 21
29.8703046337845
 31
0.0
 12
11.99999999999999
 22
30.42063796711784
 32
0.0
 13
11.99999999999999
 23
30.42063796711784
 33
0.0
  0
MTEXT
  5
11F
330
117
100
AcDbEntity
  8
치수문자_일반주서
 62
     0
100
AcDbMText
 10
62.79999999999998
 20
34.79563796711784
 30
0.0
 40
3.5
 41
0.0
 71
     2
 72
     1
  1
\A1;101.60 [4]
  7
SLDTEXTSTYLE0
 73
     1
 44
1.0
  0
POINT
  5
120
330
117
100
AcDbEntity
  8
Defpoints
 62
     0
100
AcDbPoint
 10
113.6
 20
7.938574928723902
 30
0.0
  0
POINT
  5
121
330
117
100
AcDbEntity
  8
Defpoints
 62
     0
100
AcDbPoint
 10
11.99999999999999
 20
7.888210197335609
 30
0.0
  0
POINT
  5
122
330
117
100
AcDbEntity
  8
Defpoints
 62
     0
100
AcDbPoint
 10
11.99999999999999
 20
30.42063796711784
 30
0.0
  0
ENDBLK
  5
119
330
117
100
AcDbEntity
  8
0
100
AcDbBlockEnd
  0
BLOCK
  5
12C
330
12B
100
AcDbEntity
  8
0
100
AcDbBlockBegin
  2
_D_2
 70
     0
 10
0.0
 20
0.0
 30
0.0
  3
_D_2
  1
_D_2
  0
LINE
  5
12E
330
12B
100
AcDbEntity
  8
치수문자_일반주서
 62
     0
370
    -2
100
AcDbLine
 10
113.6
 20
8.001074928723902
 30
0.0
 11
113.6
 21
42.42063796711785
 31
0.0
  0
LINE
  5
12F
330
12B
100
AcDbEntity
  8
치수문자_일반주서
 62
     0
370
    -2
100
AcDbLine
 10
-41.97500000000001
 20
6.413574928723902
 30
0.0
 11
-41.97500000000002
 21
42.42063796711785
 31
0.0
  0
LINE
  5
130
330
12B
100
AcDbEntity
  8
치수문자_일반주서
 62
     0
370
    -2
100
AcDbLine
 10
110.298
 20
42.42063796711785
 30
0.0
 11
-38.67300000000002
 21
42.42063796711785
 31
0.0
  0
SOLID
  5
131
330
12B
100
AcDbEntity
  8
치수문자_일반주서
 62
     0
100
AcDbTrace
 10
110.298
 20
41.87030463378451
 30
0.0
 11
110.298
 21
42.97097130045118
 31
0.0
 12
113.6
 22
42.42063796711785
 32
0.0
 13
113.6
 23
42.42063796711785
 33
0.0
  0
SOLID
  5
132
330
12B
100
AcDbEntity
  8
치수문자_일반주서
 62
     0
100
AcDbTrace
 10
-38.67300000000002
 20
42.97097130045118
 30
0.0
 11
-38.67300000000002
 21
41.87030463378451
 31
0.0
 12
-41.97500000000002
 22
42.42063796711785
 32
0.0
 13
-41.97500000000002
 23
42.42063796711785
 33
0.0
  0
MTEXT
  5
133
330
12B
100
AcDbEntity
  8
치수문자_일반주서
 62
     0
100
AcDbMText
 10
35.81249999999999
 20
46.79563796711785
 30
0.0
 40
3.5
 41
0.0
 71
     2
 72
     1
  1
\A1;155.58 [6 1/8]
  7
SLDTEXTSTYLE0
 73
     1
 44
1.0
  0
POINT
  5
134
330
12B
100
AcDbEntity
  8
Defpoints
 62
     0
100
AcDbPoint
 10
113.6
 20
7.938574928723902
 30
0.0
  0
POINT
  5
135
330
12B
100
AcDbEntity
  8
Defpoints
 62
     0
100
AcDbPoint
 10
-41.97500000000001
 20
6.351074928723902
 30
0.0
  0
POINT
  5
136
330
12B
100
AcDbEntity
  8
Defpoints
 62
     0
100
AcDbPoint
 10
-41.97500000000001
 20
42.42063796711785
 30
0.0
  0
ENDBLK
  5
12D
330
12B
100
AcDbEntity
  8
0
100
AcDbBlockEnd
  0
BLOCK
  5
13F
330
13E
100
AcDbEntity
  8
0
100
AcDbBlockBegin
  2
_D_3
 70
     0
 10
0.0
 20
0.0
 30
0.0
  3
_D_3
  1
_D_3
  0
LINE
  5
141
330
13E
100
AcDbEntity
  8
치수문자_일반주서
 62
     0
370
    -2
100
AcDbLine
 10
113.6625
 20
7.938574928723902
 30
0.0
 11
133.2769530882522
 21
7.938574928723973
 31
0.0
  0
LINE
  5
142
330
13E
100
AcDbEntity
  8
치수문자_일반주서
 62
     0
370
    -2
100
AcDbLine
 10
113.6625
 20
-7.936425071276112
 30
0.0
 11
133.2769530882523
 21
-7.936425071276037
 31
0.0
  0
LINE
  5
143
330
13E
100
AcDbEntity
  8
치수문자_일반주서
 62
     0
370
    -2
100
AcDbLine
 10
133.2769530882522
 20
7.938574928723973
 30
0.0
 11
133.2769530882521
 21
39.45932492872399
 31
0.0
  0
LINE
  5
144
330
13E
100
AcDbEntity
  8
치수문자_일반주서
 62
     0
370
    -2
100
AcDbLine
 10
133.2769530882522
 20
4.636574928723974
 30
0.0
 11
133.2769530882523
 21
-4.634425071276038
 31
0.0
  0
SOLID
  5
145
330
13E
100
AcDbEntity
  8
치수문자_일반주서
 62
     0
100
AcDbTrace
 10
133.8272864215856
 20
4.636574928723975
 30
0.0
 11
132.7266197549189
 21
4.636574928723972
 31
0.0
 12
133.2769530882522
 22
7.938574928723973
 32
0.0
 13
133.2769530882522
 23
7.938574928723973
 33
0.0
  0
SOLID
  5
146
330
13E
100
AcDbEntity
  8
치수문자_일반주서
 62
     0
100
AcDbTrace
 10
132.726619754919
 20
-4.63442507127604
 30
0.0
 11
133.8272864215856
 21
-4.634425071276036
 31
0.0
 12
133.2769530882523
 22
-7.936425071276037
 32
0.0
 13
133.2769530882523
 23
-7.936425071276037
 33
0.0
  0
MTEXT
  5
147
330
13E
100
AcDbEntity
  8
치수문자_일반주서
 62
     0
100
AcDbMText
 10
128.9019530882522
 20
25.45932492872397
 30
0.0
 40
3.5
 41
0.0
 71
     2
 72
     1
  1
\A1;%%c15.88 [5/8]
  7
SLDTEXTSTYLE0
 11
-3.580687802255621E-15
 21
1.0
 31
0.0
 73
     1
 44
1.0
  0
POINT
  5
148
330
13E
100
AcDbEntity
  8
Defpoints
 62
     0
100
AcDbPoint
 10
113.6
 20
7.938574928723902
 30
0.0
  0
POINT
  5
149
330
13E
100
AcDbEntity
  8
Defpoints
 62
     0
100
AcDbPoint
 10
113.6
 20
-7.936425071276112
 30
0.0
  0
POINT
  5
14A
330
13E
100
AcDbEntity
  8
Defpoints
 62
     0
100
AcDbPoint
 10
133.2769530882523
 20
-7.936425071276038
 30
0.0
  0
ENDBLK
  5
140
330
13E
100
AcDbEntity
  8
0
100
AcDbBlockEnd
  0
BLOCK
  5
158
330
157
100
AcDbEntity
  8
0
100
AcDbBlockBegin
  2
SW_DOWELSYMBOL_0
 70
     0
 10
0.0
 20
0.0
 30
0.0
  3
SW_DOWELSYMBOL_0
  1
SW_DOWELSYMBOL_0
  0
CIRCLE
  5
15A
330
157
100
AcDbEntity
  8
해칭선
 62
     0
100
AcDbCircle
 10
0.0
 20
0.0
 30
0.0
 40
3.000000000000002
  0
HATCH
  5
15B
330
157
100
AcDbEntity
  8
0
  6
Continuous
 62
     0
370
     0
100
AcDbHatch
 10
0.0
 20
0.0
 30
0.0
210
0.0
220
0.0
230
1.0
  2
SOLID
 70
     1
 71
     0
 91
        1
 92
        0
 93
        3
 72
     2
 10
0.0000000000000451
 20
0.0
 40
3.000000000000002
 50
0.0
 51
90.0
 73
     1
 72
     1
 10
0.0000000000000451
 20
3.000000000000002
 11
0.0000000000000451
 21
0.0
 72
     1
 10
0.0000000000000451
 20
0.0
 11
3.000000000000048
 21
0.0
 97
        0
 75
     0
 76
     1
 98
        1
 10
0.0
 20
0.0
  0
HATCH
  5
15C
330
157
100
AcDbEntity
  8
0
  6
Continuous
 62
     0
370
     0
100
AcDbHatch
 10
0.0
 20
0.0
 30
0.0
210
0.0
220
0.0
230
1.0
  2
SOLID
 70
     1
 71
     0
 91
        1
 92
        0
 93
        3
 72
     2
 10
0.0000000000000451
 20
0.0
 40
3.000000000000002
 50
180.0
 51
270.0000000000007
 73
     1
 72
     1
 10
0.0000000000000451
 20
-3.000000000000002
 11
0.0000000000000451
 21
0.0
 72
     1
 10
0.0000000000000451
 20
0.0
 11
-2.999999999999957
 21
0.0
 97
        0
 75
     0
 76
     1
 98
        1
 10
0.0
 20
0.0
  0
ENDBLK
  5
159
330
157
100
AcDbEntity
  8
0
100
AcDbBlockEnd
  0
BLOCK
  5
252
330
251
100
AcDbEntity
  8
0
100
AcDbBlockBegin
  2
*D7
 70
     1
 10
0.0
 20
0.0
 30
0.0
  3
*D7
  1
*D8
  0
LINE
  5
254
330
251
100
AcDbEntity
  8
치수문자_일반주서
 62
     0
370
    -2
100
AcDbLine
 10
18.90000000000006
 20
22.43125000000001
 30
0.0
 11
4.37500000000001
 21
22.43124999999996
 31
0.0
  0
LINE
  5
255
330
251
100
AcDbEntity
  8
치수문자_일반주서
 62
     0
370
    -2
100
AcDbLine
 10
18.90000000000006
 20
3.381249999999999
 30
0.0
 11
4.375000000000076
 21
3.381249999999946
 31
0.0
  0
LINE
  5
256
330
251
100
AcDbEntity
  8
치수문자_일반주서
 62
     0
370
    -2
100
AcDbLine
 10
4.375000000000021
 20
19.12924999999996
 30
0.0
 11
4.375000000000065
 21
6.683249999999946
 31
0.0
  0
SOLID
  5
257
330
251
100
AcDbEntity
  8
치수문자_일반주서
 62
     0
100
AcDbTrace
 10
4.925333333333355
 20
19.12924999999996
 30
0.0
 11
3.824666666666688
 21
19.12924999999996
 31
0.0
 12
4.37500000000001
 22
22.43124999999996
 32
0.0
 13
4.37500000000001
 23
22.43124999999996
 33
0.0
  0
SOLID
  5
258
330
251
100
AcDbEntity
  8
치수문자_일반주서
 62
     0
100
AcDbTrace
 10
3.824666666666732
 20
6.683249999999944
 30
0.0
 11
4.925333333333398
 21
6.683249999999948
 31
0.0
 12
4.375000000000076
 22
3.381249999999946
 32
0.0
 13
4.375000000000076
 23
3.381249999999946
 33
0.0
  0
MTEXT
  5
259
330
251
100
AcDbEntity
  8
치수문자_일반주서
 62
     0
100
AcDbMText
 10
0.0000000000000426
 20
12.90625
 30
0.0
 40
3.5
 41
0.0
 71
     2
 72
     1
  1
\A1;%%c19.05 [3/4]
  7
SLDTEXTSTYLE0
 11
-3.496765431890254E-15
 21
1.0
 31
0.0
 73
     1
 44
1.0
  0
POINT
  5
25A
330
251
100
AcDbEntity
  8
Defpoints
 62
     0
100
AcDbPoint
 10
18.96250000000006
 20
22.43125000000001
 30
0.0
  0
POINT
  5
25B
330
251
100
AcDbEntity
  8
Defpoints
 62
     0
100
AcDbPoint
 10
18.96250000000006
 20
3.38125
 30
0.0
  0
POINT
  5
25C
330
251
100
AcDbEntity
  8
Defpoints
 62
     0
100
AcDbPoint
 10
4.375000000000078
 20
3.381249999999945
 30
0.0
  0
ENDBLK
  5
253
330
251
100
AcDbEntity
  8
0
100
AcDbBlockEnd
  0
BLOCK
  5
25E
330
25D
100
AcDbEntity
  8
0
100
AcDbBlockBegin
  2
*D8
 70
     1
 10
0.0
 20
0.0
 30
0.0
  3
*D8
  1
*D9
  0
LINE
  5
260
330
25D
100
AcDbEntity
  8
치수문자_일반주서
 62
     0
370
    -2
100
AcDbLine
 10
175.8075000000001
 20
22.49375000000001
 30
0.0
 11
175.8075000000001
 21
44.90172833795458
 31
0.0
  0
LINE
  5
261
330
25D
100
AcDbEntity
  8
치수문자_일반주서
 62
     0
370
    -2
100
AcDbLine
 10
74.20750000000008
 20
22.46782860015484
 30
0.0
 11
74.20750000000008
 21
44.90172833795458
 31
0.0
  0
LINE
  5
262
330
25D
100
AcDbEntity
  8
치수문자_일반주서
 62
     0
370
    -2
100
AcDbLine
 10
172.5055000000001
 20
44.90172833795458
 30
0.0
 11
77.50950000000009
 21
44.90172833795458
 31
0.0
  0
SOLID
  5
263
330
25D
100
AcDbEntity
  8
치수문자_일반주서
 62
     0
100
AcDbTrace
 10
172.5055000000001
 20
44.35139500462125
 30
0.0
 11
172.5055000000001
 21
45.45206167128791
 31
0.0
 12
175.8075000000001
 22
44.90172833795458
 32
0.0
 13
175.8075000000001
 23
44.90172833795458
 33
0.0
  0
SOLID
  5
264
330
25D
100
AcDbEntity
  8
치수문자_일반주서
 62
     0
100
AcDbTrace
 10
77.50950000000009
 20
45.45206167128791
 30
0.0
 11
77.50950000000009
 21
44.35139500462125
 31
0.0
 12
74.20750000000008
 22
44.90172833795458
 32
0.0
 13
74.20750000000008
 23
44.90172833795458
 33
0.0
  0
MTEXT
  5
265
330
25D
100
AcDbEntity
  8
치수문자_일반주서
 62
     0
100
AcDbMText
 10
125.0075000000001
 20
49.27672833795458
 30
0.0
 40
3.5
 41
0.0
 71
     2
 72
     1
  1
\A1;101.60 [4]
  7
SLDTEXTSTYLE0
 73
     1
 44
1.0
  0
POINT
  5
266
330
25D
100
AcDbEntity
  8
Defpoints
 62
     0
100
AcDbPoint
 10
175.8075000000001
 20
22.43125000000001
 30
0.0
  0
POINT
  5
267
330
25D
100
AcDbEntity
  8
Defpoints
 62
     0
100
AcDbPoint
 10
74.20750000000008
 20
22.40532860015484
 30
0.0
  0
POINT
  5
268
330
25D
100
AcDbEntity
  8
Defpoints
 62
     0
100
AcDbPoint
 10
74.20750000000008
 20
44.90172833795458
 30
0.0
  0
ENDBLK
  5
25F
330
25D
100
AcDbEntity
  8
0
100
AcDbBlockEnd
  0
BLOCK
  5
26A
330
269
100
AcDbEntity
  8
0
100
AcDbBlockBegin
  2
*D9
 70
     1
 10
0.0
 20
0.0
 30
0.0
  3
*D9
  1
*D10
  0
LINE
  5
26C
330
269
100
AcDbEntity
  8
치수문자_일반주서
 62
     0
370
    -2
100
AcDbLine
 10
175.8075000000001
 20
22.49375000000001
 30
0.0
 11
175.8075000000001
 21
56.90172833795459
 31
0.0
  0
LINE
  5
26D
330
269
100
AcDbEntity
  8
치수문자_일반주서
 62
     0
370
    -2
100
AcDbLine
 10
17.05750000000006
 20
20.58875000000001
 30
0.0
 11
17.05750000000006
 21
56.90172833795459
 31
0.0
  0
LINE
  5
26E
330
269
100
AcDbEntity
  8
치수문자_일반주서
 62
     0
370
    -2
100
AcDbLine
 10
172.5055000000001
 20
56.90172833795459
 30
0.0
 11
20.35950000000006
 21
56.90172833795459
 31
0.0
  0
SOLID
  5
26F
330
269
100
AcDbEntity
  8
치수문자_일반주서
 62
     0
100
AcDbTrace
 10
172.5055000000001
 20
56.35139500462125
 30
0.0
 11
172.5055000000001
 21
57.45206167128792
 31
0.0
 12
175.8075000000001
 22
56.90172833795459
 32
0.0
 13
175.8075000000001
 23
56.90172833795459
 33
0.0
  0
SOLID
  5
270
330
269
100
AcDbEntity
  8
치수문자_일반주서
 62
     0
100
AcDbTrace
 10
20.35950000000006
 20
57.45206167128792
 30
0.0
 11
20.35950000000006
 21
56.35139500462125
 31
0.0
 12
17.05750000000006
 22
56.90172833795459
 32
0.0
 13
17.05750000000006
 23
56.90172833795459
 33
0.0
  0
MTEXT
  5
271
330
269
100
AcDbEntity
  8
치수문자_일반주서
 62
     0
100
AcDbMText
 10
96.43250000000006
 20
61.27672833795459
 30
0.0
 40
3.5
 41
0.0
 71
     2
 72
     1
  1
\A1;158.75 [6 1/4]
  7
SLDTEXTSTYLE0
 73
     1
 44
1.0
  0
POINT
  5
272
330
269
100
AcDbEntity
  8
Defpoints
 62
     0
100
AcDbPoint
 10
175.8075000000001
 20
22.43125000000001
 30
0.0
  0
POINT
  5
273
330
269
100
AcDbEntity
  8
Defpoints
 62
     0
100
AcDbPoint
 10
17.05750000000006
 20
20.52625000000001
 30
0.0
  0
POINT
  5
274
330
269
100
AcDbEntity
  8
Defpoints
 62
     0
100
AcDbPoint
 10
17.05750000000006
 20
56.90172833795459
 30
0.0
  0
ENDBLK
  5
26B
330
269
100
AcDbEntity
  8
0
100
AcDbBlockEnd
  0
BLOCK
  5
276
330
275
100
AcDbEntity
  8
0
100
AcDbBlockBegin
  2
*D10
 70
     1
 10
0.0
 20
0.0
 30
0.0
  3
*D10
  1
*D11
  0
LINE
  5
278
330
275
100
AcDbEntity
  8
치수문자_일반주서
 62
     0
370
    -2
100
AcDbLine
 10
175.8700000000001
 20
22.43125000000001
 30
0.0
 11
195.8243779471597
 21
22.43125000000009
 31
0.0
  0
LINE
  5
279
330
275
100
AcDbEntity
  8
치수문자_일반주서
 62
     0
370
    -2
100
AcDbLine
 10
175.8700000000001
 20
3.38125
 30
0.0
 11
195.8243779471597
 21
3.38125000000008
 31
0.0
  0
LINE
  5
27A
330
275
100
AcDbEntity
  8
치수문자_일반주서
 62
     0
370
    -2
100
AcDbLine
 10
195.8243779471597
 20
22.43125000000009
 30
0.0
 11
195.8243779471596
 21
53.52986966546662
 31
0.0
  0
LINE
  5
27B
330
275
100
AcDbEntity
  8
치수문자_일반주서
 62
     0
370
    -2
100
AcDbLine
 10
195.8243779471597
 20
19.12925000000009
 30
0.0
 11
195.8243779471597
 21
6.683250000000079
 31
0.0
  0
SOLID
  5
27C
330
275
100
AcDbEntity
  8
치수문자_일반주서
 62
     0
100
AcDbTrace
 10
196.374711280493
 20
19.12925000000009
 30
0.0
 11
195.2740446138264
 21
19.12925000000009
 31
0.0
 12
195.8243779471597
 22
22.43125000000009
 32
0.0
 13
195.8243779471597
 23
22.43125000000009
 33
0.0
  0
SOLID
  5
27D
330
275
100
AcDbEntity
  8
치수문자_일반주서
 62
     0
100
AcDbTrace
 10
195.2740446138264
 20
6.683250000000077
 30
0.0
 11
196.3747112804931
 21
6.683250000000081
 31
0.0
 12
195.8243779471597
 22
3.38125000000008
 32
0.0
 13
195.8243779471597
 23
3.38125000000008
 33
0.0
  0
MTEXT
  5
27E
330
275
100
AcDbEntity
  8
치수문자_일반주서
 62
     0
100
AcDbMText
 10
191.4493779471596
 20
39.74861966546661
 30
0.0
 40
3.5
 41
0.0
 71
     2
 72
     1
  1
\A1;%%c19.05 [3/4]
  7
SLDTEXTSTYLE0
 11
-2.983906501879683E-15
 21
1.0
 31
0.0
 73
     1
 44
1.0
  0
POINT
  5
27F
330
275
100
AcDbEntity
  8
Defpoints
 62
     0
100
AcDbPoint
 10
175.8075000000001
 20
22.43125000000001
 30
0.0
  0
POINT
  5
280
330
275
100
AcDbEntity
  8
Defpoints
 62
     0
100
AcDbPoint
 10
175.8075000000001
 20
3.38125
 30
0.0
  0
POINT
  5
281
330
275
100
AcDbEntity
  8
Defpoints
 62
     0
100
AcDbPoint
 10
195.8243779471597
 20
3.381250000000074
 30
0.0
  0
ENDBLK
  5
277
330
275
100
AcDbEntity
  8
0
100
AcDbBlockEnd
  0
BLOCK
  5
2EE
330
2ED
100
AcDbEntity
  8
0
100
AcDbBlockBegin
  2
*D11
 70
     1
 10
0.0
 20
0.0
 30
0.0
  3
*D11
  1
*D12
  0
LINE
  5
2F0
330
2ED
100
AcDbEntity
  8
치수문자_일반주서
 62
     0
370
    -2
100
AcDbLine
 10
114.8341305675856
 20
-77.06704681870445
 30
0.0
 11
100.3091305675856
 21
-77.06704681870451
 31
0.0
  0
LINE
  5
2F1
330
2ED
100
AcDbEntity
  8
치수문자_일반주서
 62
     0
370
    -2
100
AcDbLine
 10
114.8341305675856
 20
-96.11704681870447
 30
0.0
 11
100.3091305675856
 21
-96.11704681870452
 31
0.0
  0
LINE
  5
2F2
330
2ED
100
AcDbEntity
  8
치수문자_일반주서
 62
     0
370
    -2
100
AcDbLine
 10
100.3091305675856
 20
-80.3690468187045
 30
0.0
 11
100.3091305675856
 21
-92.81504681870453
 31
0.0
  0
SOLID
  5
2F3
330
2ED
100
AcDbEntity
  8
치수문자_일반주서
 62
     0
100
AcDbTrace
 10
100.8594639009189
 20
-80.3690468187045
 30
0.0
 11
99.75879723425226
 21
-80.3690468187045
 31
0.0
 12
100.3091305675856
 22
-77.06704681870451
 32
0.0
 13
100.3091305675856
 23
-77.06704681870451
 33
0.0
  0
SOLID
  5
2F4
330
2ED
100
AcDbEntity
  8
치수문자_일반주서
 62
     0
100
AcDbTrace
 10
99.7587972342523
 20
-92.81504681870453
 30
0.0
 11
100.859463900919
 21
-92.81504681870453
 31
0.0
 12
100.3091305675856
 22
-96.11704681870452
 32
0.0
 13
100.3091305675856
 23
-96.11704681870452
 33
0.0
  0
MTEXT
  5
2F5
330
2ED
100
AcDbEntity
  8
치수문자_일반주서
 62
     0
100
AcDbMText
 10
95.9341305675856
 20
-86.59204681870446
 30
0.0
 40
3.5
 41
0.0
 71
     2
 72
     1
  1
\A1;%%c19.05 [3/4]
  7
SLDTEXTSTYLE0
 11
-3.729883127349605E-15
 21
1.0
 31
0.0
 73
     1
 44
1.0
  0
POINT
  5
2F6
330
2ED
100
AcDbEntity
  8
Defpoints
 62
     0
100
AcDbPoint
 10
114.8966305675856
 20
-77.06704681870445
 30
0.0
  0
POINT
  5
2F7
330
2ED
100
AcDbEntity
  8
Defpoints
 62
     0
100
AcDbPoint
 10
114.8966305675856
 20
-96.11704681870447
 30
0.0
  0
POINT
  5
2F8
330
2ED
100
AcDbEntity
  8
Defpoints
 62
     0
100
AcDbPoint
 10
100.3091305675856
 20
-96.11704681870452
 30
0.0
  0
ENDBLK
  5
2EF
330
2ED
100
AcDbEntity
  8
0
100
AcDbBlockEnd
  0
BLOCK
  5
2FA
330
2F9
100
AcDbEntity
  8
0
100
AcDbBlockBegin
  2
*D12
 70
     1
 10
0.0
 20
0.0
 30
0.0
  3
*D12
  1
*D13
  0
LINE
  5
2FC
330
2F9
100
AcDbEntity
  8
치수문자_일반주서
 62
     0
370
    -2
100
AcDbLine
 10
271.7416305675856
 20
-77.00454681870445
 30
0.0
 11
271.7416305675856
 21
-54.59656848074988
 31
0.0
  0
LINE
  5
2FD
330
2F9
100
AcDbEntity
  8
치수문자_일반주서
 62
     0
370
    -2
100
AcDbLine
 10
170.1416305675857
 20
-77.03046821854963
 30
0.0
 11
170.1416305675857
 21
-54.59656848074988
 31
0.0
  0
LINE
  5
2FE
330
2F9
100
AcDbEntity
  8
치수문자_일반주서
 62
     0
370
    -2
100
AcDbLine
 10
268.4396305675856
 20
-54.59656848074988
 30
0.0
 11
173.4436305675856
 21
-54.59656848074988
 31
0.0
  0
SOLID
  5
2FF
330
2F9
100
AcDbEntity
  8
치수문자_일반주서
 62
     0
100
AcDbTrace
 10
268.4396305675856
 20
-55.14690181408321
 30
0.0
 11
268.4396305675856
 21
-54.04623514741655
 31
0.0
 12
271.7416305675856
 22
-54.59656848074988
 32
0.0
 13
271.7416305675856
 23
-54.59656848074988
 33
0.0
  0
SOLID
  5
300
330
2F9
100
AcDbEntity
  8
치수문자_일반주서
 62
     0
100
AcDbTrace
 10
173.4436305675856
 20
-54.04623514741655
 30
0.0
 11
173.4436305675856
 21
-55.14690181408321
 31
0.0
 12
170.1416305675857
 22
-54.59656848074988
 32
0.0
 13
170.1416305675857
 23
-54.59656848074988
 33
0.0
  0
MTEXT
  5
301
330
2F9
100
AcDbEntity
  8
치수문자_일반주서
 62
     0
100
AcDbMText
 10
220.9416305675857
 20
-50.22156848074988
 30
0.0
 40
3.5
 41
0.0
 71
     2
 72
     1
  1
\A1;101.60 [4]
  7
SLDTEXTSTYLE0
 73
     1
 44
1.0
  0
POINT
  5
302
330
2F9
100
AcDbEntity
  8
Defpoints
 62
     0
100
AcDbPoint
 10
271.7416305675856
 20
-77.06704681870445
 30
0.0
  0
POINT
  5
303
330
2F9
100
AcDbEntity
  8
Defpoints
 62
     0
100
AcDbPoint
 10
170.1416305675857
 20
-77.09296821854963
 30
0.0
  0
POINT
  5
304
330
2F9
100
AcDbEntity
  8
Defpoints
 62
     0
100
AcDbPoint
 10
170.1416305675857
 20
-54.59656848074988
 30
0.0
  0
ENDBLK
  5
2FB
330
2F9
100
AcDbEntity
  8
0
100
AcDbBlockEnd
  0
BLOCK
  5
306
330
305
100
AcDbEntity
  8
0
100
AcDbBlockBegin
  2
*D13
 70
     1
 10
0.0
 20
0.0
 30
0.0
  3
*D13
  1
*D14
  0
LINE
  5
308
330
305
100
AcDbEntity
  8
치수문자_일반주서
 62
     0
370
    -2
100
AcDbLine
 10
271.7416305675856
 20
-77.00454681870445
 30
0.0
 11
271.7416305675856
 21
-42.59656848074987
 31
0.0
  0
LINE
  5
309
330
305
100
AcDbEntity
  8
치수문자_일반주서
 62
     0
370
    -2
100
AcDbLine
 10
112.9916305675856
 20
-78.90954681870446
 30
0.0
 11
112.9916305675856
 21
-42.59656848074987
 31
0.0
  0
LINE
  5
30A
330
305
100
AcDbEntity
  8
치수문자_일반주서
 62
     0
370
    -2
100
AcDbLine
 10
268.4396305675856
 20
-42.59656848074987
 30
0.0
 11
116.2936305675856
 21
-42.59656848074987
 31
0.0
  0
SOLID
  5
30B
330
305
100
AcDbEntity
  8
치수문자_일반주서
 62
     0
100
AcDbTrace
 10
268.4396305675856
 20
-43.14690181408321
 30
0.0
 11
268.4396305675856
 21
-42.04623514741654
 31
0.0
 12
271.7416305675856
 22
-42.59656848074987
 32
0.0
 13
271.7416305675856
 23
-42.59656848074987
 33
0.0
  0
SOLID
  5
30C
330
305
100
AcDbEntity
  8
치수문자_일반주서
 62
     0
100
AcDbTrace
 10
116.2936305675856
 20
-42.04623514741654
 30
0.0
 11
116.2936305675856
 21
-43.14690181408321
 31
0.0
 12
112.9916305675856
 22
-42.59656848074987
 32
0.0
 13
112.9916305675856
 23
-42.59656848074987
 33
0.0
  0
MTEXT
  5
30D
330
305
100
AcDbEntity
  8
치수문자_일반주서
 62
     0
100
AcDbMText
 10
192.3666305675856
 20
-38.22156848074987
 30
0.0
 40
3.5
 41
0.0
 71
     2
 72
     1
  1
\A1;158.75 [6 1/4]
  7
SLDTEXTSTYLE0
 73
     1
 44
1.0
  0
POINT
  5
30E
330
305
100
AcDbEntity
  8
Defpoints
 62
     0
100
AcDbPoint
 10
271.7416305675856
 20
-77.06704681870445
 30
0.0
  0
POINT
  5
30F
330
305
100
AcDbEntity
  8
Defpoints
 62
     0
100
AcDbPoint
 10
112.9916305675856
 20
-78.97204681870446
 30
0.0
  0
POINT
  5
310
330
305
100
AcDbEntity
  8
Defpoints
 62
     0
100
AcDbPoint
 10
112.9916305675856
 20
-42.59656848074987
 30
0.0
  0
ENDBLK
  5
307
330
305
100
AcDbEntity
  8
0
100
AcDbBlockEnd
  0
BLOCK
  5
312
330
311
100
AcDbEntity
  8
0
100
AcDbBlockBegin
  2
*D14
 70
     1
 10
0.0
 20
0.0
 30
0.0
  3
*D14
  1
*D15
  0
LINE
  5
314
330
311
100
AcDbEntity
  8
치수문자_일반주서
 62
     0
370
    -2
100
AcDbLine
 10
271.8041305675856
 20
-77.06704681870445
 30
0.0
 11
291.7585085147452
 21
-77.06704681870438
 31
0.0
  0
LINE
  5
315
330
311
100
AcDbEntity
  8
치수문자_일반주서
 62
     0
370
    -2
100
AcDbLine
 10
271.8041305675856
 20
-96.11704681870447
 30
0.0
 11
291.7585085147453
 21
-96.1170468187044
 31
0.0
  0
LINE
  5
316
330
311
100
AcDbEntity
  8
치수문자_일반주서
 62
     0
370
    -2
100
AcDbLine
 10
291.7585085147452
 20
-77.06704681870438
 30
0.0
 11
291.7585085147451
 21
-45.96842715323784
 31
0.0
  0
LINE
  5
317
330
311
100
AcDbEntity
  8
치수문자_일반주서
 62
     0
370
    -2
100
AcDbLine
 10
291.7585085147452
 20
-80.36904681870439
 30
0.0
 11
291.7585085147453
 21
-92.81504681870439
 31
0.0
  0
SOLID
  5
318
330
311
100
AcDbEntity
  8
치수문자_일반주서
 62
     0
100
AcDbTrace
 10
292.3088418480786
 20
-80.36904681870439
 30
0.0
 11
291.2081751814119
 21
-80.36904681870439
 31
0.0
 12
291.7585085147452
 22
-77.06704681870438
 32
0.0
 13
291.7585085147452
 23
-77.06704681870438
 33
0.0
  0
SOLID
  5
319
330
311
100
AcDbEntity
  8
치수문자_일반주서
 62
     0
100
AcDbTrace
 10
291.2081751814119
 20
-92.81504681870439
 30
0.0
 11
292.3088418480787
 21
-92.81504681870439
 31
0.0
 12
291.7585085147453
 22
-96.1170468187044
 32
0.0
 13
291.7585085147453
 23
-96.1170468187044
 33
0.0
  0
MTEXT
  5
31A
330
311
100
AcDbEntity
  8
치수문자_일반주서
 62
     0
100
AcDbMText
 10
287.3835085147452
 20
-59.74967715323785
 30
0.0
 40
3.5
 41
0.0
 71
     2
 72
     1
  1
\A1;%%c19.05 [3/4]
  7
SLDTEXTSTYLE0
 11
-2.983906501879684E-15
 21
1.0
 31
0.0
 73
     1
 44
1.0
  0
POINT
  5
31B
330
311
100
AcDbEntity
  8
Defpoints
 62
     0
100
AcDbPoint
 10
271.7416305675856
 20
-77.06704681870445
 30
0.0
  0
POINT
  5
31C
330
311
100
AcDbEntity
  8
Defpoints
 62
     0
100
AcDbPoint
 10
271.7416305675856
 20
-96.11704681870447
 30
0.0
  0
POINT
  5
31D
330
311
100
AcDbEntity
  8
Defpoints
 62
     0
100
AcDbPoint
 10
291.7585085147453
 20
-96.1170468187044
 30
0.0
  0
ENDBLK
  5
313
330
311
100
AcDbEntity
  8
0
100
AcDbBlockEnd
  0
ENDSEC
  0
SECTION
  2
ENTITIES
  0
LINE
  5
96
330
1F
100
AcDbEntity
  8
외형선
  6
Continuous
 62
     1
370
    15
100
AcDbLine
 10
40.46665036733123
 20
1.514887616508237
 30
0.0
 11
40.39012336100139
 21
1.588423722647168
 31
0.0
  0
LINE
  5
97
330
1F
100
AcDbEntity
  8
외형선
  6
Continuous
 62
     1
370
    15
100
AcDbLine
 10
70.37029415715119
 20
-1.517466206505258
 30
0.0
 11
70.44069244826221
 21
-1.586056829253867
 31
0.0
  0
LINE
  5
98
330
1F
100
AcDbEntity
  8
외형선
  6
Continuous
 62
     1
370
    15
100
AcDbLine
 10
45.42601375314894
 20
-1.510879853019086
 30
0.0
 11
45.5051691710718
 21
-1.586905624294354
 31
0.0
  0
LINE
  5
99
330
1F
100
AcDbEntity
  8
외형선
  6
Continuous
 62
     1
370
    15
100
AcDbLine
 10
112.6397180485869
 20
-7.936425071276112
 30
0.0
 11
113.6
 21
-7.936425071276112
 31
0.0
  0
LINE
  5
9A
330
1F
100
AcDbEntity
  8
외형선
  6
Continuous
 62
     1
370
    15
100
AcDbLine
 10
62.76643809500899
 20
-7.936425071276112
 30
0.0
 11
64.68663231471454
 21
-7.936425071276112
 31
0.0
  0
LINE
  5
9B
330
1F
100
AcDbEntity
  8
외형선
  6
Continuous
 62
     1
370
    15
100
AcDbLine
 10
12.89487822120468
 20
-7.936425071276112
 30
0.0
 11
14.81460727240727
 21
-7.936425071276112
 31
0.0
  0
LINE
  5
9C
330
1F
100
AcDbEntity
  8
외형선
  6
Continuous
 62
     1
370
    15
100
AcDbLine
 10
39.75091933077579
 20
7.938574928723902
 30
0.0
 11
37.83262216419387
 21
7.938574928723902
 31
0.0
  0
LINE
  5
9D
330
1F
100
AcDbEntity
  8
외형선
  6
Continuous
 62
     1
370
    15
100
AcDbLine
 10
89.62271272558216
 20
7.938574928723902
 30
0.0
 11
87.70520283896056
 21
7.938574928723902
 31
0.0
  0
LINE
  5
9E
330
1F
100
AcDbEntity
  8
외형선
  6
Continuous
 62
     1
370
    15
100
AcDbLine
 10
79.39237861748315
 20
-7.936425071276112
 30
0.0
 11
81.31072268957791
 21
-7.936425071276112
 31
0.0
  0
LINE
  5
9F
330
1F
100
AcDbEntity
  8
외형선
  6
Continuous
 62
     1
370
    15
100
AcDbLine
 10
29.5197884203476
 20
-7.936425071276112
 30
0.0
 11
31.43835449318328
 21
-7.936425071276112
 31
0.0
  0
LINE
  5
A0
330
1F
100
AcDbEntity
  8
외형선
  6
Continuous
 62
     1
370
    15
100
AcDbLine
 10
56.37483362179122
 20
7.938574928723902
 30
0.0
 11
54.45473103711232
 21
7.938574928723902
 31
0.0
  0
LINE
  5
A1
330
1F
100
AcDbEntity
  8
외형선
  6
Continuous
 62
     1
370
    15
100
AcDbLine
 10
106.2479392944051
 20
7.938574928723902
 30
0.0
 11
104.3281280912734
 21
7.938574928723902
 31
0.0
  0
LINE
  5
A2
330
1F
100
AcDbEntity
  8
외형선
  6
Continuous
 62
     1
370
    15
100
AcDbLine
 10
71.0792148072449
 20
-7.936425071276112
 30
0.0
 11
72.99852602060723
 21
-7.936425071276112
 31
0.0
  0
LINE
  5
A3
330
1F
100
AcDbEntity
  8
외형선
  6
Continuous
 62
     1
370
    15
100
AcDbLine
 10
21.2065780482347
 20
-7.936425071276112
 30
0.0
 11
23.12547889819552
 21
-7.936425071276112
 31
0.0
  0
LINE
  5
A4
330
1F
100
AcDbEntity
  8
외형선
  6
Continuous
 62
     1
370
    15
100
AcDbLine
 10
48.06282067134175
 20
7.938574928723902
 30
0.0
 11
46.14436807563527
 21
7.938574928723902
 31
0.0
  0
LINE
  5
A5
330
1F
100
AcDbEntity
  8
외형선
  6
Continuous
 62
     1
370
    15
100
AcDbLine
 10
97.93517495126845
 20
7.938574928723902
 30
0.0
 11
96.01696088973418
 21
7.938574928723902
 31
0.0
  0
LINE
  5
A6
330
1F
100
AcDbEntity
  8
외형선
  6
Continuous
 62
     1
370
    15
100
AcDbLine
 10
87.70520283896059
 20
-7.936425071276112
 30
0.0
 11
89.62271272558213
 21
-7.936425071276112
 31
0.0
  0
LINE
  5
A7
330
1F
100
AcDbEntity
  8
외형선
  6
Continuous
 62
     1
370
    15
100
AcDbLine
 10
37.83262216419384
 20
-7.936425071276112
 30
0.0
 11
39.75091933077572
 21
-7.936425071276112
 31
0.0
  0
LINE
  5
A8
330
1F
100
AcDbEntity
  8
외형선
  6
Continuous
 62
     1
370
    15
100
AcDbLine
 10
14.81460727240728
 20
7.938574928723902
 30
0.0
 11
12.89487822120473
 21
7.938574928723902
 31
0.0
  0
LINE
  5
A9
330
1F
100
AcDbEntity
  8
외형선
  6
Continuous
 62
     1
370
    15
100
AcDbLine
 10
64.68663231471446
 20
7.938574928723902
 30
0.0
 11
62.76643809500894
 21
7.938574928723902
 31
0.0
  0
LINE
  5
AA
330
1F
100
AcDbEntity
  8
외형선
  6
Continuous
 62
     1
370
    15
100
AcDbLine
 10
113.6
 20
7.938574928723902
 30
0.0
 11
112.6397180485869
 21
7.938574928723902
 31
0.0
  0
LINE
  5
AB
330
1F
100
AcDbEntity
  8
외형선
  6
Continuous
 62
     1
370
    15
100
AcDbLine
 10
104.3281280912734
 20
-7.936425071276112
 30
0.0
 11
106.2479392944052
 21
-7.936425071276112
 31
0.0
  0
LINE
  5
AC
330
1F
100
AcDbEntity
  8
외형선
  6
Continuous
 62
     1
370
    15
100
AcDbLine
 10
54.4547310371123
 20
-7.936425071276112
 30
0.0
 11
56.37483362179118
 21
-7.936425071276112
 31
0.0
  0
LINE
  5
AD
330
1F
100
AcDbEntity
  8
외형선
  6
Continuous
 62
     1
370
    15
100
AcDbLine
 10
31.43835449318325
 20
7.938574928723902
 30
0.0
 11
29.51978842034756
 21
7.938574928723902
 31
0.0
  0
LINE
  5
AE
330
1F
100
AcDbEntity
  8
외형선
  6
Continuous
 62
     1
370
    15
100
AcDbLine
 10
81.31072268957794
 20
7.938574928723902
 30
0.0
 11
79.39237861748303
 21
7.938574928723902
 31
0.0
  0
LINE
  5
AF
330
1F
100
AcDbEntity
  8
외형선
  6
Continuous
 62
     1
370
    15
100
AcDbLine
 10
96.0169608897341
 20
-7.936425071276112
 30
0.0
 11
97.9351749512684
 21
-7.936425071276112
 31
0.0
  0
LINE
  5
B0
330
1F
100
AcDbEntity
  8
외형선
  6
Continuous
 62
     1
370
    15
100
AcDbLine
 10
46.14436807563519
 20
-7.936425071276112
 30
0.0
 11
48.06282067134172
 21
-7.936425071276112
 31
0.0
  0
LINE
  5
B1
330
1F
100
AcDbEntity
  8
외형선
  6
Continuous
 62
     1
370
    15
100
AcDbLine
 10
23.1254788981955
 20
7.938574928723902
 30
0.0
 11
21.20657804823467
 21
7.938574928723902
 31
0.0
  0
LINE
  5
B2
330
1F
100
AcDbEntity
  8
외형선
  6
Continuous
 62
     1
370
    15
100
AcDbLine
 10
72.99852602060717
 20
7.938574928723902
 30
0.0
 11
71.07921480724484
 21
7.938574928723902
 31
0.0
  0
LINE
  5
B3
330
1F
100
AcDbEntity
  8
외형선
  6
Continuous
370
    15
100
AcDbLine
 10
-40.38750000000001
 20
-7.936425071276105
 30
0.0
 11
11.00002396313799
 21
-7.936425071276105
 31
0.0
  0
LINE
  5
B4
330
1F
100
AcDbEntity
  8
외형선
  6
Continuous
370
    15
100
AcDbLine
 10
11.00002396313799
 20
7.938574928723895
 30
0.0
 11
-11.02192500000009
 21
7.938574928723895
 31
0.0
  0
LINE
  5
B5
330
1F
100
AcDbEntity
  8
외형선
  6
Continuous
370
    15
100
AcDbLine
 10
-40.38750000000001
 20
7.938574928723895
 30
0.0
 11
-41.97500000000001
 21
6.351074928723902
 31
0.0
  0
LINE
  5
B6
330
1F
100
AcDbEntity
  8
외형선
  6
Continuous
370
    15
100
AcDbLine
 10
-41.97500000000001
 20
-6.348925071276112
 30
0.0
 11
-40.38750000000001
 21
-7.936425071276105
 31
0.0
  0
SPLINE
  5
B7
330
1F
100
AcDbEntity
  8
외형선
  6
Continuous
 62
     1
370
    15
100
AcDbSpline
210
0.0
220
0.0
230
1.0
 70
     8
 71
     3
 72
    26
 73
    22
 74
     0
 42
0.000000001
 43
0.00000001
 40
0.0
 40
0.0
 40
0.0
 40
0.0
 40
0.0248168015418157
 40
0.081820869759808
 40
0.1388410420502023
 40
0.1958238160825385
 40
0.2527844873570733
 40
0.309740744433227
 40
0.3667103061708145
 40
0.42371080016098
 40
0.4807329590207001
 40
0.5377185321394731
 40
0.5946804452215011
 40
0.6516363783055389
 40
0.7086040524761412
 40
0.7656011082623073
 40
0.8226245544448637
 40
0.8796130634703542
 40
0.9365763564466334
 40
0.9935321039460971
 40
1.0
 40
1.0
 40
1.0
 40
1.0
 10
23.12547889819549
 20
7.898816647048787
 30
0.0
 10
23.35817829529602
 20
7.908027773071124
 30
0.0
 10
24.12538703616731
 20
7.938396809199529
 30
0.0
 10
25.42774543485581
 20
7.647158155341984
 30
0.0
 10
27.03215931288383
 20
7.04810774519563
 30
0.0
 10
28.63535616018297
 20
6.143499581621149
 30
0.0
 10
30.23770851127823
 20
4.99443314871422
 30
0.0
 10
31.8398590351956
 20
3.641109459063483
 30
0.0
 10
33.44256639407995
 20
2.14001365800101
 30
0.0
 10
35.04636146850699
 20
0.5517072012872153
 30
0.0
 10
36.65085633177586
 20
-1.058570197597982
 30
0.0
 10
38.25414671639129
 20
-2.626239114853781
 30
0.0
 10
39.85655261988589
 20
-4.086737462950525
 30
0.0
 10
41.45868729346559
 20
-5.381073755729035
 30
0.0
 10
43.0613225877488
 20
-6.456615152743608
 30
0.0
 10
44.66500326928008
 20
-7.270273033299715
 30
0.0
 10
46.26954071506547
 20
-7.786037533446254
 30
0.0
 10
47.87292772396817
 20
-7.993200763195683
 30
0.0
 10
49.47540865663479
 20
-7.845970974967845
 30
0.0
 10
50.60404349789098
 20
-7.594690942548042
 30
0.0
 10
51.19874357148756
 20
-7.31499735409797
 30
0.0
 10
51.25939064320672
 20
-7.286474409724457
 30
0.0
  0
SPLINE
  5
B8
330
1F
100
AcDbEntity
  8
외형선
  6
Continuous
 62
     1
370
    15
100
AcDbSpline
210
0.0
220
0.0
230
1.0
 70
     8
 71
     3
 72
    26
 73
    22
 74
     0
 42
0.000000001
 43
0.00000001
 40
0.0
 40
0.0
 40
0.0
 40
0.0
 40
0.0185633909872786
 40
0.0755869066100202
 40
0.1325854460481053
 40
0.1895541096149214
 40
0.2465105339457204
 40
0.3034724396450266
 40
0.3604575096932082
 40
0.4174795152649297
 40
0.4744815362747828
 40
0.5314521312829457
 40
0.5884089236872558
 40
0.6453696315648453
 40
0.7023519461153994
 40
0.7593717424203872
 40
0.8163773809668884
 40
0.8733500450604923
 40
0.9303073439223496
 40
0.9872669921522048
 40
0.9999999999999999
 40
0.9999999999999999
 40
0.9999999999999999
 40
0.9999999999999999
 10
72.9985260206072
 20
7.903056077528935
 30
0.0
 10
73.1726105345188
 20
7.912948235522788
 30
0.0
 10
73.8814524645469
 20
7.953227386189027
 30
0.0
 10
75.12555090837898
 20
7.693553943635816
 30
0.0
 10
76.72923439806397
 20
7.13057469592486
 30
0.0
 10
78.33190111540094
 20
6.255083519216626
 30
0.0
 10
79.9340376279946
 20
5.13157535500732
 30
0.0
 10
81.53642704731618
 20
3.797869871727944
 30
0.0
 10
83.13968562102079
 20
2.309915123630627
 30
0.0
 10
84.74416269379752
 20
0.7284084355623222
 30
0.0
 10
86.34799475191733
 20
-0.882994416625622
 30
0.0
 10
87.95072610356435
 20
-2.458339871830663
 30
0.0
 10
89.55288262788817
 20
-3.93350657887652
 30
0.0
 10
91.15522042053058
 20
-5.2488339668831
 30
0.0
 10
92.7583822199078
 20
-6.350855799303336
 30
0.0
 10
94.362787895501
 20
-7.194867438324593
 30
0.0
 10
95.96674049638486
 20
-7.744710983835823
 30
0.0
 10
97.56954192014962
 20
-7.98615477392757
 30
0.0
 10
99.17175166151397
 20
-7.878454686796093
 30
0.0
 10
100.3591148889026
 20
-7.62893718685579
 30
0.0
 10
101.0126767058537
 20
-7.330202771822351
 30
0.0
 10
101.1320839463381
 20
-7.275623310152974
 30
0.0
  0
SPLINE
  5
B9
330
1F
100
AcDbEntity
  8
외형선
  6
Continuous
 62
     1
370
    15
100
AcDbSpline
210
0.0
220
0.0
230
1.0
 70
     8
 71
     3
 72
    26
 73
    22
 74
     0
 42
0.000000001
 43
0.00000001
 40
0.0
 40
0.0
 40
0.0
 40
0.0
 40
0.0123203382655215
 40
0.069338365519359
 40
0.1263192001356875
 40
0.1832799865113796
 40
0.2402384234721303
 40
0.2972122259716491
 40
0.3542190035829472
 40
0.4112399392356277
 40
0.468223392384928
 40
0.5251852384295284
 40
0.5821431689226111
 40
0.6391149022953456
 40
0.6961180622977118
 40
0.7531412072612722
 40
0.8101274159632577
 40
0.8670904598535103
 40
0.9240480222657275
 40
0.9810178241585213
 40
1.0
 40
1.0
 40
1.0
 40
1.0
 10
104.3281280912734
 20
-7.909033006308264
 30
0.0
 10
104.2125665821609
 20
-7.917472214780815
 30
0.0
 10
103.5621910822254
 20
-7.964967738779643
 30
0.0
 10
102.3770686181652
 20
-7.733467899133996
 30
0.0
 10
100.774025107781
 20
-7.207582559243765
 30
0.0
 10
99.17172739979253
 20
-6.361443592452621
 30
0.0
 10
97.56954842276573
 20
-5.264051176477566
 30
0.0
 10
95.9667387527157
 20
-3.950490600731219
 30
0.0
 10
94.36278836292692
 20
-2.476755275218623
 30
0.0
 10
92.75838209489874
 20
-0.9024044350371645
 30
0.0
 10
91.15522045340508
 20
0.7090261939714132
 30
0.0
 10
89.55288262131307
 20
2.291331975617422
 30
0.0
 10
87.95072609699812
 20
3.780503763244301
 30
0.0
 10
86.34799478477574
 20
5.116258285247574
 30
0.0
 10
84.74416256883869
 20
6.244013088615739
 30
0.0
 10
83.13968608801818
 20
7.118148332215291
 30
0.0
 10
81.53642530587636
 20
7.70167379336098
 30
0.0
 10
79.93404412410861
 20
7.977486309802703
 30
0.0
 10
78.33187687159291
 20
7.90866923168773
 30
0.0
 10
77.08576367779867
 20
7.66454105263854
 30
0.0
 10
76.3733889768016
 20
7.34930577167488
 30
0.0
 10
76.19534987574416
 20
7.270521101239762
 30
0.0
  0
SPLINE
  5
BA
330
1F
100
AcDbEntity
  8
외형선
  6
Continuous
 62
     1
370
    15
100
AcDbSpline
210
0.0
220
0.0
230
1.0
 70
     8
 71
     3
 72
    26
 73
    22
 74
     0
 42
0.000000001
 43
0.00000001
 40
0.0
 40
0.0
 40
0.0
 40
0.0
 40
0.0060844590126642
 40
0.0630808296625888
 40
0.1200493696269584
 40
0.1770077322419264
 40
0.2339736406801609
 40
0.2909647663253965
 40
0.3479908307318343
 40
0.404990503530169
 40
0.4619607933638886
 40
0.5189193415719526
 40
0.5758838700525779
 40
0.6328720596562949
 40
0.6898968366807889
 40
0.7468999478409886
 40
0.8038721253283602
 40
0.860830997543415
 40
0.9177942841595297
 40
0.9747796745482908
 40
1.0
 40
1.0
 40
1.0
 40
1.0
 10
54.45473103711227
 20
-7.921021193823808
 30
0.0
 10
54.39765253359056
 20
-7.926036672720294
 30
0.0
 10
53.80588926416035
 20
-7.978034815741236
 30
0.0
 10
52.6800995712919
 20
-7.771053833023568
 30
0.0
 10
51.07751658650724
 20
-7.283421753054483
 30
0.0
 10
49.47539498879708
 20
-6.466789264995558
 30
0.0
 10
47.87293138819252
 20
-5.396055923702805
 30
0.0
 10
46.26953973237389
 20
-4.103260212853222
 30
0.0
 10
44.66500353251138
 20
-2.644665892598301
 30
0.0
 10
43.06132251733447
 20
-1.077920689813676
 30
0.0
 10
41.45868731208404
 20
0.5324358131229157
 30
0.0
 10
39.85655261579449
 20
2.121042639089685
 30
0.0
 10
38.25414671413763
 20
3.62354619252075
 30
0.0
 10
36.65085634489333
 20
4.979103427368905
 30
0.0
 10
35.04636141826472
 20
6.131826591817108
 30
0.0
 10
33.44256658179739
 20
7.035900035637164
 30
0.0
 10
31.83985833501867
 20
7.652633798652916
 30
0.0
 10
30.23771112385376
 20
7.962868178650653
 30
0.0
 10
28.63534640738214
 20
7.932433853351768
 30
0.0
 10
27.33039837672222
 20
7.697066533818126
 30
0.0
 10
26.55922227809256
 20
7.367847216629587
 30
0.0
 10
26.32262909245856
 20
7.266844284660751
 30
0.0
  0
LINE
  5
BB
330
1F
100
AcDbEntity
  8
외형선
  6
Continuous
 62
     1
370
    15
100
AcDbLine
 10
113.6
 20
-3.109777044610669
 30
0.0
 11
113.6
 21
3.111926902058608
 31
0.0
  0
SPLINE
  5
BC
330
1F
100
AcDbEntity
  8
외형선
  6
Continuous
 62
     1
370
    15
100
AcDbSpline
210
0.0
220
0.0
230
1.0
 70
     8
 71
     3
 72
    16
 73
    12
 74
     0
 42
0.000000001
 43
0.00000001
 40
0.0
 40
0.0
 40
0.0
 40
0.0
 40
0.1259752632057211
 40
0.2519418049454184
 40
0.3778968882908312
 40
0.4898341179494939
 40
0.6017309884120381
 40
0.7136222636704068
 40
0.8255427461254967
 40
0.9375270378556778
 40
1.0
 40
1.0
 40
1.0
 40
1.0
 10
12.00000000000001
 20
-1.334940076881835
 30
0.0
 10
12.6015955373542
 20
-1.921096184962422
 30
0.0
 10
13.80474496265534
 20
-3.093367820612383
 30
0.0
 10
15.60927147612997
 20
-4.674165785374487
 30
0.0
 10
17.34687377201437
 20
-5.969486730847319
 30
0.0
 10
19.01656400881068
 20
-6.942861476260602
 30
0.0
 10
20.61886086628204
 20
-7.594532090563717
 30
0.0
 10
22.22103780201206
 20
-7.941098308836976
 30
0.0
 10
23.82381190392831
 20
-7.950820830205346
 30
0.0
 10
25.19120236609973
 20
-7.728237507155825
 30
0.0
 10
26.02429830024225
 20
-7.386919906816764
 30
0.0
 10
26.32262909245861
 20
-7.264694427212962
 30
0.0
  0
SPLINE
  5
BD
330
1F
100
AcDbEntity
  8
외형선
  6
Continuous
 62
     1
370
    15
100
AcDbSpline
210
0.0
220
0.0
230
1.0
 70
     8
 71
     3
 72
    25
 73
    21
 74
     0
 42
0.000000001
 43
0.00000001
 40
0.0
 40
0.0
 40
0.0
 40
0.0
 40
0.0502214951373392
 40
0.1071797071791126
 40
0.1641480965433826
 40
0.2211443165196349
 40
0.2781708181931067
 40
0.3351648658816372
 40
0.3921321416994343
 40
0.4490903065720941
 40
0.506057083949341
 40
0.5630501381752089
 40
0.6200765284708242
 40
0.6770737853677106
 40
0.7340427170955938
 40
0.7910009732251624
 40
0.8479662765794814
 40
0.9049563016132637
 40
0.9619818811411065
 40
1.0
 40
1.0
 40
1.0
 40
1.0
 10
48.06282067134173
 20
7.921722556434879
 30
0.0
 10
48.5337045203156
 20
7.904299396950607
 30
0.0
 10
49.53863662977142
 20
7.867115933444543
 30
0.0
 10
51.07751577970807
 20
7.41777319583635
 30
0.0
 10
52.68008823370444
 20
6.678944840410705
 30
0.0
 10
54.28365721874775
 20
5.660267507654304
 30
0.0
 10
55.88821255526011
 20
4.414062320105399
 30
0.0
 10
57.49170937665114
 20
2.987450805432676
 30
0.0
 10
59.09423270629709
 20
1.439850478162805
 30
0.0
 10
60.69635626841496
 20
-0.1661528558069656
 30
0.0
 10
62.29885973625885
 20
-1.765460407819554
 30
0.0
 10
63.90232285503274
 20
-3.293246443017365
 30
0.0
 10
65.50687426722457
 20
-4.686665533306798
 30
0.0
 10
67.1104794529137
 20
-5.889843001360315
 30
0.0
 10
68.71306815154809
 20
-6.85353887850326
 30
0.0
 10
70.3151949613547
 20
-7.537716034328492
 30
0.0
 10
71.91764314180774
 20
-7.918623617039265
 30
0.0
 10
73.52098672297224
 20
-7.965967860323842
 30
0.0
 10
74.94746475678733
 20
-7.758642698233367
 30
0.0
 10
75.83880698645564
 20
-7.408450485259628
 30
0.0
 10
76.19534987574424
 20
-7.268371243791972
 30
0.0
  0
SPLINE
  5
BE
330
1F
100
AcDbEntity
  8
외형선
  6
Continuous
 62
     1
370
    15
100
AcDbSpline
210
0.0
220
0.0
230
1.0
 70
     8
 71
     3
 72
    17
 73
    13
 74
     0
 42
0.000000001
 43
0.00000001
 40
0.0
 40
0.0
 40
0.0
 40
0.0
 40
0.0789537795979527
 40
0.1812501781724953
 40
0.2835825815662346
 40
0.3859817795587293
 40
0.488367514951274
 40
0.5906912522679616
 40
0.6929845895579166
 40
0.7952793333183038
 40
0.8976072803911046
 40
1.0
 40
1.0
 40
1.0
 40
1.0
 10
97.93517495126845
 20
7.910124249293988
 30
0.0
 10
98.34735500606224
 20
7.90293979215696
 30
0.0
 10
99.29357580449584
 20
7.886446799132557
 30
0.0
 10
100.7740175315335
 20
7.480341567829037
 30
0.0
 10
102.3770885496066
 20
6.774873479497753
 30
0.0
 10
103.9814007677481
 20
5.783917477298454
 30
0.0
 10
105.5854733038189
 20
4.56048293431281
 30
0.0
 10
107.1883645341419
 20
3.151044500957277
 30
0.0
 10
108.790576113481
 20
1.613351655509049
 30
0.0
 10
110.3928248726427
 20
0.0125017112167982
 30
0.0
 10
111.9958025530434
 20
-1.598181221265807
 30
0.0
 10
113.0651547385561
 20
-2.605805501164896
 30
0.0
 10
113.6
 20
-3.10977704461067
 30
0.0
  0
SPLINE
  5
BF
330
1F
100
AcDbEntity
  8
외형선
  6
Continuous
370
    15
100
AcDbSpline
210
0.0
220
0.0
230
1.0
 70
    24
 71
     3
 72
    15
 73
    11
 74
     0
 42
0.000000001
 43
0.00000001
 40
0.0
 40
0.0
 40
0.0
 40
0.0
 40
0.1146530889853972
 40
0.2473168859290135
 40
0.3799806828726304
 40
0.5126444798162446
 40
0.6453082767598608
 40
0.7779720737034771
 40
0.9106358706470948
 40
1.0
 40
1.0
 40
1.0
 40
1.0
 10
12.0
 20
4.717787199217764
 30
0.0
 10
12.00000000000001
 20
4.564098860374256
 30
0.0
 10
12.00000000000003
 20
4.23257947696523
 30
0.0
 10
12.00000000000004
 20
3.406650844055239
 30
0.0
 10
11.99999999999996
 20
2.386337243456447
 30
0.0
 10
11.99999999999999
 20
1.299360289752493
 30
0.0
 10
11.99999999999998
 20
0.2711417327140321
 30
0.0
 10
12.00000000000002
 20
-0.567428757253527
 30
0.0
 10
11.99999999999997
 20
-1.117405870571886
 30
0.0
 10
11.99999999999999
 20
-1.215653221468943
 30
0.0
 10
12.00000000000001
 20
-1.255196846095781
 30
0.0
  0
SPLINE
  5
C0
330
1F
100
AcDbEntity
  8
외형선
  6
Continuous
 62
     1
370
    15
100
AcDbSpline
210
0.0
220
0.0
230
1.0
 70
     8
 71
     3
 72
    15
 73
    11
 74
     0
 42
0.000000001
 43
0.00000001
 40
0.0
 40
0.0
 40
0.0
 40
0.0
 40
0.1286531351968038
 40
0.2572248858002968
 40
0.3857549175173524
 40
0.5142831820498779
 40
0.6428496432311867
 40
0.7714940029863934
 40
0.9001552780623215
 40
1.0
 40
1.0
 40
1.0
 40
1.0
 10
113.6
 20
3.111926902058607
 30
0.0
 10
113.0651547351918
 20
3.591393390443922
 30
0.0
 10
111.9958025429528
 20
4.550023061857057
 30
0.0
 10
110.3928249129695
 20
5.769393706884637
 30
0.0
 10
108.7905759623076
 20
6.763299636323927
 30
0.0
 10
107.1883650985916
 20
7.479263757808194
 30
0.0
 10
105.5854711959723
 20
7.894497420557228
 30
0.0
 10
103.9814086400192
 20
7.97917802684525
 30
0.0
 10
102.4965181243838
 20
7.789988201223791
 30
0.0
 10
101.5469804068799
 20
7.433527258128508
 30
0.0
 10
101.1320839463381
 20
7.277773167600758
 30
0.0
  0
SPLINE
  5
C1
330
1F
100
AcDbEntity
  8
외형선
  6
Continuous
 62
     1
370
    15
100
AcDbSpline
210
0.0
220
0.0
230
1.0
 70
     8
 71
     3
 72
    25
 73
    21
 74
     0
 42
0.000000001
 43
0.00000001
 40
0.0
 40
0.0
 40
0.0
 40
0.0
 40
0.0377012110810085
 40
0.0946715495594763
 40
0.1516717647875813
 40
0.208696956934656
 40
0.2656865948291975
 40
0.3226515112122118
 40
0.3796093804183486
 40
0.4365779251502785
 40
0.4935747948587974
 40
0.5506007977681383
 40
0.6075934648341854
 40
0.6645598552301152
 40
0.7215176331799625
 40
0.7784845220130562
 40
0.8354781825350185
 40
0.8925042968214599
 40
0.949500129616388
 40
1.0
 40
1.0
 40
1.0
 40
1.0
 10
79.39237861748309
 20
-7.900253475720207
 30
0.0
 10
79.03891844184669
 20
-7.900877616188851
 30
0.0
 10
78.15134423466381
 20
-7.902444895955601
 30
0.0
 10
76.72924114275338
 20
-7.536846815116231
 30
0.0
 10
75.12552457595483
 20
-6.865454169378614
 30
0.0
 10
73.520999051357
 20
-5.902491138700388
 30
0.0
 10
71.91763984087922
 20
-4.702584281984256
 30
0.0
 10
70.31519584555109
 20
-3.310797509823793
 30
0.0
 10
68.7130679145735
 20
-1.784726189041036
 30
0.0
 10
67.11047951653217
 20
-0.1858618395107833
 30
0.0
 10
65.50687424985747
 20
1.420844312206327
 30
0.0
 10
63.90232286083027
 20
2.969363789191756
 30
0.0
 10
62.29885973043353
 20
4.397685512557216
 30
0.0
 10
60.69635628591345
 20
5.646937346674734
 30
0.0
 10
59.09423264213073
 20
6.666781169510407
 30
0.0
 10
57.49170961591119
 20
7.415227403082217
 30
0.0
 10
55.888211661733
 20
7.864329825874532
 30
0.0
 10
54.2836605547262
 20
7.986181566593869
 30
0.0
 10
52.74073548712723
 20
7.817972647471471
 30
0.0
 10
51.73287050675491
 20
7.457819036305253
 30
0.0
 10
51.25939064320679
 20
7.288624267172242
 30
0.0
  0
SPLINE
  5
C2
330
1F
100
AcDbEntity
  8
외형선
  6
Continuous
 62
     1
370
    15
100
AcDbSpline
210
0.0
220
0.0
230
1.0
 70
     8
 71
     3
 72
    18
 73
    14
 74
     0
 42
0.000000001
 43
0.00000001
 40
0.0
 40
0.0
 40
0.0
 40
0.0
 40
0.0504865788295177
 40
0.1419994512746506
 40
0.233572384362275
 40
0.325119454722984
 40
0.4166143610515249
 40
0.5080853905197315
 40
0.5995609940629468
 40
0.6910695912172273
 40
0.7940377727287398
 40
0.8970153214685658
 40
1.0
 40
1.0
 40
1.0
 40
1.0
 10
29.5197884203476
 20
-7.896438783121401
 30
0.0
 10
29.22503893155039
 20
-7.902475063062051
 30
0.0
 10
28.39602126699405
 20
-7.919452811588184
 30
0.0
 10
27.0321583318259
 20
-7.591509395278647
 30
0.0
 10
25.42773303583673
 20
-6.954996236443724
 30
0.0
 10
23.82381887994937
 20
-6.020130339129535
 30
0.0
 10
22.22103593382884
 20
-4.84462554868272
 30
0.0
 10
20.6188613666848
 20
-3.471170662524298
 30
0.0
 10
19.01656387520158
 20
-1.957050402583982
 30
0.0
 10
17.34687381283114
 20
-0.2959918356734364
 30
0.0
 10
15.60927146470775
 20
1.444964211534774
 30
0.0
 10
13.80474496551128
 20
3.19603937705945
 30
0.0
 10
12.60159553830621
 20
4.210526219005802
 30
0.0
 10
12.00000000000006
 20
4.717787199217553
 30
0.0
  0
LINE
  5
C3
330
1F
100
AcDbEntity
  8
외형선
  6
Continuous
 62
     1
370
    15
100
AcDbLine
 10
113.6
 20
4.73345426007007
 30
0.0
 11
113.6
 21
7.880651426527082
 31
0.0
  0
SPLINE
  5
C4
330
1F
100
AcDbEntity
  8
외형선
  6
Continuous
 62
     1
370
    15
100
AcDbSpline
210
0.0
220
0.0
230
1.0
 70
     8
 71
     3
 72
    21
 73
    17
 74
     0
 42
0.000000001
 43
0.00000001
 40
0.0
 40
0.0
 40
0.0
 40
0.0
 40
0.0797143739091353
 40
0.1594232290665256
 40
0.2391248336042056
 40
0.3099562488542923
 40
0.3807621256933592
 40
0.4515644620103713
 40
0.522385279998634
 40
0.5932464750917669
 40
0.6641276889985027
 40
0.734962413499425
 40
0.8057696622800765
 40
0.8765714238142484
 40
0.9473897242418531
 40
1.0
 40
1.0
 40
1.0
 40
1.0
 10
12.00000000000001
 20
6.109071234663799
 30
0.0
 10
12.60159553834948
 20
5.694493078788001
 30
0.0
 10
13.80474496564113
 20
4.865365468935568
 30
0.0
 10
15.6092714641882
 20
3.287275126573604
 30
0.0
 10
17.34687381468753
 20
1.626577668445025
 30
0.0
 10
19.01656386912495
 20
-0.045123562796659
 30
0.0
 10
20.61886138944351
 20
-1.646927672542005
 30
0.0
 10
22.22103584886257
 20
-3.181995537351858
 30
0.0
 10
23.82381919722373
 20
-4.587822433208171
 30
0.0
 10
25.42773185086808
 20
-5.807081531983409
 30
0.0
 10
27.03216275426757
 20
-6.790211643831743
 30
0.0
 10
28.63535597045898
 20
-7.496732380893507
 30
0.0
 10
30.23770583241868
 20
-7.900977576971276
 30
0.0
 10
31.83986994073418
 20
-7.974008958699837
 30
0.0
 10
33.30489716528886
 20
-7.778707909248225
 30
0.0
 10
34.23624779954214
 20
-7.424119953338947
 30
0.0
 10
34.63322729334956
 20
-7.27298015478184
 30
0.0
  0
SPLINE
  5
C5
330
1F
100
AcDbEntity
  8
외형선
  6
Continuous
 62
     1
370
    15
100
AcDbSpline
210
0.0
220
0.0
230
1.0
 70
     8
 71
     3
 72
    25
 73
    21
 74
     0
 42
0.000000001
 43
0.00000001
 40
0.0
 40
0.0
 40
0.0
 40
0.0
 40
0.0397047030247973
 40
0.0966727262756945
 40
0.1536316384619153
 40
0.2105991632657228
 40
0.2675929652629136
 40
0.3246201037672343
 40
0.3816181084905844
 40
0.438587787673294
 40
0.4955467911176209
 40
0.5525128418791605
 40
0.6095036146445217
 40
0.6665299423704323
 40
0.7235312926799907
 40
0.7805027656449577
 40
0.8374619987703322
 40
0.8944267135345263
 40
0.9514145937899411
 40
1.0
 40
1.0
 40
1.0
 40
1.0
 10
56.3748336217912
 20
7.904398892433268
 30
0.0
 10
56.74720824122515
 20
7.902823566568799
 30
0.0
 10
57.65386329501239
 20
7.898987974447745
 30
0.0
 10
59.09421859150258
 20
7.520912599727389
 30
0.0
 10
60.69636005108504
 20
6.838888567710947
 30
0.0
 10
62.29885872099201
 20
5.867045610648655
 30
0.0
 10
63.90232313155288
 20
4.659649338546078
 30
0.0
 10
65.5068741773034
 20
3.262421022105778
 30
0.0
 10
67.11047953609365
 20
1.732401019848169
 30
0.0
 10
68.71306790882907
 20
0.1321741597865482
 30
0.0
 10
70.31519584897532
 20
-1.473219356649353
 30
0.0
 10
71.91763983292422
 20
-3.018778833326185
 30
0.0
 10
73.52099907977268
 20
-4.441879684117017
 30
0.0
 10
75.12552447020028
 20
-5.683907873581699
 30
0.0
 10
76.72924153705353
 20
-6.695287965557447
 30
0.0
 10
78.33189897852535
 20
-7.433700452913681
 30
0.0
 10
79.93403903967756
 20
-7.872006729714111
 30
0.0
 10
81.53642353638433
 20
-7.982277501812006
 30
0.0
 10
83.06056093725391
 20
-7.807138384829382
 30
0.0
 10
84.0509718250347
 20
-7.447965177583275
 30
0.0
 10
84.506764354648
 20
-7.282671695130885
 30
0.0
  0
SPLINE
  5
C6
330
1F
100
AcDbEntity
  8
외형선
  6
Continuous
 62
     1
370
    15
100
AcDbSpline
210
0.0
220
0.0
230
1.0
 70
     8
 71
     3
 72
    12
 73
     8
 74
     0
 42
0.000000001
 43
0.00000001
 40
0.0
 40
0.0
 40
0.0
 40
0.0
 40
0.1279319674279505
 40
0.3458768559502964
 40
0.5638247410807272
 40
0.7818433687679489
 40
1.0
 40
1.0
 40
1.0
 40
1.0
 10
106.2479392944051
 20
7.899364222774223
 30
0.0
 10
106.5614650770476
 20
7.903921967233486
 30
0.0
 10
107.4091133555812
 20
7.916244284754958
 30
0.0
 10
108.7905638702526
 20
7.577554296280037
 30
0.0
 10
110.392828138637
 20
6.927071558761671
 30
0.0
 10
111.9958017358314
 20
5.994382097988736
 30
0.0
 10
113.0651544660946
 20
5.17807975937194
 30
0.0
 10
113.6
 20
4.769799453192435
 30
0.0
  0
SPLINE
  5
C7
330
1F
100
AcDbEntity
  8
외형선
  6
Continuous
370
    15
100
AcDbSpline
210
0.0
220
0.0
230
1.0
 70
    24
 71
     3
 72
     9
 73
     5
 74
     0
 42
0.000000001
 43
0.00000001
 40
0.0
 40
0.0
 40
0.0
 40
0.0
 40
0.533128208780811
 40
1.0
 40
1.0
 40
1.0
 40
1.0
 10
11.99999999999999
 20
7.888210197336017
 30
0.0
 10
12.0
 20
7.576149960095924
 30
0.0
 10
12.00000000000001
 20
6.990811889252268
 30
0.0
 10
12.00000000000001
 20
6.462939527828349
 30
0.0
 10
12.00000000000001
 20
6.216490812915263
 30
0.0
  0
SPLINE
  5
C8
330
1F
100
AcDbEntity
  8
외형선
  6
Continuous
 62
     1
370
    15
100
AcDbSpline
210
0.0
220
0.0
230
1.0
 70
     8
 71
     3
 72
    10
 73
     6
 74
     0
 42
0.000000001
 43
0.00000001
 40
0.0
 40
0.0
 40
0.0
 40
0.0
 40
0.3859696709355885
 40
0.7716951815974977
 40
1.0
 40
1.0
 40
1.0
 40
1.0
 10
113.6
 20
7.880651426527082
 30
0.0
 10
113.0651556226156
 20
7.911557468596137
 30
0.0
 10
111.9958052046631
 20
7.973350001903553
 30
0.0
 10
110.6106871561272
 20
7.73790658236793
 30
0.0
 10
109.7602982629363
 20
7.395108538723592
 30
0.0
 10
109.4441121192856
 20
7.267651568931561
 30
0.0
  0
SPLINE
  5
C9
330
1F
100
AcDbEntity
  8
외형선
  6
Continuous
 62
     1
370
    15
100
AcDbSpline
210
0.0
220
0.0
230
1.0
 70
     8
 71
     3
 72
    25
 73
    21
 74
     0
 42
0.000000001
 43
0.00000001
 40
0.0
 40
0.0
 40
0.0
 40
0.0
 40
0.0482405394641325
 40
0.1052442340230082
 40
0.1622679137304906
 40
0.2192546568300221
 40
0.2762182349005888
 40
0.3331763314417167
 40
0.390146667578199
 40
0.4471468804630903
 40
0.5041720702659245
 40
0.5611617058176871
 40
0.6181266198589388
 40
0.6750844867236027
 40
0.7320530291136207
 40
0.7890498964790633
 40
0.8460758970441306
 40
0.9030685617672741
 40
0.9600349498213808
 40
1.0
 40
1.0
 40
1.0
 40
1.0
 10
87.70520283896059
 20
-7.915463926607773
 30
0.0
 10
87.25289460115557
 20
-7.90155003554114
 30
0.0
 10
86.26611388603784
 20
-7.871194719786926
 30
0.0
 10
84.74415828064257
 20
-7.435626664288329
 30
0.0
 10
83.13968683674035
 20
-6.707311591404424
 30
0.0
 10
81.53642659548301
 20
-5.697209807652127
 30
0.0
 10
79.93403822023008
 20
-4.458032753870944
 30
0.0
 10
78.33189919813536
 20
-3.03704544736602
 30
0.0
 10
76.72924147816939
 20
-1.492574616852092
 30
0.0
 10
75.1255244859931
 20
0.1128681321578613
 30
0.0
 10
73.52099907553071
 20
1.713322255314451
 30
0.0
 10
71.91763983410667
 20
3.244642240211106
 30
0.0
 10
70.31519584848435
 20
4.643780444609495
 30
0.0
 10
68.71306790961083
 20
5.8540956165549
 30
0.0
 10
67.11047953345668
 20
6.826818737761012
 30
0.0
 10
65.5068741870765
 20
7.521353544275274
 30
0.0
 10
63.9023230950881
 20
7.912921720986178
 30
0.0
 10
62.29885885695739
 20
7.972039901011247
 30
0.0
 10
60.85568166034462
 20
7.769949454461936
 30
0.0
 10
59.9469192803039
 20
7.417688826274482
 30
0.0
 10
59.57223450536462
 20
7.272450976324675
 30
0.0
  0
SPLINE
  5
CA
330
1F
100
AcDbEntity
  8
외형선
  6
Continuous
 62
     1
370
    15
100
AcDbSpline
210
0.0
220
0.0
230
1.0
 70
     8
 71
     3
 72
    23
 73
    19
 74
     0
 42
0.000000001
 43
0.00000001
 40
0.0
 40
0.0
 40
0.0
 40
0.0
 40
0.0457409812306139
 40
0.1078468678055701
 40
0.1699291580110072
 40
0.231977758243835
 40
0.2940118676574704
 40
0.3560507848109309
 40
0.4181137752614472
 40
0.4802174981573759
 40
0.5423036812457269
 40
0.6043544872800765
 40
0.6663891002990029
 40
0.7284268154036361
 40
0.7904869064004661
 40
0.8603187573205375
 40
0.9301569609884338
 40
1.0
 40
1.0
 40
1.0
 40
1.0
 10
37.83262216419386
 20
-7.905086293370776
 30
0.0
 10
37.4387998555304
 20
-7.900629832084121
 30
0.0
 10
36.51025610070413
 20
-7.890122506304654
 30
0.0
 10
35.0463516154177
 20
-7.497027408668504
 30
0.0
 10
33.44256904968489
 20
-6.802209679652403
 30
0.0
 10
31.83985825880251
 20
-5.819862498456249
 30
0.0
 10
30.23770896249867
 20
-4.603980256651397
 30
0.0
 10
28.63535513138445
 20
-3.200107894265397
 30
0.0
 10
27.03216297930049
 20
-1.665966087059537
 30
0.0
 10
25.42773179057173
 20
-0.0643970251502844
 30
0.0
 10
23.82381921336806
 20
1.540126525467135
 30
0.0
 10
22.2210358445391
 20
3.081982496725703
 30
0.0
 10
20.61886139060154
 20
4.498506897411611
 30
0.0
 10
19.01656386881573
 20
5.731832513997954
 30
0.0
 10
17.34687381478199
 20
6.775655982280282
 30
0.0
 10
15.6092714641618
 20
7.53895494670028
 30
0.0
 10
13.80474496564777
 20
7.972987172641281
 30
0.0
 10
12.60159553835171
 20
7.916469841257403
 30
0.0
 10
12.00000000000005
 20
7.888210197335622
 30
0.0
  0
SPLINE
  5
CB
330
1F
100
AcDbEntity
  8
외형선
  6
Continuous
 62
     1
370
    15
100
AcDbSpline
210
0.0
220
0.0
230
1.0
 70
     8
 71
     3
 72
    25
 73
    21
 74
     0
 42
0.000000001
 43
0.00000001
 40
0.0
 40
0.0
 40
0.0
 40
0.0
 40
0.0282420977794045
 40
0.0923644406717871
 40
0.1493504489531088
 40
0.2063159108130903
 40
0.2632785242163745
 40
0.3202560066811794
 40
0.3772659737437347
 40
0.4342920465451594
 40
0.4912807172185126
 40
0.5482472828468462
 40
0.6052094338200127
 40
0.6621848908313941
 40
0.7191912832962576
 40
0.7762193428725804
 40
0.8332108129220229
 40
0.8901786204863535
 40
0.947140447433877
 40
1.0
 40
1.0
 40
1.0
 40
1.0
 10
14.81460727240726
 20
7.888098049699482
 30
0.0
 10
15.07951866801941
 20
7.89968502423366
 30
0.0
 10
15.94589881705857
 20
7.937579674634176
 30
0.0
 10
17.34687390213909
 20
7.583030081029141
 30
0.0
 10
19.01656384661111
 20
6.902246120255969
 30
0.0
 10
20.61886139648568
 20
5.948347025675335
 30
0.0
 10
22.22103584320207
 20
4.758074327981616
 30
0.0
 10
23.82381921283032
 20
3.372823992491835
 30
0.0
 10
25.42773179406324
 20
1.850801527800063
 30
0.0
 10
27.03216296587259
 20
0.2537739009116374
 30
0.0
 10
28.63535518155912
 20
-1.353911591510911
 30
0.0
 10
30.23770877529886
 20
-2.906159451466878
 30
0.0
 10
31.8398589574682
 20
-4.340210324034241
 30
0.0
 10
33.44256644094099
 20
-5.597926859852273
 30
0.0
 10
35.04636135875979
 20
-6.62821872253191
 30
0.0
 10
36.65085672392094
 20
-7.388310806214219
 30
0.0
 10
38.25414525888735
 20
-7.849990655875105
 30
0.0
 10
39.85655805546665
 20
-7.985578826888922
 30
0.0
 10
41.42010071564844
 20
-7.825909508073581
 30
0.0
 10
42.44978775138385
 20
-7.465128631641
 30
0.0
 10
42.94539977368001
 20
-7.291476508647314
 30
0.0
  0
SPLINE
  5
CC
330
1F
100
AcDbEntity
  8
외형선
  6
Continuous
 62
     1
370
    15
100
AcDbSpline
210
0.0
220
0.0
230
1.0
 70
     8
 71
     3
 72
    26
 73
    22
 74
     0
 42
0.000000001
 43
0.00000001
 40
0.0
 40
0.0
 40
0.0
 40
0.0
 40
0.0291506681917077
 40
0.0861470136861921
 40
0.1431150344646008
 40
0.2000723798154009
 40
0.2570367722782642
 40
0.3140258860252841
 40
0.3710505536978379
 40
0.4280502446811396
 40
0.4850200591895883
 40
0.5419776342147496
 40
0.5989406907191588
 40
0.6559269120404341
 40
0.7129500696314602
 40
0.7699532422568683
 40
0.8269249882456847
 40
0.8838829313517935
 40
0.9408447900102861
 40
0.9978282557782646
 40
1.0
 40
1.0
 40
1.0
 40
1.0
 10
64.68663231471446
 20
7.898127438660445
 30
0.0
 10
64.96010732490907
 20
7.905580999752901
 30
0.0
 10
65.76828967226155
 20
7.927608008712686
 30
0.0
 10
67.11048111544584
 20
7.612984972104102
 30
0.0
 10
68.71306748590584
 20
6.989426041441728
 30
0.0
 10
70.31519596199055
 20
6.065348808769451
 30
0.0
 10
71.91763980378947
 20
4.899172153747295
 30
0.0
 10
73.52099908324196
 20
3.532381703878237
 30
0.0
 10
75.12552448549346
 20
2.022784749992854
 30
0.0
 10
76.72924147246275
 20
0.4304962379826215
 30
0.0
 10
78.33189922144564
 20
-1.179032624545222
 30
0.0
 10
79.93403813270763
 20
-2.74042964357475
 30
0.0
 10
81.53642692236077
 20
-4.190449916808812
 30
0.0
 10
83.13968561589323
 20
-5.470398375225098
 30
0.0
 10
84.74416283946655
 20
-6.527402099892377
 30
0.0
 10
86.347994174768
 20
-7.319861390753957
 30
0.0
 10
87.9507282650583
 20
-7.812203485487182
 30
0.0
 10
89.5528745604416
 20
-7.995831073454432
 30
0.0
 10
91.15525053671776
 20
-7.821129732685709
 30
0.0
 10
92.24399095684869
 20
-7.570915742403176
 30
0.0
 10
92.79891266694925
 20
-7.305717592851964
 30
0.0
 10
92.81928531067136
 20
-7.295981467344121
 30
0.0
  0
SPLINE
  5
CD
330
1F
100
AcDbEntity
  8
외형선
  6
Continuous
 62
     1
370
    15
100
AcDbSpline
210
0.0
220
0.0
230
1.0
 70
     8
 71
     3
 72
    26
 73
    22
 74
     0
 42
0.000000001
 43
0.00000001
 40
0.0
 40
0.0
 40
0.0
 40
0.0
 40
0.0017776299741194
 40
0.0587848185325167
 40
0.1158061652343582
 40
0.1727900291626179
 40
0.2297522858304175
 40
0.2867106269184733
 40
0.3436827709856824
 40
0.4006863419090695
 40
0.4577098979377173
 40
0.5146965174385262
 40
0.5716599719606129
 40
0.6286179449651499
 40
0.6855881575384947
 40
0.7425882467954488
 40
0.7996133129161732
 40
0.8566028248629398
 40
0.9135676153528142
 40
0.970525358681385
 40
1.0
 40
1.0
 40
1.0
 40
1.0
 10
96.0169608897341
 20
-7.931547537828898
 30
0.0
 10
96.00029251607951
 20
-7.933166650945838
 30
0.0
 10
95.44908257093734
 20
-7.986709442273965
 30
0.0
 10
94.36275664183823
 20
-7.794130768495847
 30
0.0
 10
92.75839058917094
 20
-7.333598390477779
 30
0.0
 10
91.1552181795129
 20
-6.537015315785295
 30
0.0
 10
89.55288322839243
 20
-5.484909625466044
 30
0.0
 10
87.95072594197732
 20
-4.207167577225623
 30
0.0
 10
86.34799479766
 20
-2.758916233741268
 30
0.0
 10
84.74416267251304
 20
-1.198132552559824
 30
0.0
 10
83.13968566038785
 20
0.4109905986609966
 30
0.0
 10
81.53642691124992
 20
2.003914322372147
 30
0.0
 10
79.93403813268935
 20
3.515051216064128
 30
0.0
 10
78.33189923262633
 20
4.883333534554418
 30
0.0
 10
76.72924142773692
 20
6.053227407322504
 30
0.0
 10
75.12552465333881
 20
6.977452973098836
 30
0.0
 10
73.52099845649111
 20
7.616778887727
 30
0.0
 10
71.91764214082384
 20
7.950680210244058
 30
0.0
 10
70.31518724454065
 20
7.946251954206559
 30
0.0
 10
68.97085169618265
 20
7.718742252566851
 30
0.0
 10
68.16042025668014
 20
7.381448846029395
 30
0.0
 10
67.88405190134465
 20
7.266427118728839
 30
0.0
  0
SPLINE
  5
CE
330
1F
100
AcDbEntity
  8
외형선
  6
Continuous
 62
     1
370
    15
100
AcDbSpline
210
0.0
220
0.0
230
1.0
 70
     8
 71
     3
 72
    25
 73
    21
 74
     0
 42
0.000000001
 43
0.00000001
 40
0.0
 40
0.0
 40
0.0
 40
0.0
 40
0.0525714693994849
 40
0.109571040474313
 40
0.1665412286369636
 40
0.2234996751949133
 40
0.2804641020147516
 40
0.3374521899154552
 40
0.3944768651716407
 40
0.4514798746021974
 40
0.5084519504151314
 40
0.5654107209794936
 40
0.6223739059370377
 40
0.6793591946277809
 40
0.7363818832269728
 40
0.7933884670430865
 40
0.8503625681892439
 40
0.9073218011562827
 40
0.9642838824109766
 40
1.0
 40
1.0
 40
1.0
 40
1.0
 10
46.14436807563519
 20
-7.924789669794398
 30
0.0
 10
45.65117910865833
 20
-7.902968785729193
 30
0.0
 10
44.62325980414985
 20
-7.85748904170824
 30
0.0
 10
43.06131346994884
 20
-7.391353013544535
 30
0.0
 10
41.45868973544496
 20
-6.640138339399493
 30
0.0
 10
39.85655196563842
 20
-5.611604445475159
 30
0.0
 10
38.25414689145163
 20
-4.356903166636989
 30
0.0
 10
36.65085628605854
 20
-2.924178379993623
 30
0.0
 10
35.04636147615288
 20
-1.373104497101418
 30
0.0
 10
33.44256640919658
 20
0.2342524165249602
 30
0.0
 10
31.8398589671365
 20
1.831971702456097
 30
0.0
 10
30.23770876835536
 20
3.355076040513017
 30
0.0
 10
28.63535519967008
 20
4.741926419738387
 30
0.0
 10
27.0321629003281
 20
5.936247919905976
 30
0.0
 10
25.4277320382631
 20
6.889234060247567
 30
0.0
 10
23.82381830214092
 20
7.561462432088487
 30
0.0
 10
22.22103923939689
 20
7.929597206306732
 30
0.0
 10
20.61884872489157
 20
7.96296683149688
 30
0.0
 10
19.21598630281523
 20
7.7495272201865
 30
0.0
 10
18.34688120911112
 20
7.402505495260058
 30
0.0
 10
18.01194742628805
 20
7.268771036799996
 30
0.0
  0
LINE
  5
CF
330
1F
100
AcDbEntity
  8
외형선
  6
Continuous
 62
     1
370
    15
100
AcDbLine
 10
113.6
 20
-7.878501569079287
 30
0.0
 11
113.6
 21
-4.752176179960093
 31
0.0
  0
SPLINE
  5
D0
330
1F
100
AcDbEntity
  8
외형선
  6
Continuous
 62
     1
370
    15
100
AcDbSpline
210
0.0
220
0.0
230
1.0
 70
     8
 71
     3
 72
    11
 73
     7
 74
     0
 42
0.000000001
 43
0.00000001
 40
0.0
 40
0.0
 40
0.0
 40
0.0
 40
0.3001747913371109
 40
0.6003288011003062
 40
0.9004555077166305
 40
1.0
 40
1.0
 40
1.0
 40
1.0
 10
12.00000000000001
 20
-7.442936382821804
 30
0.0
 10
12.60159741473614
 20
-7.615685039441707
 30
0.0
 10
13.80475059467117
 20
-7.961170393019735
 30
0.0
 10
15.60924895073994
 20
-7.94631952150375
 30
0.0
 10
17.01188120134533
 20
-7.703250117520686
 30
0.0
 10
17.81253245121842
 20
-7.353685762324758
 30
0.0
 10
18.01194742628811
 20
-7.266621179352204
 30
0.0
  0
SPLINE
  5
D1
330
1F
100
AcDbEntity
  8
외형선
  6
Continuous
 62
     1
370
    15
100
AcDbSpline
210
0.0
220
0.0
230
1.0
 70
     8
 71
     3
 72
    26
 73
    22
 74
     0
 42
0.000000001
 43
0.00000001
 40
0.0
 40
0.0
 40
0.0
 40
0.0
 40
0.0037568418657893
 40
0.0607144469419313
 40
0.1176837934493079
 40
0.1746825224347718
 40
0.2317076425913398
 40
0.2886978245652302
 40
0.3456627897496698
 40
0.4026202092357899
 40
0.4595878059027924
 40
0.5165832327945228
 40
0.5736089409621126
 40
0.630602195596348
 40
0.687568678732372
 40
0.7445260510500349
 40
0.8014920357524445
 40
0.8584842969378409
 40
0.9155098937291238
 40
0.97250635752706
 40
1.0
 40
1.0
 40
1.0
 40
1.0
 10
39.75091933077579
 20
7.928633259380582
 30
0.0
 10
39.78614345579523
 20
7.931909713979505
 30
0.0
 10
40.35540171738
 20
7.984860606247661
 30
0.0
 10
41.45867637563704
 20
7.786030570785572
 30
0.0
 10
43.06132544536755
 20
7.313006937382288
 30
0.0
 10
44.66500276332711
 20
6.507157298169601
 30
0.0
 10
46.26953987875272
 20
5.44657953250574
 30
0.0
 10
47.87293157131644
 20
4.161711466863665
 30
0.0
 10
49.47539411049134
 20
2.70864076924884
 30
0.0
 10
51.07751991652719
 20
1.145430106501033
 30
0.0
 10
52.6800871243528
 20
-0.464380282413963
 30
0.0
 10
54.283657517084
 20
-2.055552947652186
 30
0.0
 10
55.88821247220433
 20
-3.562636668273881
 30
0.0
 10
57.49170941062775
 20
-4.925313368961991
 30
0.0
 10
59.09423265341245
 20
-6.087358183591933
 30
0.0
 10
60.69635644597537
 20
-7.002170173207693
 30
0.0
 10
62.29885907865456
 20
-7.631244788469346
 30
0.0
 10
63.90232530967864
 20
-7.954365328142359
 30
0.0
 10
65.506865102901
 20
-7.938015891835888
 30
0.0
 10
66.83408414174154
 20
-7.706744935893567
 30
0.0
 10
67.6262695131458
 20
-7.372909524337891
 30
0.0
 10
67.8840519013447
 20
-7.264277261281048
 30
0.0
  0
SPLINE
  5
D2
330
1F
100
AcDbEntity
  8
외형선
  6
Continuous
 62
     1
370
    15
100
AcDbSpline
210
0.0
220
0.0
230
1.0
 70
     8
 71
     3
 72
    22
 73
    18
 74
     0
 42
0.000000001
 43
0.00000001
 40
0.0
 40
0.0
 40
0.0
 40
0.0
 40
0.0639207368054305
 40
0.1307807781324409
 40
0.1976847985724479
 40
0.2645722070456548
 40
0.3314209250356682
 40
0.3982516142734683
 40
0.4650850601357169
 40
0.5319420290756895
 40
0.5988426370221376
 40
0.6657344494297646
 40
0.7325857565497753
 40
0.7994172023787812
 40
0.8662495670990364
 40
0.933103624584761
 40
1.0
 40
1.0
 40
1.0
 40
1.0
 10
89.62271272558216
 20
7.931846959148263
 30
0.0
 10
90.13348093211312
 20
7.906023368441307
 30
0.0
 10
91.17850429751589
 20
7.853188725794594
 30
0.0
 10
92.75838322748795
 20
7.372625884671125
 30
0.0
 10
94.36278803470233
 20
6.611191588779396
 30
0.0
 10
95.96673893288266
 20
5.573988970107059
 30
0.0
 10
97.56954803037544
 20
4.312063381854243
 30
0.0
 10
99.17172878894125
 20
2.874601154867006
 30
0.0
 10
100.7740199424176
 20
1.320463986519198
 30
0.0
 10
102.3770879030427
 20
-0.2876926872780722
 30
0.0
 10
103.9814009410203
 20
-1.883766606651703
 30
0.0
 10
105.5854732574242
 20
-3.403481746532597
 30
0.0
 10
107.1883645465658
 20
-4.784390380183154
 30
0.0
 10
108.7905761101535
 20
-5.972192016320827
 30
0.0
 10
110.3928248735303
 20
-6.911076931850474
 30
0.0
 10
111.9958025528214
 20
-7.592093415501166
 30
0.0
 10
113.065154738482
 20
-7.783012049337943
 30
0.0
 10
113.6
 20
-7.878501569079287
 30
0.0
  0
SPLINE
  5
D3
330
1F
100
AcDbEntity
  8
외형선
  6
Continuous
370
    15
100
AcDbSpline
210
0.0
220
0.0
230
1.0
 70
    24
 71
     3
 72
    13
 73
     9
 74
     0
 42
0.000000001
 43
0.00000001
 40
0.0
 40
0.0
 40
0.0
 40
0.0
 40
0.0192047385187854
 40
0.2496394041179556
 40
0.480074069717126
 40
0.7105087353162988
 40
0.940943400915466
 40
1.0
 40
1.0
 40
1.0
 40
1.0
 10
11.99999999999998
 20
-3.276777647645596
 30
0.0
 10
11.99999999999998
 20
-3.291272026544444
 30
0.0
 10
11.99999999999993
 20
-3.479682199785227
 30
0.0
 10
12.00000000000001
 20
-4.117541237548377
 30
0.0
 10
12.00000000000003
 20
-5.103956967340882
 30
0.0
 10
11.99999999999997
 20
-6.194838678449521
 30
0.0
 10
12.00000000000004
 20
-6.978738288834657
 30
0.0
 10
12.0
 20
-7.364284456982911
 30
0.0
 10
12.00000000000001
 20
-7.442936382821804
 30
0.0
  0
SPLINE
  5
D4
330
1F
100
AcDbEntity
  8
외형선
  6
Continuous
 62
     1
370
    15
100
AcDbSpline
210
0.0
220
0.0
230
1.0
 70
     8
 71
     3
 72
    20
 73
    16
 74
     0
 42
0.000000001
 43
0.00000001
 40
0.0
 40
0.0
 40
0.0
 40
0.0
 40
0.0771877339057674
 40
0.1543266396790305
 40
0.2314405154652648
 40
0.3085533309977472
 40
0.3856890632882075
 40
0.4628715322118985
 40
0.5400641497827464
 40
0.6172064149092543
 40
0.6943215381606931
 40
0.7714334807077508
 40
0.8485662255556776
 40
0.9257436130423544
 40
1.0
 40
1.0
 40
1.0
 40
1.0
 10
113.6
 20
-4.767649595744605
 30
0.0
 10
113.0651547384876
 20
-4.321599623619524
 30
0.0
 10
111.9958025528384
 20
-3.429781845797115
 30
0.0
 10
110.392824873462
 20
-1.900310707089187
 30
0.0
 10
108.7905761104093
 20
-0.3077502075864785
 30
0.0
 10
107.188364545611
 20
1.301079368489627
 30
0.0
 10
105.5854732609894
 20
2.856330750134873
 30
0.0
 10
103.9814009277053
 20
4.295698712191121
 30
0.0
 10
102.3770879527277
 20
5.56025698362714
 30
0.0
 10
100.7740197571543
 20
6.59915053438617
 30
0.0
 10
99.171729480085
 20
7.369147155838235
 30
0.0
 10
97.56954545078213
 20
7.841364017754029
 30
0.0
 10
95.96674856532503
 20
7.988632060186771
 30
0.0
 10
94.38312304466471
 20
7.836558221063768
 30
0.0
 10
93.33381788574259
 20
7.475284089048907
 30
0.0
 10
92.81928531067145
 20
7.298131324791905
 30
0.0
  0
SPLINE
  5
D5
330
1F
100
AcDbEntity
  8
외형선
  6
Continuous
 62
     1
370
    15
100
AcDbSpline
210
0.0
220
0.0
230
1.0
 70
     8
 71
     3
 72
    26
 73
    22
 74
     0
 42
0.000000001
 43
0.00000001
 40
0.0
 40
0.0
 40
0.0
 40
0.0
 40
0.0271630361993389
 40
0.0841190411129094
 40
0.1410857212028515
 40
0.1980807253422755
 40
0.2551048617289605
 40
0.3120956633634697
 40
0.3690601891879254
 40
0.4260161028481934
 40
0.4829811270934987
 40
0.5399729221514061
 40
0.596997169911546
 40
0.6539911371713185
 40
0.7109572749190843
 40
0.7679132357466011
 40
0.8248767420791965
 40
0.8818654645554482
 40
0.9388891243196245
 40
0.9958863935885639
 40
1.0
 40
1.0
 40
1.0
 40
1.0
 10
71.0792148072449
 20
-7.896087432672755
 30
0.0
 10
70.82452295651413
 20
-7.904468984041622
 30
0.0
 10
70.03578807041684
 20
-7.930425142219732
 30
0.0
 10
68.71307469199756
 20
-7.626776327052679
 30
0.0
 10
67.11047769933138
 20
-7.014425335128953
 30
0.0
 10
65.50687473744325
 20
-6.099132626170603
 30
0.0
 10
63.90232272919592
 20
-4.940867119263324
 30
0.0
 10
62.29885976955931
 20
-3.580038342316433
 30
0.0
 10
60.69635626095725
 20
-2.074220191470423
 30
0.0
 10
59.09423270284034
 20
-0.4840694599358415
 30
0.0
 10
57.49170939794491
 20
1.125894006669877
 30
0.0
 10
55.88821247348051
 20
2.690432132323306
 30
0.0
 10
54.28365752467667
 20
4.14515519430672
 30
0.0
 10
52.68008709273399
 20
5.431870273752359
 30
0.0
 10
51.07752003534407
 20
6.497401106225232
 30
0.0
 10
49.47539366687899
 20
7.299410782209355
 30
0.0
 10
47.87293322752959
 20
7.802567178225787
 30
0.0
 10
46.26953369303948
 20
7.997022773857744
 30
0.0
 10
44.66502585961773
 20
7.834905651283643
 30
0.0
 10
43.55698509807459
 20
7.584008428570134
 30
0.0
 10
42.98397150673005
 20
7.311940310118178
 30
0.0
 10
42.94539977368007
 20
7.293626366095108
 30
0.0
  0
SPLINE
  5
D6
330
1F
100
AcDbEntity
  8
외형선
  6
Continuous
 62
     1
370
    15
100
AcDbSpline
210
0.0
220
0.0
230
1.0
 70
     8
 71
     3
 72
    13
 73
     9
 74
     0
 42
0.000000001
 43
0.00000001
 40
0.0
 40
0.0
 40
0.0
 40
0.0
 40
0.0638577880144421
 40
0.2379412004468076
 40
0.4120874016466718
 40
0.6080418607064698
 40
0.8040141461484579
 40
1.0
 40
1.0
 40
1.0
 40
1.0
 10
21.2065780482347
 20
-7.898878463055976
 30
0.0
 10
21.0106789077793
 20
-7.908773023372154
 30
0.0
 10
20.2807369837666
 20
-7.945641252490774
 30
0.0
 10
19.01656633996806
 20
-7.67458166003422
 30
0.0
 10
17.3468730598593
 20
-7.07461345563422
 30
0.0
 10
15.60927167542154
 20
-6.091785082709811
 30
0.0
 10
13.80474491282656
 20
-4.776155581340054
 30
0.0
 10
12.60159552074424
 20
-3.704962933863221
 30
0.0
 10
12.00000000000006
 20
-3.169348069394181
 30
0.0
  0
SPLINE
  5
D7
330
1F
100
AcDbEntity
  8
외형선
  6
Continuous
 62
     1
370
    15
100
AcDbSpline
210
0.0
220
0.0
230
1.0
 70
     8
 71
     3
 72
    26
 73
    22
 74
     0
 42
0.000000001
 43
0.00000001
 40
0.0
 40
0.0
 40
0.0
 40
0.0
 40
0.0142712566814349
 40
0.0712411173726365
 40
0.1282419104787363
 40
0.1852643685680793
 40
0.2422502407244878
 40
0.299212452719993
 40
0.3561686846861271
 40
0.4131366578004383
 40
0.4701340126844964
 40
0.5271577581034312
 40
0.5841465661819636
 40
0.6411101580789609
 40
0.6980662044595473
 40
0.7550324277756687
 40
0.8120264806455988
 40
0.86905081406138
 40
0.9260426947261827
 40
0.9830078045381704
 40
1.0
 40
1.0
 40
1.0
 40
1.0
 10
31.43835449318328
 20
7.908233687401876
 30
0.0
 10
31.57215700243162
 20
7.917344632310808
 30
0.0
 10
32.24008979061509
 20
7.96282583344968
 30
0.0
 10
33.44257033581108
 20
7.722866925169194
 30
0.0
 10
35.04636041170671
 20
7.185254654692634
 30
0.0
 10
36.6508566144322
 20
6.329960416952252
 30
0.0
 10
38.25414664204985
 20
5.223996304764811
 30
0.0
 10
39.85655263479828
 20
3.904089455930613
 30
0.0
 10
41.45868730813425
 20
2.426109566769214
 30
0.0
 10
43.0613225141253
 20
0.8492690973541732
 30
0.0
 10
44.66500354931347
 20
-0.7622402221914508
 30
0.0
 10
46.2695396683618
 20
-2.342282484756403
 30
0.0
 10
47.87293162722259
 20
-3.827520233266283
 30
0.0
 10
49.4753940971046
 20
-5.156823288377273
 30
0.0
 10
51.07751991418776
 20
-6.276305306649384
 30
0.0
 10
52.68008714710839
 20
-7.141142129629267
 30
0.0
 10
54.28365742833357
 20
-7.714137143176598
 30
0.0
 10
55.88821280454424
 20
-7.979167833840632
 30
0.0
 10
57.49170817110383
 20
-7.898134547248213
 30
0.0
 10
58.71952521540528
 20
-7.65192296778493
 30
0.0
 10
59.41292188891361
 20
-7.341599949510363
 30
0.0
 10
59.57223450536462
 20
-7.270301118876887
 30
0.0
  0
SPLINE
  5
D8
330
1F
100
AcDbEntity
  8
외형선
  6
Continuous
 62
     1
370
    15
100
AcDbSpline
210
0.0
220
0.0
230
1.0
 70
     8
 71
     3
 72
    26
 73
    22
 74
     0
 42
0.000000001
 43
0.00000001
 40
0.0
 40
0.0
 40
0.0
 40
0.0
 40
0.0080179592526098
 40
0.065003826762472
 40
0.122026630312758
 40
0.1790294490215072
 40
0.2360008412887836
 40
0.2929584307590509
 40
0.3499199357573912
 40
0.406903047731065
 40
0.4639236419837002
 40
0.5209300782797222
 40
0.577903539661395
 40
0.6348616355962969
 40
0.6918220809320741
 40
0.7488025743884524
 40
0.805820260259658
 40
0.8628304499169285
 40
0.9198061179482179
 40
0.9767648587065529
 40
1.0
 40
1.0
 40
1.0
 40
1.0
 10
81.31072268957791
 20
7.919044433648681
 30
0.0
 10
81.38589862287839
 20
7.925318383866101
 30
0.0
 10
81.99537083282745
 20
7.976183044087062
 30
0.0
 10
83.13969751658158
 20
7.761848608994085
 30
0.0
 10
84.74415950685369
 20
7.262220703034813
 30
0.0
 10
86.34799560464755
 20
6.43614019632942
 30
0.0
 10
87.95072587729848
 20
5.356812891352223
 30
0.0
 10
89.5528826806524
 20
4.057703985790411
 30
0.0
 10
91.15522043573145
 20
2.594283597659643
 30
0.0
 10
92.75838210623728
 20
1.024934246520606
 30
0.0
 10
94.36278833524565
 20
-0.585612546741052
 30
0.0
 10
95.9667388520438
 20
-2.172588632304083
 30
0.0
 10
97.56954805339741
 20
-3.671141531307876
 30
0.0
 10
99.17172877765
 20
-5.020232555770906
 30
0.0
 10
100.7740199645675
 20
-6.165171789571604
 30
0.0
 10
102.3770878256859
 20
-7.05998259413064
 30
0.0
 10
103.981401228472
 20
-7.666268508639052
 30
0.0
 10
105.5854721854809
 20
-7.965759916394274
 30
0.0
 10
107.1883685438221
 20
-7.923228816806303
 30
0.0
 10
108.4743828679321
 20
-7.68474593350997
 30
0.0
 10
109.2262642131289
 20
-7.359684160666583
 30
0.0
 10
109.4441121192856
 20
-7.26550171148377
 30
0.0
  0
SPLINE
  5
D9
330
1F
100
AcDbEntity
  8
외형선
  6
Continuous
 62
     1
370
    15
100
AcDbSpline
210
0.0
220
0.0
230
1.0
 70
     8
 71
     3
 72
    26
 73
    22
 74
     0
 42
0.000000001
 43
0.00000001
 40
0.0
 40
0.0
 40
0.0
 40
0.0
 40
0.0228896962383918
 40
0.079867441617564
 40
0.1368266988912403
 40
0.1937851730209544
 40
0.2507605743443833
 40
0.3077704971321939
 40
0.3647879160988505
 40
0.4217681428247815
 40
0.4787283215239574
 40
0.5356861508332563
 40
0.5926593455173986
 40
0.6496655149615308
 40
0.7066858422960025
 40
0.76366868752697
 40
0.8206299258837492
 40
0.8775872487307832
 40
0.9345583743102154
 40
0.9915609261840095
 40
1.0
 40
1.0
 40
1.0
 40
1.0
 10
112.6397180485869
 20
-7.897539906735115
 30
0.0
 10
112.4249967943994
 20
-7.907210467273064
 30
0.0
 10
111.6757847011386
 20
-7.940953288546432
 30
0.0
 10
110.3928397986927
 20
-7.660011278060938
 30
0.0
 10
108.7905721116215
 20
-7.072178414324436
 30
0.0
 10
107.188365618303
 20
-6.176912127632397
 30
0.0
 10
105.5854729699963
 20
-5.035676084787252
 30
0.0
 10
103.9814010181731
 20
-3.688268827012958
 30
0.0
 10
102.3770878819957
 20
-2.191398297016033
 30
0.0
 10
100.7740199494987
 20
-0.6049949320300704
 30
0.0
 10
99.17172878165208
 20
1.005681738448695
 30
0.0
 10
97.56954805245448
 20
2.575514388229605
 30
0.0
 10
95.96673885181191
 20
4.040909909162559
 30
0.0
 10
94.36278833711779
 20
5.342111299265323
 30
0.0
 10
92.75838209898092
 20
6.42584967942937
 30
0.0
 10
91.15522046286013
 20
7.249145410859269
 30
0.0
 10
89.55288257943113
 20
7.775615992102616
 30
0.0
 10
87.95072625508145
 20
7.993520221932507
 30
0.0
 10
86.34799419402732
 20
7.858845511301634
 30
0.0
 10
85.19984496294066
 20
7.607760184018307
 30
0.0
 10
84.58593196476725
 20
7.321709440308284
 30
0.0
 10
84.50676435464797
 20
7.284821552578675
 30
0.0
  0
SPLINE
  5
DA
330
1F
100
AcDbEntity
  8
외형선
  6
Continuous
 62
     1
370
    15
100
AcDbSpline
210
0.0
220
0.0
230
1.0
 70
     8
 71
     3
 72
    26
 73
    22
 74
     0
 42
0.000000001
 43
0.00000001
 40
0.0
 40
0.0
 40
0.0
 40
0.0
 40
0.016625719701927
 40
0.0735908743136858
 40
0.1305474166661937
 40
0.1875130697043037
 40
0.2445054938505181
 40
0.3015303710571852
 40
0.3585249674292418
 40
0.4154917339821034
 40
0.4724483235023808
 40
0.5294124586110256
 40
0.5864018101416685
 40
0.6434260993458816
 40
0.7004239977635536
 40
0.757392514131292
 40
0.814349289238888
 40
0.8713120444328812
 40
0.9282984600134034
 40
0.9853214618757485
 40
1.0
 40
1.0
 40
1.0
 40
1.0
 10
62.76643809500897
 20
-7.903013383847031
 30
0.0
 10
62.61051020557047
 20
-7.912679268458938
 30
0.0
 10
61.92032235690026
 20
-7.955463635834213
 30
0.0
 10
60.69638046457501
 20
-7.705039291338146
 30
0.0
 10
59.09422621701733
 20
-7.153723388503871
 30
0.0
 10
57.49171113626164
 20
-6.287512010356216
 30
0.0
 10
55.88821200935926
 20
-5.171857921351997
 30
0.0
 10
54.28365764131961
 20
-3.844559809931502
 30
0.0
 10
52.68008709012712
 20
-2.36096060489013
 30
0.0
 10
51.0775199292827
 20
-0.7814563828738073
 30
0.0
 10
49.47539409368224
 20
0.8296833888410703
 30
0.0
 10
47.87293162581583
 20
2.407250329771961
 30
0.0
 10
46.26953967741974
 20
3.887291682804561
 30
0.0
 10
44.66500351447295
 20
5.208942516582969
 30
0.0
 10
43.06132264432662
 20
6.319102785541648
 30
0.0
 10
41.45868682245769
 20
7.172677385299752
 30
0.0
 10
39.856554447085
 20
7.733015504960643
 30
0.0
 10
38.25413987646494
 20
7.985323206889485
 30
0.0
 10
36.6508818823972
 20
7.889857131398064
 30
0.0
 10
35.44338630240753
 20
7.641809684555178
 30
0.0
 10
34.77089734599644
 20
7.337439767758116
 30
0.0
 10
34.63322729334956
 20
7.27513001222963
 30
0.0
  0
LINE
  5
DB
330
1F
100
AcDbEntity
  8
외형선
  6
Continuous
370
    15
100
AcDbLine
 10
12.89487822120468
 20
-7.885218341118386
 30
0.0
 11
12.00000000000005
 21
-7.886060339887831
 31
0.0
  0
LINE
  5
DC
330
1F
100
AcDbEntity
  8
외형선
  6
Continuous
 62
     1
370
    15
100
AcDbLine
 10
113.6
 20
-7.936425071276112
 30
0.0
 11
113.6
 21
-7.878501569079287
 31
0.0
  0
LINE
  5
DD
330
1F
100
AcDbEntity
  8
외형선
  6
Continuous
370
    15
100
AcDbLine
 10
11.99999999999999
 20
-7.886060339888227
 30
0.0
 11
12.00000000000001
 21
-7.442936382821804
 31
0.0
  0
LINE
  5
DE
330
1F
100
AcDbEntity
  8
외형선
  6
Continuous
370
    15
100
AcDbLine
 10
11.99999999999999
 20
4.717787199217763
 30
0.0
 11
12.00000000000001
 21
6.109071234663799
 31
0.0
  0
LINE
  5
DF
330
1F
100
AcDbEntity
  8
외형선
  6
Continuous
 62
     1
370
    15
100
AcDbLine
 10
113.6
 20
3.111926902058608
 30
0.0
 11
113.6
 21
4.769799453192436
 31
0.0
  0
LINE
  5
E0
330
1F
100
AcDbEntity
  8
외형선
  6
Continuous
 62
     1
370
    15
100
AcDbLine
 10
113.6
 20
-4.767649595744605
 30
0.0
 11
113.6
 21
-3.109777044610669
 31
0.0
  0
LINE
  5
E1
330
1F
100
AcDbEntity
  8
외형선
  6
Continuous
370
    15
100
AcDbLine
 10
11.99999999999999
 20
-3.169348069394367
 30
0.0
 11
12.00000000000001
 21
-1.334940076881835
 31
0.0
  0
LINE
  5
E2
330
1F
100
AcDbEntity
  8
외형선
  6
Continuous
 62
     1
370
    15
100
AcDbLine
 10
113.6
 20
7.880651426527082
 30
0.0
 11
113.6
 21
7.938574928723902
 31
0.0
  0
SPLINE
  5
E3
330
1F
100
AcDbEntity
  8
외형선
  6
Continuous
370
    15
100
AcDbSpline
210
0.0
220
0.0
230
1.0
 70
     8
 71
     3
 72
     8
 73
     4
 74
     0
 42
0.000000001
 43
0.00000001
 40
0.0
 40
0.0
 40
0.0
 40
0.0
 40
1.0
 40
1.0
 40
1.0
 40
1.0
 10
12.00000000000003
 20
-1.334940076881836
 30
0.0
 10
11.66846786998661
 20
-1.006848844629523
 30
0.0
 10
11.33473595464883
 20
-0.6745007589886269
 30
0.0
 10
11.00002396313799
 20
-0.3409113144422469
 30
0.0
  0
SPLINE
  5
E4
330
1F
100
AcDbEntity
  8
외형선
  6
Continuous
370
    15
100
AcDbSpline
210
0.0
220
0.0
230
1.0
 70
     8
 71
     3
 72
     8
 73
     4
 74
     0
 42
0.000000001
 43
0.00000001
 40
0.0
 40
0.0
 40
0.0
 40
0.0
 40
1.0
 40
1.0
 40
1.0
 40
1.0
 10
11.99999999999999
 20
-3.169348069394131
 30
0.0
 10
11.66846786998657
 20
-2.864211591689545
 30
0.0
 10
11.33473595464883
 20
-2.550020351752691
 30
0.0
 10
11.00002396313799
 20
-2.229577051170262
 30
0.0
  0
LINE
  5
E5
330
1F
100
AcDbEntity
  8
외형선
  6
Continuous
370
    15
100
AcDbLine
 10
11.00002396313799
 20
-7.037614629408762
 30
0.0
 11
11.00002396313799
 21
-2.229572112786877
 31
0.0
  0
SPLINE
  5
E6
330
1F
100
AcDbEntity
  8
외형선
  6
Continuous
370
    15
100
AcDbSpline
210
0.0
220
0.0
230
1.0
 70
     8
 71
     3
 72
     8
 73
     4
 74
     0
 42
0.000000001
 43
0.00000001
 40
0.0
 40
0.0
 40
0.0
 40
0.0
 40
1.0
 40
1.0
 40
1.0
 40
1.0
 10
12.00000000000003
 20
-7.442936382821801
 30
0.0
 10
11.66846786998661
 20
-7.327407726898413
 30
0.0
 10
11.33473595464883
 20
-7.191947736890528
 30
0.0
 10
11.00002396313799
 20
-7.03761167354204
 30
0.0
  0
SPLINE
  5
E7
330
1F
100
AcDbEntity
  8
외형선
  6
Continuous
370
    15
100
AcDbSpline
210
0.0
220
0.0
230
1.0
 70
     8
 71
     3
 72
     8
 73
     4
 74
     0
 42
0.000000001
 43
0.00000001
 40
0.0
 40
0.0
 40
0.0
 40
0.0
 40
1.0
 40
1.0
 40
1.0
 40
1.0
 10
11.99999999999999
 20
-7.886060339887816
 30
0.0
 10
11.66846786998657
 20
-7.848625004318963
 30
0.0
 10
11.33473595464883
 20
-7.79025977036343
 30
0.0
 10
11.00002396313799
 20
-7.711301424525402
 30
0.0
  0
LINE
  5
E8
330
1F
100
AcDbEntity
  8
외형선
  6
Continuous
370
    15
100
AcDbLine
 10
11.00002396313799
 20
-7.936425071276105
 30
0.0
 11
11.00002396313799
 21
-7.711300207689023
 31
0.0
  0
SPLINE
  5
E9
330
1F
100
AcDbEntity
  8
외형선
  6
Continuous
370
    15
100
AcDbSpline
210
0.0
220
0.0
230
1.0
 70
     8
 71
     3
 72
     8
 73
     4
 74
     0
 42
0.000000001
 43
0.00000001
 40
0.0
 40
0.0
 40
0.0
 40
0.0
 40
1.0
 40
1.0
 40
1.0
 40
1.0
 10
11.99999999999999
 20
7.888210197335606
 30
0.0
 10
11.66846786998657
 20
7.850774861766753
 30
0.0
 10
11.33473595464883
 20
7.79240962781122
 30
0.0
 10
11.00002396313799
 20
7.713451281973192
 30
0.0
  0
LINE
  5
EA
330
1F
100
AcDbEntity
  8
외형선
  6
Continuous
370
    15
100
AcDbLine
 10
11.00002396313799
 20
6.697771854731991
 30
0.0
 11
11.00002396313799
 21
7.938574928723895
 31
0.0
  0
SPLINE
  5
EB
330
1F
100
AcDbEntity
  8
외형선
  6
Continuous
370
    15
100
AcDbSpline
210
0.0
220
0.0
230
1.0
 70
     8
 71
     3
 72
     8
 73
     4
 74
     0
 42
0.000000001
 43
0.00000001
 40
0.0
 40
0.0
 40
0.0
 40
0.0
 40
1.0
 40
1.0
 40
1.0
 40
1.0
 10
12.00000000000003
 20
6.109071234663793
 30
0.0
 10
11.66846786998661
 20
6.321633810992719
 30
0.0
 10
11.33473595464883
 20
6.518521906625735
 30
0.0
 10
11.00002396313799
 20
6.697775287823629
 30
0.0
  0
SPLINE
  5
EC
330
1F
100
AcDbEntity
  8
외형선
  6
Continuous
370
    15
100
AcDbSpline
210
0.0
220
0.0
230
1.0
 70
     8
 71
     3
 72
     8
 73
     4
 74
     0
 42
0.000000001
 43
0.00000001
 40
0.0
 40
0.0
 40
0.0
 40
0.0
 40
1.0
 40
1.0
 40
1.0
 40
1.0
 10
11.99999999999999
 20
4.717787199217587
 30
0.0
 10
11.66846786998657
 20
4.985488341353317
 30
0.0
 10
11.33473595464883
 20
5.241314347334634
 30
0.0
 10
11.00002396313799
 20
5.482799302079031
 30
0.0
  0
LINE
  5
ED
330
1F
100
AcDbEntity
  8
외형선
  6
Continuous
370
    15
100
AcDbLine
 10
-40.38750000000001
 20
0.0010749287238949
 30
0.0
 11
-40.38750000000001
 21
7.938574928723895
 31
0.0
  0
LINE
  5
EE
330
1F
100
AcDbEntity
  8
외형선
  6
Continuous
370
    15
100
AcDbLine
 10
-40.38750000000001
 20
-7.936425071276105
 30
0.0
 11
-40.38750000000001
 21
0.0010749287238949
 31
0.0
  0
LINE
  5
EF
330
1F
100
AcDbEntity
  8
외형선
  6
Continuous
370
    15
100
AcDbLine
 10
11.00002396313799
 20
-0.3409177034006069
 30
0.0
 11
11.00002396313799
 21
5.482803023626038
 31
0.0
  0
LINE
  5
F0
330
1F
100
AcDbEntity
  8
외형선
  6
Continuous
370
    15
100
AcDbLine
 10
-41.97500000000001
 20
0.0010749287238949
 30
0.0
 11
-41.97500000000001
 21
6.351074928723902
 31
0.0
  0
LINE
  5
F1
330
1F
100
AcDbEntity
  8
외형선
  6
Continuous
370
    15
100
AcDbLine
 10
-41.97500000000001
 20
-6.348925071276116
 30
0.0
 11
-41.97500000000001
 21
0.0010749287238949
 31
0.0
  0
SPLINE
  5
F2
330
1F
100
AcDbEntity
  8
외형선
  6
Continuous
370
    15
100
AcDbSpline
210
0.0
220
0.0
230
1.0
 70
    24
 71
     3
 72
    15
 73
    11
 74
     0
 42
0.000000001
 43
0.00000001
 40
0.0
 40
0.0
 40
0.0
 40
0.0
 40
0.072700001518479
 40
0.2056539147492935
 40
0.3386078279801097
 40
0.4715617412109248
 40
0.604515654441739
 40
0.7374695676725498
 40
0.8704234809033701
 40
1.0
 40
1.0
 40
1.0
 40
1.0
 10
12.00000000000002
 20
-1.247283726188706
 30
0.0
 10
12.00000000000004
 20
-1.221188355209081
 30
0.0
 10
12.00000000000007
 20
-1.147369715777127
 30
0.0
 10
11.99999999999993
 20
-0.6443250695927494
 30
0.0
 10
12.00000000000001
 20
0.1654633471734401
 30
0.0
 10
11.99999999999996
 20
1.180247533227863
 30
0.0
 10
12.00000000000001
 20
2.266380477867957
 30
0.0
 10
11.99999999999999
 20
3.299295810130359
 30
0.0
 10
12.00000000000003
 20
4.182686374567255
 30
0.0
 10
12.0
 20
4.540956612633735
 30
0.0
 10
11.99999999999999
 20
4.717787199217589
 30
0.0
  0
SPLINE
  5
F3
330
1F
100
AcDbEntity
  8
외형선
  6
Continuous
370
    15
100
AcDbSpline
210
0.0
220
0.0
230
1.0
 70
    24
 71
     3
 72
    13
 73
     9
 74
     0
 42
0.000000001
 43
0.00000001
 40
0.0
 40
0.0
 40
0.0
 40
0.0
 40
0.0331762769166562
 40
0.2625339227542347
 40
0.4918915685918112
 40
0.7212492144293909
 40
0.9506068602669687
 40
1.0
 40
1.0
 40
1.0
 40
1.0
 10
12.00000000000003
 20
-7.4429363828218
 30
0.0
 10
12.00000000000002
 20
-7.398858889546863
 30
0.0
 10
11.99999999999993
 20
-7.05006034160512
 30
0.0
 10
12.0000000000001
 20
-6.314777316952348
 30
0.0
 10
11.99999999999993
 20
-5.224311016298415
 30
0.0
 10
12.00000000000002
 20
-4.218272580443052
 30
0.0
 10
11.99999999999997
 20
-3.536089965173837
 30
0.0
 10
11.99999999999998
 20
-3.315810061615524
 30
0.0
 10
11.99999999999999
 20
-3.276777647645597
 30
0.0
  0
SPLINE
  5
F4
330
1F
100
AcDbEntity
  8
외형선
  6
Continuous
370
    15
100
AcDbSpline
210
0.0
220
0.0
230
1.0
 70
    24
 71
     3
 72
     9
 73
     5
 74
     0
 42
0.000000001
 43
0.00000001
 40
0.0
 40
0.0
 40
0.0
 40
0.0
 40
0.4000399477687159
 40
0.9999999999999999
 40
0.9999999999999999
 40
0.9999999999999999
 40
0.9999999999999999
 10
12.00000000000001
 20
6.216490812915263
 30
0.0
 10
12.00000000000001
 20
6.424718833689787
 30
0.0
 10
12.00000000000001
 20
6.945236901787604
 30
0.0
 10
12.0
 20
7.534609926590909
 30
0.0
 10
11.99999999999999
 20
7.888210197335609
 30
0.0
  0
LINE
  5
F5
330
1F
100
AcDbEntity
  8
중심선
 48
0.8
100
AcDbLine
 10
-44.975
 20
0.0010749287238888
 30
0.0
 11
116.6
 21
0.0010749287239086
 31
0.0
  0
LINE
  5
F6
330
1F
100
AcDbEntity
  8
참조1
100
AcDbLine
 10
35.81250000000004
 20
0.0010749287238892
 30
0.0
 11
35.81250000000004
 21
-39.99892507127611
 31
0.0
  0
LINE
  5
F7
330
1F
100
AcDbEntity
  8
참조1
100
AcDbLine
 10
35.81250000000004
 20
-39.99892507127611
 30
0.0
 11
-9.508856814308633
 21
-39.9989250712761
 31
0.0
  0
CIRCLE
  5
F8
330
1F
100
AcDbEntity
  8
해칭선
100
AcDbCircle
 10
0.0
 20
0.0
 30
0.0
 40
3.000000000000001
  0
INSERT
  5
F9
330
1F
100
AcDbEntity
  8
0
  6
Continuous
 62
     7
100
AcDbBlockReference
 66
     1
  2
블럭10
 10
21.87222706787479
 20
-52.04609937292004
 30
0.0
  0
ATTRIB
  5
FA
330
F9
100
AcDbEntity
  8
FORMAT
 62
     2
100
AcDbText
 10
12.69093177913351
 20
-49.97073246008785
 30
0.0
 40
4.233333333333333
  1
E2175040 [ 6 FLUTE ]
 41
0.75
  7
SLDTEXTSTYLE0
 11
12.69093177913351
 21
-52.08739912675452
 31
0.0
100
AcDbAttribute
  2
AUTOATTR0
 70
     0
 74
     1
  0
SEQEND
  5
FB
330
F9
100
AcDbEntity
  8
0
  6
Continuous
 62
     7
  0
HATCH
  5
FC
330
1F
100
AcDbEntity
  8
중심선
100
AcDbHatch
 10
0.0
 20
0.0
 30
0.0
210
0.0
220
0.0
230
1.0
  2
SOLID
 70
     1
 71
     0
 91
        1
 92
        0
 93
        4
 72
     1
 10
27.58713637225564
 20
-35.7989250712761
 11
24.14086112841835
 21
-35.7989250712761
 72
     1
 10
24.14086112841835
 20
-35.7989250712761
 11
22.01263126921433
 21
-38.3352506518487
 72
     1
 10
22.01263126921433
 20
-38.3352506518487
 11
25.45893959816476
 21
-38.33521122254621
 72
     1
 10
25.45893959816476
 20
-38.33521122254621
 11
27.58713637225564
 21
-35.7989250712761
 97
        0
 75
     0
 76
     1
 98
        1
 10
-0.0000000000000451
 20
0.0
  0
HATCH
  5
FD
330
1F
100
AcDbEntity
  8
중심선
100
AcDbHatch
 10
0.0
 20
0.0
 30
0.0
210
0.0
220
0.0
230
1.0
  2
SOLID
 70
     1
 71
     0
 91
        1
 92
        0
 93
        4
 72
     1
 10
32.59990036329165
 20
-35.79892507127608
 11
29.15362511945436
 21
-35.7989250712761
 72
     1
 10
29.15362511945436
 20
-35.7989250712761
 11
24.62248711109692
 21
-41.19892507127612
 72
     1
 10
24.62248711109692
 20
-41.19892507127612
 11
28.0687623549342
 21
-41.19892507127612
 72
     1
 10
28.0687623549342
 20
-41.19892507127612
 11
32.59990036329164
 21
-35.79892507127608
 97
        0
 75
     0
 76
     1
 98
        1
 10
-0.0000000000000451
 20
0.0
  0
HATCH
  5
FE
330
1F
100
AcDbEntity
  8
중심선
100
AcDbHatch
 10
0.0
 20
0.0
 30
0.0
210
0.0
220
0.0
230
1.0
  2
SOLID
 70
     1
 71
     0
 91
        1
 92
        0
 93
        4
 72
     1
 10
37.61266435432751
 20
-35.7989250712761
 11
34.16638911049043
 21
-35.79892507127608
 72
     1
 10
34.16638911049043
 20
-35.79892507127608
 11
27.11795220860112
 21
-44.19892507127612
 72
     1
 10
27.11795220860112
 20
-44.19892507127612
 11
30.5642274524384
 21
-44.19892507127612
 72
     1
 10
30.5642274524384
 20
-44.19892507127612
 11
37.61266435432751
 21
-35.7989250712761
 97
        0
 75
     0
 76
     1
 98
        1
 10
-0.0000000000000451
 20
0.0
  0
HATCH
  5
FF
330
1F
100
AcDbEntity
  8
중심선
100
AcDbHatch
 10
0.0
 20
0.0
 30
0.0
210
0.0
220
0.0
230
1.0
  2
SOLID
 70
     1
 71
     0
 91
        1
 92
        0
 93
        6
 72
     3
 10
42.41255478533969
 20
-39.99892507132738
 11
3.960054785062283
 21
1.540882976769353E-10
 40
0.3939339440162628
 50
17.09539180608436
 51
320.0019657685087
 73
     0
 72
     1
 10
44.09555444104029
 20
-38.58681907591443
 11
46.40085631474132
 21
-36.65249236586649
 72
     3
 10
42.41255478528684
 20
-39.99892507127625
 11
6.600054785286829
 21
-1.278976924368180E-13
 40
0.636358354079598
 50
39.99873849337408
 51
368.4976242363724
 73
     1
 72
     1
 10
48.83788727718742
 20
-39.03892507120613
 11
41.09262209212276
 21
-39.03892507120613
 72
     1
 10
41.09262209212276
 20
-39.03892507120613
 11
41.09259704767683
 21
-40.95892507120602
 72
     1
 10
41.09259704767683
 20
-40.95892507120602
 11
45.53397681714887
 21
-40.95892507120599
 97
        0
 75
     0
 76
     1
 98
        1
 10
-0.0000000000000451
 20
0.0
  0
DIMENSION
  5
100
330
1F
100
AcDbEntity
  8
치수문자_일반주서
100
AcDbDimension
  2
_D
 10
-54.97499999999999
 20
-7.936425071276174
 30
0.0
 11
-54.97500000000002
 21
0.0010749287239079
 31
0.0
 70
   160
  1
%%c<>
 71
     2
 42
15.87500000000003
 52
-270.0
  3
SLDDIMSTYLE1
100
AcDbAlignedDimension
 13
-40.38750000000002
 23
7.938574928723908
 33
0.0
 14
-40.38750000000002
 24
-7.936425071276119
 34
0.0
 50
90.0000000000002
100
AcDbRotatedDimension
1001
ACAD
1000
DSTYLE
1002
{
1070
   171
1070
     6
1070
   273
1070
     7
1002
}
  0
DIMENSION
  5
115
330
1F
100
AcDbEntity
  8
치수문자_일반주서
100
AcDbDimension
  2
_D_1
 10
11.99999999999999
 20
30.42063796711784
 30
0.0
 11
62.79999999999998
 21
30.42063796711784
 31
0.0
 70
   160
  1
<>
 71
     2
 42
101.6
  3
SLDDIMSTYLE1
100
AcDbAlignedDimension
 13
113.6
 23
7.938574928723902
 33
0.0
 14
11.99999999999999
 24
7.888210197335609
 34
0.0
 50
0.000000000000004
100
AcDbRotatedDimension
1001
ACAD
1000
DSTYLE
1002
{
1070
   171
1070
     6
1070
   273
1070
     7
1002
}
  0
DIMENSION
  5
129
330
1F
100
AcDbEntity
  8
치수문자_일반주서
100
AcDbDimension
  2
_D_2
 10
-41.97500000000002
 20
42.42063796711785
 30
0.0
 11
35.81249999999999
 21
42.42063796711785
 31
0.0
 70
   160
  1
<>
 71
     2
 42
155.575
  3
SLDDIMSTYLE1
100
AcDbAlignedDimension
 13
113.6
 23
7.938574928723902
 33
0.0
 14
-41.97500000000001
 24
6.351074928723902
 34
0.0
 50
0.0000000000000052
100
AcDbRotatedDimension
1001
ACAD
1000
DSTYLE
1002
{
1070
   171
1070
     6
1070
   273
1070
     7
1002
}
  0
DIMENSION
  5
13D
330
1F
100
AcDbEntity
  8
치수문자_일반주서
100
AcDbDimension
  2
_D_3
 10
133.2769530882523
 20
-7.936425071276037
 30
0.0
 11
133.2769530882522
 21
25.45932492872398
 31
0.0
 70
   160
  1
%%c<>
 71
     2
 42
15.87500000000001
 52
-270.0
  3
SLDDIMSTYLE1
100
AcDbAlignedDimension
 13
113.6
 23
7.938574928723902
 33
0.0
 14
113.6
 24
-7.936425071276112
 34
0.0
 50
90.0000000000002
100
AcDbRotatedDimension
1001
ACAD
1000
DSTYLE
1002
{
1070
   171
1070
     6
1070
   273
1070
     7
1002
}
  0
LINE
  5
150
330
1F
100
AcDbEntity
  8
참조1
100
AcDbLine
 10
88.46348381534564
 20
7.441074928723896
 30
0.0
 11
88.46348381534564
 21
-7.438925071276109
 31
0.0
  0
LINE
  5
151
330
1F
100
AcDbEntity
  8
참조1
100
AcDbLine
 10
101.1634838153456
 20
5.441074928723896
 30
0.0
 11
88.46348381534564
 21
5.441074928723896
 31
0.0
  0
SOLID
  5
152
330
1F
100
AcDbEntity
  8
참조1
100
AcDbTrace
 10
88.46348381534564
 20
5.441074928723896
 30
0.0
 11
94.81348381534563
 21
4.425074928723896
 31
0.0
 12
94.81348381534563
 22
6.457074928723896
 32
0.0
 13
94.81348381534563
 23
6.457074928723896
 33
0.0
  0
LINE
  5
153
330
1F
100
AcDbEntity
  8
참조1
100
AcDbLine
 10
101.1634838153456
 20
-5.438925071276109
 30
0.0
 11
88.46348381534564
 21
-5.438925071276109
 31
0.0
  0
SOLID
  5
154
330
1F
100
AcDbEntity
  8
참조1
100
AcDbTrace
 10
88.46348381534564
 20
-5.438925071276109
 30
0.0
 11
94.81348381534563
 21
-6.454925071276109
 31
0.0
 12
94.81348381534563
 22
-4.422925071276109
 32
0.0
 13
94.81348381534563
 23
-4.422925071276109
 33
0.0
  0
MTEXT
  5
155
330
1F
100
AcDbEntity
  8
참조1
100
AcDbMText
 10
97.8609739078159
 20
10.98929157337383
 30
0.0
 40
3.5
 41
0.0
 71
     1
 72
     1
  1
A
  7
SLDTEXTSTYLE0
 73
     1
 44
1.0
  0
MTEXT
  5
156
330
1F
100
AcDbEntity
  8
참조1
100
AcDbMText
 10
97.8609739078159
 20
0.1092915733738251
 30
0.0
 40
3.5
 41
0.0
 71
     1
 72
     1
  1
A
  7
SLDTEXTSTYLE0
 73
     1
 44
1.0
  0
INSERT
  5
15D
330
1F
100
AcDbEntity
  8
해칭선
100
AcDbBlockReference
  2
SW_DOWELSYMBOL_0
 10
0.0
 20
0.0
 30
0.0
  0
LINE
  5
378
330
1F
100
AcDbEntity
  8
외형선
  6
Continuous
370
    15
100
AcDbLine
 10
-22.85832500000003
 20
6.287574928723856
 30
0.0
 11
-12.67292500000001
 21
6.287574928723856
 31
0.0
  0
LINE
  5
379
330
1F
100
AcDbEntity
  8
외형선
  6
Continuous
370
    15
100
AcDbLine
 10
-22.85832500000003
 20
6.287574928723956
 30
0.0
 11
-24.50932499999998
 21
7.938574928723867
 31
0.0
  0
LINE
  5
37A
330
1F
100
AcDbEntity
  8
외형선
  6
Continuous
370
    15
100
AcDbLine
 10
-12.67292500000012
 20
6.287574928723956
 30
0.0
 11
-11.02192500000011
 21
7.938574928723867
 31
0.0
  0
LINE
  5
37B
330
1F
100
AcDbEntity
  8
외형선
  6
Continuous
370
    15
100
AcDbLine
 10
-24.50932500000001
 20
7.938574928723895
 30
0.0
 11
-40.38750000000001
 21
7.938574928723895
 31
0.0
  0
ENDSEC
  0
SECTION
  2
OBJECTS
  0
DICTIONARY
  5
C
330
0
100
AcDbDictionary
281
     1
  3
ACAD_GROUP
350
D
  3
ACAD_IMAGE_VARS
350
181
  3
ACAD_LAYOUT
350
1A
  3
ACAD_MLINESTYLE
350
17
  3
ACAD_PLOTSETTINGS
350
19
  3
ACAD_PLOTSTYLENAME
350
E
  3
ACAD_SCALELIST
350
47
  3
APPDATA
350
17F
  3
DWGPROPS
350
39F
  0
DICTIONARY
  5
24D
330
2
100
AcDbDictionary
280
     1
281
     1
  3
ACAD_LAYERSTATES
360
24E
  0
DICTIONARY
  5
D
102
{ACAD_REACTORS
330
C
102
}
330
C
100
AcDbDictionary
281
     1
  0
RASTERVARIABLES
  5
181
102
{ACAD_REACTORS
330
C
102
}
330
C
100
AcDbRasterVariables
 90
        0
 70
     1
 71
     1
 72
     1
  0
DICTIONARY
  5
1A
102
{ACAD_REACTORS
330
C
102
}
330
C
100
AcDbDictionary
281
     1
  3
Layout1
350
1E
  3
Layout2
350
26
  3
Model
350
22
  0
DICTIONARY
  5
17
102
{ACAD_REACTORS
330
C
102
}
330
C
100
AcDbDictionary
281
     1
  3
Standard
350
18
  0
DICTIONARY
  5
19
102
{ACAD_REACTORS
330
C
102
}
330
C
100
AcDbDictionary
281
     1
  0
ACDBDICTIONARYWDFLT
  5
E
102
{ACAD_REACTORS
330
C
102
}
330
C
100
AcDbDictionary
281
     1
  3
Normal
350
F
100
AcDbDictionaryWithDefault
340
F
  0
DICTIONARY
  5
47
102
{ACAD_REACTORS
330
C
102
}
330
C
100
AcDbDictionary
281
     1
  3
A0
350
48
  3
A1
350
49
  3
A2
350
4A
  3
A3
350
4B
  3
A4
350
4C
  3
A5
350
4D
  3
A6
350
4E
  3
A7
350
4F
  3
A8
350
50
  3
A9
350
51
  3
B0
350
52
  3
B1
350
53
  3
B2
350
54
  3
B3
350
55
  3
B4
350
56
  3
B5
350
57
  3
B6
350
58
  3
B7
350
59
  3
B8
350
5A
  3
B9
350
5B
  3
C0
350
5C
  3
C1
350
5D
  3
C2
350
5E
  3
C3
350
5F
  3
C4
350
60
  3
C5
350
61
  3
C6
350
62
  3
C7
350
63
  3
C8
350
64
  3
C9
350
65
  3
D0
350
66
  3
D1
350
67
  3
D2
350
68
  0
DICTIONARY
  5
17F
102
{ACAD_REACTORS
330
C
102
}
330
C
100
AcDbDictionary
281
     1
  0
XRECORD
  5
39F
102
{ACAD_REACTORS
330
C
102
}
330
C
100
AcDbXrecord
280
     1
  1
DWGPROPS COOKIE
  2

  3

  4

  6

  7

  8
12016016
  9

300
=
301
=
302
=
303
=
304
=
305
=
306
=
307
=
308
=
309
=
 40
0.0
 41
2458323.066744873
 42
2458323.370392257
  1

 90
        0
  0
DICTIONARY
  5
24E
102
{ACAD_REACTORS
330
24D
102
}
330
24D
100
AcDbDictionary
281
     1
  0
LAYOUT
  5
1E
102
{ACAD_REACTORS
330
1A
102
}
330
1A
100
AcDbPlotSettings
  1

  2
none_device
  4

  6

 40
0.0
 41
0.0
 42
0.0
 43
0.0
 44
0.0
 45
0.0
 46
0.0
 47
0.0
 48
0.0
 49
0.0
140
0.0
141
0.0
142
1.0
143
1.0
 70
   688
 72
     1
 73
     0
 74
     5
  7

 75
    16
147
1.0
148
0.0
149
0.0
100
AcDbLayout
  1
Layout1
 70
     1
 71
     1
 10
0.0
 20
0.0
 11
420.0
 21
297.0
 12
0.0
 22
0.0
 32
0.0
 14
1.000000000000000E+20
 24
1.000000000000000E+20
 34
1.000000000000000E+20
 15
-1.000000000000000E+20
 25
-1.000000000000000E+20
 35
-1.000000000000000E+20
146
0.0
 13
0.0
 23
0.0
 33
0.0
 16
1.0
 26
0.0
 36
0.0
 17
0.0
 27
1.0
 37
0.0
 76
     0
330
1B
  0
LAYOUT
  5
26
102
{ACAD_REACTORS
330
1A
102
}
330
1A
100
AcDbPlotSettings
  1

  2
none_device
  4

  6

 40
0.0
 41
0.0
 42
0.0
 43
0.0
 44
0.0
 45
0.0
 46
0.0
 47
0.0
 48
0.0
 49
0.0
140
0.0
141
0.0
142
1.0
143
1.0
 70
   688
 72
     1
 73
     0
 74
     5
  7

 75
    16
147
1.0
148
0.0
149
0.0
100
AcDbLayout
  1
Layout2
 70
     1
 71
     2
 10
0.0
 20
0.0
 11
0.0
 21
0.0
 12
0.0
 22
0.0
 32
0.0
 14
0.0
 24
0.0
 34
0.0
 15
0.0
 25
0.0
 35
0.0
146
0.0
 13
0.0
 23
0.0
 33
0.0
 16
1.0
 26
0.0
 36
0.0
 17
0.0
 27
1.0
 37
0.0
 76
     0
330
23
  0
LAYOUT
  5
22
102
{ACAD_REACTORS
330
1A
102
}
330
1A
100
AcDbPlotSettings
  1

  2
none_device
  4
ANSI_A_(11.00_x_8.50_Inches)
  6

 40
6.35
 41
19.05
 42
6.35000508
 43
19.05000254
 44
279.4
 45
215.9
 46
53.63703852440286
 47
87.78694742280936
 48
0.0
 49
0.0
140
0.0
141
0.0
142
0.0350732678308526
143
1.0
 70
  1696
 72
     0
 73
     0
 74
     0
  7

 75
     0
147
0.0235690232323232
148
0.0
149
0.0
100
AcDbLayout
  1
Model
 70
     1
 71
     0
 10
0.0
 20
0.0
 11
420.0
 21
297.0
 12
0.0
 22
0.0
 32
0.0
 14
-59.35000000000007
 24
-49.97073246008785
 34
0.0
 15
133.8272864215856
 25
46.79563796711785
 35
0.0
146
0.0
 13
0.0
 23
0.0
 33
0.0
 16
1.0
 26
0.0
 36
0.0
 17
0.0
 27
1.0
 37
0.0
 76
     0
330
1F
331
29
  0
MLINESTYLE
  5
18
102
{ACAD_REACTORS
330
17
102
}
330
17
100
AcDbMlineStyle
  2
Standard
 70
     0
  3

 62
   256
 51
90.0
 52
90.0
 71
     2
 49
0.5
 62
   256
  6
BYLAYER
 49
-0.5
 62
   256
  6
BYLAYER
  0
ACDBPLACEHOLDER
  5
F
102
{ACAD_REACTORS
330
E
102
}
330
E
  0
SCALE
  5
48
102
{ACAD_REACTORS
330
47
102
}
330
47
100
AcDbScale
 70
     0
300
1:1
140
1.0
141
1.0
290
     1
  0
SCALE
  5
49
102
{ACAD_REACTORS
330
47
102
}
330
47
100
AcDbScale
 70
     0
300
1:2
140
1.0
141
2.0
290
     0
  0
SCALE
  5
4A
102
{ACAD_REACTORS
330
47
102
}
330
47
100
AcDbScale
 70
     0
300
1:4
140
1.0
141
4.0
290
     0
  0
SCALE
  5
4B
102
{ACAD_REACTORS
330
47
102
}
330
47
100
AcDbScale
 70
     0
300
1:5
140
1.0
141
5.0
290
     0
  0
SCALE
  5
4C
102
{ACAD_REACTORS
330
47
102
}
330
47
100
AcDbScale
 70
     0
300
1:8
140
1.0
141
8.0
290
     0
  0
SCALE
  5
4D
102
{ACAD_REACTORS
330
47
102
}
330
47
100
AcDbScale
 70
     0
300
1:10
140
1.0
141
10.0
290
     0
  0
SCALE
  5
4E
102
{ACAD_REACTORS
330
47
102
}
330
47
100
AcDbScale
 70
     0
300
1:16
140
1.0
141
16.0
290
     0
  0
SCALE
  5
4F
102
{ACAD_REACTORS
330
47
102
}
330
47
100
AcDbScale
 70
     0
300
1:20
140
1.0
141
20.0
290
     0
  0
SCALE
  5
50
102
{ACAD_REACTORS
330
47
102
}
330
47
100
AcDbScale
 70
     0
300
1:30
140
1.0
141
30.0
290
     0
  0
SCALE
  5
51
102
{ACAD_REACTORS
330
47
102
}
330
47
100
AcDbScale
 70
     0
300
1:40
140
1.0
141
40.0
290
     0
  0
SCALE
  5
52
102
{ACAD_REACTORS
330
47
102
}
330
47
100
AcDbScale
 70
     0
300
1:50
140
1.0
141
50.0
290
     0
  0
SCALE
  5
53
102
{ACAD_REACTORS
330
47
102
}
330
47
100
AcDbScale
 70
     0
300
1:100
140
1.0
141
100.0
290
     0
  0
SCALE
  5
54
102
{ACAD_REACTORS
330
47
102
}
330
47
100
AcDbScale
 70
     0
300
2:1
140
2.0
141
1.0
290
     0
  0
SCALE
  5
55
102
{ACAD_REACTORS
330
47
102
}
330
47
100
AcDbScale
 70
     0
300
4:1
140
4.0
141
1.0
290
     0
  0
SCALE
  5
56
102
{ACAD_REACTORS
330
47
102
}
330
47
100
AcDbScale
 70
     0
300
8:1
140
8.0
141
1.0
290
     0
  0
SCALE
  5
57
102
{ACAD_REACTORS
330
47
102
}
330
47
100
AcDbScale
 70
     0
300
10:1
140
10.0
141
1.0
290
     0
  0
SCALE
  5
58
102
{ACAD_REACTORS
330
47
102
}
330
47
100
AcDbScale
 70
     0
300
100:1
140
100.0
141
1.0
290
     0
  0
SCALE
  5
59
102
{ACAD_REACTORS
330
47
102
}
330
47
100
AcDbScale
 70
     0
300
1/128" = 1'-0"
140
0.0078125
141
12.0
290
     0
  0
SCALE
  5
5A
102
{ACAD_REACTORS
330
47
102
}
330
47
100
AcDbScale
 70
     0
300
1/64" = 1'-0"
140
0.015625
141
12.0
290
     0
  0
SCALE
  5
5B
102
{ACAD_REACTORS
330
47
102
}
330
47
100
AcDbScale
 70
     0
300
1/32" = 1'-0"
140
0.03125
141
12.0
290
     0
  0
SCALE
  5
5C
102
{ACAD_REACTORS
330
47
102
}
330
47
100
AcDbScale
 70
     0
300
1/16" = 1'-0"
140
0.0625
141
12.0
290
     0
  0
SCALE
  5
5D
102
{ACAD_REACTORS
330
47
102
}
330
47
100
AcDbScale
 70
     0
300
3/32" = 1'-0"
140
0.09375
141
12.0
290
     0
  0
SCALE
  5
5E
102
{ACAD_REACTORS
330
47
102
}
330
47
100
AcDbScale
 70
     0
300
1/8" = 1'-0"
140
0.125
141
12.0
290
     0
  0
SCALE
  5
5F
102
{ACAD_REACTORS
330
47
102
}
330
47
100
AcDbScale
 70
     0
300
3/16" = 1'-0"
140
0.1875
141
12.0
290
     0
  0
SCALE
  5
60
102
{ACAD_REACTORS
330
47
102
}
330
47
100
AcDbScale
 70
     0
300
1/4" = 1'-0"
140
0.25
141
12.0
290
     0
  0
SCALE
  5
61
102
{ACAD_REACTORS
330
47
102
}
330
47
100
AcDbScale
 70
     0
300
3/8" = 1'-0"
140
0.375
141
12.0
290
     0
  0
SCALE
  5
62
102
{ACAD_REACTORS
330
47
102
}
330
47
100
AcDbScale
 70
     0
300
1/2" = 1'-0"
140
0.5
141
12.0
290
     0
  0
SCALE
  5
63
102
{ACAD_REACTORS
330
47
102
}
330
47
100
AcDbScale
 70
     0
300
3/4" = 1'-0"
140
0.75
141
12.0
290
     0
  0
SCALE
  5
64
102
{ACAD_REACTORS
330
47
102
}
330
47
100
AcDbScale
 70
     0
300
1" = 1'-0"
140
1.0
141
12.0
290
     0
  0
SCALE
  5
65
102
{ACAD_REACTORS
330
47
102
}
330
47
100
AcDbScale
 70
     0
300
1-1/2" = 1'-0"
140
1.5
141
12.0
290
     0
  0
SCALE
  5
66
102
{ACAD_REACTORS
330
47
102
}
330
47
100
AcDbScale
 70
     0
300
3" = 1'-0"
140
3.0
141
12.0
290
     0
  0
SCALE
  5
67
102
{ACAD_REACTORS
330
47
102
}
330
47
100
AcDbScale
 70
     0
300
6" = 1'-0"
140
6.0
141
12.0
290
     0
  0
SCALE
  5
68
102
{ACAD_REACTORS
330
47
102
}
330
47
100
AcDbScale
 70
     0
300
1'-0" = 1'-0"
140
12.0
141
12.0
290
     0
  0
ENDSEC
  0
EOF
