  0
SECTION
  2
HEADER
  9
$ACADVER
  1
AC1015
  9
$ACADMAINTVER
 70
     6
  9
$DWGCODEPAGE
  3
ANSI_949
  9
$INSBASE
 10
0.0
 20
0.0
 30
0.0
  9
$EXTMIN
 10
-59.03250000000002
 20
-49.97073246008785
 30
0.0
  9
$EXTMAX
 10
137.342211280493
 20
48.37155326667848
 30
0.0
  9
$LIMMIN
 10
0.0
 20
0.0
  9
$LIMMAX
 10
420.0
 20
297.0
  9
$ORTHOMODE
 70
     0
  9
$REGENMODE
 70
     1
  9
$FILLMODE
 70
     1
  9
$QTEXTMODE
 70
     0
  9
$MIRRTEXT
 70
     1
  9
$LTSCALE
 40
1.0
  9
$ATTMODE
 70
     1
  9
$TEXTSIZE
 40
3.5
  9
$TRACEWID
 40
1.0
  9
$TEXTSTYLE
  7
Standard
  9
$CLAYER
  8
0
  9
$CELTYPE
  6
ByLayer
  9
$CECOLOR
 62
   256
  9
$CELTSCALE
 40
1.0
  9
$DISPSILH
 70
     0
  9
$DIMSCALE
 40
1.0
  9
$DIMASZ
 40
3.302
  9
$DIMEXO
 40
1.0
  9
$DIMDLI
 40
3.75
  9
$DIMRND
 40
0.0
  9
$DIMDLE
 40
0.0
  9
$DIMEXE
 40
1.0
  9
$DIMTP
 40
0.0
  9
$DIMTM
 40
0.0
  9
$DIMTXT
 40
3.5
  9
$DIMCEN
 40
2.5
  9
$DIMTSZ
 40
0.0
  9
$DIMTOL
 70
     0
  9
$DIMLIM
 70
     0
  9
$DIMTIH
 70
     1
  9
$DIMTOH
 70
     1
  9
$DIMSE1
 70
     0
  9
$DIMSE2
 70
     0
  9
$DIMTAD
 70
     1
  9
$DIMZIN
 70
     0
  9
$DIMBLK
  1

  9
$DIMASO
 70
     1
  9
$DIMSHO
 70
     1
  9
$DIMPOST
  1

  9
$DIMAPOST
  1

  9
$DIMALT
 70
     0
  9
$DIMALTD
 70
     3
  9
$DIMALTF
 40
0.0393700787401575
  9
$DIMLFAC
 40
1.0
  9
$DIMTOFL
 70
     1
  9
$DIMTVP
 40
0.0
  9
$DIMTIX
 70
     0
  9
$DIMSOXD
 70
     0
  9
$DIMSAH
 70
     0
  9
$DIMBLK1
  1

  9
$DIMBLK2
  1

  9
$DIMSTYLE
  2
ISO-25
  9
$DIMCLRD
 70
     0
  9
$DIMCLRE
 70
     0
  9
$DIMCLRT
 70
     0
  9
$DIMTFAC
 40
1.0
  9
$DIMGAP
 40
1.524
  9
$DIMJUST
 70
     0
  9
$DIMSD1
 70
     0
  9
$DIMSD2
 70
     0
  9
$DIMTOLJ
 70
     0
  9
$DIMTZIN
 70
     0
  9
$DIMALTZ
 70
     0
  9
$DIMALTTZ
 70
     0
  9
$DIMUPT
 70
     0
  9
$DIMDEC
 70
     2
  9
$DIMTDEC
 70
     2
  9
$DIMALTU
 70
     2
  9
$DIMALTTD
 70
     3
  9
$DIMTXSTY
  7
Standard
  9
$DIMAUNIT
 70
     0
  9
$DIMADEC
 70
     2
  9
$DIMALTRND
 40
0.0
  9
$DIMAZIN
 70
     0
  9
$DIMDSEP
 70
    44
  9
$DIMATFIT
 70
     3
  9
$DIMFRAC
 70
     0
  9
$DIMLDRBLK
  1

  9
$DIMLUNIT
 70
     2
  9
$DIMLWD
 70
    -2
  9
$DIMLWE
 70
    -2
  9
$DIMTMOVE
 70
     0
  9
$LUNITS
 70
     2
  9
$LUPREC
 70
     2
  9
$SKETCHINC
 40
1.0
  9
$FILLETRAD
 40
10.0
  9
$AUNITS
 70
     0
  9
$AUPREC
 70
     2
  9
$MENU
  1
.
  9
$ELEVATION
 40
0.0
  9
$PELEVATION
 40
0.0
  9
$THICKNESS
 40
0.0
  9
$LIMCHECK
 70
     0
  9
$CHAMFERA
 40
0.0
  9
$CHAMFERB
 40
0.0
  9
$CHAMFERC
 40
0.0
  9
$CHAMFERD
 40
0.0
  9
$SKPOLY
 70
     0
  9
$TDCREATE
 40
2458323.441956285
  9
$TDUCREATE
 40
2458323.066956285
  9
$TDUPDATE
 40
2458323.745350764
  9
$TDUUPDATE
 40
2458323.370350764
  9
$TDINDWG
 40
0.0003700694
  9
$TDUSRTIMER
 40
2458323.370314375
  9
$USRTIMER
 70
     1
  9
$ANGBASE
 50
0.0
  9
$ANGDIR
 70
     0
  9
$PDMODE
 70
     0
  9
$PDSIZE
 40
-1.0
  9
$PLINEWID
 40
0.0
  9
$SPLFRAME
 70
     0
  9
$SPLINETYPE
 70
     6
  9
$SPLINESEGS
 70
     8
  9
$HANDSEED
  5
3AA
  9
$SURFTAB1
 70
     6
  9
$SURFTAB2
 70
     6
  9
$SURFTYPE
 70
     6
  9
$SURFU
 70
     6
  9
$SURFV
 70
     6
  9
$UCSBASE
  2

  9
$UCSNAME
  2

  9
$UCSORG
 10
0.0
 20
0.0
 30
0.0
  9
$UCSXDIR
 10
1.0
 20
0.0
 30
0.0
  9
$UCSYDIR
 10
0.0
 20
1.0
 30
0.0
  9
$UCSORTHOREF
  2

  9
$UCSORTHOVIEW
 70
     0
  9
$UCSORGTOP
 10
0.0
 20
0.0
 30
0.0
  9
$UCSORGBOTTOM
 10
0.0
 20
0.0
 30
0.0
  9
$UCSORGLEFT
 10
0.0
 20
0.0
 30
0.0
  9
$UCSORGRIGHT
 10
0.0
 20
0.0
 30
0.0
  9
$UCSORGFRONT
 10
0.0
 20
0.0
 30
0.0
  9
$UCSORGBACK
 10
0.0
 20
0.0
 30
0.0
  9
$PUCSBASE
  2

  9
$PUCSNAME
  2

  9
$PUCSORG
 10
0.0
 20
0.0
 30
0.0
  9
$PUCSXDIR
 10
1.0
 20
0.0
 30
0.0
  9
$PUCSYDIR
 10
0.0
 20
1.0
 30
0.0
  9
$PUCSORTHOREF
  2

  9
$PUCSORTHOVIEW
 70
     0
  9
$PUCSORGTOP
 10
0.0
 20
0.0
 30
0.0
  9
$PUCSORGBOTTOM
 10
0.0
 20
0.0
 30
0.0
  9
$PUCSORGLEFT
 10
0.0
 20
0.0
 30
0.0
  9
$PUCSORGRIGHT
 10
0.0
 20
0.0
 30
0.0
  9
$PUCSORGFRONT
 10
0.0
 20
0.0
 30
0.0
  9
$PUCSORGBACK
 10
0.0
 20
0.0
 30
0.0
  9
$USERI1
 70
     0
  9
$USERI2
 70
     0
  9
$USERI3
 70
     0
  9
$USERI4
 70
     0
  9
$USERI5
 70
     0
  9
$USERR1
 40
0.0
  9
$USERR2
 40
0.0
  9
$USERR3
 40
0.0
  9
$USERR4
 40
0.0
  9
$USERR5
 40
0.0
  9
$WORLDVIEW
 70
     1
  9
$SHADEDGE
 70
     3
  9
$SHADEDIF
 70
    70
  9
$TILEMODE
 70
     1
  9
$MAXACTVP
 70
    64
  9
$PINSBASE
 10
0.0
 20
0.0
 30
0.0
  9
$PLIMCHECK
 70
     0
  9
$PEXTMIN
 10
1.000000000000000E+20
 20
1.000000000000000E+20
 30
1.000000000000000E+20
  9
$PEXTMAX
 10
-1.000000000000000E+20
 20
-1.000000000000000E+20
 30
-1.000000000000000E+20
  9
$PLIMMIN
 10
0.0
 20
0.0
  9
$PLIMMAX
 10
0.0
 20
0.0
  9
$UNITMODE
 70
     0
  9
$VISRETAIN
 70
     1
  9
$PLINEGEN
 70
     0
  9
$PSLTSCALE
 70
     1
  9
$TREEDEPTH
 70
  3020
  9
$CMLSTYLE
  2
Standard
  9
$CMLJUST
 70
     0
  9
$CMLSCALE
 40
20.0
  9
$PROXYGRAPHICS
 70
     1
  9
$MEASUREMENT
 70
     1
  9
$CELWEIGHT
370
    -1
  9
$ENDCAPS
280
     0
  9
$JOINSTYLE
280
     0
  9
$LWDISPLAY
290
     1
  9
$INSUNITS
 70
     4
  9
$HYPERLINKBASE
  1

  9
$STYLESHEET
  1

  9
$XEDIT
290
     1
  9
$CEPSNTYPE
380
     0
  9
$PSTYLEMODE
290
     1
  9
$FINGERPRINTGUID
  2
{9B4AB2F9-805C-4EF4-A7D8-B6191F3470F9}
  9
$VERSIONGUID
  2
{FAEB1C32-E019-11D5-929B-00C0DF256EC4}
  9
$EXTNAMES
290
     1
  9
$PSVPSCALE
 40
0.0
  9
$OLESTARTUP
290
     0
  0
ENDSEC
  0
SECTION
  2
CLASSES
  0
CLASS
  1
ACDBDICTIONARYWDFLT
  2
AcDbDictionaryWithDefault
  3
ObjectDBX Classes
 90
        0
280
     0
281
     0
  0
CLASS
  1
VISUALSTYLE
  2
AcDbVisualStyle
  3
ObjectDBX Classes
 90
     4095
280
     0
281
     0
  0
CLASS
  1
MATERIAL
  2
AcDbMaterial
  3
ObjectDBX Classes
 90
     1153
280
     0
281
     0
  0
CLASS
  1
SCALE
  2
AcDbScale
  3
ObjectDBX Classes
 90
     1153
280
     0
281
     0
  0
CLASS
  1
SUN
  2
AcDbSun
  3
SCENEOE
 90
     1153
280
     0
281
     0
  0
CLASS
  1
ACDBPLACEHOLDER
  2
AcDbPlaceHolder
  3
ObjectDBX Classes
 90
        0
280
     0
281
     0
  0
CLASS
  1
LAYOUT
  2
AcDbLayout
  3
ObjectDBX Classes
 90
        0
280
     0
281
     0
  0
CLASS
  1
TABLESTYLE
  2
AcDbTableStyle
  3
ObjectDBX Classes
 90
     4095
280
     0
281
     0
  0
CLASS
  1
MLEADERSTYLE
  2
AcDbMLeaderStyle
  3
ACDB_MLEADERSTYLE_CLASS
 90
     4095
280
     0
281
     0
  0
CLASS
  1
RASTERVARIABLES
  2
AcDbRasterVariables
  3
ISM
 90
        0
280
     0
281
     0
  0
ENDSEC
  0
SECTION
  2
TABLES
  0
TABLE
  2
VPORT
  5
8
330
0
100
AcDbSymbolTable
 70
     1
  0
VPORT
  5
29
330
8
100
AcDbSymbolTableRecord
100
AcDbViewportTableRecord
  2
*Active
 70
     0
 10
0.0
 20
0.0
 11
1.0
 21
1.0
 12
16.34015049579382
 22
20.0496123382127
 13
0.0
 23
0.0
 14
10.0
 24
10.0
 15
10.0
 25
10.0
 16
0.0
 26
0.0
 36
1.0
 17
0.0
 27
0.0
 37
0.0
 40
193.8484561846953
 41
1.632093933463796
 42
50.0
 43
0.0
 44
0.0
 50
0.0
 51
0.0
 71
    16
 72
  2000
 73
     1
 74
     3
 75
     0
 76
     0
 77
     0
 78
     0
281
     0
 65
     1
110
0.0
120
0.0
130
0.0
111
1.0
121
0.0
131
0.0
112
0.0
122
1.0
132
0.0
 79
     0
146
0.0
  0
ENDTAB
  0
TABLE
  2
LTYPE
  5
5
330
0
100
AcDbSymbolTable
 70
     6
  0
LTYPE
  5
14
330
5
100
AcDbSymbolTableRecord
100
AcDbLinetypeTableRecord
  2
ByBlock
 70
     0
  3

 72
    65
 73
     0
 40
0.0
  0
LTYPE
  5
15
330
5
100
AcDbSymbolTableRecord
100
AcDbLinetypeTableRecord
  2
ByLayer
 70
     0
  3

 72
    65
 73
     0
 40
0.0
  0
LTYPE
  5
16
330
5
100
AcDbSymbolTableRecord
100
AcDbLinetypeTableRecord
  2
Continuous
 70
     0
  3
Solid line
 72
    65
 73
     0
 40
0.0
  0
LTYPE
  5
6A
330
5
100
AcDbSymbolTableRecord
100
AcDbLinetypeTableRecord
  2
HIDDEN
 70
     0
  3
Hidden __ __ __ __ __ __ __ __ __ __ __ __ __ __
 72
    65
 73
     2
 40
1.905
 49
1.27
 74
     0
 49
-0.635
 74
     0
  0
LTYPE
  5
6B
330
5
100
AcDbSymbolTableRecord
100
AcDbLinetypeTableRecord
  2
PHANTOM
 70
     0
  3
Phantom ______  __  __  ______  __  __  ______
 72
    65
 73
     6
 40
12.7
 49
6.35
 74
     0
 49
-1.27
 74
     0
 49
1.27
 74
     0
 49
-1.27
 74
     0
 49
1.27
 74
     0
 49
-1.27
 74
     0
  0
LTYPE
  5
6C
330
5
100
AcDbSymbolTableRecord
100
AcDbLinetypeTableRecord
  2
CENTER
 70
     0
  3
Center ____ _ ____ _ ____ _ ____ _ ____ _ ____
 72
    65
 73
     4
 40
10.16
 49
6.35
 74
     0
 49
-1.27
 74
     0
 49
1.27
 74
     0
 49
-1.27
 74
     0
  0
LTYPE
  5
6D
330
5
100
AcDbSymbolTableRecord
100
AcDbLinetypeTableRecord
  2
CENTERX2
 70
     0
  3
Center (2x) ________  __  ________  __  _____
 72
    65
 73
     4
 40
20.32
 49
12.7
 74
     0
 49
-2.54
 74
     0
 49
2.54
 74
     0
 49
-2.54
 74
     0
  0
LTYPE
  5
6E
330
5
100
AcDbSymbolTableRecord
100
AcDbLinetypeTableRecord
  2
DOT2
 70
     0
  3
Dot (.5x) ........................................
 72
    65
 73
     2
 40
0.635
 49
0.0
 74
     0
 49
-0.635
 74
     0
  0
ENDTAB
  0
TABLE
  2
LAYER
  5
2
102
{ACAD_XDICTIONARY
360
271
102
}
330
0
100
AcDbSymbolTable
 70
    18
  0
LAYER
  5
10
330
2
100
AcDbSymbolTableRecord
100
AcDbLayerTableRecord
  2
0
 70
     0
 62
     7
  6
Continuous
370
    -3
390
F
  0
LAYER
  5
6F
330
2
100
AcDbSymbolTableRecord
100
AcDbLayerTableRecord
  2
FORMAT
 70
     0
 62
     2
  6
Continuous
370
    -3
390
F
  0
LAYER
  5
70
330
2
100
AcDbSymbolTableRecord
100
AcDbLayerTableRecord
  2
외형선
 70
     0
 62
     4
  6
Continuous
370
    30
390
F
  0
LAYER
  5
71
330
2
100
AcDbSymbolTableRecord
100
AcDbLayerTableRecord
  2
숨은선
 70
     0
 62
     2
  6
HIDDEN
370
    15
390
F
  0
LAYER
  5
72
330
2
100
AcDbSymbolTableRecord
100
AcDbLayerTableRecord
  2
중심선
 70
     0
 62
     1
  6
CENTERX2
370
    -3
390
F
  0
LAYER
  5
73
330
2
100
AcDbSymbolTableRecord
100
AcDbLayerTableRecord
  2
파단선
 70
     0
 62
     4
  6
Continuous
370
    -3
390
F
  0
LAYER
  5
74
330
2
100
AcDbSymbolTableRecord
100
AcDbLayerTableRecord
  2
해칭선
 70
     0
 62
   100
  6
Continuous
370
    -3
390
F
  0
LAYER
  5
75
330
2
100
AcDbSymbolTableRecord
100
AcDbLayerTableRecord
  2
가는실선
 70
     0
 62
     4
  6
Continuous
370
    -3
390
F
  0
LAYER
  5
76
330
2
100
AcDbSymbolTableRecord
100
AcDbLayerTableRecord
  2
치수_보조선
 70
     0
 62
     4
  6
Continuous
370
    -3
390
F
  0
LAYER
  5
77
330
2
100
AcDbSymbolTableRecord
100
AcDbLayerTableRecord
  2
치수문자_일반주서
 70
     0
 62
     7
  6
Continuous
370
    15
390
F
  0
LAYER
  5
78
330
2
100
AcDbSymbolTableRecord
100
AcDbLayerTableRecord
  2
개별주서
 70
     0
 62
   100
  6
Continuous
370
    30
390
F
  0
LAYER
  5
79
330
2
100
AcDbSymbolTableRecord
100
AcDbLayerTableRecord
  2
중간선
 70
     0
 62
     2
  6
Continuous
370
    15
390
F
  0
LAYER
  5
7A
330
2
100
AcDbSymbolTableRecord
100
AcDbLayerTableRecord
  2
윤곽선
 70
     0
 62
     3
  6
Continuous
370
    40
390
F
  0
LAYER
  5
7B
330
2
100
AcDbSymbolTableRecord
100
AcDbLayerTableRecord
  2
중심마크
 70
     0
 62
   100
  6
Continuous
370
    30
390
F
  0
LAYER
  5
7C
330
2
100
AcDbSymbolTableRecord
100
AcDbLayerTableRecord
  2
가상선
 70
     0
 62
     4
  6
PHANTOM
370
    -3
390
F
  0
LAYER
  5
7D
330
2
100
AcDbSymbolTableRecord
100
AcDbLayerTableRecord
  2
특수지정선
 70
     0
 62
     5
  6
CENTERX2
370
    60
390
F
  0
LAYER
  5
7E
330
2
100
AcDbSymbolTableRecord
100
AcDbLayerTableRecord
  2
참조1
 70
     0
 62
    -4
  6
Continuous
370
    -3
390
F
  0
LAYER
  5
183
330
2
100
AcDbSymbolTableRecord
100
AcDbLayerTableRecord
  2
Defpoints
 70
     0
 62
     7
  6
Continuous
290
     0
370
    -3
390
F
  0
ENDTAB
  0
TABLE
  2
STYLE
  5
3
330
0
100
AcDbSymbolTable
 70
     2
  0
STYLE
  5
11
330
3
100
AcDbSymbolTableRecord
100
AcDbTextStyleTableRecord
  2
Standard
 70
     0
 40
0.0
 41
1.0
 50
0.0
 71
     0
 42
3.5
  3
txt
  4

  0
STYLE
  5
94
330
3
100
AcDbSymbolTableRecord
100
AcDbTextStyleTableRecord
  2
SLDTEXTSTYLE0
 70
     0
 40
0.0
 41
0.75
 50
0.0
 71
     0
 42
3.5
  3
TXT
  4

  0
ENDTAB
  0
TABLE
  2
VIEW
  5
6
330
0
100
AcDbSymbolTable
 70
     0
  0
ENDTAB
  0
TABLE
  2
UCS
  5
7
330
0
100
AcDbSymbolTable
 70
     0
  0
ENDTAB
  0
TABLE
  2
APPID
  5
9
330
0
100
AcDbSymbolTable
 70
     1
  0
APPID
  5
12
330
9
100
AcDbSymbolTableRecord
100
AcDbRegAppTableRecord
  2
ACAD
 70
     0
  0
ENDTAB
  0
TABLE
  2
DIMSTYLE
  5
A
330
0
100
AcDbSymbolTable
 70
     4
100
AcDbDimStyleTable
  0
DIMSTYLE
105
27
330
A
100
AcDbSymbolTableRecord
100
AcDbDimStyleTableRecord
  2
ISO-25
 70
     0
 41
2.5
 42
0.625
 43
3.75
 44
1.25
 73
     0
 74
     0
 77
     1
 78
     8
140
2.5
141
2.5
143
0.03937007874016
147
0.625
171
     3
172
     1
178
     0
271
     2
272
     2
274
     3
278
    44
283
     0
284
     8
340
11
  0
DIMSTYLE
105
101
330
A
100
AcDbSymbolTableRecord
100
AcDbDimStyleTableRecord
  2
SLDDIMSTYLE0
 70
     0
 41
3.302
 44
0.0
 45
0.000000001
 73
     0
 74
     0
 77
     1
 78
    12
 79
     3
140
3.5
143
0.0393700787401575
147
0.875
148
0.000000001
170
     1
172
     1
173
     1
178
     0
271
     2
272
     2
276
     2
284
    12
289
     0
340
94
  0
DIMSTYLE
105
116
102
{ACAD_REACTORS
330
115
330
129
330
13D
330
100
102
}
330
A
100
AcDbSymbolTableRecord
100
AcDbDimStyleTableRecord
  2
SLDDIMSTYLE1
 70
     0
 41
3.302
 44
0.0
 45
0.000000001
 73
     0
 74
     0
 77
     1
 78
     4
 79
     1
140
3.5
143
0.0393700787401575
147
0.875
148
0.000000001
170
     1
173
     1
178
     0
271
     2
272
     2
276
     2
284
    12
340
94
  0
DIMSTYLE
105
12A
330
A
100
AcDbSymbolTableRecord
100
AcDbDimStyleTableRecord
  2
SLDDIMSTYLE2
 70
     0
 41
3.302
 44
0.0
 45
0.000000001
 73
     0
 74
     0
 77
     1
 78
    12
 79
     3
140
3.5
143
0.0393700787401575
147
0.875
148
0.000000001
170
     1
173
     1
178
     0
271
     2
272
     2
276
     2
284
    12
340
94
  0
ENDTAB
  0
TABLE
  2
BLOCK_RECORD
  5
1
330
0
100
AcDbSymbolTable
 70
    15
  0
BLOCK_RECORD
  5
1F
330
1
100
AcDbSymbolTableRecord
100
AcDbBlockTableRecord
  2
*Model_Space
340
22
  0
BLOCK_RECORD
  5
1B
330
1
100
AcDbSymbolTableRecord
100
AcDbBlockTableRecord
  2
*Paper_Space
340
1E
  0
BLOCK_RECORD
  5
23
330
1
100
AcDbSymbolTableRecord
100
AcDbBlockTableRecord
  2
*Paper_Space0
340
26
  0
BLOCK_RECORD
  5
7F
330
1
100
AcDbSymbolTableRecord
100
AcDbBlockTableRecord
  2
블럭10
340
0
102
{BLKREFS
331
F9
102
}
  0
BLOCK_RECORD
  5
102
330
1
100
AcDbSymbolTableRecord
100
AcDbBlockTableRecord
  2
_D
340
0
  0
BLOCK_RECORD
  5
117
330
1
100
AcDbSymbolTableRecord
100
AcDbBlockTableRecord
  2
_D_1
340
0
  0
BLOCK_RECORD
  5
12B
330
1
100
AcDbSymbolTableRecord
100
AcDbBlockTableRecord
  2
_D_2
340
0
  0
BLOCK_RECORD
  5
13E
330
1
100
AcDbSymbolTableRecord
100
AcDbBlockTableRecord
  2
_D_3
340
0
  0
BLOCK_RECORD
  5
157
330
1
100
AcDbSymbolTableRecord
100
AcDbBlockTableRecord
  2
SW_DOWELSYMBOL_0
340
0
102
{BLKREFS
331
15D
102
}
  0
BLOCK_RECORD
  5
275
330
1
100
AcDbSymbolTableRecord
100
AcDbBlockTableRecord
  2
*D7
340
0
  0
BLOCK_RECORD
  5
281
330
1
100
AcDbSymbolTableRecord
100
AcDbBlockTableRecord
  2
*D8
340
0
  0
BLOCK_RECORD
  5
28D
330
1
100
AcDbSymbolTableRecord
100
AcDbBlockTableRecord
  2
*D9
340
0
  0
BLOCK_RECORD
  5
299
330
1
100
AcDbSymbolTableRecord
100
AcDbBlockTableRecord
  2
*D10
340
0
  0
BLOCK_RECORD
  5
31E
330
1
100
AcDbSymbolTableRecord
100
AcDbBlockTableRecord
  2
*D11
340
0
  0
BLOCK_RECORD
  5
32A
330
1
100
AcDbSymbolTableRecord
100
AcDbBlockTableRecord
  2
*D12
340
0
  0
BLOCK_RECORD
  5
336
330
1
100
AcDbSymbolTableRecord
100
AcDbBlockTableRecord
  2
*D13
340
0
  0
BLOCK_RECORD
  5
342
330
1
100
AcDbSymbolTableRecord
100
AcDbBlockTableRecord
  2
*D14
340
0
  0
ENDTAB
  0
ENDSEC
  0
SECTION
  2
BLOCKS
  0
BLOCK
  5
20
330
1F
100
AcDbEntity
  8
0
100
AcDbBlockBegin
  2
*Model_Space
 70
     0
 10
0.0
 20
0.0
 30
0.0
  3
*Model_Space
  1
*Model_Space
  0
ENDBLK
  5
21
330
1F
100
AcDbEntity
  8
0
100
AcDbBlockEnd
  0
BLOCK
  5
1C
330
1B
100
AcDbEntity
 67
     1
  8
0
100
AcDbBlockBegin
  2
*Paper_Space
 70
     0
 10
0.0
 20
0.0
 30
0.0
  3
*Paper_Space
  1
*Paper_Space
  0
ENDBLK
  5
1D
330
1B
100
AcDbEntity
 67
     1
  8
0
100
AcDbBlockEnd
  0
BLOCK
  5
24
330
23
100
AcDbEntity
  8
0
100
AcDbBlockBegin
  2
*Paper_Space0
 70
     0
 10
0.0
 20
0.0
 30
0.0
  3
*Paper_Space0
  1
*Paper_Space0
  0
ENDBLK
  5
25
330
23
100
AcDbEntity
  8
0
100
AcDbBlockEnd
  0
BLOCK
  5
80
330
7F
100
AcDbEntity
  8
0
100
AcDbBlockBegin
  2
블럭10
 70
     2
 10
0.0
 20
0.0
 30
0.0
  3
블럭10
  1
블럭10
  0
ELLIPSE
  5
82
330
7F
100
AcDbEntity
  8
중심선
100
AcDbEllipse
 10
20.54032771741204
 20
12.0471743016438
 30
0.0
 11
6.600054785286829
 21
-1.261213355974178E-13
 31
0.0
210
0.0
220
0.0
230
1.0
 40
0.636358354079598
 41
0.9219305317359503
 42
6.513795318482858
  0
ELLIPSE
  5
83
330
7F
100
AcDbEntity
  8
중심선
100
AcDbEllipse
 10
20.54032771746488
 20
12.04717430159265
 30
0.0
 11
3.960054785062283
 21
1.540847449632565E-10
 31
0.0
210
0.0
220
0.0
230
1.0
 40
0.3939339440162632
 41
1.131841032648279
 42
5.62031148352944
  0
LINE
  5
84
330
7F
100
AcDbEntity
  8
중심선
100
AcDbLine
 10
2.268634060543552
 20
16.24717430164393
 30
0.0
 11
5.714909304380834
 21
16.24717430164393
 31
0.0
  0
LINE
  5
85
330
7F
100
AcDbEntity
  8
중심선
100
AcDbLine
 10
5.245725140726316
 20
7.84717430164391
 30
0.0
 11
8.692000384563599
 21
7.84717430164391
 31
0.0
  0
LINE
  5
86
330
7F
100
AcDbEntity
  8
중심선
100
AcDbLine
 10
15.74043728645272
 20
16.24717430164393
 30
0.0
 11
8.692000384563599
 21
7.84717430164391
 31
0.0
  0
LINE
  5
87
330
7F
100
AcDbEntity
  8
중심선
100
AcDbLine
 10
0.1404042013395286
 20
13.71084872107135
 30
0.0
 11
3.58671253028996
 21
13.71088815037384
 31
0.0
  0
LINE
  5
88
330
7F
100
AcDbEntity
  8
중심선
100
AcDbLine
 10
2.750260043222114
 20
10.84717430164391
 30
0.0
 11
6.196535287059397
 21
10.84717430164391
 31
0.0
  0
LINE
  5
89
330
7F
100
AcDbEntity
  8
중심선
100
AcDbLine
 10
12.29416204261559
 20
16.24717430164393
 30
0.0
 11
5.245725140726316
 21
7.84717430164391
 31
0.0
  0
LINE
  5
8A
330
7F
100
AcDbEntity
  8
중심선
100
AcDbLine
 10
10.72767329541681
 20
16.24717430164393
 30
0.0
 11
6.196535287059397
 21
10.84717430164391
 31
0.0
  0
LINE
  5
8B
330
7F
100
AcDbEntity
  8
중심선
100
AcDbLine
 10
7.28139805157953
 20
16.24717430164393
 30
0.0
 11
2.750260043222114
 21
10.84717430164391
 31
0.0
  0
LINE
  5
8C
330
7F
100
AcDbEntity
  8
중심선
100
AcDbLine
 10
5.714909304380834
 20
16.24717430164393
 30
0.0
 11
3.58671253028996
 21
13.71088815037384
 31
0.0
  0
LINE
  5
8D
330
7F
100
AcDbEntity
  8
중심선
100
AcDbLine
 10
2.268634060543552
 20
16.24717430164393
 30
0.0
 11
0.1404042013395286
 21
13.71084872107135
 31
0.0
  0
LINE
  5
8E
330
7F
100
AcDbEntity
  8
중심선
100
AcDbLine
 10
7.28139805157953
 20
16.24717430164393
 30
0.0
 11
10.72767329541681
 21
16.24717430164393
 31
0.0
  0
LINE
  5
8F
330
7F
100
AcDbEntity
  8
중심선
100
AcDbLine
 10
12.29416204261559
 20
16.24717430164393
 30
0.0
 11
15.74043728645272
 21
16.24717430164393
 31
0.0
  0
LINE
  5
90
330
7F
100
AcDbEntity
  8
중심선
100
AcDbLine
 10
19.22036997980202
 20
11.08717430171403
 30
0.0
 11
23.66174974927406
 21
11.08717430171406
 31
0.0
  0
LINE
  5
91
330
7F
100
AcDbEntity
  8
중심선
100
AcDbLine
 10
19.22039502424796
 20
13.00717430171391
 30
0.0
 11
19.22036997980202
 21
11.08717430171403
 31
0.0
  0
LINE
  5
92
330
7F
100
AcDbEntity
  8
중심선
100
AcDbLine
 10
19.22039502424796
 20
13.00717430171391
 30
0.0
 11
26.96566020931264
 21
13.00717430171391
 31
0.0
  0
LINE
  5
93
330
7F
100
AcDbEntity
  8
중심선
100
AcDbLine
 10
22.22332737316547
 20
13.45928029700563
 30
0.0
 11
24.52862924686651
 21
15.39360700705356
 31
0.0
  0
ATTDEF
  5
95
330
7F
100
AcDbEntity
  8
FORMAT
 62
     2
100
AcDbText
 10
4.408487351596664
 20
2.075366912832191
 30
0.0
 40
4.233333333333333
  1
E1175048
 41
0.75
  7
SLDTEXTSTYLE0
 11
4.408487351596664
 21
-0.0412997538344756
 31
0.0
100
AcDbAttributeDefinition
  3

  2
AUTOATTR0
 70
     0
 74
     1
  0
ENDBLK
  5
81
330
7F
100
AcDbEntity
  8
0
100
AcDbBlockEnd
  0
BLOCK
  5
103
330
102
100
AcDbEntity
  8
0
100
AcDbBlockBegin
  2
_D
 70
     0
 10
0.0
 20
0.0
 30
0.0
  3
_D
  1
_D
  0
LINE
  5
105
330
102
100
AcDbEntity
  8
치수문자_일반주서
 62
     0
370
    -2
100
AcDbLine
 10
-40.13249999999997
 20
9.5260749287239
 30
0.0
 11
-54.65750000000001
 21
9.52607492872385
 31
0.0
  0
LINE
  5
106
330
102
100
AcDbEntity
  8
치수문자_일반주서
 62
     0
370
    -2
100
AcDbLine
 10
-40.13249999999997
 20
-9.52392507127611
 30
0.0
 11
-54.65749999999995
 21
-9.523925071276162
 31
0.0
  0
LINE
  5
107
330
102
100
AcDbEntity
  8
치수문자_일반주서
 62
     0
370
    -2
100
AcDbLine
 10
-54.6575
 20
6.22407492872385
 30
0.0
 11
-54.65749999999996
 21
-6.221925071276162
 31
0.0
  0
SOLID
  5
108
330
102
100
AcDbEntity
  8
치수문자_일반주서
 62
     0
100
AcDbTrace
 10
-54.10716666666666
 20
6.224074928723851
 30
0.0
 11
-55.20783333333333
 21
6.224074928723848
 31
0.0
 12
-54.65750000000001
 22
9.52607492872385
 32
0.0
 13
-54.65750000000001
 23
9.52607492872385
 33
0.0
  0
SOLID
  5
109
330
102
100
AcDbEntity
  8
치수문자_일반주서
 62
     0
100
AcDbTrace
 10
-55.2078333333333
 20
-6.221925071276164
 30
0.0
 11
-54.10716666666663
 21
-6.221925071276161
 31
0.0
 12
-54.65749999999995
 22
-9.523925071276162
 32
0.0
 13
-54.65749999999995
 23
-9.523925071276162
 33
0.0
  0
MTEXT
  5
10A
330
102
100
AcDbEntity
  8
치수문자_일반주서
 62
     0
100
AcDbMText
 10
-59.03249999999998
 20
0.0010749287238864
 30
0.0
 40
3.5
 41
0.0
 71
     2
 72
     1
  1
\A1;%%c19.05 [3/4]
  7
SLDTEXTSTYLE0
 11
-3.356894814614645E-15
 21
1.0
 31
0.0
 73
     1
 44
1.0
  0
POINT
  5
10B
330
102
100
AcDbEntity
  8
Defpoints
 62
     0
100
AcDbPoint
 10
-40.06999999999997
 20
9.5260749287239
 30
0.0
  0
POINT
  5
10C
330
102
100
AcDbEntity
  8
Defpoints
 62
     0
100
AcDbPoint
 10
-40.06999999999997
 20
-9.52392507127611
 30
0.0
  0
POINT
  5
10D
330
102
100
AcDbEntity
  8
Defpoints
 62
     0
100
AcDbPoint
 10
-54.65749999999998
 20
-9.523925071276162
 30
0.0
  0
ENDBLK
  5
104
330
102
100
AcDbEntity
  8
0
100
AcDbBlockEnd
  0
BLOCK
  5
118
330
117
100
AcDbEntity
  8
0
100
AcDbBlockBegin
  2
_D_1
 70
     0
 10
0.0
 20
0.0
 30
0.0
  3
_D_1
  1
_D_1
  0
LINE
  5
11A
330
117
100
AcDbEntity
  8
치수문자_일반주서
 62
     0
370
    -2
100
AcDbLine
 10
116.775
 20
9.5885749287239
 30
0.0
 11
116.775
 21
31.99655326667847
 31
0.0
  0
LINE
  5
11B
330
117
100
AcDbEntity
  8
치수문자_일반주서
 62
     0
370
    -2
100
AcDbLine
 10
15.17500000000006
 20
9.562653528878727
 30
0.0
 11
15.17500000000005
 21
31.99655326667847
 31
0.0
  0
LINE
  5
11C
330
117
100
AcDbEntity
  8
치수문자_일반주서
 62
     0
370
    -2
100
AcDbLine
 10
113.473
 20
31.99655326667847
 30
0.0
 11
18.47700000000005
 21
31.99655326667847
 31
0.0
  0
SOLID
  5
11D
330
117
100
AcDbEntity
  8
치수문자_일반주서
 62
     0
100
AcDbTrace
 10
113.473
 20
31.44621993334513
 30
0.0
 11
113.473
 21
32.5468866000118
 31
0.0
 12
116.775
 22
31.99655326667847
 32
0.0
 13
116.775
 23
31.99655326667847
 33
0.0
  0
SOLID
  5
11E
330
117
100
AcDbEntity
  8
치수문자_일반주서
 62
     0
100
AcDbTrace
 10
18.47700000000005
 20
32.5468866000118
 30
0.0
 11
18.47700000000005
 21
31.44621993334513
 31
0.0
 12
15.17500000000005
 22
31.99655326667847
 32
0.0
 13
15.17500000000005
 23
31.99655326667847
 33
0.0
  0
MTEXT
  5
11F
330
117
100
AcDbEntity
  8
치수문자_일반주서
 62
     0
100
AcDbMText
 10
65.97500000000007
 20
36.37155326667847
 30
0.0
 40
3.5
 41
0.0
 71
     2
 72
     1
  1
\A1;101.60 [4]
  7
SLDTEXTSTYLE0
 73
     1
 44
1.0
  0
POINT
  5
120
330
117
100
AcDbEntity
  8
Defpoints
 62
     0
100
AcDbPoint
 10
116.775
 20
9.5260749287239
 30
0.0
  0
POINT
  5
121
330
117
100
AcDbEntity
  8
Defpoints
 62
     0
100
AcDbPoint
 10
15.17500000000006
 20
9.500153528878727
 30
0.0
  0
POINT
  5
122
330
117
100
AcDbEntity
  8
Defpoints
 62
     0
100
AcDbPoint
 10
15.17500000000006
 20
31.99655326667847
 30
0.0
  0
ENDBLK
  5
119
330
117
100
AcDbEntity
  8
0
100
AcDbBlockEnd
  0
BLOCK
  5
12C
330
12B
100
AcDbEntity
  8
0
100
AcDbBlockBegin
  2
_D_2
 70
     0
 10
0.0
 20
0.0
 30
0.0
  3
_D_2
  1
_D_2
  0
LINE
  5
12E
330
12B
100
AcDbEntity
  8
치수문자_일반주서
 62
     0
370
    -2
100
AcDbLine
 10
116.775
 20
9.5885749287239
 30
0.0
 11
116.775
 21
43.99655326667848
 31
0.0
  0
LINE
  5
12F
330
12B
100
AcDbEntity
  8
치수문자_일반주서
 62
     0
370
    -2
100
AcDbLine
 10
-41.97499999999997
 20
7.6835749287239
 30
0.0
 11
-41.97499999999998
 21
43.99655326667848
 31
0.0
  0
LINE
  5
130
330
12B
100
AcDbEntity
  8
치수문자_일반주서
 62
     0
370
    -2
100
AcDbLine
 10
113.473
 20
43.99655326667848
 30
0.0
 11
-38.67299999999998
 21
43.99655326667848
 31
0.0
  0
SOLID
  5
131
330
12B
100
AcDbEntity
  8
치수문자_일반주서
 62
     0
100
AcDbTrace
 10
113.473
 20
43.44621993334514
 30
0.0
 11
113.473
 21
44.54688660001181
 31
0.0
 12
116.775
 22
43.99655326667848
 32
0.0
 13
116.775
 23
43.99655326667848
 33
0.0
  0
SOLID
  5
132
330
12B
100
AcDbEntity
  8
치수문자_일반주서
 62
     0
100
AcDbTrace
 10
-38.67299999999998
 20
44.54688660001181
 30
0.0
 11
-38.67299999999998
 21
43.44621993334514
 31
0.0
 12
-41.97499999999998
 22
43.99655326667848
 32
0.0
 13
-41.97499999999998
 23
43.99655326667848
 33
0.0
  0
MTEXT
  5
133
330
12B
100
AcDbEntity
  8
치수문자_일반주서
 62
     0
100
AcDbMText
 10
37.40000000000003
 20
48.37155326667848
 30
0.0
 40
3.5
 41
0.0
 71
     2
 72
     1
  1
\A1;158.75 [6 1/4]
  7
SLDTEXTSTYLE0
 73
     1
 44
1.0
  0
POINT
  5
134
330
12B
100
AcDbEntity
  8
Defpoints
 62
     0
100
AcDbPoint
 10
116.775
 20
9.5260749287239
 30
0.0
  0
POINT
  5
135
330
12B
100
AcDbEntity
  8
Defpoints
 62
     0
100
AcDbPoint
 10
-41.97499999999997
 20
7.6210749287239
 30
0.0
  0
POINT
  5
136
330
12B
100
AcDbEntity
  8
Defpoints
 62
     0
100
AcDbPoint
 10
-41.97499999999997
 20
43.99655326667848
 30
0.0
  0
ENDBLK
  5
12D
330
12B
100
AcDbEntity
  8
0
100
AcDbBlockEnd
  0
BLOCK
  5
13F
330
13E
100
AcDbEntity
  8
0
100
AcDbBlockBegin
  2
_D_3
 70
     0
 10
0.0
 20
0.0
 30
0.0
  3
_D_3
  1
_D_3
  0
LINE
  5
141
330
13E
100
AcDbEntity
  8
치수문자_일반주서
 62
     0
370
    -2
100
AcDbLine
 10
116.8375
 20
9.5260749287239
 30
0.0
 11
136.7918779471597
 21
9.526074928723968
 31
0.0
  0
LINE
  5
142
330
13E
100
AcDbEntity
  8
치수문자_일반주서
 62
     0
370
    -2
100
AcDbLine
 10
116.8375
 20
-9.52392507127611
 30
0.0
 11
136.7918779471597
 21
-9.52392507127604
 31
0.0
  0
LINE
  5
143
330
13E
100
AcDbEntity
  8
치수문자_일반주서
 62
     0
370
    -2
100
AcDbLine
 10
136.7918779471597
 20
9.526074928723968
 30
0.0
 11
136.7918779471596
 21
40.62469459419051
 31
0.0
  0
LINE
  5
144
330
13E
100
AcDbEntity
  8
치수문자_일반주서
 62
     0
370
    -2
100
AcDbLine
 10
136.7918779471597
 20
6.224074928723969
 30
0.0
 11
136.7918779471597
 21
-6.22192507127604
 31
0.0
  0
SOLID
  5
145
330
13E
100
AcDbEntity
  8
치수문자_일반주서
 62
     0
100
AcDbTrace
 10
137.342211280493
 20
6.224074928723971
 30
0.0
 11
136.2415446138263
 21
6.224074928723967
 31
0.0
 12
136.7918779471597
 22
9.526074928723968
 32
0.0
 13
136.7918779471597
 23
9.526074928723968
 33
0.0
  0
SOLID
  5
146
330
13E
100
AcDbEntity
  8
치수문자_일반주서
 62
     0
100
AcDbTrace
 10
136.2415446138264
 20
-6.221925071276042
 30
0.0
 11
137.342211280493
 21
-6.221925071276038
 31
0.0
 12
136.7918779471597
 22
-9.52392507127604
 32
0.0
 13
136.7918779471597
 23
-9.52392507127604
 33
0.0
  0
MTEXT
  5
147
330
13E
100
AcDbEntity
  8
치수문자_일반주서
 62
     0
100
AcDbMText
 10
132.4168779471596
 20
26.84344459419049
 30
0.0
 40
3.5
 41
0.0
 71
     2
 72
     1
  1
\A1;%%c19.05 [3/4]
  7
SLDTEXTSTYLE0
 11
-2.983906501879684E-15
 21
1.0
 31
0.0
 73
     1
 44
1.0
  0
POINT
  5
148
330
13E
100
AcDbEntity
  8
Defpoints
 62
     0
100
AcDbPoint
 10
116.775
 20
9.5260749287239
 30
0.0
  0
POINT
  5
149
330
13E
100
AcDbEntity
  8
Defpoints
 62
     0
100
AcDbPoint
 10
116.775
 20
-9.52392507127611
 30
0.0
  0
POINT
  5
14A
330
13E
100
AcDbEntity
  8
Defpoints
 62
     0
100
AcDbPoint
 10
136.7918779471597
 20
-9.523925071276041
 30
0.0
  0
ENDBLK
  5
140
330
13E
100
AcDbEntity
  8
0
100
AcDbBlockEnd
  0
BLOCK
  5
158
330
157
100
AcDbEntity
  8
0
100
AcDbBlockBegin
  2
SW_DOWELSYMBOL_0
 70
     0
 10
0.0
 20
0.0
 30
0.0
  3
SW_DOWELSYMBOL_0
  1
SW_DOWELSYMBOL_0
  0
CIRCLE
  5
15A
330
157
100
AcDbEntity
  8
해칭선
 62
     0
100
AcDbCircle
 10
0.0
 20
0.0
 30
0.0
 40
3.000000000000002
  0
HATCH
  5
15B
330
157
100
AcDbEntity
  8
0
  6
Continuous
 62
     0
370
     0
100
AcDbHatch
 10
0.0
 20
0.0
 30
0.0
210
0.0
220
0.0
230
1.0
  2
SOLID
 70
     1
 71
     0
 91
        1
 92
        0
 93
        3
 72
     2
 10
0.0
 20
0.0
 40
3.000000000000002
 50
0.0
 51
90.0
 73
     1
 72
     1
 10
0.0
 20
3.000000000000002
 11
0.0
 21
0.0
 72
     1
 10
0.0
 20
0.0
 11
3.000000000000003
 21
0.0
 97
        0
 75
     0
 76
     1
 98
        1
 10
0.0
 20
0.0
  0
HATCH
  5
15C
330
157
100
AcDbEntity
  8
0
  6
Continuous
 62
     0
370
     0
100
AcDbHatch
 10
0.0
 20
0.0
 30
0.0
210
0.0
220
0.0
230
1.0
  2
SOLID
 70
     1
 71
     0
 91
        1
 92
        0
 93
        3
 72
     2
 10
0.0
 20
0.0
 40
3.000000000000002
 50
180.0
 51
270.0000000000007
 73
     1
 72
     1
 10
0.0
 20
-3.000000000000002
 11
0.0
 21
0.0
 72
     1
 10
0.0
 20
0.0
 11
-3.000000000000002
 21
0.0
 97
        0
 75
     0
 76
     1
 98
        1
 10
0.0
 20
0.0
  0
ENDBLK
  5
159
330
157
100
AcDbEntity
  8
0
100
AcDbBlockEnd
  0
BLOCK
  5
276
330
275
100
AcDbEntity
  8
0
100
AcDbBlockBegin
  2
*D7
 70
     1
 10
0.0
 20
0.0
 30
0.0
  3
*D7
  1
*D8
  0
LINE
  5
278
330
275
100
AcDbEntity
  8
치수문자_일반주서
 62
     0
370
    -2
100
AcDbLine
 10
16.67750000000006
 20
61.08430738881174
 30
0.0
 11
4.375000000000004
 21
61.08430738881169
 31
0.0
  0
LINE
  5
279
330
275
100
AcDbEntity
  8
치수문자_일반주서
 62
     0
370
    -2
100
AcDbLine
 10
18.90000000000005
 20
38.85930738881175
 30
0.0
 11
4.375000000000082
 21
38.8593073888117
 31
0.0
  0
LINE
  5
27A
330
275
100
AcDbEntity
  8
치수문자_일반주서
 62
     0
370
    -2
100
AcDbLine
 10
4.375000000000016
 20
57.7823073888117
 30
0.0
 11
4.37500000000007
 21
42.1613073888117
 31
0.0
  0
SOLID
  5
27B
330
275
100
AcDbEntity
  8
치수문자_일반주서
 62
     0
100
AcDbTrace
 10
4.92533333333335
 20
57.7823073888117
 30
0.0
 11
3.824666666666683
 21
57.7823073888117
 31
0.0
 12
4.375000000000004
 22
61.08430738881169
 32
0.0
 13
4.375000000000004
 23
61.08430738881169
 33
0.0
  0
SOLID
  5
27C
330
275
100
AcDbEntity
  8
치수문자_일반주서
 62
     0
100
AcDbTrace
 10
3.824666666666737
 20
42.1613073888117
 30
0.0
 11
4.925333333333404
 21
42.1613073888117
 31
0.0
 12
4.375000000000082
 22
38.8593073888117
 32
0.0
 13
4.375000000000082
 23
38.8593073888117
 33
0.0
  0
MTEXT
  5
27D
330
275
100
AcDbEntity
  8
치수문자_일반주서
 62
     0
100
AcDbMText
 10
0.0000000000000426
 20
49.97180738881173
 30
0.0
 40
3.5
 41
0.0
 71
     2
 72
     1
  1
\A1;%%c22.23 [7/8]
  7
SLDTEXTSTYLE0
 11
-3.476783915136598E-15
 21
1.0
 31
0.0
 73
     1
 44
1.0
  0
POINT
  5
27E
330
275
100
AcDbEntity
  8
Defpoints
 62
     0
100
AcDbPoint
 10
16.74000000000006
 20
61.08430738881174
 30
0.0
  0
POINT
  5
27F
330
275
100
AcDbEntity
  8
Defpoints
 62
     0
100
AcDbPoint
 10
18.96250000000005
 20
38.85930738881175
 30
0.0
  0
POINT
  5
280
330
275
100
AcDbEntity
  8
Defpoints
 62
     0
100
AcDbPoint
 10
4.375000000000085
 20
38.85930738881169
 30
0.0
  0
ENDBLK
  5
277
330
275
100
AcDbEntity
  8
0
100
AcDbBlockEnd
  0
BLOCK
  5
282
330
281
100
AcDbEntity
  8
0
100
AcDbBlockBegin
  2
*D8
 70
     1
 10
0.0
 20
0.0
 30
0.0
  3
*D8
  1
*D9
  0
LINE
  5
284
330
281
100
AcDbEntity
  8
치수문자_일반주서
 62
     0
370
    -2
100
AcDbLine
 10
200.8900000000001
 20
61.14680738881176
 30
0.0
 11
200.8900000000001
 21
83.54320102632703
 31
0.0
  0
LINE
  5
285
330
281
100
AcDbEntity
  8
치수문자_일반주서
 62
     0
370
    -2
100
AcDbLine
 10
73.89000000000007
 20
61.14680738881175
 30
0.0
 11
73.89000000000007
 21
83.54320102632703
 31
0.0
  0
LINE
  5
286
330
281
100
AcDbEntity
  8
치수문자_일반주서
 62
     0
370
    -2
100
AcDbLine
 10
197.5880000000001
 20
83.54320102632703
 30
0.0
 11
77.19200000000006
 21
83.54320102632703
 31
0.0
  0
SOLID
  5
287
330
281
100
AcDbEntity
  8
치수문자_일반주서
 62
     0
100
AcDbTrace
 10
197.5880000000001
 20
82.9928676929937
 30
0.0
 11
197.5880000000001
 21
84.09353435966035
 31
0.0
 12
200.8900000000001
 22
83.54320102632703
 32
0.0
 13
200.8900000000001
 23
83.54320102632703
 33
0.0
  0
SOLID
  5
288
330
281
100
AcDbEntity
  8
치수문자_일반주서
 62
     0
100
AcDbTrace
 10
77.19200000000006
 20
84.09353435966035
 30
0.0
 11
77.19200000000006
 21
82.9928676929937
 31
0.0
 12
73.89000000000007
 22
83.54320102632703
 32
0.0
 13
73.89000000000007
 23
83.54320102632703
 33
0.0
  0
MTEXT
  5
289
330
281
100
AcDbEntity
  8
치수문자_일반주서
 62
     0
100
AcDbMText
 10
137.3900000000001
 20
87.91820102632703
 30
0.0
 40
3.5
 41
0.0
 71
     2
 72
     1
  1
\A1;127.00 [5]
  7
SLDTEXTSTYLE0
 73
     1
 44
1.0
  0
POINT
  5
28A
330
281
100
AcDbEntity
  8
Defpoints
 62
     0
100
AcDbPoint
 10
200.8900000000001
 20
61.08430738881176
 30
0.0
  0
POINT
  5
28B
330
281
100
AcDbEntity
  8
Defpoints
 62
     0
100
AcDbPoint
 10
73.89000000000007
 20
61.08430738881175
 30
0.0
  0
POINT
  5
28C
330
281
100
AcDbEntity
  8
Defpoints
 62
     0
100
AcDbPoint
 10
73.89000000000007
 20
83.54320102632703
 30
0.0
  0
ENDBLK
  5
283
330
281
100
AcDbEntity
  8
0
100
AcDbBlockEnd
  0
BLOCK
  5
28E
330
28D
100
AcDbEntity
  8
0
100
AcDbBlockBegin
  2
*D9
 70
     1
 10
0.0
 20
0.0
 30
0.0
  3
*D9
  1
*D10
  0
LINE
  5
290
330
28D
100
AcDbEntity
  8
치수문자_일반주서
 62
     0
370
    -2
100
AcDbLine
 10
200.8900000000001
 20
61.14680738881176
 30
0.0
 11
200.8900000000001
 21
95.54320102632698
 31
0.0
  0
LINE
  5
291
330
28D
100
AcDbEntity
  8
치수문자_일반주서
 62
     0
370
    -2
100
AcDbLine
 10
16.74000000000006
 20
58.81337163078874
 30
0.0
 11
16.74000000000007
 21
95.54320102632698
 31
0.0
  0
LINE
  5
292
330
28D
100
AcDbEntity
  8
치수문자_일반주서
 62
     0
370
    -2
100
AcDbLine
 10
197.5880000000001
 20
95.54320102632698
 30
0.0
 11
20.04200000000007
 21
95.54320102632698
 31
0.0
  0
SOLID
  5
293
330
28D
100
AcDbEntity
  8
치수문자_일반주서
 62
     0
100
AcDbTrace
 10
197.5880000000001
 20
94.99286769299366
 30
0.0
 11
197.5880000000001
 21
96.09353435966031
 31
0.0
 12
200.8900000000001
 22
95.54320102632698
 32
0.0
 13
200.8900000000001
 23
95.54320102632698
 33
0.0
  0
SOLID
  5
294
330
28D
100
AcDbEntity
  8
치수문자_일반주서
 62
     0
100
AcDbTrace
 10
20.04200000000007
 20
96.09353435966031
 30
0.0
 11
20.04200000000007
 21
94.99286769299366
 31
0.0
 12
16.74000000000007
 22
95.54320102632698
 32
0.0
 13
16.74000000000007
 23
95.54320102632698
 33
0.0
  0
MTEXT
  5
295
330
28D
100
AcDbEntity
  8
치수문자_일반주서
 62
     0
100
AcDbMText
 10
108.8150000000001
 20
99.91820102632698
 30
0.0
 40
3.5
 41
0.0
 71
     2
 72
     1
  1
\A1;184.15 [7 1/4]
  7
SLDTEXTSTYLE0
 73
     1
 44
1.0
  0
POINT
  5
296
330
28D
100
AcDbEntity
  8
Defpoints
 62
     0
100
AcDbPoint
 10
200.8900000000001
 20
61.08430738881176
 30
0.0
  0
POINT
  5
297
330
28D
100
AcDbEntity
  8
Defpoints
 62
     0
100
AcDbPoint
 10
16.74000000000006
 20
58.75087163078874
 30
0.0
  0
POINT
  5
298
330
28D
100
AcDbEntity
  8
Defpoints
 62
     0
100
AcDbPoint
 10
16.74000000000006
 20
95.54320102632698
 30
0.0
  0
ENDBLK
  5
28F
330
28D
100
AcDbEntity
  8
0
100
AcDbBlockEnd
  0
BLOCK
  5
29A
330
299
100
AcDbEntity
  8
0
100
AcDbBlockBegin
  2
*D10
 70
     1
 10
0.0
 20
0.0
 30
0.0
  3
*D10
  1
*D11
  0
LINE
  5
29C
330
299
100
AcDbEntity
  8
치수문자_일반주서
 62
     0
370
    -2
100
AcDbLine
 10
200.9525000000001
 20
61.08430738881176
 30
0.0
 11
218.7435385659644
 21
61.08430738881182
 31
0.0
  0
LINE
  5
29D
330
299
100
AcDbEntity
  8
치수문자_일반주서
 62
     0
370
    -2
100
AcDbLine
 10
200.9525000000001
 20
38.85930738881174
 30
0.0
 11
218.7435385659645
 21
38.8593073888118
 31
0.0
  0
LINE
  5
29E
330
299
100
AcDbEntity
  8
치수문자_일반주서
 62
     0
370
    -2
100
AcDbLine
 10
218.7435385659644
 20
61.08430738881182
 30
0.0
 11
218.7435385659642
 21
95.72540533185628
 31
0.0
  0
LINE
  5
29F
330
299
100
AcDbEntity
  8
치수문자_일반주서
 62
     0
370
    -2
100
AcDbLine
 10
218.7435385659644
 20
57.78230738881182
 30
0.0
 11
218.7435385659645
 21
42.1613073888118
 31
0.0
  0
SOLID
  5
2A0
330
299
100
AcDbEntity
  8
치수문자_일반주서
 62
     0
100
AcDbTrace
 10
219.2938718992977
 20
57.78230738881182
 30
0.0
 11
218.193205232631
 21
57.78230738881182
 31
0.0
 12
218.7435385659644
 22
61.08430738881182
 32
0.0
 13
218.7435385659644
 23
61.08430738881182
 33
0.0
  0
SOLID
  5
2A1
330
299
100
AcDbEntity
  8
치수문자_일반주서
 62
     0
100
AcDbTrace
 10
218.1932052326311
 20
42.1613073888118
 30
0.0
 11
219.2938718992978
 21
42.1613073888118
 31
0.0
 12
218.7435385659645
 22
38.8593073888118
 32
0.0
 13
218.7435385659645
 23
38.8593073888118
 33
0.0
  0
MTEXT
  5
2A2
330
299
100
AcDbEntity
  8
치수문자_일반주서
 62
     0
100
AcDbMText
 10
214.3685385659643
 20
81.28790533185627
 30
0.0
 40
3.5
 41
0.0
 71
     2
 72
     1
  1
\A1;%%c22.23 [7/8]
  7
SLDTEXTSTYLE0
 11
-3.836451216702449E-15
 21
1.0
 31
0.0
 73
     1
 44
1.0
  0
POINT
  5
2A3
330
299
100
AcDbEntity
  8
Defpoints
 62
     0
100
AcDbPoint
 10
200.8900000000001
 20
61.08430738881176
 30
0.0
  0
POINT
  5
2A4
330
299
100
AcDbEntity
  8
Defpoints
 62
     0
100
AcDbPoint
 10
200.8900000000001
 20
38.85930738881174
 30
0.0
  0
POINT
  5
2A5
330
299
100
AcDbEntity
  8
Defpoints
 62
     0
100
AcDbPoint
 10
218.7435385659645
 20
38.8593073888118
 30
0.0
  0
ENDBLK
  5
29B
330
299
100
AcDbEntity
  8
0
100
AcDbBlockEnd
  0
BLOCK
  5
31F
330
31E
100
AcDbEntity
  8
0
100
AcDbBlockBegin
  2
*D11
 70
     1
 10
0.0
 20
0.0
 30
0.0
  3
*D11
  1
*D12
  0
LINE
  5
321
330
31E
100
AcDbEntity
  8
치수문자_일반주서
 62
     0
370
    -2
100
AcDbLine
 10
109.4444564287179
 20
-83.04585461829419
 30
0.0
 11
97.14195642871783
 21
-83.04585461829423
 31
0.0
  0
LINE
  5
322
330
31E
100
AcDbEntity
  8
치수문자_일반주서
 62
     0
370
    -2
100
AcDbLine
 10
111.6669564287179
 20
-105.2708546182942
 30
0.0
 11
97.1419564287179
 21
-105.2708546182942
 31
0.0
  0
LINE
  5
323
330
31E
100
AcDbEntity
  8
치수문자_일반주서
 62
     0
370
    -2
100
AcDbLine
 10
97.14195642871785
 20
-86.34785461829424
 30
0.0
 11
97.14195642871789
 21
-101.9688546182942
 31
0.0
  0
SOLID
  5
324
330
31E
100
AcDbEntity
  8
치수문자_일반주서
 62
     0
100
AcDbTrace
 10
97.69228976205117
 20
-86.34785461829424
 30
0.0
 11
96.59162309538452
 21
-86.34785461829424
 31
0.0
 12
97.14195642871783
 22
-83.04585461829423
 32
0.0
 13
97.14195642871783
 23
-83.04585461829423
 33
0.0
  0
SOLID
  5
325
330
31E
100
AcDbEntity
  8
치수문자_일반주서
 62
     0
100
AcDbTrace
 10
96.59162309538456
 20
-101.9688546182942
 30
0.0
 11
97.69228976205122
 21
-101.9688546182942
 31
0.0
 12
97.1419564287179
 22
-105.2708546182942
 32
0.0
 13
97.1419564287179
 23
-105.2708546182942
 33
0.0
  0
MTEXT
  5
326
330
31E
100
AcDbEntity
  8
치수문자_일반주서
 62
     0
100
AcDbMText
 10
92.76695642871786
 20
-94.1583546182942
 30
0.0
 40
3.5
 41
0.0
 71
     2
 72
     1
  1
\A1;%%c22.23 [7/8]
  7
SLDTEXTSTYLE0
 11
-3.197042680585376E-15
 21
1.0
 31
0.0
 73
     1
 44
1.0
  0
POINT
  5
327
330
31E
100
AcDbEntity
  8
Defpoints
 62
     0
100
AcDbPoint
 10
109.5069564287179
 20
-83.04585461829419
 30
0.0
  0
POINT
  5
328
330
31E
100
AcDbEntity
  8
Defpoints
 62
     0
100
AcDbPoint
 10
111.7294564287179
 20
-105.2708546182942
 30
0.0
  0
POINT
  5
329
330
31E
100
AcDbEntity
  8
Defpoints
 62
     0
100
AcDbPoint
 10
97.1419564287179
 20
-105.2708546182942
 30
0.0
  0
ENDBLK
  5
320
330
31E
100
AcDbEntity
  8
0
100
AcDbBlockEnd
  0
BLOCK
  5
32B
330
32A
100
AcDbEntity
  8
0
100
AcDbBlockBegin
  2
*D12
 70
     1
 10
0.0
 20
0.0
 30
0.0
  3
*D12
  1
*D13
  0
LINE
  5
32D
330
32A
100
AcDbEntity
  8
치수문자_일반주서
 62
     0
370
    -2
100
AcDbLine
 10
293.6569564287179
 20
-82.98335461829416
 30
0.0
 11
293.6569564287179
 21
-60.5869609807789
 31
0.0
  0
LINE
  5
32E
330
32A
100
AcDbEntity
  8
치수문자_일반주서
 62
     0
370
    -2
100
AcDbLine
 10
166.6569564287179
 20
-82.98335461829417
 30
0.0
 11
166.6569564287179
 21
-60.5869609807789
 31
0.0
  0
LINE
  5
32F
330
32A
100
AcDbEntity
  8
치수문자_일반주서
 62
     0
370
    -2
100
AcDbLine
 10
290.3549564287179
 20
-60.5869609807789
 30
0.0
 11
169.9589564287179
 21
-60.5869609807789
 31
0.0
  0
SOLID
  5
330
330
32A
100
AcDbEntity
  8
치수문자_일반주서
 62
     0
100
AcDbTrace
 10
290.3549564287179
 20
-61.13729431411223
 30
0.0
 11
290.3549564287179
 21
-60.03662764744556
 31
0.0
 12
293.6569564287179
 22
-60.5869609807789
 32
0.0
 13
293.6569564287179
 23
-60.5869609807789
 33
0.0
  0
SOLID
  5
331
330
32A
100
AcDbEntity
  8
치수문자_일반주서
 62
     0
100
AcDbTrace
 10
169.9589564287179
 20
-60.03662764744556
 30
0.0
 11
169.9589564287179
 21
-61.13729431411223
 31
0.0
 12
166.6569564287179
 22
-60.5869609807789
 32
0.0
 13
166.6569564287179
 23
-60.5869609807789
 33
0.0
  0
MTEXT
  5
332
330
32A
100
AcDbEntity
  8
치수문자_일반주서
 62
     0
100
AcDbMText
 10
230.1569564287179
 20
-56.2119609807789
 30
0.0
 40
3.5
 41
0.0
 71
     2
 72
     1
  1
\A1;127.00 [5]
  7
SLDTEXTSTYLE0
 73
     1
 44
1.0
  0
POINT
  5
333
330
32A
100
AcDbEntity
  8
Defpoints
 62
     0
100
AcDbPoint
 10
293.6569564287179
 20
-83.04585461829416
 30
0.0
  0
POINT
  5
334
330
32A
100
AcDbEntity
  8
Defpoints
 62
     0
100
AcDbPoint
 10
166.6569564287179
 20
-83.04585461829417
 30
0.0
  0
POINT
  5
335
330
32A
100
AcDbEntity
  8
Defpoints
 62
     0
100
AcDbPoint
 10
166.6569564287179
 20
-60.5869609807789
 30
0.0
  0
ENDBLK
  5
32C
330
32A
100
AcDbEntity
  8
0
100
AcDbBlockEnd
  0
BLOCK
  5
337
330
336
100
AcDbEntity
  8
0
100
AcDbBlockBegin
  2
*D13
 70
     1
 10
0.0
 20
0.0
 30
0.0
  3
*D13
  1
*D14
  0
LINE
  5
339
330
336
100
AcDbEntity
  8
치수문자_일반주서
 62
     0
370
    -2
100
AcDbLine
 10
293.6569564287179
 20
-82.98335461829416
 30
0.0
 11
293.6569564287179
 21
-48.58696098077894
 31
0.0
  0
LINE
  5
33A
330
336
100
AcDbEntity
  8
치수문자_일반주서
 62
     0
370
    -2
100
AcDbLine
 10
109.5069564287179
 20
-85.31679037631719
 30
0.0
 11
109.5069564287179
 21
-48.58696098077894
 31
0.0
  0
LINE
  5
33B
330
336
100
AcDbEntity
  8
치수문자_일반주서
 62
     0
370
    -2
100
AcDbLine
 10
290.3549564287179
 20
-48.58696098077894
 30
0.0
 11
112.8089564287179
 21
-48.58696098077894
 31
0.0
  0
SOLID
  5
33C
330
336
100
AcDbEntity
  8
치수문자_일반주서
 62
     0
100
AcDbTrace
 10
290.3549564287179
 20
-49.13729431411227
 30
0.0
 11
290.3549564287179
 21
-48.03662764744561
 31
0.0
 12
293.6569564287179
 22
-48.58696098077894
 32
0.0
 13
293.6569564287179
 23
-48.58696098077894
 33
0.0
  0
SOLID
  5
33D
330
336
100
AcDbEntity
  8
치수문자_일반주서
 62
     0
100
AcDbTrace
 10
112.8089564287179
 20
-48.03662764744561
 30
0.0
 11
112.8089564287179
 21
-49.13729431411227
 31
0.0
 12
109.5069564287179
 22
-48.58696098077894
 32
0.0
 13
109.5069564287179
 23
-48.58696098077894
 33
0.0
  0
MTEXT
  5
33E
330
336
100
AcDbEntity
  8
치수문자_일반주서
 62
     0
100
AcDbMText
 10
201.5819564287179
 20
-44.21196098077894
 30
0.0
 40
3.5
 41
0.0
 71
     2
 72
     1
  1
\A1;184.15 [7 1/4]
  7
SLDTEXTSTYLE0
 73
     1
 44
1.0
  0
POINT
  5
33F
330
336
100
AcDbEntity
  8
Defpoints
 62
     0
100
AcDbPoint
 10
293.6569564287179
 20
-83.04585461829416
 30
0.0
  0
POINT
  5
340
330
336
100
AcDbEntity
  8
Defpoints
 62
     0
100
AcDbPoint
 10
109.5069564287179
 20
-85.37929037631719
 30
0.0
  0
POINT
  5
341
330
336
100
AcDbEntity
  8
Defpoints
 62
     0
100
AcDbPoint
 10
109.5069564287179
 20
-48.58696098077894
 30
0.0
  0
ENDBLK
  5
338
330
336
100
AcDbEntity
  8
0
100
AcDbBlockEnd
  0
BLOCK
  5
343
330
342
100
AcDbEntity
  8
0
100
AcDbBlockBegin
  2
*D14
 70
     1
 10
0.0
 20
0.0
 30
0.0
  3
*D14
  1
*D15
  0
LINE
  5
345
330
342
100
AcDbEntity
  8
치수문자_일반주서
 62
     0
370
    -2
100
AcDbLine
 10
293.7194564287179
 20
-83.04585461829416
 30
0.0
 11
311.5104949946822
 21
-83.04585461829409
 31
0.0
  0
LINE
  5
346
330
342
100
AcDbEntity
  8
치수문자_일반주서
 62
     0
370
    -2
100
AcDbLine
 10
293.7194564287179
 20
-105.2708546182942
 30
0.0
 11
311.5104949946822
 21
-105.2708546182941
 31
0.0
  0
LINE
  5
347
330
342
100
AcDbEntity
  8
치수문자_일반주서
 62
     0
370
    -2
100
AcDbLine
 10
311.5104949946822
 20
-83.04585461829409
 30
0.0
 11
311.5104949946821
 21
-48.40475667524964
 31
0.0
  0
LINE
  5
348
330
342
100
AcDbEntity
  8
치수문자_일반주서
 62
     0
370
    -2
100
AcDbLine
 10
311.5104949946822
 20
-86.3478546182941
 30
0.0
 11
311.5104949946822
 21
-101.9688546182941
 31
0.0
  0
SOLID
  5
349
330
342
100
AcDbEntity
  8
치수문자_일반주서
 62
     0
100
AcDbTrace
 10
312.0608283280155
 20
-86.3478546182941
 30
0.0
 11
310.9601616613488
 21
-86.3478546182941
 31
0.0
 12
311.5104949946822
 22
-83.04585461829409
 32
0.0
 13
311.5104949946822
 23
-83.04585461829409
 33
0.0
  0
SOLID
  5
34A
330
342
100
AcDbEntity
  8
치수문자_일반주서
 62
     0
100
AcDbTrace
 10
310.9601616613489
 20
-101.9688546182941
 30
0.0
 11
312.0608283280156
 21
-101.9688546182941
 31
0.0
 12
311.5104949946822
 22
-105.2708546182941
 32
0.0
 13
311.5104949946822
 23
-105.2708546182941
 33
0.0
  0
MTEXT
  5
34B
330
342
100
AcDbEntity
  8
치수문자_일반주서
 62
     0
100
AcDbMText
 10
307.1354949946821
 20
-62.84225667524966
 30
0.0
 40
3.5
 41
0.0
 71
     2
 72
     1
  1
\A1;%%c22.23 [7/8]
  7
SLDTEXTSTYLE0
 11
-2.557634144468300E-15
 21
1.0
 31
0.0
 73
     1
 44
1.0
  0
POINT
  5
34C
330
342
100
AcDbEntity
  8
Defpoints
 62
     0
100
AcDbPoint
 10
293.6569564287179
 20
-83.04585461829416
 30
0.0
  0
POINT
  5
34D
330
342
100
AcDbEntity
  8
Defpoints
 62
     0
100
AcDbPoint
 10
293.6569564287179
 20
-105.2708546182942
 30
0.0
  0
POINT
  5
34E
330
342
100
AcDbEntity
  8
Defpoints
 62
     0
100
AcDbPoint
 10
311.5104949946823
 20
-105.2708546182941
 30
0.0
  0
ENDBLK
  5
344
330
342
100
AcDbEntity
  8
0
100
AcDbBlockEnd
  0
ENDSEC
  0
SECTION
  2
ENTITIES
  0
LINE
  5
96
330
1F
100
AcDbEntity
  8
외형선
  6
Continuous
 62
     1
370
    15
100
AcDbLine
 10
69.00324203915645
 20
1.729551409953208
 30
0.0
 11
68.82031794291906
 21
1.906187905664339
 31
0.0
  0
LINE
  5
97
330
1F
100
AcDbEntity
  8
외형선
  6
Continuous
 62
     1
370
    15
100
AcDbLine
 10
38.99088918168551
 20
1.815021874138522
 30
0.0
 11
38.89656454912092
 21
1.906269426470864
 31
0.0
  0
LINE
  5
98
330
1F
100
AcDbEntity
  8
외형선
  6
Continuous
 62
     1
370
    15
100
AcDbLine
 10
94.8392499934598
 20
-1.837091563947152
 30
0.0
 11
94.90971205078353
 21
-1.904807732962403
 31
0.0
  0
LINE
  5
99
330
1F
100
AcDbEntity
  8
외형선
  6
Continuous
 62
     1
370
    15
100
AcDbLine
 10
48.93394066190738
 20
1.843956228260262
 30
0.0
 11
48.86954779162513
 21
1.906693199935557
 31
0.0
  0
LINE
  5
9A
330
1F
100
AcDbEntity
  8
외형선
  6
Continuous
 62
     1
370
    15
100
AcDbLine
 10
104.7936591664709
 20
-1.818788136528658
 30
0.0
 11
104.8822679802479
 21
-1.903965662647753
 31
0.0
  0
LINE
  5
9B
330
1F
100
AcDbEntity
  8
외형선
  6
Continuous
 62
     1
370
    15
100
AcDbLine
 10
89.06734321701818
 20
1.619179114868483
 30
0.0
 11
88.77060982544776
 21
1.905399289269942
 31
0.0
  0
LINE
  5
9C
330
1F
100
AcDbEntity
  8
외형선
  6
Continuous
 62
     1
370
    15
100
AcDbLine
 10
84.85021008180149
 20
-1.82415859308134
 30
0.0
 11
84.932346260715
 21
-1.903540136786567
 31
0.0
  0
LINE
  5
9D
330
1F
100
AcDbEntity
  8
외형선
  6
Continuous
 62
     1
370
    15
100
AcDbLine
 10
58.92974130055125
 20
1.825788880150979
 30
0.0
 11
58.84623203530754
 21
1.906094066924768
 31
0.0
  0
LINE
  5
9E
330
1F
100
AcDbEntity
  8
외형선
  6
Continuous
 62
     1
370
    15
100
AcDbLine
 10
54.70569075619632
 20
-1.610408815343313
 30
0.0
 11
55.00872308768278
 21
-1.903586129533202
 31
0.0
  0
LINE
  5
9F
330
1F
100
AcDbEntity
  8
외형선
  6
Continuous
 62
     1
370
    15
100
AcDbLine
 10
85.6993890122841
 20
-9.52392507127611
 30
0.0
 11
88.00147317336004
 21
-9.52392507127611
 31
0.0
  0
LINE
  5
A0
330
1F
100
AcDbEntity
  8
외형선
  6
Continuous
 62
     1
370
    15
100
AcDbLine
 10
25.85199440314551
 20
-9.52392507127611
 30
0.0
 11
28.15624787509003
 21
-9.52392507127611
 31
0.0
  0
LINE
  5
A1
330
1F
100
AcDbEntity
  8
외형선
  6
Continuous
 62
     1
370
    15
100
AcDbLine
 10
58.07958245534777
 20
9.5260749287239
 30
0.0
 11
55.77751845207365
 21
9.5260749287239
 31
0.0
  0
LINE
  5
A2
330
1F
100
AcDbEntity
  8
외형선
  6
Continuous
 62
     1
370
    15
100
AcDbLine
 10
116.775
 20
9.5260749287239
 30
0.0
 11
115.62275765327
 21
9.5260749287239
 31
0.0
  0
LINE
  5
A3
330
1F
100
AcDbEntity
  8
외형선
  6
Continuous
 62
     1
370
    15
100
AcDbLine
 10
115.62275765327
 20
-9.52392507127611
 30
0.0
 11
116.775
 21
-9.52392507127611
 31
0.0
  0
LINE
  5
A4
330
1F
100
AcDbEntity
  8
외형선
  6
Continuous
 62
     1
370
    15
100
AcDbLine
 10
55.77751845207365
 20
-9.52392507127611
 30
0.0
 11
58.0795824553478
 21
-9.52392507127611
 31
0.0
  0
LINE
  5
A5
330
1F
100
AcDbEntity
  8
외형선
  6
Continuous
 62
     1
370
    15
100
AcDbLine
 10
28.15624787509011
 20
9.5260749287239
 30
0.0
 11
25.85199440314549
 21
9.5260749287239
 31
0.0
  0
LINE
  5
A6
330
1F
100
AcDbEntity
  8
외형선
  6
Continuous
 62
     1
370
    15
100
AcDbLine
 10
88.0014731733601
 20
9.5260749287239
 30
0.0
 11
85.69938901228413
 21
9.5260749287239
 31
0.0
  0
LINE
  5
A7
330
1F
100
AcDbEntity
  8
외형선
  6
Continuous
 62
     1
370
    15
100
AcDbLine
 10
65.75042750493066
 20
-9.52392507127611
 30
0.0
 11
68.05415925232231
 21
-9.52392507127611
 31
0.0
  0
LINE
  5
A8
330
1F
100
AcDbEntity
  8
외형선
  6
Continuous
 62
     1
370
    15
100
AcDbLine
 10
38.1289014316945
 20
9.5260749287239
 30
0.0
 11
35.82696733657311
 21
9.5260749287239
 31
0.0
  0
LINE
  5
A9
330
1F
100
AcDbEntity
  8
외형선
  6
Continuous
 62
     1
370
    15
100
AcDbLine
 10
97.97766572568203
 20
9.5260749287239
 30
0.0
 11
95.67498561636265
 21
9.5260749287239
 31
0.0
  0
LINE
  5
AA
330
1F
100
AcDbEntity
  8
외형선
  6
Continuous
 62
     1
370
    15
100
AcDbLine
 10
105.6500883563617
 20
-9.52392507127611
 30
0.0
 11
107.952015784694
 21
-9.52392507127611
 31
0.0
  0
LINE
  5
AB
330
1F
100
AcDbEntity
  8
외형선
  6
Continuous
 62
     1
370
    15
100
AcDbLine
 10
45.80131684978431
 20
-9.52392507127611
 30
0.0
 11
48.10400368735566
 21
-9.52392507127611
 31
0.0
  0
LINE
  5
AC
330
1F
100
AcDbEntity
  8
외형선
  6
Continuous
 62
     1
370
    15
100
AcDbLine
 10
18.18032075761698
 20
9.5260749287239
 30
0.0
 11
15.87729139673267
 21
9.5260749287239
 31
0.0
  0
LINE
  5
AD
330
1F
100
AcDbEntity
  8
외형선
  6
Continuous
 62
     1
370
    15
100
AcDbLine
 10
78.02857611770281
 20
9.5260749287239
 30
0.0
 11
75.72483732908161
 21
9.5260749287239
 31
0.0
  0
LINE
  5
AE
330
1F
100
AcDbEntity
  8
외형선
  6
Continuous
 62
     1
370
    15
100
AcDbLine
 10
75.72483732908167
 20
-9.52392507127611
 30
0.0
 11
78.02857611770278
 21
-9.52392507127611
 31
0.0
  0
LINE
  5
AF
330
1F
100
AcDbEntity
  8
외형선
  6
Continuous
 62
     1
370
    15
100
AcDbLine
 10
15.87729139673272
 20
-9.52392507127611
 30
0.0
 11
18.18032075761697
 21
-9.52392507127611
 31
0.0
  0
LINE
  5
B0
330
1F
100
AcDbEntity
  8
외형선
  6
Continuous
 62
     1
370
    15
100
AcDbLine
 10
48.10400368735563
 20
9.5260749287239
 30
0.0
 11
45.80131684978437
 21
9.5260749287239
 31
0.0
  0
LINE
  5
B1
330
1F
100
AcDbEntity
  8
외형선
  6
Continuous
 62
     1
370
    15
100
AcDbLine
 10
107.952015784694
 20
9.5260749287239
 30
0.0
 11
105.6500883563618
 21
9.5260749287239
 31
0.0
  0
LINE
  5
B2
330
1F
100
AcDbEntity
  8
외형선
  6
Continuous
 62
     1
370
    15
100
AcDbLine
 10
95.67498561636259
 20
-9.52392507127611
 30
0.0
 11
97.97766572568197
 21
-9.52392507127611
 31
0.0
  0
LINE
  5
B3
330
1F
100
AcDbEntity
  8
외형선
  6
Continuous
 62
     1
370
    15
100
AcDbLine
 10
35.82696733657308
 20
-9.52392507127611
 30
0.0
 11
38.12890143169447
 21
-9.52392507127611
 31
0.0
  0
LINE
  5
B4
330
1F
100
AcDbEntity
  8
외형선
  6
Continuous
 62
     1
370
    15
100
AcDbLine
 10
68.05415925232222
 20
9.5260749287239
 30
0.0
 11
65.75042750493057
 21
9.5260749287239
 31
0.0
  0
LINE
  5
B5
330
1F
100
AcDbEntity
  8
외형선
  6
Continuous
370
    15
100
AcDbLine
 10
-40.06999999999996
 20
-9.523925071276103
 30
0.0
 11
14.1750082556119
 21
-9.523925071276103
 31
0.0
  0
LINE
  5
B6
330
1F
100
AcDbEntity
  8
외형선
  6
Continuous
370
    15
100
AcDbLine
 10
14.1750082556119
 20
9.526074928723894
 30
0.0
 11
-8.481924999999976
 21
9.526074928723894
 31
0.0
  0
LINE
  5
B7
330
1F
100
AcDbEntity
  8
외형선
  6
Continuous
370
    15
100
AcDbLine
 10
-40.06999999999996
 20
9.526074928723894
 30
0.0
 11
-41.97499999999997
 21
7.6210749287239
 31
0.0
  0
LINE
  5
B8
330
1F
100
AcDbEntity
  8
외형선
  6
Continuous
370
    15
100
AcDbLine
 10
-41.97499999999997
 20
-7.61892507127611
 30
0.0
 11
-40.06999999999996
 21
-9.523925071276103
 31
0.0
  0
LINE
  5
B9
330
1F
100
AcDbEntity
  8
외형선
  6
Continuous
 62
     1
370
    15
100
AcDbLine
 10
116.775
 20
5.715017563150283
 30
0.0
 11
116.775
 21
9.456566726087715
 31
0.0
  0
SPLINE
  5
BA
330
1F
100
AcDbEntity
  8
외형선
  6
Continuous
 62
     1
370
    15
100
AcDbSpline
210
0.0
220
0.0
230
1.0
 70
     8
 71
     3
 72
    11
 73
     7
 74
     0
 42
0.000000001
 43
0.00000001
 40
0.0
 40
0.0
 40
0.0
 40
0.0
 40
0.2880202651219801
 40
0.5760512922195992
 40
0.8641005474768266
 40
1.0
 40
1.0
 40
1.0
 40
1.0
 10
15.17500000000004
 20
-9.053612404317237
 30
0.0
 10
15.83176540783532
 20
-9.221114513545924
 30
0.0
 10
17.1453207637698
 20
-9.556124990776853
 30
0.0
 10
19.11575266851808
 20
-9.528356733790703
 30
0.0
 10
20.73933322896589
 20
-9.256570771955435
 30
0.0
 10
21.70615474336376
 20
-8.84663084594624
 30
0.0
 10
22.01607552406903
 20
-8.715221997447292
 30
0.0
  0
SPLINE
  5
BB
330
1F
100
AcDbEntity
  8
외형선
  6
Continuous
 62
     1
370
    15
100
AcDbSpline
210
0.0
220
0.0
230
1.0
 70
     8
 71
     3
 72
    26
 73
    22
 74
     0
 42
0.000000001
 43
0.00000001
 40
0.0
 40
0.0
 40
0.0
 40
0.0
 40
0.0260852030348853
 40
0.0803556388228389
 40
0.1346493749671249
 40
0.1889425924338599
 40
0.2432126791785623
 40
0.2974688774092453
 40
0.3517204917111014
 40
0.4059768472918738
 40
0.4602472480291632
 40
0.5145409329010157
 40
0.5688342023754248
 40
0.6231043238781074
 40
0.677360539461166
 40
0.7316121536317594
 40
0.7858684915982233
 40
0.840138857317366
 40
0.8944324907212424
 40
0.9487258122354839
 40
1.0
 40
1.0
 40
1.0
 40
1.0
 10
48.10400368735563
 20
9.482133477374845
 30
0.0
 10
48.3975045408225
 20
9.491152125342982
 30
0.0
 10
49.30163584253555
 20
9.518934129486436
 30
0.0
 10
50.81684820909205
 20
9.186881845145663
 30
0.0
 10
52.65000073237726
 20
8.517452495917217
 30
0.0
 10
54.48314112101185
 20
7.514864474246701
 30
0.0
 10
56.31532473405857
 20
6.240118701169782
 30
0.0
 10
58.14684437741762
 20
4.734083184013794
 30
0.0
 10
59.97811873535839
 20
3.053928818895106
 30
0.0
 10
61.80964667726554
 20
1.261028214382527
 30
0.0
 10
63.64184483911403
 20
-0.5785950272300749
 30
0.0
 10
65.47500165741587
 20
-2.396720070568092
 30
0.0
 10
67.30814237805777
 20
-4.126403220905561
 30
0.0
 10
69.14032800968009
 20
-5.703928114009529
 30
0.0
 10
70.9718484397
 20
-7.070763370435412
 30
0.0
 10
72.80312289988284
 20
-8.1768967564066
 30
0.0
 10
74.63464960624569
 20
-8.98096911099258
 30
0.0
 10
76.46684727064215
 20
-9.455736944447183
 30
0.0
 10
78.29999809632545
 20
-9.574484836447956
 30
0.0
 10
80.09943243404666
 20
-9.37047621277124
 30
0.0
 10
81.28734343811352
 20
-8.95519439856495
 30
0.0
 10
81.8643123586289
 20
-8.753491830584721
 30
0.0
  0
SPLINE
  5
BC
330
1F
100
AcDbEntity
  8
외형선
  6
Continuous
 62
     1
370
    15
100
AcDbSpline
210
0.0
220
0.0
230
1.0
 70
     8
 71
     3
 72
    12
 73
     8
 74
     0
 42
0.000000001
 43
0.00000001
 40
0.0
 40
0.0
 40
0.0
 40
0.0
 40
0.1694455330308764
 40
0.377021800227307
 40
0.5846159408205484
 40
0.7922635543001996
 40
1.0
 40
1.0
 40
1.0
 40
1.0
 10
107.952015784694
 20
9.499696118228167
 30
0.0
 10
108.4503157266168
 20
9.487652320521276
 30
0.0
 10
109.5590492399557
 20
9.46085448046137
 30
0.0
 10
111.2781320798209
 20
9.000679608858528
 30
0.0
 10
113.1096601315073
 20
8.212594743214813
 30
0.0
 10
114.9418509993336
 20
7.126468688780953
 30
0.0
 10
116.1638632217128
 20
6.191252468736082
 30
0.0
 10
116.775
 20
5.723544358086142
 30
0.0
  0
SPLINE
  5
BD
330
1F
100
AcDbEntity
  8
외형선
  6
Continuous
370
    15
100
AcDbSpline
210
0.0
220
0.0
230
1.0
 70
    24
 71
     3
 72
    12
 73
     8
 74
     0
 42
0.000000001
 43
0.00000001
 40
0.0
 40
0.0
 40
0.0
 40
0.0
 40
0.1801823384248428
 40
0.4206717807667545
 40
0.6611612231086752
 40
0.9016506654505951
 40
1.0
 40
1.0
 40
1.0
 40
1.0
 10
15.17500000000008
 20
-4.251133563733293
 30
0.0
 10
15.17500000000007
 20
-4.460589282824674
 30
0.0
 10
15.17500000000004
 20
-4.949605637658506
 30
0.0
 10
15.17500000000001
 20
-6.048192080661287
 30
0.0
 10
15.17500000000008
 20
-7.330378905273299
 30
0.0
 10
15.17500000000005
 20
-8.363661288818925
 30
0.0
 10
15.17500000000005
 20
-8.89840179518777
 30
0.0
 10
15.17500000000005
 20
-9.053612404317244
 30
0.0
  0
SPLINE
  5
BE
330
1F
100
AcDbEntity
  8
외형선
  6
Continuous
 62
     1
370
    15
100
AcDbSpline
210
0.0
220
0.0
230
1.0
 70
     8
 71
     3
 72
    10
 73
     6
 74
     0
 42
0.000000001
 43
0.00000001
 40
0.0
 40
0.0
 40
0.0
 40
0.0
 40
0.3675785191377999
 40
0.7349998544178228
 40
1.0
 40
1.0
 40
1.0
 40
1.0
 10
116.7750000000001
 20
9.456566726087715
 30
0.0
 10
116.163864168813
 20
9.494272940613245
 30
0.0
 10
114.9418538402292
 20
9.569669245739883
 30
0.0
 10
113.2797283762537
 20
9.302592609076354
 30
0.0
 10
112.228692881392
 20
8.900169222392897
 30
0.0
 10
111.7882831742919
 20
8.731543931690563
 30
0.0
  0
SPLINE
  5
BF
330
1F
100
AcDbEntity
  8
외형선
  6
Continuous
 62
     1
370
    15
100
AcDbSpline
210
0.0
220
0.0
230
1.0
 70
     8
 71
     3
 72
    27
 73
    23
 74
     0
 42
0.000000001
 43
0.00000001
 40
0.0
 40
0.0
 40
0.0
 40
0.0
 40
0.0021122279359061
 40
0.0563633695918441
 40
0.1106191301035902
 40
0.1648888138191023
 40
0.2191816625539512
 40
0.273474823175719
 40
0.3277447163153657
 40
0.3820005818244853
 40
0.4362517235788689
 40
0.4905074667056489
 40
0.5447771156309618
 40
0.599069912326432
 40
0.6533631244157284
 40
0.7076330525732164
 40
0.7618889356964911
 40
0.8161400775821364
 40
0.8703958033566916
 40
0.9246654175243277
 40
0.9789581622125764
 40
0.9999999999999999
 40
0.9999999999999999
 40
0.9999999999999999
 40
0.9999999999999999
 10
85.69938901228413
 20
-9.517351923916424
 30
0.0
 10
85.67562248068195
 20
-9.519531014011875
 30
0.0
 10
85.0414287074435
 20
-9.577678554973641
 30
0.0
 10
83.79686182543217
 20
-9.36677254193815
 30
0.0
 10
81.96532869513973
 20
-8.862029726634594
 30
0.0
 10
80.13314465513915
 20
-7.989777060886275
 30
0.0
 10
78.3000010711615
 20
-6.83364962256406
 30
0.0
 10
76.46684647390973
 20
-5.422508321216714
 30
0.0
 10
74.63464981962566
 20
-3.8119695940614
 30
0.0
 10
72.80312284273575
 20
-2.060827571061122
 30
0.0
 10
70.97184845495389
 20
-0.233770592454517
 30
0.0
 10
69.14032800581316
 20
1.602028821585958
 30
0.0
 10
67.30814237826709
 20
3.379042597511987
 30
0.0
 10
65.47500166044922
 20
5.031335744432332
 30
0.0
 10
63.64184482677373
 20
6.498099223231579
 30
0.0
 10
61.80964672356663
 20
7.725169892464087
 30
0.0
 10
59.97811856254089
 20
8.667557576787882
 30
0.0
 10
58.14684502236754
 20
9.288851458503869
 30
0.0
 10
56.3153223265715
 20
9.573112644999696
 30
0.0
 10
54.48315011003372
 20
9.483921272514857
 30
0.0
 10
53.02426156125937
 20
9.195156401334412
 30
0.0
 10
52.17632045421608
 20
8.828129337512378
 30
0.0
 10
51.93948049783278
 20
8.725614347892153
 30
0.0
  0
SPLINE
  5
C0
330
1F
100
AcDbEntity
  8
외형선
  6
Continuous
 62
     1
370
    15
100
AcDbSpline
210
0.0
220
0.0
230
1.0
 70
     8
 71
     3
 72
    13
 73
     9
 74
     0
 42
0.000000001
 43
0.00000001
 40
0.0
 40
0.0
 40
0.0
 40
0.0
 40
0.0771270483506026
 40
0.2617345136266834
 40
0.4463207850815953
 40
0.6308906085522004
 40
0.8154487521863211
 40
1.0
 40
1.0
 40
1.0
 40
1.0
 10
25.85199440314553
 20
-9.474367537665335
 30
0.0
 10
25.57745650913519
 20
-9.486308448818807
 30
0.0
 10
24.64579837236517
 20
-9.526830530758284
 30
0.0
 10
23.05724634700685
 20
-9.166741656674878
 30
0.0
 10
21.08636165431502
 20
-8.421062305661053
 30
0.0
 10
19.11574964716337
 20
-7.288298131525398
 30
0.0
 10
17.14532151905568
 20
-5.863853127767053
 30
0.0
 10
15.83176565959415
 20
-4.714819236506773
 30
0.0
 10
15.17500000000004
 20
-4.140313024187107
 30
0.0
  0
SPLINE
  5
C1
330
1F
100
AcDbEntity
  8
외형선
  6
Continuous
 62
     1
370
    15
100
AcDbSpline
210
0.0
220
0.0
230
1.0
 70
     8
 71
     3
 72
    26
 73
    22
 74
     0
 42
0.000000001
 43
0.00000001
 40
0.0
 40
0.0
 40
0.0
 40
0.0
 40
0.0277073776412104
 40
0.0860766632822571
 40
0.1444511505162628
 40
0.2028323401904527
 40
0.261221718501752
 40
0.3155175650239598
 40
0.369790314162017
 40
0.4240492089005611
 40
0.4783035544487869
 40
0.5325626764822213
 40
0.5868358791879286
 40
0.6411323994173576
 40
0.6954282978855363
 40
0.7497010817182713
 40
0.803959993744575
 40
0.8582143390958978
 40
0.9124734434486529
 40
0.9667466110694125
 40
0.9999999999999999
 40
0.9999999999999999
 40
0.9999999999999999
 40
0.9999999999999999
 10
18.18032075761698
 20
9.47528596146002
 30
0.0
 10
18.49211858079061
 20
9.485905413260857
 30
0.0
 10
19.46076009515532
 20
9.518896156330785
 30
0.0
 10
21.0863641795127
 20
9.137236013363406
 30
0.0
 10
23.05724290792845
 20
8.367613457091705
 30
0.0
 10
25.02844777171035
 20
7.218846991058115
 30
0.0
 10
26.9539409644027
 20
5.801810004621824
 30
0.0
 10
28.83313626799467
 20
4.191671502280486
 30
0.0
 10
30.66531880662094
 20
2.466585118464697
 30
0.0
 10
32.49683605104161
 20
0.6507476534011511
 30
0.0
 10
34.32811057520291
 20
-1.18896241426205
 30
0.0
 10
36.15964036066557
 20
-2.984862509509375
 30
0.0
 10
37.99184167981266
 20
-4.670880387272816
 30
0.0
 10
39.82500244897224
 20
-6.184458153725899
 30
0.0
 10
41.65813917975226
 20
-7.469811387594088
 30
0.0
 10
43.49032153274364
 20
-8.479892004760835
 30
0.0
 10
45.32184068685817
 20
-9.176020339660164
 30
0.0
 10
47.15311300481779
 20
-9.537426225101031
 30
0.0
 10
48.98464964695699
 20
-9.533167837289344
 30
0.0
 10
50.58004083329603
 20
-9.2684347604002
 30
0.0
 10
51.56519670666094
 20
-8.873506852776437
 30
0.0
 10
51.93948049783278
 20
-8.723464490444364
 30
0.0
  0
SPLINE
  5
C2
330
1F
100
AcDbEntity
  8
외형선
  6
Continuous
 62
     1
370
    15
100
AcDbSpline
210
0.0
220
0.0
230
1.0
 70
     8
 71
     3
 72
    27
 73
    23
 74
     0
 42
0.000000001
 43
0.00000001
 40
0.0
 40
0.0
 40
0.0
 40
0.0
 40
0.0080381972813417
 40
0.0623311316215408
 40
0.1166009009058768
 40
0.1708567469644942
 40
0.2251079741600207
 40
0.2793639076347349
 40
0.3336338513581588
 40
0.387927045922615
 40
0.4422200323344322
 40
0.4964898364415446
 40
0.5507456999178985
 40
0.6049969270477945
 40
0.6592528429738064
 40
0.7135227517443729
 40
0.767815894450133
 40
0.8221089329657238
 40
0.8763787719281331
 40
0.930634652854965
 40
0.984885879952046
 40
1.0
 40
1.0
 40
1.0
 40
1.0
 10
78.02857611770278
 20
9.503882451192805
 30
0.0
 10
78.11905148767343
 20
9.510988817903954
 30
0.0
 10
78.82063070957662
 20
9.566094193315898
 30
0.0
 10
80.1331555590726
 20
9.331199726455498
 30
0.0
 10
81.9653280801099
 20
8.783791226378868
 30
0.0
 10
83.79685338926787
 20
7.879087323567385
 30
0.0
 10
85.6281267148722
 20
6.692857519074097
 30
0.0
 10
87.45965305119907
 20
5.257400090762822
 30
0.0
 10
89.2918479995325
 20
3.62847056109795
 30
0.0
 10
91.12500084197333
 20
1.865661976860422
 30
0.0
 10
92.95814559430774
 20
0.0341163840938621
 30
0.0
 10
94.79033435017831
 20
-1.798770024960379
 30
0.0
 10
96.62185666081515
 20
-3.564997859230263
 30
0.0
 10
98.45313103867367
 20
-5.19964572408696
 30
0.0
 10
100.2846561439497
 20
-6.642593829986309
 30
0.0
 10
102.1168496411016
 20
-7.840556583980595
 30
0.0
 10
103.950000297211
 20
-8.749641115759228
 30
0.0
 10
105.7831476604001
 20
-9.334190715469088
 30
0.0
 10
107.615335793302
 20
-9.580917449031004
 30
0.0
 10
109.44686719787
 20
-9.449820227579615
 30
0.0
 10
110.8377276139714
 20
-9.154623143425432
 30
0.0
 10
111.6182204202487
 20
-8.805471296472698
 30
0.0
 10
111.7882831742919
 20
-8.729394074242775
 30
0.0
  0
SPLINE
  5
C3
330
1F
100
AcDbEntity
  8
외형선
  6
Continuous
 62
     1
370
    15
100
AcDbSpline
210
0.0
220
0.0
230
1.0
 70
     8
 71
     3
 72
    27
 73
    23
 74
     0
 42
0.000000001
 43
0.00000001
 40
0.0
 40
0.0
 40
0.0
 40
0.0
 40
0.0201703411508671
 40
0.0744414867385291
 40
0.1286986565585209
 40
0.1829511549560763
 40
0.2372083072924382
 40
0.2914794179914656
 40
0.345773728787323
 40
0.4000681437757896
 40
0.4543393242846084
 40
0.5085965116209713
 40
0.5628490100513432
 40
0.6171061449368186
 40
0.6713772207797315
 40
0.7256714794705936
 40
0.7799659463189714
 40
0.8342371617814678
 40
0.8884943666669435
 40
0.9427468651629473
 40
0.9970039826302782
 40
0.9999999999999999
 40
0.9999999999999999
 40
0.9999999999999999
 40
0.9999999999999999
 10
115.62275765327
 20
-9.482803202697482
 30
0.0
 10
115.395725418937
 20
-9.493563725575209
 30
0.0
 10
114.557830961183
 20
-9.533276951797344
 30
0.0
 10
113.1096715213825
 20
-9.236870368344258
 30
0.0
 10
111.2781318664771
 20
-8.606634446214636
 30
0.0
 10
109.4468616392469
 20
-7.636110122622009
 30
0.0
 10
107.6153372831908
 20
-6.390033899961543
 30
0.0
 10
105.7831472609489
 20
-4.906368324077112
 30
0.0
 10
103.9500004042756
 20
-3.242201961094537
 30
0.0
 10
102.1168496123866
 20
-1.458286252560961
 30
0.0
 10
100.2846561517908
 20
0.3795491791110218
 30
0.0
 10
98.45313103601136
 20
2.203156727405806
 30
0.0
 10
96.62185666362511
 20
3.945490786381706
 30
0.0
 10
94.79033434159892
 20
5.542413113116599
 30
0.0
 10
92.95814562582913
 20
6.935210279242307
 30
0.0
 10
91.12500072441598
 20
8.07194618457616
 30
0.0
 10
89.29184843814173
 20
8.911651841658728
 30
0.0
 10
87.45965141525782
 20
9.420150956065285
 30
0.0
 10
85.62813281839368
 20
9.590626774538626
 30
0.0
 10
83.79683061177701
 20
9.37216475818907
 30
0.0
 10
82.54229968139737
 20
9.076025755030571
 30
0.0
 10
81.89802672175378
 20
8.77157346789248
 30
0.0
 10
81.86431235862892
 20
8.75564168803251
 30
0.0
  0
SPLINE
  5
C4
330
1F
100
AcDbEntity
  8
외형선
  6
Continuous
 62
     1
370
    15
100
AcDbSpline
210
0.0
220
0.0
230
1.0
 70
     8
 71
     3
 72
    26
 73
    22
 74
     0
 42
0.000000001
 43
0.00000001
 40
0.0
 40
0.0
 40
0.0
 40
0.0
 40
0.038335501535815
 40
0.0926280824693769
 40
0.1469211820744087
 40
0.2011909815962809
 40
0.2554467187228909
 40
0.3096976971434045
 40
0.3639532419554987
 40
0.418222657713164
 40
0.4725151866718194
 40
0.5268083373531386
 40
0.5810781719577817
 40
0.6353339267639738
 40
0.689584905381378
 40
0.7438404329067857
 40
0.7981098139719262
 40
0.8524022909878346
 40
0.9107880457553327
 40
0.9691656123938938
 40
1.0
 40
1.0
 40
1.0
 40
1.0
 10
55.77751845207365
 20
-9.487421847973149
 30
0.0
 10
55.34613566298631
 20
-9.48497610024347
 30
0.0
 10
54.30380782162183
 20
-9.479066566956368
 30
0.0
 10
52.64999482943281
 20
-9.063312820809164
 30
0.0
 10
50.81684519270429
 20
-8.315444312169367
 30
0.0
 10
48.98464300189177
 20
-7.248034835742599
 30
0.0
 10
47.15311478498292
 20
-5.916811568265423
 30
0.0
 10
45.32184020984069
 20
-4.366495115325808
 30
0.0
 10
43.49032166060368
 20
-2.655296652944595
 30
0.0
 10
41.65813914545559
 20
-0.8457895095935366
 30
0.0
 10
39.82500245822641
 20
0.9948389670113593
 30
0.0
 10
37.9918416771011
 20
2.798802990192894
 30
0.0
 10
36.15964036226084
 20
4.499670825632388
 30
0.0
 10
34.32811057153309
 20
6.034381237616518
 30
0.0
 10
32.49683606412543
 20
7.346455729993762
 30
0.0
 10
30.66531875794536
 20
8.388015233406605
 30
0.0
 10
28.83313644969431
 20
9.119140522628719
 30
0.0
 10
26.95394026436817
 20
9.52840479406044
 30
0.0
 10
25.02845060427438
 20
9.54676644701764
 30
0.0
 10
23.36716845949589
 20
9.278069306329368
 30
0.0
 10
22.3631091997358
 20
8.861389259180273
 30
0.0
 10
22.01607552406904
 20
8.717371854895088
 30
0.0
  0
LINE
  5
C5
330
1F
100
AcDbEntity
  8
외형선
  6
Continuous
 62
     1
370
    15
100
AcDbLine
 10
116.775
 20
-9.454416868639921
 30
0.0
 11
116.775
 21
-5.709629152668964
 31
0.0
  0
SPLINE
  5
C6
330
1F
100
AcDbEntity
  8
외형선
  6
Continuous
 62
     1
370
    15
100
AcDbSpline
210
0.0
220
0.0
230
1.0
 70
     8
 71
     3
 72
    27
 73
    23
 74
     0
 42
0.000000001
 43
0.00000001
 40
0.0
 40
0.0
 40
0.0
 40
0.0
 40
0.0200514487530357
 40
0.074322342748129
 40
0.1285793828172783
 40
0.1828318738516091
 40
0.2370891412078793
 40
0.2913604887551191
 40
0.3456551530290443
 40
0.3999491955629722
 40
0.4542201242515575
 40
0.5084771816078755
 40
0.56272967244531
 40
0.6169869221215052
 40
0.6712582345849964
 40
0.7255528477812103
 40
0.7798469422914943
 40
0.8341179057060961
 40
0.8883749803823258
 40
0.9426274710556805
 40
0.996884703084541
 40
1.0
 40
1.0
 40
1.0
 40
1.0
 10
28.1562478750901
 20
9.485053393156985
 30
0.0
 10
28.38194110975241
 20
9.4958239838402
 30
0.0
 10
29.2184916328146
 20
9.535746063397498
 30
0.0
 10
30.66530598834285
 20
9.240017767330388
 30
0.0
 10
32.49683948502568
 20
8.610575155664456
 30
0.0
 10
34.32810965487012
 20
7.640692459974804
 30
0.0
 10
36.15964060790809
 20
6.395189837571799
 30
0.0
 10
37.99184161142237
 20
4.911976954942623
 30
0.0
 10
39.82500247515216
 20
3.248149527430253
 30
0.0
 10
41.65813914344496
 20
1.46441654469097
 30
0.0
 10
43.49032165173386
 20
-0.3733694377578977
 30
0.0
 10
45.32184024731841
 20
-2.197079901520969
 30
0.0
 10
47.15311464394568
 20
-3.939663410626764
 30
0.0
 10
48.98464352867553
 20
-5.536972508320377
 30
0.0
 10
50.8168432257173
 20
-6.930279433790353
 30
0.0
 10
52.65000217376519
 20
-8.067619542827691
 30
0.0
 10
54.48314034002296
 20
-8.908016155151588
 30
0.0
 10
56.31532641630289
 20
-9.417264674957709
 30
0.0
 10
58.14683843083699
 20
-9.588484117395355
 30
0.0
 10
59.97814083889139
 20
-9.370897809640834
 30
0.0
 10
61.23401632550325
 20
-9.074681759495526
 30
0.0
 10
61.87963448594371
 20
-8.769734772915184
 30
0.0
 10
61.91469119863869
 20
-8.753176318474484
 30
0.0
  0
SPLINE
  5
C7
330
1F
100
AcDbEntity
  8
외형선
  6
Continuous
 62
     1
370
    15
100
AcDbSpline
210
0.0
220
0.0
230
1.0
 70
     8
 71
     3
 72
    23
 73
    19
 74
     0
 42
0.000000001
 43
0.00000001
 40
0.0
 40
0.0
 40
0.0
 40
0.0
 40
0.044840511067549
 40
0.1085433906494235
 40
0.1722460260032212
 40
0.2359214612709512
 40
0.2995805398234496
 40
0.3632341784930589
 40
0.4268933185853926
 40
0.4905688766560534
 40
0.5542716953914757
 40
0.6179743918792782
 40
0.6816498680431611
 40
0.745308967070522
 40
0.8089626057016289
 40
0.8726217252422689
 40
0.9362972423404623
 40
1.0
 40
1.0
 40
1.0
 40
1.0
 10
88.00147317336013
 20
9.48941301178101
 30
0.0
 10
88.43152151557004
 20
9.487130952080134
 30
0.0
 10
89.47252002551807
 20
9.481606873703228
 30
0.0
 10
91.12500818822494
 20
9.06673005235142
 30
0.0
 10
92.95814362684976
 20
8.319605439597257
 30
0.0
 10
94.79033487695382
 20
7.252819235007093
 30
0.0
 10
96.62185652028762
 20
5.922135201340856
 30
0.0
 10
98.45313107411945
 20
4.372235927632675
 30
0.0
 10
100.2846561427
 20
2.661320950129435
 30
0.0
 10
102.1168496106293
 20
0.8519527042290999
 30
0.0
 10
103.9500004204091
 20
-0.988680806171937
 30
0.0
 10
105.7831471981861
 20
-2.792778060788887
 30
0.0
 10
107.6153375179741
 20
-4.494043986388855
 30
0.0
 10
109.4468607631099
 20
-6.028780201141548
 30
0.0
 10
111.2781351361524
 20
-7.342891939271218
 30
0.0
 10
113.1096593162331
 20
-8.379514652800491
 30
0.0
 10
114.9418512032757
 20
-9.132173246278635
 30
0.0
 10
116.1638632897032
 20
-9.34698701480814
 30
0.0
 10
116.775
 20
-9.45441686863992
 30
0.0
  0
SPLINE
  5
C8
330
1F
100
AcDbEntity
  8
외형선
  6
Continuous
 62
     1
370
    15
100
AcDbSpline
210
0.0
220
0.0
230
1.0
 70
     8
 71
     3
 72
    21
 73
    17
 74
     0
 42
0.000000001
 43
0.00000001
 40
0.0
 40
0.0
 40
0.0
 40
0.0
 40
0.0735063475577491
 40
0.1469812623448692
 40
0.2204372560584145
 40
0.2938869253732075
 40
0.3673428954165648
 40
0.4408177629697555
 40
0.5143240399416933
 40
0.5878304579746497
 40
0.6613054200397291
 40
0.7347614374677891
 40
0.8082111068270104
 40
0.8816670532445092
 40
0.9551418736077979
 40
1.0
 40
1.0
 40
1.0
 40
1.0
 10
116.7750000000001
 20
-5.721394500638303
 30
0.0
 10
116.1638632897044
 20
-5.212665590750369
 30
0.0
 10
114.941851203279
 20
-4.195425313536036
 30
0.0
 10
113.10965931622
 20
-2.457986539856157
 30
0.0
 10
111.2781351362017
 20
-0.6452557799971373
 30
0.0
 10
109.4468607629255
 20
1.195298806073083
 30
0.0
 10
107.6153375186624
 20
2.99079512221702
 30
0.0
 10
105.7831471956162
 20
4.676559590069473
 30
0.0
 10
103.9500004300042
 20
6.189686877458076
 30
0.0
 10
102.1168495748266
 20
7.474484086820752
 30
0.0
 10
100.284656276239
 20
8.483920299197306
 30
0.0
 10
98.45313057589944
 20
9.17932920429754
 30
0.0
 10
96.6218583795763
 20
9.539986389986613
 30
0.0
 10
94.79032793655523
 20
9.534910522630264
 30
0.0
 10
93.19627760224044
 20
9.269875718130454
 30
0.0
 10
92.2124615392138
 20
8.875164530850004
 30
0.0
 10
91.83951261406695
 20
8.725535836450739
 30
0.0
  0
SPLINE
  5
C9
330
1F
100
AcDbEntity
  8
외형선
  6
Continuous
 62
     1
370
    15
100
AcDbSpline
210
0.0
220
0.0
230
1.0
 70
     8
 71
     3
 72
    27
 73
    23
 74
     0
 42
0.000000001
 43
0.00000001
 40
0.0
 40
0.0
 40
0.0
 40
0.0
 40
0.0081565701549537
 40
0.0624498448632834
 40
0.1167198356129503
 40
0.170975781312205
 40
0.2252269857683621
 40
0.2794827741187159
 40
0.3337524508781688
 40
0.3880452581849118
 40
0.4423385841652874
 40
0.4966086099653534
 40
0.550864573311524
 40
0.6051157779317569
 40
0.6593715489626099
 40
0.7136411909968691
 40
0.7679339463284889
 40
0.8222273233853648
 40
0.876497384268348
 40
0.9307533652941746
 40
0.9850045701112987
 40
1.0
 40
1.0
 40
1.0
 40
1.0
 10
65.75042750493066
 20
-9.501463111025013
 30
0.0
 10
65.65862008693234
 20
-9.508648489303976
 30
0.0
 10
64.95570710974063
 20
-9.563662514841761
 30
0.0
 10
63.64183263600867
 20
-9.328245014718746
 30
0.0
 10
61.80964994385135
 20
-8.78000026635987
 30
0.0
 10
59.97811786660733
 20
-7.874645621566992
 30
0.0
 10
58.14684458653494
 20
-6.687817046682758
 30
0.0
 10
56.31532476638228
 20
-5.251877718333368
 30
0.0
 10
54.48314078237836
 20
-3.622592348820959
 30
0.0
 10
52.65000205520226
 20
-1.859553048288448
 30
0.0
 10
50.81684325750762
 20
-0.0279389862391208
 30
0.0
 10
48.984643520026
 20
1.804880979245876
 30
0.0
 10
47.15311464676764
 20
3.570892419363723
 30
0.0
 10
45.3218402446784
 20
5.205184098151376
 30
0.0
 10
43.49032165947352
 20
6.647649653712055
 30
0.0
 10
41.65813911511396
 20
7.845020958834182
 30
0.0
 10
39.82500258078258
 20
8.753437514733568
 30
0.0
 10
37.99184121731739
 20
9.337245319996759
 30
0.0
 10
36.15964207785056
 20
9.583224292985054
 30
0.0
 10
34.32810417068358
 20
9.451284007379124
 30
0.0
 10
32.93857746563096
 20
9.155997155929331
 30
0.0
 10
32.15942105491187
 20
8.807228128274147
 30
0.0
 10
31.99069393367478
 20
8.731701837014336
 30
0.0
  0
SPLINE
  5
CA
330
1F
100
AcDbEntity
  8
외형선
  6
Continuous
 62
     1
370
    15
100
AcDbSpline
210
0.0
220
0.0
230
1.0
 70
     8
 71
     3
 72
    16
 73
    12
 74
     0
 42
0.000000001
 43
0.00000001
 40
0.0
 40
0.0
 40
0.0
 40
0.0
 40
0.1171780665722953
 40
0.2343605115430944
 40
0.3515503724521405
 40
0.4687506767638883
 40
0.5859644377767816
 40
0.703194639375393
 40
0.8122061277291561
 40
0.9211712427342267
 40
1.0
 40
1.0
 40
1.0
 40
1.0
 10
15.17500000000004
 20
-1.96624984613815
 30
0.0
 10
15.83176567694473
 20
-2.600825011075516
 30
0.0
 10
17.14532157110812
 20
-3.869999052068156
 30
0.0
 10
19.1157494389389
 20
-5.586192765867707
 30
0.0
 10
21.08636243524032
 20
-7.070075625994083
 30
0.0
 10
23.05724343112794
 20
-8.251003539955327
 30
0.0
 10
25.0284474233985
 20
-9.079470272704862
 30
0.0
 10
26.95394180600015
 20
-9.513369774693668
 30
0.0
 10
28.83313346959644
 20
-9.551565203794688
 30
0.0
 10
30.49658529244671
 20
-9.303901083609762
 30
0.0
 10
31.548950756763
 20
-8.89936211979029
 30
0.0
 10
31.9906939336747
 20
-8.729551979566542
 30
0.0
  0
SPLINE
  5
CB
330
1F
100
AcDbEntity
  8
외형선
  6
Continuous
 62
     1
370
    15
100
AcDbSpline
210
0.0
220
0.0
230
1.0
 70
     8
 71
     3
 72
    27
 73
    23
 74
     0
 42
0.000000001
 43
0.00000001
 40
0.0
 40
0.0
 40
0.0
 40
0.0
 40
0.0019936965729788
 40
0.0562448217494338
 40
0.1105006881620583
 40
0.1647705996045707
 40
0.2190637949717195
 40
0.27335657494517
 40
0.3276262071555932
 40
0.3818819335717661
 40
0.4361330586169597
 40
0.4903889074154347
 40
0.5446587838401161
 40
0.5989519277397529
 40
0.6532447597525667
 40
0.7075144267531773
 40
0.7617701705543107
 40
0.8160212955010585
 40
0.8702771267181241
 40
0.9245469681574938
 40
0.9788400603940742
 40
0.9999999999999999
 40
0.9999999999999999
 40
0.9999999999999999
 40
0.9999999999999999
 10
58.07958245534777
 20
9.519856656891514
 30
0.0
 10
58.10201526641943
 20
9.521918922599502
 30
0.0
 10
58.73487458772478
 20
9.580098170494082
 30
0.0
 10
59.97810956672423
 20
9.36962356074586
 30
0.0
 10
61.80964913473678
 20
8.865747038096886
 30
0.0
 10
63.64184418032679
 20
7.994141551468506
 30
0.0
 10
65.47500183368058
 20
6.838630332880267
 30
0.0
 10
67.3081423319318
 20
5.427977747212486
 30
0.0
 10
69.14032801799894
 20
3.817819149714799
 30
0.0
 10
70.97184845252525
 20
2.066917447723742
 30
0.0
 10
72.80312284026735
 20
0.2399539493518613
 30
0.0
 10
74.63464983193063
 20
-1.595902585614221
 30
0.0
 10
76.46684642713711
 20
-3.373123355275508
 30
0.0
 10
78.30000124602279
 20
-5.025750020667135
 30
0.0
 10
80.13314400262006
 20
-6.492987887024573
 30
0.0
 10
81.9653311289675
 20
-7.72063186610004
 30
0.0
 10
83.79685274505141
 20
-8.663683228448415
 30
0.0
 10
85.62812624355098
 20
-9.285710357403426
 30
0.0
 10
87.45965558127497
 20
-9.570722308490268
 30
0.0
 10
89.29183834613217
 20
-9.48236161582458
 30
0.0
 10
90.75207349347974
 20
-9.19376269811465
 30
0.0
 10
91.60134432494615
 20
-8.826406751671655
 30
0.0
 10
91.83951261406689
 20
-8.72338597900295
 30
0.0
  0
SPLINE
  5
CC
330
1F
100
AcDbEntity
  8
외형선
  6
Continuous
370
    15
100
AcDbSpline
210
0.0
220
0.0
230
1.0
 70
    24
 71
     3
 72
    24
 73
    20
 74
     0
 42
0.000000001
 43
0.00000001
 40
0.0
 40
0.0
 40
0.0
 40
0.0
 40
0.1250000000000002
 40
0.1250000000000002
 40
0.1875000000000002
 40
0.1875000000000002
 40
0.2500000000000003
 40
0.2500000000000003
 40
0.3750000000000002
 40
0.3750000000000002
 40
0.5000000000000002
 40
0.5000000000000002
 40
0.6250000000000002
 40
0.6250000000000002
 40
0.7500000000000001
 40
0.7500000000000001
 40
0.875
 40
0.875
 40
1.0
 40
1.0
 40
1.0
 40
1.0
 10
15.17500000000004
 20
5.358765575967759
 30
0.0
 10
15.17500000000006
 20
5.219293924239355
 30
0.0
 10
15.17500000000006
 20
5.0479328356025
 30
0.0
 10
15.17500000000006
 20
4.781378982570786
 30
0.0
 10
15.17500000000006
 20
4.694112274228744
 30
0.0
 10
15.17500000000006
 20
4.49546745056046
 30
0.0
 10
15.17500000000005
 20
4.384909660789337
 30
0.0
 10
15.17500000000004
 20
4.014267937729903
 30
0.0
 10
15.17500000000004
 20
3.714255401117356
 30
0.0
 10
15.17500000000004
 20
2.992997351398914
 30
0.0
 10
15.17500000000005
 20
2.570290821015321
 30
0.0
 10
15.17500000000003
 20
1.63532362947285
 30
0.0
 10
15.17500000000004
 20
1.123020527807334
 30
0.0
 10
15.17500000000003
 20
0.1220689355774901
 30
0.0
 10
15.17500000000002
 20
-0.3629903175791263
 30
0.0
 10
15.17500000000001
 20
-1.163707351814493
 30
0.0
 10
15.17500000000003
 20
-1.476382012946259
 30
0.0
 10
15.17500000000005
 20
-1.875240169547072
 30
0.0
 10
15.17500000000005
 20
-1.963198031059539
 30
0.0
 10
15.17500000000005
 20
-1.966249846138149
 30
0.0
  0
SPLINE
  5
CD
330
1F
100
AcDbEntity
  8
외형선
  6
Continuous
 62
     1
370
    15
100
AcDbSpline
210
0.0
220
0.0
230
1.0
 70
     8
 71
     3
 72
    26
 73
    22
 74
     0
 42
0.000000001
 43
0.00000001
 40
0.0
 40
0.0
 40
0.0
 40
0.0
 40
0.0262041199350563
 40
0.0804743311599125
 40
0.1347677248633811
 40
0.1890613267210492
 40
0.2433316775632646
 40
0.2975880180516685
 40
0.35183965222558
 40
0.4060959052972318
 40
0.4603660816990512
 40
0.5146594233305106
 40
0.5689530768517204
 40
0.6232234626795754
 40
0.6774798207495539
 40
0.731731455021912
 40
0.7859876907084399
 40
0.8402578323197442
 40
0.8945511219113526
 40
0.948844826900558
 40
1.0
 40
1.0
 40
1.0
 40
1.0
 10
95.67498561636259
 20
-9.479969694303215
 30
0.0
 10
95.38014719236085
 20
-9.488928630953845
 30
0.0
 10
94.47468175293416
 20
-9.516442031008875
 30
0.0
 10
92.95814071090491
 20
-9.183644340901283
 30
0.0
 10
91.12500214676203
 20
-8.51343607943739
 30
0.0
 10
89.29184766491588
 20
-7.510217473397065
 30
0.0
 10
87.45965308547777
 20
-6.234906202020358
 30
0.0
 10
85.62812691215646
 20
-4.72842477011715
 30
0.0
 10
83.79685256589578
 20
-3.047954077275749
 30
0.0
 10
81.96533117696688
 20
-1.254880261749373
 30
0.0
 10
80.13314398982574
 20
0.5847650097949877
 30
0.0
 10
78.30000124917314
 20
2.402777418653091
 30
0.0
 10
76.4668464273326
 20
4.132187606727903
 30
0.0
 10
74.63464982800214
 20
5.709318301267286
 30
0.0
 10
72.803122855781
 20
7.07563560084173
 30
0.0
 10
70.97184839440096
 20
8.181150164073916
 30
0.0
 10
69.14032823502778
 20
8.984522481386582
 30
0.0
 10
67.30814152157744
 20
9.458549061053215
 30
0.0
 10
65.47500485938826
 20
9.576495327087846
 30
0.0
 10
63.67689905439578
 20
9.371994971884611
 30
0.0
 10
62.4903215684442
 20
8.956762848621057
 30
0.0
 10
61.91469119863864
 20
8.75532617592228
 30
0.0
  0
SPLINE
  5
CE
330
1F
100
AcDbEntity
  8
외형선
  6
Continuous
 62
     1
370
    15
100
AcDbSpline
210
0.0
220
0.0
230
1.0
 70
     8
 71
     3
 72
    18
 73
    14
 74
     0
 42
0.000000001
 43
0.00000001
 40
0.0
 40
0.0
 40
0.0
 40
0.0
 40
0.0725921098077716
 40
0.1612818241333117
 40
0.2499789750316404
 40
0.3386987737514939
 40
0.4274563298229732
 40
0.5229055925455671
 40
0.6183414692826033
 40
0.7137663895239112
 40
0.809182806708203
 40
0.9045931858082095
 40
1.0
 40
1.0
 40
1.0
 40
1.0
 10
35.82696733657308
 20
-9.497790777824749
 30
0.0
 10
35.32732967853904
 20
-9.485571372146634
 30
0.0
 10
34.21725761827233
 20
-9.458422856380805
 30
0.0
 10
32.49683911473452
 20
-8.99649045093051
 30
0.0
 10
30.66531798758328
 20
-8.210914540345073
 30
0.0
 10
28.83313647964046
 20
-7.112075282529162
 30
0.0
 10
26.95394093133847
 20
-5.71968099579261
 30
0.0
 10
25.02844766488283
 20
-4.060089024694777
 30
0.0
 10
23.05724336643585
 20
-2.188169932519591
 30
0.0
 10
21.08636245256606
 20
-0.2217006549713083
 30
0.0
 10
19.11574943431923
 20
1.749763386831424
 30
0.0
 10
17.145321572263
 20
3.662988745735983
 30
0.0
 10
15.83176567732971
 20
4.793513672834006
 30
0.0
 10
15.17500000000005
 20
5.358765575967753
 30
0.0
  0
SPLINE
  5
CF
330
1F
100
AcDbEntity
  8
외형선
  6
Continuous
 62
     1
370
    15
100
AcDbSpline
210
0.0
220
0.0
230
1.0
 70
     8
 71
     3
 72
    22
 73
    18
 74
     0
 42
0.000000001
 43
0.00000001
 40
0.0
 40
0.0
 40
0.0
 40
0.0
 40
0.07354132555282
 40
0.1470853990024024
 40
0.2206341267183067
 40
0.2941894087468092
 40
0.367753136243553
 40
0.4413271819039423
 40
0.5097431371123806
 40
0.5781299882603667
 40
0.6464993820513497
 40
0.7148630435953748
 40
0.7832327237912677
 40
0.8516201464611293
 40
0.9200369505802306
 40
0.9884529712436428
 40
1.0
 40
1.0
 40
1.0
 40
1.0
 10
15.17500000000004
 20
7.088437486902993
 30
0.0
 10
15.8317656773005
 20
6.620291608216933
 30
0.0
 10
17.14532157217541
 20
5.683982358414063
 30
0.0
 10
19.11574943466941
 20
3.956113833430129
 30
0.0
 10
21.08636245125246
 20
2.081193535949899
 30
0.0
 10
23.05724337134074
 20
0.1116268507334901
 30
0.0
 10
25.02844764657367
 20
-1.86117604862482
 30
0.0
 10
26.95394099765467
 20
-3.71084444590283
 30
0.0
 10
28.83313625142122
 20
-5.367987371771312
 30
0.0
 10
30.66531884087892
 20
-6.786781866264544
 30
0.0
 10
32.4968359306112
 20
-7.954800962182618
 30
0.0
 10
34.32811102265596
 20
-8.829965240601387
 30
0.0
 10
36.15963869092576
 20
-9.377387685492137
 30
0.0
 10
37.99184791413958
 20
-9.586757988992712
 30
0.0
 10
39.82497917137526
 20
-9.413212458465262
 30
0.0
 10
41.15047021860144
 20
-9.115490480085544
 30
0.0
 10
41.86454793320076
 20
-8.786694945690115
 30
0.0
 10
41.9676640094958
 20
-8.73921537208487
 30
0.0
  0
SPLINE
  5
D0
330
1F
100
AcDbEntity
  8
외형선
  6
Continuous
 62
     1
370
    15
100
AcDbSpline
210
0.0
220
0.0
230
1.0
 70
     8
 71
     3
 72
    26
 73
    22
 74
     0
 42
0.000000001
 43
0.00000001
 40
0.0
 40
0.0
 40
0.0
 40
0.0
 40
0.0321788858130471
 40
0.0864377943448276
 40
0.1406921012357568
 40
0.1949511321570172
 40
0.2492241915272086
 40
0.3035205197370003
 40
0.3578165360416766
 40
0.4120893859755145
 40
0.4663483118932751
 40
0.5206026186857527
 40
0.5748616320245726
 40
0.6291346564074004
 40
0.6834309329511057
 40
0.7377270013303561
 40
0.791999886088947
 40
0.8462588294254327
 40
0.9005131361522764
 40
0.9547721319413975
 40
1.0
 40
1.0
 40
1.0
 40
1.0
 10
68.05415925232222
 20
9.483580411192225
 30
0.0
 10
68.41626522516633
 20
9.48826339552883
 30
0.0
 10
69.38894158797076
 20
9.500842663790609
 30
0.0
 10
70.97183785162805
 20
9.129023033234965
 30
0.0
 10
72.80312568085156
 20
8.420454059475897
 30
0.0
 10
74.63464907080017
 20
7.385760820476074
 30
0.0
 10
76.4668466303123
 20
6.0826813870751
 30
0.0
 10
78.30000119489142
 20
4.554221233014496
 30
0.0
 10
80.13314400392812
 20
2.858104964403823
 30
0.0
 10
81.96533117481441
 20
1.056407775003961
 30
0.0
 10
83.79685256041166
 20
-0.7839229294638901
 30
0.0
 10
85.6281269362438
 20
-2.595243883744663
 30
0.0
 10
87.4596529945933
 20
-4.310879901864054
 30
0.0
 10
89.29184800451958
 20
-5.867724474915119
 30
0.0
 10
91.12500087868233
 20
-7.207926419177612
 30
0.0
 10
92.95814544251657
 20
-8.282391357350203
 30
0.0
 10
94.79033492030642
 20
-9.050675833502646
 30
0.0
 10
96.62185453266062
 20
-9.487433528252787
 30
0.0
 10
98.45313898094996
 20
-9.565143909100135
 30
0.0
 10
100.1828610060828
 20
-9.337512567846847
 30
0.0
 10
101.3023847091582
 20
-8.926363852547887
 30
0.0
 10
101.811333010199
 20
-8.739450936321406
 30
0.0
  0
SPLINE
  5
D1
330
1F
100
AcDbEntity
  8
외형선
  6
Continuous
370
    15
100
AcDbSpline
210
0.0
220
0.0
230
1.0
 70
    24
 71
     3
 72
    11
 73
     7
 74
     0
 42
0.000000001
 43
0.00000001
 40
0.0
 40
0.0
 40
0.0
 40
0.0
 40
0.3828456393376009
 40
0.6485490535504349
 40
0.9219578847754689
 40
0.9999999999999999
 40
0.9999999999999999
 40
0.9999999999999999
 40
0.9999999999999999
 10
15.17500000000006
 20
9.500153528878728
 30
0.0
 10
15.17500000000005
 20
9.194921498362843
 30
0.0
 10
15.17500000000001
 20
8.677851629559159
 30
0.0
 10
15.17500000000005
 20
7.95914743645091
 30
0.0
 10
15.17500000000001
 20
7.490328571208918
 30
0.0
 10
15.17500000000004
 20
7.252147730660153
 30
0.0
 10
15.17500000000004
 20
7.199258026449185
 30
0.0
  0
SPLINE
  5
D2
330
1F
100
AcDbEntity
  8
외형선
  6
Continuous
 62
     1
370
    15
100
AcDbSpline
210
0.0
220
0.0
230
1.0
 70
     8
 71
     3
 72
    26
 73
    22
 74
     0
 42
0.000000001
 43
0.00000001
 40
0.0
 40
0.0
 40
0.0
 40
0.0
 40
0.0503469275260611
 40
0.1046394875067955
 40
0.1589088138017048
 40
0.213164147402245
 40
0.267414792256994
 40
0.3216700734084387
 40
0.375939295041018
 40
0.4302316987294879
 40
0.4845243105683618
 40
0.5387936718157543
 40
0.5930490229648079
 40
0.6472996678851864
 40
0.7015549316190819
 40
0.7558241184292593
 40
0.8101164700466695
 40
0.864409133548143
 40
0.9186785297805373
 40
0.9729338985108449
 40
1.0
 40
1.0
 40
1.0
 40
1.0
 10
105.6500883563617
 20
-9.512074463358035
 30
0.0
 10
105.0833999073009
 20
-9.487655494252595
 30
0.0
 10
103.9056122686205
 20
-9.436903868717653
 30
0.0
 10
102.1168429145593
 20
-8.926713540655513
 30
0.0
 10
100.2846579454882
 20
-8.104474487869657
 30
0.0
 10
98.45313055603324
 20
-6.975363800953669
 30
0.0
 10
96.62185679022103
 20
-5.59117771910404
 30
0.0
 10
94.79033431520817
 20
-4.000129902667435
 30
0.0
 10
92.95814560474847
 20
-2.261400072186988
 30
0.0
 10
91.12500083519839
 20
-0.4392720941781577
 30
0.0
 10
89.29184801618561
 20
1.399082465002149
 30
0.0
 10
87.45965299139483
 20
3.185985459493251
 30
0.0
 10
85.62812693737689
 20
4.855142715931639
 30
0.0
 10
83.79685255907701
 20
6.345256970897306
 30
0.0
 10
81.96533117902088
 20
7.601375401243804
 30
0.0
 10
80.13314398842991
 20
8.577642751852384
 30
0.0
 10
78.30000125270281
 20
9.236251493940655
 30
0.0
 10
76.46684641461276
 20
9.558745944853632
 30
0.0
 10
74.63464987532475
 20
9.511718828355786
 30
0.0
 10
73.10899953616689
 20
9.233007191342294
 30
0.0
 10
72.194016536014
 20
8.850801491759245
 30
0.0
 10
71.88948413299481
 20
8.723592548945858
 30
0.0
  0
SPLINE
  5
D3
330
1F
100
AcDbEntity
  8
외형선
  6
Continuous
 62
     1
370
    15
100
AcDbSpline
210
0.0
220
0.0
230
1.0
 70
     8
 71
     3
 72
    24
 73
    20
 74
     0
 42
0.000000001
 43
0.00000001
 40
0.0
 40
0.0
 40
0.0
 40
0.0
 40
0.0156580148195569
 40
0.0754681206796965
 40
0.1352935175617191
 40
0.195144393922434
 40
0.2549959556563853
 40
0.3148218142660003
 40
0.3746321516189628
 40
0.4344372238076366
 40
0.4942473106113178
 40
0.5540726692490724
 40
0.6139234883492585
 40
0.6782866458009517
 40
0.7426407768414235
 40
0.8069875197194355
 40
0.8713285288329118
 40
0.9356654663573732
 40
1.0
 40
1.0
 40
1.0
 40
1.0
 10
45.80131684978431
 20
-9.489925314184768
 30
0.0
 10
45.64150383584337
 20
-9.500040024467845
 30
0.0
 10
44.87124094100847
 20
-9.548790660169775
 30
0.0
 10
43.49032087404398
 20
-9.284591576902532
 30
0.0
 10
41.65813935635392
 20
-8.694441703518775
 30
0.0
 10
39.82500240163944
 20
-7.755988438738961
 30
0.0
 10
37.99184169249973
 20
-6.538800603782388
 30
0.0
 10
36.15964035722947
 20
-5.078282740438889
 30
0.0
 10
34.32811057626589
 20
-3.43117385093255
 30
0.0
 10
32.49683605022516
 20
-1.65741105904895
 30
0.0
 10
30.66531880882424
 20
0.1775271270557094
 30
0.0
 10
28.83313625999447
 20
2.006288283293602
 30
0.0
 10
26.95394099516339
 20
3.804878195451697
 30
0.0
 10
25.02844764726147
 20
5.497312596835261
 30
0.0
 10
23.05724337115651
 20
6.994980669594661
 30
0.0
 10
21.08636245130178
 20
8.196329851284247
 30
0.0
 10
19.11574943465633
 20
9.040231457358152
 30
0.0
 10
17.14532157217874
 20
9.527643068808825
 30
0.0
 10
15.83176567730162
 20
9.509316594728404
 30
0.0
 10
15.17500000000004
 20
9.500153528878734
 30
0.0
  0
LINE
  5
D4
330
1F
100
AcDbEntity
  8
외형선
  6
Continuous
 62
     1
370
    15
100
AcDbLine
 10
116.775
 20
-3.731947439277581
 30
0.0
 11
116.775
 21
3.734097296725548
 31
0.0
  0
SPLINE
  5
D5
330
1F
100
AcDbEntity
  8
외형선
  6
Continuous
 62
     1
370
    15
100
AcDbSpline
210
0.0
220
0.0
230
1.0
 70
     8
 71
     3
 72
    26
 73
    22
 74
     0
 42
0.000000001
 43
0.00000001
 40
0.0
 40
0.0
 40
0.0
 40
0.0
 40
0.0502288410677027
 40
0.1045210580584215
 40
0.1587901619809606
 40
0.213045395037632
 40
0.2672960617289611
 40
0.3215514870990432
 40
0.3758209747835846
 40
0.4301137624174017
 40
0.4844060313827289
 40
0.538675170030117
 40
0.5929304204061177
 40
0.6471810869333724
 40
0.7014364946567133
 40
0.7557059472912029
 40
0.809998683653482
 40
0.8642910046255748
 40
0.9185601780303357
 40
0.9728154457584087
 40
1.0
 40
1.0
 40
1.0
 40
1.0
 10
38.1289014316945
 20
9.51389700187576
 30
0.0
 10
38.69426341112498
 20
9.489748407470136
 30
0.0
 10
39.87072360849302
 20
9.439497663390707
 30
0.0
 10
41.65814591338374
 20
8.93029677530908
 30
0.0
 10
43.49031983871826
 20
8.108782881702416
 30
0.0
 10
45.3218407324697
 20
6.980277484967054
 30
0.0
 10
47.1531145159769
 20
5.596604226230505
 30
0.0
 10
48.98464355538304
 20
4.005944080416713
 30
0.0
 10
50.81684324690491
 20
2.267463483621496
 30
0.0
 10
52.65000206223787
 20
0.4454536980618694
 30
0.0
 10
54.48314076484503
 20
-1.392948017987849
 30
0.0
 10
56.31532482944554
 20
-3.180031435738832
 30
0.0
 10
58.14684435187715
 20
-4.84951349998706
 30
0.0
 10
59.97811874215314
 20
-6.340082319568546
 30
0.0
 10
61.809646675628
 20
-7.596768550243826
 30
0.0
 10
63.64184483886742
 20
-8.573693777207238
 30
0.0
 10
65.4750016600422
 20
-9.233025904015248
 30
0.0
 10
67.30814236780144
 20
-9.556271118419872
 30
0.0
 10
69.14032804805723
 20
-9.51006739428785
 30
0.0
 10
70.66730460298379
 20
-9.231590288634017
 30
0.0
 10
71.58361903267951
 20
-8.849113252280745
 30
0.0
 10
71.8894841329949
 20
-8.721442691498067
 30
0.0
  0
SPLINE
  5
D6
330
1F
100
AcDbEntity
  8
외형선
  6
Continuous
 62
     1
370
    15
100
AcDbSpline
210
0.0
220
0.0
230
1.0
 70
     8
 71
     3
 72
    18
 73
    14
 74
     0
 42
0.000000001
 43
0.00000001
 40
0.0
 40
0.0
 40
0.0
 40
0.0
 40
0.0252967564367917
 40
0.1227403820754928
 40
0.2202091388631778
 40
0.3177196237987428
 40
0.4152299216087625
 40
0.5126985530209964
 40
0.6101421158011696
 40
0.7075773203030555
 40
0.8050209144830918
 40
0.9024896085538479
 40
0.9999999999999999
 40
0.9999999999999999
 40
0.9999999999999999
 40
0.9999999999999999
 10
97.97766572568203
 20
9.492259957684416
 30
0.0
 10
98.13614130466658
 20
9.502338655959688
 30
0.0
 10
98.90506807054678
 20
9.551240707106903
 30
0.0
 10
100.284657057747
 20
9.287646059851445
 30
0.0
 10
102.1168493652994
 20
8.6983063102824
 30
0.0
 10
103.9500004861579
 20
7.760500311825104
 30
0.0
 10
105.783147180577
 20
6.543903890325169
 30
0.0
 10
107.6153375226903
 20
5.083819857792808
 30
0.0
 10
109.4468607618465
 20
3.437208917208479
 30
0.0
 10
111.2781351364908
 20
1.663093067296562
 30
0.0
 10
113.1096593161429
 20
-0.1696967856958886
 30
0.0
 10
114.9418512032983
 20
-2.006353741326537
 30
0.0
 10
116.1638632897108
 20
-3.156667539599447
 30
0.0
 10
116.775
 20
-3.731947439277581
 30
0.0
  0
SPLINE
  5
D7
330
1F
100
AcDbEntity
  8
외형선
  6
Continuous
 62
     1
370
    15
100
AcDbSpline
210
0.0
220
0.0
230
1.0
 70
     8
 71
     3
 72
    16
 73
    12
 74
     0
 42
0.000000001
 43
0.00000001
 40
0.0
 40
0.0
 40
0.0
 40
0.0
 40
0.1224951091964432
 40
0.2449378370571448
 40
0.3673490337773306
 40
0.4897496911639552
 40
0.6121608484388094
 40
0.7346034975862361
 40
0.8570984891545159
 40
0.9795937157948056
 40
1.0
 40
1.0
 40
1.0
 40
1.0
 10
116.7750000000001
 20
3.734097296725548
 30
0.0
 10
116.1638632924174
 20
4.282708222419831
 30
0.0
 10
114.941851211417
 20
5.379695476906703
 30
0.0
 10
113.1096592836876
 20
6.790112033072113
 30
0.0
 10
111.2781352581604
 20
7.959645817668441
 30
0.0
 10
109.4468603076362
 20
8.833563825873828
 30
0.0
 10
107.6153392182202
 20
9.380391650169557
 30
0.0
 10
105.7831408498226
 20
9.588974094269242
 30
0.0
 10
103.9500241239138
 20
9.414583195037745
 30
0.0
 10
102.6258601419951
 20
9.116849765106855
 30
0.0
 10
101.9131130393711
 20
8.788490393585587
 30
0.0
 10
101.811333010199
 20
8.741600793769196
 30
0.0
  0
SPLINE
  5
D8
330
1F
100
AcDbEntity
  8
외형선
  6
Continuous
 62
     1
370
    15
100
AcDbSpline
210
0.0
220
0.0
230
1.0
 70
     8
 71
     3
 72
    26
 73
    22
 74
     0
 42
0.000000001
 43
0.00000001
 40
0.0
 40
0.0
 40
0.0
 40
0.0
 40
0.0322978975214858
 40
0.0865569276009771
 40
0.1408112336502111
 40
0.1950701413402247
 40
0.2493429556398517
 40
0.3036389190597713
 40
0.3579352978977454
 40
0.4122083914458343
 40
0.4664674391405081
 40
0.5207217453210113
 40
0.5749806356577881
 40
0.6292534151977112
 40
0.6835493266073756
 40
0.7378457567203269
 40
0.7921188853208189
 40
0.8463779506634175
 40
0.900632257008006
 40
0.9548911300242917
 40
1.0
 40
1.0
 40
1.0
 40
1.0
 10
75.72483732908167
 20
-9.481503019646233
 30
0.0
 10
75.36139122015561
 20
-9.48607482572948
 30
0.0
 10
74.387371827214
 20
-9.498327062516408
 30
0.0
 10
72.80313354987675
 20
-9.125693826871043
 30
0.0
 10
70.97184558590783
 20
-8.416363565123007
 30
0.0
 10
69.14032877457768
 20
-7.381042518513607
 30
0.0
 10
67.30814217301615
 20
-6.077417419239618
 30
0.0
 10
65.47500171224938
 20
-4.548519681361697
 30
0.0
 10
63.64184482487023
 20
-2.852110375409677
 30
0.0
 10
61.80964667943185
 20
-1.050249443044514
 30
0.0
 10
59.97811874092854
 20
0.7900938832799406
 30
0.0
 10
58.14684435297269
 20
2.601277363202305
 30
0.0
 10
56.31532482628729
 20
4.316630942039003
 30
0.0
 10
54.48314077638735
 20
5.873057950765987
 30
0.0
 10
52.65000201920791
 20
7.212735000878908
 30
0.0
 10
50.81684340744674
 20
8.286566776339342
 30
0.0
 10
48.98464295659026
 20
9.0541480148172
 30
0.0
 10
47.15311675000486
 20
9.490161936963482
 30
0.0
 10
45.32183239540125
 20
9.567065082631473
 30
0.0
 10
43.59345242067248
 20
9.339003289793345
 30
0.0
 10
42.47527196445375
 20
8.927961364360796
 30
0.0
 10
41.96766400949586
 20
8.74136522953266
 30
0.0
  0
LINE
  5
D9
330
1F
100
AcDbEntity
  8
외형선
  6
Continuous
 62
     1
370
    15
100
AcDbLine
 10
15.87729139673271
 20
-9.4772153922574
 30
0.0
 11
15.17500000000004
 21
-9.498003671430938
 31
0.0
  0
LINE
  5
DA
330
1F
100
AcDbEntity
  8
외형선
  6
Continuous
 62
     1
370
    15
100
AcDbLine
 10
116.775
 20
9.456566726087715
 30
0.0
 11
116.775
 21
9.526074928723899
 31
0.0
  0
LINE
  5
DB
330
1F
100
AcDbEntity
  8
외형선
  6
Continuous
370
    15
100
AcDbLine
 10
15.17500000000006
 20
-4.140313024187091
 30
0.0
 11
15.17500000000004
 21
-1.966249846138163
 31
0.0
  0
LINE
  5
DC
330
1F
100
AcDbEntity
  8
외형선
  6
Continuous
 62
     1
370
    15
100
AcDbLine
 10
116.775
 20
-9.523925071276109
 30
0.0
 11
116.775
 21
-9.454416868639921
 31
0.0
  0
LINE
  5
DD
330
1F
100
AcDbEntity
  8
외형선
  6
Continuous
 62
     1
370
    15
100
AcDbLine
 10
116.775
 20
-5.721394500638302
 30
0.0
 11
116.775
 21
-3.731947439277581
 31
0.0
  0
LINE
  5
DE
330
1F
100
AcDbEntity
  8
외형선
  6
Continuous
370
    15
100
AcDbLine
 10
15.17500000000006
 20
-9.498003671430931
 30
0.0
 11
15.17500000000004
 21
-9.053612404317242
 31
0.0
  0
LINE
  5
DF
330
1F
100
AcDbEntity
  8
외형선
  6
Continuous
 62
     1
370
    15
100
AcDbLine
 10
116.775
 20
3.734097296725548
 30
0.0
 11
116.775
 21
5.723544358086142
 31
0.0
  0
LINE
  5
E0
330
1F
100
AcDbEntity
  8
외형선
  6
Continuous
370
    15
100
AcDbLine
 10
15.17500000000006
 20
5.358765575967761
 30
0.0
 11
15.17500000000004
 21
7.088437486902983
 31
0.0
  0
LINE
  5
E1
330
1F
100
AcDbEntity
  8
외형선
  6
Continuous
370
    15
100
AcDbLine
 10
14.1750082556119
 20
-9.523925071276103
 30
0.0
 11
14.1750082556119
 21
-9.372081403756006
 31
0.0
  0
SPLINE
  5
E2
330
1F
100
AcDbEntity
  8
외형선
  6
Continuous
370
    15
100
AcDbSpline
210
0.0
220
0.0
230
1.0
 70
     8
 71
     3
 72
     8
 73
     4
 74
     0
 42
0.000000001
 43
0.00000001
 40
0.0
 40
0.0
 40
0.0
 40
0.0
 40
1.0
 40
1.0
 40
1.0
 40
1.0
 10
15.17500000000005
 20
1.968399703585875
 30
0.0
 10
14.84054670796991
 20
1.641834616455694
 30
0.0
 10
14.50635512610772
 20
1.31172534937776
 30
0.0
 10
14.17500825561189
 20
0.980763617461772
 30
0.0
  0
SPLINE
  5
E3
330
1F
100
AcDbEntity
  8
외형선
  6
Continuous
370
    15
100
AcDbSpline
210
0.0
220
0.0
230
1.0
 70
     8
 71
     3
 72
     8
 73
     4
 74
     0
 42
0.000000001
 43
0.00000001
 40
0.0
 40
0.0
 40
0.0
 40
0.0
 40
1.0
 40
1.0
 40
1.0
 40
1.0
 10
15.17500000000005
 20
4.142462881634881
 30
0.0
 10
14.84054670796991
 20
3.841899931052711
 30
0.0
 10
14.50635512610846
 20
3.533771095122364
 30
0.0
 10
14.1750082556119
 20
3.220628258912444
 30
0.0
  0
SPLINE
  5
E4
330
1F
100
AcDbEntity
  8
외형선
  6
Continuous
370
    15
100
AcDbSpline
210
0.0
220
0.0
230
1.0
 70
     8
 71
     3
 72
     8
 73
     4
 74
     0
 42
0.000000001
 43
0.00000001
 40
0.0
 40
0.0
 40
0.0
 40
0.0
 40
1.0
 40
1.0
 40
1.0
 40
1.0
 10
15.17500000000005
 20
9.500153528878727
 30
0.0
 10
14.84054670796991
 20
9.47554686503936
 30
0.0
 10
14.50635512610846
 20
9.433405807815609
 30
0.0
 10
14.1750082556119
 20
9.374232044082971
 30
0.0
  0
LINE
  5
E5
330
1F
100
AcDbEntity
  8
외형선
  6
Continuous
370
    15
100
AcDbLine
 10
14.1750082556119
 20
7.716370194441233
 30
0.0
 11
14.1750082556119
 21
9.526074928723894
 31
0.0
  0
SPLINE
  5
E6
330
1F
100
AcDbEntity
  8
외형선
  6
Continuous
370
    15
100
AcDbSpline
210
0.0
220
0.0
230
1.0
 70
     8
 71
     3
 72
     8
 73
     4
 74
     0
 42
0.000000001
 43
0.00000001
 40
0.0
 40
0.0
 40
0.0
 40
0.0
 40
1.0
 40
1.0
 40
1.0
 40
1.0
 10
15.17500000000005
 20
7.088437486902985
 30
0.0
 10
14.84054670796991
 20
7.311420588096659
 30
0.0
 10
14.50635512610772
 20
7.5212555428771
 30
0.0
 10
14.17500825561189
 20
7.716373867983152
 30
0.0
  0
SPLINE
  5
E7
330
1F
100
AcDbEntity
  8
외형선
  6
Continuous
370
    15
100
AcDbSpline
210
0.0
220
0.0
230
1.0
 70
     8
 71
     3
 72
     8
 73
     4
 74
     0
 42
0.000000001
 43
0.00000001
 40
0.0
 40
0.0
 40
0.0
 40
0.0
 40
1.0
 40
1.0
 40
1.0
 40
1.0
 10
15.17500000000005
 20
5.358765575967761
 30
0.0
 10
14.84054670796991
 20
5.634721862710569
 30
0.0
 10
14.50635512610846
 20
5.900709641417079
 30
0.0
 10
14.1750082556119
 20
6.154678713894445
 30
0.0
  0
SPLINE
  5
E8
330
1F
100
AcDbEntity
  8
외형선
  6
Continuous
370
    15
100
AcDbSpline
210
0.0
220
0.0
230
1.0
 70
     8
 71
     3
 72
     8
 73
     4
 74
     0
 42
0.000000001
 43
0.00000001
 40
0.0
 40
0.0
 40
0.0
 40
0.0
 40
1.0
 40
1.0
 40
1.0
 40
1.0
 10
15.17500000000005
 20
-1.96624984613815
 30
0.0
 10
14.84054670796991
 20
-1.639684759007969
 30
0.0
 10
14.50635512610772
 20
-1.309575491929931
 30
0.0
 10
14.17500825561189
 20
-0.9786137600140485
 30
0.0
  0
SPLINE
  5
E9
330
1F
100
AcDbEntity
  8
외형선
  6
Continuous
370
    15
100
AcDbSpline
210
0.0
220
0.0
230
1.0
 70
     8
 71
     3
 72
     8
 73
     4
 74
     0
 42
0.000000001
 43
0.00000001
 40
0.0
 40
0.0
 40
0.0
 40
0.0
 40
1.0
 40
1.0
 40
1.0
 40
1.0
 10
15.17500000000005
 20
-4.140313024187091
 30
0.0
 10
14.84054670796991
 20
-3.839750073604921
 30
0.0
 10
14.50635512610846
 20
-3.531621237674575
 30
0.0
 10
14.1750082556119
 20
-3.218478401464655
 30
0.0
  0
LINE
  5
EA
330
1F
100
AcDbEntity
  8
외형선
  6
Continuous
370
    15
100
AcDbLine
 10
14.1750082556119
 20
-8.693915256828339
 30
0.0
 11
14.1750082556119
 21
-3.21847425853552
 31
0.0
  0
SPLINE
  5
EB
330
1F
100
AcDbEntity
  8
외형선
  6
Continuous
370
    15
100
AcDbSpline
210
0.0
220
0.0
230
1.0
 70
     8
 71
     3
 72
     8
 73
     4
 74
     0
 42
0.000000001
 43
0.00000001
 40
0.0
 40
0.0
 40
0.0
 40
0.0
 40
1.0
 40
1.0
 40
1.0
 40
1.0
 10
15.17500000000005
 20
-9.053612404317233
 30
0.0
 10
14.84054670796991
 20
-8.950030418380729
 30
0.0
 10
14.50635512610772
 20
-8.82975610608313
 30
0.0
 10
14.17500825561189
 20
-8.693912699273298
 30
0.0
  0
SPLINE
  5
EC
330
1F
100
AcDbEntity
  8
외형선
  6
Continuous
370
    15
100
AcDbSpline
210
0.0
220
0.0
230
1.0
 70
     8
 71
     3
 72
     8
 73
     4
 74
     0
 42
0.000000001
 43
0.00000001
 40
0.0
 40
0.0
 40
0.0
 40
0.0
 40
1.0
 40
1.0
 40
1.0
 40
1.0
 10
15.17500000000005
 20
-9.498003671430931
 30
0.0
 10
14.84054670796991
 20
-9.473397007591565
 30
0.0
 10
14.50635512610846
 20
-9.431255950367806
 30
0.0
 10
14.1750082556119
 20
-9.37208218663517
 30
0.0
  0
LINE
  5
ED
330
1F
100
AcDbEntity
  8
외형선
  6
Continuous
370
    15
100
AcDbLine
 10
-40.06999999999996
 20
0.0010749287238949
 30
0.0
 11
-40.06999999999996
 21
9.526074928723894
 31
0.0
  0
LINE
  5
EE
330
1F
100
AcDbEntity
  8
외형선
  6
Continuous
370
    15
100
AcDbLine
 10
-40.06999999999996
 20
-9.523925071276103
 30
0.0
 11
-40.06999999999996
 21
0.0010749287238949
 31
0.0
  0
LINE
  5
EF
330
1F
100
AcDbEntity
  8
외형선
  6
Continuous
370
    15
100
AcDbLine
 10
14.1750082556119
 20
-0.978619991111005
 30
0.0
 11
14.1750082556119
 21
6.154682073944416
 31
0.0
  0
LINE
  5
F0
330
1F
100
AcDbEntity
  8
외형선
  6
Continuous
370
    15
100
AcDbLine
 10
-41.97499999999997
 20
0.0010749287238949
 30
0.0
 11
-41.97499999999997
 21
7.621074928723901
 31
0.0
  0
LINE
  5
F1
330
1F
100
AcDbEntity
  8
외형선
  6
Continuous
370
    15
100
AcDbLine
 10
-41.97499999999997
 20
-7.618925071276117
 30
0.0
 11
-41.97499999999997
 21
0.0010749287238949
 31
0.0
  0
SPLINE
  5
F2
330
1F
100
AcDbEntity
  8
외형선
  6
Continuous
370
    15
100
AcDbSpline
210
0.0
220
0.0
230
1.0
 70
    24
 71
     3
 72
    12
 73
     8
 74
     0
 42
0.000000001
 43
0.00000001
 40
0.0
 40
0.0
 40
0.0
 40
0.0
 40
0.1071010099552282
 40
0.3473919168357124
 40
0.5876828237162
 40
0.8279737305966841
 40
0.9999999999999999
 40
0.9999999999999999
 40
0.9999999999999999
 40
0.9999999999999999
 10
15.17500000000005
 20
-9.053612404317233
 30
0.0
 10
15.17500000000008
 20
-8.88409728532924
 30
0.0
 10
15.17500000000013
 20
-8.33425950002273
 30
0.0
 10
15.17499999999997
 20
-7.282175231886069
 30
0.0
 10
15.17500000000016
 20
-6.002790298663854
 30
0.0
 10
15.17500000000006
 20
-4.922124854654566
 30
0.0
 10
15.17500000000006
 20
-4.448668300250398
 30
0.0
 10
15.17500000000006
 20
-4.251133563733294
 30
0.0
  0
SPLINE
  5
F3
330
1F
100
AcDbEntity
  8
외형선
  6
Continuous
370
    15
100
AcDbSpline
210
0.0
220
0.0
230
1.0
 70
    24
 71
     3
 72
     9
 73
     5
 74
     0
 42
0.000000001
 43
0.00000001
 40
0.0
 40
0.0
 40
0.0
 40
0.0
 40
0.8656558199242335
 40
1.0
 40
1.0
 40
1.0
 40
1.0
 10
15.17500000000002
 20
5.217040436985386
 30
0.0
 10
15.17500000000007
 20
5.211447545079509
 30
0.0
 10
15.1750000000001
 20
5.204986672551248
 30
0.0
 10
15.17500000000007
 20
5.242857333524217
 30
0.0
 10
15.17500000000007
 20
5.247945036421559
 30
0.0
  0
SPLINE
  5
F4
330
1F
100
AcDbEntity
  8
외형선
  6
Continuous
370
    15
100
AcDbSpline
210
0.0
220
0.0
230
1.0
 70
    24
 71
     3
 72
    12
 73
     8
 74
     0
 42
0.000000001
 43
0.00000001
 40
0.0
 40
0.0
 40
0.0
 40
0.0
 40
0.0981211436384317
 40
0.3635290035997025
 40
0.6366337094798585
 40
0.8171389940623037
 40
1.0
 40
1.0
 40
1.0
 40
1.0
 10
15.17500000000004
 20
7.199258026449185
 30
0.0
 10
15.17500000000005
 20
7.266105853333358
 30
0.0
 10
15.17500000000009
 20
7.513770352531989
 30
0.0
 10
15.17499999999997
 20
7.998731043375616
 30
0.0
 10
15.17500000000015
 20
8.560438785379336
 30
0.0
 10
15.175
 20
9.067596653499063
 30
0.0
 10
15.17500000000004
 20
9.355346072586952
 30
0.0
 10
15.17500000000006
 20
9.500153528878727
 30
0.0
  0
LINE
  5
F5
330
1F
100
AcDbEntity
  8
중심선
 62
     1
100
AcDbLine
 10
-44.97499999999996
 20
0.0010749287238888
 30
0.0
 11
119.775
 21
0.001074928723909
 31
0.0
  0
LINE
  5
F6
330
1F
100
AcDbEntity
  8
참조1
100
AcDbLine
 10
37.40000000000004
 20
0.0010749287238892
 30
0.0
 11
37.40000000000004
 21
-39.99892507127611
 31
0.0
  0
LINE
  5
F7
330
1F
100
AcDbEntity
  8
참조1
100
AcDbLine
 10
37.40000000000004
 20
-39.99892507127611
 30
0.0
 11
-9.508856814308633
 21
-39.9989250712761
 31
0.0
  0
CIRCLE
  5
F8
330
1F
100
AcDbEntity
  8
해칭선
100
AcDbCircle
 10
3.175000000000029
 20
0.0
 30
0.0
 40
3.000000000000001
  0
INSERT
  5
F9
330
1F
100
AcDbEntity
  8
0
  6
Continuous
 62
     7
100
AcDbBlockReference
 66
     1
  2
블럭10
 10
23.45972706787483
 20
-52.04609937292004
 30
0.0
  0
ATTRIB
  5
FA
330
F9
100
AcDbEntity
  8
FORMAT
 62
     2
100
AcDbText
 10
14.27843177913355
 20
-49.97073246008785
 30
0.0
 40
4.233333333333333
  1
E2175048 [ 6 FLUTE ]
 41
0.75
  7
SLDTEXTSTYLE0
 11
14.27843177913355
 21
-52.08739912675452
 31
0.0
100
AcDbAttribute
  2
AUTOATTR0
 70
     0
 74
     1
  0
SEQEND
  5
FB
330
F9
100
AcDbEntity
  8
0
  6
Continuous
 62
     7
  0
HATCH
  5
FC
330
1F
100
AcDbEntity
  8
중심선
100
AcDbHatch
 10
0.0
 20
0.0
 30
0.0
210
0.0
220
0.0
230
1.0
  2
SOLID
 70
     1
 71
     0
 91
        1
 92
        0
 93
        4
 72
     1
 10
29.17463637225567
 20
-35.7989250712761
 11
25.72836112841839
 21
-35.7989250712761
 72
     1
 10
25.72836112841839
 20
-35.7989250712761
 11
23.60013126921437
 21
-38.33525065184867
 72
     1
 10
23.60013126921437
 20
-38.33525065184867
 11
27.0464395981648
 21
-38.33521122254619
 72
     1
 10
27.0464395981648
 20
-38.33521122254619
 11
29.17463637225567
 21
-35.7989250712761
 97
        0
 75
     0
 76
     1
 98
        1
 10
0.0
 20
0.0
  0
HATCH
  5
FD
330
1F
100
AcDbEntity
  8
중심선
100
AcDbHatch
 10
0.0
 20
0.0
 30
0.0
210
0.0
220
0.0
230
1.0
  2
SOLID
 70
     1
 71
     0
 91
        1
 92
        0
 93
        4
 72
     1
 10
34.18740036329165
 20
-35.79892507127608
 11
30.74112511945437
 21
-35.7989250712761
 72
     1
 10
30.74112511945437
 20
-35.7989250712761
 11
26.20998711109695
 21
-41.19892507127612
 72
     1
 10
26.20998711109695
 20
-41.19892507127612
 11
29.65626235493424
 21
-41.19892507127612
 72
     1
 10
29.65626235493424
 20
-41.19892507127612
 11
34.18740036329165
 21
-35.79892507127608
 97
        0
 75
     0
 76
     1
 98
        1
 10
0.0
 20
0.0
  0
HATCH
  5
FE
330
1F
100
AcDbEntity
  8
중심선
100
AcDbHatch
 10
0.0
 20
0.0
 30
0.0
210
0.0
220
0.0
230
1.0
  2
SOLID
 70
     1
 71
     0
 91
        1
 92
        0
 93
        4
 72
     1
 10
39.20016435432749
 20
-35.7989250712761
 11
35.75388911049038
 21
-35.79892507127613
 72
     1
 10
35.75388911049038
 20
-35.79892507127613
 11
28.70545220860116
 21
-44.19892507127612
 72
     1
 10
28.70545220860116
 20
-44.19892507127612
 11
32.15172745243844
 21
-44.19892507127612
 72
     1
 10
32.15172745243844
 20
-44.19892507127612
 11
39.20016435432749
 21
-35.7989250712761
 97
        0
 75
     0
 76
     1
 98
        1
 10
0.0
 20
0.0
  0
HATCH
  5
FF
330
1F
100
AcDbEntity
  8
중심선
100
AcDbHatch
 10
0.0
 20
0.0
 30
0.0
210
0.0
220
0.0
230
1.0
  2
SOLID
 70
     1
 71
     0
 91
        1
 92
        0
 93
        6
 72
     3
 10
44.00005478533972
 20
-39.99892507132738
 11
3.960054785062284
 21
1.540850780301639E-10
 40
0.3939339440162633
 50
17.09539180608432
 51
320.0019657685075
 73
     0
 72
     1
 10
45.68305444104029
 20
-38.58681907591441
 11
47.98835631474135
 21
-36.65249236586646
 72
     3
 10
44.00005478528687
 20
-39.99892507127625
 11
6.600054785286829
 21
-1.249000902703301E-13
 40
0.6363583540795982
 50
39.9987384933743
 51
368.4976242363724
 73
     1
 72
     1
 10
50.42538727718748
 20
-39.03892507120613
 11
42.68012209212279
 21
-39.03892507120613
 72
     1
 10
42.68012209212279
 20
-39.03892507120613
 11
42.68009704767686
 21
-40.95892507120602
 72
     1
 10
42.68009704767686
 20
-40.95892507120602
 11
47.1214768171489
 21
-40.95892507120599
 97
        0
 75
     0
 76
     1
 98
        1
 10
0.0
 20
0.0
  0
DIMENSION
  5
100
330
1F
100
AcDbEntity
  8
치수문자_일반주서
100
AcDbDimension
  2
_D
 10
-54.65749999999995
 20
-9.523925071276162
 30
0.0
 11
-54.65749999999998
 21
0.0010749287239009
 31
0.0
 70
   160
  1
%%c<>
 71
     2
 42
19.05000000000001
  3
SLDDIMSTYLE1
100
AcDbAlignedDimension
 13
-40.06999999999997
 23
9.5260749287239
 33
0.0
 14
-40.06999999999997
 24
-9.52392507127611
 34
0.0
 50
90.0000000000002
100
AcDbRotatedDimension
1001
ACAD
1000
DSTYLE
1002
{
1070
   171
1070
     6
1070
   273
1070
     7
1002
}
  0
DIMENSION
  5
115
330
1F
100
AcDbEntity
  8
치수문자_일반주서
100
AcDbDimension
  2
_D_1
 10
15.17500000000005
 20
31.99655326667847
 30
0.0
 11
65.97500000000007
 21
31.99655326667847
 31
0.0
 70
   160
  1
<>
 71
     2
 42
101.6
  3
SLDDIMSTYLE1
100
AcDbAlignedDimension
 13
116.775
 23
9.5260749287239
 33
0.0
 14
15.17500000000006
 24
9.500153528878727
 34
0.0
 50
0.000000000000004
100
AcDbRotatedDimension
1001
ACAD
1000
DSTYLE
1002
{
1070
   171
1070
     6
1070
   273
1070
     7
1002
}
  0
DIMENSION
  5
129
330
1F
100
AcDbEntity
  8
치수문자_일반주서
100
AcDbDimension
  2
_D_2
 10
-41.97499999999998
 20
43.99655326667848
 30
0.0
 11
37.40000000000003
 21
43.99655326667848
 31
0.0
 70
   160
  1
<>
 71
     2
 42
158.75
  3
SLDDIMSTYLE1
100
AcDbAlignedDimension
 13
116.775
 23
9.5260749287239
 33
0.0
 14
-41.97499999999997
 24
7.6210749287239
 34
0.0
 50
0.0000000000000051
100
AcDbRotatedDimension
1001
ACAD
1000
DSTYLE
1002
{
1070
   171
1070
     6
1070
   273
1070
     7
1002
}
  0
DIMENSION
  5
13D
330
1F
100
AcDbEntity
  8
치수문자_일반주서
100
AcDbDimension
  2
_D_3
 10
136.7918779471597
 20
-9.52392507127604
 30
0.0
 11
136.7918779471596
 21
26.84344459419051
 31
0.0
 70
   160
  1
%%c<>
 71
     2
 42
19.05000000000001
  3
SLDDIMSTYLE1
100
AcDbAlignedDimension
 13
116.775
 23
9.5260749287239
 33
0.0
 14
116.775
 24
-9.52392507127611
 34
0.0
 50
90.0000000000002
100
AcDbRotatedDimension
1001
ACAD
1000
DSTYLE
1002
{
1070
   171
1070
     6
1070
   273
1070
     7
1002
}
  0
LINE
  5
150
330
1F
100
AcDbEntity
  8
참조1
100
AcDbLine
 10
88.46348381534564
 20
7.441074928723896
 30
0.0
 11
88.46348381534564
 21
-7.438925071276109
 31
0.0
  0
LINE
  5
151
330
1F
100
AcDbEntity
  8
참조1
100
AcDbLine
 10
101.1634838153456
 20
5.441074928723896
 30
0.0
 11
88.46348381534564
 21
5.441074928723896
 31
0.0
  0
SOLID
  5
152
330
1F
100
AcDbEntity
  8
참조1
100
AcDbTrace
 10
88.46348381534564
 20
5.441074928723896
 30
0.0
 11
94.81348381534563
 21
4.425074928723896
 31
0.0
 12
94.81348381534563
 22
6.457074928723896
 32
0.0
 13
94.81348381534563
 23
6.457074928723896
 33
0.0
  0
LINE
  5
153
330
1F
100
AcDbEntity
  8
참조1
100
AcDbLine
 10
101.1634838153456
 20
-5.438925071276109
 30
0.0
 11
88.46348381534564
 21
-5.438925071276109
 31
0.0
  0
SOLID
  5
154
330
1F
100
AcDbEntity
  8
참조1
100
AcDbTrace
 10
88.46348381534564
 20
-5.438925071276109
 30
0.0
 11
94.81348381534563
 21
-6.454925071276109
 31
0.0
 12
94.81348381534563
 22
-4.422925071276109
 32
0.0
 13
94.81348381534563
 23
-4.422925071276109
 33
0.0
  0
MTEXT
  5
155
330
1F
100
AcDbEntity
  8
참조1
100
AcDbMText
 10
97.8609739078159
 20
10.98929157337383
 30
0.0
 40
3.5
 41
0.0
 71
     1
 72
     1
  1
A
  7
SLDTEXTSTYLE0
 73
     1
 44
1.0
  0
MTEXT
  5
156
330
1F
100
AcDbEntity
  8
참조1
100
AcDbMText
 10
97.8609739078159
 20
0.1092915733738251
 30
0.0
 40
3.5
 41
0.0
 71
     1
 72
     1
  1
A
  7
SLDTEXTSTYLE0
 73
     1
 44
1.0
  0
INSERT
  5
15D
330
1F
100
AcDbEntity
  8
해칭선
100
AcDbBlockReference
  2
SW_DOWELSYMBOL_0
 10
3.175000000000029
 20
0.0
 30
0.0
  0
LINE
  5
381
330
1F
100
AcDbEntity
  8
외형선
  6
Continuous
370
    15
100
AcDbLine
 10
-21.96932499999994
 20
7.621074928723893
 30
0.0
 11
-10.38692499999993
 21
7.621074928723893
 31
0.0
  0
LINE
  5
382
330
1F
100
AcDbEntity
  8
외형선
  6
Continuous
370
    15
100
AcDbLine
 10
-21.96932499999994
 20
7.621074928723878
 30
0.0
 11
-23.87432500000008
 21
9.526074928723908
 31
0.0
  0
LINE
  5
383
330
1F
100
AcDbEntity
  8
외형선
  6
Continuous
370
    15
100
AcDbLine
 10
-10.38692499999993
 20
7.621074928723878
 30
0.0
 11
-8.481924999999961
 21
9.526074928723908
 31
0.0
  0
LINE
  5
385
330
1F
100
AcDbEntity
  8
외형선
  6
Continuous
370
    15
100
AcDbLine
 10
-23.87432500000007
 20
9.526074928723894
 30
0.0
 11
-40.06999999999996
 21
9.526074928723894
 31
0.0
  0
ENDSEC
  0
SECTION
  2
OBJECTS
  0
DICTIONARY
  5
C
330
0
100
AcDbDictionary
281
     1
  3
ACAD_GROUP
350
D
  3
ACAD_IMAGE_VARS
350
181
  3
ACAD_LAYOUT
350
1A
  3
ACAD_MLINESTYLE
350
17
  3
ACAD_PLOTSETTINGS
350
19
  3
ACAD_PLOTSTYLENAME
350
E
  3
ACAD_SCALELIST
350
47
  3
APPDATA
350
17F
  3
DWGPROPS
350
3A9
  0
DICTIONARY
  5
271
330
2
100
AcDbDictionary
280
     1
281
     1
  3
ACAD_LAYERSTATES
360
272
  0
DICTIONARY
  5
D
102
{ACAD_REACTORS
330
C
102
}
330
C
100
AcDbDictionary
281
     1
  0
RASTERVARIABLES
  5
181
102
{ACAD_REACTORS
330
C
102
}
330
C
100
AcDbRasterVariables
 90
        0
 70
     1
 71
     1
 72
     1
  0
DICTIONARY
  5
1A
102
{ACAD_REACTORS
330
C
102
}
330
C
100
AcDbDictionary
281
     1
  3
Layout1
350
1E
  3
Layout2
350
26
  3
Model
350
22
  0
DICTIONARY
  5
17
102
{ACAD_REACTORS
330
C
102
}
330
C
100
AcDbDictionary
281
     1
  3
Standard
350
18
  0
DICTIONARY
  5
19
102
{ACAD_REACTORS
330
C
102
}
330
C
100
AcDbDictionary
281
     1
  0
ACDBDICTIONARYWDFLT
  5
E
102
{ACAD_REACTORS
330
C
102
}
330
C
100
AcDbDictionary
281
     1
  3
Normal
350
F
100
AcDbDictionaryWithDefault
340
F
  0
DICTIONARY
  5
47
102
{ACAD_REACTORS
330
C
102
}
330
C
100
AcDbDictionary
281
     1
  3
A0
350
48
  3
A1
350
49
  3
A2
350
4A
  3
A3
350
4B
  3
A4
350
4C
  3
A5
350
4D
  3
A6
350
4E
  3
A7
350
4F
  3
A8
350
50
  3
A9
350
51
  3
B0
350
52
  3
B1
350
53
  3
B2
350
54
  3
B3
350
55
  3
B4
350
56
  3
B5
350
57
  3
B6
350
58
  3
B7
350
59
  3
B8
350
5A
  3
B9
350
5B
  3
C0
350
5C
  3
C1
350
5D
  3
C2
350
5E
  3
C3
350
5F
  3
C4
350
60
  3
C5
350
61
  3
C6
350
62
  3
C7
350
63
  3
C8
350
64
  3
C9
350
65
  3
D0
350
66
  3
D1
350
67
  3
D2
350
68
  0
DICTIONARY
  5
17F
102
{ACAD_REACTORS
330
C
102
}
330
C
100
AcDbDictionary
281
     1
  0
XRECORD
  5
3A9
102
{ACAD_REACTORS
330
C
102
}
330
C
100
AcDbXrecord
280
     1
  1
DWGPROPS COOKIE
  2

  3

  4

  6

  7

  8
12016016
  9

300
=
301
=
302
=
303
=
304
=
305
=
306
=
307
=
308
=
309
=
 40
0.0
 41
2458323.066956285
 42
2458323.370350764
  1

 90
        0
  0
DICTIONARY
  5
272
102
{ACAD_REACTORS
330
271
102
}
330
271
100
AcDbDictionary
281
     1
  0
LAYOUT
  5
1E
102
{ACAD_REACTORS
330
1A
102
}
330
1A
100
AcDbPlotSettings
  1

  2
none_device
  4

  6

 40
0.0
 41
0.0
 42
0.0
 43
0.0
 44
0.0
 45
0.0
 46
0.0
 47
0.0
 48
0.0
 49
0.0
140
0.0
141
0.0
142
1.0
143
1.0
 70
   688
 72
     1
 73
     0
 74
     5
  7

 75
    16
147
1.0
148
0.0
149
0.0
100
AcDbLayout
  1
Layout1
 70
     1
 71
     1
 10
0.0
 20
0.0
 11
420.0
 21
297.0
 12
0.0
 22
0.0
 32
0.0
 14
1.000000000000000E+20
 24
1.000000000000000E+20
 34
1.000000000000000E+20
 15
-1.000000000000000E+20
 25
-1.000000000000000E+20
 35
-1.000000000000000E+20
146
0.0
 13
0.0
 23
0.0
 33
0.0
 16
1.0
 26
0.0
 36
0.0
 17
0.0
 27
1.0
 37
0.0
 76
     0
330
1B
  0
LAYOUT
  5
26
102
{ACAD_REACTORS
330
1A
102
}
330
1A
100
AcDbPlotSettings
  1

  2
none_device
  4

  6

 40
0.0
 41
0.0
 42
0.0
 43
0.0
 44
0.0
 45
0.0
 46
0.0
 47
0.0
 48
0.0
 49
0.0
140
0.0
141
0.0
142
1.0
143
1.0
 70
   688
 72
     1
 73
     0
 74
     5
  7

 75
    16
147
1.0
148
0.0
149
0.0
100
AcDbLayout
  1
Layout2
 70
     1
 71
     2
 10
0.0
 20
0.0
 11
0.0
 21
0.0
 12
0.0
 22
0.0
 32
0.0
 14
0.0
 24
0.0
 34
0.0
 15
0.0
 25
0.0
 35
0.0
146
0.0
 13
0.0
 23
0.0
 33
0.0
 16
1.0
 26
0.0
 36
0.0
 17
0.0
 27
1.0
 37
0.0
 76
     0
330
23
  0
LAYOUT
  5
22
102
{ACAD_REACTORS
330
1A
102
}
330
1A
100
AcDbPlotSettings
  1

  2
none_device
  4
ANSI_A_(11.00_x_8.50_Inches)
  6

 40
6.35
 41
19.05
 42
6.35000508
 43
19.05000254
 44
279.4
 45
215.9
 46
53.41387424044488
 47
87.083128808136
 48
0.0
 49
0.0
140
0.0
141
0.0
142
0.035109169334301
143
1.0
 70
  1696
 72
     0
 73
     0
 74
     0
  7

 75
     0
147
0.0235690232323232
148
0.0
149
0.0
100
AcDbLayout
  1
Model
 70
     1
 71
     0
 10
0.0
 20
0.0
 11
420.0
 21
297.0
 12
0.0
 22
0.0
 32
0.0
 14
-59.03250000000002
 24
-49.97073246008785
 34
0.0
 15
137.342211280493
 25
48.37155326667848
 35
0.0
146
0.0
 13
0.0
 23
0.0
 33
0.0
 16
1.0
 26
0.0
 36
0.0
 17
0.0
 27
1.0
 37
0.0
 76
     0
330
1F
331
29
  0
MLINESTYLE
  5
18
102
{ACAD_REACTORS
330
17
102
}
330
17
100
AcDbMlineStyle
  2
Standard
 70
     0
  3

 62
   256
 51
90.0
 52
90.0
 71
     2
 49
0.5
 62
   256
  6
BYLAYER
 49
-0.5
 62
   256
  6
BYLAYER
  0
ACDBPLACEHOLDER
  5
F
102
{ACAD_REACTORS
330
E
102
}
330
E
  0
SCALE
  5
48
102
{ACAD_REACTORS
330
47
102
}
330
47
100
AcDbScale
 70
     0
300
1:1
140
1.0
141
1.0
290
     1
  0
SCALE
  5
49
102
{ACAD_REACTORS
330
47
102
}
330
47
100
AcDbScale
 70
     0
300
1:2
140
1.0
141
2.0
290
     0
  0
SCALE
  5
4A
102
{ACAD_REACTORS
330
47
102
}
330
47
100
AcDbScale
 70
     0
300
1:4
140
1.0
141
4.0
290
     0
  0
SCALE
  5
4B
102
{ACAD_REACTORS
330
47
102
}
330
47
100
AcDbScale
 70
     0
300
1:5
140
1.0
141
5.0
290
     0
  0
SCALE
  5
4C
102
{ACAD_REACTORS
330
47
102
}
330
47
100
AcDbScale
 70
     0
300
1:8
140
1.0
141
8.0
290
     0
  0
SCALE
  5
4D
102
{ACAD_REACTORS
330
47
102
}
330
47
100
AcDbScale
 70
     0
300
1:10
140
1.0
141
10.0
290
     0
  0
SCALE
  5
4E
102
{ACAD_REACTORS
330
47
102
}
330
47
100
AcDbScale
 70
     0
300
1:16
140
1.0
141
16.0
290
     0
  0
SCALE
  5
4F
102
{ACAD_REACTORS
330
47
102
}
330
47
100
AcDbScale
 70
     0
300
1:20
140
1.0
141
20.0
290
     0
  0
SCALE
  5
50
102
{ACAD_REACTORS
330
47
102
}
330
47
100
AcDbScale
 70
     0
300
1:30
140
1.0
141
30.0
290
     0
  0
SCALE
  5
51
102
{ACAD_REACTORS
330
47
102
}
330
47
100
AcDbScale
 70
     0
300
1:40
140
1.0
141
40.0
290
     0
  0
SCALE
  5
52
102
{ACAD_REACTORS
330
47
102
}
330
47
100
AcDbScale
 70
     0
300
1:50
140
1.0
141
50.0
290
     0
  0
SCALE
  5
53
102
{ACAD_REACTORS
330
47
102
}
330
47
100
AcDbScale
 70
     0
300
1:100
140
1.0
141
100.0
290
     0
  0
SCALE
  5
54
102
{ACAD_REACTORS
330
47
102
}
330
47
100
AcDbScale
 70
     0
300
2:1
140
2.0
141
1.0
290
     0
  0
SCALE
  5
55
102
{ACAD_REACTORS
330
47
102
}
330
47
100
AcDbScale
 70
     0
300
4:1
140
4.0
141
1.0
290
     0
  0
SCALE
  5
56
102
{ACAD_REACTORS
330
47
102
}
330
47
100
AcDbScale
 70
     0
300
8:1
140
8.0
141
1.0
290
     0
  0
SCALE
  5
57
102
{ACAD_REACTORS
330
47
102
}
330
47
100
AcDbScale
 70
     0
300
10:1
140
10.0
141
1.0
290
     0
  0
SCALE
  5
58
102
{ACAD_REACTORS
330
47
102
}
330
47
100
AcDbScale
 70
     0
300
100:1
140
100.0
141
1.0
290
     0
  0
SCALE
  5
59
102
{ACAD_REACTORS
330
47
102
}
330
47
100
AcDbScale
 70
     0
300
1/128" = 1'-0"
140
0.0078125
141
12.0
290
     0
  0
SCALE
  5
5A
102
{ACAD_REACTORS
330
47
102
}
330
47
100
AcDbScale
 70
     0
300
1/64" = 1'-0"
140
0.015625
141
12.0
290
     0
  0
SCALE
  5
5B
102
{ACAD_REACTORS
330
47
102
}
330
47
100
AcDbScale
 70
     0
300
1/32" = 1'-0"
140
0.03125
141
12.0
290
     0
  0
SCALE
  5
5C
102
{ACAD_REACTORS
330
47
102
}
330
47
100
AcDbScale
 70
     0
300
1/16" = 1'-0"
140
0.0625
141
12.0
290
     0
  0
SCALE
  5
5D
102
{ACAD_REACTORS
330
47
102
}
330
47
100
AcDbScale
 70
     0
300
3/32" = 1'-0"
140
0.09375
141
12.0
290
     0
  0
SCALE
  5
5E
102
{ACAD_REACTORS
330
47
102
}
330
47
100
AcDbScale
 70
     0
300
1/8" = 1'-0"
140
0.125
141
12.0
290
     0
  0
SCALE
  5
5F
102
{ACAD_REACTORS
330
47
102
}
330
47
100
AcDbScale
 70
     0
300
3/16" = 1'-0"
140
0.1875
141
12.0
290
     0
  0
SCALE
  5
60
102
{ACAD_REACTORS
330
47
102
}
330
47
100
AcDbScale
 70
     0
300
1/4" = 1'-0"
140
0.25
141
12.0
290
     0
  0
SCALE
  5
61
102
{ACAD_REACTORS
330
47
102
}
330
47
100
AcDbScale
 70
     0
300
3/8" = 1'-0"
140
0.375
141
12.0
290
     0
  0
SCALE
  5
62
102
{ACAD_REACTORS
330
47
102
}
330
47
100
AcDbScale
 70
     0
300
1/2" = 1'-0"
140
0.5
141
12.0
290
     0
  0
SCALE
  5
63
102
{ACAD_REACTORS
330
47
102
}
330
47
100
AcDbScale
 70
     0
300
3/4" = 1'-0"
140
0.75
141
12.0
290
     0
  0
SCALE
  5
64
102
{ACAD_REACTORS
330
47
102
}
330
47
100
AcDbScale
 70
     0
300
1" = 1'-0"
140
1.0
141
12.0
290
     0
  0
SCALE
  5
65
102
{ACAD_REACTORS
330
47
102
}
330
47
100
AcDbScale
 70
     0
300
1-1/2" = 1'-0"
140
1.5
141
12.0
290
     0
  0
SCALE
  5
66
102
{ACAD_REACTORS
330
47
102
}
330
47
100
AcDbScale
 70
     0
300
3" = 1'-0"
140
3.0
141
12.0
290
     0
  0
SCALE
  5
67
102
{ACAD_REACTORS
330
47
102
}
330
47
100
AcDbScale
 70
     0
300
6" = 1'-0"
140
6.0
141
12.0
290
     0
  0
SCALE
  5
68
102
{ACAD_REACTORS
330
47
102
}
330
47
100
AcDbScale
 70
     0
300
1'-0" = 1'-0"
140
12.0
141
12.0
290
     0
  0
ENDSEC
  0
EOF
