  0
SECTION
  2
HEADER
  9
$ACADVER
  1
AC1015
  9
$ACADMAINTVER
 70
     6
  9
$DWGCODEPAGE
  3
ANSI_949
  9
$INSBASE
 10
0.0
 20
0.0
 30
0.0
  9
$EXTMIN
 10
-61.89000000000005
 20
-49.97073246008785
 30
0.0
  9
$EXTMAX
 10
157.4038718992977
 20
49.94746856623912
 30
0.0
  9
$LIMMIN
 10
0.0
 20
0.0
  9
$LIMMAX
 10
420.0
 20
297.0
  9
$ORTHOMODE
 70
     0
  9
$REGENMODE
 70
     1
  9
$FILLMODE
 70
     1
  9
$QTEXTMODE
 70
     0
  9
$MIRRTEXT
 70
     1
  9
$LTSCALE
 40
1.0
  9
$ATTMODE
 70
     1
  9
$TEXTSIZE
 40
3.5
  9
$TRACEWID
 40
1.0
  9
$TEXTSTYLE
  7
Standard
  9
$CLAYER
  8
0
  9
$CELTYPE
  6
ByLayer
  9
$CECOLOR
 62
   256
  9
$CELTSCALE
 40
1.0
  9
$DISPSILH
 70
     0
  9
$DIMSCALE
 40
1.0
  9
$DIMASZ
 40
3.302
  9
$DIMEXO
 40
1.0
  9
$DIMDLI
 40
3.75
  9
$DIMRND
 40
0.0
  9
$DIMDLE
 40
0.0
  9
$DIMEXE
 40
1.0
  9
$DIMTP
 40
0.0
  9
$DIMTM
 40
0.0
  9
$DIMTXT
 40
3.5
  9
$DIMCEN
 40
2.5
  9
$DIMTSZ
 40
0.0
  9
$DIMTOL
 70
     0
  9
$DIMLIM
 70
     0
  9
$DIMTIH
 70
     1
  9
$DIMTOH
 70
     1
  9
$DIMSE1
 70
     0
  9
$DIMSE2
 70
     0
  9
$DIMTAD
 70
     1
  9
$DIMZIN
 70
     0
  9
$DIMBLK
  1

  9
$DIMASO
 70
     1
  9
$DIMSHO
 70
     1
  9
$DIMPOST
  1

  9
$DIMAPOST
  1

  9
$DIMALT
 70
     0
  9
$DIMALTD
 70
     3
  9
$DIMALTF
 40
0.0393700787401575
  9
$DIMLFAC
 40
1.0
  9
$DIMTOFL
 70
     1
  9
$DIMTVP
 40
0.0
  9
$DIMTIX
 70
     0
  9
$DIMSOXD
 70
     0
  9
$DIMSAH
 70
     0
  9
$DIMBLK1
  1

  9
$DIMBLK2
  1

  9
$DIMSTYLE
  2
ISO-25
  9
$DIMCLRD
 70
     0
  9
$DIMCLRE
 70
     0
  9
$DIMCLRT
 70
     0
  9
$DIMTFAC
 40
1.0
  9
$DIMGAP
 40
1.524
  9
$DIMJUST
 70
     0
  9
$DIMSD1
 70
     0
  9
$DIMSD2
 70
     0
  9
$DIMTOLJ
 70
     0
  9
$DIMTZIN
 70
     0
  9
$DIMALTZ
 70
     0
  9
$DIMALTTZ
 70
     0
  9
$DIMUPT
 70
     0
  9
$DIMDEC
 70
     2
  9
$DIMTDEC
 70
     2
  9
$DIMALTU
 70
     2
  9
$DIMALTTD
 70
     3
  9
$DIMTXSTY
  7
Standard
  9
$DIMAUNIT
 70
     0
  9
$DIMADEC
 70
     2
  9
$DIMALTRND
 40
0.0
  9
$DIMAZIN
 70
     0
  9
$DIMDSEP
 70
    44
  9
$DIMATFIT
 70
     3
  9
$DIMFRAC
 70
     0
  9
$DIMLDRBLK
  1

  9
$DIMLUNIT
 70
     2
  9
$DIMLWD
 70
    -2
  9
$DIMLWE
 70
    -2
  9
$DIMTMOVE
 70
     0
  9
$LUNITS
 70
     2
  9
$LUPREC
 70
     2
  9
$SKETCHINC
 40
1.0
  9
$FILLETRAD
 40
10.0
  9
$AUNITS
 70
     0
  9
$AUPREC
 70
     2
  9
$MENU
  1
.
  9
$ELEVATION
 40
0.0
  9
$PELEVATION
 40
0.0
  9
$THICKNESS
 40
0.0
  9
$LIMCHECK
 70
     0
  9
$CHAMFERA
 40
0.0
  9
$CHAMFERB
 40
0.0
  9
$CHAMFERC
 40
0.0
  9
$CHAMFERD
 40
0.0
  9
$SKPOLY
 70
     0
  9
$TDCREATE
 40
2458323.442168437
  9
$TDUCREATE
 40
2458323.067168437
  9
$TDUPDATE
 40
2458323.745307222
  9
$TDUUPDATE
 40
2458323.370307222
  9
$TDINDWG
 40
0.0007142708
  9
$TDUSRTIMER
 40
2458323.370200845
  9
$USRTIMER
 70
     1
  9
$ANGBASE
 50
0.0
  9
$ANGDIR
 70
     0
  9
$PDMODE
 70
     0
  9
$PDSIZE
 40
-1.0
  9
$PLINEWID
 40
0.0
  9
$SPLFRAME
 70
     0
  9
$SPLINETYPE
 70
     6
  9
$SPLINESEGS
 70
     8
  9
$HANDSEED
  5
382
  9
$SURFTAB1
 70
     6
  9
$SURFTAB2
 70
     6
  9
$SURFTYPE
 70
     6
  9
$SURFU
 70
     6
  9
$SURFV
 70
     6
  9
$UCSBASE
  2

  9
$UCSNAME
  2

  9
$UCSORG
 10
0.0
 20
0.0
 30
0.0
  9
$UCSXDIR
 10
1.0
 20
0.0
 30
0.0
  9
$UCSYDIR
 10
0.0
 20
1.0
 30
0.0
  9
$UCSORTHOREF
  2

  9
$UCSORTHOVIEW
 70
     0
  9
$UCSORGTOP
 10
0.0
 20
0.0
 30
0.0
  9
$UCSORGBOTTOM
 10
0.0
 20
0.0
 30
0.0
  9
$UCSORGLEFT
 10
0.0
 20
0.0
 30
0.0
  9
$UCSORGRIGHT
 10
0.0
 20
0.0
 30
0.0
  9
$UCSORGFRONT
 10
0.0
 20
0.0
 30
0.0
  9
$UCSORGBACK
 10
0.0
 20
0.0
 30
0.0
  9
$PUCSBASE
  2

  9
$PUCSNAME
  2

  9
$PUCSORG
 10
0.0
 20
0.0
 30
0.0
  9
$PUCSXDIR
 10
1.0
 20
0.0
 30
0.0
  9
$PUCSYDIR
 10
0.0
 20
1.0
 30
0.0
  9
$PUCSORTHOREF
  2

  9
$PUCSORTHOVIEW
 70
     0
  9
$PUCSORGTOP
 10
0.0
 20
0.0
 30
0.0
  9
$PUCSORGBOTTOM
 10
0.0
 20
0.0
 30
0.0
  9
$PUCSORGLEFT
 10
0.0
 20
0.0
 30
0.0
  9
$PUCSORGRIGHT
 10
0.0
 20
0.0
 30
0.0
  9
$PUCSORGFRONT
 10
0.0
 20
0.0
 30
0.0
  9
$PUCSORGBACK
 10
0.0
 20
0.0
 30
0.0
  9
$USERI1
 70
     0
  9
$USERI2
 70
     0
  9
$USERI3
 70
     0
  9
$USERI4
 70
     0
  9
$USERI5
 70
     0
  9
$USERR1
 40
0.0
  9
$USERR2
 40
0.0
  9
$USERR3
 40
0.0
  9
$USERR4
 40
0.0
  9
$USERR5
 40
0.0
  9
$WORLDVIEW
 70
     1
  9
$SHADEDGE
 70
     3
  9
$SHADEDIF
 70
    70
  9
$TILEMODE
 70
     1
  9
$MAXACTVP
 70
    64
  9
$PINSBASE
 10
0.0
 20
0.0
 30
0.0
  9
$PLIMCHECK
 70
     0
  9
$PEXTMIN
 10
1.000000000000000E+20
 20
1.000000000000000E+20
 30
1.000000000000000E+20
  9
$PEXTMAX
 10
-1.000000000000000E+20
 20
-1.000000000000000E+20
 30
-1.000000000000000E+20
  9
$PLIMMIN
 10
0.0
 20
0.0
  9
$PLIMMAX
 10
0.0
 20
0.0
  9
$UNITMODE
 70
     0
  9
$VISRETAIN
 70
     1
  9
$PLINEGEN
 70
     0
  9
$PSLTSCALE
 70
     1
  9
$TREEDEPTH
 70
  3020
  9
$CMLSTYLE
  2
Standard
  9
$CMLJUST
 70
     0
  9
$CMLSCALE
 40
20.0
  9
$PROXYGRAPHICS
 70
     1
  9
$MEASUREMENT
 70
     1
  9
$CELWEIGHT
370
    -1
  9
$ENDCAPS
280
     0
  9
$JOINSTYLE
280
     0
  9
$LWDISPLAY
290
     1
  9
$INSUNITS
 70
     4
  9
$HYPERLINKBASE
  1

  9
$STYLESHEET
  1

  9
$XEDIT
290
     1
  9
$CEPSNTYPE
380
     0
  9
$PSTYLEMODE
290
     1
  9
$FINGERPRINTGUID
  2
{A82498C0-A588-4A5C-B84A-8D709DE5998B}
  9
$VERSIONGUID
  2
{FAEB1C32-E019-11D5-929B-00C0DF256EC4}
  9
$EXTNAMES
290
     1
  9
$PSVPSCALE
 40
0.0
  9
$OLESTARTUP
290
     0
  0
ENDSEC
  0
SECTION
  2
CLASSES
  0
CLASS
  1
ACDBDICTIONARYWDFLT
  2
AcDbDictionaryWithDefault
  3
ObjectDBX Classes
 90
        0
280
     0
281
     0
  0
CLASS
  1
VISUALSTYLE
  2
AcDbVisualStyle
  3
ObjectDBX Classes
 90
     4095
280
     0
281
     0
  0
CLASS
  1
MATERIAL
  2
AcDbMaterial
  3
ObjectDBX Classes
 90
     1153
280
     0
281
     0
  0
CLASS
  1
SCALE
  2
AcDbScale
  3
ObjectDBX Classes
 90
     1153
280
     0
281
     0
  0
CLASS
  1
SUN
  2
AcDbSun
  3
SCENEOE
 90
     1153
280
     0
281
     0
  0
CLASS
  1
ACDBPLACEHOLDER
  2
AcDbPlaceHolder
  3
ObjectDBX Classes
 90
        0
280
     0
281
     0
  0
CLASS
  1
LAYOUT
  2
AcDbLayout
  3
ObjectDBX Classes
 90
        0
280
     0
281
     0
  0
CLASS
  1
TABLESTYLE
  2
AcDbTableStyle
  3
ObjectDBX Classes
 90
     4095
280
     0
281
     0
  0
CLASS
  1
MLEADERSTYLE
  2
AcDbMLeaderStyle
  3
ACDB_MLEADERSTYLE_CLASS
 90
     4095
280
     0
281
     0
  0
CLASS
  1
RASTERVARIABLES
  2
AcDbRasterVariables
  3
ISM
 90
        0
280
     0
281
     0
  0
ENDSEC
  0
SECTION
  2
TABLES
  0
TABLE
  2
VPORT
  5
8
330
0
100
AcDbSymbolTable
 70
     1
  0
VPORT
  5
29
330
8
100
AcDbSymbolTableRecord
100
AcDbViewportTableRecord
  2
*Active
 70
     0
 10
0.0
 20
0.0
 11
1.0
 21
1.0
 12
31.65538572759108
 22
-12.31810785577112
 13
0.0
 23
0.0
 14
10.0
 24
10.0
 15
10.0
 25
10.0
 16
0.0
 26
0.0
 36
1.0
 17
0.0
 27
0.0
 37
0.0
 40
193.6500301055585
 41
1.632093933463796
 42
50.0
 43
0.0
 44
0.0
 50
0.0
 51
0.0
 71
    16
 72
  2000
 73
     1
 74
     3
 75
     0
 76
     0
 77
     0
 78
     0
281
     0
 65
     1
110
0.0
120
0.0
130
0.0
111
1.0
121
0.0
131
0.0
112
0.0
122
1.0
132
0.0
 79
     0
146
0.0
  0
ENDTAB
  0
TABLE
  2
LTYPE
  5
5
330
0
100
AcDbSymbolTable
 70
     6
  0
LTYPE
  5
14
330
5
100
AcDbSymbolTableRecord
100
AcDbLinetypeTableRecord
  2
ByBlock
 70
     0
  3

 72
    65
 73
     0
 40
0.0
  0
LTYPE
  5
15
330
5
100
AcDbSymbolTableRecord
100
AcDbLinetypeTableRecord
  2
ByLayer
 70
     0
  3

 72
    65
 73
     0
 40
0.0
  0
LTYPE
  5
16
330
5
100
AcDbSymbolTableRecord
100
AcDbLinetypeTableRecord
  2
Continuous
 70
     0
  3
Solid line
 72
    65
 73
     0
 40
0.0
  0
LTYPE
  5
6A
330
5
100
AcDbSymbolTableRecord
100
AcDbLinetypeTableRecord
  2
HIDDEN
 70
     0
  3
Hidden __ __ __ __ __ __ __ __ __ __ __ __ __ __
 72
    65
 73
     2
 40
1.905
 49
1.27
 74
     0
 49
-0.635
 74
     0
  0
LTYPE
  5
6B
330
5
100
AcDbSymbolTableRecord
100
AcDbLinetypeTableRecord
  2
PHANTOM
 70
     0
  3
Phantom ______  __  __  ______  __  __  ______
 72
    65
 73
     6
 40
12.7
 49
6.35
 74
     0
 49
-1.27
 74
     0
 49
1.27
 74
     0
 49
-1.27
 74
     0
 49
1.27
 74
     0
 49
-1.27
 74
     0
  0
LTYPE
  5
6C
330
5
100
AcDbSymbolTableRecord
100
AcDbLinetypeTableRecord
  2
CENTER
 70
     0
  3
Center ____ _ ____ _ ____ _ ____ _ ____ _ ____
 72
    65
 73
     4
 40
10.16
 49
6.35
 74
     0
 49
-1.27
 74
     0
 49
1.27
 74
     0
 49
-1.27
 74
     0
  0
LTYPE
  5
6D
330
5
100
AcDbSymbolTableRecord
100
AcDbLinetypeTableRecord
  2
CENTERX2
 70
     0
  3
Center (2x) ________  __  ________  __  _____
 72
    65
 73
     4
 40
20.32
 49
12.7
 74
     0
 49
-2.54
 74
     0
 49
2.54
 74
     0
 49
-2.54
 74
     0
  0
LTYPE
  5
6E
330
5
100
AcDbSymbolTableRecord
100
AcDbLinetypeTableRecord
  2
DOT2
 70
     0
  3
Dot (.5x) ........................................
 72
    65
 73
     2
 40
0.635
 49
0.0
 74
     0
 49
-0.635
 74
     0
  0
ENDTAB
  0
TABLE
  2
LAYER
  5
2
102
{ACAD_XDICTIONARY
360
251
102
}
330
0
100
AcDbSymbolTable
 70
    18
  0
LAYER
  5
10
330
2
100
AcDbSymbolTableRecord
100
AcDbLayerTableRecord
  2
0
 70
     0
 62
     7
  6
Continuous
370
    -3
390
F
  0
LAYER
  5
6F
330
2
100
AcDbSymbolTableRecord
100
AcDbLayerTableRecord
  2
FORMAT
 70
     0
 62
     2
  6
Continuous
370
    -3
390
F
  0
LAYER
  5
70
330
2
100
AcDbSymbolTableRecord
100
AcDbLayerTableRecord
  2
외형선
 70
     0
 62
     4
  6
Continuous
370
    30
390
F
  0
LAYER
  5
71
330
2
100
AcDbSymbolTableRecord
100
AcDbLayerTableRecord
  2
숨은선
 70
     0
 62
     2
  6
HIDDEN
370
    15
390
F
  0
LAYER
  5
72
330
2
100
AcDbSymbolTableRecord
100
AcDbLayerTableRecord
  2
중심선
 70
     0
 62
     1
  6
CENTERX2
370
    -3
390
F
  0
LAYER
  5
73
330
2
100
AcDbSymbolTableRecord
100
AcDbLayerTableRecord
  2
파단선
 70
     0
 62
     4
  6
Continuous
370
    -3
390
F
  0
LAYER
  5
74
330
2
100
AcDbSymbolTableRecord
100
AcDbLayerTableRecord
  2
해칭선
 70
     0
 62
   100
  6
Continuous
370
    -3
390
F
  0
LAYER
  5
75
330
2
100
AcDbSymbolTableRecord
100
AcDbLayerTableRecord
  2
가는실선
 70
     0
 62
     4
  6
Continuous
370
    -3
390
F
  0
LAYER
  5
76
330
2
100
AcDbSymbolTableRecord
100
AcDbLayerTableRecord
  2
치수_보조선
 70
     0
 62
     4
  6
Continuous
370
    -3
390
F
  0
LAYER
  5
77
330
2
100
AcDbSymbolTableRecord
100
AcDbLayerTableRecord
  2
치수문자_일반주서
 70
     0
 62
     7
  6
Continuous
370
    15
390
F
  0
LAYER
  5
78
330
2
100
AcDbSymbolTableRecord
100
AcDbLayerTableRecord
  2
개별주서
 70
     0
 62
   100
  6
Continuous
370
    30
390
F
  0
LAYER
  5
79
330
2
100
AcDbSymbolTableRecord
100
AcDbLayerTableRecord
  2
중간선
 70
     0
 62
     2
  6
Continuous
370
    15
390
F
  0
LAYER
  5
7A
330
2
100
AcDbSymbolTableRecord
100
AcDbLayerTableRecord
  2
윤곽선
 70
     0
 62
     3
  6
Continuous
370
    40
390
F
  0
LAYER
  5
7B
330
2
100
AcDbSymbolTableRecord
100
AcDbLayerTableRecord
  2
중심마크
 70
     0
 62
   100
  6
Continuous
370
    30
390
F
  0
LAYER
  5
7C
330
2
100
AcDbSymbolTableRecord
100
AcDbLayerTableRecord
  2
가상선
 70
     0
 62
     4
  6
PHANTOM
370
    -3
390
F
  0
LAYER
  5
7D
330
2
100
AcDbSymbolTableRecord
100
AcDbLayerTableRecord
  2
특수지정선
 70
     0
 62
     5
  6
CENTERX2
370
    60
390
F
  0
LAYER
  5
7E
330
2
100
AcDbSymbolTableRecord
100
AcDbLayerTableRecord
  2
참조1
 70
     0
 62
    -4
  6
Continuous
370
    -3
390
F
  0
LAYER
  5
186
330
2
100
AcDbSymbolTableRecord
100
AcDbLayerTableRecord
  2
Defpoints
 70
     0
 62
     7
  6
Continuous
290
     0
370
    -3
390
F
  0
ENDTAB
  0
TABLE
  2
STYLE
  5
3
330
0
100
AcDbSymbolTable
 70
     2
  0
STYLE
  5
11
330
3
100
AcDbSymbolTableRecord
100
AcDbTextStyleTableRecord
  2
Standard
 70
     0
 40
0.0
 41
1.0
 50
0.0
 71
     0
 42
3.5
  3
txt
  4

  0
STYLE
  5
94
330
3
100
AcDbSymbolTableRecord
100
AcDbTextStyleTableRecord
  2
SLDTEXTSTYLE0
 70
     0
 40
0.0
 41
0.75
 50
0.0
 71
     0
 42
3.5
  3
TXT
  4

  0
ENDTAB
  0
TABLE
  2
VIEW
  5
6
330
0
100
AcDbSymbolTable
 70
     0
  0
ENDTAB
  0
TABLE
  2
UCS
  5
7
330
0
100
AcDbSymbolTable
 70
     0
  0
ENDTAB
  0
TABLE
  2
APPID
  5
9
330
0
100
AcDbSymbolTable
 70
     1
  0
APPID
  5
12
330
9
100
AcDbSymbolTableRecord
100
AcDbRegAppTableRecord
  2
ACAD
 70
     0
  0
ENDTAB
  0
TABLE
  2
DIMSTYLE
  5
A
330
0
100
AcDbSymbolTable
 70
     3
100
AcDbDimStyleTable
  0
DIMSTYLE
105
27
330
A
100
AcDbSymbolTableRecord
100
AcDbDimStyleTableRecord
  2
ISO-25
 70
     0
 41
2.5
 42
0.625
 43
3.75
 44
1.25
 73
     0
 74
     0
 77
     1
 78
     8
140
2.5
141
2.5
143
0.03937007874016
147
0.625
171
     3
172
     1
178
     0
271
     2
272
     2
274
     3
278
    44
283
     0
284
     8
340
11
  0
DIMSTYLE
105
105
330
A
100
AcDbSymbolTableRecord
100
AcDbDimStyleTableRecord
  2
SLDDIMSTYLE0
 70
     0
 41
3.302
 44
0.0
 45
0.000000001
 73
     0
 74
     0
 77
     1
 78
    12
 79
     3
140
3.5
143
0.0393700787401575
147
0.875
148
0.000000001
170
     1
172
     1
173
     1
178
     0
271
     2
272
     2
276
     2
284
    12
289
     0
340
94
  0
DIMSTYLE
105
11A
102
{ACAD_REACTORS
330
119
330
12D
330
140
330
104
102
}
330
A
100
AcDbSymbolTableRecord
100
AcDbDimStyleTableRecord
  2
SLDDIMSTYLE1
 70
     0
 41
3.302
 44
0.0
 45
0.000000001
 73
     0
 74
     0
 77
     1
 78
    12
 79
     3
140
3.5
143
0.0393700787401575
147
0.875
148
0.000000001
170
     1
173
     1
178
     0
271
     2
272
     2
276
     2
284
    12
340
94
  0
ENDTAB
  0
TABLE
  2
BLOCK_RECORD
  5
1
330
0
100
AcDbSymbolTable
 70
    15
  0
BLOCK_RECORD
  5
1F
330
1
100
AcDbSymbolTableRecord
100
AcDbBlockTableRecord
  2
*Model_Space
340
22
  0
BLOCK_RECORD
  5
1B
330
1
100
AcDbSymbolTableRecord
100
AcDbBlockTableRecord
  2
*Paper_Space
340
1E
  0
BLOCK_RECORD
  5
23
330
1
100
AcDbSymbolTableRecord
100
AcDbBlockTableRecord
  2
*Paper_Space0
340
26
  0
BLOCK_RECORD
  5
7F
330
1
100
AcDbSymbolTableRecord
100
AcDbBlockTableRecord
  2
블럭10
340
0
102
{BLKREFS
331
FD
102
}
  0
BLOCK_RECORD
  5
106
330
1
100
AcDbSymbolTableRecord
100
AcDbBlockTableRecord
  2
_D
340
0
  0
BLOCK_RECORD
  5
11B
330
1
100
AcDbSymbolTableRecord
100
AcDbBlockTableRecord
  2
_D_1
340
0
  0
BLOCK_RECORD
  5
12E
330
1
100
AcDbSymbolTableRecord
100
AcDbBlockTableRecord
  2
_D_2
340
0
  0
BLOCK_RECORD
  5
141
330
1
100
AcDbSymbolTableRecord
100
AcDbBlockTableRecord
  2
_D_3
340
0
  0
BLOCK_RECORD
  5
15A
330
1
100
AcDbSymbolTableRecord
100
AcDbBlockTableRecord
  2
SW_DOWELSYMBOL_0
340
0
102
{BLKREFS
331
160
102
}
  0
BLOCK_RECORD
  5
255
330
1
100
AcDbSymbolTableRecord
100
AcDbBlockTableRecord
  2
*D7
340
0
  0
BLOCK_RECORD
  5
261
330
1
100
AcDbSymbolTableRecord
100
AcDbBlockTableRecord
  2
*D8
340
0
  0
BLOCK_RECORD
  5
26D
330
1
100
AcDbSymbolTableRecord
100
AcDbBlockTableRecord
  2
*D9
340
0
  0
BLOCK_RECORD
  5
279
330
1
100
AcDbSymbolTableRecord
100
AcDbBlockTableRecord
  2
*D10
340
0
  0
BLOCK_RECORD
  5
2F2
330
1
100
AcDbSymbolTableRecord
100
AcDbBlockTableRecord
  2
*D11
340
0
  0
BLOCK_RECORD
  5
2FE
330
1
100
AcDbSymbolTableRecord
100
AcDbBlockTableRecord
  2
*D12
340
0
  0
BLOCK_RECORD
  5
30A
330
1
100
AcDbSymbolTableRecord
100
AcDbBlockTableRecord
  2
*D13
340
0
  0
BLOCK_RECORD
  5
316
330
1
100
AcDbSymbolTableRecord
100
AcDbBlockTableRecord
  2
*D14
340
0
  0
ENDTAB
  0
ENDSEC
  0
SECTION
  2
BLOCKS
  0
BLOCK
  5
20
330
1F
100
AcDbEntity
  8
0
100
AcDbBlockBegin
  2
*Model_Space
 70
     0
 10
0.0
 20
0.0
 30
0.0
  3
*Model_Space
  1
*Model_Space
  0
ENDBLK
  5
21
330
1F
100
AcDbEntity
  8
0
100
AcDbBlockEnd
  0
BLOCK
  5
1C
330
1B
100
AcDbEntity
 67
     1
  8
0
100
AcDbBlockBegin
  2
*Paper_Space
 70
     0
 10
0.0
 20
0.0
 30
0.0
  3
*Paper_Space
  1
*Paper_Space
  0
ENDBLK
  5
1D
330
1B
100
AcDbEntity
 67
     1
  8
0
100
AcDbBlockEnd
  0
BLOCK
  5
24
330
23
100
AcDbEntity
  8
0
100
AcDbBlockBegin
  2
*Paper_Space0
 70
     0
 10
0.0
 20
0.0
 30
0.0
  3
*Paper_Space0
  1
*Paper_Space0
  0
ENDBLK
  5
25
330
23
100
AcDbEntity
  8
0
100
AcDbBlockEnd
  0
BLOCK
  5
80
330
7F
100
AcDbEntity
  8
0
100
AcDbBlockBegin
  2
블럭10
 70
     2
 10
0.0
 20
0.0
 30
0.0
  3
블럭10
  1
블럭10
  0
ELLIPSE
  5
82
330
7F
100
AcDbEntity
  8
중심선
100
AcDbEllipse
 10
20.54032771741204
 20
12.0471743016438
 30
0.0
 11
6.600054785286829
 21
-1.261213355974178E-13
 31
0.0
210
0.0
220
0.0
230
1.0
 40
0.636358354079598
 41
0.9219305317359503
 42
6.513795318482858
  0
ELLIPSE
  5
83
330
7F
100
AcDbEntity
  8
중심선
100
AcDbEllipse
 10
20.54032771746488
 20
12.04717430159265
 30
0.0
 11
3.960054785062283
 21
1.540847449632565E-10
 31
0.0
210
0.0
220
0.0
230
1.0
 40
0.3939339440162632
 41
1.131841032648279
 42
5.62031148352944
  0
LINE
  5
84
330
7F
100
AcDbEntity
  8
중심선
100
AcDbLine
 10
2.268634060543552
 20
16.24717430164393
 30
0.0
 11
5.714909304380834
 21
16.24717430164393
 31
0.0
  0
LINE
  5
85
330
7F
100
AcDbEntity
  8
중심선
100
AcDbLine
 10
5.245725140726316
 20
7.84717430164391
 30
0.0
 11
8.692000384563599
 21
7.84717430164391
 31
0.0
  0
LINE
  5
86
330
7F
100
AcDbEntity
  8
중심선
100
AcDbLine
 10
15.74043728645272
 20
16.24717430164393
 30
0.0
 11
8.692000384563599
 21
7.84717430164391
 31
0.0
  0
LINE
  5
87
330
7F
100
AcDbEntity
  8
중심선
100
AcDbLine
 10
0.1404042013395286
 20
13.71084872107135
 30
0.0
 11
3.58671253028996
 21
13.71088815037384
 31
0.0
  0
LINE
  5
88
330
7F
100
AcDbEntity
  8
중심선
100
AcDbLine
 10
2.750260043222114
 20
10.84717430164391
 30
0.0
 11
6.196535287059397
 21
10.84717430164391
 31
0.0
  0
LINE
  5
89
330
7F
100
AcDbEntity
  8
중심선
100
AcDbLine
 10
12.29416204261559
 20
16.24717430164393
 30
0.0
 11
5.245725140726316
 21
7.84717430164391
 31
0.0
  0
LINE
  5
8A
330
7F
100
AcDbEntity
  8
중심선
100
AcDbLine
 10
10.72767329541681
 20
16.24717430164393
 30
0.0
 11
6.196535287059397
 21
10.84717430164391
 31
0.0
  0
LINE
  5
8B
330
7F
100
AcDbEntity
  8
중심선
100
AcDbLine
 10
7.28139805157953
 20
16.24717430164393
 30
0.0
 11
2.750260043222114
 21
10.84717430164391
 31
0.0
  0
LINE
  5
8C
330
7F
100
AcDbEntity
  8
중심선
100
AcDbLine
 10
5.714909304380834
 20
16.24717430164393
 30
0.0
 11
3.58671253028996
 21
13.71088815037384
 31
0.0
  0
LINE
  5
8D
330
7F
100
AcDbEntity
  8
중심선
100
AcDbLine
 10
2.268634060543552
 20
16.24717430164393
 30
0.0
 11
0.1404042013395286
 21
13.71084872107135
 31
0.0
  0
LINE
  5
8E
330
7F
100
AcDbEntity
  8
중심선
100
AcDbLine
 10
7.28139805157953
 20
16.24717430164393
 30
0.0
 11
10.72767329541681
 21
16.24717430164393
 31
0.0
  0
LINE
  5
8F
330
7F
100
AcDbEntity
  8
중심선
100
AcDbLine
 10
12.29416204261559
 20
16.24717430164393
 30
0.0
 11
15.74043728645272
 21
16.24717430164393
 31
0.0
  0
LINE
  5
90
330
7F
100
AcDbEntity
  8
중심선
100
AcDbLine
 10
19.22036997980202
 20
11.08717430171403
 30
0.0
 11
23.66174974927406
 21
11.08717430171406
 31
0.0
  0
LINE
  5
91
330
7F
100
AcDbEntity
  8
중심선
100
AcDbLine
 10
19.22039502424796
 20
13.00717430171391
 30
0.0
 11
19.22036997980202
 21
11.08717430171403
 31
0.0
  0
LINE
  5
92
330
7F
100
AcDbEntity
  8
중심선
100
AcDbLine
 10
19.22039502424796
 20
13.00717430171391
 30
0.0
 11
26.96566020931264
 21
13.00717430171391
 31
0.0
  0
LINE
  5
93
330
7F
100
AcDbEntity
  8
중심선
100
AcDbLine
 10
22.22332737316547
 20
13.45928029700563
 30
0.0
 11
24.52862924686651
 21
15.39360700705356
 31
0.0
  0
ATTDEF
  5
95
330
7F
100
AcDbEntity
  8
FORMAT
 62
     2
100
AcDbText
 10
4.408487351596664
 20
2.075366912832191
 30
0.0
 40
4.233333333333333
  1
E1175056
 41
0.75
  7
SLDTEXTSTYLE0
 11
4.408487351596664
 21
-0.0412997538344756
 31
0.0
100
AcDbAttributeDefinition
  3

  2
AUTOATTR0
 70
     0
 74
     1
  0
ENDBLK
  5
81
330
7F
100
AcDbEntity
  8
0
100
AcDbBlockEnd
  0
BLOCK
  5
107
330
106
100
AcDbEntity
  8
0
100
AcDbBlockBegin
  2
_D
 70
     0
 10
0.0
 20
0.0
 30
0.0
  3
_D
  1
_D
  0
LINE
  5
109
330
106
100
AcDbEntity
  8
치수문자_일반주서
 62
     0
370
    -2
100
AcDbLine
 10
-45.21249999999999
 20
11.11357492872389
 30
0.0
 11
-57.51500000000004
 21
11.11357492872384
 31
0.0
  0
LINE
  5
10A
330
106
100
AcDbEntity
  8
치수문자_일반주서
 62
     0
370
    -2
100
AcDbLine
 10
-42.99
 20
-11.1114250712761
 30
0.0
 11
-57.51499999999997
 21
-11.11142507127615
 31
0.0
  0
LINE
  5
10B
330
106
100
AcDbEntity
  8
치수문자_일반주서
 62
     0
370
    -2
100
AcDbLine
 10
-57.51500000000003
 20
7.811574928723841
 30
0.0
 11
-57.51499999999998
 21
-7.809425071276154
 31
0.0
  0
SOLID
  5
10C
330
106
100
AcDbEntity
  8
치수문자_일반주서
 62
     0
100
AcDbTrace
 10
-56.96466666666669
 20
7.811574928723843
 30
0.0
 11
-58.06533333333336
 21
7.811574928723839
 31
0.0
 12
-57.51500000000004
 22
11.11357492872384
 32
0.0
 13
-57.51500000000004
 23
11.11357492872384
 33
0.0
  0
SOLID
  5
10D
330
106
100
AcDbEntity
  8
치수문자_일반주서
 62
     0
100
AcDbTrace
 10
-58.06533333333331
 20
-7.809425071276156
 30
0.0
 11
-56.96466666666664
 21
-7.809425071276152
 31
0.0
 12
-57.51499999999997
 22
-11.11142507127615
 32
0.0
 13
-57.51499999999997
 23
-11.11142507127615
 33
0.0
  0
MTEXT
  5
10E
330
106
100
AcDbEntity
  8
치수문자_일반주서
 62
     0
100
AcDbMText
 10
-61.89000000000001
 20
0.0010749287238752
 30
0.0
 40
3.5
 41
0.0
 71
     2
 72
     1
  1
\A1;%%c22.23 [7/8]
  7
SLDTEXTSTYLE0
 11
-3.516746948643916E-15
 21
1.0
 31
0.0
 73
     1
 44
1.0
  0
POINT
  5
10F
330
106
100
AcDbEntity
  8
Defpoints
 62
     0
100
AcDbPoint
 10
-45.14999999999999
 20
11.11357492872389
 30
0.0
  0
POINT
  5
110
330
106
100
AcDbEntity
  8
Defpoints
 62
     0
100
AcDbPoint
 10
-42.9275
 20
-11.1114250712761
 30
0.0
  0
POINT
  5
111
330
106
100
AcDbEntity
  8
Defpoints
 62
     0
100
AcDbPoint
 10
-57.51499999999997
 20
-11.11142507127616
 30
0.0
  0
ENDBLK
  5
108
330
106
100
AcDbEntity
  8
0
100
AcDbBlockEnd
  0
BLOCK
  5
11C
330
11B
100
AcDbEntity
  8
0
100
AcDbBlockBegin
  2
_D_1
 70
     0
 10
0.0
 20
0.0
 30
0.0
  3
_D_1
  1
_D_1
  0
LINE
  5
11E
330
11B
100
AcDbEntity
  8
치수문자_일반주서
 62
     0
370
    -2
100
AcDbLine
 10
139.0
 20
11.17607492872391
 30
0.0
 11
139.0
 21
33.57246856623917
 31
0.0
  0
LINE
  5
11F
330
11B
100
AcDbEntity
  8
치수문자_일반주서
 62
     0
370
    -2
100
AcDbLine
 10
12.00000000000001
 20
11.1760749287239
 30
0.0
 11
12.00000000000001
 21
33.57246856623917
 31
0.0
  0
LINE
  5
120
330
11B
100
AcDbEntity
  8
치수문자_일반주서
 62
     0
370
    -2
100
AcDbLine
 10
135.698
 20
33.57246856623917
 30
0.0
 11
15.30200000000001
 21
33.57246856623917
 31
0.0
  0
SOLID
  5
121
330
11B
100
AcDbEntity
  8
치수문자_일반주서
 62
     0
100
AcDbTrace
 10
135.698
 20
33.02213523290584
 30
0.0
 11
135.698
 21
34.12280189957251
 31
0.0
 12
139.0
 22
33.57246856623917
 32
0.0
 13
139.0
 23
33.57246856623917
 33
0.0
  0
SOLID
  5
122
330
11B
100
AcDbEntity
  8
치수문자_일반주서
 62
     0
100
AcDbTrace
 10
15.30200000000001
 20
34.12280189957251
 30
0.0
 11
15.30200000000001
 21
33.02213523290584
 31
0.0
 12
12.00000000000001
 22
33.57246856623917
 32
0.0
 13
12.00000000000001
 23
33.57246856623917
 33
0.0
  0
MTEXT
  5
123
330
11B
100
AcDbEntity
  8
치수문자_일반주서
 62
     0
100
AcDbMText
 10
75.50000000000003
 20
37.94746856623917
 30
0.0
 40
3.5
 41
0.0
 71
     2
 72
     1
  1
\A1;127 [5]
  7
SLDTEXTSTYLE0
 73
     1
 44
1.0
  0
POINT
  5
124
330
11B
100
AcDbEntity
  8
Defpoints
 62
     0
100
AcDbPoint
 10
139.0
 20
11.11357492872391
 30
0.0
  0
POINT
  5
125
330
11B
100
AcDbEntity
  8
Defpoints
 62
     0
100
AcDbPoint
 10
12.00000000000001
 20
11.1135749287239
 30
0.0
  0
POINT
  5
126
330
11B
100
AcDbEntity
  8
Defpoints
 62
     0
100
AcDbPoint
 10
12.00000000000001
 20
33.57246856623917
 30
0.0
  0
ENDBLK
  5
11D
330
11B
100
AcDbEntity
  8
0
100
AcDbBlockEnd
  0
BLOCK
  5
12F
330
12E
100
AcDbEntity
  8
0
100
AcDbBlockBegin
  2
_D_2
 70
     0
 10
0.0
 20
0.0
 30
0.0
  3
_D_2
  1
_D_2
  0
LINE
  5
131
330
12E
100
AcDbEntity
  8
치수문자_일반주서
 62
     0
370
    -2
100
AcDbLine
 10
139.0
 20
11.17607492872391
 30
0.0
 11
139.0
 21
45.57246856623912
 31
0.0
  0
LINE
  5
132
330
12E
100
AcDbEntity
  8
치수문자_일반주서
 62
     0
370
    -2
100
AcDbLine
 10
-45.14999999999999
 20
8.842639170700886
 30
0.0
 11
-45.14999999999999
 21
45.57246856623912
 31
0.0
  0
LINE
  5
133
330
12E
100
AcDbEntity
  8
치수문자_일반주서
 62
     0
370
    -2
100
AcDbLine
 10
135.698
 20
45.57246856623912
 30
0.0
 11
-41.84799999999999
 21
45.57246856623912
 31
0.0
  0
SOLID
  5
134
330
12E
100
AcDbEntity
  8
치수문자_일반주서
 62
     0
100
AcDbTrace
 10
135.698
 20
45.02213523290579
 30
0.0
 11
135.698
 21
46.12280189957246
 31
0.0
 12
139.0
 22
45.57246856623912
 32
0.0
 13
139.0
 23
45.57246856623912
 33
0.0
  0
SOLID
  5
135
330
12E
100
AcDbEntity
  8
치수문자_일반주서
 62
     0
100
AcDbTrace
 10
-41.84799999999999
 20
46.12280189957246
 30
0.0
 11
-41.84799999999999
 21
45.02213523290579
 31
0.0
 12
-45.14999999999999
 22
45.57246856623912
 32
0.0
 13
-45.14999999999999
 23
45.57246856623912
 33
0.0
  0
MTEXT
  5
136
330
12E
100
AcDbEntity
  8
치수문자_일반주서
 62
     0
100
AcDbMText
 10
46.92500000000001
 20
49.94746856623912
 30
0.0
 40
3.5
 41
0.0
 71
     2
 72
     1
  1
\A1;184.15 [7 1/4]
  7
SLDTEXTSTYLE0
 73
     1
 44
1.0
  0
POINT
  5
137
330
12E
100
AcDbEntity
  8
Defpoints
 62
     0
100
AcDbPoint
 10
139.0
 20
11.11357492872391
 30
0.0
  0
POINT
  5
138
330
12E
100
AcDbEntity
  8
Defpoints
 62
     0
100
AcDbPoint
 10
-45.14999999999999
 20
8.780139170700886
 30
0.0
  0
POINT
  5
139
330
12E
100
AcDbEntity
  8
Defpoints
 62
     0
100
AcDbPoint
 10
-45.14999999999999
 20
45.57246856623912
 30
0.0
  0
ENDBLK
  5
130
330
12E
100
AcDbEntity
  8
0
100
AcDbBlockEnd
  0
BLOCK
  5
142
330
141
100
AcDbEntity
  8
0
100
AcDbBlockBegin
  2
_D_3
 70
     0
 10
0.0
 20
0.0
 30
0.0
  3
_D_3
  1
_D_3
  0
LINE
  5
144
330
141
100
AcDbEntity
  8
치수문자_일반주서
 62
     0
370
    -2
100
AcDbLine
 10
139.0625
 20
11.11357492872391
 30
0.0
 11
156.8535385659643
 21
11.11357492872397
 31
0.0
  0
LINE
  5
145
330
141
100
AcDbEntity
  8
치수문자_일반주서
 62
     0
370
    -2
100
AcDbLine
 10
139.0625
 20
-11.11142507127612
 30
0.0
 11
156.8535385659644
 21
-11.11142507127605
 31
0.0
  0
LINE
  5
146
330
141
100
AcDbEntity
  8
치수문자_일반주서
 62
     0
370
    -2
100
AcDbLine
 10
156.8535385659643
 20
11.11357492872397
 30
0.0
 11
156.8535385659642
 21
45.75467287176843
 31
0.0
  0
LINE
  5
147
330
141
100
AcDbEntity
  8
치수문자_일반주서
 62
     0
370
    -2
100
AcDbLine
 10
156.8535385659643
 20
7.811574928723974
 30
0.0
 11
156.8535385659644
 21
-7.809425071276053
 31
0.0
  0
SOLID
  5
148
330
141
100
AcDbEntity
  8
치수문자_일반주서
 62
     0
100
AcDbTrace
 10
157.4038718992976
 20
7.811574928723976
 30
0.0
 11
156.303205232631
 21
7.811574928723973
 31
0.0
 12
156.8535385659643
 22
11.11357492872397
 32
0.0
 13
156.8535385659643
 23
11.11357492872397
 33
0.0
  0
SOLID
  5
149
330
141
100
AcDbEntity
  8
치수문자_일반주서
 62
     0
100
AcDbTrace
 10
156.3032052326311
 20
-7.809425071276054
 30
0.0
 11
157.4038718992977
 21
-7.809425071276051
 31
0.0
 12
156.8535385659644
 22
-11.11142507127605
 32
0.0
 13
156.8535385659644
 23
-11.11142507127605
 33
0.0
  0
MTEXT
  5
14A
330
141
100
AcDbEntity
  8
치수문자_일반주서
 62
     0
100
AcDbMText
 10
152.4785385659642
 20
31.31717287176842
 30
0.0
 40
3.5
 41
0.0
 71
     2
 72
     1
  1
\A1;%%c22.23 [7/8]
  7
SLDTEXTSTYLE0
 11
-3.836451216702449E-15
 21
1.0
 31
0.0
 73
     1
 44
1.0
  0
POINT
  5
14B
330
141
100
AcDbEntity
  8
Defpoints
 62
     0
100
AcDbPoint
 10
139.0
 20
11.11357492872391
 30
0.0
  0
POINT
  5
14C
330
141
100
AcDbEntity
  8
Defpoints
 62
     0
100
AcDbPoint
 10
139.0
 20
-11.11142507127612
 30
0.0
  0
POINT
  5
14D
330
141
100
AcDbEntity
  8
Defpoints
 62
     0
100
AcDbPoint
 10
156.8535385659644
 20
-11.11142507127605
 30
0.0
  0
ENDBLK
  5
143
330
141
100
AcDbEntity
  8
0
100
AcDbBlockEnd
  0
BLOCK
  5
15B
330
15A
100
AcDbEntity
  8
0
100
AcDbBlockBegin
  2
SW_DOWELSYMBOL_0
 70
     0
 10
0.0
 20
0.0
 30
0.0
  3
SW_DOWELSYMBOL_0
  1
SW_DOWELSYMBOL_0
  0
CIRCLE
  5
15D
330
15A
100
AcDbEntity
  8
해칭선
 62
     0
100
AcDbCircle
 10
0.0
 20
0.0
 30
0.0
 40
3.000000000000002
  0
HATCH
  5
15E
330
15A
100
AcDbEntity
  8
0
  6
Continuous
 62
     0
370
     0
100
AcDbHatch
 10
0.0
 20
0.0
 30
0.0
210
0.0
220
0.0
230
1.0
  2
SOLID
 70
     1
 71
     0
 91
        1
 92
        0
 93
        3
 72
     2
 10
0.0
 20
0.0
 40
3.000000000000002
 50
0.0
 51
90.0
 73
     1
 72
     1
 10
0.0
 20
3.000000000000002
 11
0.0
 21
0.0
 72
     1
 10
0.0
 20
0.0
 11
3.000000000000003
 21
0.0
 97
        0
 75
     0
 76
     1
 98
        1
 10
0.0
 20
0.0
  0
HATCH
  5
15F
330
15A
100
AcDbEntity
  8
0
  6
Continuous
 62
     0
370
     0
100
AcDbHatch
 10
0.0
 20
0.0
 30
0.0
210
0.0
220
0.0
230
1.0
  2
SOLID
 70
     1
 71
     0
 91
        1
 92
        0
 93
        3
 72
     2
 10
0.0
 20
0.0
 40
3.000000000000002
 50
180.0
 51
270.0000000000007
 73
     1
 72
     1
 10
0.0
 20
-3.000000000000002
 11
0.0
 21
0.0
 72
     1
 10
0.0
 20
0.0
 11
-3.000000000000002
 21
0.0
 97
        0
 75
     0
 76
     1
 98
        1
 10
0.0
 20
0.0
  0
ENDBLK
  5
15C
330
15A
100
AcDbEntity
  8
0
100
AcDbBlockEnd
  0
BLOCK
  5
256
330
255
100
AcDbEntity
  8
0
100
AcDbBlockBegin
  2
*D7
 70
     1
 10
0.0
 20
0.0
 30
0.0
  3
*D7
  1
*D8
  0
LINE
  5
258
330
255
100
AcDbEntity
  8
치수문자_일반주서
 62
     0
370
    -2
100
AcDbLine
 10
16.36000000000002
 20
25.48232537171333
 30
0.0
 11
4.374999999999984
 21
25.48232537171328
 31
0.0
  0
LINE
  5
259
330
255
100
AcDbEntity
  8
치수문자_일반주서
 62
     0
370
    -2
100
AcDbLine
 10
18.90000000000003
 20
0.0823253717133594
 30
0.0
 11
4.375000000000073
 21
0.0823253717133046
 31
0.0
  0
LINE
  5
25A
330
255
100
AcDbEntity
  8
치수문자_일반주서
 62
     0
370
    -2
100
AcDbLine
 10
4.374999999999996
 20
22.18032537171328
 30
0.0
 11
4.375000000000061
 21
3.384325371713304
 31
0.0
  0
SOLID
  5
25B
330
255
100
AcDbEntity
  8
치수문자_일반주서
 62
     0
100
AcDbTrace
 10
4.925333333333329
 20
22.18032537171329
 30
0.0
 11
3.824666666666662
 21
22.18032537171328
 31
0.0
 12
4.374999999999984
 22
25.48232537171328
 32
0.0
 13
4.374999999999984
 23
25.48232537171328
 33
0.0
  0
SOLID
  5
25C
330
255
100
AcDbEntity
  8
치수문자_일반주서
 62
     0
100
AcDbTrace
 10
3.824666666666728
 20
3.384325371713302
 30
0.0
 11
4.925333333333395
 21
3.384325371713306
 31
0.0
 12
4.375000000000073
 22
0.0823253717133046
 32
0.0
 13
4.375000000000073
 23
0.0823253717133046
 33
0.0
  0
MTEXT
  5
25D
330
255
100
AcDbEntity
  8
치수문자_일반주서
 62
     0
100
AcDbMText
 10
0.0000000000000284
 20
12.78232537171332
 30
0.0
 40
3.5
 41
0.0
 71
     2
 72
     1
  1
\A1;%%c25.4 [1]
  7
SLDTEXTSTYLE0
 11
-3.496765431890260E-15
 21
1.0
 31
0.0
 73
     1
 44
1.0
  0
POINT
  5
25E
330
255
100
AcDbEntity
  8
Defpoints
 62
     0
100
AcDbPoint
 10
16.42250000000002
 20
25.48232537171333
 30
0.0
  0
POINT
  5
25F
330
255
100
AcDbEntity
  8
Defpoints
 62
     0
100
AcDbPoint
 10
18.96250000000003
 20
0.0823253717133596
 30
0.0
  0
POINT
  5
260
330
255
100
AcDbEntity
  8
Defpoints
 62
     0
100
AcDbPoint
 10
4.375000000000071
 20
0.0823253717133051
 30
0.0
  0
ENDBLK
  5
257
330
255
100
AcDbEntity
  8
0
100
AcDbBlockEnd
  0
BLOCK
  5
262
330
261
100
AcDbEntity
  8
0
100
AcDbBlockBegin
  2
*D8
 70
     1
 10
0.0
 20
0.0
 30
0.0
  3
*D8
  1
*D9
  0
LINE
  5
264
330
261
100
AcDbEntity
  8
치수문자_일반주서
 62
     0
370
    -2
100
AcDbLine
 10
232.3225
 20
25.45214776819845
 30
0.0
 11
232.3225
 21
47.9296343087892
 31
0.0
  0
LINE
  5
265
330
261
100
AcDbEntity
  8
치수문자_일반주서
 62
     0
370
    -2
100
AcDbLine
 10
79.92250000000007
 20
24.73074337945356
 30
0.0
 11
79.92250000000007
 21
47.9296343087892
 31
0.0
  0
LINE
  5
266
330
261
100
AcDbEntity
  8
치수문자_일반주서
 62
     0
370
    -2
100
AcDbLine
 10
229.0205
 20
47.9296343087892
 30
0.0
 11
83.22450000000006
 21
47.9296343087892
 31
0.0
  0
SOLID
  5
267
330
261
100
AcDbEntity
  8
치수문자_일반주서
 62
     0
100
AcDbTrace
 10
229.0205
 20
47.37930097545587
 30
0.0
 11
229.0205
 21
48.47996764212254
 31
0.0
 12
232.3225
 22
47.9296343087892
 32
0.0
 13
232.3225
 23
47.9296343087892
 33
0.0
  0
SOLID
  5
268
330
261
100
AcDbEntity
  8
치수문자_일반주서
 62
     0
100
AcDbTrace
 10
83.22450000000006
 20
48.47996764212254
 30
0.0
 11
83.22450000000006
 21
47.37930097545587
 31
0.0
 12
79.92250000000007
 22
47.9296343087892
 32
0.0
 13
79.92250000000007
 23
47.9296343087892
 33
0.0
  0
MTEXT
  5
269
330
261
100
AcDbEntity
  8
치수문자_일반주서
 62
     0
100
AcDbMText
 10
156.1225000000001
 20
52.3046343087892
 30
0.0
 40
3.5
 41
0.0
 71
     2
 72
     1
  1
\A1;152.4 [6]
  7
SLDTEXTSTYLE0
 73
     1
 44
1.0
  0
POINT
  5
26A
330
261
100
AcDbEntity
  8
Defpoints
 62
     0
100
AcDbPoint
 10
232.3225
 20
25.38964776819845
 30
0.0
  0
POINT
  5
26B
330
261
100
AcDbEntity
  8
Defpoints
 62
     0
100
AcDbPoint
 10
79.92250000000007
 20
24.66824337945356
 30
0.0
  0
POINT
  5
26C
330
261
100
AcDbEntity
  8
Defpoints
 62
     0
100
AcDbPoint
 10
79.92250000000007
 20
47.9296343087892
 30
0.0
  0
ENDBLK
  5
263
330
261
100
AcDbEntity
  8
0
100
AcDbBlockEnd
  0
BLOCK
  5
26E
330
26D
100
AcDbEntity
  8
0
100
AcDbBlockBegin
  2
*D9
 70
     1
 10
0.0
 20
0.0
 30
0.0
  3
*D9
  1
*D10
  0
LINE
  5
270
330
26D
100
AcDbEntity
  8
치수문자_일반주서
 62
     0
370
    -2
100
AcDbLine
 10
232.3225
 20
25.45214776819845
 30
0.0
 11
232.3225
 21
59.92963430878921
 31
0.0
  0
LINE
  5
271
330
26D
100
AcDbEntity
  8
치수문자_일반주서
 62
     0
370
    -2
100
AcDbLine
 10
16.42250000000002
 20
23.00482537171336
 30
0.0
 11
16.42250000000001
 21
59.92963430878921
 31
0.0
  0
LINE
  5
272
330
26D
100
AcDbEntity
  8
치수문자_일반주서
 62
     0
370
    -2
100
AcDbLine
 10
229.0205
 20
59.92963430878921
 30
0.0
 11
19.72450000000001
 21
59.92963430878921
 31
0.0
  0
SOLID
  5
273
330
26D
100
AcDbEntity
  8
치수문자_일반주서
 62
     0
100
AcDbTrace
 10
229.0205
 20
59.37930097545588
 30
0.0
 11
229.0205
 21
60.47996764212255
 31
0.0
 12
232.3225
 22
59.92963430878921
 32
0.0
 13
232.3225
 23
59.92963430878921
 33
0.0
  0
SOLID
  5
274
330
26D
100
AcDbEntity
  8
치수문자_일반주서
 62
     0
100
AcDbTrace
 10
19.72450000000001
 20
60.47996764212255
 30
0.0
 11
19.72450000000001
 21
59.37930097545588
 31
0.0
 12
16.42250000000001
 22
59.92963430878921
 32
0.0
 13
16.42250000000001
 23
59.92963430878921
 33
0.0
  0
MTEXT
  5
275
330
26D
100
AcDbEntity
  8
치수문자_일반주서
 62
     0
100
AcDbMText
 10
124.3725
 20
64.30463430878922
 30
0.0
 40
3.5
 41
0.0
 71
     2
 72
     1
  1
\A1;215.9 [8 1/2]
  7
SLDTEXTSTYLE0
 73
     1
 44
1.0
  0
POINT
  5
276
330
26D
100
AcDbEntity
  8
Defpoints
 62
     0
100
AcDbPoint
 10
232.3225
 20
25.38964776819845
 30
0.0
  0
POINT
  5
277
330
26D
100
AcDbEntity
  8
Defpoints
 62
     0
100
AcDbPoint
 10
16.42250000000002
 20
22.94232537171336
 30
0.0
  0
POINT
  5
278
330
26D
100
AcDbEntity
  8
Defpoints
 62
     0
100
AcDbPoint
 10
16.42250000000002
 20
59.92963430878921
 30
0.0
  0
ENDBLK
  5
26F
330
26D
100
AcDbEntity
  8
0
100
AcDbBlockEnd
  0
BLOCK
  5
27A
330
279
100
AcDbEntity
  8
0
100
AcDbBlockBegin
  2
*D10
 70
     1
 10
0.0
 20
0.0
 30
0.0
  3
*D10
  1
*D11
  0
LINE
  5
27C
330
279
100
AcDbEntity
  8
치수문자_일반주서
 62
     0
370
    -2
100
AcDbLine
 10
232.385
 20
25.48232537171336
 30
0.0
 11
250.8797664031443
 21
25.48232537171343
 31
0.0
  0
LINE
  5
27D
330
279
100
AcDbEntity
  8
치수문자_일반주서
 62
     0
370
    -2
100
AcDbLine
 10
232.385
 20
0.0823253717133385
 30
0.0
 11
250.8797664031444
 21
0.0823253717134094
 31
0.0
  0
LINE
  5
27E
330
279
100
AcDbEntity
  8
치수문자_일반주서
 62
     0
370
    -2
100
AcDbLine
 10
250.8797664031443
 20
25.48232537171343
 30
0.0
 11
250.8797664031442
 21
58.63465159233581
 31
0.0
  0
LINE
  5
27F
330
279
100
AcDbEntity
  8
치수문자_일반주서
 62
     0
370
    -2
100
AcDbLine
 10
250.8797664031443
 20
22.18032537171343
 30
0.0
 11
250.8797664031444
 21
3.384325371713409
 31
0.0
  0
SOLID
  5
280
330
279
100
AcDbEntity
  8
치수문자_일반주서
 62
     0
100
AcDbTrace
 10
251.4300997364777
 20
22.18032537171343
 30
0.0
 11
250.329433069811
 21
22.18032537171343
 31
0.0
 12
250.8797664031443
 22
25.48232537171343
 32
0.0
 13
250.8797664031443
 23
25.48232537171343
 33
0.0
  0
SOLID
  5
281
330
279
100
AcDbEntity
  8
치수문자_일반주서
 62
     0
100
AcDbTrace
 10
250.3294330698111
 20
3.384325371713407
 30
0.0
 11
251.4300997364778
 21
3.384325371713411
 31
0.0
 12
250.8797664031444
 22
0.0823253717134094
 32
0.0
 13
250.8797664031444
 23
0.0823253717134094
 33
0.0
  0
MTEXT
  5
282
330
279
100
AcDbEntity
  8
치수문자_일반주서
 62
     0
100
AcDbMText
 10
246.5047664031443
 20
48.57215159233581
 30
0.0
 40
3.5
 41
0.0
 71
     2
 72
     1
  1
\A1;%%c25.4 [1]
  7
SLDTEXTSTYLE0
 11
-3.356894814614644E-15
 21
1.0
 31
0.0
 73
     1
 44
1.0
  0
POINT
  5
283
330
279
100
AcDbEntity
  8
Defpoints
 62
     0
100
AcDbPoint
 10
232.3225
 20
25.48232537171336
 30
0.0
  0
POINT
  5
284
330
279
100
AcDbEntity
  8
Defpoints
 62
     0
100
AcDbPoint
 10
232.3225
 20
0.0823253717133383
 30
0.0
  0
POINT
  5
285
330
279
100
AcDbEntity
  8
Defpoints
 62
     0
100
AcDbPoint
 10
250.8797664031444
 20
0.0823253717134076
 30
0.0
  0
ENDBLK
  5
27B
330
279
100
AcDbEntity
  8
0
100
AcDbBlockEnd
  0
BLOCK
  5
2F3
330
2F2
100
AcDbEntity
  8
0
100
AcDbBlockBegin
  2
*D11
 70
     1
 10
0.0
 20
0.0
 30
0.0
  3
*D11
  1
*D12
  0
LINE
  5
2F5
330
2F2
100
AcDbEntity
  8
치수문자_일반주서
 62
     0
370
    -2
100
AcDbLine
 10
154.953450840239
 20
-102.5938963368286
 30
0.0
 11
142.968450840239
 21
-102.5938963368286
 31
0.0
  0
LINE
  5
2F6
330
2F2
100
AcDbEntity
  8
치수문자_일반주서
 62
     0
370
    -2
100
AcDbLine
 10
157.493450840239
 20
-127.9938963368286
 30
0.0
 11
142.9684508402391
 21
-127.9938963368286
 31
0.0
  0
LINE
  5
2F7
330
2F2
100
AcDbEntity
  8
치수문자_일반주서
 62
     0
370
    -2
100
AcDbLine
 10
142.968450840239
 20
-105.8958963368287
 30
0.0
 11
142.9684508402391
 21
-124.6918963368286
 31
0.0
  0
SOLID
  5
2F8
330
2F2
100
AcDbEntity
  8
치수문자_일반주서
 62
     0
100
AcDbTrace
 10
143.5187841735723
 20
-105.8958963368287
 30
0.0
 11
142.4181175069057
 21
-105.8958963368287
 31
0.0
 12
142.968450840239
 22
-102.5938963368286
 32
0.0
 13
142.968450840239
 23
-102.5938963368286
 33
0.0
  0
SOLID
  5
2F9
330
2F2
100
AcDbEntity
  8
치수문자_일반주서
 62
     0
100
AcDbTrace
 10
142.4181175069058
 20
-124.6918963368286
 30
0.0
 11
143.5187841735724
 21
-124.6918963368286
 31
0.0
 12
142.9684508402391
 22
-127.9938963368286
 32
0.0
 13
142.9684508402391
 23
-127.9938963368286
 33
0.0
  0
MTEXT
  5
2FA
330
2F2
100
AcDbEntity
  8
치수문자_일반주서
 62
     0
100
AcDbMText
 10
138.593450840239
 20
-115.2938963368286
 30
0.0
 40
3.5
 41
0.0
 71
     2
 72
     1
  1
\A1;%%c25.4 [1]
  7
SLDTEXTSTYLE0
 11
-3.356894814614648E-15
 21
1.0
 31
0.0
 73
     1
 44
1.0
  0
POINT
  5
2FB
330
2F2
100
AcDbEntity
  8
Defpoints
 62
     0
100
AcDbPoint
 10
155.015950840239
 20
-102.5938963368286
 30
0.0
  0
POINT
  5
2FC
330
2F2
100
AcDbEntity
  8
Defpoints
 62
     0
100
AcDbPoint
 10
157.555950840239
 20
-127.9938963368286
 30
0.0
  0
POINT
  5
2FD
330
2F2
100
AcDbEntity
  8
Defpoints
 62
     0
100
AcDbPoint
 10
142.9684508402391
 20
-127.9938963368286
 30
0.0
  0
ENDBLK
  5
2F4
330
2F2
100
AcDbEntity
  8
0
100
AcDbBlockEnd
  0
BLOCK
  5
2FF
330
2FE
100
AcDbEntity
  8
0
100
AcDbBlockBegin
  2
*D12
 70
     1
 10
0.0
 20
0.0
 30
0.0
  3
*D12
  1
*D13
  0
LINE
  5
301
330
2FE
100
AcDbEntity
  8
치수문자_일반주서
 62
     0
370
    -2
100
AcDbLine
 10
370.915950840239
 20
-102.6240739403435
 30
0.0
 11
370.915950840239
 21
-80.14658739975273
 31
0.0
  0
LINE
  5
302
330
2FE
100
AcDbEntity
  8
치수문자_일반주서
 62
     0
370
    -2
100
AcDbLine
 10
218.5159508402391
 20
-103.3454783290884
 30
0.0
 11
218.5159508402391
 21
-80.14658739975273
 31
0.0
  0
LINE
  5
303
330
2FE
100
AcDbEntity
  8
치수문자_일반주서
 62
     0
370
    -2
100
AcDbLine
 10
367.613950840239
 20
-80.14658739975273
 30
0.0
 11
221.8179508402391
 21
-80.14658739975273
 31
0.0
  0
SOLID
  5
304
330
2FE
100
AcDbEntity
  8
치수문자_일반주서
 62
     0
100
AcDbTrace
 10
367.613950840239
 20
-80.69692073308606
 30
0.0
 11
367.613950840239
 21
-79.5962540664194
 31
0.0
 12
370.915950840239
 22
-80.14658739975273
 32
0.0
 13
370.915950840239
 23
-80.14658739975273
 33
0.0
  0
SOLID
  5
305
330
2FE
100
AcDbEntity
  8
치수문자_일반주서
 62
     0
100
AcDbTrace
 10
221.8179508402391
 20
-79.5962540664194
 30
0.0
 11
221.8179508402391
 21
-80.69692073308606
 31
0.0
 12
218.5159508402391
 22
-80.14658739975273
 32
0.0
 13
218.5159508402391
 23
-80.14658739975273
 33
0.0
  0
MTEXT
  5
306
330
2FE
100
AcDbEntity
  8
치수문자_일반주서
 62
     0
100
AcDbMText
 10
294.7159508402391
 20
-75.77158739975273
 30
0.0
 40
3.5
 41
0.0
 71
     2
 72
     1
  1
\A1;152.4 [6]
  7
SLDTEXTSTYLE0
 73
     1
 44
1.0
  0
POINT
  5
307
330
2FE
100
AcDbEntity
  8
Defpoints
 62
     0
100
AcDbPoint
 10
370.915950840239
 20
-102.6865739403435
 30
0.0
  0
POINT
  5
308
330
2FE
100
AcDbEntity
  8
Defpoints
 62
     0
100
AcDbPoint
 10
218.5159508402391
 20
-103.4079783290884
 30
0.0
  0
POINT
  5
309
330
2FE
100
AcDbEntity
  8
Defpoints
 62
     0
100
AcDbPoint
 10
218.5159508402391
 20
-80.14658739975273
 30
0.0
  0
ENDBLK
  5
300
330
2FE
100
AcDbEntity
  8
0
100
AcDbBlockEnd
  0
BLOCK
  5
30B
330
30A
100
AcDbEntity
  8
0
100
AcDbBlockBegin
  2
*D13
 70
     1
 10
0.0
 20
0.0
 30
0.0
  3
*D13
  1
*D14
  0
LINE
  5
30D
330
30A
100
AcDbEntity
  8
치수문자_일반주서
 62
     0
370
    -2
100
AcDbLine
 10
370.915950840239
 20
-102.6240739403435
 30
0.0
 11
370.915950840239
 21
-68.14658739975272
 31
0.0
  0
LINE
  5
30E
330
30A
100
AcDbEntity
  8
치수문자_일반주서
 62
     0
370
    -2
100
AcDbLine
 10
155.015950840239
 20
-105.0713963368286
 30
0.0
 11
155.015950840239
 21
-68.14658739975272
 31
0.0
  0
LINE
  5
30F
330
30A
100
AcDbEntity
  8
치수문자_일반주서
 62
     0
370
    -2
100
AcDbLine
 10
367.613950840239
 20
-68.14658739975272
 30
0.0
 11
158.317950840239
 21
-68.14658739975272
 31
0.0
  0
SOLID
  5
310
330
30A
100
AcDbEntity
  8
치수문자_일반주서
 62
     0
100
AcDbTrace
 10
367.613950840239
 20
-68.69692073308605
 30
0.0
 11
367.613950840239
 21
-67.59625406641939
 31
0.0
 12
370.915950840239
 22
-68.14658739975272
 32
0.0
 13
370.915950840239
 23
-68.14658739975272
 33
0.0
  0
SOLID
  5
311
330
30A
100
AcDbEntity
  8
치수문자_일반주서
 62
     0
100
AcDbTrace
 10
158.317950840239
 20
-67.59625406641939
 30
0.0
 11
158.317950840239
 21
-68.69692073308605
 31
0.0
 12
155.015950840239
 22
-68.14658739975272
 32
0.0
 13
155.015950840239
 23
-68.14658739975272
 33
0.0
  0
MTEXT
  5
312
330
30A
100
AcDbEntity
  8
치수문자_일반주서
 62
     0
100
AcDbMText
 10
262.965950840239
 20
-63.77158739975272
 30
0.0
 40
3.5
 41
0.0
 71
     2
 72
     1
  1
\A1;215.9 [8 1/2]
  7
SLDTEXTSTYLE0
 73
     1
 44
1.0
  0
POINT
  5
313
330
30A
100
AcDbEntity
  8
Defpoints
 62
     0
100
AcDbPoint
 10
370.915950840239
 20
-102.6865739403435
 30
0.0
  0
POINT
  5
314
330
30A
100
AcDbEntity
  8
Defpoints
 62
     0
100
AcDbPoint
 10
155.015950840239
 20
-105.1338963368286
 30
0.0
  0
POINT
  5
315
330
30A
100
AcDbEntity
  8
Defpoints
 62
     0
100
AcDbPoint
 10
155.015950840239
 20
-68.14658739975272
 30
0.0
  0
ENDBLK
  5
30C
330
30A
100
AcDbEntity
  8
0
100
AcDbBlockEnd
  0
BLOCK
  5
317
330
316
100
AcDbEntity
  8
0
100
AcDbBlockBegin
  2
*D14
 70
     1
 10
0.0
 20
0.0
 30
0.0
  3
*D14
  1
*D15
  0
LINE
  5
319
330
316
100
AcDbEntity
  8
치수문자_일반주서
 62
     0
370
    -2
100
AcDbLine
 10
370.978450840239
 20
-102.5938963368286
 30
0.0
 11
389.4732172433834
 21
-102.5938963368285
 31
0.0
  0
LINE
  5
31A
330
316
100
AcDbEntity
  8
치수문자_일반주서
 62
     0
370
    -2
100
AcDbLine
 10
370.978450840239
 20
-127.9938963368286
 30
0.0
 11
389.4732172433835
 21
-127.9938963368285
 31
0.0
  0
LINE
  5
31B
330
316
100
AcDbEntity
  8
치수문자_일반주서
 62
     0
370
    -2
100
AcDbLine
 10
389.4732172433834
 20
-102.5938963368285
 30
0.0
 11
389.4732172433832
 21
-69.44157011620612
 31
0.0
  0
LINE
  5
31C
330
316
100
AcDbEntity
  8
치수문자_일반주서
 62
     0
370
    -2
100
AcDbLine
 10
389.4732172433834
 20
-105.8958963368285
 30
0.0
 11
389.4732172433835
 21
-124.6918963368285
 31
0.0
  0
SOLID
  5
31D
330
316
100
AcDbEntity
  8
치수문자_일반주서
 62
     0
100
AcDbTrace
 10
390.0235505767167
 20
-105.8958963368285
 30
0.0
 11
388.92288391005
 21
-105.8958963368285
 31
0.0
 12
389.4732172433834
 22
-102.5938963368285
 32
0.0
 13
389.4732172433834
 23
-102.5938963368285
 33
0.0
  0
SOLID
  5
31E
330
316
100
AcDbEntity
  8
치수문자_일반주서
 62
     0
100
AcDbTrace
 10
388.9228839100501
 20
-124.6918963368285
 30
0.0
 11
390.0235505767168
 21
-124.6918963368285
 31
0.0
 12
389.4732172433835
 22
-127.9938963368285
 32
0.0
 13
389.4732172433835
 23
-127.9938963368285
 33
0.0
  0
MTEXT
  5
31F
330
316
100
AcDbEntity
  8
치수문자_일반주서
 62
     0
100
AcDbMText
 10
385.0982172433833
 20
-79.50407011620615
 30
0.0
 40
3.5
 41
0.0
 71
     2
 72
     1
  1
\A1;%%c25.4 [1]
  7
SLDTEXTSTYLE0
 11
-4.475859752819526E-15
 21
1.0
 31
0.0
 73
     1
 44
1.0
  0
POINT
  5
320
330
316
100
AcDbEntity
  8
Defpoints
 62
     0
100
AcDbPoint
 10
370.915950840239
 20
-102.5938963368286
 30
0.0
  0
POINT
  5
321
330
316
100
AcDbEntity
  8
Defpoints
 62
     0
100
AcDbPoint
 10
370.915950840239
 20
-127.9938963368286
 30
0.0
  0
POINT
  5
322
330
316
100
AcDbEntity
  8
Defpoints
 62
     0
100
AcDbPoint
 10
389.4732172433834
 20
-127.9938963368285
 30
0.0
  0
ENDBLK
  5
318
330
316
100
AcDbEntity
  8
0
100
AcDbBlockEnd
  0
ENDSEC
  0
SECTION
  2
ENTITIES
  0
LINE
  5
96
330
1F
100
AcDbEntity
  8
외형선
  6
Continuous
370
    15
100
AcDbLine
 10
13.26307612808782
 20
2.193583305620456
 30
0.0
 11
13.17373349929827
 21
2.279870090338841
 31
0.0
  0
LINE
  5
97
330
1F
100
AcDbEntity
  8
외형선
  6
Continuous
 62
     1
370
    15
100
AcDbLine
 10
83.16392838025669
 20
2.116854638414355
 30
0.0
 11
83.05311219168067
 21
2.223432705809083
 31
0.0
  0
LINE
  5
98
330
1F
100
AcDbEntity
  8
외형선
  6
Continuous
 62
     1
370
    15
100
AcDbLine
 10
78.44633530735699
 20
-2.095589526143456
 30
0.0
 11
78.57688126431013
 21
-2.221107290428636
 31
0.0
  0
LINE
  5
99
330
1F
100
AcDbEntity
  8
외형선
  6
Continuous
 62
     1
370
    15
100
AcDbLine
 10
31.7633879037743
 20
-1.964172458199587
 30
0.0
 11
32.02877594121016
 21
-2.220936148327152
 31
0.0
  0
LINE
  5
9A
330
1F
100
AcDbEntity
  8
외형선
  6
Continuous
 62
     1
370
    15
100
AcDbLine
 10
106.7110236267989
 20
1.852524721584963
 30
0.0
 11
106.3267864993207
 21
2.223718902741763
 31
0.0
  0
LINE
  5
9B
330
1F
100
AcDbEntity
  8
외형선
  6
Continuous
 62
     1
370
    15
100
AcDbLine
 10
94.79465712620772
 20
2.122762741094747
 30
0.0
 11
94.68990170171361
 21
2.223622618869563
 31
0.0
  0
LINE
  5
9C
330
1F
100
AcDbEntity
  8
외형선
  6
Continuous
 62
     1
370
    15
100
AcDbLine
 10
90.09785096724309
 20
-2.109354219308829
 30
0.0
 11
90.21441516991811
 21
-2.221648814494888
 31
0.0
  0
LINE
  5
9D
330
1F
100
AcDbEntity
  8
외형선
  6
Continuous
 62
     1
370
    15
100
AcDbLine
 10
118.2328500613979
 20
1.963291751743261
 30
0.0
 11
117.9644314150549
 21
2.223068298598998
 31
0.0
  0
LINE
  5
9E
330
1F
100
AcDbEntity
  8
외형선
  6
Continuous
 62
     1
370
    15
100
AcDbLine
 10
43.28611628624739
 20
-1.854709555788723
 30
0.0
 11
43.66621156542761
 21
-2.221381104586613
 31
0.0
  0
LINE
  5
9F
330
1F
100
AcDbEntity
  8
외형선
  6
Continuous
 62
     1
370
    15
100
AcDbLine
 10
71.53572818333704
 20
2.10804514827094
 30
0.0
 11
71.41622540445157
 21
2.223338376171936
 31
0.0
  0
LINE
  5
A0
330
1F
100
AcDbEntity
  8
외형선
  6
Continuous
 62
     1
370
    15
100
AcDbLine
 10
136.7504650794485
 20
-2.21076760435465
 30
0.0
 11
136.8019269511302
 21
-2.260519229058747
 31
0.0
  0
LINE
  5
A1
330
1F
100
AcDbEntity
  8
외형선
  6
Continuous
 62
     1
370
    15
100
AcDbLine
 10
66.8382429598938
 20
-2.123236694140102
 30
0.0
 11
66.93974474548723
 21
-2.220956233985603
 31
0.0
  0
LINE
  5
A2
330
1F
100
AcDbEntity
  8
외형선
  6
Continuous
 62
     1
370
    15
100
AcDbLine
 10
55.20231006191796
 20
-2.12385468833536
 30
0.0
 11
55.30288539253949
 21
-2.221077521167792
 31
0.0
  0
LINE
  5
A3
330
1F
100
AcDbEntity
  8
외형선
  6
Continuous
 62
     1
370
    15
100
AcDbLine
 10
137.6562607803776
 20
-11.11142507127612
 30
0.0
 11
139.0
 21
-11.11142507127612
 31
0.0
  0
LINE
  5
A4
330
1F
100
AcDbEntity
  8
외형선
  6
Continuous
 62
     1
370
    15
100
AcDbLine
 10
67.83572106102807
 20
-11.11142507127612
 30
0.0
 11
70.52128140640491
 21
-11.11142507127612
 31
0.0
  0
LINE
  5
A5
330
1F
100
AcDbEntity
  8
외형선
  6
Continuous
 62
     1
370
    15
100
AcDbLine
 10
35.61204788843536
 20
11.11357492872391
 30
0.0
 11
32.92499010406071
 21
11.11357492872391
 31
0.0
  0
LINE
  5
A6
330
1F
100
AcDbEntity
  8
외형선
  6
Continuous
 62
     1
370
    15
100
AcDbLine
 10
105.4309356265772
 20
11.11357492872391
 30
0.0
 11
102.7442952642871
 21
11.11357492872391
 31
0.0
  0
LINE
  5
A7
330
1F
100
AcDbEntity
  8
외형선
  6
Continuous
 62
     1
370
    15
100
AcDbLine
 10
91.10792741648741
 20
-11.11142507127612
 30
0.0
 11
93.79403799754614
 21
-11.11142507127612
 31
0.0
  0
LINE
  5
A8
330
1F
100
AcDbEntity
  8
외형선
  6
Continuous
 62
     1
370
    15
100
AcDbLine
 10
21.2858320407284
 20
-11.11142507127612
 30
0.0
 11
23.97384084603324
 21
-11.11142507127612
 31
0.0
  0
LINE
  5
A9
330
1F
100
AcDbEntity
  8
외형선
  6
Continuous
 62
     1
370
    15
100
AcDbLine
 10
58.88528958673522
 20
11.11357492872391
 30
0.0
 11
56.19915966698843
 21
11.11357492872391
 31
0.0
  0
LINE
  5
AA
330
1F
100
AcDbEntity
  8
외형선
  6
Continuous
 62
     1
370
    15
100
AcDbLine
 10
128.705787942241
 20
11.11357492872391
 30
0.0
 11
126.0184588566526
 21
11.11357492872391
 31
0.0
  0
LINE
  5
AB
330
1F
100
AcDbEntity
  8
외형선
  6
Continuous
 62
     1
370
    15
100
AcDbLine
 10
102.744295264287
 20
-11.11142507127612
 30
0.0
 11
105.4309356265771
 21
-11.11142507127612
 31
0.0
  0
LINE
  5
AC
330
1F
100
AcDbEntity
  8
외형선
  6
Continuous
 62
     1
370
    15
100
AcDbLine
 10
32.92499010406071
 20
-11.11142507127612
 30
0.0
 11
35.61204788843526
 21
-11.11142507127612
 31
0.0
  0
LINE
  5
AD
330
1F
100
AcDbEntity
  8
외형선
  6
Continuous
 62
     1
370
    15
100
AcDbLine
 10
70.52128140640481
 20
11.11357492872391
 30
0.0
 11
67.8357210610281
 21
11.11357492872391
 31
0.0
  0
LINE
  5
AE
330
1F
100
AcDbEntity
  8
외형선
  6
Continuous
 62
     1
370
    15
100
AcDbLine
 10
139.0
 20
11.11357492872391
 30
0.0
 11
137.6562607803776
 21
11.11357492872391
 31
0.0
  0
LINE
  5
AF
330
1F
100
AcDbEntity
  8
외형선
  6
Continuous
 62
     1
370
    15
100
AcDbLine
 10
126.0184588566525
 20
-11.11142507127612
 30
0.0
 11
128.705787942241
 21
-11.11142507127612
 31
0.0
  0
LINE
  5
B0
330
1F
100
AcDbEntity
  8
외형선
  6
Continuous
 62
     1
370
    15
100
AcDbLine
 10
56.19915966698834
 20
-11.11142507127612
 30
0.0
 11
58.8852895867352
 21
-11.11142507127612
 31
0.0
  0
LINE
  5
B1
330
1F
100
AcDbEntity
  8
외형선
  6
Continuous
 62
     1
370
    15
100
AcDbLine
 10
23.97384084603323
 20
11.11357492872391
 30
0.0
 11
21.28583204072837
 21
11.11357492872391
 31
0.0
  0
LINE
  5
B2
330
1F
100
AcDbEntity
  8
외형선
  6
Continuous
 62
     1
370
    15
100
AcDbLine
 10
93.79403799754614
 20
11.11357492872391
 30
0.0
 11
91.10792741648736
 21
11.11357492872391
 31
0.0
  0
LINE
  5
B3
330
1F
100
AcDbEntity
  8
외형선
  6
Continuous
 62
     1
370
    15
100
AcDbLine
 10
114.381137958714
 20
-11.11142507127612
 30
0.0
 11
117.0681845126773
 21
-11.11142507127612
 31
0.0
  0
LINE
  5
B4
330
1F
100
AcDbEntity
  8
외형선
  6
Continuous
 62
     1
370
    15
100
AcDbLine
 10
44.56225057115704
 20
-11.11142507127612
 30
0.0
 11
47.24890622010581
 21
-11.11142507127612
 31
0.0
  0
LINE
  5
B5
330
1F
100
AcDbEntity
  8
외형선
  6
Continuous
370
    15
100
AcDbLine
 10
12.33557107814368
 20
11.11357492872391
 30
0.0
 11
12.00000000000001
 21
11.11357492872391
 31
0.0
  0
LINE
  5
B6
330
1F
100
AcDbEntity
  8
외형선
  6
Continuous
 62
     1
370
    15
100
AcDbLine
 10
82.15748794343968
 20
11.11357492872391
 30
0.0
 11
79.47193879913354
 21
11.11357492872391
 31
0.0
  0
LINE
  5
B7
330
1F
100
AcDbEntity
  8
외형선
  6
Continuous
 62
     1
370
    15
100
AcDbLine
 10
79.47193879913362
 20
-11.11142507127612
 30
0.0
 11
82.15748794343973
 21
-11.11142507127612
 31
0.0
  0
LINE
  5
B8
330
1F
100
AcDbEntity
  8
외형선
  6
Continuous
370
    15
100
AcDbLine
 10
12.00000000000001
 20
-11.11142507127612
 30
0.0
 11
12.33557107814385
 21
-11.11142507127612
 31
0.0
  0
LINE
  5
B9
330
1F
100
AcDbEntity
  8
외형선
  6
Continuous
 62
     1
370
    15
100
AcDbLine
 10
47.24890622010589
 20
11.11357492872391
 30
0.0
 11
44.56225057115712
 21
11.11357492872391
 31
0.0
  0
LINE
  5
BA
330
1F
100
AcDbEntity
  8
외형선
  6
Continuous
 62
     1
370
    15
100
AcDbLine
 10
117.0681845126773
 20
11.11357492872391
 30
0.0
 11
114.381137958714
 21
11.11357492872391
 31
0.0
  0
LINE
  5
BB
330
1F
100
AcDbEntity
  8
외형선
  6
Continuous
370
    15
100
AcDbLine
 10
-42.92749999999999
 20
-11.11142507127611
 30
0.0
 11
12.00000000000001
 21
-11.11142507127611
 31
0.0
  0
LINE
  5
BC
330
1F
100
AcDbEntity
  8
외형선
  6
Continuous
370
    15
100
AcDbLine
 10
12.00000000000001
 20
11.1135749287239
 30
0.0
 11
-11.91092499999984
 21
11.1135749287239
 31
0.0
  0
LINE
  5
BD
330
1F
100
AcDbEntity
  8
외형선
  6
Continuous
370
    15
100
AcDbLine
 10
-44.57850000000001
 20
9.462574928723889
 30
0.0
 11
-45.14999999999999
 21
8.891074928723906
 31
0.0
  0
LINE
  5
BE
330
1F
100
AcDbEntity
  8
외형선
  6
Continuous
370
    15
100
AcDbLine
 10
-45.14999999999999
 20
-8.888925071276116
 30
0.0
 11
-42.92749999999999
 21
-11.11142507127611
 31
0.0
  0
LINE
  5
BF
330
1F
100
AcDbEntity
  8
외형선
  6
Continuous
 62
     1
370
    15
100
AcDbLine
 10
139.0
 20
6.674613387893895
 30
0.0
 11
139.0
 21
11.03248202564836
 31
0.0
  0
SPLINE
  5
C0
330
1F
100
AcDbEntity
  8
외형선
  6
Continuous
 62
     1
370
    15
100
AcDbSpline
210
0.0
220
0.0
230
1.0
 70
     8
 71
     3
 72
    15
 73
    11
 74
     0
 42
0.000000001
 43
0.00000001
 40
0.0
 40
0.0
 40
0.0
 40
0.0
 40
0.1302618079898754
 40
0.2605293567997872
 40
0.3908057451038924
 40
0.5210940607561082
 40
0.651397377033984
 40
0.7817130032540482
 40
0.9120148897584752
 40
1.0
 40
1.0
 40
1.0
 40
1.0
 10
12.00000000000003
 20
-5.261501865385202
 30
0.0
 10
12.71411905060412
 20
-5.871670031805207
 30
0.0
 10
14.1423886240375
 20
-7.092033255609576
 30
0.0
 10
16.28491048720105
 20
-8.607343518813561
 30
0.0
 10
18.42764809663475
 20
-9.817939856685713
 30
0.0
 10
20.57068337830385
 20
-10.65967752176532
 30
0.0
 10
22.71404579344427
 20
-11.11160519249526
 30
0.0
 10
24.85767287612655
 20
-11.13492549001521
 30
0.0
 10
26.76900914283206
 20
-10.84202859651526
 30
0.0
 10
27.96593693428128
 20
-10.36466039045655
 30
0.0
 10
28.44838355387708
 20
-10.17224721485748
 30
0.0
  0
SPLINE
  5
C1
330
1F
100
AcDbEntity
  8
외형선
  6
Continuous
 62
     1
370
    15
100
AcDbSpline
210
0.0
220
0.0
230
1.0
 70
     8
 71
     3
 72
    26
 73
    22
 74
     0
 42
0.000000001
 43
0.00000001
 40
0.0
 40
0.0
 40
0.0
 40
0.0
 40
0.0029321280127611
 40
0.0609631186424748
 40
0.1189940183737888
 40
0.177024842143206
 40
0.2350556048920344
 40
0.2930863215654432
 40
0.3511170071115163
 40
0.4091476764803074
 40
0.4671783446228936
 40
0.5252090264904318
 40
0.5832397370332078
 40
0.641270491199693
 40
0.6993013039356001
 40
0.7573321901829349
 40
0.8153631648790534
 40
0.8733942429557161
 40
0.9314254393381454
 40
0.9894567689440839
 40
1.0
 40
1.0
 40
1.0
 40
1.0
 10
58.88528958673522
 20
11.10233184417857
 30
0.0
 10
58.92378472082873
 20
11.10605032868936
 30
0.0
 10
59.7241534007391
 20
11.18336291920879
 30
0.0
 10
61.28639244151627
 20
10.89879037971368
 30
0.0
 10
63.57200591600593
 20
10.22023470467047
 30
0.0
 10
65.85761465232119
 20
9.058023475786166
 30
0.0
 10
68.14321984855094
 20
7.528153245508356
 30
0.0
 10
70.42882230360455
 20
5.67716721263658
 30
0.0
 10
72.71442292361165
 20
3.587908755138143
 30
0.0
 10
75.00002258615054
 20
1.347166239451548
 30
0.0
 10
77.28562217656288
 20
-0.9502500031403154
 30
0.0
 10
79.57122257809289
 20
-3.207584430773084
 30
0.0
 10
81.85682467464204
 20
-5.329631200041888
 30
0.0
 10
84.14242934923642
 20
-7.227003576537796
 30
0.0
 10
86.42803748702988
 20
-8.819462589946262
 30
0.0
 10
88.7136499644509
 20
-10.04080207914747
 30
0.0
 10
90.99926768923801
 20
-10.83606961224537
 30
0.0
 10
93.28489145077822
 20
-11.18466138227395
 30
0.0
 10
95.57052247834528
 20
-11.02364798773818
 30
0.0
 10
97.23269870392241
 20
-10.67179675879798
 30
0.0
 10
98.13299901820753
 20
-10.25449496199681
 30
0.0
 10
98.27141877827032
 20
-10.19033546580377
 30
0.0
  0
SPLINE
  5
C2
330
1F
100
AcDbEntity
  8
외형선
  6
Continuous
 62
     1
370
    15
100
AcDbSpline
210
0.0
220
0.0
230
1.0
 70
     8
 71
     3
 72
    12
 73
     8
 74
     0
 42
0.000000001
 43
0.00000001
 40
0.0
 40
0.0
 40
0.0
 40
0.0
 40
0.1117752342654727
 40
0.3338292454086525
 40
0.555884672730348
 40
0.7779415722763314
 40
0.9999999999999999
 40
0.9999999999999999
 40
0.9999999999999999
 40
0.9999999999999999
 10
128.7057879422411
 20
11.05485907429725
 30
0.0
 10
129.0893310491961
 20
11.06598220056079
 30
0.0
 10
130.2348254587393
 20
11.099202661887
 30
0.0
 10
132.1422835120826
 20
10.64706697563133
 30
0.0
 10
134.4281672633034
 20
9.741719656338677
 30
0.0
 10
136.7140735098305
 20
8.421702571929297
 30
0.0
 10
138.2380227553335
 20
7.258761699835971
 30
0.0
 10
139.0
 20
6.677289262979855
 30
0.0
  0
SPLINE
  5
C3
330
1F
100
AcDbEntity
  8
외형선
  6
Continuous
370
    15
100
AcDbSpline
210
0.0
220
0.0
230
1.0
 70
    24
 71
     3
 72
    28
 73
    24
 74
     0
 42
0.000000001
 43
0.00000001
 40
0.0
 40
0.0
 40
0.0
 40
0.0
 40
0.1249999999999996
 40
0.1249999999999996
 40
0.1874999999999997
 40
0.1874999999999997
 40
0.2499999999999998
 40
0.2499999999999998
 40
0.3750000000000001
 40
0.3750000000000001
 40
0.5000000000000002
 40
0.5000000000000002
 40
0.6250000000000002
 40
0.6250000000000002
 40
0.6875000000000002
 40
0.6875000000000002
 40
0.7500000000000002
 40
0.7500000000000002
 40
0.8125000000000002
 40
0.8125000000000002
 40
0.8750000000000002
 40
0.8750000000000002
 40
1.0
 40
1.0
 40
1.0
 40
1.0
 10
12.00000000000002
 20
3.413137868542436
 30
0.0
 10
12.00000000000004
 20
3.366526151073818
 30
0.0
 10
12.00000000000003
 20
3.266164536300787
 30
0.0
 10
12.00000000000003
 20
3.082217113663069
 30
0.0
 10
12.0
 20
3.017890773709972
 30
0.0
 10
12.0
 20
2.86358673129086
 30
0.0
 10
12.00000000000003
 20
2.773876005992048
 30
0.0
 10
12.00000000000001
 20
2.458864267929438
 30
0.0
 10
12.00000000000001
 20
2.186974971253221
 30
0.0
 10
11.99999999999999
 20
1.4817522149881
 30
0.0
 10
11.99999999999999
 20
1.046494247004744
 30
0.0
 10
12.00000000000001
 20
0.0207223124677076
 30
0.0
 10
12.00000000000003
 20
-0.5707645077200262
 30
0.0
 10
12.00000000000003
 20
-1.494597385456339
 30
0.0
 10
12.00000000000001
 20
-1.807713120237243
 30
0.0
 10
12.00000000000003
 20
-2.423059397001144
 30
0.0
 10
12.00000000000003
 20
-2.725123881300693
 30
0.0
 10
12.00000000000003
 20
-3.296677800756936
 30
0.0
 10
12.00000000000001
 20
-3.566020534597288
 30
0.0
 10
12.00000000000004
 20
-4.05519546536495
 30
0.0
 10
12.00000000000001
 20
-4.274965147413949
 30
0.0
 10
12.00000000000001
 20
-4.846763310021331
 30
0.0
 10
12.00000000000003
 20
-5.108138962034221
 30
0.0
 10
12.00000000000002
 20
-5.261501865385111
 30
0.0
  0
SPLINE
  5
C4
330
1F
100
AcDbEntity
  8
외형선
  6
Continuous
 62
     1
370
    15
100
AcDbSpline
210
0.0
220
0.0
230
1.0
 70
     8
 71
     3
 72
    10
 73
     6
 74
     0
 42
0.000000001
 43
0.00000001
 40
0.0
 40
0.0
 40
0.0
 40
0.0
 40
0.3928742331992442
 40
0.7857457626882948
 40
1.0
 40
1.0
 40
1.0
 40
1.0
 10
139.0
 20
11.03248202564836
 30
0.0
 10
138.2380228178242
 20
11.07535719903948
 30
0.0
 10
136.7140736973019
 20
11.16110725076025
 30
0.0
 10
134.7745872746454
 20
10.82493155084328
 30
0.0
 10
133.5970798054689
 20
10.34157508365382
 30
0.0
 10
133.1815382842011
 20
10.17099894129526
 30
0.0
  0
SPLINE
  5
C5
330
1F
100
AcDbEntity
  8
외형선
  6
Continuous
 62
     1
370
    15
100
AcDbSpline
210
0.0
220
0.0
230
1.0
 70
     8
 71
     3
 72
    26
 73
    22
 74
     0
 42
0.000000001
 43
0.00000001
 40
0.0
 40
0.0
 40
0.0
 40
0.0
 40
0.0080443266439499
 40
0.0660770622897784
 40
0.1241096348997443
 40
0.1821420593740857
 40
0.2401743506224052
 40
0.2982065235627253
 40
0.3562385931205506
 40
0.4142705742279238
 40
0.4723024818224822
 40
0.5303343308465139
 40
0.5883661362460133
 40
0.6463979129697334
 40
0.7044296759682441
 40
0.7624614401929817
 40
0.8204932205953066
 40
0.8785250321255543
 40
0.9365568897320912
 40
0.9945888083603681
 40
1.0
 40
1.0
 40
1.0
 40
1.0
 10
102.744295264287
 20
-11.08342063810326
 30
0.0
 10
102.6386847527069
 20
-11.09242514095054
 30
0.0
 10
101.771187364671
 20
-11.16638920554702
 30
0.0
 10
100.1418086517988
 20
-10.85600522752824
 30
0.0
 10
97.85616093460138
 20
-10.13197537086255
 30
0.0
 10
95.57052232369364
 20
-8.935452681049371
 30
0.0
 10
93.28489149221687
 20
-7.374326234473277
 30
0.0
 10
90.99926767813459
 20
-5.499018346416163
 30
0.0
 10
88.71364996742588
 20
-3.392712703418383
 30
0.0
 10
86.4280374862334
 20
-1.1431008935077
 30
0.0
 10
84.14242934944761
 20
1.154681370447048
 30
0.0
 10
81.85682467459414
 20
3.403850433057931
 30
0.0
 10
79.57122257807352
 20
5.509545450920746
 30
0.0
 10
77.2856221766885
 20
7.383078970756585
 30
0.0
 10
75.00002258566781
 20
8.945178526631244
 30
0.0
 10
72.71442292541701
 20
10.13106534156895
 30
0.0
 10
70.4288222968658
 20
10.88673474397946
 30
0.0
 10
68.14321987370055
 20
11.19529758479478
 30
0.0
 10
65.85761455846144
 20
10.98788349337394
 30
0.0
 10
64.26283604921669
 20
10.6347053933213
 30
0.0
 10
63.42992533764847
 20
10.24000310362254
 30
0.0
 10
63.35888469257343
 20
10.20633814424172
 30
0.0
  0
SPLINE
  5
C6
330
1F
100
AcDbEntity
  8
외형선
  6
Continuous
 62
     1
370
    15
100
AcDbSpline
210
0.0
220
0.0
230
1.0
 70
     8
 71
     3
 72
    17
 73
    13
 74
     0
 42
0.000000001
 43
0.00000001
 40
0.0
 40
0.0
 40
0.0
 40
0.0
 40
0.0646261038792019
 40
0.1738559730404448
 40
0.28308640493418
 40
0.3855136733338095
 40
0.4879517422028606
 40
0.5903801345139882
 40
0.6927967351837833
 40
0.7952039600439176
 40
0.8976042363842062
 40
1.0
 40
1.0
 40
1.0
 40
1.0
 10
32.9249901040607
 20
-11.05468612816363
 30
0.0
 10
32.47419766158786
 20
-11.06101313956994
 30
0.0
 10
31.26148400532466
 20
-11.07803395095195
 30
0.0
 10
29.28685091086837
 20
-10.58269566007359
 30
0.0
 10
27.04848188128606
 20
-9.66051940007274
 30
0.0
 10
24.85767173434896
 20
-8.360823067078401
 30
0.0
 10
22.71404609936481
 20
-6.78438757174886
 30
0.0
 10
20.57068329634818
 20
-4.955147332184746
 30
0.0
 10
18.42764811858386
 20
-2.941962442660859
 30
0.0
 10
16.28491048134858
 20
-0.8221135508395324
 30
0.0
 10
14.14238862550045
 20
1.337227299519917
 30
0.0
 10
12.71411905109177
 20
2.721177844083563
 30
0.0
 10
12.00000000000004
 20
3.413137868542422
 30
0.0
  0
SPLINE
  5
C7
330
1F
100
AcDbEntity
  8
외형선
  6
Continuous
 62
     1
370
    15
100
AcDbSpline
210
0.0
220
0.0
230
1.0
 70
     8
 71
     3
 72
    25
 73
    21
 74
     0
 42
0.000000001
 43
0.00000001
 40
0.0
 40
0.0
 40
0.0
 40
0.0
 40
0.0458805608524918
 40
0.100284790157138
 40
0.154692711139976
 40
0.2091056133954911
 40
0.2635247804305739
 40
0.3179490885228399
 40
0.3723676584351299
 40
0.4304006801824961
 40
0.4884334029557908
 40
0.5464658415254527
 40
0.6044980106798221
 40
0.662529925224216
 40
0.7205615999800049
 40
0.7785930497836836
 40
0.8366242894859381
 40
0.8946553339507205
 40
0.9526861980543081
 40
1.0
 40
1.0
 40
1.0
 40
1.0
 10
12.33557107814371
 20
11.08633801047204
 30
0.0
 10
12.93783376511435
 20
11.06901007438094
 30
0.0
 10
14.25424721037512
 20
11.03113502659462
 30
0.0
 10
16.28491069947649
 20
10.47686322493124
 30
0.0
 10
18.42764806009552
 20
9.545985914869622
 30
0.0
 10
20.57068331214882
 20
8.249914856562453
 30
0.0
 10
22.71404609465953
 20
6.651012812545741
 30
0.0
 10
24.8576717373669
 20
4.804804195276088
 30
0.0
 10
27.04848187369032
 20
2.7358871346232
 30
0.0
 10
29.286850940114
 20
0.5103229578702737
 30
0.0
 10
31.57260803844769
 20
-1.783717078889711
 30
0.0
 10
33.8583628866963
 20
-4.002548672011645
 30
0.0
 10
36.14409792054612
 20
-6.052590414916526
 30
0.0
 10
38.42981895381655
 20
-7.847349645126671
 30
0.0
 10
40.71552554013364
 20
-9.311467380970408
 30
0.0
 10
43.00121890225751
 20
-10.38207104621031
 30
0.0
 10
45.286899852537
 20
-11.01832228581158
 30
0.0
 10
47.57256918144569
 20
-11.1773726718944
 30
0.0
 10
49.71752622078287
 20
-10.92865011795815
 30
0.0
 10
51.10059215061192
 20
-10.41887995212148
 30
0.0
 10
51.72177317415946
 20
-10.18992517378523
 30
0.0
  0
SPLINE
  5
C8
330
1F
100
AcDbEntity
  8
외형선
  6
Continuous
 62
     1
370
    15
100
AcDbSpline
210
0.0
220
0.0
230
1.0
 70
     8
 71
     3
 72
    25
 73
    21
 74
     0
 42
0.000000001
 43
0.00000001
 40
0.0
 40
0.0
 40
0.0
 40
0.0
 40
0.0503959003829001
 40
0.1084254459665402
 40
0.166455065060003
 40
0.2244847726003183
 40
0.2825145835189203
 40
0.3405445127407054
 40
0.3985745751830908
 40
0.4566047857550706
 40
0.5146351593562772
 40
0.5726657108760411
 40
0.6306964551924562
 40
0.6887274071714394
 40
0.7467585816657998
 40
0.8047899935143051
 40
0.8628216575407522
 40
0.9208535885530378
 40
0.9788858013422312
 40
1.0
 40
1.0
 40
1.0
 40
1.0
 10
82.1574879434397
 20
11.0867826469262
 30
0.0
 10
82.81913482418025
 20
11.06344030083722
 30
0.0
 10
84.2426505778746
 20
11.01321986097259
 30
0.0
 10
86.4280375011389
 20
10.3684938180419
 30
0.0
 10
88.71364996371238
 20
9.302676823222528
 30
0.0
 10
90.99926767808313
 20
7.832522615842628
 30
0.0
 10
93.28489149613648
 20
6.035480964527089
 30
0.0
 10
95.57052230806651
 20
3.983164170209532
 30
0.0
 10
97.8561609931904
 20
1.763203101319995
 30
0.0
 10
100.1418084330691
 20
-0.531110766016195
 30
0.0
 10
102.4274655078392
 20
-2.802977905449322
 30
0.0
 10
104.7131330973944
 20
-4.956628739753794
 30
0.0
 10
106.9988120799562
 20
-6.901312322943616
 30
0.0
 10
109.2845033362395
 20
-8.55485979035356
 30
0.0
 10
111.5702077338512
 20
-9.848246913296226
 30
0.0
 10
113.8559261851602
 20
-10.72437290933175
 30
0.0
 10
116.1416594310511
 20
-11.1558945773298
 30
0.0
 10
118.4274088476759
 20
-11.08880347954036
 30
0.0
 10
120.2284624103182
 20
-10.7506004622074
 30
0.0
 10
121.2676017273379
 20
-10.29418177275927
 30
0.0
 10
121.5448169992817
 20
-10.17242116853296
 30
0.0
  0
SPLINE
  5
C9
330
1F
100
AcDbEntity
  8
외형선
  6
Continuous
 62
     1
370
    15
100
AcDbSpline
210
0.0
220
0.0
230
1.0
 70
     8
 71
     3
 72
    25
 73
    21
 74
     0
 42
0.000000001
 43
0.00000001
 40
0.0
 40
0.0
 40
0.0
 40
0.0
 40
0.0186290348532971
 40
0.0766666995112468
 40
0.1347040528383351
 40
0.1927411095904407
 40
0.2507778845421201
 40
0.3088143924856737
 40
0.3668506482302372
 40
0.4248866666008442
 40
0.4829224624375008
 40
0.5409580505942547
 40
0.5989934459382652
 40
0.6570286633488678
 40
0.7150637177166356
 40
0.7730986239424438
 40
0.8311333969365328
 40
0.8891680516175628
 40
0.9472026029116771
 40
1.0
 40
1.0
 40
1.0
 40
1.0
 10
126.0184588566525
 20
-11.06025137923528
 30
0.0
 10
125.7738911904129
 20
-11.07458780038723
 30
0.0
 10
124.7673873148548
 20
-11.13358850016468
 30
0.0
 10
122.9989579170252
 20
-10.75849917826176
 30
0.0
 10
120.7131742763573
 20
-9.944072874233042
 30
0.0
 10
118.4274086223192
 20
-8.677135714851993
 30
0.0
 10
116.1416594914348
 20
-7.053238305219181
 30
0.0
 10
113.8559261689806
 20
-5.129555326905257
 30
0.0
 10
111.5702077381865
 20
-2.990213918157681
 30
0.0
 10
109.2845033350785
 20
-0.7245969231907097
 30
0.0
 10
106.9988120802655
 20
1.571564096492542
 30
0.0
 10
104.7131330973188
 20
3.801520068330372
 30
0.0
 10
102.4274655078325
 20
5.87126295537648
 30
0.0
 10
100.141808433172
 20
7.693474013694671
 30
0.0
 10
97.85616099278583
 20
9.191584158624538
 30
0.0
 10
95.5705223095818
 20
10.30149915369663
 30
0.0
 10
93.28489149048018
 20
10.97993254570182
 30
0.0
 10
90.99926769919315
 20
11.1852087560892
 30
0.0
 10
88.7824016284025
 20
10.96432515141493
 30
0.0
 10
87.32741081644723
 20
10.4512724178112
 30
0.0
 10
86.63429183063289
 20
10.20686771953904
 30
0.0
  0
SPLINE
  5
CA
330
1F
100
AcDbEntity
  8
외형선
  6
Continuous
 62
     1
370
    15
100
AcDbSpline
210
0.0
220
0.0
230
1.0
 70
     8
 71
     3
 72
    25
 73
    21
 74
     0
 42
0.000000001
 43
0.00000001
 40
0.0
 40
0.0
 40
0.0
 40
0.0
 40
0.0449296459309805
 40
0.1029599766278655
 40
0.1609904578995847
 40
0.2190211046442083
 40
0.2770519317493509
 40
0.3350829540912353
 40
0.3931141865337551
 40
0.4511456439275433
 40
0.5091773411090386
 40
0.5672092928995558
 40
0.6252415141043562
 40
0.6832740195117252
 40
0.7413068238920457
 40
0.7957251899754925
 40
0.8501492942174205
 40
0.9045682574214222
 40
0.9589809558693215
 40
1.0
 40
1.0
 40
1.0
 40
1.0
 10
56.19915966698834
 20
-11.0704066299023
 30
0.0
 10
55.60927934747569
 20
-11.05968170709185
 30
0.0
 10
54.25752011029943
 20
-11.03510466494032
 30
0.0
 10
52.1438768868863
 20
-10.44407400023921
 30
0.0
 10
49.85822798885025
 20
-9.419882724816711
 30
0.0
 10
47.5725692333619
 20
-7.983707323408433
 30
0.0
 10
45.2868998386252
 20
-6.214874301670989
 30
0.0
 10
43.00121890598832
 20
-4.182920380091232
 30
0.0
 10
40.71552553912208
 20
-1.974856463792027
 30
0.0
 10
38.42981895413229
 20
0.3165904042861013
 30
0.0
 10
36.14409792029493
 20
2.594721463951837
 30
0.0
 10
33.85836288738528
 20
4.763511320118837
 30
0.0
 10
31.57260803594306
 20
6.731546789778547
 30
0.0
 10
29.28685094944383
 20
8.41574991280721
 30
0.0
 10
27.0484818397921
 20
9.717904020903415
 30
0.0
 10
24.85767185514214
 20
10.60988492647128
 30
0.0
 10
22.7140456541388
 20
11.09264473762846
 30
0.0
 10
20.57068495618868
 20
11.15162927593418
 30
0.0
 10
18.60341141620228
 20
10.86936162830285
 30
0.0
 10
17.35063324201579
 20
10.3937794450472
 30
0.0
 10
16.81215661123861
 20
10.18936185782076
 30
0.0
  0
SPLINE
  5
CB
330
1F
100
AcDbEntity
  8
외형선
  6
Continuous
 62
     1
370
    15
100
AcDbSpline
210
0.0
220
0.0
230
1.0
 70
     8
 71
     3
 72
    20
 73
    16
 74
     0
 42
0.000000001
 43
0.00000001
 40
0.0
 40
0.0
 40
0.0
 40
0.0
 40
0.0762918994132598
 40
0.1525871611172134
 40
0.2288875999472354
 40
0.3051950244014888
 40
0.3815112344410312
 40
0.4578346541829853
 40
0.5341500268310173
 40
0.6155342250501143
 40
0.69691800399473
 40
0.7783013843785938
 40
0.8596843869405396
 40
0.9410670324432098
 40
1.0
 40
1.0
 40
1.0
 40
1.0
 10
12.00000000000003
 20
5.84591219744843
 30
0.0
 10
12.71411905109091
 20
5.217494462021508
 30
0.0
 10
14.1423886254979
 20
3.960631295919284
 30
0.0
 10
16.28491048135895
 20
1.870520248248077
 30
0.0
 10
18.42764811854506
 20
-0.2734023931290341
 30
0.0
 10
20.57068329649328
 20
-2.411419321628808
 30
0.0
 10
22.71404609882327
 20
-4.458966365343325
 30
0.0
 10
24.85767173637013
 20
-6.341418751389399
 30
0.0
 10
27.04848187353216
 20
-8.025134035794066
 30
0.0
 10
29.28685094195409
 20
-9.426262951521108
 30
0.0
 10
31.57260803128791
 20
-10.45839532188248
 30
0.0
 10
33.85836291349509
 20
-11.05365795066103
 30
0.0
 10
36.14409782051128
 20
-11.16772099162368
 30
0.0
 10
38.21964782443963
 20
-10.89499807562961
 30
0.0
 10
39.53328379323145
 20
-10.39097614047109
 30
0.0
 10
40.08501473921986
 20
-10.17928545470244
 30
0.0
  0
SPLINE
  5
CC
330
1F
100
AcDbEntity
  8
외형선
  6
Continuous
 62
     1
370
    15
100
AcDbSpline
210
0.0
220
0.0
230
1.0
 70
     8
 71
     3
 72
    25
 73
    21
 74
     0
 42
0.000000001
 43
0.00000001
 40
0.0
 40
0.0
 40
0.0
 40
0.0
 40
0.0556822377665494
 40
0.1137119194855795
 40
0.1717415999784258
 40
0.2297712941959903
 40
0.2878010170883047
 40
0.3458307836035858
 40
0.4038606086872918
 40
0.4618905072811746
 40
0.5199204943223358
 40
0.5779505847422817
 40
0.6359807934659805
 40
0.6940111354109212
 40
0.7520416254861699
 40
0.8100722785914305
 40
0.8681031096161053
 40
0.92613413343836
 40
0.9841653649241829
 40
0.9999999999999999
 40
0.9999999999999999
 40
0.9999999999999999
 40
0.9999999999999999
 10
70.52128140640481
 20
11.10447894670477
 30
0.0
 10
71.25232865708813
 20
11.06641814832451
 30
0.0
 10
72.74524254568527
 20
10.9886919897761
 30
0.0
 10
75.00002257838483
 20
10.28933677077499
 30
0.0
 10
77.28562217863953
 20
9.183802348633728
 30
0.0
 10
79.57122257755215
 20
7.681204878912471
 30
0.0
 10
81.85682467472834
 20
5.857496439079913
 30
0.0
 10
84.14242934943208
 20
3.786181532213371
 30
0.0
 10
86.42803748616095
 20
1.555485898593316
 30
0.0
 10
88.71364996773109
 20
-0.7407917396042373
 30
0.0
 10
90.99926767698625
 20
-3.005785323581689
 30
0.0
 10
93.284891496505
 20
-5.144010176155476
 30
0.0
 10
95.57052230768954
 20
-7.065376101545301
 30
0.0
 10
97.85616099432991
 20
-8.68866901301434
 30
0.0
 10
100.141808428888
 20
-9.946252216352818
 30
0.0
 10
102.4274655234242
 20
-10.78212422641252
 30
0.0
 10
104.7131330392355
 20
-11.17217694070845
 30
0.0
 10
106.9988122970078
 20
-11.05841682427916
 30
0.0
 10
108.7304971166601
 20
-10.71163779932495
 30
0.0
 10
109.7002904790858
 20
-10.27350074457096
 30
0.0
 10
109.9081852037776
 20
-10.17957724921152
 30
0.0
  0
SPLINE
  5
CD
330
1F
100
AcDbEntity
  8
외형선
  6
Continuous
370
    15
100
AcDbSpline
210
0.0
220
0.0
230
1.0
 70
    24
 71
     3
 72
    14
 73
    10
 74
     0
 42
0.000000001
 43
0.00000001
 40
0.0
 40
0.0
 40
0.0
 40
0.0
 40
0.156808420609398
 40
0.2967463178549491
 40
0.440742423600687
 40
0.5806803208462399
 40
0.7246764265919804
 40
0.8646143238375331
 40
1.0
 40
1.0
 40
1.0
 40
1.0
 10
12.00000000000003
 20
10.86593340095927
 30
0.0
 10
12.00000000000002
 20
10.6070497721872
 30
0.0
 10
12.00000000000001
 20
10.11713498768466
 30
0.0
 10
12.00000000000005
 20
9.343509151609934
 30
0.0
 10
11.99999999999998
 20
8.59562233648634
 30
0.0
 10
12.00000000000003
 20
7.853268324467172
 30
0.0
 10
11.99999999999999
 20
7.154576361519839
 30
0.0
 10
12.00000000000005
 20
6.510347021532164
 30
0.0
 10
12.00000000000001
 20
6.150415079434543
 30
0.0
 10
11.99999999999999
 20
5.97342467955643
 30
0.0
  0
SPLINE
  5
CE
330
1F
100
AcDbEntity
  8
외형선
  6
Continuous
 62
     1
370
    15
100
AcDbSpline
210
0.0
220
0.0
230
1.0
 70
     8
 71
     3
 72
    26
 73
    22
 74
     0
 42
0.000000001
 43
0.00000001
 40
0.0
 40
0.0
 40
0.0
 40
0.0
 40
0.0133353605568407
 40
0.0713706143322187
 40
0.1294056307377384
 40
0.1874404246131496
 40
0.2454750108122437
 40
0.3035094042019231
 40
0.3615436196612666
 40
0.41957767208059
 40
0.4776115763605116
 40
0.5356453474110141
 40
0.5936790001505003
 40
0.6517125495048557
 40
0.7097460104065033
 40
0.7677793977934618
 40
0.8258127266083999
 40
0.8838460117976934
 40
0.9418792683104763
 40
0.9999125110976999
 40
0.9999999999999999
 40
0.9999999999999999
 40
0.9999999999999999
 40
0.9999999999999999
 10
114.381137958714
 20
-11.06989011969515
 30
0.0
 10
114.2060665021581
 20
-11.0825641365934
 30
0.0
 10
113.2690871566675
 20
-11.15039525133747
 30
0.0
 10
111.5702080016983
 20
-10.80945391814699
 30
0.0
 10
109.2845032644705
 20
-10.03968114871549
 30
0.0
 10
106.9988120991867
 20
-8.807834769323403
 30
0.0
 10
104.7131330922412
 20
-7.215009381632017
 30
0.0
 10
102.4274655092214
 20
-5.315185247408396
 30
0.0
 10
100.1418084326937
 20
-3.191986265400847
 30
0.0
 10
97.85616099331023
 20
-0.9339768801104225
 30
0.0
 10
95.57052230796252
 20
1.363394516887059
 30
0.0
 10
93.28489149643286
 20
3.603350260465838
 30
0.0
 10
90.9992676770016
 20
5.691416972655844
 30
0.0
 10
88.7136499677418
 20
7.539662461479048
 30
0.0
 10
86.4280374861028
 20
9.069831857778555
 30
0.0
 10
84.14242934965392
 20
10.21867516090918
 30
0.0
 10
81.85682467389934
 20
10.93306965604965
 30
0.0
 10
79.57122258064643
 20
11.200406233239
 30
0.0
 10
77.28562216709163
 20
10.94407718464233
 30
0.0
 10
75.7607405239414
 20
10.59358392660321
 30
0.0
 10
74.99772547133283
 20
10.22480565619842
 30
0.0
 10
74.99657690786067
 20
10.22425053575978
 30
0.0
  0
SPLINE
  5
CF
330
1F
100
AcDbEntity
  8
외형선
  6
Continuous
 62
     1
370
    15
100
AcDbSpline
210
0.0
220
0.0
230
1.0
 70
     8
 71
     3
 72
    22
 73
    18
 74
     0
 42
0.000000001
 43
0.00000001
 40
0.0
 40
0.0
 40
0.0
 40
0.0
 40
0.0479385164831576
 40
0.1181309989977953
 40
0.1883237536053612
 40
0.2585167982514758
 40
0.3287101508634661
 40
0.3989038293492416
 40
0.4690978515961776
 40
0.5392922354699963
 40
0.6051147253433755
 40
0.6709441558859757
 40
0.7367673680148088
 40
0.8025830025209606
 40
0.8683926118821866
 40
0.9341977559395508
 40
0.9999999999999999
 40
0.9999999999999999
 40
0.9999999999999999
 40
0.9999999999999999
 10
44.56225057115704
 20
-11.06058911864225
 30
0.0
 10
44.04190753320387
 20
-11.05959704453014
 30
0.0
 10
42.75966837762734
 20
-11.05715235673961
 30
0.0
 10
40.71552544564468
 20
-10.51537245880075
 30
0.0
 10
38.42981897913455
 20
-9.532085714380683
 30
0.0
 10
36.14409791376375
 20
-8.129237563357085
 30
0.0
 10
33.85836288850776
 20
-6.38835329435597
 30
0.0
 10
31.57260803798437
 20
-4.376810673323752
 30
0.0
 10
29.28685094015599
 20
-2.181083774222082
 30
0.0
 10
27.04848187398069
 20
0.0594216269929384
 30
0.0
 10
24.8576717362532
 20
2.247681145903877
 30
0.0
 10
22.71404609885461
 20
4.305366918005777
 30
0.0
 10
20.57068329648487
 20
6.202972795731774
 30
0.0
 10
18.42764811854725
 20
7.872661137630925
 30
0.0
 10
16.28491048135831
 20
9.242738441303375
 30
0.0
 10
14.14238862549804
 20
10.29913684097626
 30
0.0
 10
12.71411905109098
 20
10.67700398975939
 30
0.0
 10
12.00000000000004
 20
10.86593340095928
 30
0.0
  0
SPLINE
  5
D0
330
1F
100
AcDbEntity
  8
외형선
  6
Continuous
 62
     1
370
    15
100
AcDbSpline
210
0.0
220
0.0
230
1.0
 70
     8
 71
     3
 72
    25
 73
    21
 74
     0
 42
0.000000001
 43
0.00000001
 40
0.0
 40
0.0
 40
0.0
 40
0.0
 40
0.0224407680576308
 40
0.0768621719140101
 40
0.1348982158344915
 40
0.192933960765332
 40
0.2509694214777392
 40
0.3090046127608235
 40
0.3670395494206731
 40
0.4250742462794302
 40
0.4831087181743625
 40
0.5411429799569291
 40
0.5991770464918563
 40
0.657210932656196
 40
0.7152446533383944
 40
0.7732782234373535
 40
0.8313116578614901
 40
0.8893449715278011
 40
0.9473781793609162
 40
1.0
 40
1.0
 40
1.0
 40
1.0
 10
23.97384084603324
 20
11.0635430776358
 30
0.0
 10
24.26846471661108
 20
11.07571724639273
 30
0.0
 10
25.2775848381759
 20
11.1174151530554
 30
0.0
 10
27.04847969208256
 20
10.74534691458095
 30
0.0
 10
29.28685154047592
 20
9.942099688405294
 30
0.0
 10
31.57260787757728
 20
8.675196072503473
 30
0.0
 10
33.85836292982013
 20
7.049973803064347
 30
0.0
 10
36.14409790892007
 20
5.125604153677663
 30
0.0
 10
38.42981895719703
 20
2.985723289554011
 30
0.0
 10
40.71552553823761
 20
0.7198762032138796
 30
0.0
 10
43.00121890646121
 20
-1.576233120520813
 30
0.0
 10
45.28689983761818
 20
-3.805847695748571
 30
0.0
 10
47.57256923691689
 20
-5.874976637470626
 30
0.0
 10
49.85822797563735
 20
-7.696325873577861
 30
0.0
 10
52.14387693618277
 20
-9.193364547328082
 30
0.0
 10
54.42951699489021
 20
-10.30203711515465
 30
0.0
 10
56.71514904536782
 20
-10.97913349017137
 30
0.0
 10
59.00077392196242
 20
-11.18294503045035
 30
0.0
 10
61.21535198138606
 20
-10.96112994233151
 30
0.0
 10
62.66805439742713
 20
-10.44813988341497
 30
0.0
 10
63.35888469257343
 20
-10.20418828679394
 30
0.0
  0
SPLINE
  5
D1
330
1F
100
AcDbEntity
  8
외형선
  6
Continuous
 62
     1
370
    15
100
AcDbSpline
210
0.0
220
0.0
230
1.0
 70
     8
 71
     3
 72
    25
 73
    21
 74
     0
 42
0.000000001
 43
0.00000001
 40
0.0
 40
0.0
 40
0.0
 40
0.0
 40
0.0451033907630814
 40
0.1031337404624212
 40
0.1611642382920886
 40
0.2191948991517898
 40
0.277225737930929
 40
0.3352567695076738
 40
0.3932880087480146
 40
0.451319470504834
 40
0.5093511696169735
 40
0.5673831209083028
 40
0.6254153391867924
 40
0.6834478392435848
 40
0.7414806358520722
 40
0.7995137437669789
 40
0.8575471777234368
 40
0.9155809524360702
 40
0.9736150825980865
 40
1.0
 40
1.0
 40
1.0
 40
1.0
 10
93.79403799754614
 20
11.07294465944573
 30
0.0
 10
94.38619887334127
 20
11.06185917885606
 30
0.0
 10
95.74023822699108
 20
11.03651103853458
 30
0.0
 10
97.8561610408105
 20
10.4438184690716
 30
0.0
 10
100.1418084203032
 20
9.418295427215812
 30
0.0
 10
102.4274655112825
 20
7.981033671876951
 30
0.0
 10
104.713133096387
 20
6.211294358279081
 30
0.0
 10
106.9988120805422
 20
4.178682194324027
 30
0.0
 10
109.2845033349028
 20
1.970227751238022
 30
0.0
 10
111.5702077386119
 20
-0.321323107055991
 30
0.0
 10
113.8559261674542
 20
-2.599268860075876
 30
0.0
 10
116.1416594971147
 20
-4.767588138291951
 30
0.0
 10
118.4274086011257
 20
-6.734901529486474
 30
0.0
 10
120.7131743554521
 20
-8.418110022236348
 30
0.0
 10
122.9989576218378
 20
-9.74684085974296
 30
0.0
 10
125.2847593094714
 20
-10.66285902636837
 30
0.0
 10
127.5705801446126
 20
-11.13580254467796
 30
0.0
 10
129.8564215300644
 20
-11.11489841074715
 30
0.0
 10
131.7267421785607
 20
-10.78858244159433
 30
0.0
 10
132.8351185951965
 20
-10.31642154175006
 30
0.0
 10
133.1815382842011
 20
-10.16884908384747
 30
0.0
  0
SPLINE
  5
D2
330
1F
100
AcDbEntity
  8
외형선
  6
Continuous
 62
     1
370
    15
100
AcDbSpline
210
0.0
220
0.0
230
1.0
 70
     8
 71
     3
 72
    25
 73
    21
 74
     0
 42
0.000000001
 43
0.00000001
 40
0.0
 40
0.0
 40
0.0
 40
0.0
 40
0.0239221003528079
 40
0.0819611610992867
 40
0.1399998370501774
 40
0.1980381428541789
 40
0.2560760931832219
 40
0.3141137027315711
 40
0.3721509862149103
 40
0.4301879583694329
 40
0.4882246339509205
 40
0.5462610277338326
 40
0.6042971545103728
 40
0.662333029089579
 40
0.720368666296388
 40
0.7784040809707078
 40
0.8364392879664891
 40
0.8944743021507932
 40
0.9525091384028581
 40
1.0
 40
1.0
 40
1.0
 40
1.0
 10
137.6562607803776
 20
-11.05452153505821
 30
0.0
 10
137.3421970232967
 20
-11.06838224542605
 30
0.0
 10
136.266161482524
 20
-11.11587138302914
 30
0.0
 10
134.4281675286599
 20
-10.70330691475223
 30
0.0
 10
132.1422832347674
 20
-9.845172064454806
 30
0.0
 10
129.8564212895831
 20
-8.54343915486688
 30
0.0
 10
127.5705802090489
 20
-6.889099825586038
 30
0.0
 10
125.2847592922061
 20
-4.942229862716395
 30
0.0
 10
122.9989576264637
 20
-2.787503635292541
 30
0.0
 10
120.7131743542138
 20
-0.5150710979676167
 30
0.0
 10
118.4274086014529
 20
1.779077933088123
 30
0.0
 10
116.1416594970445
 20
3.998267830963452
 30
0.0
 10
113.8559261674079
 20
6.048948982310726
 30
0.0
 10
111.5702077388674
 20
7.844589736964561
 30
0.0
 10
109.2845033339277
 20
9.309795463268385
 30
0.0
 10
106.9988120841875
 20
10.38165388629608
 30
0.0
 10
104.713133082781
 20
11.01924765905819
 30
0.0
 10
102.4274655620612
 20
11.17976996194101
 30
0.0
 10
100.2802281857072
 20
10.93188423877993
 30
0.0
 10
98.89488129689445
 20
10.42196827391708
 30
0.0
 10
98.27141877827032
 20
10.19248532325155
 30
0.0
  0
SPLINE
  5
D3
330
1F
100
AcDbEntity
  8
외형선
  6
Continuous
 62
     1
370
    15
100
AcDbSpline
210
0.0
220
0.0
230
1.0
 70
     8
 71
     3
 72
    25
 73
    21
 74
     0
 42
0.000000001
 43
0.00000001
 40
0.0
 40
0.0
 40
0.0
 40
0.0
 40
0.0502223631080967
 40
0.1082519219247602
 40
0.1662815567016645
 40
0.2243112823749872
 40
0.2823411138751551
 40
0.3403710661259038
 40
0.3984011540433333
 40
0.456431392534967
 40
0.5144617964988126
 40
0.5724923808224228
 40
0.6305231603819579
 40
0.6885541500412496
 40
0.7465853646508683
 40
0.8046168190471911
 40
0.8626485280514706
 40
0.9206805064689062
 40
0.9787127690877212
 40
1.0
 40
1.0
 40
1.0
 40
1.0
 10
67.83572106102804
 20
-11.08411740010927
 30
0.0
 10
67.1763525268957
 20
-11.06121613087589
 30
0.0
 10
65.75511492159009
 20
-11.0118535311174
 30
0.0
 10
63.57200585870395
 20
-10.36887616001777
 30
0.0
 10
61.2863926003138
 20
-9.304371816390379
 30
0.0
 10
59.00077394389933
 20
-7.835289671796899
 30
0.0
 10
56.71514903948876
 20
-6.0391336668038
 30
0.0
 10
54.42951699646969
 20
-3.987452142535189
 30
0.0
 10
52.14387693574416
 20
-1.767856338729355
 30
0.0
 10
49.85822797581255
 20
0.5263795550294279
 30
0.0
 10
47.57256923665476
 20
2.79845873014095
 30
0.0
 10
45.28689983849144
 20
4.952602822748034
 30
0.0
 10
43.00121890323052
 20
6.898039757500293
 30
0.0
 10
40.71552555028712
 20
8.55256975795436
 30
0.0
 10
38.42981891222968
 20
9.847123752224935
 30
0.0
 10
36.14409807674113
 20
10.72456423285825
 30
0.0
 10
33.85836230349947
 20
11.15744577824846
 30
0.0
 10
31.57261021505461
 20
11.09187705352497
 30
0.0
 10
29.76928291701345
 20
10.75401237167923
 30
0.0
 10
28.72787073438649
 20
10.29703703286782
 30
0.0
 10
28.44838355387706
 20
10.17439707230526
 30
0.0
  0
LINE
  5
D4
330
1F
100
AcDbEntity
  8
외형선
  6
Continuous
 62
     1
370
    15
100
AcDbLine
 10
139.0
 20
-4.354117833944493
 30
0.0
 11
139.0
 21
4.356267691392491
 31
0.0
  0
SPLINE
  5
D5
330
1F
100
AcDbEntity
  8
외형선
  6
Continuous
 62
     1
370
    15
100
AcDbSpline
210
0.0
220
0.0
230
1.0
 70
     8
 71
     3
 72
    10
 73
     6
 74
     0
 42
0.000000001
 43
0.00000001
 40
0.0
 40
0.0
 40
0.0
 40
0.0
 40
0.4452058414031838
 40
0.8904313036503719
 40
1.0
 40
1.0
 40
1.0
 40
1.0
 10
12.00000000000001
 20
-11.10633913410971
 30
0.0
 10
12.71412033731539
 20
-11.08249453615935
 30
0.0
 10
14.14239248422803
 20
-11.03480428939385
 30
0.0
 10
15.74643789109418
 20
-10.66730144245216
 30
0.0
 10
16.63639511287643
 20
-10.26638977786036
 30
0.0
 10
16.8121566112387
 20
-10.18721200037296
 30
0.0
  0
SPLINE
  5
D6
330
1F
100
AcDbEntity
  8
외형선
  6
Continuous
 62
     1
370
    15
100
AcDbSpline
210
0.0
220
0.0
230
1.0
 70
     8
 71
     3
 72
    26
 73
    22
 74
     0
 42
0.000000001
 43
0.00000001
 40
0.0
 40
0.0
 40
0.0
 40
0.0
 40
0.0082178268450318
 40
0.0662506318395939
 40
0.1242832713550976
 40
0.1823157602901674
 40
0.2403481135529423
 40
0.2983803460601414
 40
0.356412472736116
 40
0.4144445085119116
 40
0.4724764683243233
 40
0.5305083671149515
 40
0.5885402198292583
 40
0.64657204141562
 40
0.7046038468243828
 40
0.762635651006917
 40
0.8206674689146716
 40
0.8786993154982256
 40
0.9367312057063427
 40
0.9947631544850282
 40
1.0
 40
1.0
 40
1.0
 40
1.0
 10
47.24890622010588
 20
11.08506515459053
 30
0.0
 10
47.35679449355543
 20
11.09422014117892
 30
0.0
 10
48.22657021637177
 20
11.16802598515711
 30
0.0
 10
49.85822775530422
 20
10.85669986432371
 30
0.0
 10
52.14387699480852
 20
10.13115016214938
 30
0.0
 10
54.42951698071953
 20
8.933465743047279
 30
0.0
 10
56.71514904342516
 20
7.371289461285318
 30
0.0
 10
59.00077394390367
 20
5.495167046124806
 30
0.0
 10
61.28639259635989
 20
3.388295366733498
 30
0.0
 10
63.57200587451513
 20
1.138395587315398
 30
0.0
 10
65.85761466344113
 20
-1.159385926253855
 30
0.0
 10
68.143219845562
 20
-3.40826515263674
 30
0.0
 10
70.4288223044406
 20
-5.513393464304811
 30
0.0
 10
72.71442292325612
 20
-7.386107662936999
 30
0.0
 10
75.00002258673648
 20
-8.947168385613354
 30
0.0
 10
77.28562217457467
 20
-10.13184610796215
 30
0.0
 10
79.57122258545975
 20
-10.88616685617892
 30
0.0
 10
81.85682464716284
 20
-11.19337413167909
 30
0.0
 10
84.14242945178673
 20
-10.9843719863811
 30
0.0
 10
85.73491861676438
 20
-10.6312142314093
 30
0.0
 10
86.56554013961176
 20
-10.23732095294703
 30
0.0
 10
86.63429183063296
 20
-10.20471786209124
 30
0.0
  0
SPLINE
  5
D7
330
1F
100
AcDbEntity
  8
외형선
  6
Continuous
 62
     1
370
    15
100
AcDbSpline
210
0.0
220
0.0
230
1.0
 70
     8
 71
     3
 72
    17
 73
    13
 74
     0
 42
0.000000001
 43
0.00000001
 40
0.0
 40
0.0
 40
0.0
 40
0.0
 40
0.0619756692635995
 40
0.166198217747825
 40
0.2704212988193663
 40
0.3746449389767357
 40
0.4788691646832601
 40
0.5830940023654362
 40
0.6873194784112966
 40
0.7915456191687701
 40
0.8957724509440571
 40
0.9999999999999999
 40
0.9999999999999999
 40
0.9999999999999999
 40
0.9999999999999999
 10
117.0681845126773
 20
11.05696740756309
 30
0.0
 10
117.5212581094464
 20
11.06309187175
 30
0.0
 10
118.7362514316056
 20
11.07951565619024
 30
0.0
 10
120.7131745033136
 20
10.58270967685791
 30
0.0
 10
122.9989575867765
 20
9.63956480537509
 30
0.0
 10
125.284759301854
 20
8.269339340825093
 30
0.0
 10
127.5705802101444
 20
6.556008372932555
 30
0.0
 10
129.8564212755526
 20
4.565078794645128
 30
0.0
 10
132.1422832897943
 20
2.381174427746493
 30
0.0
 10
134.4281673225809
 20
0.1003416683478023
 30
0.0
 10
136.7140734950109
 20
-2.197839239060593
 30
0.0
 10
138.2380227503937
 20
-3.635356653509035
 30
0.0
 10
139.0
 20
-4.354117833944492
 30
0.0
  0
SPLINE
  5
D8
330
1F
100
AcDbEntity
  8
외형선
  6
Continuous
370
    15
100
AcDbSpline
210
0.0
220
0.0
230
1.0
 70
    24
 71
     3
 72
    12
 73
     8
 74
     0
 42
0.000000001
 43
0.00000001
 40
0.0
 40
0.0
 40
0.0
 40
0.0
 40
0.1596215834812415
 40
0.3652263737659777
 40
0.5650366524332497
 40
0.7706414427179794
 40
0.9999999999999999
 40
0.9999999999999999
 40
0.9999999999999999
 40
0.9999999999999999
 10
12.00000000000005
 20
-7.579233085800838
 30
0.0
 10
12.00000000000002
 20
-7.743746006840536
 30
0.0
 10
12.0
 20
-8.120164134505826
 30
0.0
 10
12.0
 20
-8.774909065943428
 30
0.0
 10
11.99999999999998
 20
-9.51156810410855
 30
0.0
 10
12.00000000000009
 20
-10.29857825839172
 30
0.0
 10
12.00000000000002
 20
-10.82745796561096
 30
0.0
 10
11.99999999999999
 20
-11.1063391341097
 30
0.0
  0
SPLINE
  5
D9
330
1F
100
AcDbEntity
  8
외형선
  6
Continuous
 62
     1
370
    15
100
AcDbSpline
210
0.0
220
0.0
230
1.0
 70
     8
 71
     3
 72
    15
 73
    11
 74
     0
 42
0.000000001
 43
0.00000001
 40
0.0
 40
0.0
 40
0.0
 40
0.0
 40
0.1309585644885964
 40
0.2619162277371117
 40
0.3928730227439566
 40
0.5238289825620331
 40
0.6547841402966627
 40
0.7857385291035602
 40
0.9166921821867706
 40
1.0
 40
1.0
 40
1.0
 40
1.0
 10
139.0
 20
4.356267691392492
 30
0.0
 10
138.2380227503328
 20
5.03944536229539
 30
0.0
 10
136.7140734948284
 20
6.405796002559886
 30
0.0
 10
134.4281673233111
 20
8.136007005402996
 30
0.0
 10
132.1422832870558
 20
9.536758664263004
 30
0.0
 10
129.8564212857765
 20
10.53066539931596
 30
0.0
 10
127.5705801719875
 20
11.08635059165093
 30
0.0
 10
125.2847594442567
 20
11.156630893254
 30
0.0
 10
123.2761730692517
 20
10.86351652084025
 30
0.0
 10
122.0295293050185
 20
10.36744894701177
 30
0.0
 10
121.5448169992818
 20
10.17457102598075
 30
0.0
  0
SPLINE
  5
DA
330
1F
100
AcDbEntity
  8
외형선
  6
Continuous
 62
     1
370
    15
100
AcDbSpline
210
0.0
220
0.0
230
1.0
 70
     8
 71
     3
 72
    26
 73
    22
 74
     0
 42
0.000000001
 43
0.00000001
 40
0.0
 40
0.0
 40
0.0
 40
0.0
 40
0.0027588518404093
 40
0.0607897915880837
 40
0.1188206428870281
 40
0.1768514206745889
 40
0.2348821398927632
 40
0.2929128154872547
 40
0.3509434624065249
 40
0.4089740956008532
 40
0.4670047300213844
 40
0.5250353806191879
 40
0.5830660623443082
 40
0.6410967901448207
 40
0.6991275789658852
 40
0.7571584437488005
 40
0.8151893994300609
 40
0.8732204609404095
 40
0.9312516432038986
 40
0.9892829611369439
 40
1.0
 40
1.0
 40
1.0
 40
1.0
 10
91.10792741648741
 20
-11.10081343450236
 30
0.0
 10
91.0717071634736
 20
-11.10432527067744
 30
0.0
 10
90.27361369584831
 20
-11.18170666030048
 30
0.0
 10
88.71365011965055
 20
-10.89794025127787
 30
0.0
 10
86.42803744544429
 20
-10.22095121420639
 30
0.0
 10
84.1424293603796
 20
-9.05990521771329
 30
0.0
 10
81.85682467165526
 20
-7.531105489558788
 30
0.0
 10
79.57122257889708
 20
-5.680954721489151
 30
0.0
 10
77.28562217633299
 20
-3.592286601048062
 30
0.0
 10
75.00002258626641
 20
-1.351857745840779
 30
0.0
 10
72.7144229233782
 20
0.9455329164461126
 30
0.0
 10
70.42882230442234
 20
3.20313138890722
 30
0.0
 10
68.14321984551312
 20
5.325720641335774
 30
0.0
 10
65.85761466365472
 20
7.223890757053262
 30
0.0
 10
63.57200587370974
 20
8.817370319148385
 30
0.0
 10
61.28639259936773
 20
10.03990555219647
 30
0.0
 10
59.00077393267781
 20
10.83651059280083
 30
0.0
 10
56.71514908532105
 20
11.18646170928092
 30
0.0
 10
54.42951682436146
 20
11.02700914998602
 30
0.0
 10
52.76505772667744
 20
10.67526624068208
 30
0.0
 10
51.86247493499285
 20
10.25724023839016
 30
0.0
 10
51.72177317415952
 20
10.19207503123303
 30
0.0
  0
SPLINE
  5
DB
330
1F
100
AcDbEntity
  8
외형선
  6
Continuous
 62
     1
370
    15
100
AcDbSpline
210
0.0
220
0.0
230
1.0
 70
     8
 71
     3
 72
    12
 73
     8
 74
     0
 42
0.000000001
 43
0.00000001
 40
0.0
 40
0.0
 40
0.0
 40
0.0
 40
0.0770137506812851
 40
0.3077865282857805
 40
0.5385381796116885
 40
0.7692741740107457
 40
1.0
 40
1.0
 40
1.0
 40
1.0
 10
21.28583204072842
 20
-11.06552975268815
 30
0.0
 10
21.04742639140776
 20
-11.07817888765298
 30
0.0
 10
20.09463489016289
 20
-11.12873133188797
 30
0.0
 10
18.427654411697
 20
-10.79565878925123
 30
0.0
 10
16.28490880337459
 20
-10.0685471545238
 30
0.0
 10
14.14238904496058
 20
-8.959642184983041
 30
0.0
 10
12.71411919090976
 20
-7.954353746874416
 30
0.0
 10
12.00000000000004
 20
-7.451720603692859
 30
0.0
  0
LINE
  5
DC
330
1F
100
AcDbEntity
  8
외형선
  6
Continuous
 62
     1
370
    15
100
AcDbLine
 10
139.0
 20
-11.03033216820056
 30
0.0
 11
139.0
 21
-6.675139405532008
 31
0.0
  0
SPLINE
  5
DD
330
1F
100
AcDbEntity
  8
외형선
  6
Continuous
 62
     1
370
    15
100
AcDbSpline
210
0.0
220
0.0
230
1.0
 70
     8
 71
     3
 72
    25
 73
    21
 74
     0
 42
0.000000001
 43
0.00000001
 40
0.0
 40
0.0
 40
0.0
 40
0.0
 40
0.0135089992436868
 40
0.0715443513330447
 40
0.1295794636195935
 40
0.1876143509407071
 40
0.245649028147951
 40
0.3036835101061579
 40
0.3617178116924862
 40
0.4197519477954886
 40
0.4777859333141738
 40
0.5358197831570654
 40
0.5938535122412669
 40
0.6518871354915148
 40
0.7099206678392395
 40
0.7679541242216211
 40
0.8259875195806458
 40
0.8840208688621606
 40
0.9420541870149275
 40
1.0
 40
1.0
 40
1.0
 40
1.0
 10
35.61204788843534
 20
11.07166190682585
 30
0.0
 10
35.78939882562918
 20
11.08442313799383
 30
0.0
 10
36.72865846514462
 20
11.15200727133002
 30
0.0
 10
38.42981864323036
 20
10.81000103717308
 30
0.0
 10
40.71552562236478
 20
10.03874704235198
 30
0.0
 10
43.00121888391738
 20
8.805745426019
 30
0.0
 10
45.2868998436667
 20
7.211890746895355
 30
0.0
 10
47.57256923526661
 20
5.311273434692158
 30
0.0
 10
49.85822797618996
 20
3.187532822516215
 30
0.0
 10
52.14387693562258
 20
0.9292617742486246
 30
0.0
 10
54.42951699657831
 20
-1.368084306295082
 30
0.0
 10
56.71514903917566
 20
-3.607718055041483
 30
0.0
 10
59.00077394504279
 20
-5.695218493733194
 30
0.0
 10
61.28639259605305
 20
-7.542532612748366
 30
0.0
 10
63.57200587460333
 20
-9.07198465480678
 30
0.0
 10
65.85761466339491
 20
-10.21834014571964
 30
0.0
 10
68.14321984565868
 20
-10.93610029755773
 30
0.0
 10
70.4288223041001
 20
-11.18445277126141
 30
0.0
 10
72.71327436091325
 20
-10.99241310924471
 30
0.0
 10
74.23585898415537
 20
-10.47874230201928
 30
0.0
 10
74.99657690786076
 20
-10.22210067831199
 30
0.0
  0
SPLINE
  5
DE
330
1F
100
AcDbEntity
  8
외형선
  6
Continuous
 62
     1
370
    15
100
AcDbSpline
210
0.0
220
0.0
230
1.0
 70
     8
 71
     3
 72
    22
 73
    18
 74
     0
 42
0.000000001
 43
0.00000001
 40
0.0
 40
0.0
 40
0.0
 40
0.0
 40
0.0467067132488825
 40
0.1147969425349283
 40
0.1828874329079034
 40
0.2509782017787767
 40
0.3190692665409508
 40
0.3871606445691725
 40
0.4552523532184441
 40
0.523344409822941
 40
0.5914368316949338
 40
0.6595296361237059
 40
0.7276228403744779
 40
0.7957164616873409
 40
0.8638105172761851
 40
0.931905024327638
 40
1.0
 40
1.0
 40
1.0
 40
1.0
 10
105.4309356265772
 20
11.06299902347315
 30
0.0
 10
105.9535602690716
 20
11.06172615143862
 30
0.0
 10
107.2380803493451
 20
11.05859765432038
 30
0.0
 10
109.2845034266261
 20
10.51524593928997
 30
0.0
 10
111.5702077140282
 20
9.53060753363647
 30
0.0
 10
113.8559261740649
 20
8.126660382910813
 30
0.0
 10
116.1416594952557
 20
6.384846902558341
 30
0.0
 10
118.427408601951
 20
4.372633455498508
 30
0.0
 10
120.7131743540096
 20
2.176453716017673
 30
0.0
 10
122.9989576267826
 20
-0.1115477030016756
 30
0.0
 10
125.2847592911343
 20
-2.39473682829958
 30
0.0
 10
127.5705802130168
 20
-4.577103465684264
 30
0.0
 10
129.8564212747829
 20
-6.565815002000452
 30
0.0
 10
132.1422832900005
 20
-8.2800667204165
 30
0.0
 10
134.4281673225259
 20
-9.636236592142662
 30
0.0
 10
136.7140734950246
 20
-10.61948351001792
 30
0.0
 10
138.2380227503983
 20
-10.89338230131586
 30
0.0
 10
139.0
 20
-11.03033216820056
 30
0.0
  0
SPLINE
  5
DF
330
1F
100
AcDbEntity
  8
외형선
  6
Continuous
 62
     1
370
    15
100
AcDbSpline
210
0.0
220
0.0
230
1.0
 70
     8
 71
     3
 72
    20
 73
    16
 74
     0
 42
0.000000001
 43
0.00000001
 40
0.0
 40
0.0
 40
0.0
 40
0.0
 40
0.0785750227507748
 40
0.1571495047582989
 40
0.2357234658215894
 40
0.3142969257723583
 40
0.3928699044737691
 40
0.4714424218192216
 40
0.5500144977311131
 40
0.628586152159607
 40
0.7071574050813865
 40
0.7857282764984206
 40
0.8642987864367003
 40
0.9428689549450084
 40
0.9999999999999999
 40
0.9999999999999999
 40
0.9999999999999999
 40
0.9999999999999999
 10
139.0
 20
-6.675139405532006
 30
0.0
 10
138.2380227503983
 20
-6.038774705818183
 30
0.0
 10
136.7140734950249
 20
-4.766049685770959
 30
0.0
 10
134.4281673225252
 20
-2.580550743891664
 30
0.0
 10
132.142283290003
 20
-0.3064250908798624
 30
0.0
 10
129.856421274774
 20
1.986074152113037
 30
0.0
 10
127.5705802130504
 20
4.1934213072422
 30
0.0
 10
125.2847592910092
 20
6.224421288816339
 30
0.0
 10
122.99895762725
 20
7.992857739874702
 30
0.0
 10
120.7131743522656
 20
9.424675276785418
 30
0.0
 10
118.4274086084594
 20
10.45810717710727
 30
0.0
 10
116.1416594709668
 20
11.05470803608962
 30
0.0
 10
113.8559262647114
 20
11.17025282169044
 30
0.0
 10
111.778102525001
 20
10.89827010109109
 30
0.0
 10
110.4621917351194
 20
10.39401964729565
 30
0.0
 10
109.9081852037777
 20
10.18172710665931
 30
0.0
  0
SPLINE
  5
E0
330
1F
100
AcDbEntity
  8
외형선
  6
Continuous
 62
     1
370
    15
100
AcDbSpline
210
0.0
220
0.0
230
1.0
 70
     8
 71
     3
 72
    25
 73
    21
 74
     0
 42
0.000000001
 43
0.00000001
 40
0.0
 40
0.0
 40
0.0
 40
0.0
 40
0.0555089393210446
 40
0.1135385982823502
 40
0.1715682584698383
 40
0.2295979348343269
 40
0.2876276423256099
 40
0.3456573958915115
 40
0.4036872104769406
 40
0.4617171010229453
 40
0.5197470824657691
 40
0.5777771697359045
 40
0.635807377757153
 40
0.6938377214456801
 40
0.7518682157090751
 40
0.8098988754454115
 40
0.8679297155423074
 40
0.9259607508759886
 40
0.9839919963103525
 40
1.0
 40
1.0
 40
1.0
 40
1.0
 10
79.47193879913362
 20
-11.10168779474868
 30
0.0
 10
78.74316652460368
 20
-11.06414899157289
 30
0.0
 10
77.25252765581519
 20
-10.98736670846842
 30
0.0
 10
75.00002259342536
 20
-10.28984382308788
 30
0.0
 10
72.71442292146419
 20
-9.185603296380753
 30
0.0
 10
70.4288223049193
 20
-7.684062749690991
 30
0.0
 10
68.1432198454392
 20
-5.861218913810753
 30
0.0
 10
65.85761466345338
 20
-3.790515922744527
 30
0.0
 10
63.57200587458898
 20
-1.560160127527628
 30
0.0
 10
61.286392596052
 20
0.7360657881982167
 30
0.0
 10
59.00077394506138
 20
3.001297445436983
 30
0.0
 10
56.71514903910243
 20
5.140040298026586
 30
0.0
 10
54.429516996853
 20
7.06218196205043
 30
0.0
 10
52.14387693459713
 20
8.686476652796491
 30
0.0
 10
49.8582279800173
 20
9.945241508283596
 30
0.0
 10
47.57256922098264
 20
10.782439679223
 30
0.0
 10
45.28689989697549
 20
11.17385300052487
 30
0.0
 10
43.00121868496521
 20
11.06163247820396
 30
0.0
 10
41.26725619120875
 20
10.71508041321422
 30
0.0
 10
40.2951857875767
 20
10.27630320072949
 30
0.0
 10
40.08501473921994
 20
10.18143531215023
 30
0.0
  0
LINE
  5
E1
330
1F
100
AcDbEntity
  8
외형선
  6
Continuous
 62
     1
370
    15
100
AcDbLine
 10
139.0
 20
-11.11142507127611
 30
0.0
 11
139.0
 21
-11.03033216820056
 31
0.0
  0
LINE
  5
E2
330
1F
100
AcDbEntity
  8
외형선
  6
Continuous
370
    15
100
AcDbLine
 10
12.00000000000003
 20
-7.451720603692851
 30
0.0
 11
12.00000000000003
 21
-5.261501865385202
 31
0.0
  0
LINE
  5
E3
330
1F
100
AcDbEntity
  8
외형선
  6
Continuous
 62
     1
370
    15
100
AcDbLine
 10
139.0
 20
4.356267691392491
 30
0.0
 11
139.0
 21
6.677289262979854
 31
0.0
  0
LINE
  5
E4
330
1F
100
AcDbEntity
  8
외형선
  6
Continuous
 62
     1
370
    15
100
AcDbLine
 10
139.0
 20
11.03248202564836
 30
0.0
 11
139.0
 21
11.1135749287239
 31
0.0
  0
LINE
  5
E5
330
1F
100
AcDbEntity
  8
외형선
  6
Continuous
370
    15
100
AcDbLine
 10
12.00000000000003
 20
3.413137868542421
 30
0.0
 11
12.00000000000003
 21
5.845912197448441
 31
0.0
  0
LINE
  5
E6
330
1F
100
AcDbEntity
  8
외형선
  6
Continuous
370
    15
100
AcDbLine
 10
12.00000000000003
 20
10.86593340095927
 30
0.0
 11
12.00000000000001
 21
11.11357492872391
 31
0.0
  0
LINE
  5
E7
330
1F
100
AcDbEntity
  8
외형선
  6
Continuous
 62
     1
370
    15
100
AcDbLine
 10
139.0
 20
-6.675139405532008
 30
0.0
 11
139.0
 21
-4.354117833944493
 31
0.0
  0
LINE
  5
E8
330
1F
100
AcDbEntity
  8
외형선
  6
Continuous
370
    15
100
AcDbLine
 10
12.00000000000001
 20
-11.11142507127612
 30
0.0
 11
11.99999999999999
 21
-11.1063391341097
 31
0.0
  0
LINE
  5
E9
330
1F
100
AcDbEntity
  8
외형선
  6
Continuous
370
    15
100
AcDbLine
 10
10.99998929214542
 20
-11.03115277202742
 30
0.0
 11
10.99998929214542
 21
-6.680592099555387
 31
0.0
  0
SPLINE
  5
EA
330
1F
100
AcDbEntity
  8
외형선
  6
Continuous
370
    15
100
AcDbSpline
210
0.0
220
0.0
230
1.0
 70
     8
 71
     3
 72
     8
 73
     4
 74
     0
 42
0.000000001
 43
0.00000001
 40
0.0
 40
0.0
 40
0.0
 40
0.0
 40
1.0
 40
1.0
 40
1.0
 40
1.0
 10
12.00000000000003
 20
-11.1063391341097
 30
0.0
 10
11.665668739238
 20
-11.09624263129244
 30
0.0
 10
11.33165970200664
 20
-11.07109010536145
 30
0.0
 10
10.99998929214544
 20
-11.03115307010972
 30
0.0
  0
SPLINE
  5
EB
330
1F
100
AcDbEntity
  8
외형선
  6
Continuous
370
    15
100
AcDbSpline
210
0.0
220
0.0
230
1.0
 70
     8
 71
     3
 72
     8
 73
     4
 74
     0
 42
0.000000001
 43
0.00000001
 40
0.0
 40
0.0
 40
0.0
 40
0.0
 40
1.0
 40
1.0
 40
1.0
 40
1.0
 10
12.00000000000002
 20
10.86593340095927
 30
0.0
 10
11.66566873923798
 20
10.93600044102734
 30
0.0
 10
11.33165970200662
 20
10.99131405349854
 30
0.0
 10
10.99998929214544
 20
11.03165696295832
 30
0.0
  0
LINE
  5
EC
330
1F
100
AcDbEntity
  8
외형선
  6
Continuous
370
    15
100
AcDbLine
 10
10.99998929214542
 20
6.671834247016594
 30
0.0
 11
10.99998929214542
 21
11.03165723459295
 31
0.0
  0
SPLINE
  5
ED
330
1F
100
AcDbEntity
  8
외형선
  6
Continuous
370
    15
100
AcDbSpline
210
0.0
220
0.0
230
1.0
 70
     8
 71
     3
 72
     8
 73
     4
 74
     0
 42
0.000000001
 43
0.00000001
 40
0.0
 40
0.0
 40
0.0
 40
0.0
 40
1.0
 40
1.0
 40
1.0
 40
1.0
 10
12.00000000000003
 20
5.84591219744842
 30
0.0
 10
11.665668739238
 20
6.12977082431933
 30
0.0
 10
11.33165970200664
 20
6.405612090826155
 30
0.0
 10
10.99998929214544
 20
6.671832260002793
 30
0.0
  0
SPLINE
  5
EE
330
1F
100
AcDbEntity
  8
외형선
  6
Continuous
370
    15
100
AcDbSpline
210
0.0
220
0.0
230
1.0
 70
     8
 71
     3
 72
     8
 73
     4
 74
     0
 42
0.000000001
 43
0.00000001
 40
0.0
 40
0.0
 40
0.0
 40
0.0
 40
1.0
 40
1.0
 40
1.0
 40
1.0
 10
12.00000000000002
 20
3.41313786854242
 30
0.0
 10
11.66566873923798
 20
3.73076932959188
 30
0.0
 10
11.33165970200662
 20
4.043670700515374
 30
0.0
 10
10.99998929214544
 20
4.349988143832391
 30
0.0
  0
LINE
  5
EF
330
1F
100
AcDbEntity
  8
외형선
  6
Continuous
370
    15
100
AcDbLine
 10
10.99998929214542
 20
-4.360393453734756
 30
0.0
 11
10.99998929214542
 21
4.349990206313562
 31
0.0
  0
SPLINE
  5
F0
330
1F
100
AcDbEntity
  8
외형선
  6
Continuous
370
    15
100
AcDbSpline
210
0.0
220
0.0
230
1.0
 70
     8
 71
     3
 72
     8
 73
     4
 74
     0
 42
0.000000001
 43
0.00000001
 40
0.0
 40
0.0
 40
0.0
 40
0.0
 40
1.0
 40
1.0
 40
1.0
 40
1.0
 10
12.00000000000003
 20
-5.261501865385198
 30
0.0
 10
11.665668739238
 20
-4.967546735697034
 30
0.0
 10
11.33165970200664
 20
-4.66655294325922
 30
0.0
 10
10.99998929214544
 20
-4.360395738830855
 30
0.0
  0
SPLINE
  5
F1
330
1F
100
AcDbEntity
  8
외형선
  6
Continuous
370
    15
100
AcDbSpline
210
0.0
220
0.0
230
1.0
 70
     8
 71
     3
 72
     8
 73
     4
 74
     0
 42
0.000000001
 43
0.00000001
 40
0.0
 40
0.0
 40
0.0
 40
0.0
 40
1.0
 40
1.0
 40
1.0
 40
1.0
 10
12.00000000000002
 20
-7.451720603692848
 30
0.0
 10
11.66566873923798
 20
-7.204156182711464
 30
0.0
 10
11.33165970200662
 20
-6.946568424259162
 30
0.0
 10
10.99998929214544
 20
-6.680593890401926
 30
0.0
  0
LINE
  5
F2
330
1F
100
AcDbEntity
  8
외형선
  6
Continuous
370
    15
100
AcDbLine
 10
-42.92749999999999
 20
0.0010749287238949
 30
0.0
 11
-42.92749999999999
 21
9.462574928723889
 31
0.0
  0
LINE
  5
F3
330
1F
100
AcDbEntity
  8
외형선
  6
Continuous
370
    15
100
AcDbLine
 10
-42.92749999999999
 20
-11.11142507127611
 30
0.0
 11
-42.92749999999999
 21
0.0010749287238949
 31
0.0
  0
LINE
  5
F4
330
1F
100
AcDbEntity
  8
외형선
  6
Continuous
370
    15
100
AcDbLine
 10
-45.14999999999999
 20
0.0010749287238949
 30
0.0
 11
-45.14999999999999
 21
8.891074928723908
 31
0.0
  0
LINE
  5
F5
330
1F
100
AcDbEntity
  8
외형선
  6
Continuous
370
    15
100
AcDbLine
 10
-45.14999999999999
 20
-8.888925071276125
 30
0.0
 11
-45.14999999999999
 21
0.0010749287238949
 31
0.0
  0
SPLINE
  5
F6
330
1F
100
AcDbEntity
  8
외형선
  6
Continuous
370
    15
100
AcDbSpline
210
0.0
220
0.0
230
1.0
 70
    24
 71
     3
 72
    28
 73
    24
 74
     0
 42
0.000000001
 43
0.00000001
 40
0.0
 40
0.0
 40
0.0
 40
0.0
 40
0.1249999999999997
 40
0.1249999999999997
 40
0.1874999999999996
 40
0.1874999999999996
 40
0.2499999999999996
 40
0.2499999999999996
 40
0.3124999999999997
 40
0.3124999999999997
 40
0.3749999999999997
 40
0.3749999999999997
 40
0.4999999999999999
 40
0.4999999999999999
 40
0.625
 40
0.625
 40
0.7500000000000003
 40
0.7500000000000003
 40
0.8125000000000002
 40
0.8125000000000002
 40
0.8750000000000002
 40
0.8750000000000002
 40
1.0
 40
1.0
 40
1.0
 40
1.0
 10
12.00000000000002
 20
-5.261501865385111
 30
0.0
 10
12.00000000000002
 20
-5.108138962034581
 30
0.0
 10
12.00000000000001
 20
-4.846763310022578
 30
0.0
 10
12.0
 20
-4.274965147417358
 30
0.0
 10
12.00000000000003
 20
-4.055195465369208
 30
0.0
 10
12.00000000000003
 20
-3.56602053460339
 30
0.0
 10
12.00000000000002
 20
-3.296677800764027
 30
0.0
 10
12.00000000000001
 20
-2.725123881309739
 30
0.0
 10
12.00000000000002
 20
-2.42305939701115
 30
0.0
 10
12.00000000000002
 20
-1.807713120248957
 30
0.0
 10
12.00000000000001
 20
-1.494597385468796
 30
0.0
 10
12.00000000000003
 20
-0.5707645077342293
 30
0.0
 10
12.00000000000003
 20
0.0207223124530339
 30
0.0
 10
12.00000000000003
 20
1.046494246990449
 30
0.0
 10
11.99999999999999
 20
1.481752214974607
 30
0.0
 10
11.99999999999999
 20
2.186974971241818
 30
0.0
 10
12.00000000000002
 20
2.458864267919308
 30
0.0
 10
12.00000000000001
 20
2.773876005983768
 30
0.0
 10
12.00000000000001
 20
2.863586731283192
 30
0.0
 10
12.00000000000001
 20
3.017890773703479
 30
0.0
 10
12.00000000000001
 20
3.082217113656766
 30
0.0
 10
12.00000000000001
 20
3.266164536295209
 30
0.0
 10
12.00000000000001
 20
3.366526151069227
 30
0.0
 10
12.00000000000003
 20
3.413137868539803
 30
0.0
  0
SPLINE
  5
F7
330
1F
100
AcDbEntity
  8
외형선
  6
Continuous
370
    15
100
AcDbSpline
210
0.0
220
0.0
230
1.0
 70
    24
 71
     3
 72
    15
 73
    11
 74
     0
 42
0.000000001
 43
0.00000001
 40
0.0
 40
0.0
 40
0.0
 40
0.0
 40
0.1197350952238154
 40
0.2615620817532983
 40
0.4033890682827811
 40
0.5452160548122708
 40
0.6870430413417608
 40
0.8288700278712451
 40
0.9706970144007292
 40
1.0
 40
1.0
 40
1.0
 40
1.0
 10
12.0
 20
5.97342467955643
 30
0.0
 10
11.99999999999999
 20
6.127656941299807
 30
0.0
 10
11.99999999999998
 20
6.464578304077438
 30
0.0
 10
12.00000000000002
 20
7.080131899686289
 30
0.0
 10
12.00000000000002
 20
7.776249728402559
 30
0.0
 10
12.00000000000002
 20
8.512540254348943
 30
0.0
 10
12.00000000000003
 20
9.2641669791214
 30
0.0
 10
12.00000000000003
 20
10.01022995673031
 30
0.0
 10
11.99999999999996
 20
10.54126600252984
 30
0.0
 10
12.00000000000002
 20
10.81846753400652
 30
0.0
 10
12.00000000000003
 20
10.86593340093745
 30
0.0
  0
SPLINE
  5
F8
330
1F
100
AcDbEntity
  8
외형선
  6
Continuous
370
    15
100
AcDbSpline
210
0.0
220
0.0
230
1.0
 70
    24
 71
     3
 72
    13
 73
     9
 74
     0
 42
0.000000001
 43
0.00000001
 40
0.0
 40
0.0
 40
0.0
 40
0.0
 40
0.0061564145174895
 40
0.2089842659515937
 40
0.4118121173856979
 40
0.6146399688198012
 40
0.8174678202539044
 40
1.0
 40
1.0
 40
1.0
 40
1.0
 10
12.00000000000002
 20
-11.1063391341097
 30
0.0
 10
12.00000000000003
 20
-11.0989618041945
 30
0.0
 10
11.99999999999974
 20
-10.84853261807802
 30
0.0
 10
12.00000000000013
 20
-10.34395957950125
 30
0.0
 10
11.99999999999996
 20
-9.59155905928967
 30
0.0
 10
12.00000000000001
 20
-8.854957821535677
 30
0.0
 10
12.00000000000003
 20
-8.170000977733006
 30
0.0
 10
12.00000000000001
 20
-7.769117977622995
 30
0.0
 10
12.00000000000001
 20
-7.579233085800839
 30
0.0
  0
LINE
  5
F9
330
1F
100
AcDbEntity
  8
중심선
 62
     1
100
AcDbLine
 10
-48.14999999999998
 20
0.0010749287238888
 30
0.0
 11
142.0
 21
0.001074928723913
 31
0.0
  0
LINE
  5
FA
330
1F
100
AcDbEntity
  8
참조1
100
AcDbLine
 10
50.10000000000004
 20
0.0010749287238892
 30
0.0
 11
50.10000000000005
 21
-39.99892507127611
 31
0.0
  0
LINE
  5
FB
330
1F
100
AcDbEntity
  8
참조1
100
AcDbLine
 10
50.10000000000005
 20
-39.99892507127611
 30
0.0
 11
-9.508856814308633
 21
-39.9989250712761
 31
0.0
  0
CIRCLE
  5
FC
330
1F
100
AcDbEntity
  8
해칭선
100
AcDbCircle
 10
0.0
 20
0.0
 30
0.0
 40
3.000000000000001
  0
INSERT
  5
FD
330
1F
100
AcDbEntity
  8
0
  6
Continuous
 62
     7
100
AcDbBlockReference
 66
     1
  2
블럭10
 10
32.98472706787482
 20
-52.04609937292004
 30
0.0
  0
ATTRIB
  5
FE
330
FD
100
AcDbEntity
  8
FORMAT
 62
     2
100
AcDbText
 10
23.80343177913354
 20
-49.97073246008785
 30
0.0
 40
4.233333333333333
  1
E2175056 [ 6 FLUTE ]
 41
0.75
  7
SLDTEXTSTYLE0
 11
23.80343177913354
 21
-52.08739912675452
 31
0.0
100
AcDbAttribute
  2
AUTOATTR0
 70
     0
 74
     1
  0
SEQEND
  5
FF
330
FD
100
AcDbEntity
  8
0
  6
Continuous
 62
     7
  0
HATCH
  5
100
330
1F
100
AcDbEntity
  8
중심선
100
AcDbHatch
 10
0.0
 20
0.0
 30
0.0
210
0.0
220
0.0
230
1.0
  2
SOLID
 70
     1
 71
     0
 91
        1
 92
        0
 93
        4
 72
     1
 10
38.69963637225567
 20
-35.7989250712761
 11
35.25336112841838
 21
-35.7989250712761
 72
     1
 10
35.25336112841838
 20
-35.7989250712761
 11
33.12513126921436
 21
-38.3352506518487
 72
     1
 10
33.12513126921436
 20
-38.3352506518487
 11
36.57143959816479
 21
-38.33521122254621
 72
     1
 10
36.57143959816479
 20
-38.33521122254621
 11
38.69963637225567
 21
-35.7989250712761
 97
        0
 75
     0
 76
     1
 98
        1
 10
-3.175000000000029
 20
0.0
  0
HATCH
  5
101
330
1F
100
AcDbEntity
  8
중심선
100
AcDbHatch
 10
0.0
 20
0.0
 30
0.0
210
0.0
220
0.0
230
1.0
  2
SOLID
 70
     1
 71
     0
 91
        1
 92
        0
 93
        4
 72
     1
 10
43.71240036329161
 20
-35.7989250712761
 11
40.26612511945439
 21
-35.79892507127608
 72
     1
 10
40.26612511945439
 20
-35.79892507127608
 11
35.73498711109695
 21
-41.19892507127612
 72
     1
 10
35.73498711109695
 20
-41.19892507127612
 11
39.18126235493423
 21
-41.19892507127612
 72
     1
 10
39.18126235493423
 20
-41.19892507127612
 11
43.71240036329161
 21
-35.7989250712761
 97
        0
 75
     0
 76
     1
 98
        1
 10
-3.175000000000029
 20
0.0
  0
HATCH
  5
102
330
1F
100
AcDbEntity
  8
중심선
100
AcDbHatch
 10
0.0
 20
0.0
 30
0.0
210
0.0
220
0.0
230
1.0
  2
SOLID
 70
     1
 71
     0
 91
        1
 92
        0
 93
        4
 72
     1
 10
48.72516435432762
 20
-35.79892507127608
 11
45.2788891104904
 21
-35.79892507127608
 72
     1
 10
45.2788891104904
 20
-35.79892507127608
 11
38.23045220860115
 21
-44.19892507127612
 72
     1
 10
38.23045220860115
 20
-44.19892507127612
 11
41.67672745243843
 21
-44.19892507127612
 72
     1
 10
41.67672745243843
 20
-44.19892507127612
 11
48.72516435432762
 21
-35.79892507127608
 97
        0
 75
     0
 76
     1
 98
        1
 10
-3.175000000000029
 20
0.0
  0
HATCH
  5
103
330
1F
100
AcDbEntity
  8
중심선
100
AcDbHatch
 10
0.0
 20
0.0
 30
0.0
210
0.0
220
0.0
230
1.0
  2
SOLID
 70
     1
 71
     0
 91
        1
 92
        0
 93
        6
 72
     3
 10
53.52505478533971
 20
-39.99892507132738
 11
3.960054785062283
 21
1.540882976769353E-10
 40
0.3939339440162628
 50
17.09539180608455
 51
320.0019657685075
 73
     0
 72
     1
 10
55.20805444104028
 20
-38.58681907591441
 11
57.51335631474132
 21
-36.65249236586651
 72
     3
 10
53.52505478528686
 20
-39.99892507127625
 11
6.600054785286829
 21
-1.278976924368180E-13
 40
0.636358354079598
 50
39.99873849337402
 51
368.4976242363724
 73
     1
 72
     1
 10
59.95038727718745
 20
-39.03892507120613
 11
52.20512209212276
 21
-39.03892507120613
 72
     1
 10
52.20512209212276
 20
-39.03892507120613
 11
52.20509704767685
 21
-40.95892507120602
 72
     1
 10
52.20509704767685
 20
-40.95892507120602
 11
56.64647681714887
 21
-40.95892507120599
 97
        0
 75
     0
 76
     1
 98
        1
 10
-3.175000000000029
 20
0.0
  0
DIMENSION
  5
104
330
1F
100
AcDbEntity
  8
치수문자_일반주서
100
AcDbDimension
  2
_D
 10
-57.51499999999997
 20
-11.11142507127615
 30
0.0
 11
-57.51500000000001
 21
0.0010749287238905
 31
0.0
 70
   160
  1
%%c<>
 71
     2
 42
22.22499999999999
 52
-270.0
  3
SLDDIMSTYLE1
100
AcDbAlignedDimension
 13
-45.14999999999999
 23
11.11357492872389
 33
0.0
 14
-42.9275
 24
-11.1114250712761
 34
0.0
 50
90.0000000000002
100
AcDbRotatedDimension
1001
ACAD
1000
DSTYLE
1002
{
1070
   171
1070
     6
1070
   273
1070
     7
1002
}
  0
DIMENSION
  5
119
330
1F
100
AcDbEntity
  8
치수문자_일반주서
100
AcDbDimension
  2
_D_1
 10
12.00000000000001
 20
33.57246856623917
 30
0.0
 11
75.50000000000003
 21
33.57246856623917
 31
0.0
 70
   160
  1
<>
 71
     2
 42
127.0
  3
SLDDIMSTYLE1
100
AcDbAlignedDimension
 13
139.0
 23
11.11357492872391
 33
0.0
 14
12.00000000000001
 24
11.1135749287239
 34
0.0
 50
-0.0000000000000513
100
AcDbRotatedDimension
1001
ACAD
1000
DSTYLE
1002
{
1070
   171
1070
     6
1070
   273
1070
     7
1002
}
  0
DIMENSION
  5
12D
330
1F
100
AcDbEntity
  8
치수문자_일반주서
100
AcDbDimension
  2
_D_2
 10
-45.14999999999999
 20
45.57246856623912
 30
0.0
 11
46.92500000000001
 21
45.57246856623912
 31
0.0
 70
   160
  1
<>
 71
     2
 42
184.15
  3
SLDDIMSTYLE1
100
AcDbAlignedDimension
 13
139.0
 23
11.11357492872391
 33
0.0
 14
-45.14999999999999
 24
8.780139170700886
 34
0.0
 50
0.0000000000000066
100
AcDbRotatedDimension
1001
ACAD
1000
DSTYLE
1002
{
1070
   171
1070
     6
1070
   273
1070
     7
1002
}
  0
DIMENSION
  5
140
330
1F
100
AcDbEntity
  8
치수문자_일반주서
100
AcDbDimension
  2
_D_3
 10
156.8535385659644
 20
-11.11142507127605
 30
0.0
 11
156.8535385659642
 21
31.31717287176843
 31
0.0
 70
   160
  1
%%c<>
 71
     2
 42
22.22500000000002
 52
-270.0
  3
SLDDIMSTYLE1
100
AcDbAlignedDimension
 13
139.0
 23
11.11357492872391
 33
0.0
 14
139.0
 24
-11.11142507127612
 34
0.0
 50
90.0000000000002
100
AcDbRotatedDimension
1001
ACAD
1000
DSTYLE
1002
{
1070
   171
1070
     6
1070
   273
1070
     7
1002
}
  0
LINE
  5
153
330
1F
100
AcDbEntity
  8
참조1
100
AcDbLine
 10
88.46348381534564
 20
7.441074928723896
 30
0.0
 11
88.46348381534564
 21
-7.438925071276109
 31
0.0
  0
LINE
  5
154
330
1F
100
AcDbEntity
  8
참조1
100
AcDbLine
 10
101.1634838153456
 20
5.441074928723896
 30
0.0
 11
88.46348381534564
 21
5.441074928723896
 31
0.0
  0
SOLID
  5
155
330
1F
100
AcDbEntity
  8
참조1
100
AcDbTrace
 10
88.46348381534564
 20
5.441074928723896
 30
0.0
 11
94.81348381534563
 21
4.425074928723896
 31
0.0
 12
94.81348381534563
 22
6.457074928723896
 32
0.0
 13
94.81348381534563
 23
6.457074928723896
 33
0.0
  0
LINE
  5
156
330
1F
100
AcDbEntity
  8
참조1
100
AcDbLine
 10
101.1634838153456
 20
-5.438925071276109
 30
0.0
 11
88.46348381534564
 21
-5.438925071276109
 31
0.0
  0
SOLID
  5
157
330
1F
100
AcDbEntity
  8
참조1
100
AcDbTrace
 10
88.46348381534564
 20
-5.438925071276109
 30
0.0
 11
94.81348381534563
 21
-6.454925071276109
 31
0.0
 12
94.81348381534563
 22
-4.422925071276109
 32
0.0
 13
94.81348381534563
 23
-4.422925071276109
 33
0.0
  0
MTEXT
  5
158
330
1F
100
AcDbEntity
  8
참조1
100
AcDbMText
 10
97.8609739078159
 20
10.98929157337383
 30
0.0
 40
3.5
 41
0.0
 71
     1
 72
     1
  1
A
  7
SLDTEXTSTYLE0
 73
     1
 44
1.0
  0
MTEXT
  5
159
330
1F
100
AcDbEntity
  8
참조1
100
AcDbMText
 10
97.8609739078159
 20
0.1092915733738251
 30
0.0
 40
3.5
 41
0.0
 71
     1
 72
     1
  1
A
  7
SLDTEXTSTYLE0
 73
     1
 44
1.0
  0
INSERT
  5
160
330
1F
100
AcDbEntity
  8
해칭선
100
AcDbBlockReference
  2
SW_DOWELSYMBOL_0
 10
0.0
 20
0.0
 30
0.0
  0
LINE
  5
357
330
1F
100
AcDbEntity
  8
외형선
  6
Continuous
370
    15
100
AcDbLine
 10
-25.144325
 20
9.462574928723889
 30
0.0
 11
-13.56192499999999
 21
9.462574928723889
 31
0.0
  0
LINE
  5
358
330
1F
100
AcDbEntity
  8
외형선
  6
Continuous
370
    15
100
AcDbLine
 10
-25.144325
 20
9.462574928723889
 30
0.0
 11
-26.79532500000001
 21
11.11357492872387
 31
0.0
  0
LINE
  5
359
330
1F
100
AcDbEntity
  8
외형선
  6
Continuous
370
    15
100
AcDbLine
 10
-13.56192499999999
 20
9.462574928723889
 30
0.0
 11
-11.91092499999987
 21
11.11357492872387
 31
0.0
  0
LINE
  5
35B
330
1F
100
AcDbEntity
  8
외형선
  6
Continuous
370
    15
100
AcDbLine
 10
-44.57850000000001
 20
9.462574928723889
 30
0.0
 11
-32.45
 21
9.462574928723889
 31
0.0
  0
LINE
  5
35C
330
1F
100
AcDbEntity
  8
외형선
  6
Continuous
370
    15
100
AcDbLine
 10
-32.45
 20
9.462574928723889
 30
0.0
 11
-30.799
 21
11.11357492872386
 31
0.0
  0
LINE
  5
35D
330
1F
100
AcDbEntity
  8
외형선
  6
Continuous
370
    15
100
AcDbLine
 10
-26.79532500000003
 20
11.1135749287239
 30
0.0
 11
-30.79899999999995
 21
11.1135749287239
 31
0.0
  0
ENDSEC
  0
SECTION
  2
OBJECTS
  0
DICTIONARY
  5
C
330
0
100
AcDbDictionary
281
     1
  3
ACAD_GROUP
350
D
  3
ACAD_IMAGE_VARS
350
184
  3
ACAD_LAYOUT
350
1A
  3
ACAD_MLINESTYLE
350
17
  3
ACAD_PLOTSETTINGS
350
19
  3
ACAD_PLOTSTYLENAME
350
E
  3
ACAD_SCALELIST
350
47
  3
APPDATA
350
182
  3
DWGPROPS
350
381
  0
DICTIONARY
  5
251
330
2
100
AcDbDictionary
280
     1
281
     1
  3
ACAD_LAYERSTATES
360
252
  0
DICTIONARY
  5
D
102
{ACAD_REACTORS
330
C
102
}
330
C
100
AcDbDictionary
281
     1
  0
RASTERVARIABLES
  5
184
102
{ACAD_REACTORS
330
C
102
}
330
C
100
AcDbRasterVariables
 90
        0
 70
     1
 71
     1
 72
     1
  0
DICTIONARY
  5
1A
102
{ACAD_REACTORS
330
C
102
}
330
C
100
AcDbDictionary
281
     1
  3
Layout1
350
1E
  3
Layout2
350
26
  3
Model
350
22
  0
DICTIONARY
  5
17
102
{ACAD_REACTORS
330
C
102
}
330
C
100
AcDbDictionary
281
     1
  3
Standard
350
18
  0
DICTIONARY
  5
19
102
{ACAD_REACTORS
330
C
102
}
330
C
100
AcDbDictionary
281
     1
  0
ACDBDICTIONARYWDFLT
  5
E
102
{ACAD_REACTORS
330
C
102
}
330
C
100
AcDbDictionary
281
     1
  3
Normal
350
F
100
AcDbDictionaryWithDefault
340
F
  0
DICTIONARY
  5
47
102
{ACAD_REACTORS
330
C
102
}
330
C
100
AcDbDictionary
281
     1
  3
A0
350
48
  3
A1
350
49
  3
A2
350
4A
  3
A3
350
4B
  3
A4
350
4C
  3
A5
350
4D
  3
A6
350
4E
  3
A7
350
4F
  3
A8
350
50
  3
A9
350
51
  3
B0
350
52
  3
B1
350
53
  3
B2
350
54
  3
B3
350
55
  3
B4
350
56
  3
B5
350
57
  3
B6
350
58
  3
B7
350
59
  3
B8
350
5A
  3
B9
350
5B
  3
C0
350
5C
  3
C1
350
5D
  3
C2
350
5E
  3
C3
350
5F
  3
C4
350
60
  3
C5
350
61
  3
C6
350
62
  3
C7
350
63
  3
C8
350
64
  3
C9
350
65
  3
D0
350
66
  3
D1
350
67
  3
D2
350
68
  0
DICTIONARY
  5
182
102
{ACAD_REACTORS
330
C
102
}
330
C
100
AcDbDictionary
281
     1
  0
XRECORD
  5
381
102
{ACAD_REACTORS
330
C
102
}
330
C
100
AcDbXrecord
280
     1
  1
DWGPROPS COOKIE
  2

  3

  4

  6

  7

  8
12016016
  9

300
=
301
=
302
=
303
=
304
=
305
=
306
=
307
=
308
=
309
=
 40
0.0
 41
2458323.067168437
 42
2458323.370307222
  1

 90
        0
  0
DICTIONARY
  5
252
102
{ACAD_REACTORS
330
251
102
}
330
251
100
AcDbDictionary
281
     1
  0
LAYOUT
  5
1E
102
{ACAD_REACTORS
330
1A
102
}
330
1A
100
AcDbPlotSettings
  1

  2
none_device
  4

  6

 40
0.0
 41
0.0
 42
0.0
 43
0.0
 44
0.0
 45
0.0
 46
0.0
 47
0.0
 48
0.0
 49
0.0
140
0.0
141
0.0
142
1.0
143
1.0
 70
   688
 72
     1
 73
     0
 74
     5
  7

 75
    16
147
1.0
148
0.0
149
0.0
100
AcDbLayout
  1
Layout1
 70
     1
 71
     1
 10
0.0
 20
0.0
 11
420.0
 21
297.0
 12
0.0
 22
0.0
 32
0.0
 14
1.000000000000000E+20
 24
1.000000000000000E+20
 34
1.000000000000000E+20
 15
-1.000000000000000E+20
 25
-1.000000000000000E+20
 35
-1.000000000000000E+20
146
0.0
 13
0.0
 23
0.0
 33
0.0
 16
1.0
 26
0.0
 36
0.0
 17
0.0
 27
1.0
 37
0.0
 76
     0
330
1B
  0
LAYOUT
  5
26
102
{ACAD_REACTORS
330
1A
102
}
330
1A
100
AcDbPlotSettings
  1

  2
none_device
  4

  6

 40
0.0
 41
0.0
 42
0.0
 43
0.0
 44
0.0
 45
0.0
 46
0.0
 47
0.0
 48
0.0
 49
0.0
140
0.0
141
0.0
142
1.0
143
1.0
 70
   688
 72
     1
 73
     0
 74
     5
  7

 75
    16
147
1.0
148
0.0
149
0.0
100
AcDbLayout
  1
Layout2
 70
     1
 71
     2
 10
0.0
 20
0.0
 11
0.0
 21
0.0
 12
0.0
 22
0.0
 32
0.0
 14
0.0
 24
0.0
 34
0.0
 15
0.0
 25
0.0
 35
0.0
146
0.0
 13
0.0
 23
0.0
 33
0.0
 16
1.0
 26
0.0
 36
0.0
 17
0.0
 27
1.0
 37
0.0
 76
     0
330
23
  0
LAYOUT
  5
22
102
{ACAD_REACTORS
330
1A
102
}
330
1A
100
AcDbPlotSettings
  1

  2
none_device
  4
ANSI_A_(11.00_x_8.50_Inches)
  6

 40
6.35
 41
19.05
 42
6.35000508
 43
19.05000254
 44
279.4
 45
215.9
 46
53.19025261998306
 47
86.37786783925222
 48
0.0
 49
0.0
140
0.0
141
0.0
142
0.0351451444116555
143
1.0
 70
  1696
 72
     0
 73
     0
 74
     0
  7

 75
     0
147
0.0235690232323232
148
0.0
149
0.0
100
AcDbLayout
  1
Model
 70
     1
 71
     0
 10
0.0
 20
0.0
 11
420.0
 21
297.0
 12
0.0
 22
0.0
 32
0.0
 14
-61.89000000000005
 24
-49.97073246008785
 34
0.0
 15
157.4038718992977
 25
49.94746856623912
 35
0.0
146
0.0
 13
0.0
 23
0.0
 33
0.0
 16
1.0
 26
0.0
 36
0.0
 17
0.0
 27
1.0
 37
0.0
 76
     0
330
1F
331
29
  0
MLINESTYLE
  5
18
102
{ACAD_REACTORS
330
17
102
}
330
17
100
AcDbMlineStyle
  2
Standard
 70
     0
  3

 62
   256
 51
90.0
 52
90.0
 71
     2
 49
0.5
 62
   256
  6
BYLAYER
 49
-0.5
 62
   256
  6
BYLAYER
  0
ACDBPLACEHOLDER
  5
F
102
{ACAD_REACTORS
330
E
102
}
330
E
  0
SCALE
  5
48
102
{ACAD_REACTORS
330
47
102
}
330
47
100
AcDbScale
 70
     0
300
1:1
140
1.0
141
1.0
290
     1
  0
SCALE
  5
49
102
{ACAD_REACTORS
330
47
102
}
330
47
100
AcDbScale
 70
     0
300
1:2
140
1.0
141
2.0
290
     0
  0
SCALE
  5
4A
102
{ACAD_REACTORS
330
47
102
}
330
47
100
AcDbScale
 70
     0
300
1:4
140
1.0
141
4.0
290
     0
  0
SCALE
  5
4B
102
{ACAD_REACTORS
330
47
102
}
330
47
100
AcDbScale
 70
     0
300
1:5
140
1.0
141
5.0
290
     0
  0
SCALE
  5
4C
102
{ACAD_REACTORS
330
47
102
}
330
47
100
AcDbScale
 70
     0
300
1:8
140
1.0
141
8.0
290
     0
  0
SCALE
  5
4D
102
{ACAD_REACTORS
330
47
102
}
330
47
100
AcDbScale
 70
     0
300
1:10
140
1.0
141
10.0
290
     0
  0
SCALE
  5
4E
102
{ACAD_REACTORS
330
47
102
}
330
47
100
AcDbScale
 70
     0
300
1:16
140
1.0
141
16.0
290
     0
  0
SCALE
  5
4F
102
{ACAD_REACTORS
330
47
102
}
330
47
100
AcDbScale
 70
     0
300
1:20
140
1.0
141
20.0
290
     0
  0
SCALE
  5
50
102
{ACAD_REACTORS
330
47
102
}
330
47
100
AcDbScale
 70
     0
300
1:30
140
1.0
141
30.0
290
     0
  0
SCALE
  5
51
102
{ACAD_REACTORS
330
47
102
}
330
47
100
AcDbScale
 70
     0
300
1:40
140
1.0
141
40.0
290
     0
  0
SCALE
  5
52
102
{ACAD_REACTORS
330
47
102
}
330
47
100
AcDbScale
 70
     0
300
1:50
140
1.0
141
50.0
290
     0
  0
SCALE
  5
53
102
{ACAD_REACTORS
330
47
102
}
330
47
100
AcDbScale
 70
     0
300
1:100
140
1.0
141
100.0
290
     0
  0
SCALE
  5
54
102
{ACAD_REACTORS
330
47
102
}
330
47
100
AcDbScale
 70
     0
300
2:1
140
2.0
141
1.0
290
     0
  0
SCALE
  5
55
102
{ACAD_REACTORS
330
47
102
}
330
47
100
AcDbScale
 70
     0
300
4:1
140
4.0
141
1.0
290
     0
  0
SCALE
  5
56
102
{ACAD_REACTORS
330
47
102
}
330
47
100
AcDbScale
 70
     0
300
8:1
140
8.0
141
1.0
290
     0
  0
SCALE
  5
57
102
{ACAD_REACTORS
330
47
102
}
330
47
100
AcDbScale
 70
     0
300
10:1
140
10.0
141
1.0
290
     0
  0
SCALE
  5
58
102
{ACAD_REACTORS
330
47
102
}
330
47
100
AcDbScale
 70
     0
300
100:1
140
100.0
141
1.0
290
     0
  0
SCALE
  5
59
102
{ACAD_REACTORS
330
47
102
}
330
47
100
AcDbScale
 70
     0
300
1/128" = 1'-0"
140
0.0078125
141
12.0
290
     0
  0
SCALE
  5
5A
102
{ACAD_REACTORS
330
47
102
}
330
47
100
AcDbScale
 70
     0
300
1/64" = 1'-0"
140
0.015625
141
12.0
290
     0
  0
SCALE
  5
5B
102
{ACAD_REACTORS
330
47
102
}
330
47
100
AcDbScale
 70
     0
300
1/32" = 1'-0"
140
0.03125
141
12.0
290
     0
  0
SCALE
  5
5C
102
{ACAD_REACTORS
330
47
102
}
330
47
100
AcDbScale
 70
     0
300
1/16" = 1'-0"
140
0.0625
141
12.0
290
     0
  0
SCALE
  5
5D
102
{ACAD_REACTORS
330
47
102
}
330
47
100
AcDbScale
 70
     0
300
3/32" = 1'-0"
140
0.09375
141
12.0
290
     0
  0
SCALE
  5
5E
102
{ACAD_REACTORS
330
47
102
}
330
47
100
AcDbScale
 70
     0
300
1/8" = 1'-0"
140
0.125
141
12.0
290
     0
  0
SCALE
  5
5F
102
{ACAD_REACTORS
330
47
102
}
330
47
100
AcDbScale
 70
     0
300
3/16" = 1'-0"
140
0.1875
141
12.0
290
     0
  0
SCALE
  5
60
102
{ACAD_REACTORS
330
47
102
}
330
47
100
AcDbScale
 70
     0
300
1/4" = 1'-0"
140
0.25
141
12.0
290
     0
  0
SCALE
  5
61
102
{ACAD_REACTORS
330
47
102
}
330
47
100
AcDbScale
 70
     0
300
3/8" = 1'-0"
140
0.375
141
12.0
290
     0
  0
SCALE
  5
62
102
{ACAD_REACTORS
330
47
102
}
330
47
100
AcDbScale
 70
     0
300
1/2" = 1'-0"
140
0.5
141
12.0
290
     0
  0
SCALE
  5
63
102
{ACAD_REACTORS
330
47
102
}
330
47
100
AcDbScale
 70
     0
300
3/4" = 1'-0"
140
0.75
141
12.0
290
     0
  0
SCALE
  5
64
102
{ACAD_REACTORS
330
47
102
}
330
47
100
AcDbScale
 70
     0
300
1" = 1'-0"
140
1.0
141
12.0
290
     0
  0
SCALE
  5
65
102
{ACAD_REACTORS
330
47
102
}
330
47
100
AcDbScale
 70
     0
300
1-1/2" = 1'-0"
140
1.5
141
12.0
290
     0
  0
SCALE
  5
66
102
{ACAD_REACTORS
330
47
102
}
330
47
100
AcDbScale
 70
     0
300
3" = 1'-0"
140
3.0
141
12.0
290
     0
  0
SCALE
  5
67
102
{ACAD_REACTORS
330
47
102
}
330
47
100
AcDbScale
 70
     0
300
6" = 1'-0"
140
6.0
141
12.0
290
     0
  0
SCALE
  5
68
102
{ACAD_REACTORS
330
47
102
}
330
47
100
AcDbScale
 70
     0
300
1'-0" = 1'-0"
140
12.0
141
12.0
290
     0
  0
ENDSEC
  0
EOF
