  0
SECTION
  2
HEADER
  9
$ACADVER
  1
AC1015
  9
$ACADMAINTVER
 70
     6
  9
$DWGCODEPAGE
  3
ANSI_949
  9
$INSBASE
 10
0.0
 20
0.0
 30
0.0
  9
$EXTMIN
 10
-67.28750000000011
 20
-49.97073246008785
 30
0.0
  9
$EXTMAX
 10
184.0183074098139
 20
63.61241921928277
 30
0.0
  9
$LIMMIN
 10
0.0
 20
0.0
  9
$LIMMAX
 10
420.0
 20
297.0
  9
$ORTHOMODE
 70
     0
  9
$REGENMODE
 70
     1
  9
$FILLMODE
 70
     1
  9
$QTEXTMODE
 70
     0
  9
$MIRRTEXT
 70
     1
  9
$LTSCALE
 40
1.0
  9
$ATTMODE
 70
     1
  9
$TEXTSIZE
 40
3.5
  9
$TRACEWID
 40
1.0
  9
$TEXTSTYLE
  7
Standard
  9
$CLAYER
  8
0
  9
$CELTYPE
  6
ByLayer
  9
$CECOLOR
 62
   256
  9
$CELTSCALE
 40
1.0
  9
$DISPSILH
 70
     0
  9
$DIMSCALE
 40
1.0
  9
$DIMASZ
 40
3.302
  9
$DIMEXO
 40
1.0
  9
$DIMDLI
 40
3.75
  9
$DIMRND
 40
0.0
  9
$DIMDLE
 40
0.0
  9
$DIMEXE
 40
1.0
  9
$DIMTP
 40
0.0
  9
$DIMTM
 40
0.0
  9
$DIMTXT
 40
3.5
  9
$DIMCEN
 40
2.5
  9
$DIMTSZ
 40
0.0
  9
$DIMTOL
 70
     0
  9
$DIMLIM
 70
     0
  9
$DIMTIH
 70
     1
  9
$DIMTOH
 70
     1
  9
$DIMSE1
 70
     0
  9
$DIMSE2
 70
     0
  9
$DIMTAD
 70
     1
  9
$DIMZIN
 70
     0
  9
$DIMBLK
  1

  9
$DIMASO
 70
     1
  9
$DIMSHO
 70
     1
  9
$DIMPOST
  1

  9
$DIMAPOST
  1

  9
$DIMALT
 70
     0
  9
$DIMALTD
 70
     3
  9
$DIMALTF
 40
0.0393700787401575
  9
$DIMLFAC
 40
1.0
  9
$DIMTOFL
 70
     1
  9
$DIMTVP
 40
0.0
  9
$DIMTIX
 70
     0
  9
$DIMSOXD
 70
     0
  9
$DIMSAH
 70
     0
  9
$DIMBLK1
  1

  9
$DIMBLK2
  1

  9
$DIMSTYLE
  2
ISO-25
  9
$DIMCLRD
 70
     0
  9
$DIMCLRE
 70
     0
  9
$DIMCLRT
 70
     0
  9
$DIMTFAC
 40
1.0
  9
$DIMGAP
 40
1.524
  9
$DIMJUST
 70
     0
  9
$DIMSD1
 70
     0
  9
$DIMSD2
 70
     0
  9
$DIMTOLJ
 70
     0
  9
$DIMTZIN
 70
     0
  9
$DIMALTZ
 70
     0
  9
$DIMALTTZ
 70
     0
  9
$DIMUPT
 70
     0
  9
$DIMDEC
 70
     2
  9
$DIMTDEC
 70
     2
  9
$DIMALTU
 70
     2
  9
$DIMALTTD
 70
     3
  9
$DIMTXSTY
  7
Standard
  9
$DIMAUNIT
 70
     0
  9
$DIMADEC
 70
     2
  9
$DIMALTRND
 40
0.0
  9
$DIMAZIN
 70
     0
  9
$DIMDSEP
 70
    44
  9
$DIMATFIT
 70
     3
  9
$DIMFRAC
 70
     0
  9
$DIMLDRBLK
  1

  9
$DIMLUNIT
 70
     2
  9
$DIMLWD
 70
    -2
  9
$DIMLWE
 70
    -2
  9
$DIMTMOVE
 70
     0
  9
$LUNITS
 70
     2
  9
$LUPREC
 70
     2
  9
$SKETCHINC
 40
1.0
  9
$FILLETRAD
 40
10.0
  9
$AUNITS
 70
     0
  9
$AUPREC
 70
     2
  9
$MENU
  1
.
  9
$ELEVATION
 40
0.0
  9
$PELEVATION
 40
0.0
  9
$THICKNESS
 40
0.0
  9
$LIMCHECK
 70
     0
  9
$CHAMFERA
 40
0.0
  9
$CHAMFERB
 40
0.0
  9
$CHAMFERC
 40
0.0
  9
$CHAMFERD
 40
0.0
  9
$SKPOLY
 70
     0
  9
$TDCREATE
 40
2458323.442592025
  9
$TDUCREATE
 40
2458323.067592025
  9
$TDUPDATE
 40
2458323.745570417
  9
$TDUUPDATE
 40
2458323.370570417
  9
$TDINDWG
 40
0.0004114236
  9
$TDUSRTIMER
 40
2458323.370535405
  9
$USRTIMER
 70
     1
  9
$ANGBASE
 50
0.0
  9
$ANGDIR
 70
     0
  9
$PDMODE
 70
     0
  9
$PDSIZE
 40
-1.0
  9
$PLINEWID
 40
0.0
  9
$SPLFRAME
 70
     0
  9
$SPLINETYPE
 70
     6
  9
$SPLINESEGS
 70
     8
  9
$HANDSEED
  5
36F
  9
$SURFTAB1
 70
     6
  9
$SURFTAB2
 70
     6
  9
$SURFTYPE
 70
     6
  9
$SURFU
 70
     6
  9
$SURFV
 70
     6
  9
$UCSBASE
  2

  9
$UCSNAME
  2

  9
$UCSORG
 10
0.0
 20
0.0
 30
0.0
  9
$UCSXDIR
 10
1.0
 20
0.0
 30
0.0
  9
$UCSYDIR
 10
0.0
 20
1.0
 30
0.0
  9
$UCSORTHOREF
  2

  9
$UCSORTHOVIEW
 70
     0
  9
$UCSORGTOP
 10
0.0
 20
0.0
 30
0.0
  9
$UCSORGBOTTOM
 10
0.0
 20
0.0
 30
0.0
  9
$UCSORGLEFT
 10
0.0
 20
0.0
 30
0.0
  9
$UCSORGRIGHT
 10
0.0
 20
0.0
 30
0.0
  9
$UCSORGFRONT
 10
0.0
 20
0.0
 30
0.0
  9
$UCSORGBACK
 10
0.0
 20
0.0
 30
0.0
  9
$PUCSBASE
  2

  9
$PUCSNAME
  2

  9
$PUCSORG
 10
0.0
 20
0.0
 30
0.0
  9
$PUCSXDIR
 10
1.0
 20
0.0
 30
0.0
  9
$PUCSYDIR
 10
0.0
 20
1.0
 30
0.0
  9
$PUCSORTHOREF
  2

  9
$PUCSORTHOVIEW
 70
     0
  9
$PUCSORGTOP
 10
0.0
 20
0.0
 30
0.0
  9
$PUCSORGBOTTOM
 10
0.0
 20
0.0
 30
0.0
  9
$PUCSORGLEFT
 10
0.0
 20
0.0
 30
0.0
  9
$PUCSORGRIGHT
 10
0.0
 20
0.0
 30
0.0
  9
$PUCSORGFRONT
 10
0.0
 20
0.0
 30
0.0
  9
$PUCSORGBACK
 10
0.0
 20
0.0
 30
0.0
  9
$USERI1
 70
     0
  9
$USERI2
 70
     0
  9
$USERI3
 70
     0
  9
$USERI4
 70
     0
  9
$USERI5
 70
     0
  9
$USERR1
 40
0.0
  9
$USERR2
 40
0.0
  9
$USERR3
 40
0.0
  9
$USERR4
 40
0.0
  9
$USERR5
 40
0.0
  9
$WORLDVIEW
 70
     1
  9
$SHADEDGE
 70
     3
  9
$SHADEDIF
 70
    70
  9
$TILEMODE
 70
     1
  9
$MAXACTVP
 70
    64
  9
$PINSBASE
 10
0.0
 20
0.0
 30
0.0
  9
$PLIMCHECK
 70
     0
  9
$PEXTMIN
 10
1.000000000000000E+20
 20
1.000000000000000E+20
 30
1.000000000000000E+20
  9
$PEXTMAX
 10
-1.000000000000000E+20
 20
-1.000000000000000E+20
 30
-1.000000000000000E+20
  9
$PLIMMIN
 10
0.0
 20
0.0
  9
$PLIMMAX
 10
0.0
 20
0.0
  9
$UNITMODE
 70
     0
  9
$VISRETAIN
 70
     1
  9
$PLINEGEN
 70
     0
  9
$PSLTSCALE
 70
     1
  9
$TREEDEPTH
 70
  3020
  9
$CMLSTYLE
  2
Standard
  9
$CMLJUST
 70
     0
  9
$CMLSCALE
 40
20.0
  9
$PROXYGRAPHICS
 70
     1
  9
$MEASUREMENT
 70
     1
  9
$CELWEIGHT
370
    -1
  9
$ENDCAPS
280
     0
  9
$JOINSTYLE
280
     0
  9
$LWDISPLAY
290
     1
  9
$INSUNITS
 70
     4
  9
$HYPERLINKBASE
  1

  9
$STYLESHEET
  1

  9
$XEDIT
290
     1
  9
$CEPSNTYPE
380
     0
  9
$PSTYLEMODE
290
     1
  9
$FINGERPRINTGUID
  2
{60FA6573-A612-43CF-9ECE-2AB0738C4389}
  9
$VERSIONGUID
  2
{FAEB1C32-E019-11D5-929B-00C0DF256EC4}
  9
$EXTNAMES
290
     1
  9
$PSVPSCALE
 40
0.0
  9
$OLESTARTUP
290
     0
  0
ENDSEC
  0
SECTION
  2
CLASSES
  0
CLASS
  1
ACDBDICTIONARYWDFLT
  2
AcDbDictionaryWithDefault
  3
ObjectDBX Classes
 90
        0
280
     0
281
     0
  0
CLASS
  1
VISUALSTYLE
  2
AcDbVisualStyle
  3
ObjectDBX Classes
 90
     4095
280
     0
281
     0
  0
CLASS
  1
MATERIAL
  2
AcDbMaterial
  3
ObjectDBX Classes
 90
     1153
280
     0
281
     0
  0
CLASS
  1
SCALE
  2
AcDbScale
  3
ObjectDBX Classes
 90
     1153
280
     0
281
     0
  0
CLASS
  1
SUN
  2
AcDbSun
  3
SCENEOE
 90
     1153
280
     0
281
     0
  0
CLASS
  1
ACDBPLACEHOLDER
  2
AcDbPlaceHolder
  3
ObjectDBX Classes
 90
        0
280
     0
281
     0
  0
CLASS
  1
LAYOUT
  2
AcDbLayout
  3
ObjectDBX Classes
 90
        0
280
     0
281
     0
  0
CLASS
  1
TABLESTYLE
  2
AcDbTableStyle
  3
ObjectDBX Classes
 90
     4095
280
     0
281
     0
  0
CLASS
  1
MLEADERSTYLE
  2
AcDbMLeaderStyle
  3
ACDB_MLEADERSTYLE_CLASS
 90
     4095
280
     0
281
     0
  0
CLASS
  1
RASTERVARIABLES
  2
AcDbRasterVariables
  3
ISM
 90
        0
280
     0
281
     0
  0
ENDSEC
  0
SECTION
  2
TABLES
  0
TABLE
  2
VPORT
  5
8
330
0
100
AcDbSymbolTable
 70
     1
  0
VPORT
  5
29
330
8
100
AcDbSymbolTableRecord
100
AcDbViewportTableRecord
  2
*Active
 70
     0
 10
0.0
 20
0.0
 11
1.0
 21
1.0
 12
40.19844878939058
 22
0.5302842351029007
 13
0.0
 23
0.0
 14
10.0
 24
10.0
 15
10.0
 25
10.0
 16
0.0
 26
0.0
 36
1.0
 17
0.0
 27
0.0
 37
0.0
 40
154.4438014945188
 41
1.632495164410058
 42
50.0
 43
0.0
 44
0.0
 50
0.0
 51
0.0
 71
    16
 72
  2000
 73
     1
 74
     3
 75
     0
 76
     0
 77
     0
 78
     0
281
     0
 65
     1
110
0.0
120
0.0
130
0.0
111
1.0
121
0.0
131
0.0
112
0.0
122
1.0
132
0.0
 79
     0
146
0.0
  0
ENDTAB
  0
TABLE
  2
LTYPE
  5
5
330
0
100
AcDbSymbolTable
 70
     6
  0
LTYPE
  5
14
330
5
100
AcDbSymbolTableRecord
100
AcDbLinetypeTableRecord
  2
ByBlock
 70
     0
  3

 72
    65
 73
     0
 40
0.0
  0
LTYPE
  5
15
330
5
100
AcDbSymbolTableRecord
100
AcDbLinetypeTableRecord
  2
ByLayer
 70
     0
  3

 72
    65
 73
     0
 40
0.0
  0
LTYPE
  5
16
330
5
100
AcDbSymbolTableRecord
100
AcDbLinetypeTableRecord
  2
Continuous
 70
     0
  3
Solid line
 72
    65
 73
     0
 40
0.0
  0
LTYPE
  5
6A
330
5
100
AcDbSymbolTableRecord
100
AcDbLinetypeTableRecord
  2
HIDDEN
 70
     0
  3
Hidden __ __ __ __ __ __ __ __ __ __ __ __ __ __
 72
    65
 73
     2
 40
1.905
 49
1.27
 74
     0
 49
-0.635
 74
     0
  0
LTYPE
  5
6B
330
5
100
AcDbSymbolTableRecord
100
AcDbLinetypeTableRecord
  2
PHANTOM
 70
     0
  3
Phantom ______  __  __  ______  __  __  ______
 72
    65
 73
     6
 40
12.7
 49
6.35
 74
     0
 49
-1.27
 74
     0
 49
1.27
 74
     0
 49
-1.27
 74
     0
 49
1.27
 74
     0
 49
-1.27
 74
     0
  0
LTYPE
  5
6C
330
5
100
AcDbSymbolTableRecord
100
AcDbLinetypeTableRecord
  2
CENTER
 70
     0
  3
Center ____ _ ____ _ ____ _ ____ _ ____ _ ____
 72
    65
 73
     4
 40
10.16
 49
6.35
 74
     0
 49
-1.27
 74
     0
 49
1.27
 74
     0
 49
-1.27
 74
     0
  0
LTYPE
  5
6D
330
5
100
AcDbSymbolTableRecord
100
AcDbLinetypeTableRecord
  2
CENTERX2
 70
     0
  3
Center (2x) ________  __  ________  __  _____
 72
    65
 73
     4
 40
20.32
 49
12.7
 74
     0
 49
-2.54
 74
     0
 49
2.54
 74
     0
 49
-2.54
 74
     0
  0
LTYPE
  5
6E
330
5
100
AcDbSymbolTableRecord
100
AcDbLinetypeTableRecord
  2
DOT2
 70
     0
  3
Dot (.5x) ........................................
 72
    65
 73
     2
 40
0.635
 49
0.0
 74
     0
 49
-0.635
 74
     0
  0
ENDTAB
  0
TABLE
  2
LAYER
  5
2
102
{ACAD_XDICTIONARY
360
33A
102
}
330
0
100
AcDbSymbolTable
 70
    18
  0
LAYER
  5
10
330
2
100
AcDbSymbolTableRecord
100
AcDbLayerTableRecord
  2
0
 70
     0
 62
     7
  6
Continuous
370
    -3
390
F
  0
LAYER
  5
6F
330
2
100
AcDbSymbolTableRecord
100
AcDbLayerTableRecord
  2
FORMAT
 70
     0
 62
     2
  6
Continuous
370
    -3
390
F
  0
LAYER
  5
70
330
2
100
AcDbSymbolTableRecord
100
AcDbLayerTableRecord
  2
외형선
 70
     0
 62
     4
  6
Continuous
370
    30
390
F
  0
LAYER
  5
71
330
2
100
AcDbSymbolTableRecord
100
AcDbLayerTableRecord
  2
숨은선
 70
     0
 62
     2
  6
HIDDEN
370
    15
390
F
  0
LAYER
  5
72
330
2
100
AcDbSymbolTableRecord
100
AcDbLayerTableRecord
  2
중심선
 70
     0
 62
     1
  6
CENTERX2
370
    -3
390
F
  0
LAYER
  5
73
330
2
100
AcDbSymbolTableRecord
100
AcDbLayerTableRecord
  2
파단선
 70
     0
 62
     4
  6
Continuous
370
    -3
390
F
  0
LAYER
  5
74
330
2
100
AcDbSymbolTableRecord
100
AcDbLayerTableRecord
  2
해칭선
 70
     0
 62
   100
  6
Continuous
370
    -3
390
F
  0
LAYER
  5
75
330
2
100
AcDbSymbolTableRecord
100
AcDbLayerTableRecord
  2
가는실선
 70
     0
 62
     4
  6
Continuous
370
    -3
390
F
  0
LAYER
  5
76
330
2
100
AcDbSymbolTableRecord
100
AcDbLayerTableRecord
  2
치수_보조선
 70
     0
 62
     4
  6
Continuous
370
    -3
390
F
  0
LAYER
  5
77
330
2
100
AcDbSymbolTableRecord
100
AcDbLayerTableRecord
  2
치수문자_일반주서
 70
     0
 62
     7
  6
Continuous
370
    15
390
F
  0
LAYER
  5
78
330
2
100
AcDbSymbolTableRecord
100
AcDbLayerTableRecord
  2
개별주서
 70
     0
 62
   100
  6
Continuous
370
    30
390
F
  0
LAYER
  5
79
330
2
100
AcDbSymbolTableRecord
100
AcDbLayerTableRecord
  2
중간선
 70
     0
 62
     2
  6
Continuous
370
    15
390
F
  0
LAYER
  5
7A
330
2
100
AcDbSymbolTableRecord
100
AcDbLayerTableRecord
  2
윤곽선
 70
     0
 62
     3
  6
Continuous
370
    40
390
F
  0
LAYER
  5
7B
330
2
100
AcDbSymbolTableRecord
100
AcDbLayerTableRecord
  2
중심마크
 70
     0
 62
   100
  6
Continuous
370
    30
390
F
  0
LAYER
  5
7C
330
2
100
AcDbSymbolTableRecord
100
AcDbLayerTableRecord
  2
가상선
 70
     0
 62
     4
  6
PHANTOM
370
    -3
390
F
  0
LAYER
  5
7D
330
2
100
AcDbSymbolTableRecord
100
AcDbLayerTableRecord
  2
특수지정선
 70
     0
 62
     5
  6
CENTERX2
370
    60
390
F
  0
LAYER
  5
7E
330
2
100
AcDbSymbolTableRecord
100
AcDbLayerTableRecord
  2
참조1
 70
     0
 62
    -4
  6
Continuous
370
    -3
390
F
  0
LAYER
  5
176
330
2
100
AcDbSymbolTableRecord
100
AcDbLayerTableRecord
  2
Defpoints
 70
     0
 62
     7
  6
Continuous
290
     0
370
    -3
390
F
  0
ENDTAB
  0
TABLE
  2
STYLE
  5
3
330
0
100
AcDbSymbolTable
 70
     2
  0
STYLE
  5
11
330
3
100
AcDbSymbolTableRecord
100
AcDbTextStyleTableRecord
  2
Standard
 70
     0
 40
0.0
 41
1.0
 50
0.0
 71
     0
 42
3.5
  3
txt
  4

  0
STYLE
  5
94
330
3
100
AcDbSymbolTableRecord
100
AcDbTextStyleTableRecord
  2
SLDTEXTSTYLE0
 70
     0
 40
0.0
 41
0.75
 50
0.0
 71
     0
 42
3.5
  3
TXT
  4

  0
ENDTAB
  0
TABLE
  2
VIEW
  5
6
330
0
100
AcDbSymbolTable
 70
     0
  0
ENDTAB
  0
TABLE
  2
UCS
  5
7
330
0
100
AcDbSymbolTable
 70
     0
  0
ENDTAB
  0
TABLE
  2
APPID
  5
9
330
0
100
AcDbSymbolTable
 70
     1
  0
APPID
  5
12
330
9
100
AcDbSymbolTableRecord
100
AcDbRegAppTableRecord
  2
ACAD
 70
     0
  0
ENDTAB
  0
TABLE
  2
DIMSTYLE
  5
A
330
0
100
AcDbSymbolTable
 70
     3
100
AcDbDimStyleTable
  0
DIMSTYLE
105
27
330
A
100
AcDbSymbolTableRecord
100
AcDbDimStyleTableRecord
  2
ISO-25
 70
     0
 41
2.5
 42
0.625
 43
3.75
 44
1.25
 73
     0
 74
     0
 77
     1
 78
     8
140
2.5
141
2.5
143
0.03937007874016
147
0.625
171
     3
172
     1
178
     0
271
     2
272
     2
274
     3
278
    44
283
     0
284
     8
340
11
  0
DIMSTYLE
105
F7
102
{ACAD_REACTORS
102
}
330
A
100
AcDbSymbolTableRecord
100
AcDbDimStyleTableRecord
  2
SLDDIMSTYLE0
 70
     0
 41
3.302
 44
0.0
 45
0.000000001
 73
     0
 74
     0
 77
     1
 78
    12
 79
     3
140
3.5
143
0.0393700787401575
147
0.875
148
0.000000001
170
     1
173
     1
178
     0
271
     2
272
     2
276
     2
284
    12
340
94
  0
DIMSTYLE
105
10A
102
{ACAD_REACTORS
330
109
330
11D
330
130
330
F6
102
}
330
A
100
AcDbSymbolTableRecord
100
AcDbDimStyleTableRecord
  2
SLDDIMSTYLE1
 70
     0
 41
3.302
 44
0.0
 45
0.000000001
 73
     0
 74
     0
 77
     1
 78
     4
 79
     1
140
3.5
143
0.0393700787401575
147
0.875
148
0.000000001
170
     1
173
     1
178
     0
271
     2
272
     2
276
     2
284
    12
340
94
  0
ENDTAB
  0
TABLE
  2
BLOCK_RECORD
  5
1
330
0
100
AcDbSymbolTable
 70
    15
  0
BLOCK_RECORD
  5
1F
330
1
100
AcDbSymbolTableRecord
100
AcDbBlockTableRecord
  2
*Model_Space
340
22
  0
BLOCK_RECORD
  5
1B
330
1
100
AcDbSymbolTableRecord
100
AcDbBlockTableRecord
  2
*Paper_Space
340
1E
  0
BLOCK_RECORD
  5
23
330
1
100
AcDbSymbolTableRecord
100
AcDbBlockTableRecord
  2
*Paper_Space0
340
26
  0
BLOCK_RECORD
  5
7F
330
1
100
AcDbSymbolTableRecord
100
AcDbBlockTableRecord
  2
블럭10
340
0
102
{BLKREFS
331
EF
102
}
  0
BLOCK_RECORD
  5
F8
330
1
100
AcDbSymbolTableRecord
100
AcDbBlockTableRecord
  2
_D
340
0
  0
BLOCK_RECORD
  5
10B
330
1
100
AcDbSymbolTableRecord
100
AcDbBlockTableRecord
  2
_D_1
340
0
  0
BLOCK_RECORD
  5
11E
330
1
100
AcDbSymbolTableRecord
100
AcDbBlockTableRecord
  2
_D_2
340
0
  0
BLOCK_RECORD
  5
131
330
1
100
AcDbSymbolTableRecord
100
AcDbBlockTableRecord
  2
_D_3
340
0
  0
BLOCK_RECORD
  5
14A
330
1
100
AcDbSymbolTableRecord
100
AcDbBlockTableRecord
  2
SW_DOWELSYMBOL_0
340
0
102
{BLKREFS
331
150
102
}
  0
BLOCK_RECORD
  5
21E
330
1
100
AcDbSymbolTableRecord
100
AcDbBlockTableRecord
  2
*D7
340
0
  0
BLOCK_RECORD
  5
246
330
1
100
AcDbSymbolTableRecord
100
AcDbBlockTableRecord
  2
*D8
340
0
  0
BLOCK_RECORD
  5
252
330
1
100
AcDbSymbolTableRecord
100
AcDbBlockTableRecord
  2
*D9
340
0
  0
BLOCK_RECORD
  5
25E
330
1
100
AcDbSymbolTableRecord
100
AcDbBlockTableRecord
  2
*D10
340
0
  0
BLOCK_RECORD
  5
2D9
330
1
100
AcDbSymbolTableRecord
100
AcDbBlockTableRecord
  2
*D11
340
0
  0
BLOCK_RECORD
  5
2E5
330
1
100
AcDbSymbolTableRecord
100
AcDbBlockTableRecord
  2
*D12
340
0
  0
BLOCK_RECORD
  5
2F1
330
1
100
AcDbSymbolTableRecord
100
AcDbBlockTableRecord
  2
*D13
340
0
  0
BLOCK_RECORD
  5
2FE
330
1
100
AcDbSymbolTableRecord
100
AcDbBlockTableRecord
  2
*D14
340
0
  0
ENDTAB
  0
ENDSEC
  0
SECTION
  2
BLOCKS
  0
BLOCK
  5
20
330
1F
100
AcDbEntity
  8
0
100
AcDbBlockBegin
  2
*Model_Space
 70
     0
 10
0.0
 20
0.0
 30
0.0
  3
*Model_Space
  1
*Model_Space
  0
ENDBLK
  5
21
330
1F
100
AcDbEntity
  8
0
100
AcDbBlockEnd
  0
BLOCK
  5
1C
330
1B
100
AcDbEntity
 67
     1
  8
0
100
AcDbBlockBegin
  2
*Paper_Space
 70
     0
 10
0.0
 20
0.0
 30
0.0
  3
*Paper_Space
  1
*Paper_Space
  0
ENDBLK
  5
1D
330
1B
100
AcDbEntity
 67
     1
  8
0
100
AcDbBlockEnd
  0
BLOCK
  5
24
330
23
100
AcDbEntity
  8
0
100
AcDbBlockBegin
  2
*Paper_Space0
 70
     0
 10
0.0
 20
0.0
 30
0.0
  3
*Paper_Space0
  1
*Paper_Space0
  0
ENDBLK
  5
25
330
23
100
AcDbEntity
  8
0
100
AcDbBlockEnd
  0
BLOCK
  5
80
330
7F
100
AcDbEntity
  8
0
100
AcDbBlockBegin
  2
블럭10
 70
     2
 10
0.0
 20
0.0
 30
0.0
  3
블럭10
  1
블럭10
  0
ELLIPSE
  5
82
330
7F
100
AcDbEntity
  8
중심선
100
AcDbEllipse
 10
20.54032771741204
 20
12.0471743016438
 30
0.0
 11
6.600054785286829
 21
-1.261213355974178E-13
 31
0.0
210
0.0
220
0.0
230
1.0
 40
0.636358354079598
 41
0.9219305317359503
 42
6.513795318482858
  0
ELLIPSE
  5
83
330
7F
100
AcDbEntity
  8
중심선
100
AcDbEllipse
 10
20.54032771746488
 20
12.04717430159265
 30
0.0
 11
3.960054785062283
 21
1.540847449632565E-10
 31
0.0
210
0.0
220
0.0
230
1.0
 40
0.3939339440162632
 41
1.131841032648279
 42
5.62031148352944
  0
LINE
  5
84
330
7F
100
AcDbEntity
  8
중심선
100
AcDbLine
 10
2.268634060543552
 20
16.24717430164393
 30
0.0
 11
5.714909304380834
 21
16.24717430164393
 31
0.0
  0
LINE
  5
85
330
7F
100
AcDbEntity
  8
중심선
100
AcDbLine
 10
5.245725140726316
 20
7.84717430164391
 30
0.0
 11
8.692000384563599
 21
7.84717430164391
 31
0.0
  0
LINE
  5
86
330
7F
100
AcDbEntity
  8
중심선
100
AcDbLine
 10
15.74043728645272
 20
16.24717430164393
 30
0.0
 11
8.692000384563599
 21
7.84717430164391
 31
0.0
  0
LINE
  5
87
330
7F
100
AcDbEntity
  8
중심선
100
AcDbLine
 10
0.1404042013395286
 20
13.71084872107135
 30
0.0
 11
3.58671253028996
 21
13.71088815037384
 31
0.0
  0
LINE
  5
88
330
7F
100
AcDbEntity
  8
중심선
100
AcDbLine
 10
2.750260043222114
 20
10.84717430164391
 30
0.0
 11
6.196535287059397
 21
10.84717430164391
 31
0.0
  0
LINE
  5
89
330
7F
100
AcDbEntity
  8
중심선
100
AcDbLine
 10
12.29416204261559
 20
16.24717430164393
 30
0.0
 11
5.245725140726316
 21
7.84717430164391
 31
0.0
  0
LINE
  5
8A
330
7F
100
AcDbEntity
  8
중심선
100
AcDbLine
 10
10.72767329541681
 20
16.24717430164393
 30
0.0
 11
6.196535287059397
 21
10.84717430164391
 31
0.0
  0
LINE
  5
8B
330
7F
100
AcDbEntity
  8
중심선
100
AcDbLine
 10
7.28139805157953
 20
16.24717430164393
 30
0.0
 11
2.750260043222114
 21
10.84717430164391
 31
0.0
  0
LINE
  5
8C
330
7F
100
AcDbEntity
  8
중심선
100
AcDbLine
 10
5.714909304380834
 20
16.24717430164393
 30
0.0
 11
3.58671253028996
 21
13.71088815037384
 31
0.0
  0
LINE
  5
8D
330
7F
100
AcDbEntity
  8
중심선
100
AcDbLine
 10
2.268634060543552
 20
16.24717430164393
 30
0.0
 11
0.1404042013395286
 21
13.71084872107135
 31
0.0
  0
LINE
  5
8E
330
7F
100
AcDbEntity
  8
중심선
100
AcDbLine
 10
7.28139805157953
 20
16.24717430164393
 30
0.0
 11
10.72767329541681
 21
16.24717430164393
 31
0.0
  0
LINE
  5
8F
330
7F
100
AcDbEntity
  8
중심선
100
AcDbLine
 10
12.29416204261559
 20
16.24717430164393
 30
0.0
 11
15.74043728645272
 21
16.24717430164393
 31
0.0
  0
LINE
  5
90
330
7F
100
AcDbEntity
  8
중심선
100
AcDbLine
 10
19.22036997980202
 20
11.08717430171403
 30
0.0
 11
23.66174974927406
 21
11.08717430171406
 31
0.0
  0
LINE
  5
91
330
7F
100
AcDbEntity
  8
중심선
100
AcDbLine
 10
19.22039502424796
 20
13.00717430171391
 30
0.0
 11
19.22036997980202
 21
11.08717430171403
 31
0.0
  0
LINE
  5
92
330
7F
100
AcDbEntity
  8
중심선
100
AcDbLine
 10
19.22039502424796
 20
13.00717430171391
 30
0.0
 11
26.96566020931264
 21
13.00717430171391
 31
0.0
  0
LINE
  5
93
330
7F
100
AcDbEntity
  8
중심선
100
AcDbLine
 10
22.22332737316547
 20
13.45928029700563
 30
0.0
 11
24.52862924686651
 21
15.39360700705356
 31
0.0
  0
ATTDEF
  5
95
330
7F
100
AcDbEntity
  8
FORMAT
 62
     2
100
AcDbText
 10
4.408487351596664
 20
2.075366912832191
 30
0.0
 40
4.233333333333333
  1
E1175116
 41
0.75
  7
SLDTEXTSTYLE0
 11
4.408487351596664
 21
-0.0412997538344756
 31
0.0
100
AcDbAttributeDefinition
  3

  2
AUTOATTR0
 70
     0
 74
     1
  0
ENDBLK
  5
81
330
7F
100
AcDbEntity
  8
0
100
AcDbBlockEnd
  0
BLOCK
  5
F9
330
F8
100
AcDbEntity
  8
0
100
AcDbBlockBegin
  2
_D
 70
     0
 10
0.0
 20
0.0
 30
0.0
  3
_D
  1
_D
  0
LINE
  5
FB
330
F8
100
AcDbEntity
  8
치수문자_일반주서
 62
     0
370
    -2
100
AcDbLine
 10
-51.56250000000005
 20
15.87607492872388
 30
0.0
 11
-62.9125000000001
 21
15.87607492872384
 31
0.0
  0
LINE
  5
FC
330
F8
100
AcDbEntity
  8
치수문자_일반주서
 62
     0
370
    -2
100
AcDbLine
 10
-48.38750000000004
 20
-15.87392507127611
 30
0.0
 11
-62.91249999999999
 21
-15.87392507127616
 31
0.0
  0
LINE
  5
FD
330
F8
100
AcDbEntity
  8
치수문자_일반주서
 62
     0
370
    -2
100
AcDbLine
 10
-62.91250000000009
 20
12.57407492872384
 30
0.0
 11
-62.9125
 21
-12.57192507127616
 31
0.0
  0
SOLID
  5
FE
330
F8
100
AcDbEntity
  8
치수문자_일반주서
 62
     0
100
AcDbTrace
 10
-62.36216666666675
 20
12.57407492872384
 30
0.0
 11
-63.46283333333342
 21
12.57407492872384
 31
0.0
 12
-62.9125000000001
 22
15.87607492872384
 32
0.0
 13
-62.9125000000001
 23
15.87607492872384
 33
0.0
  0
SOLID
  5
FF
330
F8
100
AcDbEntity
  8
치수문자_일반주서
 62
     0
100
AcDbTrace
 10
-63.46283333333334
 20
-12.57192507127616
 30
0.0
 11
-62.36216666666667
 21
-12.57192507127616
 31
0.0
 12
-62.91249999999999
 22
-15.87392507127616
 32
0.0
 13
-62.91249999999999
 23
-15.87392507127616
 33
0.0
  0
MTEXT
  5
100
330
F8
100
AcDbEntity
  8
치수문자_일반주서
 62
     0
100
AcDbMText
 10
-67.28750000000005
 20
0.0010749287238715
 30
0.0
 40
3.5
 41
0.0
 71
     2
 72
     1
  1
\A1;%%c31.75 [1 1/4]
  7
SLDTEXTSTYLE0
 11
-3.580687802255623E-15
 21
1.0
 31
0.0
 73
     1
 44
1.0
  0
POINT
  5
101
330
F8
100
AcDbEntity
  8
Defpoints
 62
     0
100
AcDbPoint
 10
-51.50000000000005
 20
15.87607492872388
 30
0.0
  0
POINT
  5
102
330
F8
100
AcDbEntity
  8
Defpoints
 62
     0
100
AcDbPoint
 10
-48.32500000000004
 20
-15.87392507127611
 30
0.0
  0
POINT
  5
103
330
F8
100
AcDbEntity
  8
Defpoints
 62
     0
100
AcDbPoint
 10
-62.91249999999999
 20
-15.87392507127616
 30
0.0
  0
ENDBLK
  5
FA
330
F8
100
AcDbEntity
  8
0
100
AcDbBlockEnd
  0
BLOCK
  5
10C
330
10B
100
AcDbEntity
  8
0
100
AcDbBlockBegin
  2
_D_1
 70
     0
 10
0.0
 20
0.0
 30
0.0
  3
_D_1
  1
_D_1
  0
LINE
  5
10E
330
10B
100
AcDbEntity
  8
치수문자_일반주서
 62
     0
370
    -2
100
AcDbLine
 10
164.3999999999999
 20
15.82272792433027
 30
0.0
 11
164.3999999999999
 21
38.30021446492108
 31
0.0
  0
LINE
  5
10F
330
10B
100
AcDbEntity
  8
치수문자_일반주서
 62
     0
370
    -2
100
AcDbLine
 10
11.99999999999998
 20
15.91516335680249
 30
0.0
 11
11.99999999999999
 21
38.30021446492108
 31
0.0
  0
LINE
  5
110
330
10B
100
AcDbEntity
  8
치수문자_일반주서
 62
     0
370
    -2
100
AcDbLine
 10
161.0979999999999
 20
38.30021446492108
 30
0.0
 11
15.30199999999999
 21
38.30021446492108
 31
0.0
  0
SOLID
  5
111
330
10B
100
AcDbEntity
  8
치수문자_일반주서
 62
     0
100
AcDbTrace
 10
161.0979999999999
 20
37.74988113158775
 30
0.0
 11
161.0979999999999
 21
38.85054779825442
 31
0.0
 12
164.3999999999999
 22
38.30021446492108
 32
0.0
 13
164.3999999999999
 23
38.30021446492108
 33
0.0
  0
SOLID
  5
112
330
10B
100
AcDbEntity
  8
치수문자_일반주서
 62
     0
100
AcDbTrace
 10
15.30199999999999
 20
38.85054779825442
 30
0.0
 11
15.30199999999999
 21
37.74988113158775
 31
0.0
 12
11.99999999999999
 22
38.30021446492108
 32
0.0
 13
11.99999999999999
 23
38.30021446492108
 33
0.0
  0
MTEXT
  5
113
330
10B
100
AcDbEntity
  8
치수문자_일반주서
 62
     0
100
AcDbMText
 10
88.19999999999997
 20
42.67521446492108
 30
0.0
 40
3.5
 41
0.0
 71
     2
 72
     1
  1
\A1;152.40 [6]
  7
SLDTEXTSTYLE0
 73
     1
 44
1.0
  0
POINT
  5
114
330
10B
100
AcDbEntity
  8
Defpoints
 62
     0
100
AcDbPoint
 10
164.3999999999999
 20
15.76022792433027
 30
0.0
  0
POINT
  5
115
330
10B
100
AcDbEntity
  8
Defpoints
 62
     0
100
AcDbPoint
 10
11.99999999999998
 20
15.85266335680249
 30
0.0
  0
POINT
  5
116
330
10B
100
AcDbEntity
  8
Defpoints
 62
     0
100
AcDbPoint
 10
11.99999999999998
 20
38.30021446492108
 30
0.0
  0
ENDBLK
  5
10D
330
10B
100
AcDbEntity
  8
0
100
AcDbBlockEnd
  0
BLOCK
  5
11F
330
11E
100
AcDbEntity
  8
0
100
AcDbBlockBegin
  2
_D_2
 70
     0
 10
0.0
 20
0.0
 30
0.0
  3
_D_2
  1
_D_2
  0
LINE
  5
121
330
11E
100
AcDbEntity
  8
치수문자_일반주서
 62
     0
370
    -2
100
AcDbLine
 10
164.3999999999999
 20
15.82272792433027
 30
0.0
 11
164.3999999999999
 21
50.30021446492103
 31
0.0
  0
LINE
  5
122
330
11E
100
AcDbEntity
  8
치수문자_일반주서
 62
     0
370
    -2
100
AcDbLine
 10
-51.50000000000005
 20
12.76357492872391
 30
0.0
 11
-51.50000000000005
 21
50.30021446492103
 31
0.0
  0
LINE
  5
123
330
11E
100
AcDbEntity
  8
치수문자_일반주서
 62
     0
370
    -2
100
AcDbLine
 10
161.0979999999999
 20
50.30021446492103
 30
0.0
 11
-48.19800000000005
 21
50.30021446492103
 31
0.0
  0
SOLID
  5
124
330
11E
100
AcDbEntity
  8
치수문자_일반주서
 62
     0
100
AcDbTrace
 10
161.0979999999999
 20
49.7498811315877
 30
0.0
 11
161.0979999999999
 21
50.85054779825437
 31
0.0
 12
164.3999999999999
 22
50.30021446492103
 32
0.0
 13
164.3999999999999
 23
50.30021446492103
 33
0.0
  0
SOLID
  5
125
330
11E
100
AcDbEntity
  8
치수문자_일반주서
 62
     0
100
AcDbTrace
 10
-48.19800000000005
 20
50.85054779825437
 30
0.0
 11
-48.19800000000005
 21
49.7498811315877
 31
0.0
 12
-51.50000000000005
 22
50.30021446492103
 32
0.0
 13
-51.50000000000005
 23
50.30021446492103
 33
0.0
  0
MTEXT
  5
126
330
11E
100
AcDbEntity
  8
치수문자_일반주서
 62
     0
100
AcDbMText
 10
56.44999999999995
 20
54.67521446492103
 30
0.0
 40
3.5
 41
0.0
 71
     2
 72
     1
  1
\A1;215.90 [8 1/2]
  7
SLDTEXTSTYLE0
 73
     1
 44
1.0
  0
POINT
  5
127
330
11E
100
AcDbEntity
  8
Defpoints
 62
     0
100
AcDbPoint
 10
164.3999999999999
 20
15.76022792433027
 30
0.0
  0
POINT
  5
128
330
11E
100
AcDbEntity
  8
Defpoints
 62
     0
100
AcDbPoint
 10
-51.50000000000005
 20
12.70107492872391
 30
0.0
  0
POINT
  5
129
330
11E
100
AcDbEntity
  8
Defpoints
 62
     0
100
AcDbPoint
 10
-51.50000000000005
 20
50.30021446492103
 30
0.0
  0
ENDBLK
  5
120
330
11E
100
AcDbEntity
  8
0
100
AcDbBlockEnd
  0
BLOCK
  5
132
330
131
100
AcDbEntity
  8
0
100
AcDbBlockBegin
  2
_D_3
 70
     0
 10
0.0
 20
0.0
 30
0.0
  3
_D_3
  1
_D_3
  0
LINE
  5
134
330
131
100
AcDbEntity
  8
치수문자_일반주서
 62
     0
370
    -2
100
AcDbLine
 10
164.4624999999999
 20
15.87607492872391
 30
0.0
 11
183.4679740764804
 21
15.87607492872398
 31
0.0
  0
LINE
  5
135
330
131
100
AcDbEntity
  8
치수문자_일반주서
 62
     0
370
    -2
100
AcDbLine
 10
164.4624999999999
 20
-15.87392507127612
 30
0.0
 11
183.4679740764805
 21
-15.87392507127605
 31
0.0
  0
LINE
  5
136
330
131
100
AcDbEntity
  8
치수문자_일반주서
 62
     0
370
    -2
100
AcDbLine
 10
183.4679740764804
 20
15.87607492872398
 30
0.0
 11
183.4679740764803
 21
63.61241921928277
 31
0.0
  0
LINE
  5
137
330
131
100
AcDbEntity
  8
치수문자_일반주서
 62
     0
370
    -2
100
AcDbLine
 10
183.4679740764804
 20
12.57407492872398
 30
0.0
 11
183.4679740764805
 21
-12.57192507127605
 31
0.0
  0
SOLID
  5
138
330
131
100
AcDbEntity
  8
치수문자_일반주서
 62
     0
100
AcDbTrace
 10
184.0183074098138
 20
12.57407492872398
 30
0.0
 11
182.9176407431471
 21
12.57407492872398
 31
0.0
 12
183.4679740764804
 22
15.87607492872398
 32
0.0
 13
183.4679740764804
 23
15.87607492872398
 33
0.0
  0
SOLID
  5
139
330
131
100
AcDbEntity
  8
치수문자_일반주서
 62
     0
100
AcDbTrace
 10
182.9176407431472
 20
-12.57192507127605
 30
0.0
 11
184.0183074098139
 21
-12.57192507127605
 31
0.0
 12
183.4679740764805
 22
-15.87392507127605
 32
0.0
 13
183.4679740764805
 23
-15.87392507127605
 33
0.0
  0
MTEXT
  5
13A
330
131
100
AcDbEntity
  8
치수문자_일반주서
 62
     0
100
AcDbMText
 10
179.0929740764803
 20
47.86241921928276
 30
0.0
 40
3.5
 41
0.0
 71
     2
 72
     1
  1
\A1;%%c31.75 [1 1/4]
  7
SLDTEXTSTYLE0
 11
-3.580687802255620E-15
 21
1.0
 31
0.0
 73
     1
 44
1.0
  0
POINT
  5
13B
330
131
100
AcDbEntity
  8
Defpoints
 62
     0
100
AcDbPoint
 10
164.3999999999999
 20
15.87607492872391
 30
0.0
  0
POINT
  5
13C
330
131
100
AcDbEntity
  8
Defpoints
 62
     0
100
AcDbPoint
 10
164.3999999999999
 20
-15.87392507127612
 30
0.0
  0
POINT
  5
13D
330
131
100
AcDbEntity
  8
Defpoints
 62
     0
100
AcDbPoint
 10
183.4679740764805
 20
-15.87392507127605
 30
0.0
  0
ENDBLK
  5
133
330
131
100
AcDbEntity
  8
0
100
AcDbBlockEnd
  0
BLOCK
  5
14B
330
14A
100
AcDbEntity
  8
0
100
AcDbBlockBegin
  2
SW_DOWELSYMBOL_0
 70
     0
 10
0.0
 20
0.0
 30
0.0
  3
SW_DOWELSYMBOL_0
  1
SW_DOWELSYMBOL_0
  0
CIRCLE
  5
14D
330
14A
100
AcDbEntity
  8
해칭선
 62
     0
100
AcDbCircle
 10
0.0
 20
0.0
 30
0.0
 40
3.000000000000001
  0
HATCH
  5
14E
330
14A
100
AcDbEntity
  8
0
  6
Continuous
 62
     0
370
     0
100
AcDbHatch
 10
0.0
 20
0.0
 30
0.0
210
0.0
220
0.0
230
1.0
  2
SOLID
 70
     1
 71
     0
 91
        1
 92
        0
 93
        3
 72
     2
 10
0.0
 20
0.0
 40
3.000000000000001
 50
0.0
 51
90.0
 73
     1
 72
     1
 10
0.0
 20
3.000000000000001
 11
0.0
 21
0.0
 72
     1
 10
0.0
 20
0.0
 11
3.000000000000001
 21
0.0
 97
        0
 75
     0
 76
     1
 98
        1
 10
0.0
 20
0.0
  0
HATCH
  5
14F
330
14A
100
AcDbEntity
  8
0
  6
Continuous
 62
     0
370
     0
100
AcDbHatch
 10
0.0
 20
0.0
 30
0.0
210
0.0
220
0.0
230
1.0
  2
SOLID
 70
     1
 71
     0
 91
        1
 92
        0
 93
        3
 72
     2
 10
0.0
 20
0.0
 40
3.000000000000001
 50
180.0
 51
270.0000000000007
 73
     1
 72
     1
 10
0.0
 20
-3.000000000000001
 11
0.0
 21
0.0
 72
     1
 10
0.0
 20
0.0
 11
-3.000000000000001
 21
0.0
 97
        0
 75
     0
 76
     1
 98
        1
 10
0.0
 20
0.0
  0
ENDBLK
  5
14C
330
14A
100
AcDbEntity
  8
0
100
AcDbBlockEnd
  0
BLOCK
  5
21F
330
21E
100
AcDbEntity
  8
0
100
AcDbBlockBegin
  2
*D7
 70
     1
 10
0.0
 20
0.0
 30
0.0
  3
*D7
  1
*D8
  0
LINE
  5
220
330
21E
100
AcDbEntity
  8
치수문자_일반주서
 62
     0
370
    -2
100
AcDbLine
 10
16.81250000000007
 20
50.92571361092085
 30
0.0
 11
4.374999999999954
 21
50.9257136109208
 31
0.0
  0
LINE
  5
221
330
21E
100
AcDbEntity
  8
치수문자_일반주서
 62
     0
370
    -2
100
AcDbLine
 10
17.81250000000007
 20
0.1257136109208436
 30
0.0
 11
4.375000000000131
 21
0.1257136109207906
 31
0.0
  0
LINE
  5
222
330
21E
100
AcDbEntity
  8
치수문자_일반주서
 62
     0
370
    -2
100
AcDbLine
 10
4.374999999999965
 20
47.6237136109208
 30
0.0
 11
4.37500000000012
 21
3.42771361092079
 31
0.0
  0
SOLID
  5
223
330
21E
100
AcDbEntity
  8
치수문자_일반주서
 62
     0
100
AcDbTrace
 10
4.925333333333299
 20
47.6237136109208
 30
0.0
 11
3.824666666666632
 21
47.6237136109208
 31
0.0
 12
4.374999999999954
 22
50.9257136109208
 32
0.0
 13
4.374999999999954
 23
50.9257136109208
 33
0.0
  0
SOLID
  5
224
330
21E
100
AcDbEntity
  8
치수문자_일반주서
 62
     0
100
AcDbTrace
 10
3.824666666666787
 20
3.427713610920788
 30
0.0
 11
4.925333333333453
 21
3.427713610920792
 31
0.0
 12
4.375000000000131
 22
0.1257136109207906
 32
0.0
 13
4.375000000000131
 23
0.1257136109207906
 33
0.0
  0
MTEXT
  5
225
330
21E
100
AcDbEntity
  8
치수문자_일반주서
 62
     0
100
AcDbMText
 10
0.0000000000000426
 20
25.52571361092083
 30
0.0
 40
3.5
 41
0.0
 71
     2
 72
     1
  1
\A1;%%c50.8 [2]
  7
SLDTEXTSTYLE0
 11
-3.496765431890256E-15
 21
1.0
 31
0.0
 73
     1
 44
1.0
  0
POINT
  5
226
330
21E
100
AcDbEntity
  8
Defpoints
 62
     0
100
AcDbPoint
 10
16.87500000000007
 20
50.92571361092085
 30
0.0
  0
POINT
  5
227
330
21E
100
AcDbEntity
  8
Defpoints
 62
     0
100
AcDbPoint
 10
17.87500000000007
 20
0.1257136109208439
 30
0.0
  0
POINT
  5
228
330
21E
100
AcDbEntity
  8
Defpoints
 62
     0
100
AcDbPoint
 10
4.375000000000128
 20
0.1257136109207934
 30
0.0
  0
ENDBLK
  5
229
330
21E
100
AcDbEntity
  8
0
100
AcDbBlockEnd
  0
BLOCK
  5
247
330
246
100
AcDbEntity
  8
0
100
AcDbBlockBegin
  2
*D8
 70
     1
 10
0.0
 20
0.0
 30
0.0
  3
*D8
  1
*D9
  0
LINE
  5
249
330
246
100
AcDbEntity
  8
치수문자_일반주서
 62
     0
370
    -2
100
AcDbLine
 10
315.325
 20
50.98821361092084
 30
0.0
 11
315.325
 21
73.28034494448178
 31
0.0
  0
LINE
  5
24A
330
246
100
AcDbEntity
  8
치수문자_일반주서
 62
     0
370
    -2
100
AcDbLine
 10
112.1250000000001
 20
50.15583278593814
 30
0.0
 11
112.1250000000001
 21
73.28034494448178
 31
0.0
  0
LINE
  5
24B
330
246
100
AcDbEntity
  8
치수문자_일반주서
 62
     0
370
    -2
100
AcDbLine
 10
312.023
 20
73.28034494448178
 30
0.0
 11
115.427
 21
73.28034494448178
 31
0.0
  0
SOLID
  5
24C
330
246
100
AcDbEntity
  8
치수문자_일반주서
 62
     0
100
AcDbTrace
 10
312.023
 20
72.73001161114846
 30
0.0
 11
312.023
 21
73.83067827781511
 31
0.0
 12
315.325
 22
73.28034494448178
 32
0.0
 13
315.325
 23
73.28034494448178
 33
0.0
  0
SOLID
  5
24D
330
246
100
AcDbEntity
  8
치수문자_일반주서
 62
     0
100
AcDbTrace
 10
115.427
 20
73.83067827781511
 30
0.0
 11
115.427
 21
72.73001161114846
 31
0.0
 12
112.1250000000001
 22
73.28034494448178
 32
0.0
 13
112.1250000000001
 23
73.28034494448178
 33
0.0
  0
MTEXT
  5
24E
330
246
100
AcDbEntity
  8
치수문자_일반주서
 62
     0
100
AcDbMText
 10
213.7250000000001
 20
77.65534494448178
 30
0.0
 40
3.5
 41
0.0
 71
     2
 72
     1
  1
\A1;203.20 [8]
  7
SLDTEXTSTYLE0
 73
     1
 44
1.0
  0
POINT
  5
24F
330
246
100
AcDbEntity
  8
Defpoints
 62
     0
100
AcDbPoint
 10
315.325
 20
50.92571361092084
 30
0.0
  0
POINT
  5
250
330
246
100
AcDbEntity
  8
Defpoints
 62
     0
100
AcDbPoint
 10
112.1250000000001
 20
50.09333278593814
 30
0.0
  0
POINT
  5
251
330
246
100
AcDbEntity
  8
Defpoints
 62
     0
100
AcDbPoint
 10
112.1250000000001
 20
73.28034494448178
 30
0.0
  0
ENDBLK
  5
248
330
246
100
AcDbEntity
  8
0
100
AcDbBlockEnd
  0
BLOCK
  5
253
330
252
100
AcDbEntity
  8
0
100
AcDbBlockBegin
  2
*D9
 70
     1
 10
0.0
 20
0.0
 30
0.0
  3
*D9
  1
*D10
  0
LINE
  5
255
330
252
100
AcDbEntity
  8
치수문자_일반주서
 62
     0
370
    -2
100
AcDbLine
 10
315.325
 20
50.98821361092084
 30
0.0
 11
315.325
 21
85.2803449444818
 31
0.0
  0
LINE
  5
256
330
252
100
AcDbEntity
  8
치수문자_일반주서
 62
     0
370
    -2
100
AcDbLine
 10
16.87500000000007
 20
45.90821361092085
 30
0.0
 11
16.87500000000006
 21
85.2803449444818
 31
0.0
  0
LINE
  5
257
330
252
100
AcDbEntity
  8
치수문자_일반주서
 62
     0
370
    -2
100
AcDbLine
 10
312.023
 20
85.2803449444818
 30
0.0
 11
20.17700000000006
 21
85.2803449444818
 31
0.0
  0
SOLID
  5
258
330
252
100
AcDbEntity
  8
치수문자_일반주서
 62
     0
100
AcDbTrace
 10
312.023
 20
84.73001161114847
 30
0.0
 11
312.023
 21
85.83067827781512
 31
0.0
 12
315.325
 22
85.2803449444818
 32
0.0
 13
315.325
 23
85.2803449444818
 33
0.0
  0
SOLID
  5
259
330
252
100
AcDbEntity
  8
치수문자_일반주서
 62
     0
100
AcDbTrace
 10
20.17700000000006
 20
85.83067827781512
 30
0.0
 11
20.17700000000006
 21
84.73001161114847
 31
0.0
 12
16.87500000000006
 22
85.2803449444818
 32
0.0
 13
16.87500000000006
 23
85.2803449444818
 33
0.0
  0
MTEXT
  5
25A
330
252
100
AcDbEntity
  8
치수문자_일반주서
 62
     0
100
AcDbMText
 10
166.1000000000001
 20
89.6553449444818
 30
0.0
 40
3.5
 41
0.0
 71
     2
 72
     1
  1
\A1;298.45 [11 3/4]
  7
SLDTEXTSTYLE0
 73
     1
 44
1.0
  0
POINT
  5
25B
330
252
100
AcDbEntity
  8
Defpoints
 62
     0
100
AcDbPoint
 10
315.325
 20
50.92571361092084
 30
0.0
  0
POINT
  5
25C
330
252
100
AcDbEntity
  8
Defpoints
 62
     0
100
AcDbPoint
 10
16.87500000000007
 20
45.84571361092085
 30
0.0
  0
POINT
  5
25D
330
252
100
AcDbEntity
  8
Defpoints
 62
     0
100
AcDbPoint
 10
16.87500000000007
 20
85.2803449444818
 30
0.0
  0
ENDBLK
  5
254
330
252
100
AcDbEntity
  8
0
100
AcDbBlockEnd
  0
BLOCK
  5
25F
330
25E
100
AcDbEntity
  8
0
100
AcDbBlockBegin
  2
*D10
 70
     1
 10
0.0
 20
0.0
 30
0.0
  3
*D10
  1
*D11
  0
LINE
  5
261
330
25E
100
AcDbEntity
  8
치수문자_일반주서
 62
     0
370
    -2
100
AcDbLine
 10
315.3875
 20
50.92571361092084
 30
0.0
 11
334.5061218272455
 21
50.92571361092092
 31
0.0
  0
LINE
  5
262
330
25E
100
AcDbEntity
  8
치수문자_일반주서
 62
     0
370
    -2
100
AcDbLine
 10
315.3875
 20
0.1257136109208192
 30
0.0
 11
334.5061218272457
 21
0.125713610920883
 31
0.0
  0
LINE
  5
263
330
25E
100
AcDbEntity
  8
치수문자_일반주서
 62
     0
370
    -2
100
AcDbLine
 10
334.5061218272455
 20
50.92571361092092
 30
0.0
 11
334.5061218272453
 21
105.74654018082
 31
0.0
  0
LINE
  5
264
330
25E
100
AcDbEntity
  8
치수문자_일반주서
 62
     0
370
    -2
100
AcDbLine
 10
334.5061218272455
 20
47.62371361092092
 30
0.0
 11
334.5061218272457
 21
3.427713610920883
 31
0.0
  0
SOLID
  5
265
330
25E
100
AcDbEntity
  8
치수문자_일반주서
 62
     0
100
AcDbTrace
 10
335.0564551605789
 20
47.62371361092092
 30
0.0
 11
333.9557884939122
 21
47.62371361092092
 31
0.0
 12
334.5061218272455
 22
50.92571361092092
 32
0.0
 13
334.5061218272455
 23
50.92571361092092
 33
0.0
  0
SOLID
  5
266
330
25E
100
AcDbEntity
  8
치수문자_일반주서
 62
     0
100
AcDbTrace
 10
333.9557884939123
 20
3.427713610920881
 30
0.0
 11
335.056455160579
 21
3.427713610920884
 31
0.0
 12
334.5061218272457
 22
0.125713610920883
 32
0.0
 13
334.5061218272457
 23
0.125713610920883
 33
0.0
  0
MTEXT
  5
267
330
25E
100
AcDbEntity
  8
치수문자_일반주서
 62
     0
100
AcDbMText
 10
330.1311218272454
 20
94.37154018082003
 30
0.0
 40
3.5
 41
0.0
 71
     2
 72
     1
  1
\A1;%%c50.80 [2]
  7
SLDTEXTSTYLE0
 11
-3.356894814614645E-15
 21
1.0
 31
0.0
 73
     1
 44
1.0
  0
POINT
  5
268
330
25E
100
AcDbEntity
  8
Defpoints
 62
     0
100
AcDbPoint
 10
315.325
 20
50.92571361092084
 30
0.0
  0
POINT
  5
269
330
25E
100
AcDbEntity
  8
Defpoints
 62
     0
100
AcDbPoint
 10
315.325
 20
0.125713610920819
 30
0.0
  0
POINT
  5
26A
330
25E
100
AcDbEntity
  8
Defpoints
 62
     0
100
AcDbPoint
 10
334.5061218272457
 20
0.1257136109208907
 30
0.0
  0
ENDBLK
  5
260
330
25E
100
AcDbEntity
  8
0
100
AcDbBlockEnd
  0
BLOCK
  5
2DA
330
2D9
100
AcDbEntity
  8
0
100
AcDbBlockBegin
  2
*D11
 70
     1
 10
0.0
 20
0.0
 30
0.0
  3
*D11
  1
*D12
  0
LINE
  5
2DC
330
2D9
100
AcDbEntity
  8
치수문자_일반주서
 62
     0
370
    -2
100
AcDbLine
 10
441.7714627454527
 20
-63.60974124051423
 30
0.0
 11
441.7714627454527
 21
-41.31760990695328
 31
0.0
  0
LINE
  5
2DD
330
2D9
100
AcDbEntity
  8
치수문자_일반주서
 62
     0
370
    -2
100
AcDbLine
 10
238.5714627454527
 20
-64.44212206549693
 30
0.0
 11
238.5714627454527
 21
-41.31760990695328
 31
0.0
  0
LINE
  5
2DE
330
2D9
100
AcDbEntity
  8
치수문자_일반주서
 62
     0
370
    -2
100
AcDbLine
 10
438.4694627454526
 20
-41.31760990695328
 30
0.0
 11
241.8734627454527
 21
-41.31760990695328
 31
0.0
  0
SOLID
  5
2DF
330
2D9
100
AcDbEntity
  8
치수문자_일반주서
 62
     0
100
AcDbTrace
 10
438.4694627454526
 20
-41.86794324028661
 30
0.0
 11
438.4694627454526
 21
-40.76727657361995
 31
0.0
 12
441.7714627454527
 22
-41.31760990695328
 32
0.0
 13
441.7714627454527
 23
-41.31760990695328
 33
0.0
  0
SOLID
  5
2E0
330
2D9
100
AcDbEntity
  8
치수문자_일반주서
 62
     0
100
AcDbTrace
 10
241.8734627454527
 20
-40.76727657361995
 30
0.0
 11
241.8734627454527
 21
-41.86794324028661
 31
0.0
 12
238.5714627454527
 22
-41.31760990695328
 32
0.0
 13
238.5714627454527
 23
-41.31760990695328
 33
0.0
  0
MTEXT
  5
2E1
330
2D9
100
AcDbEntity
  8
치수문자_일반주서
 62
     0
100
AcDbMText
 10
340.1714627454527
 20
-36.94260990695328
 30
0.0
 40
3.5
 41
0.0
 71
     2
 72
     1
  1
\A1;203.20 [8]
  7
SLDTEXTSTYLE0
 73
     1
 44
1.0
  0
POINT
  5
2E2
330
2D9
100
AcDbEntity
  8
Defpoints
 62
     0
100
AcDbPoint
 10
441.7714627454527
 20
-63.67224124051423
 30
0.0
  0
POINT
  5
2E3
330
2D9
100
AcDbEntity
  8
Defpoints
 62
     0
100
AcDbPoint
 10
238.5714627454527
 20
-64.50462206549693
 30
0.0
  0
POINT
  5
2E4
330
2D9
100
AcDbEntity
  8
Defpoints
 62
     0
100
AcDbPoint
 10
238.5714627454527
 20
-41.31760990695328
 30
0.0
  0
ENDBLK
  5
2DB
330
2D9
100
AcDbEntity
  8
0
100
AcDbBlockEnd
  0
BLOCK
  5
2E6
330
2E5
100
AcDbEntity
  8
0
100
AcDbBlockBegin
  2
*D12
 70
     1
 10
0.0
 20
0.0
 30
0.0
  3
*D12
  1
*D13
  0
LINE
  5
2E8
330
2E5
100
AcDbEntity
  8
치수문자_일반주서
 62
     0
370
    -2
100
AcDbLine
 10
441.7714627454527
 20
-63.60974124051423
 30
0.0
 11
441.7714627454527
 21
-29.31760990695327
 31
0.0
  0
LINE
  5
2E9
330
2E5
100
AcDbEntity
  8
치수문자_일반주서
 62
     0
370
    -2
100
AcDbLine
 10
143.3214627454527
 20
-68.68974124051422
 30
0.0
 11
143.3214627454527
 21
-29.31760990695327
 31
0.0
  0
LINE
  5
2EA
330
2E5
100
AcDbEntity
  8
치수문자_일반주서
 62
     0
370
    -2
100
AcDbLine
 10
438.4694627454526
 20
-29.31760990695327
 30
0.0
 11
146.6234627454527
 21
-29.31760990695327
 31
0.0
  0
SOLID
  5
2EB
330
2E5
100
AcDbEntity
  8
치수문자_일반주서
 62
     0
100
AcDbTrace
 10
438.4694627454526
 20
-29.8679432402866
 30
0.0
 11
438.4694627454526
 21
-28.76727657361993
 31
0.0
 12
441.7714627454527
 22
-29.31760990695327
 32
0.0
 13
441.7714627454527
 23
-29.31760990695327
 33
0.0
  0
SOLID
  5
2EC
330
2E5
100
AcDbEntity
  8
치수문자_일반주서
 62
     0
100
AcDbTrace
 10
146.6234627454527
 20
-28.76727657361993
 30
0.0
 11
146.6234627454527
 21
-29.8679432402866
 31
0.0
 12
143.3214627454527
 22
-29.31760990695327
 32
0.0
 13
143.3214627454527
 23
-29.31760990695327
 33
0.0
  0
MTEXT
  5
2ED
330
2E5
100
AcDbEntity
  8
치수문자_일반주서
 62
     0
100
AcDbMText
 10
292.5464627454527
 20
-24.94260990695327
 30
0.0
 40
3.5
 41
0.0
 71
     2
 72
     1
  1
\A1;298.45 [11 3/4]
  7
SLDTEXTSTYLE0
 73
     1
 44
1.0
  0
POINT
  5
2EE
330
2E5
100
AcDbEntity
  8
Defpoints
 62
     0
100
AcDbPoint
 10
441.7714627454527
 20
-63.67224124051423
 30
0.0
  0
POINT
  5
2EF
330
2E5
100
AcDbEntity
  8
Defpoints
 62
     0
100
AcDbPoint
 10
143.3214627454527
 20
-68.75224124051422
 30
0.0
  0
POINT
  5
2F0
330
2E5
100
AcDbEntity
  8
Defpoints
 62
     0
100
AcDbPoint
 10
143.3214627454527
 20
-29.31760990695327
 30
0.0
  0
ENDBLK
  5
2E7
330
2E5
100
AcDbEntity
  8
0
100
AcDbBlockEnd
  0
BLOCK
  5
2F2
330
2F1
100
AcDbEntity
  8
0
100
AcDbBlockBegin
  2
*D13
 70
     1
 10
0.0
 20
0.0
 30
0.0
  3
*D13
  1
*D14
  0
LINE
  5
2F4
330
2F1
100
AcDbEntity
  8
치수문자_일반주서
 62
     0
370
    -2
100
AcDbLine
 10
441.8339627454527
 20
-63.67224124051422
 30
0.0
 11
460.9525845726981
 21
-63.67224124051415
 31
0.0
  0
LINE
  5
2F5
330
2F1
100
AcDbEntity
  8
치수문자_일반주서
 62
     0
370
    -2
100
AcDbLine
 10
441.8339627454527
 20
-114.4722412405143
 30
0.0
 11
460.9525845726983
 21
-114.4722412405142
 31
0.0
  0
LINE
  5
2F6
330
2F1
100
AcDbEntity
  8
치수문자_일반주서
 62
     0
370
    -2
100
AcDbLine
 10
460.9525845726981
 20
-63.67224124051415
 30
0.0
 11
460.9525845726979
 21
-8.851414670615014
 31
0.0
  0
LINE
  5
2F7
330
2F1
100
AcDbEntity
  8
치수문자_일반주서
 62
     0
370
    -2
100
AcDbLine
 10
460.9525845726981
 20
-66.97424124051415
 30
0.0
 11
460.9525845726983
 21
-111.1702412405142
 31
0.0
  0
SOLID
  5
2F8
330
2F1
100
AcDbEntity
  8
치수문자_일반주서
 62
     0
100
AcDbTrace
 10
461.5029179060315
 20
-66.97424124051415
 30
0.0
 11
460.4022512393648
 21
-66.97424124051415
 31
0.0
 12
460.9525845726981
 22
-63.67224124051415
 32
0.0
 13
460.9525845726981
 23
-63.67224124051415
 33
0.0
  0
SOLID
  5
2F9
330
2F1
100
AcDbEntity
  8
치수문자_일반주서
 62
     0
100
AcDbTrace
 10
460.4022512393649
 20
-111.1702412405142
 30
0.0
 11
461.5029179060317
 21
-111.1702412405142
 31
0.0
 12
460.9525845726983
 22
-114.4722412405142
 32
0.0
 13
460.9525845726983
 23
-114.4722412405142
 33
0.0
  0
MTEXT
  5
2FA
330
2F1
100
AcDbEntity
  8
치수문자_일반주서
 62
     0
100
AcDbMText
 10
456.577584572698
 20
-20.22641467061503
 30
0.0
 40
3.5
 41
0.0
 71
     2
 72
     1
  1
\A1;%%c50.80 [2]
  7
SLDTEXTSTYLE0
 11
-3.356894814614645E-15
 21
1.0
 31
0.0
 73
     1
 44
1.0
  0
POINT
  5
2FB
330
2F1
100
AcDbEntity
  8
Defpoints
 62
     0
100
AcDbPoint
 10
441.7714627454527
 20
-63.67224124051422
 30
0.0
  0
POINT
  5
2FC
330
2F1
100
AcDbEntity
  8
Defpoints
 62
     0
100
AcDbPoint
 10
441.7714627454527
 20
-114.4722412405143
 30
0.0
  0
POINT
  5
2FD
330
2F1
100
AcDbEntity
  8
Defpoints
 62
     0
100
AcDbPoint
 10
460.9525845726983
 20
-114.4722412405142
 30
0.0
  0
ENDBLK
  5
2F3
330
2F1
100
AcDbEntity
  8
0
100
AcDbBlockEnd
  0
BLOCK
  5
2FF
330
2FE
100
AcDbEntity
  8
0
100
AcDbBlockBegin
  2
*D14
 70
     1
 10
0.0
 20
0.0
 30
0.0
  3
*D14
  1
*D15
  0
LINE
  5
301
330
2FE
100
AcDbEntity
  8
치수문자_일반주서
 62
     0
370
    -2
100
AcDbLine
 10
143.2589627454527
 20
-63.67224124051421
 30
0.0
 11
130.8214627454526
 21
-63.67224124051426
 31
0.0
  0
LINE
  5
302
330
2FE
100
AcDbEntity
  8
치수문자_일반주서
 62
     0
370
    -2
100
AcDbLine
 10
144.2589627454527
 20
-114.4722412405142
 30
0.0
 11
130.8214627454527
 21
-114.4722412405143
 31
0.0
  0
LINE
  5
303
330
2FE
100
AcDbEntity
  8
치수문자_일반주서
 62
     0
370
    -2
100
AcDbLine
 10
130.8214627454526
 20
-66.97424124051426
 30
0.0
 11
130.8214627454527
 21
-111.1702412405143
 31
0.0
  0
SOLID
  5
304
330
2FE
100
AcDbEntity
  8
치수문자_일반주서
 62
     0
100
AcDbTrace
 10
131.3717960787859
 20
-66.97424124051426
 30
0.0
 11
130.2711294121193
 21
-66.97424124051426
 31
0.0
 12
130.8214627454526
 22
-63.67224124051426
 32
0.0
 13
130.8214627454526
 23
-63.67224124051426
 33
0.0
  0
SOLID
  5
305
330
2FE
100
AcDbEntity
  8
치수문자_일반주서
 62
     0
100
AcDbTrace
 10
130.2711294121194
 20
-111.1702412405143
 30
0.0
 11
131.3717960787861
 21
-111.1702412405143
 31
0.0
 12
130.8214627454527
 22
-114.4722412405143
 32
0.0
 13
130.8214627454527
 23
-114.4722412405143
 33
0.0
  0
MTEXT
  5
306
330
2FE
100
AcDbEntity
  8
치수문자_일반주서
 62
     0
100
AcDbMText
 10
126.4464627454527
 20
-89.07224124051423
 30
0.0
 40
3.5
 41
0.0
 71
     2
 72
     1
  1
\A1;%%c50.8 [2]
  7
SLDTEXTSTYLE0
 11
-3.356894814614645E-15
 21
1.0
 31
0.0
 73
     1
 44
1.0
  0
POINT
  5
307
330
2FE
100
AcDbEntity
  8
Defpoints
 62
     0
100
AcDbPoint
 10
143.3214627454527
 20
-63.67224124051421
 30
0.0
  0
POINT
  5
308
330
2FE
100
AcDbEntity
  8
Defpoints
 62
     0
100
AcDbPoint
 10
144.3214627454527
 20
-114.4722412405142
 30
0.0
  0
POINT
  5
309
330
2FE
100
AcDbEntity
  8
Defpoints
 62
     0
100
AcDbPoint
 10
130.8214627454527
 20
-114.4722412405143
 30
0.0
  0
ENDBLK
  5
300
330
2FE
100
AcDbEntity
  8
0
100
AcDbBlockEnd
  0
ENDSEC
  0
SECTION
  2
ENTITIES
  0
LINE
  5
96
330
1F
100
AcDbEntity
  8
외형선
  6
Continuous
 62
     1
370
    15
100
AcDbLine
 10
101.2698652165064
 20
3.010989587090871
 30
0.0
 11
101.0987443296398
 21
3.176518957913682
 31
0.0
  0
LINE
  5
97
330
1F
100
AcDbEntity
  8
외형선
  6
Continuous
 62
     1
370
    15
100
AcDbLine
 10
94.58149888551046
 20
-3.054202120375683
 30
0.0
 11
94.70489700283879
 21
-3.173227623961355
 31
0.0
  0
LINE
  5
98
330
1F
100
AcDbEntity
  8
외형선
  6
Continuous
 62
     1
370
    15
100
AcDbLine
 10
28.09993479432696
 20
-3.067556507276429
 30
0.0
 11
28.2095944243942
 21
-3.17385270429735
 31
0.0
  0
LINE
  5
99
330
1F
100
AcDbEntity
  8
외형선
  6
Continuous
 62
     1
370
    15
100
AcDbLine
 10
117.8355557883481
 20
3.065742610852172
 30
0.0
 11
117.7232432333147
 21
3.176046452128968
 31
0.0
  0
LINE
  5
9A
330
1F
100
AcDbEntity
  8
외형선
  6
Continuous
 62
     1
370
    15
100
AcDbLine
 10
111.2123532182936
 20
-3.059397779545428
 30
0.0
 11
111.3316178215994
 21
-3.17431636747845
 31
0.0
  0
LINE
  5
9B
330
1F
100
AcDbEntity
  8
외형선
  6
Continuous
 62
     1
370
    15
100
AcDbLine
 10
112.6069568454967
 20
-15.87392507127612
 30
0.0
 11
116.4454690949703
 21
-15.87392507127612
 31
0.0
  0
LINE
  5
9C
330
1F
100
AcDbEntity
  8
외형선
  6
Continuous
 62
     1
370
    15
100
AcDbLine
 10
12.8614102582172
 20
-15.87392507127612
 30
0.0
 11
16.70029711060122
 21
-15.87392507127612
 31
0.0
  0
LINE
  5
9D
330
1F
100
AcDbEntity
  8
외형선
  6
Continuous
 62
     1
370
    15
100
AcDbLine
 10
66.57234596839126
 20
15.87607492872391
 30
0.0
 11
62.73577616747639
 21
15.87607492872391
 31
0.0
  0
LINE
  5
9E
330
1F
100
AcDbEntity
  8
외형선
  6
Continuous
 62
     1
370
    15
100
AcDbLine
 10
164.3999999999999
 20
15.87607492872391
 30
0.0
 11
162.4800970898493
 21
15.87607492872391
 31
0.0
  0
LINE
  5
9F
330
1F
100
AcDbEntity
  8
외형선
  6
Continuous
 62
     1
370
    15
100
AcDbLine
 10
95.98437137854626
 20
-15.87392507127612
 30
0.0
 11
99.82197629272143
 21
-15.87392507127612
 31
0.0
  0
LINE
  5
A0
330
1F
100
AcDbEntity
  8
외형선
  6
Continuous
 62
     1
370
    15
100
AcDbLine
 10
49.94932364720751
 20
15.87607492872391
 30
0.0
 11
46.11250843239582
 21
15.87607492872391
 31
0.0
  0
LINE
  5
A1
330
1F
100
AcDbEntity
  8
외형선
  6
Continuous
 62
     1
370
    15
100
AcDbLine
 10
149.6946267425535
 20
15.87607492872391
 30
0.0
 11
145.8558618668057
 21
15.87607492872391
 31
0.0
  0
LINE
  5
A2
330
1F
100
AcDbEntity
  8
외형선
  6
Continuous
 62
     1
370
    15
100
AcDbLine
 10
79.35954717630378
 20
-15.87392507127612
 30
0.0
 11
83.1975069728432
 21
-15.87392507127612
 31
0.0
  0
LINE
  5
A3
330
1F
100
AcDbEntity
  8
외형선
  6
Continuous
 62
     1
370
    15
100
AcDbLine
 10
33.32355090086541
 20
15.87607492872391
 30
0.0
 11
29.48698510267755
 21
15.87607492872391
 31
0.0
  0
LINE
  5
A4
330
1F
100
AcDbEntity
  8
외형선
  6
Continuous
 62
     1
370
    15
100
AcDbLine
 10
133.0714813984828
 20
15.87607492872391
 30
0.0
 11
129.2325713852478
 21
15.87607492872391
 31
0.0
  0
LINE
  5
A5
330
1F
100
AcDbEntity
  8
외형선
  6
Continuous
 62
     1
370
    15
100
AcDbLine
 10
162.4800970898493
 20
-15.87392507127612
 30
0.0
 11
164.3999999999999
 21
-15.87392507127612
 31
0.0
  0
LINE
  5
A6
330
1F
100
AcDbEntity
  8
외형선
  6
Continuous
 62
     1
370
    15
100
AcDbLine
 10
62.73577616747642
 20
-15.87392507127612
 30
0.0
 11
66.5723459683914
 21
-15.87392507127612
 31
0.0
  0
LINE
  5
A7
330
1F
100
AcDbEntity
  8
외형선
  6
Continuous
 62
     1
370
    15
100
AcDbLine
 10
16.70029711060128
 20
15.87607492872391
 30
0.0
 11
12.86141025821713
 21
15.87607492872391
 31
0.0
  0
LINE
  5
A8
330
1F
100
AcDbEntity
  8
외형선
  6
Continuous
 62
     1
370
    15
100
AcDbLine
 10
116.4454690949704
 20
15.87607492872391
 30
0.0
 11
112.6069568454967
 21
15.87607492872391
 31
0.0
  0
LINE
  5
A9
330
1F
100
AcDbEntity
  8
외형선
  6
Continuous
 62
     1
370
    15
100
AcDbLine
 10
145.8558618668056
 20
-15.87392507127612
 30
0.0
 11
149.6946267425535
 21
-15.87392507127612
 31
0.0
  0
LINE
  5
AA
330
1F
100
AcDbEntity
  8
외형선
  6
Continuous
 62
     1
370
    15
100
AcDbLine
 10
46.11250843239573
 20
-15.87392507127612
 30
0.0
 11
49.94932364720747
 21
-15.87392507127612
 31
0.0
  0
LINE
  5
AB
330
1F
100
AcDbEntity
  8
외형선
  6
Continuous
 62
     1
370
    15
100
AcDbLine
 10
99.82197629272137
 20
15.87607492872391
 30
0.0
 11
95.98437137854614
 21
15.87607492872391
 31
0.0
  0
LINE
  5
AC
330
1F
100
AcDbEntity
  8
외형선
  6
Continuous
 62
     1
370
    15
100
AcDbLine
 10
129.2325713852477
 20
-15.87392507127612
 30
0.0
 11
133.0714813984826
 21
-15.87392507127612
 31
0.0
  0
LINE
  5
AD
330
1F
100
AcDbEntity
  8
외형선
  6
Continuous
 62
     1
370
    15
100
AcDbLine
 10
29.48698510267742
 20
-15.87392507127612
 30
0.0
 11
33.32355090086532
 21
-15.87392507127612
 31
0.0
  0
LINE
  5
AE
330
1F
100
AcDbEntity
  8
외형선
  6
Continuous
 62
     1
370
    15
100
AcDbLine
 10
83.19750697284312
 20
15.87607492872391
 30
0.0
 11
79.35954717630372
 21
15.87607492872391
 31
0.0
  0
LINE
  5
AF
330
1F
100
AcDbEntity
  8
외형선
  6
Continuous
370
    15
100
AcDbLine
 10
-48.32500000000005
 20
-15.87392507127611
 30
0.0
 11
11.0003126352931
 21
-15.87392507127611
 31
0.0
  0
LINE
  5
B0
330
1F
100
AcDbEntity
  8
외형선
  6
Continuous
370
    15
100
AcDbLine
 10
11.0003126352931
 20
15.8760749287239
 30
0.0
 11
-13.58732500000003
 21
15.8760749287239
 31
0.0
  0
LINE
  5
B1
330
1F
100
AcDbEntity
  8
외형선
  6
Continuous
370
    15
100
AcDbLine
 10
-50.71260000000007
 20
13.48847492872389
 30
0.0
 11
-51.50000000000005
 21
12.70107492872391
 31
0.0
  0
LINE
  5
B2
330
1F
100
AcDbEntity
  8
외형선
  6
Continuous
370
    15
100
AcDbLine
 10
-51.50000000000005
 20
-12.69892507127612
 30
0.0
 11
-48.32500000000005
 21
-15.87392507127611
 31
0.0
  0
LINE
  5
B3
330
1F
100
AcDbEntity
  8
외형선
  6
Continuous
 62
     1
370
    15
100
AcDbLine
 10
164.3999999999999
 20
9.48916014022705
 30
0.0
 11
164.3999999999999
 21
15.76022792433027
 31
0.0
  0
SPLINE
  5
B4
330
1F
100
AcDbEntity
  8
외형선
  6
Continuous
 62
     1
370
    15
100
AcDbSpline
210
0.0
220
0.0
230
1.0
 70
     8
 71
     3
 72
    28
 73
    24
 74
     0
 42
0.000000001
 43
0.00000001
 40
0.0
 40
0.0
 40
0.0
 40
0.0
 40
0.0380438584875185
 40
0.0867269030463782
 40
0.1354087679635503
 40
0.1840899723642639
 40
0.2327710358148329
 40
0.2814524779757174
 40
0.3301348182544408
 40
0.3788185754588818
 40
0.4275042674514468
 40
0.4761924108046137
 40
0.5248835204583706
 40
0.57357797885035
 40
0.6222712348413157
 40
0.670961199080663
 40
0.7196483852970795
 40
0.7683333090677161
 40
0.8170164874770743
 40
0.8656984387736906
 40
0.9143796820251208
 40
0.963060736771732
 40
1.0
 40
1.0
 40
1.0
 40
1.0
 10
49.94932364720751
 20
15.83575903178126
 30
0.0
 10
50.66282581029055
 20
15.82411314342178
 30
0.0
 10
52.28936516200708
 20
15.79756452635728
 30
0.0
 10
54.8288592320384
 20
15.19824931981263
 30
0.0
 10
57.56782262078323
 20
14.15542438096243
 30
0.0
 10
60.30672843673432
 20
12.67752663289774
 30
0.0
 10
63.04562283564805
 20
10.82710315300256
 30
0.0
 10
65.78454908983566
 20
8.654098115815277
 30
0.0
 10
68.52355114045328
 20
6.224369261984653
 30
0.0
 10
71.2626729927607
 20
3.609698196256431
 30
0.0
 10
74.00195738547255
 20
0.88781489312788
 30
0.0
 10
76.74145152170567
 20
-1.860478861339534
 30
0.0
 10
79.48118283010643
 20
-4.553566499576586
 30
0.0
 10
82.22114771392619
 20
-7.111324475210052
 30
0.0
 10
84.96103237173618
 20
-9.457840930817968
 30
0.0
 10
87.70067518084618
 20
-11.5233792476636
 30
0.0
 10
90.44008701818412
 20
-13.24647587210525
 30
0.0
 10
93.17930697072188
 20
-14.57634009865219
 30
0.0
 10
95.91837989478167
 20
-15.47220848409924
 30
0.0
 10
98.65734899818912
 20
-15.91233946501404
 30
0.0
 10
101.3962589760637
 20
-15.86561495389113
 30
0.0
 10
103.914939847552
 20
-15.43820804467603
 30
0.0
 10
105.5206658537179
 20
-14.82760927562123
 30
0.0
 10
106.2134259020003
 20
-14.56417801081806
 30
0.0
  0
SPLINE
  5
B5
330
1F
100
AcDbEntity
  8
외형선
  6
Continuous
 62
     1
370
    15
100
AcDbSpline
210
0.0
220
0.0
230
1.0
 70
     8
 71
     3
 72
    13
 73
     9
 74
     0
 42
0.000000001
 43
0.00000001
 40
0.0
 40
0.0
 40
0.0
 40
0.0
 40
0.068546145928444
 40
0.2548188868345339
 40
0.4410986683164687
 40
0.6273874678863465
 40
0.8136872570492888
 40
1.0
 40
1.0
 40
1.0
 40
1.0
 10
149.6946267425535
 20
15.82115376221533
 30
0.0
 10
150.0306057346442
 20
15.83560719203902
 30
0.0
 10
151.2796007234177
 20
15.88933751996234
 30
0.0
 10
153.4416816791645
 20
15.49294627016052
 30
0.0
 10
156.1809314791369
 20
14.64759250498905
 30
0.0
 10
158.9203843325781
 20
13.33079999363908
 30
0.0
 10
161.6600711552624
 20
11.6466086904535
 30
0.0
 10
163.4866692180022
 20
10.24123516775273
 30
0.0
 10
164.3999999999999
 20
9.538523977660976
 30
0.0
  0
SPLINE
  5
B6
330
1F
100
AcDbEntity
  8
외형선
  6
Continuous
 62
     1
370
    15
100
AcDbSpline
210
0.0
220
0.0
230
1.0
 70
     8
 71
     3
 72
    11
 73
     7
 74
     0
 42
0.000000001
 43
0.00000001
 40
0.0
 40
0.0
 40
0.0
 40
0.0
 40
0.3295758130043118
 40
0.6591287115527
 40
0.9886621701851208
 40
0.9999999999999999
 40
0.9999999999999999
 40
0.9999999999999999
 40
0.9999999999999999
 10
164.3999999999999
 20
15.76022792433027
 30
0.0
 10
163.4866688485041
 20
15.82766232046604
 30
0.0
 10
161.6600700467939
 20
15.96252642421847
 30
0.0
 10
158.9203887659833
 20
15.51894767798921
 30
0.0
 10
157.0626076693857
 20
15.05399225849823
 30
0.0
 10
156.1180655463059
 20
14.61351806044718
 30
0.0
 10
156.0866488262494
 20
14.59886730614606
 30
0.0
  0
SPLINE
  5
B7
330
1F
100
AcDbEntity
  8
외형선
  6
Continuous
 62
     1
370
    15
100
AcDbSpline
210
0.0
220
0.0
230
1.0
 70
     8
 71
     3
 72
    29
 73
    25
 74
     0
 42
0.000000001
 43
0.00000001
 40
0.0
 40
0.0
 40
0.0
 40
0.0
 40
0.0045287099762297
 40
0.0532118901874427
 40
0.1018937009269429
 40
0.1505746610673378
 40
0.1992552900491759
 40
0.2479361075341841
 40
0.2966176330581853
 40
0.3453003856841971
 40
0.3939848836562219
 40
0.4426716440542392
 40
0.4913611824508906
 40
0.5400540125703712
 40
0.5887480450803491
 40
0.6374387288813921
 40
0.686126446407789
 40
0.7348117125950228
 40
0.783495044011055
 40
0.8321769585137605
 40
0.8808579749064834
 40
0.9295386125922032
 40
0.9782193912268343
 40
0.9999999999999999
 40
0.9999999999999999
 40
0.9999999999999999
 40
0.9999999999999999
 10
112.6069568454967
 20
-15.854022772639
 30
0.0
 10
112.5220209585053
 20
-15.86053319081798
 30
0.0
 10
111.5240327642326
 20
-15.93702995458349
 30
0.0
 10
109.6130708165895
 20
-15.63900402470688
 30
0.0
 10
106.8740726466497
 20
-14.9318488777075
 30
0.0
 10
104.1351524226771
 20
-13.731771673711
 30
0.0
 10
101.3962585114837
 20
-12.13710107540755
 30
0.0
 10
98.65734912267507
 20
-10.17839225835142
 30
0.0
 10
95.91837986142465
 20
-7.918301662402295
 30
0.0
 10
93.1793069796602
 20
-5.422725876036284
 30
0.0
 10
90.44008701578929
 20
-2.766083382918735
 30
0.0
 10
87.70067518148639
 20
-0.0271717044177043
 30
0.0
 10
84.96103237157016
 20
2.712656618638022
 30
0.0
 10
82.22114771395012
 20
5.371970317409044
 30
0.0
 10
79.48118283017666
 20
7.871713370895381
 30
0.0
 10
76.74145152140044
 20
10.13768958162904
 30
0.0
 10
74.00195738662285
 20
12.10253250740162
 30
0.0
 10
71.26267298846467
 20
13.70776771308993
 30
0.0
 10
68.52355115648639
 20
14.90635385890177
 30
0.0
 10
65.78454903000107
 20
15.66046312528942
 30
0.0
 10
63.04562305894893
 20
15.95614912903483
 30
0.0
 10
60.30672760336994
 20
15.7531800273745
 30
0.0
 10
58.0723265121994
 20
15.28149899916331
 30
0.0
 10
56.75087317505773
 20
14.72452558875188
 30
0.0
 10
56.34239330818109
 20
14.55235725094982
 30
0.0
  0
LINE
  5
B8
330
1F
100
AcDbEntity
  8
외형선
  6
Continuous
370
    15
100
AcDbLine
 10
12.86141025821721
 20
-15.81518680796738
 30
0.0
 11
11.99999999999998
 21
-15.85051349935455
 31
0.0
  0
SPLINE
  5
B9
330
1F
100
AcDbEntity
  8
외형선
  6
Continuous
 62
     1
370
    15
100
AcDbSpline
210
0.0
220
0.0
230
1.0
 70
     8
 71
     3
 72
    11
 73
     7
 74
     0
 42
0.000000001
 43
0.00000001
 40
0.0
 40
0.0
 40
0.0
 40
0.0
 40
0.2730642671712928
 40
0.546132487298297
 40
0.8192043538763625
 40
1.0
 40
1.0
 40
1.0
 40
1.0
 10
11.99999999999997
 20
-15.18315740035825
 30
0.0
 10
13.00956833669597
 20
-15.42547730016605
 30
0.0
 10
15.02871962488533
 20
-15.91012060767317
 30
0.0
 10
18.05749623205131
 20
-15.89247713621889
 30
0.0
 10
20.74514984080734
 20
-15.46921722790088
 30
0.0
 10
22.42321873434635
 20
-14.80792779201994
 30
0.0
 10
23.09166831788542
 20
-14.54450675506767
 30
0.0
  0
SPLINE
  5
BA
330
1F
100
AcDbEntity
  8
외형선
  6
Continuous
 62
     1
370
    15
100
AcDbSpline
210
0.0
220
0.0
230
1.0
 70
     8
 71
     3
 72
    28
 73
    24
 74
     0
 42
0.000000001
 43
0.00000001
 40
0.0
 40
0.0
 40
0.0
 40
0.0
 40
0.0346794951907747
 40
0.0833625814204627
 40
0.1320476024116089
 40
0.1807350747295715
 40
0.2294255133072416
 40
0.2781193005769809
 40
0.3268118854622784
 40
0.3755011786413253
 40
0.4241876938357291
 40
0.4728719466155348
 40
0.5215544540581172
 40
0.57023573440487
 40
0.6189163067161952
 40
0.6675966905252997
 40
0.7162774054912933
 40
0.7649589710521084
 40
0.8136419060777385
 40
0.8623267285243142
 40
0.9110139550895061
 40
0.9597041008697705
 40
1.0
 40
1.0
 40
1.0
 40
1.0
 10
66.57234596839126
 20
15.82769939670344
 30
0.0
 10
67.22273950007376
 20
15.82382282967671
 30
0.0
 10
68.78615567559665
 20
15.81450433664158
 30
0.0
 10
71.26267367672867
 20
15.25333227440731
 30
0.0
 10
74.00195720219024
 20
14.24245547131147
 30
0.0
 10
76.7414515708229
 20
12.79171905119134
 30
0.0
 10
79.48118281693445
 20
10.96550702934201
 30
0.0
 10
82.22114771749162
 20
8.812423370190812
 30
0.0
 10
84.96103237064672
 20
6.397898637109394
 30
0.0
 10
87.7006751816387
 20
3.793301305347591
 30
0.0
 10
90.44008701610339
 20
1.076166612197604
 30
0.0
 10
93.17930697825194
 20
-1.672842966888429
 30
0.0
 10
95.91837986674356
 20
-4.372085310625313
 30
0.0
 10
98.6573491028083
 20
-6.941415977650369
 30
0.0
 10
101.3962585856309
 20
-9.304540579053892
 30
0.0
 10
104.1351521459546
 20
-11.39131545110707
 30
0.0
 10
106.8740736794078
 20
-13.13969588987873
 30
0.0
 10
109.6130669621637
 20
-14.49806252140888
 30
0.0
 10
112.3521760574743
 20
-15.42493704700748
 30
0.0
 10
115.0914436764861
 20
-15.89698791422561
 30
0.0
 10
117.8309171319831
 20
-15.88443834446118
 30
0.0
 10
120.4131189773711
 20
-15.47151240130964
 30
0.0
 10
122.0822189915999
 20
-14.85301104178546
 30
0.0
 10
122.8380440861895
 20
-14.57293264948963
 30
0.0
  0
SPLINE
  5
BB
330
1F
100
AcDbEntity
  8
외형선
  6
Continuous
370
    15
100
AcDbSpline
210
0.0
220
0.0
230
1.0
 70
    24
 71
     3
 72
    15
 73
    11
 74
     0
 42
0.000000001
 43
0.00000001
 40
0.0
 40
0.0
 40
0.0
 40
0.0
 40
0.0783402693792476
 40
0.2002598262802808
 40
0.3257150585908622
 40
0.447634615491897
 40
0.5730898478024775
 40
0.6950094047035118
 40
0.8204646370140936
 40
1.0
 40
1.0
 40
1.0
 40
1.0
 10
11.99999999999999
 20
-7.329599459241653
 30
0.0
 10
11.99999999999998
 20
-7.474863655612024
 30
0.0
 10
11.99999999999994
 20
-7.846199916776086
 30
0.0
 10
11.99999999999991
 20
-8.596557823024607
 30
0.0
 10
11.99999999999998
 20
-9.526895139315208
 30
0.0
 10
11.99999999999995
 20
-10.54630256862825
 30
0.0
 10
11.9999999999999
 20
-11.60087465404298
 30
0.0
 10
12.00000000000008
 20
-12.67939299426485
 30
0.0
 10
11.99999999999984
 20
-13.90549106747658
 30
0.0
 10
11.99999999999992
 20
-14.70973325263675
 30
0.0
 10
11.99999999999997
 20
-15.18315740035824
 30
0.0
  0
SPLINE
  5
BC
330
1F
100
AcDbEntity
  8
외형선
  6
Continuous
 62
     1
370
    15
100
AcDbSpline
210
0.0
220
0.0
230
1.0
 70
     8
 71
     3
 72
    29
 73
    25
 74
     0
 42
0.000000001
 43
0.00000001
 40
0.0
 40
0.0
 40
0.0
 40
0.0
 40
0.0078621397384428
 40
0.0565505386140936
 40
0.1052422760220209
 40
0.1539346472407083
 40
0.2026236188034531
 40
0.251309671221525
 40
0.299993319578959
 40
0.3486750805609652
 40
0.3973554721111818
 40
0.4460350130870902
 40
0.4947142229140958
 40
0.5433936212387762
 40
0.5920737275818085
 40
0.6407550609910786
 40
0.689438139695481
 40
0.7381234807599205
 40
0.7868115997420091
 40
0.8355030103509653
 40
0.8841956233153663
 40
0.9328848876684552
 40
0.9815711858333718
 40
1.0
 40
1.0
 40
1.0
 40
1.0
 10
129.2325713852477
 20
-15.84196858320828
 30
0.0
 10
129.0851102152007
 20
-15.8521374020212
 30
0.0
 10
128.0244563896213
 20
-15.9252793455722
 30
0.0
 10
126.0504775456949
 20
-15.60593718809213
 30
0.0
 10
123.3105760500584
 20
-14.8630355144571
 30
0.0
 10
120.570625770584
 20
-13.63468956331012
 30
0.0
 10
117.8309170200805
 20
-12.01305715168163
 30
0.0
 10
115.0914437064679
 20
-10.0314676020178
 30
0.0
 10
112.3521760494411
 20
-7.752790087697377
 30
0.0
 10
109.6130669643165
 20
-5.243639302428916
 30
0.0
 10
106.8740736788298
 20
-2.578820142675985
 30
0.0
 10
104.135152146114
 20
0.1626113626624922
 30
0.0
 10
101.3962585855716
 20
2.899231931805212
 30
0.0
 10
98.65734910288614
 20
5.549787351930028
 30
0.0
 10
95.91837986649115
 20
8.035574268110228
 30
0.0
 10
93.17930697918398
 20
10.28276177058115
 30
0.0
 10
90.44008701262729
 20
12.22465710949473
 30
0.0
 10
87.70067519461183
 20
13.80339187532538
 30
0.0
 10
84.96103232222602
 20
14.97273250764025
 30
0.0
 10
82.2211478982153
 20
15.6953602070652
 30
0.0
 10
79.48118214246682
 20
15.95925047885029
 30
0.0
 10
76.74145408771012
 20
15.72128674895373
 30
0.0
 10
74.56941451695708
 20
15.24473085647619
 30
0.0
 10
73.31063707420788
 20
14.70355977851153
 30
0.0
 10
72.96499546289728
 20
14.55496222899246
 30
0.0
  0
SPLINE
  5
BD
330
1F
100
AcDbEntity
  8
외형선
  6
Continuous
 62
     1
370
    15
100
AcDbSpline
210
0.0
220
0.0
230
1.0
 70
     8
 71
     3
 72
    13
 73
     9
 74
     0
 42
0.000000001
 43
0.00000001
 40
0.0
 40
0.0
 40
0.0
 40
0.0
 40
0.1339736057371574
 40
0.3071831204453374
 40
0.4803907121819757
 40
0.6535961858154593
 40
0.8267993465585985
 40
1.0
 40
1.0
 40
1.0
 40
1.0
 10
29.48698510267742
 20
-15.82336679064981
 30
0.0
 10
28.70604126774447
 20
-15.81031599743148
 30
0.0
 10
26.91544406177017
 20
-15.78039231684503
 30
0.0
 10
24.11522217128978
 20
-15.05349801276357
 30
0.0
 10
21.08633076892608
 20
-13.79032898259007
 30
0.0
 10
18.05749582264186
 20
-12.00336152163668
 30
0.0
 10
15.02871972723539
 20
-9.804303002033091
 30
0.0
 10
13.00956837081251
 20
-8.053659035565506
 30
0.0
 10
11.99999999999998
 20
-7.178343387990389
 30
0.0
  0
LINE
  5
BE
330
1F
100
AcDbEntity
  8
외형선
  6
Continuous
 62
     1
370
    15
100
AcDbLine
 10
164.3999999999999
 20
-15.75807806688247
 30
0.0
 11
164.3999999999999
 21
-9.485952849871332
 31
0.0
  0
SPLINE
  5
BF
330
1F
100
AcDbEntity
  8
외형선
  6
Continuous
 62
     1
370
    15
100
AcDbSpline
210
0.0
220
0.0
230
1.0
 70
     8
 71
     3
 72
    28
 73
    24
 74
     0
 42
0.000000001
 43
0.00000001
 40
0.0
 40
0.0
 40
0.0
 40
0.0
 40
0.0241194117201653
 40
0.0779463279550531
 40
0.1317739024310387
 40
0.1856020745072383
 40
0.2394307834455306
 40
0.2881181931260721
 40
0.3368081014401361
 40
0.3855010231773074
 40
0.4341971774228227
 40
0.4828916259199683
 40
0.5315828294900387
 40
0.5802713020609774
 40
0.628957559378134
 40
0.6776421186629236
 40
0.7263254982693221
 40
0.7750082173387107
 40
0.8236907954535692
 40
0.8723737522905265
 40
0.9210576072732667
 40
0.9697428792258107
 40
1.0
 40
1.0
 40
1.0
 40
1.0
 10
16.7002971106013
 20
15.80467117672681
 30
0.0
 10
17.15269285941853
 20
15.82073247967645
 30
0.0
 10
18.61469316904047
 20
15.87263754276936
 30
0.0
 10
21.08632895619581
 20
15.3462378432277
 30
0.0
 10
24.11523159277798
 20
14.26723288184962
 30
0.0
 10
27.14412636648922
 20
12.63751692376551
 30
0.0
 10
30.0768383029145
 20
10.62406427384344
 30
0.0
 10
32.91244062011084
 20
8.333526696054095
 30
0.0
 10
35.65199664911919
 20
5.873830625806008
 30
0.0
 10
38.39173918498238
 20
3.239478555841996
 30
0.0
 10
41.13171897308544
 20
0.5090163024072362
 30
0.0
 10
43.87158074453134
 20
-2.236591861938313
 30
0.0
 10
46.61120190398704
 20
-4.91568198283369
 30
0.0
 10
49.35059402500262
 20
-7.448657414123516
 30
0.0
 10
52.08979880636883
 20
-9.760303798121623
 30
0.0
 10
54.82886036249544
 20
-11.78202309319982
 30
0.0
 10
57.56782232596533
 20
-13.45367568569203
 30
0.0
 10
60.30672848557703
 20
-14.72608338804125
 30
0.0
 10
63.04562293509228
 20
-15.5597949961666
 30
0.0
 10
65.78454864320813
 20
-15.93630257146342
 30
0.0
 10
68.52355282757271
 20
-15.82109412159424
 30
0.0
 10
70.91703221629322
 20
-15.36979099390042
 30
0.0
 10
72.39754356401073
 20
-14.77918170281774
 30
0.0
 10
72.96499546289739
 20
-14.55281237154467
 30
0.0
  0
SPLINE
  5
C0
330
1F
100
AcDbEntity
  8
외형선
  6
Continuous
 62
     1
370
    15
100
AcDbSpline
210
0.0
220
0.0
230
1.0
 70
     8
 71
     3
 72
    25
 73
    21
 74
     0
 42
0.000000001
 43
0.00000001
 40
0.0
 40
0.0
 40
0.0
 40
0.0
 40
0.0288896200268524
 40
0.0860186240061677
 40
0.1431516169577618
 40
0.2002838662301155
 40
0.2574121982493905
 40
0.3145372155558288
 40
0.3716595228949542
 40
0.4287797268176073
 40
0.4858984352773436
 40
0.5430162572257902
 40
0.6001338022065376
 40
0.6572516799481654
 40
0.7143704999570016
 40
0.7714908711102012
 40
0.8286134012497529
 40
0.8857386967779916
 40
0.942867362255218
 40
1.0
 40
1.0
 40
1.0
 40
1.0
 10
116.4454690949704
 20
15.81703221949125
 30
0.0
 10
116.9072690482876
 20
15.82814657373229
 30
0.0
 10
118.2822748986078
 20
15.86123947899183
 30
0.0
 10
120.5706283758985
 20
15.40424565227553
 30
0.0
 10
123.3105743220395
 20
14.49082193880171
 30
0.0
 10
126.0504818521918
 20
13.12253148041051
 30
0.0
 10
128.7901464474875
 20
11.37103383344775
 30
0.0
 10
131.5295784209497
 20
9.280116210909304
 30
0.0
 10
134.2688139135163
 20
6.914119280866249
 30
0.0
 10
137.0078985020903
 20
4.342722894697847
 30
0.0
 10
139.7468753875934
 20
1.642449780669463
 30
0.0
 10
142.4857885197881
 20
-1.106554552533977
 30
0.0
 10
145.2246817129387
 20
-3.822667305045144
 30
0.0
 10
147.9635988615918
 20
-6.425182711938539
 30
0.0
 10
150.7025837643822
 20
-8.8370396729236
 30
0.0
 10
153.4416804155213
 20
-10.98579416927489
 30
0.0
 10
156.1809318176356
 20
-12.81068422712174
 30
0.0
 10
158.9203842423043
 20
-14.24607882250497
 30
0.0
 10
161.6600711778332
 20
-15.29192957682303
 30
0.0
 10
163.486669225526
 20
-15.60269163567249
 30
0.0
 10
164.3999999999999
 20
-15.75807806688247
 30
0.0
  0
SPLINE
  5
C1
330
1F
100
AcDbEntity
  8
외형선
  6
Continuous
 62
     1
370
    15
100
AcDbSpline
210
0.0
220
0.0
230
1.0
 70
     8
 71
     3
 72
    23
 73
    19
 74
     0
 42
0.000000001
 43
0.00000001
 40
0.0
 40
0.0
 40
0.0
 40
0.0
 40
0.0659196256825069
 40
0.1318346681635238
 40
0.197745822398094
 40
0.263653785927764
 40
0.3295592584194249
 40
0.3954629412010384
 40
0.4613655367949406
 40
0.5272677484494077
 40
0.59317027966915
 40
0.6590738337454349
 40
0.7249791132865256
 40
0.7908868197491098
 40
0.8567976529714229
 40
0.9227123107087256
 40
0.9886314881718241
 40
1.0
 40
1.0
 40
1.0
 40
1.0
 10
164.3999999999999
 20
-9.536374120213106
 30
0.0
 10
163.486669225526
 20
-8.778984191539664
 30
0.0
 10
161.6600711778331
 20
-7.264256993330533
 30
0.0
 10
158.9203842423045
 20
-4.700411396540547
 30
0.0
 10
156.1809318176348
 20
-2.017338794427534
 30
0.0
 10
153.4416804155242
 20
0.7310685915843105
 30
0.0
 10
150.702583764371
 20
3.456282506948697
 30
0.0
 10
147.9635988616338
 20
6.079232229558436
 30
0.0
 10
145.2246817127821
 20
8.521545770255992
 30
0.0
 10
142.4857885203724
 20
10.71082097091808
 30
0.0
 10
139.7468753854122
 20
12.58208433212439
 30
0.0
 10
137.0078985102304
 20
14.07952091902141
 30
0.0
 10
134.2688138831352
 20
15.15960381338976
 30
0.0
 10
131.5295785343405
 20
15.78668551246713
 30
0.0
 10
128.790146024275
 20
15.95538388355795
 30
0.0
 10
126.0504834317873
 20
15.61112830413283
 30
0.0
 10
124.0663894770374
 20
15.13161923844708
 30
0.0
 10
122.9955565774605
 20
14.64644801025352
 30
0.0
 10
122.8380440861896
 20
14.57508250693743
 30
0.0
  0
SPLINE
  5
C2
330
1F
100
AcDbEntity
  8
외형선
  6
Continuous
 62
     1
370
    15
100
AcDbSpline
210
0.0
220
0.0
230
1.0
 70
     8
 71
     3
 72
    28
 73
    24
 74
     0
 42
0.000000001
 43
0.00000001
 40
0.0
 40
0.0
 40
0.0
 40
0.0
 40
0.0465284072301492
 40
0.0952147946997768
 40
0.1438987308972075
 40
0.1925807323762907
 40
0.2412613169807549
 40
0.2899410034997709
 40
0.3386203113221294
 40
0.3872997600895488
 40
0.4359798693496064
 40
0.484661158208809
 40
0.5333441449863127
 40
0.5820293468687846
 40
0.6307172795669328
 40
0.6794084569741753
 40
0.7281013400152027
 40
0.7767909907650323
 40
0.8254776282941839
 40
0.8741617673576616
 40
0.9279868603078549
 40
0.9818114164320183
 40
1.0
 40
1.0
 40
1.0
 40
1.0
 10
79.3595471763038
 20
-15.86392195735029
 30
0.0
 10
78.48682842334964
 20
-15.82637908980256
 30
0.0
 10
76.70091435837531
 20
-15.74955212239066
 30
0.0
 10
74.00195915182711
 20
-15.04685217488771
 30
0.0
 10
71.26267251988716
 20
-13.92438161371622
 30
0.0
 10
68.52355126570083
 20
-12.37823865024379
 30
0.0
 10
65.78454906169678
 20
-10.4671673187065
 30
0.0
 10
63.04562282296047
 20
-8.244494326928672
 30
0.0
 10
60.30672851562259
 20
-5.777143573970092
 30
0.0
 10
57.5678223179148
 20
-3.138132800978159
 30
0.0
 10
54.82886036465197
 20
-0.4058872583539932
 30
0.0
 10
52.08979880579359
 20
2.33848214882241
 30
0.0
 10
49.35059402514715
 20
5.013476177903017
 30
0.0
 10
46.61120190398453
 20
7.539657871638935
 30
0.0
 10
43.87158074439716
 20
9.841980560031343
 30
0.0
 10
41.131718973625
 20
11.85206428137222
 30
0.0
 10
38.39173918295862
 20
13.50992848801321
 30
0.0
 10
35.65199665667416
 20
14.76715182155435
 30
0.0
 10
32.91244059191743
 20
15.58347516363733
 30
0.0
 10
30.076838412824
 20
15.9581093533136
 30
0.0
 10
27.14412590779568
 20
15.77642586879885
 30
0.0
 10
24.78367519179976
 20
15.28986710492692
 30
0.0
 10
23.43285036310031
 20
14.69652011468873
 30
0.0
 10
23.09166831788553
 20
14.54665661251546
 30
0.0
  0
SPLINE
  5
C3
330
1F
100
AcDbEntity
  8
외형선
  6
Continuous
 62
     1
370
    15
100
AcDbSpline
210
0.0
220
0.0
230
1.0
 70
     8
 71
     3
 72
    23
 73
    19
 74
     0
 42
0.000000001
 43
0.00000001
 40
0.0
 40
0.0
 40
0.0
 40
0.0
 40
0.0682997615440767
 40
0.1366005118148561
 40
0.2049021741483545
 40
0.2732046717323993
 40
0.3415079276189976
 40
0.4098118647367706
 40
0.4715919414809344
 40
0.5333751887731267
 40
0.5951622598364348
 40
0.6569534326709168
 40
0.7187424410594799
 40
0.7805273319185821
 40
0.8423087573779628
 40
0.9040873718734916
 40
0.9658638317140357
 40
1.0
 40
1.0
 40
1.0
 40
1.0
 10
11.99999999999995
 20
11.60455435060563
 30
0.0
 10
13.00956831351417
 20
10.87476514872043
 30
0.0
 10
15.02871955533963
 20
9.415176180314733
 30
0.0
 10
18.05749651024033
 20
6.771290564798802
 30
0.0
 10
21.08632819038127
 20
3.911910476074093
 30
0.0
 10
24.11523179802859
 20
0.9024604392769754
 30
0.0
 10
27.1441263113137
 20
-2.1375094015577
 30
0.0
 10
30.07683831611428
 20
-5.006265334107303
 30
0.0
 10
32.91244061679441
 20
-7.614978131291097
 30
0.0
 10
35.65199664974616
 20
-9.908977883966934
 30
0.0
 10
38.3917391857912
 20
-11.90865922292861
 30
0.0
 10
41.13171896922292
 20
-13.5544411346436
 30
0.0
 10
43.87158075917155
 20
-14.79798776256965
 30
0.0
 10
46.61120184929379
 20
-15.60042831036487
 30
0.0
 10
49.35059422912066
 20
-15.94500637577022
 30
0.0
 10
52.08979804463402
 20
-15.79520156309171
 30
0.0
 10
54.42037864106411
 20
-15.33447959492034
 30
0.0
 10
55.83788870733343
 20
-14.75606895153373
 30
0.0
 10
56.34239330818111
 20
-14.55020739350203
 30
0.0
  0
SPLINE
  5
C4
330
1F
100
AcDbEntity
  8
외형선
  6
Continuous
 62
     1
370
    15
100
AcDbSpline
210
0.0
220
0.0
230
1.0
 70
     8
 71
     3
 72
    28
 73
    24
 74
     0
 42
0.000000001
 43
0.00000001
 40
0.0
 40
0.0
 40
0.0
 40
0.0
 40
0.0279810810245556
 40
0.0766616882392126
 40
0.1253426266122786
 40
0.1740244155840698
 40
0.2227075740269607
 40
0.2713926198994591
 40
0.3200800699016067
 40
0.3687704391322238
 40
0.4174642081163738
 40
0.4661573432715703
 40
0.5148471397986535
 40
0.5635341112354906
 40
0.6122187729994842
 40
0.6609016420466869
 40
0.7095832365286684
 40
0.7582640754476431
 40
0.8069446783103487
 40
0.8556255647811869
 40
0.9043072543351369
 40
0.9529902659109413
 40
1.0
 40
1.0
 40
1.0
 40
1.0
 10
99.82197629272137
 20
15.81835584093533
 30
0.0
 10
100.3467381932676
 20
15.82581781019848
 30
0.0
 10
101.784464390629
 20
15.84626187956094
 30
0.0
 10
104.1351517673185
 20
15.35621885161791
 30
0.0
 10
106.8740737799489
 20
14.41003972327847
 30
0.0
 10
109.6130669386428
 20
13.01426436036617
 30
0.0
 10
112.3521760510134
 20
11.23778368269545
 30
0.0
 10
115.091443725855
 20
9.125973052673562
 30
0.0
 10
117.8309169409535
 20
6.743499465954725
 30
0.0
 10
120.570626067732
 20
4.160556456005629
 30
0.0
 10
123.3105749405231
 20
1.454112512469724
 30
0.0
 10
126.050481686477
 20
-1.295520984031472
 30
0.0
 10
128.7901464919082
 20
-4.006623592668301
 30
0.0
 10
131.5295784089674
 20
-6.598603196484619
 30
0.0
 10
134.2688139170282
 20
-8.994500222330583
 30
0.0
 10
137.0078985000246
 20
-11.12319586059423
 30
0.0
 10
139.746875392344
 20
-12.92143460434042
 30
0.0
 10
142.4857885028516
 20
-14.33605293401804
 30
0.0
 10
145.2246817759333
 20
-15.32422427835002
 30
0.0
 10
147.9635986265464
 20
-15.85969695337122
 30
0.0
 10
150.7025846415944
 20
-15.91502886991181
 30
0.0
 10
153.4102610785226
 20
-15.53600758859798
 30
0.0
 10
155.2049803608043
 20
-14.90614290356985
 30
0.0
 10
156.0866488262494
 20
-14.59671744869827
 30
0.0
  0
SPLINE
  5
C5
330
1F
100
AcDbEntity
  8
외형선
  6
Continuous
370
    15
100
AcDbSpline
210
0.0
220
0.0
230
1.0
 70
    24
 71
     3
 72
    11
 73
     7
 74
     0
 42
0.000000001
 43
0.00000001
 40
0.0
 40
0.0
 40
0.0
 40
0.0
 40
0.4515415098522538
 40
0.6998035147289619
 40
0.94806551960567
 40
1.0
 40
1.0
 40
1.0
 40
1.0
 10
11.99999999999998
 20
15.85266335680249
 30
0.0
 10
11.99999999999999
 20
15.20832528096956
 30
0.0
 10
12.00000000000005
 20
14.20972373426101
 30
0.0
 10
11.99999999999994
 20
12.90548760652248
 30
0.0
 10
11.99999999999991
 20
12.17120029396719
 30
0.0
 10
11.99999999999994
 20
11.81707472199686
 30
0.0
 10
11.99999999999992
 20
11.75581042185684
 30
0.0
  0
SPLINE
  5
C6
330
1F
100
AcDbEntity
  8
외형선
  6
Continuous
 62
     1
370
    15
100
AcDbSpline
210
0.0
220
0.0
230
1.0
 70
     8
 71
     3
 72
    29
 73
    25
 74
     0
 42
0.000000001
 43
0.00000001
 40
0.0
 40
0.0
 40
0.0
 40
0.0
 40
0.0145734945742675
 40
0.0632623257749025
 40
0.111948284881888
 40
0.1606318871415372
 40
0.2093136493700709
 40
0.2579940896106772
 40
0.3066737267887811
 40
0.3553530803660309
 40
0.4040326699934927
 40
0.4527130151645704
 40
0.50139463486816
 40
0.5500780472425345
 40
0.5987637692304799
 40
0.6474523162361717
 40
0.6961442017842971
 40
0.7448367211451109
 40
0.793525840839639
 40
0.842212041380613
 40
0.890895837853635
 40
0.9395777469454869
 40
0.9882582866013829
 40
1.0
 40
1.0
 40
1.0
 40
1.0
 10
162.4800970898493
 20
-15.82439779039951
 30
0.0
 10
162.2067398778012
 20
-15.83861698494144
 30
0.0
 10
161.0201189947058
 20
-15.90034132379404
 30
0.0
 10
158.9203875856525
 20
-15.53173820753117
 30
0.0
 10
156.1809309218577
 20
-14.71912503440155
 30
0.0
 10
153.4416806555292
 20
-13.4345759265349
 30
0.0
 10
150.7025837000763
 20
-11.76031999352173
 30
0.0
 10
147.963598878818
 20
-9.734287785273294
 30
0.0
 10
145.2246817083383
 20
-7.41981310991401
 30
0.0
 10
142.4857885209639
 20
-4.88477725820532
 30
0.0
 10
139.7468753874902
 20
-2.204680605851776
 30
0.0
 10
137.0078985013269
 20
0.540958340733923
 30
0.0
 10
134.2688139166729
 20
3.270595945824177
 30
0.0
 10
131.529578409086
 20
5.90317774044716
 30
0.0
 10
128.7901464917892
 20
8.360520891622583
 30
0.0
 10
126.0504816868343
 20
10.56962139503594
 30
0.0
 10
123.3105749392123
 20
12.46484681897638
 30
0.0
 10
120.5706260726176
 20
13.98965268851804
 30
0.0
 10
117.8309169227236
 20
15.09961848123561
 30
0.0
 10
115.0914437938834
 20
15.7585689248731
 30
0.0
 10
112.3521757971458
 20
15.95882604976114
 30
0.0
 10
109.6130678860391
 20
15.65026626547041
 30
0.0
 10
107.5668362486197
 20
15.16973420170474
 30
0.0
 10
106.4336376944196
 20
14.66450739716898
 30
0.0
 10
106.2134259020003
 20
14.56632786826585
 30
0.0
  0
SPLINE
  5
C7
330
1F
100
AcDbEntity
  8
외형선
  6
Continuous
 62
     1
370
    15
100
AcDbSpline
210
0.0
220
0.0
230
1.0
 70
     8
 71
     3
 72
    25
 73
    21
 74
     0
 42
0.000000001
 43
0.00000001
 40
0.0
 40
0.0
 40
0.0
 40
0.0
 40
0.0478812528075753
 40
0.1018702419544983
 40
0.1558599636349808
 40
0.2098509935752537
 40
0.2638439066283194
 40
0.3178392763911698
 40
0.3718376748238518
 40
0.4258396718709082
 40
0.4798435605877809
 40
0.5338438644626142
 40
0.5878408264602776
 40
0.6418350174808743
 40
0.7015308939277137
 40
0.761226174996104
 40
0.8209207933276529
 40
0.8806146816718028
 40
0.9403077728966984
 40
1.0
 40
1.0
 40
1.0
 40
1.0
 10
62.73577616747639
 20
-15.85025682427534
 30
0.0
 10
61.92609432968869
 20
-15.82402338330917
 30
0.0
 10
60.20344757578948
 20
-15.76821016160291
 30
0.0
 10
57.56782244189495
 20
-15.10757919070848
 30
0.0
 10
54.82886033143115
 20
-14.0164318639917
 30
0.0
 10
52.08979881469323
 20
-12.4971461914936
 30
0.0
 10
49.35059402277084
 20
-10.60979687774642
 30
0.0
 10
46.61120190458948
 20
-8.406395918950915
 30
0.0
 10
43.87158074435374
 20
-5.953428823173688
 30
0.0
 10
41.13171897319365
 20
-3.323482618292084
 30
0.0
 10
38.39173918472741
 20
-0.5948438413604952
 30
0.0
 10
35.65199665003122
 20
2.15154152675469
 30
0.0
 10
32.91244061671831
 20
4.833998373048523
 30
0.0
 10
30.07683831613712
 20
7.46209161597784
 30
0.0
 10
27.14412631130729
 20
9.933421407248263
 30
0.0
 10
24.11523179803027
 20
12.12453954853202
 30
0.0
 10
21.08632819038082
 20
13.87865151922824
 30
0.0
 10
18.05749651024045
 20
15.11800240374557
 30
0.0
 10
15.02871955533963
 20
15.850012239954
 30
0.0
 10
13.0095683135142
 20
15.85177965545046
 30
0.0
 10
11.99999999999998
 20
15.85266335680233
 30
0.0
  0
LINE
  5
C8
330
1F
100
AcDbEntity
  8
외형선
  6
Continuous
 62
     1
370
    15
100
AcDbLine
 10
164.3999999999999
 20
-6.220629017945233
 30
0.0
 11
164.3999999999999
 21
6.22277887539332
 31
0.0
  0
SPLINE
  5
C9
330
1F
100
AcDbEntity
  8
외형선
  6
Continuous
 62
     1
370
    15
100
AcDbSpline
210
0.0
220
0.0
230
1.0
 70
     8
 71
     3
 72
    28
 73
    24
 74
     0
 42
0.000000001
 43
0.00000001
 40
0.0
 40
0.0
 40
0.0
 40
0.0
 40
0.041380715564207
 40
0.0900708312174262
 40
0.1387641791927058
 40
0.1874558215179148
 40
0.2361442191030479
 40
0.2848298858464318
 40
0.3335133374636945
 40
0.3821950911464447
 40
0.4308756652187866
 40
0.4795555787921841
 40
0.5282353514191744
 40
0.5769155027464384
 40
0.625596552167727
 40
0.674279018477162
 40
0.7229634195234184
 40
0.7716502718652765
 40
0.8203400904290704
 40
0.8690332576422918
 40
0.9177252224863826
 40
0.9664138956661386
 40
1.0
 40
1.0
 40
1.0
 40
1.0
 10
33.3235509008654
 20
15.84597500466404
 30
0.0
 10
34.09967779815706
 20
15.82522556246158
 30
0.0
 10
35.78902496908238
 20
15.78006154146792
 30
0.0
 10
38.39174273932448
 20
15.14120610769302
 30
0.0
 10
41.1317180207075
 20
14.06673980091188
 30
0.0
 10
43.8715809997092
 20
12.56164768837347
 30
0.0
 10
46.61120183557678
 20
10.68690647198777
 30
0.0
 10
49.35059404348726
 20
8.493906372165629
 30
0.0
 10
52.08979880083587
 20
6.048956813335169
 30
0.0
 10
54.82886036614365
 20
3.424363071407487
 30
0.0
 10
57.5678223169055
 20
0.6981505449892614
 30
0.0
 10
60.30672851816782
 20
-2.04875034779293
 30
0.0
 10
63.04562281378856
 20
-4.734768920047836
 30
0.0
 10
65.78454909583961
 20
-7.280152080209827
 30
0.0
 10
68.52355113829748
 20
-9.609307214200864
 30
0.0
 10
71.26267299537966
 20
-11.65309214756897
 30
0.0
 10
74.00195737715221
 20
-13.35069456650385
 30
0.0
 10
76.74145155237022
 20
-14.6520736546293
 30
0.0
 10
79.48118271575791
 20
-15.51706715873228
 30
0.0
 10
82.22114814067982
 20
-15.92544808935064
 30
0.0
 10
84.9610307791708
 20
-15.84449603274062
 30
0.0
 10
87.41746671175707
 20
-15.40425842821114
 30
0.0
 10
88.96057481374203
 20
-14.80292144226682
 30
0.0
 10
89.59050042737387
 20
-14.55744442780278
 30
0.0
  0
SPLINE
  5
CA
330
1F
100
AcDbEntity
  8
외형선
  6
Continuous
 62
     1
370
    15
100
AcDbSpline
210
0.0
220
0.0
230
1.0
 70
     8
 71
     3
 72
    19
 73
    15
 74
     0
 42
0.000000001
 43
0.00000001
 40
0.0
 40
0.0
 40
0.0
 40
0.0
 40
0.0382192754526373
 40
0.1256513494901626
 40
0.2130811344703058
 40
0.3005095624958972
 40
0.3879375665758664
 40
0.4753660800023006
 40
0.5627960357270928
 40
0.6502283657390812
 40
0.7376640004426079
 40
0.8251038680383834
 40
0.9125488939075748
 40
1.0
 40
1.0
 40
1.0
 40
1.0
 10
133.0714813984828
 20
15.81796356874132
 30
0.0
 10
133.4706016950014
 20
15.83138676591241
 30
0.0
 10
134.7827669119645
 20
15.87551745177823
 30
0.0
 10
137.0078963961982
 20
15.44979734341717
 30
0.0
 10
139.7468759518496
 20
14.5695944505481
 30
0.0
 10
142.4857883685978
 20
13.22922863566122
 30
0.0
 10
145.2246817534501
 20
11.50337552040852
 30
0.0
 10
147.9635988507366
 20
9.433959352819446
 30
0.0
 10
150.702583767291
 20
7.084839935956574
 30
0.0
 10
153.4416804147419
 20
4.525416364092469
 30
0.0
 10
156.1809318178444
 20
1.830652857502395
 30
0.0
 10
158.9203842422485
 20
-0.9149721771115032
 30
0.0
 10
161.6600711778471
 20
-3.646741246721806
 30
0.0
 10
163.4866692255306
 20
-5.362646543188291
 30
0.0
 10
164.3999999999999
 20
-6.220629017945234
 30
0.0
  0
SPLINE
  5
CB
330
1F
100
AcDbEntity
  8
외형선
  6
Continuous
 62
     1
370
    15
100
AcDbSpline
210
0.0
220
0.0
230
1.0
 70
     8
 71
     3
 72
    17
 73
    13
 74
     0
 42
0.000000001
 43
0.00000001
 40
0.0
 40
0.0
 40
0.0
 40
0.0
 40
0.1098659412144928
 40
0.2197242437668989
 40
0.3295760659145525
 40
0.4394225702256233
 40
0.5492649228105176
 40
0.6591042925480912
 40
0.7689418503078215
 40
0.8787787681690847
 40
0.988616218638648
 40
1.0
 40
1.0
 40
1.0
 40
1.0
 10
164.3999999999999
 20
6.22277887539332
 30
0.0
 10
163.4866692255783
 20
7.045017630048386
 30
0.0
 10
161.6600711779903
 20
8.689437971468893
 30
0.0
 10
158.9203842416757
 20
10.84848419632611
 30
0.0
 10
156.1809318199921
 20
12.69858732726971
 30
0.0
 10
153.4416804067239
 20
14.16773354059945
 30
0.0
 10
150.7025837972133
 20
15.21789461945042
 30
0.0
 10
147.9635987390692
 20
15.81271220214008
 30
0.0
 10
145.2246821701906
 20
15.94974744886742
 30
0.0
 10
142.4857868133074
 20
15.56930140597952
 30
0.0
 10
140.5652394324045
 20
15.09297869859835
 30
0.0
 10
139.5576406576009
 20
14.62944364583746
 30
0.0
 10
139.4630179254352
 20
14.58591346870387
 30
0.0
  0
SPLINE
  5
CC
330
1F
100
AcDbEntity
  8
외형선
  6
Continuous
 62
     1
370
    15
100
AcDbSpline
210
0.0
220
0.0
230
1.0
 70
     8
 71
     3
 72
    29
 73
    25
 74
     0
 42
0.000000001
 43
0.00000001
 40
0.0
 40
0.0
 40
0.0
 40
0.0
 40
0.0011725909117361
 40
0.0498546434126859
 40
0.0985384412345482
 40
0.1472245014498661
 40
0.1959133396238667
 40
0.244605469473357
 40
0.2932988016960525
 40
0.3419887852579723
 40
0.390675802587905
 40
0.4393603686139284
 40
0.4880429998965747
 40
0.5367242142862717
 40
0.585404530578902
 40
0.6340844681699754
 40
0.6827645467079332
 40
0.731445285747074
 40
0.7801272044006204
 40
0.828810820994434
 40
0.877496652721873
 40
0.926185215300317
 40
0.9748770226298323
 40
1.0
 40
1.0
 40
1.0
 40
1.0
 10
95.98437137854629
 20
-15.86838267265421
 30
0.0
 10
95.96237995810556
 20
-15.8702246971229
 30
0.0
 10
95.02737831922403
 20
-15.94854141621457
 30
0.0
 10
93.17930478283847
 20
-15.66951156981766
 30
0.0
 10
90.44008760446373
 20
-14.99899561551261
 30
0.0
 10
87.7006750237404
 20
-13.82707165816965
 30
0.0
 10
84.96103241383615
 20
-12.25933816130277
 30
0.0
 10
82.22114770264687
 20
-10.3233834829986
 30
0.0
 10
79.48118283312091
 20
-8.081850894064637
 30
0.0
 10
76.74145152092606
 20
-5.599897055554104
 30
0.0
 10
74.00195738557652
 20
-2.9517356829414
 30
0.0
 10
71.26267299312397
 20
-0.2159156531356922
 30
0.0
 10
68.52355113889618
 20
2.526288290998276
 30
0.0
 10
65.78454909570036
 20
5.193455696899206
 30
0.0
 10
63.04562281374671
 20
7.70639265488201
 30
0.0
 10
60.30672851847455
 20
9.990475502401214
 30
0.0
 10
57.56782231572061
 20
11.97792213314997
 30
0.0
 10
54.82886037057673
 20
13.60957035412421
 30
0.0
 10
52.08979878428789
 20
14.83749897889806
 30
0.0
 10
49.35059410524958
 20
15.62321435615297
 30
0.0
 10
46.61120160505985
 20
15.95086774723822
 30
0.0
 10
43.87158186008676
 20
15.78266068186204
 30
0.0
 10
41.57382076719879
 20
15.31765244307261
 30
0.0
 10
40.18927416218812
 20
14.74626793178742
 30
0.0
 10
39.71804156065517
 20
14.55179632010305
 30
0.0
  0
SPLINE
  5
CD
330
1F
100
AcDbEntity
  8
외형선
  6
Continuous
 62
     1
370
    15
100
AcDbSpline
210
0.0
220
0.0
230
1.0
 70
     8
 71
     3
 72
    17
 73
    13
 74
     0
 42
0.000000001
 43
0.00000001
 40
0.0
 40
0.0
 40
0.0
 40
0.0
 40
0.109266884729878
 40
0.2185353512381429
 40
0.3278052768767141
 40
0.4370765387604364
 40
0.546349013786867
 40
0.655622578656169
 40
0.7544591832298346
 40
0.8533008600892318
 40
0.9521486542695141
 40
1.0
 40
1.0
 40
1.0
 40
1.0
 10
11.99999999999995
 20
-3.579677978476449
 30
0.0
 10
13.00956831347226
 20
-4.550698904089258
 30
0.0
 10
15.02871955521382
 20
-6.492754812088956
 30
0.0
 10
18.05749651074343
 20
-9.135319969314168
 30
0.0
 10
21.0863281884946
 20
-11.45568148773834
 30
0.0
 10
24.11523180507231
 20
-13.35760512784919
 30
0.0
 10
27.14412628502501
 20
-14.7758915363483
 30
0.0
 10
30.07683841026564
 20
-15.62770146454828
 30
0.0
 10
32.91244030255321
 20
-15.95142200961903
 30
0.0
 10
35.65199782654201
 20
-15.76712862354361
 30
0.0
 10
37.92052338816255
 20
-15.29877950974553
 30
0.0
 10
39.27592668622921
 20
-14.73390210363346
 30
0.0
 10
39.71804156065507
 20
-14.54964646265526
 30
0.0
  0
SPLINE
  5
CE
330
1F
100
AcDbEntity
  8
외형선
  6
Continuous
 62
     1
370
    15
100
AcDbSpline
210
0.0
220
0.0
230
1.0
 70
     8
 71
     3
 72
    28
 73
    24
 74
     0
 42
0.000000001
 43
0.00000001
 40
0.0
 40
0.0
 40
0.0
 40
0.0
 40
0.0313414002811132
 40
0.0800307191462646
 40
0.1287172600253073
 40
0.1774015384885583
 40
0.2260840716136653
 40
0.2747653776422952
 40
0.3234459756351242
 40
0.3721263851256328
 40
0.4208071257732055
 40
0.4694887170160483
 40
0.5181716777244286
 40
0.5668565258547503
 40
0.6155437781049564
 40
0.6642339495717753
 40
0.7129275207783182
 40
0.7616204581584821
 40
0.8103100569240931
 40
0.8589968306109325
 40
0.9076812946343096
 40
0.9563639659481771
 40
1.0
 40
1.0
 40
1.0
 40
1.0
 10
83.19750697284312
 20
15.82190146434619
 30
0.0
 10
83.78536694207303
 20
15.82437279967409
 30
0.0
 10
85.28647588018018
 20
15.83068339019555
 30
0.0
 10
87.70067320122435
 20
15.30578782936186
 30
0.0
 10
90.44008754671387
 20
14.32696649688946
 30
0.0
 10
93.17930683608488
 20
12.90354254614981
 30
0.0
 10
95.91837990483076
 20
11.10206722554817
 30
0.0
 10
98.65734909262069
 20
8.969551472096807
 30
0.0
 10
101.3962585882948
 20
6.571067832778158
 30
0.0
 10
104.1351521454865
 20
3.977371715154118
 30
0.0
 10
106.8740736786163
 20
1.265602840794213
 30
0.0
 10
109.6130669657981
 20
-1.483752324979402
 30
0.0
 10
112.3521760437277
 20
-4.18904519195293
 30
0.0
 10
115.0914437278409
 20
-6.76994288237178
 30
0.0
 10
117.8309169402961
 20
-9.149785100471115
 30
0.0
 10
120.5706260683752
 20
-11.25790283037761
 30
0.0
 10
123.3105749386078
 20
-13.03150587332152
 30
0.0
 10
126.0504816934951
 20
-14.4182031093173
 30
0.0
 10
128.7901464657539
 20
-15.37580857438238
 30
0.0
 10
131.5295785065591
 20
-15.87951455735841
 30
0.0
 10
134.2688135528377
 20
-15.90083856519781
 30
0.0
 10
136.9132759441267
 20
-15.50399642241053
 30
0.0
 10
138.6446527224534
 20
-14.87912154033734
 30
0.0
 10
139.4630179254351
 20
-14.58376361125607
 30
0.0
  0
SPLINE
  5
CF
330
1F
100
AcDbEntity
  8
외형선
  6
Continuous
370
    15
100
AcDbSpline
210
0.0
220
0.0
230
1.0
 70
    24
 71
     3
 72
    34
 73
    30
 74
     0
 42
0.000000001
 43
0.00000001
 40
0.0
 40
0.0
 40
0.0
 40
0.0
 40
0.1249999999999992
 40
0.1249999999999992
 40
0.1562499999999992
 40
0.1562499999999992
 40
0.1874999999999993
 40
0.1874999999999993
 40
0.2499999999999994
 40
0.2499999999999994
 40
0.3749999999999996
 40
0.3749999999999996
 40
0.4999999999999997
 40
0.4999999999999997
 40
0.5624999999999997
 40
0.5624999999999997
 40
0.6249999999999997
 40
0.6249999999999997
 40
0.6874999999999998
 40
0.6874999999999998
 40
0.7499999999999998
 40
0.7499999999999998
 40
0.8124999999999998
 40
0.8124999999999998
 40
0.8749999999999999
 40
0.8749999999999999
 40
0.9375
 40
0.9375
 40
1.0
 40
1.0
 40
1.0
 40
1.0
 10
11.99999999999997
 20
8.673245040088178
 30
0.0
 10
11.99999999999998
 20
8.451663355255803
 30
0.0
 10
11.99999999999995
 20
8.175158469597136
 30
0.0
 10
11.99999999999995
 20
7.814443894891427
 30
0.0
 10
11.99999999999995
 20
7.741424383905056
 30
0.0
 10
11.99999999999994
 20
7.594507426847352
 30
0.0
 10
11.99999999999995
 20
7.519112132709833
 30
0.0
 10
11.99999999999997
 20
7.275900562028629
 30
0.0
 10
11.99999999999997
 20
7.095039351251192
 30
0.0
 10
11.99999999999997
 20
6.487297944064418
 30
0.0
 10
11.99999999999991
 20
5.993696068075079
 30
0.0
 10
11.99999999999994
 20
4.801932906978335
 30
0.0
 10
11.99999999999995
 20
4.101308497601996
 30
0.0
 10
11.99999999999998
 20
2.934372852598105
 30
0.0
 10
11.99999999999998
 20
2.526997479047072
 30
0.0
 10
11.99999999999999
 20
1.694871427135125
 30
0.0
 10
11.99999999999997
 20
1.270210048031507
 30
0.0
 10
11.99999999999995
 20
0.4307454879076495
 30
0.0
 10
11.99999999999994
 20
0.0161368674545611
 30
0.0
 10
11.99999999999995
 20
-0.7724541805318174
 30
0.0
 10
11.99999999999994
 20
-1.146201201481906
 30
0.0
 10
11.99999999999994
 20
-1.825532198622574
 30
0.0
 10
11.99999999999994
 20
-2.130946821529467
 30
0.0
 10
11.99999999999994
 20
-2.65579619384556
 30
0.0
 10
11.99999999999994
 20
-2.875201393431236
 30
0.0
 10
11.99999999999994
 20
-3.223132444890504
 30
0.0
 10
11.99999999999997
 20
-3.351757860675822
 30
0.0
 10
11.99999999999995
 20
-3.524975334962356
 30
0.0
 10
11.99999999999999
 20
-3.569724063154698
 30
0.0
 10
11.99999999999995
 20
-3.579677978476441
 30
0.0
  0
SPLINE
  5
D0
330
1F
100
AcDbEntity
  8
외형선
  6
Continuous
 62
     1
370
    15
100
AcDbSpline
210
0.0
220
0.0
230
1.0
 70
     8
 71
     3
 72
    29
 73
    25
 74
     0
 42
0.000000001
 43
0.00000001
 40
0.0
 40
0.0
 40
0.0
 40
0.0
 40
0.0112184210095366
 40
0.059898453894429
 40
0.1085787228328274
 40
0.1572597473253851
 40
0.2059420463682405
 40
0.254626138106897
 40
0.3033125394913546
 40
0.3520017659329808
 40
0.4006943309636292
 40
0.4493875298158106
 40
0.4980773289542649
 40
0.5467642088984291
 40
0.595448684741093
 40
0.6441312731762491
 40
0.6928124921563391
 40
0.7414928605476635
 40
0.7901728977844567
 40
0.8388531235221284
 40
0.8875340572901863
 40
0.9362162181453386
 40
0.9849001243252883
 40
1.0
 40
1.0
 40
1.0
 40
1.0
 10
145.8558618668056
 20
-15.83206448602311
 30
0.0
 10
145.6454670832667
 20
-15.84483558571167
 30
0.0
 10
144.5221073670708
 20
-15.91302424837879
 30
0.0
 10
142.4857892303771
 20
-15.57013656327189
 30
0.0
 10
139.7468751974005
 20
-14.79219325364057
 30
0.0
 10
137.0078985522613
 20
-13.53586180026895
 30
0.0
 10
134.2688139030305
 20
-11.88793287088392
 30
0.0
 10
131.529578412719
 20
-9.884059144043462
 30
0.0
 10
128.7901464909005
 20
-7.587282430811085
 30
0.0
 10
126.0504816867559
 20
-5.064830328417973
 30
0.0
 10
123.310574940415
 20
-2.391938805413375
 30
0.0
 10
120.5706260678857
 20
0.352029924727821
 30
0.0
 10
117.8309169404469
 20
3.085595177690543
 30
0.0
 10
115.0914437277273
 20
5.727449261523106
 30
0.0
 10
112.3521760440314
 20
8.199161194397869
 30
0.0
 10
109.6130669646971
 20
10.42732746242201
 30
0.0
 10
106.8740736827161
 20
12.34585249422197
 30
0.0
 10
104.1351521301886
 20
13.89757576176442
 30
0.0
 10
101.3962586453867
 20
15.03718779165549
 30
0.0
 10
98.65734887954893
 20
15.72801730467665
 30
0.0
 10
95.91838070004674
 20
15.96012008479565
 30
0.0
 10
93.17930386817183
 20
15.68712210910269
 30
0.0
 10
91.07000852740812
 20
15.20761100838281
 30
0.0
 10
89.87370722926336
 20
14.68363736668081
 30
0.0
 10
89.59050042737374
 20
14.55959428525057
 30
0.0
  0
SPLINE
  5
D1
330
1F
100
AcDbEntity
  8
외형선
  6
Continuous
 62
     1
370
    15
100
AcDbSpline
210
0.0
220
0.0
230
1.0
 70
     8
 71
     3
 72
    19
 73
    15
 74
     0
 42
0.000000001
 43
0.00000001
 40
0.0
 40
0.0
 40
0.0
 40
0.0
 40
0.0656942896679912
 40
0.1460148886409539
 40
0.2263383012145425
 40
0.3066563818249525
 40
0.3869694918492608
 40
0.4672784804234396
 40
0.5560679477508792
 40
0.6448565295341488
 40
0.7336441255868351
 40
0.8224306358829134
 40
0.9112159605729131
 40
1.0
 40
1.0
 40
1.0
 40
1.0
 10
46.11250843239573
 20
-15.83877869199502
 30
0.0
 10
45.36555226795824
 20
-15.82245065572083
 30
0.0
 10
43.70533611034054
 20
-15.78615927620595
 30
0.0
 10
41.13171750687949
 20
-15.16590082099499
 30
0.0
 10
38.39173957759596
 20
-14.10608749849564
 30
0.0
 10
35.65199654479767
 20
-12.61354573520156
 30
0.0
 10
32.91244064481895
 20
-10.74997037784664
 30
0.0
 10
30.07683830771771
 20
-8.489417371716115
 30
0.0
 10
27.14412631365816
 20
-5.864798207748929
 30
0.0
 10
24.11523179740037
 20
-2.9414527429621
 30
0.0
 10
21.08632819054957
 20
0.090306307846323
 30
0.0
 10
18.05749651019546
 20
3.112750316050123
 30
0.0
 10
15.02871955535088
 20
6.044838213952492
 30
0.0
 10
13.00956831351794
 20
7.797113659084927
 30
0.0
 10
11.99999999999998
 20
8.67324504008808
 30
0.0
  0
LINE
  5
D2
330
1F
100
AcDbEntity
  8
외형선
  6
Continuous
 62
     1
370
    15
100
AcDbLine
 10
164.3999999999999
 20
15.76022792433027
 30
0.0
 11
164.3999999999999
 21
15.87607492872391
 31
0.0
  0
LINE
  5
D3
330
1F
100
AcDbEntity
  8
외형선
  6
Continuous
370
    15
100
AcDbLine
 10
11.99999999999998
 20
-15.85051349935469
 30
0.0
 11
11.99999999999997
 21
-15.18315740035824
 31
0.0
  0
LINE
  5
D4
330
1F
100
AcDbEntity
  8
외형선
  6
Continuous
 62
     1
370
    15
100
AcDbLine
 10
164.3999999999999
 20
6.22277887539332
 30
0.0
 11
164.3999999999999
 21
9.538523977660978
 31
0.0
  0
LINE
  5
D5
330
1F
100
AcDbEntity
  8
외형선
  6
Continuous
 62
     1
370
    15
100
AcDbLine
 10
164.3999999999999
 20
-9.536374120213106
 30
0.0
 11
164.3999999999999
 21
-6.220629017945233
 31
0.0
  0
LINE
  5
D6
330
1F
100
AcDbEntity
  8
외형선
  6
Continuous
 62
     1
370
    15
100
AcDbLine
 10
164.3999999999999
 20
-15.87392507127612
 30
0.0
 11
164.3999999999999
 21
-15.75807806688247
 31
0.0
  0
LINE
  5
D7
330
1F
100
AcDbEntity
  8
외형선
  6
Continuous
370
    15
100
AcDbLine
 10
11.99999999999998
 20
8.673245040088176
 30
0.0
 11
11.99999999999995
 21
11.60455435060563
 31
0.0
  0
LINE
  5
D8
330
1F
100
AcDbEntity
  8
외형선
  6
Continuous
370
    15
100
AcDbLine
 10
11.99999999999998
 20
-7.178343387990446
 30
0.0
 11
11.99999999999995
 21
-3.579677978476451
 31
0.0
  0
SPLINE
  5
D9
330
1F
100
AcDbEntity
  8
외형선
  6
Continuous
370
    15
100
AcDbSpline
210
0.0
220
0.0
230
1.0
 70
     8
 71
     3
 72
     8
 73
     4
 74
     0
 42
0.000000001
 43
0.00000001
 40
0.0
 40
0.0
 40
0.0
 40
0.0
 40
1.0
 40
1.0
 40
1.0
 40
1.0
 10
11.99999999999994
 20
15.85266335680232
 30
0.0
 10
11.66722792193796
 20
15.83456111513126
 30
0.0
 10
11.33442100299511
 20
15.80597359881463
 30
0.0
 10
11.0003126352931
 20
15.76687950895862
 30
0.0
  0
LINE
  5
DA
330
1F
100
AcDbEntity
  8
외형선
  6
Continuous
370
    15
100
AcDbLine
 10
11.0003126352931
 20
12.2639927098393
 30
0.0
 11
11.0003126352931
 21
15.8760749287239
 31
0.0
  0
SPLINE
  5
DB
330
1F
100
AcDbEntity
  8
외형선
  6
Continuous
370
    15
100
AcDbSpline
210
0.0
220
0.0
230
1.0
 70
     8
 71
     3
 72
     8
 73
     4
 74
     0
 42
0.000000001
 43
0.00000001
 40
0.0
 40
0.0
 40
0.0
 40
0.0
 40
1.0
 40
1.0
 40
1.0
 40
1.0
 10
11.99999999999992
 20
11.60455435060562
 30
0.0
 10
11.66722792193794
 20
11.83211280936512
 30
0.0
 10
11.33442100299511
 20
12.05200476203494
 30
0.0
 10
11.00031263529309
 20
12.26403971833424
 30
0.0
  0
SPLINE
  5
DC
330
1F
100
AcDbEntity
  8
외형선
  6
Continuous
370
    15
100
AcDbSpline
210
0.0
220
0.0
230
1.0
 70
     8
 71
     3
 72
     8
 73
     4
 74
     0
 42
0.000000001
 43
0.00000001
 40
0.0
 40
0.0
 40
0.0
 40
0.0
 40
1.0
 40
1.0
 40
1.0
 40
1.0
 10
11.99999999999994
 20
8.673245040088114
 30
0.0
 10
11.66722792193796
 20
8.952536514743324
 30
0.0
 10
11.33442100299511
 20
9.22610220909975
 30
0.0
 10
11.0003126352931
 20
9.493720429228434
 30
0.0
  0
SPLINE
  5
DD
330
1F
100
AcDbEntity
  8
외형선
  6
Continuous
370
    15
100
AcDbSpline
210
0.0
220
0.0
230
1.0
 70
     8
 71
     3
 72
     8
 73
     4
 74
     0
 42
0.000000001
 43
0.00000001
 40
0.0
 40
0.0
 40
0.0
 40
0.0
 40
1.0
 40
1.0
 40
1.0
 40
1.0
 10
11.99999999999992
 20
-3.579677978476449
 30
0.0
 10
11.66722792193794
 20
-3.254829846544177
 30
0.0
 10
11.33442100299511
 20
-2.927601459894388
 30
0.0
 10
11.00031263529309
 20
-2.598220973769605
 30
0.0
  0
SPLINE
  5
DE
330
1F
100
AcDbEntity
  8
외형선
  6
Continuous
370
    15
100
AcDbSpline
210
0.0
220
0.0
230
1.0
 70
     8
 71
     3
 72
     8
 73
     4
 74
     0
 42
0.000000001
 43
0.00000001
 40
0.0
 40
0.0
 40
0.0
 40
0.0
 40
1.0
 40
1.0
 40
1.0
 40
1.0
 10
11.99999999999994
 20
-7.178343387990341
 30
0.0
 10
11.66722792193796
 20
-6.880949671664071
 30
0.0
 10
11.33442100299511
 20
-6.578796460991009
 30
0.0
 10
11.0003126352931
 20
-6.272084151006309
 30
0.0
  0
LINE
  5
DF
330
1F
100
AcDbEntity
  8
외형선
  6
Continuous
370
    15
100
AcDbLine
 10
11.0003126352931
 20
-14.86121177883963
 30
0.0
 11
11.0003126352931
 21
-6.272006989944495
 31
0.0
  0
SPLINE
  5
E0
330
1F
100
AcDbEntity
  8
외형선
  6
Continuous
370
    15
100
AcDbSpline
210
0.0
220
0.0
230
1.0
 70
     8
 71
     3
 72
     8
 73
     4
 74
     0
 42
0.000000001
 43
0.00000001
 40
0.0
 40
0.0
 40
0.0
 40
0.0
 40
1.0
 40
1.0
 40
1.0
 40
1.0
 10
11.99999999999992
 20
-15.18315740035823
 30
0.0
 10
11.66722792193794
 20
-15.08586772718545
 30
0.0
 10
11.33442100299511
 20
-14.97853129320549
 30
0.0
 10
11.00031263529309
 20
-14.86118576338
 30
0.0
  0
SPLINE
  5
E1
330
1F
100
AcDbEntity
  8
외형선
  6
Continuous
370
    15
100
AcDbSpline
210
0.0
220
0.0
230
1.0
 70
     8
 71
     3
 72
     8
 73
     4
 74
     0
 42
0.000000001
 43
0.00000001
 40
0.0
 40
0.0
 40
0.0
 40
0.0
 40
1.0
 40
1.0
 40
1.0
 40
1.0
 10
11.99999999999994
 20
-15.85051349935453
 30
0.0
 10
11.66722792193796
 20
-15.83241125768347
 30
0.0
 10
11.33442100299511
 20
-15.80382374136684
 30
0.0
 10
11.0003126352931
 20
-15.76472965151082
 30
0.0
  0
LINE
  5
E2
330
1F
100
AcDbEntity
  8
외형선
  6
Continuous
370
    15
100
AcDbLine
 10
11.0003126352931
 20
-15.87392507127611
 30
0.0
 11
11.0003126352931
 21
-15.76471981621683
 31
0.0
  0
LINE
  5
E3
330
1F
100
AcDbEntity
  8
외형선
  6
Continuous
370
    15
100
AcDbLine
 10
-48.32500000000005
 20
0.0010749287238949
 30
0.0
 11
-48.32500000000005
 21
13.48847492872389
 31
0.0
  0
LINE
  5
E4
330
1F
100
AcDbEntity
  8
외형선
  6
Continuous
370
    15
100
AcDbLine
 10
-48.32500000000005
 20
-15.87392507127607
 30
0.0
 11
-48.32500000000005
 21
0.0010749287238949
 31
0.0
  0
LINE
  5
E5
330
1F
100
AcDbEntity
  8
외형선
  6
Continuous
370
    15
100
AcDbLine
 10
11.0003126352931
 20
-2.598293997724164
 30
0.0
 11
11.0003126352931
 21
9.493787754996259
 31
0.0
  0
LINE
  5
E6
330
1F
100
AcDbEntity
  8
외형선
  6
Continuous
370
    15
100
AcDbLine
 10
-51.50000000000005
 20
0.0010749287238949
 30
0.0
 11
-51.50000000000005
 21
12.70107492872391
 31
0.0
  0
LINE
  5
E7
330
1F
100
AcDbEntity
  8
외형선
  6
Continuous
370
    15
100
AcDbLine
 10
-51.50000000000005
 20
-12.69892507127612
 30
0.0
 11
-51.50000000000005
 21
0.0010749287238949
 31
0.0
  0
SPLINE
  5
E8
330
1F
100
AcDbEntity
  8
외형선
  6
Continuous
370
    15
100
AcDbSpline
210
0.0
220
0.0
230
1.0
 70
    24
 71
     3
 72
    34
 73
    30
 74
     0
 42
0.000000001
 43
0.00000001
 40
0.0
 40
0.0
 40
0.0
 40
0.0
 40
0.0625000000000001
 40
0.0625000000000001
 40
0.1250000000000003
 40
0.1250000000000003
 40
0.1875000000000004
 40
0.1875000000000004
 40
0.2500000000000006
 40
0.2500000000000006
 40
0.3125000000000007
 40
0.3125000000000007
 40
0.3750000000000008
 40
0.3750000000000008
 40
0.437500000000001
 40
0.437500000000001
 40
0.5000000000000011
 40
0.5000000000000011
 40
0.6250000000000013
 40
0.6250000000000013
 40
0.7500000000000017
 40
0.7500000000000017
 40
0.8125000000000017
 40
0.8125000000000017
 40
0.8437500000000016
 40
0.8437500000000016
 40
0.8750000000000013
 40
0.8750000000000013
 40
1.0
 40
1.0
 40
1.0
 40
1.0
 10
11.99999999999995
 20
-3.579677978476441
 30
0.0
 10
11.99999999999998
 20
-3.569724063154714
 30
0.0
 10
11.99999999999997
 20
-3.524975334962529
 30
0.0
 10
11.99999999999998
 20
-3.351757860676661
 30
0.0
 10
11.99999999999997
 20
-3.223132444891858
 30
0.0
 10
11.99999999999999
 20
-2.875201393433985
 30
0.0
 10
11.99999999999995
 20
-2.655796193849189
 30
0.0
 10
11.99999999999997
 20
-2.13094682153514
 30
0.0
 10
11.99999999999994
 20
-1.825532198629405
 30
0.0
 10
11.99999999999999
 20
-1.146201201491149
 30
0.0
 10
11.99999999999997
 20
-0.7724541805423077
 30
0.0
 10
11.99999999999992
 20
0.0161368674417075
 30
0.0
 10
11.99999999999994
 20
0.4307454878936848
 30
0.0
 10
11.99999999999998
 20
1.270210048015636
 30
0.0
 10
11.99999999999997
 20
1.69487142711846
 30
0.0
 10
11.99999999999997
 20
2.52699747902922
 30
0.0
 10
11.99999999999997
 20
2.934372852579858
 30
0.0
 10
11.99999999999995
 20
4.10130849758315
 30
0.0
 10
11.99999999999995
 20
4.801932906959864
 30
0.0
 10
11.99999999999994
 20
5.993696068058208
 30
0.0
 10
11.99999999999997
 20
6.48729794404874
 30
0.0
 10
11.99999999999997
 20
7.0950393512374
 30
0.0
 10
11.99999999999997
 20
7.275900562015484
 30
0.0
 10
11.99999999999998
 20
7.519112132697652
 30
0.0
 10
11.99999999999998
 20
7.594507426835685
 30
0.0
 10
11.99999999999995
 20
7.741424383893192
 30
0.0
 10
11.99999999999994
 20
7.814443894879484
 30
0.0
 10
11.99999999999995
 20
8.175158469584971
 30
0.0
 10
11.99999999999997
 20
8.45166335524392
 30
0.0
 10
11.99999999999995
 20
8.67324504007766
 30
0.0
  0
SPLINE
  5
E9
330
1F
100
AcDbEntity
  8
외형선
  6
Continuous
370
    15
100
AcDbSpline
210
0.0
220
0.0
230
1.0
 70
    24
 71
     3
 72
    15
 73
    11
 74
     0
 42
0.000000001
 43
0.00000001
 40
0.0
 40
0.0
 40
0.0
 40
0.0
 40
0.2057467867015722
 40
0.3294410514057999
 40
0.4531353161100279
 40
0.576829580814256
 40
0.7005238455184839
 40
0.824218110222712
 40
0.9479123749269397
 40
1.0
 40
1.0
 40
1.0
 40
1.0
 10
11.99999999999992
 20
-15.18315740035823
 30
0.0
 10
11.99999999999998
 20
-14.63738803488016
 30
0.0
 10
12.00000000000005
 20
-13.76350399289527
 30
0.0
 10
11.99999999999999
 20
-12.45545893554979
 30
0.0
 10
11.99999999999995
 20
-11.38252883789607
 30
0.0
 10
11.99999999999992
 20
-10.33069001459593
 30
0.0
 10
11.99999999999988
 20
-9.327786286613888
 30
0.0
 10
11.99999999999991
 20
-8.414894028086092
 30
0.0
 10
11.99999999999999
 20
-7.737092227963188
 30
0.0
 10
11.99999999999995
 20
-7.422746322573021
 30
0.0
 10
11.99999999999995
 20
-7.329599459241653
 30
0.0
  0
SPLINE
  5
EA
330
1F
100
AcDbEntity
  8
외형선
  6
Continuous
370
    15
100
AcDbSpline
210
0.0
220
0.0
230
1.0
 70
    24
 71
     3
 72
    12
 73
     8
 74
     0
 42
0.000000001
 43
0.00000001
 40
0.0
 40
0.0
 40
0.0
 40
0.0
 40
0.0990056632401135
 40
0.3539459156804943
 40
0.6017012467361219
 40
0.8566414991764982
 40
1.0
 40
1.0
 40
1.0
 40
1.0
 10
11.99999999999995
 20
11.75581042185684
 30
0.0
 10
11.99999999999994
 20
11.87487821304526
 30
0.0
 10
11.99999999999998
 20
12.30054637182556
 30
0.0
 10
11.99999999999995
 20
13.1133463119612
 30
0.0
 10
11.99999999999998
 20
14.16612589259609
 30
0.0
 10
11.9999999999999
 20
15.08913136437697
 30
0.0
 10
11.99999999999995
 20
15.65058205732724
 30
0.0
 10
11.99999999999995
 20
15.85266335677418
 30
0.0
  0
LINE
  5
EB
330
1F
100
AcDbEntity
  8
중심선
 62
     1
100
AcDbLine
 10
-54.50000000000004
 20
0.0010749287238888
 30
0.0
 11
167.3999999999999
 21
0.0010749287239168
 31
0.0
  0
LINE
  5
EC
330
1F
100
AcDbEntity
  8
참조1
100
AcDbLine
 10
65.97500000000004
 20
0.0010749287238892
 30
0.0
 11
65.97500000000004
 21
-39.99892507127611
 31
0.0
  0
LINE
  5
ED
330
1F
100
AcDbEntity
  8
참조1
100
AcDbLine
 10
65.97500000000004
 20
-39.99892507127611
 30
0.0
 11
-9.508856814308633
 21
-39.9989250712761
 31
0.0
  0
CIRCLE
  5
EE
330
1F
100
AcDbEntity
  8
해칭선
100
AcDbCircle
 10
0.0
 20
0.0
 30
0.0
 40
3.000000000000001
  0
INSERT
  5
EF
330
1F
100
AcDbEntity
  8
0
  6
Continuous
 62
     7
100
AcDbBlockReference
 66
     1
  2
블럭10
 10
42.50972706787473
 20
-52.04609937292004
 30
0.0
  0
ATTRIB
  5
F0
330
EF
100
AcDbEntity
  8
FORMAT
 62
     2
100
AcDbText
 10
33.32843177913345
 20
-49.97073246008785
 30
0.0
 40
4.233333333333333
  1
E2175116 [ 6 FLUTE ]
 41
0.75
  7
SLDTEXTSTYLE0
 11
33.32843177913345
 21
-52.08739912675452
 31
0.0
100
AcDbAttribute
  2
AUTOATTR0
 70
     0
 74
     1
  0
SEQEND
  5
F1
330
EF
100
AcDbEntity
  8
0
  6
Continuous
 62
     7
  0
HATCH
  5
F2
330
1F
100
AcDbEntity
  8
중심선
100
AcDbHatch
 10
0.0
 20
0.0
 30
0.0
210
0.0
220
0.0
230
1.0
  2
SOLID
 70
     1
 71
     0
 91
        1
 92
        0
 93
        4
 72
     1
 10
48.22463637225558
 20
-35.7989250712761
 11
44.7783611284183
 21
-35.7989250712761
 72
     1
 10
44.7783611284183
 20
-35.7989250712761
 11
42.65013126921433
 21
-38.33525065184867
 72
     1
 10
42.65013126921433
 20
-38.33525065184867
 11
46.09643959816465
 21
-38.33521122254619
 72
     1
 10
46.09643959816465
 20
-38.33521122254619
 11
48.22463637225558
 21
-35.7989250712761
 97
        0
 75
     0
 76
     1
 98
        1
 10
-9.525000000000086
 20
0.0
  0
HATCH
  5
F3
330
1F
100
AcDbEntity
  8
중심선
100
AcDbHatch
 10
0.0
 20
0.0
 30
0.0
210
0.0
220
0.0
230
1.0
  2
SOLID
 70
     1
 71
     0
 91
        1
 92
        0
 93
        4
 72
     1
 10
53.23740036329158
 20
-35.79892507127608
 11
49.79112511945425
 21
-35.79892507127608
 72
     1
 10
49.79112511945425
 20
-35.79892507127608
 11
45.25998711109683
 21
-41.19892507127612
 72
     1
 10
45.25998711109683
 20
-41.19892507127612
 11
48.70626235493412
 21
-41.19892507127612
 72
     1
 10
48.70626235493412
 20
-41.19892507127612
 11
53.23740036329158
 21
-35.79892507127608
 97
        0
 75
     0
 76
     1
 98
        1
 10
-9.525000000000086
 20
0.0
  0
HATCH
  5
F4
330
1F
100
AcDbEntity
  8
중심선
100
AcDbHatch
 10
0.0
 20
0.0
 30
0.0
210
0.0
220
0.0
230
1.0
  2
SOLID
 70
     1
 71
     0
 91
        1
 92
        0
 93
        4
 72
     1
 10
58.25016435432749
 20
-35.79892507127608
 11
54.80388911049031
 21
-35.79892507127608
 72
     1
 10
54.80388911049031
 20
-35.79892507127608
 11
47.75545220860104
 21
-44.19892507127612
 72
     1
 10
47.75545220860104
 20
-44.19892507127612
 11
51.20172745243832
 21
-44.19892507127612
 72
     1
 10
51.20172745243832
 20
-44.19892507127612
 11
58.25016435432749
 21
-35.79892507127608
 97
        0
 75
     0
 76
     1
 98
        1
 10
-9.525000000000086
 20
0.0
  0
HATCH
  5
F5
330
1F
100
AcDbEntity
  8
중심선
100
AcDbHatch
 10
0.0
 20
0.0
 30
0.0
210
0.0
220
0.0
230
1.0
  2
SOLID
 70
     1
 71
     0
 91
        1
 92
        0
 93
        6
 72
     3
 10
63.05005478533963
 20
-39.99892507132738
 11
3.960054785062276
 21
1.540882976769353E-10
 40
0.3939339440162635
 50
17.09539180608455
 51
320.0019657685068
 73
     0
 72
     1
 10
64.73305444104018
 20
-38.58681907591438
 11
67.03835631474116
 21
-36.65249236586649
 72
     3
 10
63.05005478528678
 20
-39.99892507127625
 11
6.600054785286822
 21
-1.278976924368180E-13
 40
0.6363583540795986
 50
39.99873849337487
 51
368.4976242363724
 73
     1
 72
     1
 10
69.47538727718735
 20
-39.03892507120613
 11
61.73012209212267
 21
-39.03892507120613
 72
     1
 10
61.73012209212268
 20
-39.03892507120613
 11
61.73009704767677
 21
-40.95892507120602
 72
     1
 10
61.73009704767677
 20
-40.95892507120602
 11
66.17147681714877
 21
-40.95892507120599
 97
        0
 75
     0
 76
     1
 98
        1
 10
-9.525000000000086
 20
0.0
  0
DIMENSION
  5
F6
330
1F
100
AcDbEntity
  8
치수문자_일반주서
100
AcDbDimension
  2
_D
 10
-62.91249999999999
 20
-15.87392507127616
 30
0.0
 11
-62.91250000000004
 21
0.001074928723887
 31
0.0
 70
   160
  1
%%c<>
 71
     2
 42
31.75
 52
-270.0
  3
SLDDIMSTYLE1
100
AcDbAlignedDimension
 13
-51.50000000000005
 23
15.87607492872388
 33
0.0
 14
-48.32500000000004
 24
-15.87392507127611
 34
0.0
 50
90.0000000000002
100
AcDbRotatedDimension
1001
ACAD
1000
DSTYLE
1002
{
1070
   171
1070
     6
1070
   273
1070
     7
1002
}
  0
DIMENSION
  5
109
330
1F
100
AcDbEntity
  8
치수문자_일반주서
100
AcDbDimension
  2
_D_1
 10
11.99999999999999
 20
38.30021446492108
 30
0.0
 11
88.19999999999997
 21
38.30021446492108
 31
0.0
 70
   160
  1
<>
 71
     2
 42
152.3999999999999
  3
SLDDIMSTYLE1
100
AcDbAlignedDimension
 13
164.3999999999999
 23
15.76022792433027
 33
0.0
 14
11.99999999999998
 24
15.85266335680249
 34
0.0
 50
-0.0000000000000427
100
AcDbRotatedDimension
1001
ACAD
1000
DSTYLE
1002
{
1070
   171
1070
     6
1070
   273
1070
     7
1002
}
  0
DIMENSION
  5
11D
330
1F
100
AcDbEntity
  8
치수문자_일반주서
100
AcDbDimension
  2
_D_2
 10
-51.50000000000005
 20
50.30021446492103
 30
0.0
 11
56.44999999999995
 21
50.30021446492103
 31
0.0
 70
   160
  1
<>
 71
     2
 42
215.9
  3
SLDDIMSTYLE1
100
AcDbAlignedDimension
 13
164.3999999999999
 23
15.76022792433027
 33
0.0
 14
-51.50000000000005
 24
12.70107492872391
 34
0.0
 50
0.0000000000000038
100
AcDbRotatedDimension
1001
ACAD
1000
DSTYLE
1002
{
1070
   171
1070
     6
1070
   273
1070
     7
1002
}
  0
DIMENSION
  5
130
330
1F
100
AcDbEntity
  8
치수문자_일반주서
100
AcDbDimension
  2
_D_3
 10
183.4679740764805
 20
-15.87392507127605
 30
0.0
 11
183.4679740764803
 21
47.86241921928277
 31
0.0
 70
   160
  1
%%c<>
 71
     2
 42
31.75000000000003
 52
-270.0
  3
SLDDIMSTYLE1
100
AcDbAlignedDimension
 13
164.3999999999999
 23
15.87607492872391
 33
0.0
 14
164.3999999999999
 24
-15.87392507127612
 34
0.0
 50
90.0000000000002
100
AcDbRotatedDimension
1001
ACAD
1000
DSTYLE
1002
{
1070
   171
1070
     6
1070
   273
1070
     7
1002
}
  0
LINE
  5
143
330
1F
100
AcDbEntity
  8
참조1
100
AcDbLine
 10
88.46348381534564
 20
7.441074928723896
 30
0.0
 11
88.46348381534564
 21
-7.438925071276109
 31
0.0
  0
LINE
  5
144
330
1F
100
AcDbEntity
  8
참조1
100
AcDbLine
 10
101.1634838153456
 20
5.441074928723896
 30
0.0
 11
88.46348381534564
 21
5.441074928723896
 31
0.0
  0
SOLID
  5
145
330
1F
100
AcDbEntity
  8
참조1
100
AcDbTrace
 10
88.46348381534564
 20
5.441074928723896
 30
0.0
 11
94.81348381534563
 21
4.425074928723896
 31
0.0
 12
94.81348381534563
 22
6.457074928723896
 32
0.0
 13
94.81348381534563
 23
6.457074928723896
 33
0.0
  0
LINE
  5
146
330
1F
100
AcDbEntity
  8
참조1
100
AcDbLine
 10
101.1634838153456
 20
-5.438925071276109
 30
0.0
 11
88.46348381534564
 21
-5.438925071276109
 31
0.0
  0
SOLID
  5
147
330
1F
100
AcDbEntity
  8
참조1
100
AcDbTrace
 10
88.46348381534564
 20
-5.438925071276109
 30
0.0
 11
94.81348381534563
 21
-6.454925071276109
 31
0.0
 12
94.81348381534563
 22
-4.422925071276109
 32
0.0
 13
94.81348381534563
 23
-4.422925071276109
 33
0.0
  0
MTEXT
  5
148
330
1F
100
AcDbEntity
  8
참조1
100
AcDbMText
 10
97.8609739078159
 20
10.98929157337383
 30
0.0
 40
3.5
 41
0.0
 71
     1
 72
     1
  1
A
  7
SLDTEXTSTYLE0
 73
     1
 44
1.0
  0
MTEXT
  5
149
330
1F
100
AcDbEntity
  8
참조1
100
AcDbMText
 10
97.8609739078159
 20
0.1092915733738251
 30
0.0
 40
3.5
 41
0.0
 71
     1
 72
     1
  1
A
  7
SLDTEXTSTYLE0
 73
     1
 44
1.0
  0
INSERT
  5
150
330
1F
100
AcDbEntity
  8
해칭선
100
AcDbBlockReference
  2
SW_DOWELSYMBOL_0
 10
0.0
 20
0.0
 30
0.0
  0
LINE
  5
343
330
1F
100
AcDbEntity
  8
외형선
  6
Continuous
370
    15
100
AcDbLine
 10
-29.08132500000004
 20
13.48847492872389
 30
0.0
 11
-15.97492500000004
 21
13.48847492872389
 31
0.0
  0
LINE
  5
344
330
1F
100
AcDbEntity
  8
외형선
  6
Continuous
370
    15
100
AcDbLine
 10
-15.97492500000004
 20
13.48847492872389
 30
0.0
 11
-13.58732500000002
 21
15.87607492872391
 31
0.0
  0
LINE
  5
345
330
1F
100
AcDbEntity
  8
외형선
  6
Continuous
370
    15
100
AcDbLine
 10
-29.08132500000004
 20
13.48847492872389
 30
0.0
 11
-31.46892500000006
 21
15.87607492872391
 31
0.0
  0
LINE
  5
347
330
1F
100
AcDbEntity
  8
외형선
  6
Continuous
370
    15
100
AcDbLine
 10
-50.71260000000007
 20
13.48847492872389
 30
0.0
 11
-38.80000000000006
 21
13.48847492872389
 31
0.0
  0
LINE
  5
348
330
1F
100
AcDbEntity
  8
외형선
  6
Continuous
370
    15
100
AcDbLine
 10
-38.80000000000006
 20
13.48847492872389
 30
0.0
 11
-36.41240000000015
 21
15.87607492872388
 31
0.0
  0
LINE
  5
34A
330
1F
100
AcDbEntity
  8
외형선
  6
Continuous
370
    15
100
AcDbLine
 10
-31.46892500000005
 20
15.8760749287239
 30
0.0
 11
-36.41240000000013
 21
15.8760749287239
 31
0.0
  0
ENDSEC
  0
SECTION
  2
OBJECTS
  0
DICTIONARY
  5
C
330
0
100
AcDbDictionary
281
     1
  3
ACAD_GROUP
350
D
  3
ACAD_IMAGE_VARS
350
174
  3
ACAD_LAYOUT
350
1A
  3
ACAD_MLINESTYLE
350
17
  3
ACAD_PLOTSETTINGS
350
19
  3
ACAD_PLOTSTYLENAME
350
E
  3
ACAD_SCALELIST
350
47
  3
APPDATA
350
172
  3
DWGPROPS
350
36E
  0
DICTIONARY
  5
33A
330
2
100
AcDbDictionary
280
     1
281
     1
  3
ACAD_LAYERSTATES
360
33B
  0
DICTIONARY
  5
D
102
{ACAD_REACTORS
330
C
102
}
330
C
100
AcDbDictionary
281
     1
  0
RASTERVARIABLES
  5
174
102
{ACAD_REACTORS
330
C
102
}
330
C
100
AcDbRasterVariables
 90
        0
 70
     1
 71
     1
 72
     1
  0
DICTIONARY
  5
1A
102
{ACAD_REACTORS
330
C
102
}
330
C
100
AcDbDictionary
281
     1
  3
Layout1
350
1E
  3
Layout2
350
26
  3
Model
350
22
  0
DICTIONARY
  5
17
102
{ACAD_REACTORS
330
C
102
}
330
C
100
AcDbDictionary
281
     1
  3
Standard
350
18
  0
DICTIONARY
  5
19
102
{ACAD_REACTORS
330
C
102
}
330
C
100
AcDbDictionary
281
     1
  0
ACDBDICTIONARYWDFLT
  5
E
102
{ACAD_REACTORS
330
C
102
}
330
C
100
AcDbDictionary
281
     1
  3
Normal
350
F
100
AcDbDictionaryWithDefault
340
F
  0
DICTIONARY
  5
47
102
{ACAD_REACTORS
330
C
102
}
330
C
100
AcDbDictionary
281
     1
  3
A0
350
48
  3
A1
350
49
  3
A2
350
4A
  3
A3
350
4B
  3
A4
350
4C
  3
A5
350
4D
  3
A6
350
4E
  3
A7
350
4F
  3
A8
350
50
  3
A9
350
51
  3
B0
350
52
  3
B1
350
53
  3
B2
350
54
  3
B3
350
55
  3
B4
350
56
  3
B5
350
57
  3
B6
350
58
  3
B7
350
59
  3
B8
350
5A
  3
B9
350
5B
  3
C0
350
5C
  3
C1
350
5D
  3
C2
350
5E
  3
C3
350
5F
  3
C4
350
60
  3
C5
350
61
  3
C6
350
62
  3
C7
350
63
  3
C8
350
64
  3
C9
350
65
  3
D0
350
66
  3
D1
350
67
  3
D2
350
68
  0
DICTIONARY
  5
172
102
{ACAD_REACTORS
330
C
102
}
330
C
100
AcDbDictionary
281
     1
  0
XRECORD
  5
36E
102
{ACAD_REACTORS
330
C
102
}
330
C
100
AcDbXrecord
280
     1
  1
DWGPROPS COOKIE
  2

  3

  4

  6

  7

  8
12016016
  9

300
=
301
=
302
=
303
=
304
=
305
=
306
=
307
=
308
=
309
=
 40
0.0
 41
2458323.067592025
 42
2458323.370570417
  1

 90
        0
  0
DICTIONARY
  5
33B
102
{ACAD_REACTORS
330
33A
102
}
330
33A
100
AcDbDictionary
281
     1
  0
LAYOUT
  5
1E
102
{ACAD_REACTORS
330
1A
102
}
330
1A
100
AcDbPlotSettings
  1

  2
none_device
  4

  6

 40
0.0
 41
0.0
 42
0.0
 43
0.0
 44
0.0
 45
0.0
 46
0.0
 47
0.0
 48
0.0
 49
0.0
140
0.0
141
0.0
142
1.0
143
1.0
 70
   688
 72
     1
 73
     0
 74
     5
  7

 75
    16
147
1.0
148
0.0
149
0.0
100
AcDbLayout
  1
Layout1
 70
     1
 71
     1
 10
0.0
 20
0.0
 11
420.0
 21
297.0
 12
0.0
 22
0.0
 32
0.0
 14
1.000000000000000E+20
 24
1.000000000000000E+20
 34
1.000000000000000E+20
 15
-1.000000000000000E+20
 25
-1.000000000000000E+20
 35
-1.000000000000000E+20
146
0.0
 13
0.0
 23
0.0
 33
0.0
 16
1.0
 26
0.0
 36
0.0
 17
0.0
 27
1.0
 37
0.0
 76
     0
330
1B
  0
LAYOUT
  5
26
102
{ACAD_REACTORS
330
1A
102
}
330
1A
100
AcDbPlotSettings
  1

  2
none_device
  4

  6

 40
0.0
 41
0.0
 42
0.0
 43
0.0
 44
0.0
 45
0.0
 46
0.0
 47
0.0
 48
0.0
 49
0.0
140
0.0
141
0.0
142
1.0
143
1.0
 70
   688
 72
     1
 73
     0
 74
     5
  7

 75
    16
147
1.0
148
0.0
149
0.0
100
AcDbLayout
  1
Layout2
 70
     1
 71
     2
 10
0.0
 20
0.0
 11
0.0
 21
0.0
 12
0.0
 22
0.0
 32
0.0
 14
0.0
 24
0.0
 34
0.0
 15
0.0
 25
0.0
 35
0.0
146
0.0
 13
0.0
 23
0.0
 33
0.0
 16
1.0
 26
0.0
 36
0.0
 17
0.0
 27
1.0
 37
0.0
 76
     0
330
23
  0
LAYOUT
  5
22
102
{ACAD_REACTORS
330
1A
102
}
330
1A
100
AcDbPlotSettings
  1

  2
none_device
  4
ANSI_A_(11.00_x_8.50_Inches)
  6

 40
6.35
 41
19.05
 42
6.35000508
 43
19.05000254
 44
279.4
 45
215.9
 46
52.51662963774768
 47
84.25338633280148
 48
0.0
 49
0.0
140
0.0
141
0.0
142
0.0352535133557838
143
1.0
 70
  1696
 72
     0
 73
     0
 74
     0
  7

 75
     0
147
0.0235690232323232
148
0.0
149
0.0
100
AcDbLayout
  1
Model
 70
     1
 71
     0
 10
0.0
 20
0.0
 11
420.0
 21
297.0
 12
0.0
 22
0.0
 32
0.0
 14
-67.28750000000011
 24
-49.97073246008785
 34
0.0
 15
184.0183074098139
 25
63.61241921928277
 35
0.0
146
0.0
 13
0.0
 23
0.0
 33
0.0
 16
1.0
 26
0.0
 36
0.0
 17
0.0
 27
1.0
 37
0.0
 76
     0
330
1F
331
29
  0
MLINESTYLE
  5
18
102
{ACAD_REACTORS
330
17
102
}
330
17
100
AcDbMlineStyle
  2
Standard
 70
     0
  3

 62
   256
 51
90.0
 52
90.0
 71
     2
 49
0.5
 62
   256
  6
BYLAYER
 49
-0.5
 62
   256
  6
BYLAYER
  0
ACDBPLACEHOLDER
  5
F
102
{ACAD_REACTORS
330
E
102
}
330
E
  0
SCALE
  5
48
102
{ACAD_REACTORS
330
47
102
}
330
47
100
AcDbScale
 70
     0
300
1:1
140
1.0
141
1.0
290
     1
  0
SCALE
  5
49
102
{ACAD_REACTORS
330
47
102
}
330
47
100
AcDbScale
 70
     0
300
1:2
140
1.0
141
2.0
290
     0
  0
SCALE
  5
4A
102
{ACAD_REACTORS
330
47
102
}
330
47
100
AcDbScale
 70
     0
300
1:4
140
1.0
141
4.0
290
     0
  0
SCALE
  5
4B
102
{ACAD_REACTORS
330
47
102
}
330
47
100
AcDbScale
 70
     0
300
1:5
140
1.0
141
5.0
290
     0
  0
SCALE
  5
4C
102
{ACAD_REACTORS
330
47
102
}
330
47
100
AcDbScale
 70
     0
300
1:8
140
1.0
141
8.0
290
     0
  0
SCALE
  5
4D
102
{ACAD_REACTORS
330
47
102
}
330
47
100
AcDbScale
 70
     0
300
1:10
140
1.0
141
10.0
290
     0
  0
SCALE
  5
4E
102
{ACAD_REACTORS
330
47
102
}
330
47
100
AcDbScale
 70
     0
300
1:16
140
1.0
141
16.0
290
     0
  0
SCALE
  5
4F
102
{ACAD_REACTORS
330
47
102
}
330
47
100
AcDbScale
 70
     0
300
1:20
140
1.0
141
20.0
290
     0
  0
SCALE
  5
50
102
{ACAD_REACTORS
330
47
102
}
330
47
100
AcDbScale
 70
     0
300
1:30
140
1.0
141
30.0
290
     0
  0
SCALE
  5
51
102
{ACAD_REACTORS
330
47
102
}
330
47
100
AcDbScale
 70
     0
300
1:40
140
1.0
141
40.0
290
     0
  0
SCALE
  5
52
102
{ACAD_REACTORS
330
47
102
}
330
47
100
AcDbScale
 70
     0
300
1:50
140
1.0
141
50.0
290
     0
  0
SCALE
  5
53
102
{ACAD_REACTORS
330
47
102
}
330
47
100
AcDbScale
 70
     0
300
1:100
140
1.0
141
100.0
290
     0
  0
SCALE
  5
54
102
{ACAD_REACTORS
330
47
102
}
330
47
100
AcDbScale
 70
     0
300
2:1
140
2.0
141
1.0
290
     0
  0
SCALE
  5
55
102
{ACAD_REACTORS
330
47
102
}
330
47
100
AcDbScale
 70
     0
300
4:1
140
4.0
141
1.0
290
     0
  0
SCALE
  5
56
102
{ACAD_REACTORS
330
47
102
}
330
47
100
AcDbScale
 70
     0
300
8:1
140
8.0
141
1.0
290
     0
  0
SCALE
  5
57
102
{ACAD_REACTORS
330
47
102
}
330
47
100
AcDbScale
 70
     0
300
10:1
140
10.0
141
1.0
290
     0
  0
SCALE
  5
58
102
{ACAD_REACTORS
330
47
102
}
330
47
100
AcDbScale
 70
     0
300
100:1
140
100.0
141
1.0
290
     0
  0
SCALE
  5
59
102
{ACAD_REACTORS
330
47
102
}
330
47
100
AcDbScale
 70
     0
300
1/128" = 1'-0"
140
0.0078125
141
12.0
290
     0
  0
SCALE
  5
5A
102
{ACAD_REACTORS
330
47
102
}
330
47
100
AcDbScale
 70
     0
300
1/64" = 1'-0"
140
0.015625
141
12.0
290
     0
  0
SCALE
  5
5B
102
{ACAD_REACTORS
330
47
102
}
330
47
100
AcDbScale
 70
     0
300
1/32" = 1'-0"
140
0.03125
141
12.0
290
     0
  0
SCALE
  5
5C
102
{ACAD_REACTORS
330
47
102
}
330
47
100
AcDbScale
 70
     0
300
1/16" = 1'-0"
140
0.0625
141
12.0
290
     0
  0
SCALE
  5
5D
102
{ACAD_REACTORS
330
47
102
}
330
47
100
AcDbScale
 70
     0
300
3/32" = 1'-0"
140
0.09375
141
12.0
290
     0
  0
SCALE
  5
5E
102
{ACAD_REACTORS
330
47
102
}
330
47
100
AcDbScale
 70
     0
300
1/8" = 1'-0"
140
0.125
141
12.0
290
     0
  0
SCALE
  5
5F
102
{ACAD_REACTORS
330
47
102
}
330
47
100
AcDbScale
 70
     0
300
3/16" = 1'-0"
140
0.1875
141
12.0
290
     0
  0
SCALE
  5
60
102
{ACAD_REACTORS
330
47
102
}
330
47
100
AcDbScale
 70
     0
300
1/4" = 1'-0"
140
0.25
141
12.0
290
     0
  0
SCALE
  5
61
102
{ACAD_REACTORS
330
47
102
}
330
47
100
AcDbScale
 70
     0
300
3/8" = 1'-0"
140
0.375
141
12.0
290
     0
  0
SCALE
  5
62
102
{ACAD_REACTORS
330
47
102
}
330
47
100
AcDbScale
 70
     0
300
1/2" = 1'-0"
140
0.5
141
12.0
290
     0
  0
SCALE
  5
63
102
{ACAD_REACTORS
330
47
102
}
330
47
100
AcDbScale
 70
     0
300
3/4" = 1'-0"
140
0.75
141
12.0
290
     0
  0
SCALE
  5
64
102
{ACAD_REACTORS
330
47
102
}
330
47
100
AcDbScale
 70
     0
300
1" = 1'-0"
140
1.0
141
12.0
290
     0
  0
SCALE
  5
65
102
{ACAD_REACTORS
330
47
102
}
330
47
100
AcDbScale
 70
     0
300
1-1/2" = 1'-0"
140
1.5
141
12.0
290
     0
  0
SCALE
  5
66
102
{ACAD_REACTORS
330
47
102
}
330
47
100
AcDbScale
 70
     0
300
3" = 1'-0"
140
3.0
141
12.0
290
     0
  0
SCALE
  5
67
102
{ACAD_REACTORS
330
47
102
}
330
47
100
AcDbScale
 70
     0
300
6" = 1'-0"
140
6.0
141
12.0
290
     0
  0
SCALE
  5
68
102
{ACAD_REACTORS
330
47
102
}
330
47
100
AcDbScale
 70
     0
300
1'-0" = 1'-0"
140
12.0
141
12.0
290
     0
  0
ENDSEC
  0
EOF
