  0
SECTION
  2
HEADER
  9
$ACADVER
  1
AC1015
  9
$ACADMAINTVER
 70
     6
  9
$DWGCODEPAGE
  3
ANSI_949
  9
$INSBASE
 10
0.0
 20
0.0
 30
0.0
  9
$EXTMIN
 10
-77.2875000000001
 20
-49.97073246008785
 30
0.0
  9
$EXTMAX
 10
228.6319022251101
 20
71.87218807739454
 30
0.0
  9
$LIMMIN
 10
0.0
 20
0.0
  9
$LIMMAX
 10
420.0
 20
297.0
  9
$ORTHOMODE
 70
     1
  9
$REGENMODE
 70
     1
  9
$FILLMODE
 70
     1
  9
$QTEXTMODE
 70
     0
  9
$MIRRTEXT
 70
     1
  9
$LTSCALE
 40
1.0
  9
$ATTMODE
 70
     1
  9
$TEXTSIZE
 40
3.5
  9
$TRACEWID
 40
1.0
  9
$TEXTSTYLE
  7
Standard
  9
$CLAYER
  8
0
  9
$CELTYPE
  6
ByLayer
  9
$CECOLOR
 62
   256
  9
$CELTSCALE
 40
1.0
  9
$DISPSILH
 70
     0
  9
$DIMSCALE
 40
1.0
  9
$DIMASZ
 40
3.302
  9
$DIMEXO
 40
1.0
  9
$DIMDLI
 40
3.75
  9
$DIMRND
 40
0.0
  9
$DIMDLE
 40
0.0
  9
$DIMEXE
 40
1.0
  9
$DIMTP
 40
0.0
  9
$DIMTM
 40
0.0
  9
$DIMTXT
 40
3.5
  9
$DIMCEN
 40
2.5
  9
$DIMTSZ
 40
0.0
  9
$DIMTOL
 70
     0
  9
$DIMLIM
 70
     0
  9
$DIMTIH
 70
     1
  9
$DIMTOH
 70
     1
  9
$DIMSE1
 70
     0
  9
$DIMSE2
 70
     0
  9
$DIMTAD
 70
     1
  9
$DIMZIN
 70
     0
  9
$DIMBLK
  1

  9
$DIMASO
 70
     1
  9
$DIMSHO
 70
     1
  9
$DIMPOST
  1

  9
$DIMAPOST
  1

  9
$DIMALT
 70
     0
  9
$DIMALTD
 70
     3
  9
$DIMALTF
 40
0.0393700787401575
  9
$DIMLFAC
 40
1.0
  9
$DIMTOFL
 70
     1
  9
$DIMTVP
 40
0.0
  9
$DIMTIX
 70
     0
  9
$DIMSOXD
 70
     0
  9
$DIMSAH
 70
     0
  9
$DIMBLK1
  1

  9
$DIMBLK2
  1

  9
$DIMSTYLE
  2
ISO-25
  9
$DIMCLRD
 70
     0
  9
$DIMCLRE
 70
     0
  9
$DIMCLRT
 70
     0
  9
$DIMTFAC
 40
1.0
  9
$DIMGAP
 40
1.524
  9
$DIMJUST
 70
     0
  9
$DIMSD1
 70
     0
  9
$DIMSD2
 70
     0
  9
$DIMTOLJ
 70
     0
  9
$DIMTZIN
 70
     0
  9
$DIMALTZ
 70
     0
  9
$DIMALTTZ
 70
     0
  9
$DIMUPT
 70
     0
  9
$DIMDEC
 70
     2
  9
$DIMTDEC
 70
     2
  9
$DIMALTU
 70
     2
  9
$DIMALTTD
 70
     3
  9
$DIMTXSTY
  7
Standard
  9
$DIMAUNIT
 70
     0
  9
$DIMADEC
 70
     2
  9
$DIMALTRND
 40
0.0
  9
$DIMAZIN
 70
     0
  9
$DIMDSEP
 70
    44
  9
$DIMATFIT
 70
     3
  9
$DIMFRAC
 70
     0
  9
$DIMLDRBLK
  1

  9
$DIMLUNIT
 70
     2
  9
$DIMLWD
 70
    -2
  9
$DIMLWE
 70
    -2
  9
$DIMTMOVE
 70
     0
  9
$LUNITS
 70
     2
  9
$LUPREC
 70
     2
  9
$SKETCHINC
 40
1.0
  9
$FILLETRAD
 40
10.0
  9
$AUNITS
 70
     0
  9
$AUPREC
 70
     2
  9
$MENU
  1
.
  9
$ELEVATION
 40
0.0
  9
$PELEVATION
 40
0.0
  9
$THICKNESS
 40
0.0
  9
$LIMCHECK
 70
     0
  9
$CHAMFERA
 40
0.0
  9
$CHAMFERB
 40
0.0
  9
$CHAMFERC
 40
0.0
  9
$CHAMFERD
 40
0.0
  9
$SKPOLY
 70
     0
  9
$TDCREATE
 40
2458323.481384977
  9
$TDUCREATE
 40
2458323.106384977
  9
$TDUPDATE
 40
2458323.745530301
  9
$TDUUPDATE
 40
2458323.370530301
  9
$TDINDWG
 40
0.0010058796
  9
$TDUSRTIMER
 40
2458323.370490914
  9
$USRTIMER
 70
     1
  9
$ANGBASE
 50
0.0
  9
$ANGDIR
 70
     0
  9
$PDMODE
 70
     0
  9
$PDSIZE
 40
-1.0
  9
$PLINEWID
 40
0.0
  9
$SPLFRAME
 70
     0
  9
$SPLINETYPE
 70
     6
  9
$SPLINESEGS
 70
     8
  9
$HANDSEED
  5
30E
  9
$SURFTAB1
 70
     6
  9
$SURFTAB2
 70
     6
  9
$SURFTYPE
 70
     6
  9
$SURFU
 70
     6
  9
$SURFV
 70
     6
  9
$UCSBASE
  2

  9
$UCSNAME
  2

  9
$UCSORG
 10
0.0
 20
0.0
 30
0.0
  9
$UCSXDIR
 10
1.0
 20
0.0
 30
0.0
  9
$UCSYDIR
 10
0.0
 20
1.0
 30
0.0
  9
$UCSORTHOREF
  2

  9
$UCSORTHOVIEW
 70
     0
  9
$UCSORGTOP
 10
0.0
 20
0.0
 30
0.0
  9
$UCSORGBOTTOM
 10
0.0
 20
0.0
 30
0.0
  9
$UCSORGLEFT
 10
0.0
 20
0.0
 30
0.0
  9
$UCSORGRIGHT
 10
0.0
 20
0.0
 30
0.0
  9
$UCSORGFRONT
 10
0.0
 20
0.0
 30
0.0
  9
$UCSORGBACK
 10
0.0
 20
0.0
 30
0.0
  9
$PUCSBASE
  2

  9
$PUCSNAME
  2

  9
$PUCSORG
 10
0.0
 20
0.0
 30
0.0
  9
$PUCSXDIR
 10
1.0
 20
0.0
 30
0.0
  9
$PUCSYDIR
 10
0.0
 20
1.0
 30
0.0
  9
$PUCSORTHOREF
  2

  9
$PUCSORTHOVIEW
 70
     0
  9
$PUCSORGTOP
 10
0.0
 20
0.0
 30
0.0
  9
$PUCSORGBOTTOM
 10
0.0
 20
0.0
 30
0.0
  9
$PUCSORGLEFT
 10
0.0
 20
0.0
 30
0.0
  9
$PUCSORGRIGHT
 10
0.0
 20
0.0
 30
0.0
  9
$PUCSORGFRONT
 10
0.0
 20
0.0
 30
0.0
  9
$PUCSORGBACK
 10
0.0
 20
0.0
 30
0.0
  9
$USERI1
 70
     0
  9
$USERI2
 70
     0
  9
$USERI3
 70
     0
  9
$USERI4
 70
     0
  9
$USERI5
 70
     0
  9
$USERR1
 40
0.0
  9
$USERR2
 40
0.0
  9
$USERR3
 40
0.0
  9
$USERR4
 40
0.0
  9
$USERR5
 40
0.0
  9
$WORLDVIEW
 70
     1
  9
$SHADEDGE
 70
     3
  9
$SHADEDIF
 70
    70
  9
$TILEMODE
 70
     1
  9
$MAXACTVP
 70
    64
  9
$PINSBASE
 10
0.0
 20
0.0
 30
0.0
  9
$PLIMCHECK
 70
     0
  9
$PEXTMIN
 10
1.000000000000000E+20
 20
1.000000000000000E+20
 30
1.000000000000000E+20
  9
$PEXTMAX
 10
-1.000000000000000E+20
 20
-1.000000000000000E+20
 30
-1.000000000000000E+20
  9
$PLIMMIN
 10
0.0
 20
0.0
  9
$PLIMMAX
 10
0.0
 20
0.0
  9
$UNITMODE
 70
     0
  9
$VISRETAIN
 70
     1
  9
$PLINEGEN
 70
     0
  9
$PSLTSCALE
 70
     1
  9
$TREEDEPTH
 70
  3020
  9
$CMLSTYLE
  2
Standard
  9
$CMLJUST
 70
     0
  9
$CMLSCALE
 40
20.0
  9
$PROXYGRAPHICS
 70
     1
  9
$MEASUREMENT
 70
     1
  9
$CELWEIGHT
370
    -1
  9
$ENDCAPS
280
     0
  9
$JOINSTYLE
280
     0
  9
$LWDISPLAY
290
     1
  9
$INSUNITS
 70
     4
  9
$HYPERLINKBASE
  1

  9
$STYLESHEET
  1

  9
$XEDIT
290
     1
  9
$CEPSNTYPE
380
     0
  9
$PSTYLEMODE
290
     1
  9
$FINGERPRINTGUID
  2
{86FA4707-B4AF-4AAB-8396-6A21C8F85ABF}
  9
$VERSIONGUID
  2
{FAEB1C32-E019-11D5-929B-00C0DF256EC4}
  9
$EXTNAMES
290
     1
  9
$PSVPSCALE
 40
0.0
  9
$OLESTARTUP
290
     0
  0
ENDSEC
  0
SECTION
  2
CLASSES
  0
CLASS
  1
ACDBDICTIONARYWDFLT
  2
AcDbDictionaryWithDefault
  3
ObjectDBX Classes
 90
        0
280
     0
281
     0
  0
CLASS
  1
VISUALSTYLE
  2
AcDbVisualStyle
  3
ObjectDBX Classes
 90
     4095
280
     0
281
     0
  0
CLASS
  1
MATERIAL
  2
AcDbMaterial
  3
ObjectDBX Classes
 90
     1153
280
     0
281
     0
  0
CLASS
  1
SCALE
  2
AcDbScale
  3
ObjectDBX Classes
 90
     1153
280
     0
281
     0
  0
CLASS
  1
SUN
  2
AcDbSun
  3
SCENEOE
 90
     1153
280
     0
281
     0
  0
CLASS
  1
ACDBPLACEHOLDER
  2
AcDbPlaceHolder
  3
ObjectDBX Classes
 90
        0
280
     0
281
     0
  0
CLASS
  1
LAYOUT
  2
AcDbLayout
  3
ObjectDBX Classes
 90
        0
280
     0
281
     0
  0
CLASS
  1
TABLESTYLE
  2
AcDbTableStyle
  3
ObjectDBX Classes
 90
     4095
280
     0
281
     0
  0
CLASS
  1
MLEADERSTYLE
  2
AcDbMLeaderStyle
  3
ACDB_MLEADERSTYLE_CLASS
 90
     4095
280
     0
281
     0
  0
CLASS
  1
RASTERVARIABLES
  2
AcDbRasterVariables
  3
ISM
 90
        0
280
     0
281
     0
  0
ENDSEC
  0
SECTION
  2
TABLES
  0
TABLE
  2
VPORT
  5
8
330
0
100
AcDbSymbolTable
 70
     1
  0
VPORT
  5
29
330
8
100
AcDbSymbolTableRecord
100
AcDbViewportTableRecord
  2
*Active
 70
     0
 10
0.0
 20
0.0
 11
1.0
 21
1.0
 12
37.72585298534355
 22
34.44388987184912
 13
0.0
 23
0.0
 14
10.0
 24
10.0
 15
10.0
 25
10.0
 16
0.0
 26
0.0
 36
1.0
 17
0.0
 27
0.0
 37
0.0
 40
275.0064375723919
 41
1.628180039138943
 42
50.0
 43
0.0
 44
0.0
 50
0.0
 51
0.0
 71
    16
 72
  2000
 73
     1
 74
     3
 75
     0
 76
     0
 77
     0
 78
     0
281
     0
 65
     1
110
0.0
120
0.0
130
0.0
111
1.0
121
0.0
131
0.0
112
0.0
122
1.0
132
0.0
 79
     0
146
0.0
  0
ENDTAB
  0
TABLE
  2
LTYPE
  5
5
330
0
100
AcDbSymbolTable
 70
     6
  0
LTYPE
  5
14
330
5
100
AcDbSymbolTableRecord
100
AcDbLinetypeTableRecord
  2
ByBlock
 70
     0
  3

 72
    65
 73
     0
 40
0.0
  0
LTYPE
  5
15
330
5
100
AcDbSymbolTableRecord
100
AcDbLinetypeTableRecord
  2
ByLayer
 70
     0
  3

 72
    65
 73
     0
 40
0.0
  0
LTYPE
  5
16
330
5
100
AcDbSymbolTableRecord
100
AcDbLinetypeTableRecord
  2
Continuous
 70
     0
  3
Solid line
 72
    65
 73
     0
 40
0.0
  0
LTYPE
  5
6A
330
5
100
AcDbSymbolTableRecord
100
AcDbLinetypeTableRecord
  2
HIDDEN
 70
     0
  3
Hidden __ __ __ __ __ __ __ __ __ __ __ __ __ __
 72
    65
 73
     2
 40
1.905
 49
1.27
 74
     0
 49
-0.635
 74
     0
  0
LTYPE
  5
6B
330
5
100
AcDbSymbolTableRecord
100
AcDbLinetypeTableRecord
  2
PHANTOM
 70
     0
  3
Phantom ______  __  __  ______  __  __  ______
 72
    65
 73
     6
 40
12.7
 49
6.35
 74
     0
 49
-1.27
 74
     0
 49
1.27
 74
     0
 49
-1.27
 74
     0
 49
1.27
 74
     0
 49
-1.27
 74
     0
  0
LTYPE
  5
6C
330
5
100
AcDbSymbolTableRecord
100
AcDbLinetypeTableRecord
  2
CENTER
 70
     0
  3
Center ____ _ ____ _ ____ _ ____ _ ____ _ ____
 72
    65
 73
     4
 40
10.16
 49
6.35
 74
     0
 49
-1.27
 74
     0
 49
1.27
 74
     0
 49
-1.27
 74
     0
  0
LTYPE
  5
6D
330
5
100
AcDbSymbolTableRecord
100
AcDbLinetypeTableRecord
  2
CENTERX2
 70
     0
  3
Center (2x) ________  __  ________  __  _____
 72
    65
 73
     4
 40
20.32
 49
12.7
 74
     0
 49
-2.54
 74
     0
 49
2.54
 74
     0
 49
-2.54
 74
     0
  0
LTYPE
  5
6E
330
5
100
AcDbSymbolTableRecord
100
AcDbLinetypeTableRecord
  2
DOT2
 70
     0
  3
Dot (.5x) ........................................
 72
    65
 73
     2
 40
0.635
 49
0.0
 74
     0
 49
-0.635
 74
     0
  0
ENDTAB
  0
TABLE
  2
LAYER
  5
2
102
{ACAD_XDICTIONARY
360
204
102
}
330
0
100
AcDbSymbolTable
 70
    18
  0
LAYER
  5
10
330
2
100
AcDbSymbolTableRecord
100
AcDbLayerTableRecord
  2
0
 70
     0
 62
     7
  6
Continuous
370
    -3
390
F
  0
LAYER
  5
6F
330
2
100
AcDbSymbolTableRecord
100
AcDbLayerTableRecord
  2
FORMAT
 70
     0
 62
     2
  6
Continuous
370
    -3
390
F
  0
LAYER
  5
70
330
2
100
AcDbSymbolTableRecord
100
AcDbLayerTableRecord
  2
외형선
 70
     0
 62
     4
  6
Continuous
370
    30
390
F
  0
LAYER
  5
71
330
2
100
AcDbSymbolTableRecord
100
AcDbLayerTableRecord
  2
숨은선
 70
     0
 62
     2
  6
HIDDEN
370
    15
390
F
  0
LAYER
  5
72
330
2
100
AcDbSymbolTableRecord
100
AcDbLayerTableRecord
  2
중심선
 70
     0
 62
     1
  6
CENTERX2
370
    -3
390
F
  0
LAYER
  5
73
330
2
100
AcDbSymbolTableRecord
100
AcDbLayerTableRecord
  2
파단선
 70
     0
 62
     4
  6
Continuous
370
    -3
390
F
  0
LAYER
  5
74
330
2
100
AcDbSymbolTableRecord
100
AcDbLayerTableRecord
  2
해칭선
 70
     0
 62
   100
  6
Continuous
370
    -3
390
F
  0
LAYER
  5
75
330
2
100
AcDbSymbolTableRecord
100
AcDbLayerTableRecord
  2
가는실선
 70
     0
 62
     4
  6
Continuous
370
    -3
390
F
  0
LAYER
  5
76
330
2
100
AcDbSymbolTableRecord
100
AcDbLayerTableRecord
  2
치수_보조선
 70
     0
 62
     4
  6
Continuous
370
    -3
390
F
  0
LAYER
  5
77
330
2
100
AcDbSymbolTableRecord
100
AcDbLayerTableRecord
  2
치수문자_일반주서
 70
     0
 62
     7
  6
Continuous
370
    15
390
F
  0
LAYER
  5
78
330
2
100
AcDbSymbolTableRecord
100
AcDbLayerTableRecord
  2
개별주서
 70
     0
 62
   100
  6
Continuous
370
    30
390
F
  0
LAYER
  5
79
330
2
100
AcDbSymbolTableRecord
100
AcDbLayerTableRecord
  2
중간선
 70
     0
 62
     2
  6
Continuous
370
    15
390
F
  0
LAYER
  5
7A
330
2
100
AcDbSymbolTableRecord
100
AcDbLayerTableRecord
  2
윤곽선
 70
     0
 62
     3
  6
Continuous
370
    40
390
F
  0
LAYER
  5
7B
330
2
100
AcDbSymbolTableRecord
100
AcDbLayerTableRecord
  2
중심마크
 70
     0
 62
   100
  6
Continuous
370
    30
390
F
  0
LAYER
  5
7C
330
2
100
AcDbSymbolTableRecord
100
AcDbLayerTableRecord
  2
가상선
 70
     0
 62
     4
  6
PHANTOM
370
    -3
390
F
  0
LAYER
  5
7D
330
2
100
AcDbSymbolTableRecord
100
AcDbLayerTableRecord
  2
특수지정선
 70
     0
 62
     5
  6
CENTERX2
370
    60
390
F
  0
LAYER
  5
7E
330
2
100
AcDbSymbolTableRecord
100
AcDbLayerTableRecord
  2
참조1
 70
     0
 62
    -4
  6
Continuous
370
    -3
390
F
  0
LAYER
  5
142
330
2
100
AcDbSymbolTableRecord
100
AcDbLayerTableRecord
  2
Defpoints
 70
     0
 62
     7
  6
Continuous
290
     0
370
    -3
390
F
  0
ENDTAB
  0
TABLE
  2
STYLE
  5
3
330
0
100
AcDbSymbolTable
 70
     2
  0
STYLE
  5
11
330
3
100
AcDbSymbolTableRecord
100
AcDbTextStyleTableRecord
  2
Standard
 70
     0
 40
0.0
 41
1.0
 50
0.0
 71
     0
 42
3.5
  3
txt
  4

  0
STYLE
  5
94
330
3
100
AcDbSymbolTableRecord
100
AcDbTextStyleTableRecord
  2
SLDTEXTSTYLE0
 70
     0
 40
0.0
 41
0.75
 50
0.0
 71
     0
 42
3.5
  3
TXT
  4

  0
ENDTAB
  0
TABLE
  2
VIEW
  5
6
330
0
100
AcDbSymbolTable
 70
     0
  0
ENDTAB
  0
TABLE
  2
UCS
  5
7
330
0
100
AcDbSymbolTable
 70
     0
  0
ENDTAB
  0
TABLE
  2
APPID
  5
9
330
0
100
AcDbSymbolTable
 70
     1
  0
APPID
  5
12
330
9
100
AcDbSymbolTableRecord
100
AcDbRegAppTableRecord
  2
ACAD
 70
     0
  0
ENDTAB
  0
TABLE
  2
DIMSTYLE
  5
A
330
0
100
AcDbSymbolTable
 70
     3
100
AcDbDimStyleTable
  0
DIMSTYLE
105
27
330
A
100
AcDbSymbolTableRecord
100
AcDbDimStyleTableRecord
  2
ISO-25
 70
     0
 41
2.5
 42
0.625
 43
3.75
 44
1.25
 73
     0
 74
     0
 77
     1
 78
     8
140
2.5
141
2.5
143
0.03937007874016
147
0.625
171
     3
172
     1
178
     0
271
     2
272
     2
274
     3
278
    44
283
     0
284
     8
340
11
  0
DIMSTYLE
105
C0
330
A
100
AcDbSymbolTableRecord
100
AcDbDimStyleTableRecord
  2
SLDDIMSTYLE0
 70
     0
 41
3.302
 44
0.0
 45
0.000000001
 73
     0
 74
     0
 77
     1
 78
    12
 79
     3
140
3.5
143
0.0393700787401575
147
0.875
148
0.000000001
170
     1
172
     1
173
     1
178
     0
271
     2
272
     2
276
     2
284
    12
289
     0
340
94
  0
DIMSTYLE
105
E9
102
{ACAD_REACTORS
330
28E
330
28F
330
290
330
291
102
}
330
A
100
AcDbSymbolTableRecord
100
AcDbDimStyleTableRecord
  2
SLDDIMSTYLE1
 70
     0
 41
3.302
 44
0.0
 45
0.000000001
 73
     0
 74
     0
 77
     1
 78
    12
 79
     3
140
3.5
143
0.0393700787401575
147
0.875
148
0.000000001
170
     1
173
     1
178
     0
271
     2
272
     2
276
     2
284
    12
340
94
  0
ENDTAB
  0
TABLE
  2
BLOCK_RECORD
  5
1
330
0
100
AcDbSymbolTable
 70
    15
  0
BLOCK_RECORD
  5
1F
330
1
100
AcDbSymbolTableRecord
100
AcDbBlockTableRecord
  2
*Model_Space
340
22
  0
BLOCK_RECORD
  5
1B
330
1
100
AcDbSymbolTableRecord
100
AcDbBlockTableRecord
  2
*Paper_Space
340
1E
  0
BLOCK_RECORD
  5
23
330
1
100
AcDbSymbolTableRecord
100
AcDbBlockTableRecord
  2
*Paper_Space0
340
26
  0
BLOCK_RECORD
  5
7F
330
1
100
AcDbSymbolTableRecord
100
AcDbBlockTableRecord
  2
블럭10
340
0
102
{BLKREFS
331
B8
102
}
  0
BLOCK_RECORD
  5
C1
330
1
100
AcDbSymbolTableRecord
100
AcDbBlockTableRecord
  2
_D
340
0
  0
BLOCK_RECORD
  5
D5
330
1
100
AcDbSymbolTableRecord
100
AcDbBlockTableRecord
  2
_D_1
340
0
  0
BLOCK_RECORD
  5
EA
330
1
100
AcDbSymbolTableRecord
100
AcDbBlockTableRecord
  2
_D_2
340
0
  0
BLOCK_RECORD
  5
FD
330
1
100
AcDbSymbolTableRecord
100
AcDbBlockTableRecord
  2
_D_3
340
0
  0
BLOCK_RECORD
  5
116
330
1
100
AcDbSymbolTableRecord
100
AcDbBlockTableRecord
  2
SW_DOWELSYMBOL_0
340
0
102
{BLKREFS
331
292
102
}
  0
BLOCK_RECORD
  5
208
330
1
100
AcDbSymbolTableRecord
100
AcDbBlockTableRecord
  2
*D7
340
0
  0
BLOCK_RECORD
  5
214
330
1
100
AcDbSymbolTableRecord
100
AcDbBlockTableRecord
  2
*D8
340
0
  0
BLOCK_RECORD
  5
220
330
1
100
AcDbSymbolTableRecord
100
AcDbBlockTableRecord
  2
*D9
340
0
  0
BLOCK_RECORD
  5
22C
330
1
100
AcDbSymbolTableRecord
100
AcDbBlockTableRecord
  2
*D10
340
0
  0
BLOCK_RECORD
  5
29C
330
1
100
AcDbSymbolTableRecord
100
AcDbBlockTableRecord
  2
*D11
340
0
  0
BLOCK_RECORD
  5
2A8
330
1
100
AcDbSymbolTableRecord
100
AcDbBlockTableRecord
  2
*D12
340
0
  0
BLOCK_RECORD
  5
2B4
330
1
100
AcDbSymbolTableRecord
100
AcDbBlockTableRecord
  2
*D13
340
0
  0
BLOCK_RECORD
  5
2C0
330
1
100
AcDbSymbolTableRecord
100
AcDbBlockTableRecord
  2
*D14
340
0
  0
ENDTAB
  0
ENDSEC
  0
SECTION
  2
BLOCKS
  0
BLOCK
  5
20
330
1F
100
AcDbEntity
  8
0
100
AcDbBlockBegin
  2
*Model_Space
 70
     0
 10
0.0
 20
0.0
 30
0.0
  3
*Model_Space
  1
*Model_Space
  0
ENDBLK
  5
21
330
1F
100
AcDbEntity
  8
0
100
AcDbBlockEnd
  0
BLOCK
  5
1C
330
1B
100
AcDbEntity
 67
     1
  8
0
100
AcDbBlockBegin
  2
*Paper_Space
 70
     0
 10
0.0
 20
0.0
 30
0.0
  3
*Paper_Space
  1
*Paper_Space
  0
ENDBLK
  5
1D
330
1B
100
AcDbEntity
 67
     1
  8
0
100
AcDbBlockEnd
  0
BLOCK
  5
24
330
23
100
AcDbEntity
  8
0
100
AcDbBlockBegin
  2
*Paper_Space0
 70
     0
 10
0.0
 20
0.0
 30
0.0
  3
*Paper_Space0
  1
*Paper_Space0
  0
ENDBLK
  5
25
330
23
100
AcDbEntity
  8
0
100
AcDbBlockEnd
  0
BLOCK
  5
80
330
7F
100
AcDbEntity
  8
0
100
AcDbBlockBegin
  2
블럭10
 70
     2
 10
0.0
 20
0.0
 30
0.0
  3
블럭10
  1
블럭10
  0
ELLIPSE
  5
82
330
7F
100
AcDbEntity
  8
중심선
100
AcDbEllipse
 10
20.54032771741204
 20
12.0471743016438
 30
0.0
 11
6.600054785286829
 21
-1.261213355974178E-13
 31
0.0
210
0.0
220
0.0
230
1.0
 40
0.636358354079598
 41
0.9219305317359503
 42
6.513795318482858
  0
ELLIPSE
  5
83
330
7F
100
AcDbEntity
  8
중심선
100
AcDbEllipse
 10
20.54032771746488
 20
12.04717430159265
 30
0.0
 11
3.960054785062283
 21
1.540847449632565E-10
 31
0.0
210
0.0
220
0.0
230
1.0
 40
0.3939339440162632
 41
1.131841032648279
 42
5.62031148352944
  0
LINE
  5
84
330
7F
100
AcDbEntity
  8
중심선
100
AcDbLine
 10
2.268634060543552
 20
16.24717430164393
 30
0.0
 11
5.714909304380834
 21
16.24717430164393
 31
0.0
  0
LINE
  5
85
330
7F
100
AcDbEntity
  8
중심선
100
AcDbLine
 10
5.245725140726316
 20
7.84717430164391
 30
0.0
 11
8.692000384563599
 21
7.84717430164391
 31
0.0
  0
LINE
  5
86
330
7F
100
AcDbEntity
  8
중심선
100
AcDbLine
 10
15.74043728645272
 20
16.24717430164393
 30
0.0
 11
8.692000384563599
 21
7.84717430164391
 31
0.0
  0
LINE
  5
87
330
7F
100
AcDbEntity
  8
중심선
100
AcDbLine
 10
0.1404042013395286
 20
13.71084872107135
 30
0.0
 11
3.58671253028996
 21
13.71088815037384
 31
0.0
  0
LINE
  5
88
330
7F
100
AcDbEntity
  8
중심선
100
AcDbLine
 10
2.750260043222114
 20
10.84717430164391
 30
0.0
 11
6.196535287059397
 21
10.84717430164391
 31
0.0
  0
LINE
  5
89
330
7F
100
AcDbEntity
  8
중심선
100
AcDbLine
 10
12.29416204261559
 20
16.24717430164393
 30
0.0
 11
5.245725140726316
 21
7.84717430164391
 31
0.0
  0
LINE
  5
8A
330
7F
100
AcDbEntity
  8
중심선
100
AcDbLine
 10
10.72767329541681
 20
16.24717430164393
 30
0.0
 11
6.196535287059397
 21
10.84717430164391
 31
0.0
  0
LINE
  5
8B
330
7F
100
AcDbEntity
  8
중심선
100
AcDbLine
 10
7.28139805157953
 20
16.24717430164393
 30
0.0
 11
2.750260043222114
 21
10.84717430164391
 31
0.0
  0
LINE
  5
8C
330
7F
100
AcDbEntity
  8
중심선
100
AcDbLine
 10
5.714909304380834
 20
16.24717430164393
 30
0.0
 11
3.58671253028996
 21
13.71088815037384
 31
0.0
  0
LINE
  5
8D
330
7F
100
AcDbEntity
  8
중심선
100
AcDbLine
 10
2.268634060543552
 20
16.24717430164393
 30
0.0
 11
0.1404042013395286
 21
13.71084872107135
 31
0.0
  0
LINE
  5
8E
330
7F
100
AcDbEntity
  8
중심선
100
AcDbLine
 10
7.28139805157953
 20
16.24717430164393
 30
0.0
 11
10.72767329541681
 21
16.24717430164393
 31
0.0
  0
LINE
  5
8F
330
7F
100
AcDbEntity
  8
중심선
100
AcDbLine
 10
12.29416204261559
 20
16.24717430164393
 30
0.0
 11
15.74043728645272
 21
16.24717430164393
 31
0.0
  0
LINE
  5
90
330
7F
100
AcDbEntity
  8
중심선
100
AcDbLine
 10
19.22036997980202
 20
11.08717430171403
 30
0.0
 11
23.66174974927406
 21
11.08717430171406
 31
0.0
  0
LINE
  5
91
330
7F
100
AcDbEntity
  8
중심선
100
AcDbLine
 10
19.22039502424796
 20
13.00717430171391
 30
0.0
 11
19.22036997980202
 21
11.08717430171403
 31
0.0
  0
LINE
  5
92
330
7F
100
AcDbEntity
  8
중심선
100
AcDbLine
 10
19.22039502424796
 20
13.00717430171391
 30
0.0
 11
26.96566020931264
 21
13.00717430171391
 31
0.0
  0
LINE
  5
93
330
7F
100
AcDbEntity
  8
중심선
100
AcDbLine
 10
22.22332737316547
 20
13.45928029700563
 30
0.0
 11
24.52862924686651
 21
15.39360700705356
 31
0.0
  0
ATTDEF
  5
95
330
7F
100
AcDbEntity
  8
FORMAT
 62
     2
100
AcDbText
 10
4.408487351596664
 20
2.075366912832191
 30
0.0
 40
4.233333333333333
  1
E1175132
 41
0.75
  7
SLDTEXTSTYLE0
 11
4.408487351596664
 21
-0.0412997538344756
 31
0.0
100
AcDbAttributeDefinition
  3

  2
AUTOATTR0
 70
     0
 74
     1
  0
ENDBLK
  5
81
330
7F
100
AcDbEntity
  8
0
100
AcDbBlockEnd
  0
BLOCK
  5
C2
330
C1
100
AcDbEntity
  8
0
100
AcDbBlockBegin
  2
_D
 70
     0
 10
0.0
 20
0.0
 30
0.0
  3
_D
  1
_D
  0
SOLID
  5
C4
330
C1
100
AcDbEntity
  8
치수문자_일반주서
100
AcDbTrace
 10
97.9119459855236
 20
12.5010749287239
 30
0.0
 11
98.4199459855236
 21
15.80307492872389
 31
0.0
 12
97.4039459855236
 22
15.80307492872389
 32
0.0
 13
97.4039459855236
 23
15.80307492872389
 33
0.0
  0
SOLID
  5
C5
330
C1
100
AcDbEntity
  8
치수문자_일반주서
100
AcDbTrace
 10
97.9119459855236
 20
-12.49892507127611
 30
0.0
 11
97.4039459855236
 21
-15.80092507127611
 31
0.0
 12
98.4199459855236
 22
-15.80092507127611
 32
0.0
 13
98.4199459855236
 23
-15.80092507127611
 33
0.0
  0
LINE
  5
C6
330
C1
100
AcDbEntity
  8
치수문자_일반주서
100
AcDbLine
 10
87.11906426948089
 20
-5.413291502344828
 30
0.0
 11
87.11906426948089
 21
-6.124228987909328
 31
0.0
  0
LINE
  5
C7
330
C1
100
AcDbEntity
  8
치수문자_일반주서
100
AcDbLine
 10
87.11906426948089
 20
-6.124228987909328
 30
0.0
 11
92.67531426054019
 21
-6.124228987909289
 31
0.0
  0
LINE
  5
C8
330
C1
100
AcDbEntity
  8
치수문자_일반주서
100
AcDbLine
 10
92.67531426054019
 20
-6.124228987909289
 30
0.0
 11
92.67531426054019
 21
-5.413291502344789
 31
0.0
  0
LINE
  5
C9
330
C1
100
AcDbEntity
  8
치수문자_일반주서
100
AcDbLine
 10
87.1190642694808
 20
5.41544135979243
 30
0.0
 11
87.1190642694808
 21
6.12637884535693
 31
0.0
  0
LINE
  5
CA
330
C1
100
AcDbEntity
  8
치수문자_일반주서
100
AcDbLine
 10
87.1190642694808
 20
6.12637884535693
 30
0.0
 11
92.6753142605401
 21
6.126378845356969
 31
0.0
  0
LINE
  5
CB
330
C1
100
AcDbEntity
  8
치수문자_일반주서
100
AcDbLine
 10
92.6753142605401
 20
6.126378845356969
 30
0.0
 11
92.6753142605401
 21
5.415441359792469
 31
0.0
  0
LINE
  5
CC
330
C1
100
AcDbEntity
  8
치수문자_일반주서
100
AcDbLine
 10
79.91194598552357
 20
12.5010749287239
 30
0.0
 11
98.9119459855236
 21
12.5010749287239
 31
0.0
  0
LINE
  5
CD
330
C1
100
AcDbEntity
  8
치수문자_일반주서
100
AcDbLine
 10
79.91194598552357
 20
-12.49892507127611
 30
0.0
 11
98.9119459855236
 21
-12.49892507127611
 31
0.0
  0
LINE
  5
CE
330
C1
100
AcDbEntity
  8
치수문자_일반주서
100
AcDbLine
 10
97.9119459855236
 20
12.5010749287239
 30
0.0
 11
97.9119459855236
 21
18.8510749287239
 31
0.0
  0
LINE
  5
CF
330
C1
100
AcDbEntity
  8
치수문자_일반주서
100
AcDbLine
 10
97.9119459855236
 20
12.5010749287239
 30
0.0
 11
97.9119459855236
 21
-12.49892507127611
 31
0.0
  0
LINE
  5
D0
330
C1
100
AcDbEntity
  8
치수문자_일반주서
100
AcDbLine
 10
97.9119459855236
 20
-12.49892507127611
 30
0.0
 11
97.9119459855236
 21
-18.84892507127611
 31
0.0
  0
MTEXT
  5
D1
330
C1
100
AcDbEntity
  8
치수문자_일반주서
100
AcDbMText
 10
88.16357734596129
 20
-4.52461960173345
 30
0.0
 40
3.5
 41
0.0
 71
     1
 72
     1
  1
0.98
  7
SLDTEXTSTYLE0
 11
-7.044195017643634E-15
 21
1.0
 31
0.0
 73
     1
 44
1.0
  0
MTEXT
  5
D2
330
C1
100
AcDbEntity
  8
치수문자_일반주서
100
AcDbMText
 10
93.40020889632177
 20
-5.22425519681665
 30
0.0
 40
3.5
 41
0.0
 71
     1
 72
     1
  1
%%c
  7
SLDTEXTSTYLE0
 11
-7.044195017643634E-15
 21
1.0
 31
0.0
 73
     1
 44
1.0
  0
MTEXT
  5
D3
330
C1
100
AcDbEntity
  8
치수문자_일반주서
100
AcDbMText
 10
93.40020889632173
 20
0.0541822015574309
 30
0.0
 40
3.5
 41
0.0
 71
     1
 72
     1
  1
25
  7
SLDTEXTSTYLE0
 11
-7.044195017643634E-15
 21
1.0
 31
0.0
 73
     1
 44
1.0
  0
ENDBLK
  5
C3
330
C1
100
AcDbEntity
  8
0
100
AcDbBlockEnd
  0
BLOCK
  5
D6
330
D5
100
AcDbEntity
  8
0
100
AcDbBlockBegin
  2
_D_1
 70
     0
 10
0.0
 20
0.0
 30
0.0
  3
_D_1
  1
_D_1
  0
SOLID
  5
D8
330
D5
100
AcDbEntity
  8
치수문자_일반주서
100
AcDbTrace
 10
-55.08805401447646
 20
7.938574928723906
 30
0.0
 11
-54.58005401447646
 21
11.24057492872391
 31
0.0
 12
-55.59605401447646
 22
11.24057492872391
 32
0.0
 13
-55.59605401447646
 23
11.24057492872391
 33
0.0
  0
SOLID
  5
D9
330
D5
100
AcDbEntity
  8
치수문자_일반주서
100
AcDbTrace
 10
-55.08805401447646
 20
-7.936425071276123
 30
0.0
 11
-55.59605401447646
 21
-11.23842507127612
 31
0.0
 12
-54.58005401447646
 22
-11.23842507127612
 32
0.0
 13
-54.58005401447646
 23
-11.23842507127612
 33
0.0
  0
LINE
  5
DA
330
D5
100
AcDbEntity
  8
치수문자_일반주서
100
AcDbLine
 10
-65.88093573051917
 20
-6.595745043212554
 30
0.0
 11
-65.88093573051917
 21
-7.306682528777054
 31
0.0
  0
LINE
  5
DB
330
D5
100
AcDbEntity
  8
치수문자_일반주서
100
AcDbLine
 10
-65.88093573051917
 20
-7.306682528777054
 30
0.0
 11
-60.32468573945987
 21
-7.306682528777015
 31
0.0
  0
LINE
  5
DC
330
D5
100
AcDbEntity
  8
치수문자_일반주서
100
AcDbLine
 10
-60.32468573945987
 20
-7.306682528777015
 30
0.0
 11
-60.32468573945987
 21
-6.595745043212514
 31
0.0
  0
LINE
  5
DD
330
D5
100
AcDbEntity
  8
치수문자_일반주서
100
AcDbLine
 10
-65.88093573051925
 20
4.232987818924705
 30
0.0
 11
-65.88093573051925
 21
4.943925304489205
 31
0.0
  0
LINE
  5
DE
330
D5
100
AcDbEntity
  8
치수문자_일반주서
100
AcDbLine
 10
-65.88093573051925
 20
4.943925304489205
 30
0.0
 11
-60.32468573945995
 21
4.943925304489244
 31
0.0
  0
LINE
  5
DF
330
D5
100
AcDbEntity
  8
치수문자_일반주서
100
AcDbLine
 10
-60.32468573945995
 20
4.943925304489244
 30
0.0
 11
-60.32468573945994
 21
4.232987818924744
 31
0.0
  0
LINE
  5
E0
330
D5
100
AcDbEntity
  8
치수문자_일반주서
100
AcDbLine
 10
-41.50055401447643
 20
7.938574928723908
 30
0.0
 11
-56.08805401447646
 21
7.938574928723906
 31
0.0
  0
LINE
  5
E1
330
D5
100
AcDbEntity
  8
치수문자_일반주서
100
AcDbLine
 10
-41.50055401447643
 20
-7.936425071276121
 30
0.0
 11
-56.08805401447646
 21
-7.936425071276123
 31
0.0
  0
LINE
  5
E2
330
D5
100
AcDbEntity
  8
치수문자_일반주서
100
AcDbLine
 10
-55.08805401447646
 20
7.938574928723906
 30
0.0
 11
-55.08805401447646
 21
14.28857492872391
 31
0.0
  0
LINE
  5
E3
330
D5
100
AcDbEntity
  8
치수문자_일반주서
100
AcDbLine
 10
-55.08805401447646
 20
7.938574928723906
 30
0.0
 11
-55.08805401447646
 21
-7.936425071276123
 31
0.0
  0
LINE
  5
E4
330
D5
100
AcDbEntity
  8
치수문자_일반주서
100
AcDbLine
 10
-55.08805401447646
 20
-7.936425071276123
 30
0.0
 11
-55.08805401447646
 21
-14.28642507127612
 31
0.0
  0
MTEXT
  5
E5
330
D5
100
AcDbEntity
  8
치수문자_일반주서
100
AcDbMText
 10
-64.83642265403878
 20
-5.707073142601175
 30
0.0
 40
3.5
 41
0.0
 71
     1
 72
     1
  1
0.63
  7
SLDTEXTSTYLE0
 11
-7.044195017643634E-15
 21
1.0
 31
0.0
 73
     1
 44
1.0
  0
MTEXT
  5
E6
330
D5
100
AcDbEntity
  8
치수문자_일반주서
100
AcDbMText
 10
-59.59979110367827
 20
-9.639347554964907
 30
0.0
 40
3.5
 41
0.0
 71
     1
 72
     1
  1
%%c
  7
SLDTEXTSTYLE0
 11
-7.044195017643634E-15
 21
1.0
 31
0.0
 73
     1
 44
1.0
  0
MTEXT
  5
E7
330
D5
100
AcDbEntity
  8
치수문자_일반주서
100
AcDbMText
 10
-59.59979110367831
 20
-4.360910156590827
 30
0.0
 40
3.5
 41
0.0
 71
     1
 72
     1
  1
15.88
  7
SLDTEXTSTYLE0
 11
-7.044195017643634E-15
 21
1.0
 31
0.0
 73
     1
 44
1.0
  0
ENDBLK
  5
D7
330
D5
100
AcDbEntity
  8
0
100
AcDbBlockEnd
  0
BLOCK
  5
EB
330
EA
100
AcDbEntity
  8
0
100
AcDbBlockBegin
  2
_D_2
 70
     0
 10
0.0
 20
0.0
 30
0.0
  3
_D_2
  1
_D_2
  0
SOLID
  5
ED
330
EA
100
AcDbEntity
  8
치수문자_일반주서
100
AcDbTrace
 10
78.9119459855236
 20
22.33656116902758
 30
0.0
 11
75.60994598552361
 21
22.84456116902758
 31
0.0
 12
75.60994598552361
 22
21.82856116902758
 32
0.0
 13
75.60994598552361
 23
21.82856116902758
 33
0.0
  0
SOLID
  5
EE
330
EA
100
AcDbEntity
  8
치수문자_일반주서
100
AcDbTrace
 10
33.9119459855236
 20
22.3365611690276
 30
0.0
 11
37.2139459855236
 21
21.8285611690276
 31
0.0
 12
37.2139459855236
 22
22.8445611690276
 32
0.0
 13
37.2139459855236
 23
22.8445611690276
 33
0.0
  0
LINE
  5
EF
330
EA
100
AcDbEntity
  8
치수문자_일반주서
100
AcDbLine
 10
50.99757990370091
 20
33.12944288507032
 30
0.0
 11
50.28664241813641
 21
33.12944288507033
 31
0.0
  0
LINE
  5
F0
330
EA
100
AcDbEntity
  8
치수문자_일반주서
100
AcDbLine
 10
50.28664241813641
 20
33.12944288507033
 30
0.0
 11
50.28664241813637
 21
27.57319289401102
 31
0.0
  0
LINE
  5
F1
330
EA
100
AcDbEntity
  8
치수문자_일반주서
100
AcDbLine
 10
50.28664241813637
 20
27.57319289401102
 30
0.0
 11
50.99757990370087
 21
27.57319289401102
 31
0.0
  0
LINE
  5
F2
330
EA
100
AcDbEntity
  8
치수문자_일반주서
100
AcDbLine
 10
61.82631276583817
 20
33.12944288507024
 30
0.0
 11
62.53725025140267
 21
33.12944288507023
 31
0.0
  0
LINE
  5
F3
330
EA
100
AcDbEntity
  8
치수문자_일반주서
100
AcDbLine
 10
62.53725025140267
 20
33.12944288507023
 30
0.0
 11
62.53725025140263
 21
27.57319289401093
 31
0.0
  0
LINE
  5
F4
330
EA
100
AcDbEntity
  8
치수문자_일반주서
100
AcDbLine
 10
62.53725025140263
 20
27.57319289401093
 30
0.0
 11
61.82631276583813
 21
27.57319289401094
 31
0.0
  0
LINE
  5
F5
330
EA
100
AcDbEntity
  8
치수문자_일반주서
100
AcDbLine
 10
78.9119459855236
 20
13.04623741649756
 30
0.0
 11
78.9119459855236
 21
23.33656116902758
 31
0.0
  0
LINE
  5
F6
330
EA
100
AcDbEntity
  8
치수문자_일반주서
100
AcDbLine
 10
33.91194598552359
 20
13.50102630229547
 30
0.0
 11
33.9119459855236
 21
23.3365611690276
 31
0.0
  0
LINE
  5
F7
330
EA
100
AcDbEntity
  8
치수문자_일반주서
100
AcDbLine
 10
78.9119459855236
 20
22.33656116902758
 30
0.0
 11
33.9119459855236
 21
22.3365611690276
 31
0.0
  0
MTEXT
  5
F8
330
EA
100
AcDbEntity
  8
치수문자_일반주서
100
AcDbMText
 10
49.77288369264966
 20
26.90177043488931
 30
0.0
 40
3.5
 41
0.0
 71
     1
 72
     1
  1

  7
SLDTEXTSTYLE0
 73
     1
 44
1.0
  0
MTEXT
  5
F9
330
EA
100
AcDbEntity
  8
치수문자_일반주서
100
AcDbMText
 10
51.88625180431227
 20
32.08492980858991
 30
0.0
 40
3.5
 41
0.0
 71
     1
 72
     1
  1
1.77
  7
SLDTEXTSTYLE0
 73
     1
 44
1.0
  0
MTEXT
  5
FA
330
EA
100
AcDbEntity
  8
치수문자_일반주서
100
AcDbMText
 10
53.82583514124668
 20
26.84829825822942
 30
0.0
 40
3.5
 41
0.0
 71
     1
 72
     1
  1
45
  7
SLDTEXTSTYLE0
 73
     1
 44
1.0
  0
MTEXT
  5
FB
330
EA
100
AcDbEntity
  8
치수문자_일반주서
100
AcDbMText
 10
64.38295349654321
 20
26.9017704348892
 30
0.0
 40
3.5
 41
0.0
 71
     1
 72
     1
  1

  7
SLDTEXTSTYLE0
 73
     1
 44
1.0
  0
ENDBLK
  5
EC
330
EA
100
AcDbEntity
  8
0
100
AcDbBlockEnd
  0
BLOCK
  5
FE
330
FD
100
AcDbEntity
  8
0
100
AcDbBlockBegin
  2
_D_3
 70
     0
 10
0.0
 20
0.0
 30
0.0
  3
_D_3
  1
_D_3
  0
SOLID
  5
100
330
FD
100
AcDbEntity
  8
치수문자_일반주서
100
AcDbTrace
 10
78.91194598552357
 20
38.36394344956528
 30
0.0
 11
75.60994598552358
 21
38.87194344956529
 31
0.0
 12
75.60994598552358
 22
37.85594344956528
 32
0.0
 13
75.60994598552358
 23
37.85594344956528
 33
0.0
  0
SOLID
  5
101
330
FD
100
AcDbEntity
  8
치수문자_일반주서
100
AcDbTrace
 10
-42.08805401447642
 20
38.36394344956528
 30
0.0
 11
-38.78605401447642
 21
37.85594344956527
 31
0.0
 12
-38.78605401447642
 22
38.87194344956528
 32
0.0
 13
-38.78605401447642
 23
38.87194344956528
 33
0.0
  0
LINE
  5
102
330
FD
100
AcDbEntity
  8
치수문자_일반주서
100
AcDbLine
 10
14.47912979228456
 20
49.15682516560803
 30
0.0
 11
13.76819230672006
 21
49.15682516560804
 31
0.0
  0
LINE
  5
103
330
FD
100
AcDbEntity
  8
치수문자_일반주서
100
AcDbLine
 10
13.76819230672006
 20
49.15682516560804
 30
0.0
 11
13.76819230672002
 21
43.60057517454874
 31
0.0
  0
LINE
  5
104
330
FD
100
AcDbEntity
  8
치수문자_일반주서
100
AcDbLine
 10
13.76819230672002
 20
43.60057517454874
 30
0.0
 11
14.47912979228452
 21
43.60057517454873
 31
0.0
  0
LINE
  5
105
330
FD
100
AcDbEntity
  8
치수문자_일반주서
100
AcDbLine
 10
25.30786265442182
 20
49.15682516560796
 30
0.0
 11
26.01880013998632
 21
49.15682516560796
 31
0.0
  0
LINE
  5
106
330
FD
100
AcDbEntity
  8
치수문자_일반주서
100
AcDbLine
 10
26.01880013998632
 20
49.15682516560796
 30
0.0
 11
26.01880013998629
 21
43.60057517454865
 31
0.0
  0
LINE
  5
107
330
FD
100
AcDbEntity
  8
치수문자_일반주서
100
AcDbLine
 10
26.01880013998629
 20
43.60057517454865
 30
0.0
 11
25.30786265442179
 21
43.60057517454866
 31
0.0
  0
LINE
  5
108
330
FD
100
AcDbEntity
  8
치수문자_일반주서
100
AcDbLine
 10
78.91194598552357
 20
13.21639659633511
 30
0.0
 11
78.91194598552357
 21
39.36394344956528
 31
0.0
  0
LINE
  5
109
330
FD
100
AcDbEntity
  8
치수문자_일반주서
100
AcDbLine
 10
-42.08805401447642
 20
7.351074928723897
 30
0.0
 11
-42.08805401447642
 21
39.36394344956528
 31
0.0
  0
LINE
  5
10A
330
FD
100
AcDbEntity
  8
치수문자_일반주서
100
AcDbLine
 10
78.91194598552357
 20
38.36394344956528
 30
0.0
 11
-42.08805401447642
 21
38.36394344956528
 31
0.0
  0
MTEXT
  5
10B
330
FD
100
AcDbEntity
  8
치수문자_일반주서
100
AcDbMText
 10
13.25443358123332
 20
42.92915271542702
 30
0.0
 40
3.5
 41
0.0
 71
     1
 72
     1
  1

  7
SLDTEXTSTYLE0
 73
     1
 44
1.0
  0
MTEXT
  5
10C
330
FD
100
AcDbEntity
  8
치수문자_일반주서
100
AcDbMText
 10
15.36780169289593
 20
48.11231208912763
 30
0.0
 40
3.5
 41
0.0
 71
     1
 72
     1
  1
4.76
  7
SLDTEXTSTYLE0
 73
     1
 44
1.0
  0
MTEXT
  5
10D
330
FD
100
AcDbEntity
  8
치수문자_일반주서
100
AcDbMText
 10
16.01432954948426
 20
42.87568053876715
 30
0.0
 40
3.5
 41
0.0
 71
     1
 72
     1
  1
121
  7
SLDTEXTSTYLE0
 73
     1
 44
1.0
  0
MTEXT
  5
10E
330
FD
100
AcDbEntity
  8
치수문자_일반주서
100
AcDbMText
 10
27.86450338512689
 20
42.92915271542692
 30
0.0
 40
3.5
 41
0.0
 71
     1
 72
     1
  1

  7
SLDTEXTSTYLE0
 73
     1
 44
1.0
  0
ENDBLK
  5
FF
330
FD
100
AcDbEntity
  8
0
100
AcDbBlockEnd
  0
BLOCK
  5
117
330
116
100
AcDbEntity
  8
0
100
AcDbBlockBegin
  2
SW_DOWELSYMBOL_0
 70
     0
 10
0.0
 20
0.0
 30
0.0
  3
SW_DOWELSYMBOL_0
  1
SW_DOWELSYMBOL_0
  0
CIRCLE
  5
119
330
116
100
AcDbEntity
  8
해칭선
 62
     0
100
AcDbCircle
 10
0.0
 20
0.0
 30
0.0
 40
3.000000000000001
  0
HATCH
  5
11A
330
116
100
AcDbEntity
  8
0
  6
Continuous
 62
     0
370
     0
100
AcDbHatch
 10
0.0
 20
0.0
 30
0.0
210
0.0
220
0.0
230
1.0
  2
SOLID
 70
     1
 71
     0
 91
        1
 92
        0
 93
        3
 72
     2
 10
0.0
 20
0.0
 40
3.000000000000001
 50
0.0
 51
90.0
 73
     1
 72
     1
 10
0.0
 20
3.000000000000001
 11
0.0
 21
0.0
 72
     1
 10
0.0
 20
0.0
 11
3.000000000000001
 21
0.0
 97
        0
 75
     0
 76
     1
 98
        1
 10
0.0
 20
0.0
  0
HATCH
  5
11B
330
116
100
AcDbEntity
  8
0
  6
Continuous
 62
     0
370
     0
100
AcDbHatch
 10
0.0
 20
0.0
 30
0.0
210
0.0
220
0.0
230
1.0
  2
SOLID
 70
     1
 71
     0
 91
        1
 92
        0
 93
        3
 72
     2
 10
0.0
 20
0.0
 40
3.000000000000001
 50
180.0
 51
270.0000000000007
 73
     1
 72
     1
 10
0.0
 20
-3.000000000000001
 11
0.0
 21
0.0
 72
     1
 10
0.0
 20
0.0
 11
-3.000000000000001
 21
0.0
 97
        0
 75
     0
 76
     1
 98
        1
 10
0.0
 20
0.0
  0
ENDBLK
  5
118
330
116
100
AcDbEntity
  8
0
100
AcDbBlockEnd
  0
BLOCK
  5
209
330
208
100
AcDbEntity
  8
0
100
AcDbBlockBegin
  2
*D7
 70
     1
 10
0.0
 20
0.0
 30
0.0
  3
*D7
  1
*D8
  0
LINE
  5
20B
330
208
100
AcDbEntity
  8
치수문자_일반주서
 62
     0
370
    -2
100
AcDbLine
 10
15.72500000000006
 20
31.82749693834291
 30
0.0
 11
4.375000000000009
 21
31.82749693834287
 31
0.0
  0
LINE
  5
20C
330
208
100
AcDbEntity
  8
치수문자_일반주서
 62
     0
370
    -2
100
AcDbLine
 10
18.90000000000007
 20
0.0774969383429214
 30
0.0
 11
4.37500000000012
 21
0.0774969383428665
 31
0.0
  0
LINE
  5
20D
330
208
100
AcDbEntity
  8
치수문자_일반주서
 62
     0
370
    -2
100
AcDbLine
 10
4.37500000000002
 20
28.52549693834287
 30
0.0
 11
4.375000000000108
 21
3.379496938342866
 31
0.0
  0
SOLID
  5
20E
330
208
100
AcDbEntity
  8
치수문자_일반주서
 62
     0
100
AcDbTrace
 10
4.925333333333354
 20
28.52549693834287
 30
0.0
 11
3.824666666666687
 21
28.52549693834287
 31
0.0
 12
4.375000000000009
 22
31.82749693834287
 32
0.0
 13
4.375000000000009
 23
31.82749693834287
 33
0.0
  0
SOLID
  5
20F
330
208
100
AcDbEntity
  8
치수문자_일반주서
 62
     0
100
AcDbTrace
 10
3.824666666666775
 20
3.379496938342864
 30
0.0
 11
4.925333333333442
 21
3.379496938342868
 31
0.0
 12
4.37500000000012
 22
0.0774969383428665
 32
0.0
 13
4.37500000000012
 23
0.0774969383428665
 33
0.0
  0
MTEXT
  5
210
330
208
100
AcDbEntity
  8
치수문자_일반주서
 62
     0
100
AcDbMText
 10
0.0000000000000639
 20
15.9524969383429
 30
0.0
 40
3.5
 41
0.0
 71
     2
 72
     1
  1
\A1;%%c31.75 [1 1/4]
  7
SLDTEXTSTYLE0
 11
-3.496765431890257E-15
 21
1.0
 31
0.0
 73
     1
 44
1.0
  0
POINT
  5
211
330
208
100
AcDbEntity
  8
Defpoints
 62
     0
100
AcDbPoint
 10
15.78750000000006
 20
31.82749693834291
 30
0.0
  0
POINT
  5
212
330
208
100
AcDbEntity
  8
Defpoints
 62
     0
100
AcDbPoint
 10
18.96250000000007
 20
0.0774969383429216
 30
0.0
  0
POINT
  5
213
330
208
100
AcDbEntity
  8
Defpoints
 62
     0
100
AcDbPoint
 10
4.375000000000121
 20
0.0774969383428671
 30
0.0
  0
ENDBLK
  5
20A
330
208
100
AcDbEntity
  8
0
100
AcDbBlockEnd
  0
BLOCK
  5
215
330
214
100
AcDbEntity
  8
0
100
AcDbBlockBegin
  2
*D8
 70
     1
 10
0.0
 20
0.0
 30
0.0
  3
*D8
  1
*D9
  0
LINE
  5
217
330
214
100
AcDbEntity
  8
치수문자_일반주서
 62
     0
370
    -2
100
AcDbLine
 10
231.6875
 20
31.7741499339493
 30
0.0
 11
231.6875
 21
54.25163647454011
 31
0.0
  0
LINE
  5
218
330
214
100
AcDbEntity
  8
치수문자_일반주서
 62
     0
370
    -2
100
AcDbLine
 10
79.2875000000001
 20
31.86658536642151
 30
0.0
 11
79.28750000000007
 21
54.25163647454011
 31
0.0
  0
LINE
  5
219
330
214
100
AcDbEntity
  8
치수문자_일반주서
 62
     0
370
    -2
100
AcDbLine
 10
228.3855
 20
54.25163647454011
 30
0.0
 11
82.58950000000007
 21
54.25163647454011
 31
0.0
  0
SOLID
  5
21A
330
214
100
AcDbEntity
  8
치수문자_일반주서
 62
     0
100
AcDbTrace
 10
228.3855
 20
53.70130314120678
 30
0.0
 11
228.3855
 21
54.80196980787345
 31
0.0
 12
231.6875
 22
54.25163647454011
 32
0.0
 13
231.6875
 23
54.25163647454011
 33
0.0
  0
SOLID
  5
21B
330
214
100
AcDbEntity
  8
치수문자_일반주서
 62
     0
100
AcDbTrace
 10
82.58950000000007
 20
54.80196980787345
 30
0.0
 11
82.58950000000007
 21
53.70130314120678
 31
0.0
 12
79.28750000000007
 22
54.25163647454011
 32
0.0
 13
79.28750000000007
 23
54.25163647454011
 33
0.0
  0
MTEXT
  5
21C
330
214
100
AcDbEntity
  8
치수문자_일반주서
 62
     0
100
AcDbMText
 10
155.4875000000001
 20
58.62663647454011
 30
0.0
 40
3.5
 41
0.0
 71
     2
 72
     1
  1
\A1;152.4 [6]
  7
SLDTEXTSTYLE0
 73
     1
 44
1.0
  0
POINT
  5
21D
330
214
100
AcDbEntity
  8
Defpoints
 62
     0
100
AcDbPoint
 10
231.6875
 20
31.7116499339493
 30
0.0
  0
POINT
  5
21E
330
214
100
AcDbEntity
  8
Defpoints
 62
     0
100
AcDbPoint
 10
79.2875000000001
 20
31.80408536642151
 30
0.0
  0
POINT
  5
21F
330
214
100
AcDbEntity
  8
Defpoints
 62
     0
100
AcDbPoint
 10
79.2875000000001
 20
54.25163647454011
 30
0.0
  0
ENDBLK
  5
216
330
214
100
AcDbEntity
  8
0
100
AcDbBlockEnd
  0
BLOCK
  5
221
330
220
100
AcDbEntity
  8
0
100
AcDbBlockBegin
  2
*D9
 70
     1
 10
0.0
 20
0.0
 30
0.0
  3
*D9
  1
*D10
  0
LINE
  5
223
330
220
100
AcDbEntity
  8
치수문자_일반주서
 62
     0
370
    -2
100
AcDbLine
 10
231.6875
 20
31.7741499339493
 30
0.0
 11
231.6875
 21
66.25163647454006
 31
0.0
  0
LINE
  5
224
330
220
100
AcDbEntity
  8
치수문자_일반주서
 62
     0
370
    -2
100
AcDbLine
 10
15.78750000000006
 20
28.71499693834294
 30
0.0
 11
15.78750000000005
 21
66.25163647454006
 31
0.0
  0
LINE
  5
225
330
220
100
AcDbEntity
  8
치수문자_일반주서
 62
     0
370
    -2
100
AcDbLine
 10
228.3855
 20
66.25163647454006
 30
0.0
 11
19.08950000000005
 21
66.25163647454006
 31
0.0
  0
SOLID
  5
226
330
220
100
AcDbEntity
  8
치수문자_일반주서
 62
     0
100
AcDbTrace
 10
228.3855
 20
65.70130314120674
 30
0.0
 11
228.3855
 21
66.80196980787339
 31
0.0
 12
231.6875
 22
66.25163647454006
 32
0.0
 13
231.6875
 23
66.25163647454006
 33
0.0
  0
SOLID
  5
227
330
220
100
AcDbEntity
  8
치수문자_일반주서
 62
     0
100
AcDbTrace
 10
19.08950000000005
 20
66.80196980787339
 30
0.0
 11
19.08950000000005
 21
65.70130314120674
 31
0.0
 12
15.78750000000005
 22
66.25163647454006
 32
0.0
 13
15.78750000000005
 23
66.25163647454006
 33
0.0
  0
MTEXT
  5
228
330
220
100
AcDbEntity
  8
치수문자_일반주서
 62
     0
100
AcDbMText
 10
123.7375000000001
 20
70.62663647454006
 30
0.0
 40
3.5
 41
0.0
 71
     2
 72
     1
  1
\A1;215.9 [8 1/2]
  7
SLDTEXTSTYLE0
 73
     1
 44
1.0
  0
POINT
  5
229
330
220
100
AcDbEntity
  8
Defpoints
 62
     0
100
AcDbPoint
 10
231.6875
 20
31.7116499339493
 30
0.0
  0
POINT
  5
22A
330
220
100
AcDbEntity
  8
Defpoints
 62
     0
100
AcDbPoint
 10
15.78750000000006
 20
28.65249693834294
 30
0.0
  0
POINT
  5
22B
330
220
100
AcDbEntity
  8
Defpoints
 62
     0
100
AcDbPoint
 10
15.78750000000006
 20
66.25163647454006
 30
0.0
  0
ENDBLK
  5
222
330
220
100
AcDbEntity
  8
0
100
AcDbBlockEnd
  0
BLOCK
  5
22D
330
22C
100
AcDbEntity
  8
0
100
AcDbBlockBegin
  2
*D10
 70
     1
 10
0.0
 20
0.0
 30
0.0
  3
*D10
  1
*D11
  0
LINE
  5
22F
330
22C
100
AcDbEntity
  8
치수문자_일반주서
 62
     0
370
    -2
100
AcDbLine
 10
231.75
 20
31.82749693834294
 30
0.0
 11
250.7554740764805
 21
31.82749693834301
 31
0.0
  0
LINE
  5
230
330
22C
100
AcDbEntity
  8
치수문자_일반주서
 62
     0
370
    -2
100
AcDbLine
 10
231.75
 20
0.0774969383429076
 30
0.0
 11
250.7554740764807
 21
0.077496938342982
 31
0.0
  0
LINE
  5
231
330
22C
100
AcDbEntity
  8
치수문자_일반주서
 62
     0
370
    -2
100
AcDbLine
 10
250.7554740764805
 20
31.82749693834301
 30
0.0
 11
250.7554740764804
 21
79.5638412289018
 31
0.0
  0
LINE
  5
232
330
22C
100
AcDbEntity
  8
치수문자_일반주서
 62
     0
370
    -2
100
AcDbLine
 10
250.7554740764805
 20
28.52549693834301
 30
0.0
 11
250.7554740764807
 21
3.379496938342982
 31
0.0
  0
SOLID
  5
233
330
22C
100
AcDbEntity
  8
치수문자_일반주서
 62
     0
100
AcDbTrace
 10
251.3058074098139
 20
28.52549693834301
 30
0.0
 11
250.2051407431472
 21
28.525496938343
 31
0.0
 12
250.7554740764805
 22
31.82749693834301
 32
0.0
 13
250.7554740764805
 23
31.82749693834301
 33
0.0
  0
SOLID
  5
234
330
22C
100
AcDbEntity
  8
치수문자_일반주서
 62
     0
100
AcDbTrace
 10
250.2051407431473
 20
3.37949693834298
 30
0.0
 11
251.305807409814
 21
3.379496938342983
 31
0.0
 12
250.7554740764807
 22
0.077496938342982
 32
0.0
 13
250.7554740764807
 23
0.077496938342982
 33
0.0
  0
MTEXT
  5
235
330
22C
100
AcDbEntity
  8
치수문자_일반주서
 62
     0
100
AcDbMText
 10
246.3804740764804
 20
63.81384122890179
 30
0.0
 40
3.5
 41
0.0
 71
     2
 72
     1
  1
\A1;%%c31.75 [1 1/4]
  7
SLDTEXTSTYLE0
 11
-3.580687802255620E-15
 21
1.0
 31
0.0
 73
     1
 44
1.0
  0
POINT
  5
236
330
22C
100
AcDbEntity
  8
Defpoints
 62
     0
100
AcDbPoint
 10
231.6875
 20
31.82749693834294
 30
0.0
  0
POINT
  5
237
330
22C
100
AcDbEntity
  8
Defpoints
 62
     0
100
AcDbPoint
 10
231.6875
 20
0.0774969383429074
 30
0.0
  0
POINT
  5
238
330
22C
100
AcDbEntity
  8
Defpoints
 62
     0
100
AcDbPoint
 10
250.7554740764807
 20
0.0774969383429786
 30
0.0
  0
ENDBLK
  5
22E
330
22C
100
AcDbEntity
  8
0
100
AcDbBlockEnd
  0
BLOCK
  5
29D
330
29C
100
AcDbEntity
  8
0
100
AcDbBlockBegin
  2
*D11
 70
     1
 10
0.0
 20
0.0
 30
0.0
  3
*D11
  1
*D12
  0
LINE
  5
29F
330
29C
100
AcDbEntity
  8
치수문자_일반주서
 62
     0
370
    -2
100
AcDbLine
 10
-61.56250000000006
 20
15.87607492872388
 30
0.0
 11
-72.91250000000011
 21
15.87607492872384
 31
0.0
  0
LINE
  5
2A0
330
29C
100
AcDbEntity
  8
치수문자_일반주서
 62
     0
370
    -2
100
AcDbLine
 10
-58.38750000000005
 20
-15.87392507127611
 30
0.0
 11
-72.9125
 21
-15.87392507127616
 31
0.0
  0
LINE
  5
2A1
330
29C
100
AcDbEntity
  8
치수문자_일반주서
 62
     0
370
    -2
100
AcDbLine
 10
-72.9125000000001
 20
12.57407492872384
 30
0.0
 11
-72.91250000000001
 21
-12.57192507127616
 31
0.0
  0
SOLID
  5
2A2
330
29C
100
AcDbEntity
  8
치수문자_일반주서
 62
     0
100
AcDbTrace
 10
-72.36216666666677
 20
12.57407492872384
 30
0.0
 11
-73.46283333333342
 21
12.57407492872384
 31
0.0
 12
-72.91250000000011
 22
15.87607492872384
 32
0.0
 13
-72.91250000000011
 23
15.87607492872384
 33
0.0
  0
SOLID
  5
2A3
330
29C
100
AcDbEntity
  8
치수문자_일반주서
 62
     0
100
AcDbTrace
 10
-73.46283333333334
 20
-12.57192507127617
 30
0.0
 11
-72.36216666666668
 21
-12.57192507127616
 31
0.0
 12
-72.9125
 22
-15.87392507127616
 32
0.0
 13
-72.9125
 23
-15.87392507127616
 33
0.0
  0
MTEXT
  5
2A4
330
29C
100
AcDbEntity
  8
치수문자_일반주서
 62
     0
100
AcDbMText
 10
-77.28750000000005
 20
0.001074928723869
 30
0.0
 40
3.5
 41
0.0
 71
     2
 72
     1
  1
\A1;%%c31.75 [1 1/4]
  7
SLDTEXTSTYLE0
 11
-3.580687802255622E-15
 21
1.0
 31
0.0
 73
     1
 44
1.0
  0
POINT
  5
2A5
330
29C
100
AcDbEntity
  8
Defpoints
 62
     0
100
AcDbPoint
 10
-61.50000000000006
 20
15.87607492872388
 30
0.0
  0
POINT
  5
2A6
330
29C
100
AcDbEntity
  8
Defpoints
 62
     0
100
AcDbPoint
 10
-58.32500000000005
 20
-15.87392507127611
 30
0.0
  0
POINT
  5
2A7
330
29C
100
AcDbEntity
  8
Defpoints
 62
     0
100
AcDbPoint
 10
-72.9125
 20
-15.87392507127617
 30
0.0
  0
ENDBLK
  5
29E
330
29C
100
AcDbEntity
  8
0
100
AcDbBlockEnd
  0
BLOCK
  5
2A9
330
2A8
100
AcDbEntity
  8
0
100
AcDbBlockBegin
  2
*D12
 70
     1
 10
0.0
 20
0.0
 30
0.0
  3
*D12
  1
*D13
  0
LINE
  5
2AB
330
2A8
100
AcDbEntity
  8
치수문자_일반주서
 62
     0
370
    -2
100
AcDbLine
 10
205.2
 20
19.11357492872391
 30
0.0
 11
205.2
 21
45.96004237216053
 31
0.0
  0
LINE
  5
2AC
330
2A8
100
AcDbEntity
  8
치수문자_일반주서
 62
     0
370
    -2
100
AcDbLine
 10
1.999999999999943
 20
19.08548104241821
 30
0.0
 11
1.999999999999943
 21
45.96004237216053
 31
0.0
  0
LINE
  5
2AD
330
2A8
100
AcDbEntity
  8
치수문자_일반주서
 62
     0
370
    -2
100
AcDbLine
 10
201.898
 20
45.96004237216053
 30
0.0
 11
5.301999999999943
 21
45.96004237216053
 31
0.0
  0
SOLID
  5
2AE
330
2A8
100
AcDbEntity
  8
치수문자_일반주서
 62
     0
100
AcDbTrace
 10
201.898
 20
45.4097090388272
 30
0.0
 11
201.898
 21
46.51037570549386
 31
0.0
 12
205.2
 22
45.96004237216053
 32
0.0
 13
205.2
 23
45.96004237216053
 33
0.0
  0
SOLID
  5
2AF
330
2A8
100
AcDbEntity
  8
치수문자_일반주서
 62
     0
100
AcDbTrace
 10
5.301999999999943
 20
46.51037570549386
 30
0.0
 11
5.301999999999943
 21
45.4097090388272
 31
0.0
 12
1.999999999999943
 22
45.96004237216053
 32
0.0
 13
1.999999999999943
 23
45.96004237216053
 33
0.0
  0
MTEXT
  5
2B0
330
2A8
100
AcDbEntity
  8
치수문자_일반주서
 62
     0
100
AcDbMText
 10
93.43999999999991
 20
50.33504237216053
 30
0.0
 40
3.5
 41
0.0
 71
     2
 72
     1
  1
\A1;203.2 [8]
  7
SLDTEXTSTYLE0
 73
     1
 44
1.0
  0
POINT
  5
2B1
330
2A8
100
AcDbEntity
  8
Defpoints
 62
     0
100
AcDbPoint
 10
205.2
 20
19.05107492872391
 30
0.0
  0
POINT
  5
2B2
330
2A8
100
AcDbEntity
  8
Defpoints
 62
     0
100
AcDbPoint
 10
1.999999999999943
 20
19.02298104241821
 30
0.0
  0
POINT
  5
2B3
330
2A8
100
AcDbEntity
  8
Defpoints
 62
     0
100
AcDbPoint
 10
1.999999999999943
 20
45.96004237216053
 30
0.0
  0
ENDBLK
  5
2AA
330
2A8
100
AcDbEntity
  8
0
100
AcDbBlockEnd
  0
BLOCK
  5
2B5
330
2B4
100
AcDbEntity
  8
0
100
AcDbBlockBegin
  2
*D13
 70
     1
 10
0.0
 20
0.0
 30
0.0
  3
*D13
  1
*D14
  0
LINE
  5
2B7
330
2B4
100
AcDbEntity
  8
치수문자_일반주서
 62
     0
370
    -2
100
AcDbLine
 10
205.2
 20
19.11357492872391
 30
0.0
 11
205.2
 21
60.36004237216046
 31
0.0
  0
LINE
  5
2B8
330
2B4
100
AcDbEntity
  8
치수문자_일반주서
 62
     0
370
    -2
100
AcDbLine
 10
-61.50000000000006
 20
12.76357492872391
 30
0.0
 11
-61.50000000000003
 21
60.36004237216046
 31
0.0
  0
LINE
  5
2B9
330
2B4
100
AcDbEntity
  8
치수문자_일반주서
 62
     0
370
    -2
100
AcDbLine
 10
201.898
 20
60.36004237216046
 30
0.0
 11
-58.19800000000003
 21
60.36004237216046
 31
0.0
  0
SOLID
  5
2BA
330
2B4
100
AcDbEntity
  8
치수문자_일반주서
 62
     0
100
AcDbTrace
 10
201.898
 20
59.80970903882712
 30
0.0
 11
201.898
 21
60.91037570549379
 31
0.0
 12
205.2
 22
60.36004237216046
 32
0.0
 13
205.2
 23
60.36004237216046
 33
0.0
  0
SOLID
  5
2BB
330
2B4
100
AcDbEntity
  8
치수문자_일반주서
 62
     0
100
AcDbTrace
 10
-58.19800000000003
 20
60.91037570549379
 30
0.0
 11
-58.19800000000003
 21
59.80970903882712
 31
0.0
 12
-61.50000000000003
 22
60.36004237216046
 32
0.0
 13
-61.50000000000003
 23
60.36004237216046
 33
0.0
  0
MTEXT
  5
2BC
330
2B4
100
AcDbEntity
  8
치수문자_일반주서
 62
     0
100
AcDbMText
 10
75.66000000000005
 20
64.73504237216045
 30
0.0
 40
3.5
 41
0.0
 71
     2
 72
     1
  1
\A1;266.7 [10 1/2]
  7
SLDTEXTSTYLE0
 73
     1
 44
1.0
  0
POINT
  5
2BD
330
2B4
100
AcDbEntity
  8
Defpoints
 62
     0
100
AcDbPoint
 10
205.2
 20
19.05107492872391
 30
0.0
  0
POINT
  5
2BE
330
2B4
100
AcDbEntity
  8
Defpoints
 62
     0
100
AcDbPoint
 10
-61.50000000000006
 20
12.70107492872391
 30
0.0
  0
POINT
  5
2BF
330
2B4
100
AcDbEntity
  8
Defpoints
 62
     0
100
AcDbPoint
 10
-61.50000000000006
 20
60.36004237216046
 30
0.0
  0
ENDBLK
  5
2B6
330
2B4
100
AcDbEntity
  8
0
100
AcDbBlockEnd
  0
BLOCK
  5
2C1
330
2C0
100
AcDbEntity
  8
0
100
AcDbBlockBegin
  2
*D14
 70
     1
 10
0.0
 20
0.0
 30
0.0
  3
*D14
  1
*D15
  0
LINE
  5
2C3
330
2C0
100
AcDbEntity
  8
치수문자_일반주서
 62
     0
370
    -2
100
AcDbLine
 10
205.2625
 20
19.05107492872391
 30
0.0
 11
228.0815688917766
 21
19.05107492872399
 31
0.0
  0
LINE
  5
2C4
330
2C0
100
AcDbEntity
  8
치수문자_일반주서
 62
     0
370
    -2
100
AcDbLine
 10
205.2625
 20
-19.04892507127612
 30
0.0
 11
228.0815688917768
 21
-19.04892507127603
 31
0.0
  0
LINE
  5
2C5
330
2C0
100
AcDbEntity
  8
치수문자_일반주서
 62
     0
370
    -2
100
AcDbLine
 10
228.0815688917766
 20
19.05107492872399
 30
0.0
 11
228.0815688917764
 21
71.87218807739454
 31
0.0
  0
LINE
  5
2C6
330
2C0
100
AcDbEntity
  8
치수문자_일반주서
 62
     0
370
    -2
100
AcDbLine
 10
228.0815688917766
 20
15.74907492872399
 30
0.0
 11
228.0815688917768
 21
-15.74692507127603
 31
0.0
  0
SOLID
  5
2C7
330
2C0
100
AcDbEntity
  8
치수문자_일반주서
 62
     0
100
AcDbTrace
 10
228.6319022251099
 20
15.74907492872399
 30
0.0
 11
227.5312355584433
 21
15.74907492872399
 31
0.0
 12
228.0815688917766
 22
19.05107492872399
 32
0.0
 13
228.0815688917766
 23
19.05107492872399
 33
0.0
  0
SOLID
  5
2C8
330
2C0
100
AcDbEntity
  8
치수문자_일반주서
 62
     0
100
AcDbTrace
 10
227.5312355584434
 20
-15.74692507127603
 30
0.0
 11
228.6319022251101
 21
-15.74692507127603
 31
0.0
 12
228.0815688917768
 22
-19.04892507127603
 32
0.0
 13
228.0815688917768
 23
-19.04892507127603
 33
0.0
  0
MTEXT
  5
2C9
330
2C0
100
AcDbEntity
  8
치수문자_일반주서
 62
     0
100
AcDbMText
 10
223.7065688917765
 20
57.43468807739453
 30
0.0
 40
3.5
 41
0.0
 71
     2
 72
     1
  1
\A1;%%c38.1 [1 1/2]
  7
SLDTEXTSTYLE0
 11
-3.729883127349604E-15
 21
1.0
 31
0.0
 73
     1
 44
1.0
  0
POINT
  5
2CA
330
2C0
100
AcDbEntity
  8
Defpoints
 62
     0
100
AcDbPoint
 10
205.2
 20
19.05107492872391
 30
0.0
  0
POINT
  5
2CB
330
2C0
100
AcDbEntity
  8
Defpoints
 62
     0
100
AcDbPoint
 10
205.2
 20
-19.04892507127612
 30
0.0
  0
POINT
  5
2CC
330
2C0
100
AcDbEntity
  8
Defpoints
 62
     0
100
AcDbPoint
 10
228.0815688917767
 20
-19.04892507127604
 30
0.0
  0
ENDBLK
  5
2C2
330
2C0
100
AcDbEntity
  8
0
100
AcDbBlockEnd
  0
ENDSEC
  0
SECTION
  2
ENTITIES
  0
LINE
  5
B5
330
1F
100
AcDbEntity
  8
참조1
100
AcDbLine
 10
18.41194598552359
 20
0.0010749287238892
 30
0.0
 11
18.4119459855236
 21
-39.99892507127611
 31
0.0
  0
LINE
  5
B6
330
1F
100
AcDbEntity
  8
참조1
100
AcDbLine
 10
18.4119459855236
 20
-39.99892507127611
 30
0.0
 11
3.253089171214916
 21
-39.9989250712761
 31
0.0
  0
INSERT
  5
B8
330
1F
100
AcDbEntity
  8
0
  6
Continuous
 62
     7
100
AcDbBlockReference
 66
     1
  2
블럭10
 10
54.92539814618068
 20
-52.04609937292004
 30
0.0
  0
ATTRIB
  5
B9
330
B8
100
AcDbEntity
  8
FORMAT
 62
     2
100
AcDbText
 10
45.7441028574394
 20
-49.97073246008785
 30
0.0
 40
4.233333333333333
  1
E2175132 [ 6 FLUTE ]
 41
0.75
  7
SLDTEXTSTYLE0
 11
45.7441028574394
 21
-52.08739912675452
 31
0.0
100
AcDbAttribute
  2
AUTOATTR0
 70
     0
 74
     1
  0
SEQEND
  5
BA
330
B8
100
AcDbEntity
  8
0
  6
Continuous
 62
     7
  0
HATCH
  5
BB
330
1F
100
AcDbEntity
  8
중심선
100
AcDbHatch
 10
0.0
 20
0.0
 30
0.0
210
0.0
220
0.0
230
1.0
  2
SOLID
 70
     1
 71
     0
 91
        1
 92
        0
 93
        4
 72
     1
 10
60.64030745056152
 20
-35.7989250712761
 11
57.19403220672423
 21
-35.7989250712761
 72
     1
 10
57.19403220672423
 20
-35.7989250712761
 11
55.0658023475202
 21
-38.3352506518487
 72
     1
 10
55.06580234752021
 20
-38.3352506518487
 11
58.51211067647064
 21
-38.33521122254621
 72
     1
 10
58.51211067647064
 20
-38.33521122254621
 11
60.64030745056152
 21
-35.7989250712761
 97
        0
 75
     0
 76
     1
 98
        1
 10
50.45372509278229
 20
0.0
  0
HATCH
  5
BC
330
1F
100
AcDbEntity
  8
중심선
100
AcDbHatch
 10
0.0
 20
0.0
 30
0.0
210
0.0
220
0.0
230
1.0
  2
SOLID
 70
     1
 71
     0
 91
        1
 92
        0
 93
        4
 72
     1
 10
65.65307144159749
 20
-35.7989250712761
 11
62.20679619776021
 21
-35.7989250712761
 72
     1
 10
62.20679619776021
 20
-35.7989250712761
 11
57.6756581894028
 21
-41.19892507127612
 72
     1
 10
57.6756581894028
 20
-41.19892507127612
 11
61.12193343324007
 21
-41.19892507127612
 72
     1
 10
61.12193343324007
 20
-41.19892507127612
 11
65.65307144159749
 21
-35.7989250712761
 97
        0
 75
     0
 76
     1
 98
        1
 10
50.45372509278229
 20
0.0
  0
HATCH
  5
BD
330
1F
100
AcDbEntity
  8
중심선
100
AcDbHatch
 10
0.0
 20
0.0
 30
0.0
210
0.0
220
0.0
230
1.0
  2
SOLID
 70
     1
 71
     0
 91
        1
 92
        0
 93
        4
 72
     1
 10
70.66583543263336
 20
-35.7989250712761
 11
67.21956018879624
 21
-35.7989250712761
 72
     1
 10
67.21956018879625
 20
-35.7989250712761
 11
60.171123286907
 21
-44.19892507127612
 72
     1
 10
60.171123286907
 20
-44.19892507127612
 11
63.61739853074428
 21
-44.19892507127612
 72
     1
 10
63.61739853074428
 20
-44.19892507127612
 11
70.66583543263337
 21
-35.7989250712761
 97
        0
 75
     0
 76
     1
 98
        1
 10
50.45372509278229
 20
0.0
  0
HATCH
  5
BE
330
1F
100
AcDbEntity
  8
중심선
100
AcDbHatch
 10
0.0
 20
0.0
 30
0.0
210
0.0
220
0.0
230
1.0
  2
SOLID
 70
     1
 71
     0
 91
        1
 92
        0
 93
        6
 72
     3
 10
75.46572586364556
 20
-39.99892507132738
 11
3.960054785062283
 21
1.540882976769353E-10
 40
0.3939339440162628
 50
17.09539180608439
 51
320.0019657685075
 73
     0
 72
     1
 10
77.14872551934616
 20
-38.58681907591438
 11
79.4540273930472
 21
-36.65249236586649
 72
     3
 10
75.46572586359271
 20
-39.99892507127625
 11
6.600054785286829
 21
-1.278976924368180E-13
 40
0.636358354079598
 50
39.99873849337408
 51
368.4976242363724
 73
     1
 72
     1
 10
81.89105835549333
 20
-39.03892507120613
 11
74.14579317042865
 21
-39.0389250712061
 72
     1
 10
74.14579317042863
 20
-39.0389250712061
 11
74.1457681259827
 21
-40.95892507120602
 72
     1
 10
74.1457681259827
 20
-40.95892507120602
 11
78.58714789545473
 21
-40.95892507120599
 97
        0
 75
     0
 76
     1
 98
        1
 10
50.45372509278229
 20
0.0
  0
LINE
  5
10F
330
1F
100
AcDbEntity
  8
참조1
100
AcDbLine
 10
101.2254298008692
 20
7.441074928723896
 30
0.0
 11
101.2254298008692
 21
-7.438925071276109
 31
0.0
  0
LINE
  5
110
330
1F
100
AcDbEntity
  8
참조1
100
AcDbLine
 10
113.9254298008692
 20
5.441074928723896
 30
0.0
 11
101.2254298008692
 21
5.441074928723896
 31
0.0
  0
SOLID
  5
111
330
1F
100
AcDbEntity
  8
참조1
100
AcDbTrace
 10
101.2254298008692
 20
5.441074928723896
 30
0.0
 11
107.5754298008692
 21
4.425074928723896
 31
0.0
 12
107.5754298008692
 22
6.457074928723896
 32
0.0
 13
107.5754298008692
 23
6.457074928723896
 33
0.0
  0
LINE
  5
112
330
1F
100
AcDbEntity
  8
참조1
100
AcDbLine
 10
113.9254298008692
 20
-5.438925071276109
 30
0.0
 11
101.2254298008692
 21
-5.438925071276109
 31
0.0
  0
SOLID
  5
113
330
1F
100
AcDbEntity
  8
참조1
100
AcDbTrace
 10
101.2254298008692
 20
-5.438925071276109
 30
0.0
 11
107.5754298008692
 21
-6.454925071276109
 31
0.0
 12
107.5754298008692
 22
-4.422925071276109
 32
0.0
 13
107.5754298008692
 23
-4.422925071276109
 33
0.0
  0
MTEXT
  5
114
330
1F
100
AcDbEntity
  8
참조1
100
AcDbMText
 10
110.6229198933395
 20
10.98929157337383
 30
0.0
 40
3.5
 41
0.0
 71
     1
 72
     1
  1
A
  7
SLDTEXTSTYLE0
 73
     1
 44
1.0
  0
MTEXT
  5
115
330
1F
100
AcDbEntity
  8
참조1
100
AcDbMText
 10
110.6229198933395
 20
0.1092915733738259
 30
0.0
 40
3.5
 41
0.0
 71
     1
 72
     1
  1
A
  7
SLDTEXTSTYLE0
 73
     1
 44
1.0
  0
LINE
  5
23A
330
1F
100
AcDbEntity
  8
외형선
  6
Continuous
 62
     1
370
    15
100
AcDbLine
 10
129.4438382598077
 20
3.612972518764263
 30
0.0
 11
129.2384931955678
 21
3.811607763751635
 31
0.0
  0
LINE
  5
23B
330
1F
100
AcDbEntity
  8
외형선
  6
Continuous
 62
     1
370
    15
100
AcDbLine
 10
121.4177986626126
 20
-3.6652575301956
 30
0.0
 11
121.5658764034066
 21
-3.808088134498409
 31
0.0
  0
LINE
  5
23C
330
1F
100
AcDbEntity
  8
외형선
  6
Continuous
 62
     1
370
    15
100
AcDbLine
 10
41.63992175319245
 20
-3.681282794476491
 30
0.0
 11
41.7715133092731
 21
-3.808838230901603
 31
0.0
  0
LINE
  5
23D
330
1F
100
AcDbEntity
  8
외형선
  6
Continuous
 62
     1
370
    15
100
AcDbLine
 10
149.3226669460177
 20
3.678676147277823
 30
0.0
 11
149.1878918799777
 21
3.81104075680998
 31
0.0
  0
LINE
  5
23E
330
1F
100
AcDbEntity
  8
외형선
  6
Continuous
 62
     1
370
    15
100
AcDbLine
 10
141.3748238619524
 20
-3.671492321199292
 30
0.0
 11
141.5179413859193
 21
-3.809394626718916
 31
0.0
  0
LINE
  5
23F
330
1F
100
AcDbEntity
  8
외형선
  6
Continuous
 62
     1
370
    15
100
AcDbLine
 10
143.0483482145962
 20
-19.04892507127612
 30
0.0
 11
147.6545629139644
 21
-19.04892507127612
 31
0.0
  0
LINE
  5
240
330
1F
100
AcDbEntity
  8
외형선
  6
Continuous
 62
     1
370
    15
100
AcDbLine
 10
1.999999999999915
 20
-19.04892507127612
 30
0.0
 11
7.640356532721427
 21
-19.04892507127612
 31
0.0
  0
LINE
  5
241
330
1F
100
AcDbEntity
  8
외형선
  6
Continuous
 62
     1
370
    15
100
AcDbLine
 10
87.80681516206957
 20
19.05107492872391
 30
0.0
 11
83.20293140097172
 21
19.05107492872391
 31
0.0
  0
LINE
  5
242
330
1F
100
AcDbEntity
  8
외형선
  6
Continuous
 62
     1
370
    15
100
AcDbLine
 10
205.2
 20
19.05107492872391
 30
0.0
 11
202.8961165078192
 21
19.05107492872391
 31
0.0
  0
LINE
  5
243
330
1F
100
AcDbEntity
  8
외형선
  6
Continuous
 62
     1
370
    15
100
AcDbLine
 10
123.1012456542556
 20
-19.04892507127612
 30
0.0
 11
127.7063715512658
 21
-19.04892507127612
 31
0.0
  0
LINE
  5
244
330
1F
100
AcDbEntity
  8
외형선
  6
Continuous
 62
     1
370
    15
100
AcDbLine
 10
67.85918837664909
 20
19.05107492872391
 30
0.0
 11
63.25501011887505
 21
19.05107492872391
 31
0.0
  0
LINE
  5
245
330
1F
100
AcDbEntity
  8
외형선
  6
Continuous
 62
     1
370
    15
100
AcDbLine
 10
187.5535520910642
 20
19.05107492872391
 30
0.0
 11
182.947034240167
 21
19.05107492872391
 31
0.0
  0
LINE
  5
246
330
1F
100
AcDbEntity
  8
외형선
  6
Continuous
 62
     1
370
    15
100
AcDbLine
 10
103.1514566115646
 20
-19.04892507127612
 30
0.0
 11
107.7570083674119
 21
-19.04892507127612
 31
0.0
  0
LINE
  5
247
330
1F
100
AcDbEntity
  8
외형선
  6
Continuous
 62
     1
370
    15
100
AcDbLine
 10
47.90826108103855
 20
19.05107492872391
 30
0.0
 11
43.30438212321312
 21
19.05107492872391
 31
0.0
  0
LINE
  5
248
330
1F
100
AcDbEntity
  8
외형선
  6
Continuous
 62
     1
370
    15
100
AcDbLine
 10
167.6057776781795
 20
19.05107492872391
 30
0.0
 11
162.9990856622974
 21
19.05107492872391
 31
0.0
  0
LINE
  5
249
330
1F
100
AcDbEntity
  8
외형선
  6
Continuous
 62
     1
370
    15
100
AcDbLine
 10
202.8961165078192
 20
-19.04892507127612
 30
0.0
 11
205.2
 21
-19.04892507127612
 31
0.0
  0
LINE
  5
24B
330
1F
100
AcDbEntity
  8
외형선
  6
Continuous
 62
     1
370
    15
100
AcDbLine
 10
7.640356532721484
 20
19.05107492872391
 30
0.0
 11
3.033692309860555
 21
19.05107492872391
 31
0.0
  0
LINE
  5
24C
330
1F
100
AcDbEntity
  8
외형선
  6
Continuous
 62
     1
370
    15
100
AcDbLine
 10
147.6545629139646
 20
19.05107492872391
 30
0.0
 11
143.0483482145961
 21
19.05107492872391
 31
0.0
  0
LINE
  5
24D
330
1F
100
AcDbEntity
  8
외형선
  6
Continuous
 62
     1
370
    15
100
AcDbLine
 10
182.9470342401668
 20
-19.04892507127612
 30
0.0
 11
187.5535520910642
 21
-19.04892507127612
 31
0.0
  0
LINE
  5
24E
330
1F
100
AcDbEntity
  8
외형선
  6
Continuous
 62
     1
370
    15
100
AcDbLine
 10
63.25501011887499
 20
-19.04892507127612
 30
0.0
 11
67.85918837664903
 21
-19.04892507127612
 31
0.0
  0
LINE
  5
24F
330
1F
100
AcDbEntity
  8
외형선
  6
Continuous
 62
     1
370
    15
100
AcDbLine
 10
127.7063715512657
 20
19.05107492872391
 30
0.0
 11
123.1012456542555
 21
19.05107492872391
 31
0.0
  0
LINE
  5
250
330
1F
100
AcDbEntity
  8
외형선
  6
Continuous
 62
     1
370
    15
100
AcDbLine
 10
162.9990856622973
 20
-19.04892507127612
 30
0.0
 11
167.6057776781792
 21
-19.04892507127612
 31
0.0
  0
LINE
  5
251
330
1F
100
AcDbEntity
  8
외형선
  6
Continuous
 62
     1
370
    15
100
AcDbLine
 10
43.30438212321295
 20
-19.04892507127612
 30
0.0
 11
47.90826108103843
 21
-19.04892507127612
 31
0.0
  0
LINE
  5
252
330
1F
100
AcDbEntity
  8
외형선
  6
Continuous
 62
     1
370
    15
100
AcDbLine
 10
107.7570083674118
 20
19.05107492872391
 30
0.0
 11
103.1514566115646
 21
19.05107492872391
 31
0.0
  0
LINE
  5
253
330
1F
100
AcDbEntity
  8
외형선
  6
Continuous
370
    15
100
AcDbLine
 10
-58.32500000000005
 20
-15.87392507127611
 30
0.0
 11
1.999999999999972
 21
-15.87392507127611
 31
0.0
  0
LINE
  5
254
330
1F
100
AcDbEntity
  8
외형선
  6
Continuous
370
    15
100
AcDbLine
 10
-61.50000000000006
 20
-12.69892507127612
 30
0.0
 11
-58.32500000000005
 21
-15.87392507127611
 31
0.0
  0
LINE
  5
255
330
1F
100
AcDbEntity
  8
외형선
  6
Continuous
 62
     1
370
    15
100
AcDbLine
 10
205.2
 20
11.38677718252768
 30
0.0
 11
205.2
 21
18.91205852345154
 31
0.0
  0
SPLINE
  5
256
330
1F
100
AcDbEntity
  8
외형선
  6
Continuous
 62
     1
370
    15
100
AcDbSpline
210
0.0
220
0.0
230
1.0
 70
     8
 71
     3
 72
    28
 73
    24
 74
     0
 42
0.000000001
 43
0.00000001
 40
0.0
 40
0.0
 40
0.0
 40
0.0
 40
0.0380438584875185
 40
0.0867269030463782
 40
0.1354087679635503
 40
0.1840899723642639
 40
0.2327710358148329
 40
0.2814524779757174
 40
0.3301348182544408
 40
0.3788185754588818
 40
0.4275042674514468
 40
0.4761924108046137
 40
0.5248835204583706
 40
0.57357797885035
 40
0.6222712348413157
 40
0.670961199080663
 40
0.7196483852970795
 40
0.7683333090677161
 40
0.8170164874770743
 40
0.8656984387736906
 40
0.9143796820251208
 40
0.963060736771732
 40
1.0
 40
1.0
 40
1.0
 40
1.0
 10
67.85918837664909
 20
19.00269585239273
 30
0.0
 10
68.71539097234873
 20
18.98872078636136
 30
0.0
 10
70.66723819440855
 20
18.95686244588396
 30
0.0
 10
73.71463107844616
 20
18.23768419803037
 30
0.0
 10
77.00138714493997
 20
16.98629427141014
 30
0.0
 10
80.28807412408125
 20
15.2128169737325
 30
0.0
 10
83.57474740277777
 20
12.99230879785829
 30
0.0
 10
86.86145890780287
 20
10.38470275323355
 30
0.0
 10
90.14826136854404
 20
7.469028128636804
 30
0.0
 10
93.43520759131289
 20
4.331422849762934
 30
0.0
 10
96.72234886256715
 20
1.065162886008675
 30
0.0
 10
100.0097418260469
 20
-2.232789619352221
 30
0.0
 10
103.2974193961278
 20
-5.464494785236688
 30
0.0
 10
106.5853772567115
 20
-8.533804355996843
 30
0.0
 10
109.8732388460835
 20
-11.34962410272635
 30
0.0
 10
113.1608102170155
 20
-13.82827008294111
 30
0.0
 10
116.4481044218211
 20
-15.89598603227109
 30
0.0
 10
119.7351683648664
 20
-17.4918231041274
 30
0.0
 10
123.0220558737381
 20
-18.56686516666387
 30
0.0
 10
126.308818797827
 20
-19.09502234376163
 30
0.0
 10
129.5955107712765
 20
-19.03895293041413
 30
0.0
 10
132.6179278170625
 20
-18.52606463935602
 30
0.0
 10
134.5447990244615
 20
-17.79334611649026
 30
0.0
 10
135.3761110824005
 20
-17.47722859872645
 30
0.0
  0
SPLINE
  5
257
330
1F
100
AcDbEntity
  8
외형선
  6
Continuous
 62
     1
370
    15
100
AcDbSpline
210
0.0
220
0.0
230
1.0
 70
     8
 71
     3
 72
    13
 73
     9
 74
     0
 42
0.000000001
 43
0.00000001
 40
0.0
 40
0.0
 40
0.0
 40
0.0
 40
0.068546145928444
 40
0.2548188868345339
 40
0.4410986683164687
 40
0.6273874678863465
 40
0.8136872570492888
 40
1.0
 40
1.0
 40
1.0
 40
1.0
 10
187.5535520910642
 20
18.98516952891362
 30
0.0
 10
187.9567268815732
 20
19.00251364470205
 30
0.0
 10
189.4555208681013
 20
19.06699003821003
 30
0.0
 10
192.0500180149975
 20
18.59132053844784
 30
0.0
 10
195.3371177749644
 20
17.57689602024208
 30
0.0
 10
198.6244611990938
 20
15.99674500662211
 30
0.0
 10
201.9120853863149
 20
13.97571544279942
 30
0.0
 10
204.1040030616027
 20
12.28926721555849
 30
0.0
 10
205.2
 20
11.44601378744839
 30
0.0
  0
SPLINE
  5
258
330
1F
100
AcDbEntity
  8
외형선
  6
Continuous
 62
     1
370
    15
100
AcDbSpline
210
0.0
220
0.0
230
1.0
 70
     8
 71
     3
 72
    11
 73
     7
 74
     0
 42
0.000000001
 43
0.00000001
 40
0.0
 40
0.0
 40
0.0
 40
0.0
 40
0.3295758130043118
 40
0.6591287115527
 40
0.9886621701851208
 40
0.9999999999999999
 40
0.9999999999999999
 40
0.9999999999999999
 40
0.9999999999999999
 10
205.2
 20
18.91205852345154
 30
0.0
 10
204.104002618205
 20
18.99297979881447
 30
0.0
 10
201.9120840561527
 20
19.15481672331738
 30
0.0
 10
198.62446651918
 20
18.62252222784227
 30
0.0
 10
196.3951292032629
 20
18.0645757244531
 30
0.0
 10
195.2616786555672
 20
17.53600668679183
 30
0.0
 10
195.2239785914994
 20
17.51842578163048
 30
0.0
  0
SPLINE
  5
259
330
1F
100
AcDbEntity
  8
외형선
  6
Continuous
 62
     1
370
    15
100
AcDbSpline
210
0.0
220
0.0
230
1.0
 70
     8
 71
     3
 72
    29
 73
    25
 74
     0
 42
0.000000001
 43
0.00000001
 40
0.0
 40
0.0
 40
0.0
 40
0.0
 40
0.0045287099762297
 40
0.0532118901874427
 40
0.1018937009269429
 40
0.1505746610673378
 40
0.1992552900491759
 40
0.2479361075341841
 40
0.2966176330581853
 40
0.3453003856841971
 40
0.3939848836562219
 40
0.4426716440542392
 40
0.4913611824508906
 40
0.5400540125703712
 40
0.5887480450803491
 40
0.6374387288813921
 40
0.686126446407789
 40
0.7348117125950228
 40
0.783495044011055
 40
0.8321769585137605
 40
0.8808579749064834
 40
0.9295386125922032
 40
0.9782193912268343
 40
0.9999999999999999
 40
0.9999999999999999
 40
0.9999999999999999
 40
0.9999999999999999
 10
143.0483482145962
 20
-19.02504231291159
 30
0.0
 10
142.9464251502064
 20
-19.03285481472636
 30
0.0
 10
141.7488393170792
 20
-19.12465093124496
 30
0.0
 10
139.4556849799075
 20
-18.76701981539303
 30
0.0
 10
136.1688871759797
 20
-17.91843363899378
 30
0.0
 10
132.8821829072126
 20
-16.47834099419799
 30
0.0
 10
129.5955102137804
 20
-14.56473627623385
 30
0.0
 10
126.3088189472101
 20
-12.21428569576648
 30
0.0
 10
123.0220558337097
 20
-9.502176980627532
 30
0.0
 10
119.7351683755923
 20
-6.507486036988318
 30
0.0
 10
116.4481044189472
 20
-3.319515045247261
 30
0.0
 10
113.1608102177837
 20
-0.0328210310460229
 30
0.0
 10
109.8732388458843
 20
3.254972956620847
 30
0.0
 10
106.5853772567402
 20
6.446149395146072
 30
0.0
 10
103.2974193962121
 20
9.445841059329673
 30
0.0
 10
100.0097418256806
 20
12.16501251221006
 30
0.0
 10
96.72234886394753
 20
14.52282402313717
 30
0.0
 10
93.4352075861577
 20
16.44910626996313
 30
0.0
 10
90.14826138778372
 20
17.88740964493734
 30
0.0
 10
86.86145883600139
 20
18.79234076460253
 30
0.0
 10
83.57474767073879
 20
19.14716396909702
 30
0.0
 10
80.28807312404402
 20
18.90360104710462
 30
0.0
 10
77.60679181463937
 20
18.33758381325119
 30
0.0
 10
76.02104781006935
 20
17.66921572075748
 30
0.0
 10
75.53087196981741
 20
17.46261371539501
 30
0.0
  0
SPLINE
  5
25B
330
1F
100
AcDbEntity
  8
외형선
  6
Continuous
 62
     1
370
    15
100
AcDbSpline
210
0.0
220
0.0
230
1.0
 70
     8
 71
     3
 72
    11
 73
     7
 74
     0
 42
0.000000001
 43
0.00000001
 40
0.0
 40
0.0
 40
0.0
 40
0.0
 40
0.2730642671712928
 40
0.546132487298297
 40
0.8192043538763625
 40
1.0
 40
1.0
 40
1.0
 40
1.0
 10
1.999999999999943
 20
-18.22000386617469
 30
0.0
 10
3.211482004035162
 20
-18.51078774594404
 30
0.0
 10
5.634463549862375
 20
-19.09235971495259
 30
0.0
 10
9.268995478461534
 20
-19.07118754920744
 30
0.0
 10
12.49417980896877
 20
-18.56327565922584
 30
0.0
 10
14.5078624812156
 20
-17.76972833616872
 30
0.0
 10
15.31000198146248
 20
-17.45362309182598
 30
0.0
  0
SPLINE
  5
25C
330
1F
100
AcDbEntity
  8
외형선
  6
Continuous
 62
     1
370
    15
100
AcDbSpline
210
0.0
220
0.0
230
1.0
 70
     8
 71
     3
 72
    28
 73
    24
 74
     0
 42
0.000000001
 43
0.00000001
 40
0.0
 40
0.0
 40
0.0
 40
0.0
 40
0.0346794951907747
 40
0.0833625814204627
 40
0.1320476024116089
 40
0.1807350747295715
 40
0.2294255133072416
 40
0.2781193005769809
 40
0.3268118854622784
 40
0.3755011786413253
 40
0.4241876938357291
 40
0.4728719466155348
 40
0.5215544540581172
 40
0.57023573440487
 40
0.6189163067161952
 40
0.6675966905252997
 40
0.7162774054912933
 40
0.7649589710521084
 40
0.8136419060777385
 40
0.8623267285243142
 40
0.9110139550895061
 40
0.9597041008697705
 40
1.0
 40
1.0
 40
1.0
 40
1.0
 10
87.80681516206957
 20
18.99302429029935
 30
0.0
 10
88.58728740008857
 20
18.98837240986727
 30
0.0
 10
90.46338681071606
 20
18.97719021822511
 30
0.0
 10
93.4352084120745
 20
18.30378374354399
 30
0.0
 10
96.72234864262836
 20
17.09073157982898
 30
0.0
 10
100.0097418849875
 20
15.34984787568483
 30
0.0
 10
103.2974193803214
 20
13.15839344946563
 30
0.0
 10
106.58537726099
 20
10.57469305848419
 30
0.0
 10
109.8732388447762
 20
7.677263378786492
 30
0.0
 10
113.1608102179665
 20
4.551746580672329
 30
0.0
 10
116.4481044193242
 20
1.291184948892347
 30
0.0
 10
119.7351683739024
 20
-2.007626546010894
 30
0.0
 10
123.0220558400923
 20
-5.246717358495157
 30
0.0
 10
126.30881892337
 20
-8.329914158925227
 30
0.0
 10
129.5955103027572
 20
-11.16566368060945
 30
0.0
 10
132.8821825751457
 20
-13.66979352707327
 30
0.0
 10
136.1688884152894
 20
-15.76785005359927
 30
0.0
 10
139.4556803545966
 20
-17.39789001143544
 30
0.0
 10
142.7426112689692
 20
-18.51013944215375
 30
0.0
 10
146.0297324117834
 20
-19.07660048281551
 30
0.0
 10
149.3171005583797
 20
-19.06154099909819
 30
0.0
 10
152.4157427728453
 20
-18.56602986731634
 30
0.0
 10
154.4186627899199
 20
-17.82382823588734
 30
0.0
 10
155.3256529034275
 20
-17.48773416513233
 30
0.0
  0
SPLINE
  5
25D
330
1F
100
AcDbEntity
  8
외형선
  6
Continuous
370
    15
100
AcDbSpline
210
0.0
220
0.0
230
1.0
 70
    24
 71
     3
 72
    15
 73
    11
 74
     0
 42
0.000000001
 43
0.00000001
 40
0.0
 40
0.0
 40
0.0
 40
0.0
 40
0.0783402693792476
 40
0.2002598262802808
 40
0.3257150585908622
 40
0.447634615491897
 40
0.5730898478024775
 40
0.6950094047035118
 40
0.8204646370140936
 40
1.0
 40
1.0
 40
1.0
 40
1.0
 10
2.0
 20
-7.329599459241656
 30
0.0
 10
1.999999999999972
 20
-7.474863655612026
 30
0.0
 10
1.999999999999943
 20
-7.846199916776087
 30
0.0
 10
1.999999999999915
 20
-8.596557823024611
 30
0.0
 10
1.999999999999972
 20
-9.526895139315208
 30
0.0
 10
1.999999999999972
 20
-10.54630256862826
 30
0.0
 10
1.999999999999915
 20
-11.60087465404298
 30
0.0
 10
2.000000000000085
 20
-12.67939299426485
 30
0.0
 10
1.999999999999858
 20
-13.90549106747658
 30
0.0
 10
1.999999999999915
 20
-14.70973325263675
 30
0.0
 10
1.999999999999972
 20
-15.18315740035825
 30
0.0
  0
SPLINE
  5
25E
330
1F
100
AcDbEntity
  8
외형선
  6
Continuous
 62
     1
370
    15
100
AcDbSpline
210
0.0
220
0.0
230
1.0
 70
     8
 71
     3
 72
    29
 73
    25
 74
     0
 42
0.000000001
 43
0.00000001
 40
0.0
 40
0.0
 40
0.0
 40
0.0
 40
0.0078621397384428
 40
0.0565505386140936
 40
0.1052422760220209
 40
0.1539346472407083
 40
0.2026236188034531
 40
0.251309671221525
 40
0.299993319578959
 40
0.3486750805609652
 40
0.3973554721111818
 40
0.4460350130870902
 40
0.4947142229140958
 40
0.5433936212387762
 40
0.5920737275818085
 40
0.6407550609910786
 40
0.689438139695481
 40
0.7381234807599205
 40
0.7868115997420091
 40
0.8355030103509653
 40
0.8841956233153663
 40
0.9328848876684552
 40
0.9815711858333718
 40
1.0
 40
1.0
 40
1.0
 40
1.0
 10
162.9990856622973
 20
-19.01057728559471
 30
0.0
 10
162.8221322582409
 20
-19.02277986817021
 30
0.0
 10
161.5493476675456
 20
-19.11055020043143
 30
0.0
 10
159.180573054834
 20
-18.72733961145533
 30
0.0
 10
155.8926912600701
 20
-17.8358576030933
 30
0.0
 10
152.6047509247008
 20
-16.36184246171693
 30
0.0
 10
149.3171004240967
 20
-14.41588356776273
 30
0.0
 10
146.0297324477616
 20
-12.03797610816614
 30
0.0
 10
142.7426112593293
 20
-9.303563090981633
 30
0.0
 10
139.4556803571798
 20
-6.292582148659484
 30
0.0
 10
136.1688884145959
 20
-3.094799156955961
 30
0.0
 10
132.8821825753368
 20
0.1949186494502122
 30
0.0
 10
129.5955103026861
 20
3.478863332421476
 30
0.0
 10
126.3088189234634
 20
6.659529836571252
 30
0.0
 10
123.0220558397895
 20
9.642474135987491
 30
0.0
 10
119.7351683750208
 20
12.33909913895261
 30
0.0
 10
116.4481044151528
 20
14.6693735456489
 30
0.0
 10
113.1608102335342
 20
16.56385526464568
 30
0.0
 10
109.8732387866713
 20
17.96706402342352
 30
0.0
 10
106.5853774778585
 20
18.83421726273346
 30
0.0
 10
103.2974185709602
 20
19.15088558887556
 30
0.0
 10
100.0097449052522
 20
18.86532911299969
 30
0.0
 10
97.4032974203486
 20
18.29346204202665
 30
0.0
 10
95.89276448904954
 20
17.64405674846905
 30
0.0
 10
95.47799455547684
 20
17.46573968904617
 30
0.0
  0
SPLINE
  5
25F
330
1F
100
AcDbEntity
  8
외형선
  6
Continuous
 62
     1
370
    15
100
AcDbSpline
210
0.0
220
0.0
230
1.0
 70
     8
 71
     3
 72
    13
 73
     9
 74
     0
 42
0.000000001
 43
0.00000001
 40
0.0
 40
0.0
 40
0.0
 40
0.0
 40
0.1339736057371574
 40
0.3071831204453374
 40
0.4803907121819757
 40
0.6535961858154593
 40
0.8267993465585985
 40
1.0
 40
1.0
 40
1.0
 40
1.0
 10
22.98438212321284
 20
-18.98825513452454
 30
0.0
 10
22.04724952129331
 20
-18.97259418266255
 30
0.0
 10
19.89853287412416
 20
-18.93668576595882
 30
0.0
 10
16.5382666055477
 20
-18.06441260106107
 30
0.0
 10
12.90359692271127
 20
-16.54860976485286
 30
0.0
 10
9.268994987170203
 20
-14.4042488117088
 30
0.0
 10
5.634463672682415
 20
-11.7653785881845
 30
0.0
 10
3.211482044974986
 20
-9.664605828423383
 30
0.0
 10
1.999999999999943
 20
-8.614227051333238
 30
0.0
  0
LINE
  5
260
330
1F
100
AcDbEntity
  8
외형선
  6
Continuous
 62
     1
370
    15
100
AcDbLine
 10
205.2
 20
-18.90990866600374
 30
0.0
 11
205.2
 21
-11.38335840559038
 31
0.0
  0
SPLINE
  5
261
330
1F
100
AcDbEntity
  8
외형선
  6
Continuous
 62
     1
370
    15
100
AcDbSpline
210
0.0
220
0.0
230
1.0
 70
     8
 71
     3
 72
    28
 73
    24
 74
     0
 42
0.000000001
 43
0.00000001
 40
0.0
 40
0.0
 40
0.0
 40
0.0
 40
0.0241194117201653
 40
0.0779463279550531
 40
0.1317739024310387
 40
0.1856020745072383
 40
0.2394307834455306
 40
0.2881181931260721
 40
0.3368081014401361
 40
0.3855010231773074
 40
0.4341971774228227
 40
0.4828916259199683
 40
0.5315828294900387
 40
0.5802713020609774
 40
0.628957559378134
 40
0.6776421186629236
 40
0.7263254982693221
 40
0.7750082173387107
 40
0.8236907954535692
 40
0.8723737522905265
 40
0.9210576072732667
 40
0.9697428792258107
 40
1.0
 40
1.0
 40
1.0
 40
1.0
 10
7.64035653272154
 20
18.96539042632739
 30
0.0
 10
8.183231431302204
 20
18.98466398986697
 30
0.0
 10
9.937631802848529
 20
19.04695006557845
 30
0.0
 10
12.90359474743494
 20
18.41527042612847
 30
0.0
 10
16.53827791133355
 20
17.12046447247477
 30
0.0
 10
20.17295163978704
 20
15.16480532277384
 30
0.0
 10
23.69220596349734
 20
12.74866214286735
 30
0.0
 10
27.09492874413294
 20
10.00001704952014
 30
0.0
 10
30.38239597894298
 20
7.048381765222434
 30
0.0
 10
33.67008702197884
 20
3.887159281265617
 30
0.0
 10
36.9580627677025
 20
0.6106045771439099
 30
0.0
 10
40.24589689343756
 20
-2.684125220070754
 30
0.0
 10
43.53344228478446
 20
-5.899033365145208
 30
0.0
 10
46.82071283000309
 20
-8.938603882692995
 30
0.0
 10
50.10775856764255
 20
-11.71257954349073
 30
0.0
 10
53.39463243499452
 20
-14.13864269758457
 30
0.0
 10
56.68138679115836
 20
-16.14462580857522
 30
0.0
 10
59.96807418269239
 20
-17.67151505139427
 30
0.0
 10
63.2547475221107
 20
-18.67196898114469
 30
0.0
 10
66.5414583718497
 20
-19.12377807150089
 30
0.0
 10
69.82826339308727
 20
-18.98552793165786
 30
0.0
 10
72.70043865955185
 20
-18.44396417842528
 30
0.0
 10
74.47705227681283
 20
-17.73523302912607
 30
0.0
 10
75.15799455547685
 20
-17.46358983159838
 30
0.0
  0
SPLINE
  5
262
330
1F
100
AcDbEntity
  8
외형선
  6
Continuous
 62
     1
370
    15
100
AcDbSpline
210
0.0
220
0.0
230
1.0
 70
     8
 71
     3
 72
    25
 73
    21
 74
     0
 42
0.000000001
 43
0.00000001
 40
0.0
 40
0.0
 40
0.0
 40
0.0
 40
0.0288896200268524
 40
0.0860186240061677
 40
0.1431516169577618
 40
0.2002838662301155
 40
0.2574121982493905
 40
0.3145372155558288
 40
0.3716595228949542
 40
0.4287797268176073
 40
0.4858984352773436
 40
0.5430162572257902
 40
0.6001338022065376
 40
0.6572516799481654
 40
0.7143704999570016
 40
0.7714908711102012
 40
0.8286134012497529
 40
0.8857386967779916
 40
0.942867362255218
 40
1.0
 40
1.0
 40
1.0
 40
1.0
 10
147.6545629139646
 20
18.98022367764472
 30
0.0
 10
148.2087228579452
 20
18.99356090273397
 30
0.0
 10
149.8587298783294
 20
19.03327238904541
 30
0.0
 10
152.6047540510783
 20
18.48487979698586
 30
0.0
 10
155.8926891864474
 20
17.38877134081726
 30
0.0
 10
159.1805782226302
 20
15.74682279074784
 30
0.0
 10
162.4681757369851
 20
13.64502561439252
 30
0.0
 10
165.7554941051398
 20
11.13592446734638
 30
0.0
 10
169.0425766962196
 20
8.296728151294715
 30
0.0
 10
172.3294782025084
 20
5.211052487892633
 30
0.0
 10
175.6162504651122
 20
1.970724751058576
 30
0.0
 10
178.9029462237457
 20
-1.328080448785553
 30
0.0
 10
182.1896180555265
 20
-4.587415751798954
 30
0.0
 10
185.4763186339103
 20
-7.710434240071031
 30
0.0
 10
188.7631005172588
 20
-10.6046625932531
 30
0.0
 10
192.0500164986257
 20
-13.18316798887465
 30
0.0
 10
195.3371181811628
 20
-15.37303605829087
 30
0.0
 10
198.6244610907653
 20
-17.09550957275075
 30
0.0
 10
201.9120854133999
 20
-18.35053047793242
 30
0.0
 10
204.1040030706314
 20
-18.72344494855177
 30
0.0
 10
205.2
 20
-18.90990866600375
 30
0.0
  0
SPLINE
  5
263
330
1F
100
AcDbEntity
  8
외형선
  6
Continuous
 62
     1
370
    15
100
AcDbSpline
210
0.0
220
0.0
230
1.0
 70
     8
 71
     3
 72
    23
 73
    19
 74
     0
 42
0.000000001
 43
0.00000001
 40
0.0
 40
0.0
 40
0.0
 40
0.0
 40
0.0659196256825069
 40
0.1318346681635238
 40
0.197745822398094
 40
0.263653785927764
 40
0.3295592584194249
 40
0.3954629412010384
 40
0.4613655367949406
 40
0.5272677484494077
 40
0.59317027966915
 40
0.6590738337454349
 40
0.7249791132865256
 40
0.7908868197491098
 40
0.8567976529714229
 40
0.9227123107087256
 40
0.9886314881718241
 40
1.0
 40
1.0
 40
1.0
 40
1.0
 10
205.2
 20
-11.4438639300005
 30
0.0
 10
204.1040030706313
 20
-10.53499601559238
 30
0.0
 10
201.9120854133998
 20
-8.717323377741415
 30
0.0
 10
198.6244610907655
 20
-5.640708661593443
 30
0.0
 10
195.3371181811617
 20
-2.421021539057822
 30
0.0
 10
192.0500164986291
 20
0.8770673241563891
 30
0.0
 10
188.7631005172452
 20
4.147324022593658
 30
0.0
 10
185.4763186339607
 20
7.294863689725343
 30
0.0
 10
182.1896180553386
 20
10.22563993856241
 30
0.0
 10
178.902946224447
 20
12.85277017935692
 30
0.0
 10
175.6162504624947
 20
15.09828621280449
 30
0.0
 10
172.3294782122765
 20
16.89521011708091
 30
0.0
 10
169.0425766597623
 20
18.19130959032292
 30
0.0
 10
165.7554942412088
 20
18.94380762921578
 30
0.0
 10
162.4681752291301
 20
19.14624567452475
 30
0.0
 10
159.1805801181448
 20
18.73313897921462
 30
0.0
 10
156.7996673724449
 20
18.15772810039172
 30
0.0
 10
155.5146678929527
 20
17.57552262655944
 30
0.0
 10
155.3256529034277
 20
17.48988402258013
 30
0.0
  0
SPLINE
  5
264
330
1F
100
AcDbEntity
  8
외형선
  6
Continuous
 62
     1
370
    15
100
AcDbSpline
210
0.0
220
0.0
230
1.0
 70
     8
 71
     3
 72
    28
 73
    24
 74
     0
 42
0.000000001
 43
0.00000001
 40
0.0
 40
0.0
 40
0.0
 40
0.0
 40
0.0465284072301492
 40
0.0952147946997768
 40
0.1438987308972075
 40
0.1925807323762907
 40
0.2412613169807549
 40
0.2899410034997709
 40
0.3386203113221294
 40
0.3872997600895488
 40
0.4359798693496064
 40
0.484661158208809
 40
0.5333441449863127
 40
0.5820293468687846
 40
0.6307172795669328
 40
0.6794084569741753
 40
0.7281013400152027
 40
0.7767909907650323
 40
0.8254776282941839
 40
0.8741617673576616
 40
0.9279868603078549
 40
0.9818114164320183
 40
1.0
 40
1.0
 40
1.0
 40
1.0
 10
103.1514566115646
 20
-19.03692133456513
 30
0.0
 10
102.1041941080196
 20
-18.99186989350786
 30
0.0
 10
99.9610972300504
 20
-18.89967753261357
 30
0.0
 10
96.72235098219258
 20
-18.05643759561003
 30
0.0
 10
93.43520702386465
 20
-16.70947292220425
 30
0.0
 10
90.14826151884105
 20
-14.85410136603733
 30
0.0
 10
86.86145887403617
 20
-12.56081576819258
 30
0.0
 10
83.57474738755266
 20
-9.89360817805919
 30
0.0
 10
80.2880742187472
 20
-6.93278727450889
 30
0.0
 10
77.00138678149781
 20
-3.765974346918572
 30
0.0
 10
73.71463243758242
 20
-0.4872796957695762
 30
0.0
 10
70.4277585669524
 20
2.805963592842112
 30
0.0
 10
67.14071283017668
 20
6.015956427738839
 30
0.0
 10
63.85344228478149
 20
9.047374460221942
 30
0.0
 10
60.56589689327669
 20
11.81016168629283
 30
0.0
 10
57.27806276835005
 20
14.22226215190188
 30
0.0
 10
53.99008701955043
 20
16.21169919987107
 30
0.0
 10
50.70239598800904
 20
17.72036720012044
 30
0.0
 10
47.41492871030098
 20
18.69995521062002
 30
0.0
 10
44.0122060953889
 20
19.14951623823153
 30
0.0
 10
40.49295108935488
 20
18.93149605681383
 30
0.0
 10
37.66041023015978
 20
18.34762554016752
 30
0.0
 10
36.03942043572044
 20
17.6356091518817
 30
0.0
 10
35.63000198146273
 20
17.45577294927377
 30
0.0
  0
SPLINE
  5
265
330
1F
100
AcDbEntity
  8
외형선
  6
Continuous
 62
     1
370
    15
100
AcDbSpline
210
0.0
220
0.0
230
1.0
 70
     8
 71
     3
 72
    23
 73
    19
 74
     0
 42
0.000000001
 43
0.00000001
 40
0.0
 40
0.0
 40
0.0
 40
0.0
 40
0.0682997615440767
 40
0.1366005118148561
 40
0.2049021741483545
 40
0.2732046717323993
 40
0.3415079276189976
 40
0.4098118647367706
 40
0.4715919414809344
 40
0.5333751887731267
 40
0.5951622598364348
 40
0.6569534326709168
 40
0.7187424410594799
 40
0.7805273319185821
 40
0.8423087573779628
 40
0.9040873718734916
 40
0.9658638317140357
 40
1.0
 40
1.0
 40
1.0
 40
1.0
 10
1.999999999999943
 20
13.92525023498198
 30
0.0
 10
3.211481976216959
 20
13.04950319271973
 30
0.0
 10
5.63446346640751
 20
11.2979964306329
 30
0.0
 10
9.268995812288352
 20
8.125333692013786
 30
0.0
 10
12.9035938284575
 20
4.694077585544132
 30
0.0
 10
16.53827815763427
 20
1.082737541387594
 30
0.0
 10
20.1729515735764
 20
-2.565226267614015
 30
0.0
 10
23.6922059793371
 20
-6.007733386673543
 30
0.0
 10
27.09492874015328
 20
-9.138188743294101
 30
0.0
 10
30.38239597969536
 20
-11.8909884465051
 30
0.0
 10
33.67008702294939
 20
-14.29060605325912
 30
0.0
 10
36.95806276306749
 20
-16.2655443473171
 30
0.0
 10
40.24589691100587
 20
-17.75780030082836
 30
0.0
 10
43.53344221915253
 20
-18.72072895818263
 30
0.0
 10
46.82071307494479
 20
-19.13422263666904
 30
0.0
 10
50.10775765356081
 20
-18.95445686145482
 30
0.0
 10
52.90445436927692
 20
-18.40159049964918
 30
0.0
 10
54.60546644880012
 20
-17.70749772758526
 30
0.0
 10
55.2108719698173
 20
-17.46046385794721
 30
0.0
  0
SPLINE
  5
266
330
1F
100
AcDbEntity
  8
외형선
  6
Continuous
 62
     1
370
    15
100
AcDbSpline
210
0.0
220
0.0
230
1.0
 70
     8
 71
     3
 72
    28
 73
    24
 74
     0
 42
0.000000001
 43
0.00000001
 40
0.0
 40
0.0
 40
0.0
 40
0.0
 40
0.0279810810245556
 40
0.0766616882392126
 40
0.1253426266122786
 40
0.1740244155840698
 40
0.2227075740269607
 40
0.2713926198994591
 40
0.3200800699016067
 40
0.3687704391322238
 40
0.4174642081163738
 40
0.4661573432715703
 40
0.5148471397986535
 40
0.5635341112354906
 40
0.6122187729994842
 40
0.6609016420466869
 40
0.7095832365286684
 40
0.7582640754476431
 40
0.8069446783103487
 40
0.8556255647811869
 40
0.9043072543351369
 40
0.9529902659109413
 40
1.0
 40
1.0
 40
1.0
 40
1.0
 10
127.7063715512657
 20
18.98181202337762
 30
0.0
 10
128.3360858319212
 20
18.9907663864934
 30
0.0
 10
130.0613572687548
 20
19.01529926972834
 30
0.0
 10
132.8821821207823
 20
18.42724763619671
 30
0.0
 10
136.1688885359388
 20
17.29183268218939
 30
0.0
 10
139.4556803263714
 20
15.61690224669463
 30
0.0
 10
142.7426112612162
 20
13.48512543348976
 30
0.0
 10
146.0297324710261
 20
10.95095267746349
 30
0.0
 10
149.3171003291443
 20
8.09198437340089
 30
0.0
 10
152.6047512812785
 20
4.992452761461973
 30
0.0
 10
155.8926899286278
 20
1.74472002921889
 30
0.0
 10
159.1805780237724
 20
-1.554840166582547
 30
0.0
 10
162.4681757902899
 20
-4.808163296946741
 30
0.0
 10
165.7554940907609
 20
-7.918538821526333
 30
0.0
 10
169.042576700434
 20
-10.79361525254148
 30
0.0
 10
172.3294782000296
 20
-13.34805001845785
 30
0.0
 10
175.6162504708128
 20
-15.50593651095328
 30
0.0
 10
178.902946203422
 20
-17.20347850656643
 30
0.0
 10
182.1896181311201
 20
-18.3892841197648
 30
0.0
 10
185.4763183518558
 20
-19.03185132979024
 30
0.0
 10
188.7631015699134
 20
-19.09824962963895
 30
0.0
 10
192.0123132942272
 20
-18.64342409206235
 30
0.0
 10
194.1659764329652
 20
-17.8875864700286
 30
0.0
 10
195.2239785914994
 20
-17.5162759241827
 30
0.0
  0
SPLINE
  5
267
330
1F
100
AcDbEntity
  8
외형선
  6
Continuous
370
    15
100
AcDbSpline
210
0.0
220
0.0
230
1.0
 70
    24
 71
     3
 72
    11
 73
     7
 74
     0
 42
0.000000001
 43
0.00000001
 40
0.0
 40
0.0
 40
0.0
 40
0.0
 40
0.4515415098522538
 40
0.6998035147289619
 40
0.94806551960567
 40
1.0
 40
1.0
 40
1.0
 40
1.0
 10
1.999999999999972
 20
15.85266335680248
 30
0.0
 10
2.0
 20
15.20832528096956
 30
0.0
 10
2.000000000000028
 20
14.20972373426101
 30
0.0
 10
1.999999999999943
 20
12.90548760652248
 30
0.0
 10
1.999999999999915
 20
12.17120029396719
 30
0.0
 10
1.999999999999943
 20
11.81707472199686
 30
0.0
 10
1.999999999999915
 20
11.75581042185684
 30
0.0
  0
SPLINE
  5
268
330
1F
100
AcDbEntity
  8
외형선
  6
Continuous
 62
     1
370
    15
100
AcDbSpline
210
0.0
220
0.0
230
1.0
 70
     8
 71
     3
 72
    29
 73
    25
 74
     0
 42
0.000000001
 43
0.00000001
 40
0.0
 40
0.0
 40
0.0
 40
0.0
 40
0.0145734945742675
 40
0.0632623257749025
 40
0.111948284881888
 40
0.1606318871415372
 40
0.2093136493700709
 40
0.2579940896106772
 40
0.3066737267887811
 40
0.3553530803660309
 40
0.4040326699934927
 40
0.4527130151645704
 40
0.50139463486816
 40
0.5500780472425345
 40
0.5987637692304799
 40
0.6474523162361717
 40
0.6961442017842971
 40
0.7448367211451109
 40
0.793525840839639
 40
0.842212041380613
 40
0.890895837853635
 40
0.9395777469454869
 40
0.9882582866013829
 40
1.0
 40
1.0
 40
1.0
 40
1.0
 10
202.8961165078192
 20
-18.98949233422419
 30
0.0
 10
202.5680878533615
 20
-19.00655536767452
 30
0.0
 10
201.144142793647
 20
-19.08062457429762
 30
0.0
 10
198.624465102783
 20
-18.63830083478218
 30
0.0
 10
195.3371171062293
 20
-17.66316502702664
 30
0.0
 10
192.050016786635
 20
-16.12170609758666
 30
0.0
 10
188.7631004400916
 20
-14.11259897797085
 30
0.0
 10
185.4763186545817
 20
-11.68136032807273
 30
0.0
 10
182.189618050006
 20
-8.903990717641584
 30
0.0
 10
178.9029462251567
 20
-5.861947695591162
 30
0.0
 10
175.6162504649883
 20
-2.64583171276691
 30
0.0
 10
172.3294782015923
 20
0.6489350231359303
 30
0.0
 10
169.0425767000075
 20
3.924500149244231
 30
0.0
 10
165.7554940909033
 20
7.083598302791813
 30
0.0
 10
162.4681757901471
 20
10.03241008420232
 30
0.0
 10
159.1805780242012
 20
12.68333068829834
 30
0.0
 10
155.8926899270549
 20
14.95760119702688
 30
0.0
 10
152.6047512871412
 20
16.78736824047686
 30
0.0
 10
149.3171003072684
 20
18.11932719173795
 30
0.0
 10
146.0297325526601
 20
18.91006772410294
 30
0.0
 10
142.742610956575
 20
19.15037627396859
 30
0.0
 10
139.455681463247
 20
18.78010453281971
 30
0.0
 10
137.0002034983437
 20
18.20346605630091
 30
0.0
 10
135.6403652333035
 20
17.597193890858
 30
0.0
 10
135.3761110824005
 20
17.47937845617424
 30
0.0
  0
SPLINE
  5
269
330
1F
100
AcDbEntity
  8
외형선
  6
Continuous
 62
     1
370
    15
100
AcDbSpline
210
0.0
220
0.0
230
1.0
 70
     8
 71
     3
 72
    25
 73
    21
 74
     0
 42
0.000000001
 43
0.00000001
 40
0.0
 40
0.0
 40
0.0
 40
0.0
 40
0.0478812528075753
 40
0.1018702419544983
 40
0.1558599636349808
 40
0.2098509935752537
 40
0.2638439066283194
 40
0.3178392763911698
 40
0.3718376748238518
 40
0.4258396718709082
 40
0.4798435605877809
 40
0.5338438644626142
 40
0.5878408264602776
 40
0.6418350174808743
 40
0.7015308939277137
 40
0.761226174996104
 40
0.8209207933276529
 40
0.8806146816718028
 40
0.9403077728966984
 40
1.0
 40
1.0
 40
1.0
 40
1.0
 10
62.88293140097161
 20
-19.02052317487519
 30
0.0
 10
61.91131319562638
 20
-18.98904304571578
 30
0.0
 10
59.84413709094733
 20
-18.92206717966827
 30
0.0
 10
56.68138693027393
 20
-18.12931001459496
 30
0.0
 10
53.39463239771734
 20
-16.81993322253482
 30
0.0
 10
50.10775857763187
 20
-14.9967904155371
 30
0.0
 10
46.82071282732497
 20
-12.73197123904048
 30
0.0
 10
43.53344228550733
 20
-10.08789008848587
 30
0.0
 10
40.24589689322445
 20
-7.1443295735532
 30
0.0
 10
36.95806276783233
 20
-3.98839412769528
 30
0.0
 10
33.67008702167286
 20
-0.7140275953773738
 30
0.0
 10
30.38239598003744
 20
2.581634846360849
 30
0.0
 10
27.09492874006199
 20
5.800583061913454
 30
0.0
 10
23.6922059793645
 20
8.954294953428633
 30
0.0
 10
20.17295157356872
 20
11.91989070295314
 30
0.0
 10
16.53827815763628
 20
14.54923247249365
 30
0.0
 10
12.90359382845693
 20
16.65416683732911
 30
0.0
 10
9.268995812288495
 20
18.1413878987499
 30
0.0
 10
5.63446346640751
 20
19.01979970220003
 30
0.0
 10
3.211481976217016
 20
19.02192060079577
 30
0.0
 10
1.999999999999943
 20
19.02298104241802
 30
0.0
  0
LINE
  5
26A
330
1F
100
AcDbEntity
  8
외형선
  6
Continuous
 62
     1
370
    15
100
AcDbLine
 10
205.2
 20
-7.464969807279054
 30
0.0
 11
205.2
 21
7.4671196647272
 31
0.0
  0
SPLINE
  5
26B
330
1F
100
AcDbEntity
  8
외형선
  6
Continuous
 62
     1
370
    15
100
AcDbSpline
210
0.0
220
0.0
230
1.0
 70
     8
 71
     3
 72
    28
 73
    24
 74
     0
 42
0.000000001
 43
0.00000001
 40
0.0
 40
0.0
 40
0.0
 40
0.0
 40
0.041380715564207
 40
0.0900708312174262
 40
0.1387641791927058
 40
0.1874558215179148
 40
0.2361442191030479
 40
0.2848298858464318
 40
0.3335133374636945
 40
0.3821950911464447
 40
0.4308756652187866
 40
0.4795555787921841
 40
0.5282353514191744
 40
0.5769155027464384
 40
0.625596552167727
 40
0.674279018477162
 40
0.7229634195234184
 40
0.7716502718652765
 40
0.8203400904290704
 40
0.8690332576422918
 40
0.9177252224863826
 40
0.9664138956661386
 40
1.0
 40
1.0
 40
1.0
 40
1.0
 10
47.90826108103855
 20
19.01495501985207
 30
0.0
 10
48.83961335778852
 20
18.99005568920911
 30
0.0
 10
50.86682996289895
 20
18.93585886401672
 30
0.0
 10
53.99009128718947
 20
18.16923234348684
 30
0.0
 10
57.27806162484907
 20
16.87987277534947
 30
0.0
 10
60.56589719965112
 20
15.07376224030338
 30
0.0
 10
63.85344220269221
 20
12.82407278064054
 30
0.0
 10
67.1407128521848
 20
10.19247266085397
 30
0.0
 10
70.42775856100312
 20
7.25853319025742
 30
0.0
 10
73.71463243937248
 20
4.109020699944203
 30
0.0
 10
77.00138678028671
 20
0.837565668242334
 30
0.0
 10
80.28807422180145
 20
-2.458715403096296
 30
0.0
 10
83.57474737654636
 20
-5.68193768980219
 30
0.0
 10
86.8614589150076
 20
-8.736397481996569
 30
0.0
 10
90.14826136595704
 20
-11.53138364278582
 30
0.0
 10
93.43520759445565
 20
-13.98392556282754
 30
0.0
 10
96.72234885258271
 20
-16.02104846554941
 30
0.0
 10
100.0097418628444
 20
-17.58270337129994
 30
0.0
 10
103.2974192589096
 20
-18.62069557622352
 30
0.0
 10
106.5853777688159
 20
-19.11075269296555
 30
0.0
 10
109.873236935005
 20
-19.01361022503352
 30
0.0
 10
112.8209600541086
 20
-18.48532509959815
 30
0.0
 10
114.6726897764906
 20
-17.76372071646497
 30
0.0
 10
115.4286005128488
 20
-17.46914829910811
 30
0.0
  0
SPLINE
  5
26C
330
1F
100
AcDbEntity
  8
외형선
  6
Continuous
 62
     1
370
    15
100
AcDbSpline
210
0.0
220
0.0
230
1.0
 70
     8
 71
     3
 72
    19
 73
    15
 74
     0
 42
0.000000001
 43
0.00000001
 40
0.0
 40
0.0
 40
0.0
 40
0.0
 40
0.0382192754526373
 40
0.1256513494901626
 40
0.2130811344703058
 40
0.3005095624958972
 40
0.3879375665758664
 40
0.4753660800023006
 40
0.5627960357270928
 40
0.6502283657390812
 40
0.7376640004426079
 40
0.8251038680383834
 40
0.9125488939075748
 40
1.0
 40
1.0
 40
1.0
 40
1.0
 10
167.6057776781795
 20
18.98134129674479
 30
0.0
 10
168.0847220340018
 20
18.99744913335011
 30
0.0
 10
169.6593202943575
 20
19.0504059563891
 30
0.0
 10
172.3294756754379
 20
18.53954182635582
 30
0.0
 10
175.6162511422196
 20
17.48329835491294
 30
0.0
 10
178.9029460423174
 20
15.87485937704868
 30
0.0
 10
182.1896181041401
 20
13.80383563874545
 30
0.0
 10
185.476318620884
 20
11.32053623763855
 30
0.0
 10
188.7631005207493
 20
8.50159293740311
 30
0.0
 10
192.0500164976904
 20
5.430284651166183
 30
0.0
 10
195.3371181814133
 20
2.196568443258094
 30
0.0
 10
198.6244610906983
 20
-1.098181598278583
 30
0.0
 10
201.9120854134166
 20
-4.376304481810951
 30
0.0
 10
204.1040030706368
 20
-6.435390837570729
 30
0.0
 10
205.2
 20
-7.464969807279054
 30
0.0
  0
SPLINE
  5
26D
330
1F
100
AcDbEntity
  8
외형선
  6
Continuous
 62
     1
370
    15
100
AcDbSpline
210
0.0
220
0.0
230
1.0
 70
     8
 71
     3
 72
    17
 73
    13
 74
     0
 42
0.000000001
 43
0.00000001
 40
0.0
 40
0.0
 40
0.0
 40
0.0
 40
0.1098659412144928
 40
0.2197242437668989
 40
0.3295760659145525
 40
0.4394225702256233
 40
0.5492649228105176
 40
0.6591042925480912
 40
0.7689418503078215
 40
0.8787787681690847
 40
0.988616218638648
 40
1.0
 40
1.0
 40
1.0
 40
1.0
 10
205.2
 20
7.4671196647272
 30
0.0
 10
204.1040030706941
 20
8.453806170313282
 30
0.0
 10
201.9120854135885
 20
10.42711058001789
 30
0.0
 10
198.624461090011
 20
13.01796604984656
 30
0.0
 10
195.3371181839907
 20
15.23808980697887
 30
0.0
 10
192.0500164880688
 20
17.00106526297456
 30
0.0
 10
188.763100556656
 20
18.26125855759572
 30
0.0
 10
185.4763184868831
 20
18.97503965682332
 30
0.0
 10
182.1896186042288
 20
19.13948195289612
 30
0.0
 10
178.902944175969
 20
18.68294670143065
 30
0.0
 10
176.5982873188855
 20
18.11135945257324
 30
0.0
 10
175.3891687891211
 20
17.55511738926018
 30
0.0
 10
175.2756215105224
 20
17.50288117669986
 30
0.0
  0
SPLINE
  5
26E
330
1F
100
AcDbEntity
  8
외형선
  6
Continuous
 62
     1
370
    15
100
AcDbSpline
210
0.0
220
0.0
230
1.0
 70
     8
 71
     3
 72
    29
 73
    25
 74
     0
 42
0.000000001
 43
0.00000001
 40
0.0
 40
0.0
 40
0.0
 40
0.0
 40
0.0011725909117361
 40
0.0498546434126859
 40
0.0985384412345482
 40
0.1472245014498661
 40
0.1959133396238667
 40
0.244605469473357
 40
0.2932988016960525
 40
0.3419887852579723
 40
0.390675802587905
 40
0.4393603686139284
 40
0.4880429998965747
 40
0.5367242142862717
 40
0.585404530578902
 40
0.6340844681699754
 40
0.6827645467079332
 40
0.731445285747074
 40
0.7801272044006204
 40
0.828810820994434
 40
0.877496652721873
 40
0.926185215300317
 40
0.9748770226298323
 40
1.0
 40
1.0
 40
1.0
 40
1.0
 10
123.1012456542556
 20
-19.04227419292983
 30
0.0
 10
123.0748559497268
 20
-19.04448462229227
 30
0.0
 10
121.9528539830689
 20
-19.13846468520226
 30
0.0
 10
119.7351657394063
 20
-18.80362886952597
 30
0.0
 10
116.4481051253566
 20
-17.99900972435992
 30
0.0
 10
113.1608100284886
 20
-16.59270097554836
 30
0.0
 10
109.8732388966035
 20
-14.71142077930811
 30
0.0
 10
106.5853772431763
 20
-12.3882751653431
 30
0.0
 10
103.2974193997452
 20
-9.698436058622342
 30
0.0
 10
100.0097418251114
 20
-6.720091452409697
 30
0.0
 10
96.72234886269186
 20
-3.542297805274462
 30
0.0
 10
93.43520759174882
 20
-0.2593137695076102
 30
0.0
 10
90.14826136667548
 20
3.031330963453151
 30
0.0
 10
86.86145891484048
 20
6.231931850534266
 30
0.0
 10
83.57474737649616
 20
9.247456200113632
 30
0.0
 10
80.28807422216957
 20
11.98835561713667
 30
0.0
 10
77.00138677886483
 20
14.37329157403519
 30
0.0
 10
73.71463244469217
 20
16.33126943920426
 30
0.0
 10
70.42775854114555
 20
17.80478378893289
 30
0.0
 10
67.14071292629959
 20
18.74764224163878
 30
0.0
 10
63.85344192607189
 20
19.14082631094109
 30
0.0
 10
60.56589823210422
 20
18.93897783248967
 30
0.0
 10
57.80858492063859
 20
18.38096794594235
 30
0.0
 10
56.14712899462583
 20
17.69530653240012
 30
0.0
 10
55.5816498727863
 20
17.46194059837888
 30
0.0
  0
SPLINE
  5
26F
330
1F
100
AcDbEntity
  8
외형선
  6
Continuous
 62
     1
370
    15
100
AcDbSpline
210
0.0
220
0.0
230
1.0
 70
     8
 71
     3
 72
    17
 73
    13
 74
     0
 42
0.000000001
 43
0.00000001
 40
0.0
 40
0.0
 40
0.0
 40
0.0
 40
0.109266884729878
 40
0.2185353512381429
 40
0.3278052768767141
 40
0.4370765387604364
 40
0.546349013786867
 40
0.655622578656169
 40
0.7544591832298346
 40
0.8533008600892318
 40
0.9521486542695141
 40
1.0
 40
1.0
 40
1.0
 40
1.0
 10
1.999999999999943
 20
-4.295828559916515
 30
0.0
 10
3.211481976166709
 20
-5.461053670651886
 30
0.0
 10
5.634463466256562
 20
-7.791520760251522
 30
0.0
 10
9.268995812892115
 20
-10.96259894892177
 30
0.0
 10
12.90359382619349
 20
-13.74703277103078
 30
0.0
 10
16.53827816608674
 20
-16.02934113916381
 30
0.0
 10
20.17295154203001
 20
-17.73128482936274
 30
0.0
 10
23.69220609231874
 20
-18.75345674320273
 30
0.0
 10
27.09492836306381
 20
-19.14192139728761
 30
0.0
 10
30.38239739185039
 20
-18.92076933399711
 30
0.0
 10
33.10462806579503
 20
-18.35875039743942
 30
0.0
 10
34.73111202347505
 20
-17.68089751010493
 30
0.0
 10
35.26164987278608
 20
-17.45979074093109
 30
0.0
  0
SPLINE
  5
270
330
1F
100
AcDbEntity
  8
외형선
  6
Continuous
 62
     1
370
    15
100
AcDbSpline
210
0.0
220
0.0
230
1.0
 70
     8
 71
     3
 72
    28
 73
    24
 74
     0
 42
0.000000001
 43
0.00000001
 40
0.0
 40
0.0
 40
0.0
 40
0.0
 40
0.0313414002811132
 40
0.0800307191462646
 40
0.1287172600253073
 40
0.1774015384885583
 40
0.2260840716136653
 40
0.2747653776422952
 40
0.3234459756351242
 40
0.3721263851256328
 40
0.4208071257732055
 40
0.4694887170160483
 40
0.5181716777244286
 40
0.5668565258547503
 40
0.6155437781049564
 40
0.6642339495717753
 40
0.7129275207783182
 40
0.7616204581584821
 40
0.8103100569240931
 40
0.8589968306109325
 40
0.9076812946343096
 40
0.9563639659481771
 40
1.0
 40
1.0
 40
1.0
 40
1.0
 10
107.7570083674118
 20
18.98606677147064
 30
0.0
 10
108.4624403304877
 20
18.98903237386413
 30
0.0
 10
110.2637710562163
 20
18.99660508248989
 30
0.0
 10
113.1608078414693
 20
18.36673040948946
 30
0.0
 10
116.4481050560567
 20
17.19214481052257
 30
0.0
 10
119.7351682033019
 20
15.484036069635
 30
0.0
 10
123.022055885797
 20
13.32226568491302
 30
0.0
 10
126.3088189111449
 20
10.76324678077139
 30
0.0
 10
129.5955103059539
 20
7.885066413589009
 30
0.0
 10
132.8821825745839
 20
4.772631072440163
 30
0.0
 10
136.1688884143396
 20
1.518508423208278
 30
0.0
 10
139.4556803589578
 20
-1.780717775720067
 30
0.0
 10
142.7426112524733
 20
-5.027069216088297
 30
0.0
 10
146.0297324734091
 20
-8.124146444590913
 30
0.0
 10
149.3171003283555
 20
-10.97995710631012
 30
0.0
 10
152.6047512820503
 20
-13.5096983821979
 30
0.0
 10
155.8926899263294
 20
-15.6380220337306
 30
0.0
 10
159.1805780321942
 20
-17.30205871692554
 30
0.0
 10
162.4681757589048
 20
-18.45118527500363
 30
0.0
 10
165.755494207871
 20
-19.05563245457487
 30
0.0
 10
169.0425762634053
 20
-19.08122126398215
 30
0.0
 10
172.2159311329521
 20
-18.60501069263741
 30
0.0
 10
174.2935832669441
 20
-17.85516083414959
 30
0.0
 10
175.2756215105222
 20
-17.50073131925206
 30
0.0
  0
SPLINE
  5
271
330
1F
100
AcDbEntity
  8
외형선
  6
Continuous
370
    15
100
AcDbSpline
210
0.0
220
0.0
230
1.0
 70
    24
 71
     3
 72
    34
 73
    30
 74
     0
 42
0.000000001
 43
0.00000001
 40
0.0
 40
0.0
 40
0.0
 40
0.0
 40
0.1249999999999992
 40
0.1249999999999992
 40
0.1562499999999992
 40
0.1562499999999992
 40
0.1874999999999993
 40
0.1874999999999993
 40
0.2499999999999994
 40
0.2499999999999994
 40
0.3749999999999996
 40
0.3749999999999996
 40
0.4999999999999997
 40
0.4999999999999997
 40
0.5624999999999997
 40
0.5624999999999997
 40
0.6249999999999997
 40
0.6249999999999997
 40
0.6874999999999998
 40
0.6874999999999998
 40
0.7499999999999998
 40
0.7499999999999998
 40
0.8124999999999998
 40
0.8124999999999998
 40
0.8749999999999999
 40
0.8749999999999999
 40
0.9375
 40
0.9375
 40
1.0
 40
1.0
 40
1.0
 40
1.0
 10
1.999999999999972
 20
8.673245040088176
 30
0.0
 10
1.999999999999972
 20
8.451663355255803
 30
0.0
 10
1.999999999999972
 20
8.175158469597136
 30
0.0
 10
1.999999999999972
 20
7.814443894891426
 30
0.0
 10
1.999999999999972
 20
7.741424383905056
 30
0.0
 10
1.999999999999943
 20
7.59450742684735
 30
0.0
 10
1.999999999999972
 20
7.519112132709832
 30
0.0
 10
1.999999999999972
 20
7.275900562028628
 30
0.0
 10
1.999999999999972
 20
7.095039351251192
 30
0.0
 10
1.999999999999972
 20
6.487297944064416
 30
0.0
 10
1.999999999999915
 20
5.993696068075078
 30
0.0
 10
1.999999999999943
 20
4.801932906978333
 30
0.0
 10
1.999999999999972
 20
4.101308497601995
 30
0.0
 10
1.999999999999972
 20
2.934372852598102
 30
0.0
 10
1.999999999999972
 20
2.526997479047068
 30
0.0
 10
2.0
 20
1.694871427135123
 30
0.0
 10
1.999999999999972
 20
1.270210048031505
 30
0.0
 10
1.999999999999972
 20
0.4307454879076467
 30
0.0
 10
1.999999999999943
 20
0.0161368674545592
 30
0.0
 10
1.999999999999972
 20
-0.7724541805318168
 30
0.0
 10
1.999999999999943
 20
-1.146201201481908
 30
0.0
 10
1.999999999999943
 20
-1.825532198622575
 30
0.0
 10
1.999999999999943
 20
-2.13094682152947
 30
0.0
 10
1.999999999999943
 20
-2.655796193845561
 30
0.0
 10
1.999999999999943
 20
-2.87520139343124
 30
0.0
 10
1.999999999999943
 20
-3.223132444890506
 30
0.0
 10
1.999999999999972
 20
-3.351757860675825
 30
0.0
 10
1.999999999999972
 20
-3.524975334962356
 30
0.0
 10
2.0
 20
-3.569724063154702
 30
0.0
 10
1.999999999999972
 20
-3.579677978476443
 30
0.0
  0
SPLINE
  5
272
330
1F
100
AcDbEntity
  8
외형선
  6
Continuous
 62
     1
370
    15
100
AcDbSpline
210
0.0
220
0.0
230
1.0
 70
     8
 71
     3
 72
    29
 73
    25
 74
     0
 42
0.000000001
 43
0.00000001
 40
0.0
 40
0.0
 40
0.0
 40
0.0
 40
0.0112184210095366
 40
0.059898453894429
 40
0.1085787228328274
 40
0.1572597473253851
 40
0.2059420463682405
 40
0.254626138106897
 40
0.3033125394913546
 40
0.3520017659329808
 40
0.4006943309636292
 40
0.4493875298158106
 40
0.4980773289542649
 40
0.5467642088984291
 40
0.595448684741093
 40
0.6441312731762491
 40
0.6928124921563391
 40
0.7414928605476635
 40
0.7901728977844567
 40
0.8388531235221284
 40
0.8875340572901863
 40
0.9362162181453386
 40
0.9849001243252883
 40
1.0
 40
1.0
 40
1.0
 40
1.0
 10
182.9470342401669
 20
-18.99869236897252
 30
0.0
 10
182.6945604999201
 20
-19.01401768859879
 30
0.0
 10
181.346528840485
 20
-19.09584408379933
 30
0.0
 10
178.9029470764526
 20
-18.68437886167106
 30
0.0
 10
175.6162502368807
 20
-17.75084689011346
 30
0.0
 10
172.3294782627136
 20
-16.24324914606752
 30
0.0
 10
169.0425766836366
 20
-14.26573443080549
 30
0.0
 10
165.7554940952628
 20
-11.86108595859694
 30
0.0
 10
162.4681757890806
 20
-9.104953902718087
 30
0.0
 10
159.1805780241072
 20
-6.078011379846352
 30
0.0
 10
155.892689928498
 20
-2.870541552240827
 30
0.0
 10
152.604751281463
 20
0.4222209239286059
 30
0.0
 10
149.3171003285363
 20
3.702499227483873
 30
0.0
 10
146.0297324732728
 20
6.872724128082947
 30
0.0
 10
142.7426112528377
 20
9.838778447532661
 30
0.0
 10
139.4556803576366
 20
12.51257796916163
 30
0.0
 10
136.1688884192593
 20
14.81480800732158
 30
0.0
 10
132.8821825562264
 20
16.67687592837253
 30
0.0
 10
129.5955103744641
 20
18.0444103642418
 30
0.0
 10
126.3088186554588
 20
18.87340577986721
 30
0.0
 10
123.0220568400562
 20
19.15192911601
 30
0.0
 10
119.7351646418063
 20
18.82433154517845
 30
0.0
 10
117.2040102328898
 20
18.24891822431459
 30
0.0
 10
115.7684486751161
 20
17.62014985427219
 30
0.0
 10
115.4286005128486
 20
17.4712981565559
 30
0.0
  0
SPLINE
  5
273
330
1F
100
AcDbEntity
  8
외형선
  6
Continuous
 62
     1
370
    15
100
AcDbSpline
210
0.0
220
0.0
230
1.0
 70
     8
 71
     3
 72
    19
 73
    15
 74
     0
 42
0.000000001
 43
0.00000001
 40
0.0
 40
0.0
 40
0.0
 40
0.0
 40
0.0656942896679912
 40
0.1460148886409539
 40
0.2263383012145425
 40
0.3066563818249525
 40
0.3869694918492608
 40
0.4672784804234396
 40
0.5560679477508792
 40
0.6448565295341488
 40
0.7336441255868351
 40
0.8224306358829134
 40
0.9112159605729131
 40
1.0
 40
1.0
 40
1.0
 40
1.0
 10
42.93501011887489
 20
-19.00674941613881
 30
0.0
 10
42.03866272154985
 20
-18.98715577260977
 30
0.0
 10
40.04640333240863
 20
-18.94360611719191
 30
0.0
 10
36.95806100825533
 20
-18.19929597093877
 30
0.0
 10
33.67008749311512
 20
-16.92751998393954
 30
0.0
 10
30.38239585375717
 20
-15.13646986798665
 30
0.0
 10
27.0949287737827
 20
-12.90017943916074
 30
0.0
 10
23.69220596926121
 20
-10.18751583180411
 30
0.0
 10
20.17295157638975
 20
-7.037972835043483
 30
0.0
 10
16.53827815688041
 20
-3.529958277299301
 30
0.0
 10
12.90359382865947
 20
0.1081525836708117
 30
0.0
 10
9.268995812234522
 20
3.735085393515369
 30
0.0
 10
5.63446346642101
 20
7.25359087099821
 30
0.0
 10
3.211481976221506
 20
9.356321405157136
 30
0.0
 10
1.999999999999943
 20
10.40767906236092
 30
0.0
  0
LINE
  5
274
330
1F
100
AcDbEntity
  8
외형선
  6
Continuous
 62
     1
370
    15
100
AcDbLine
 10
205.2
 20
18.91205852345154
 30
0.0
 11
205.2
 21
19.05107492872391
 31
0.0
  0
LINE
  5
275
330
1F
100
AcDbEntity
  8
외형선
  6
Continuous
370
    15
100
AcDbLine
 10
1.999999999999972
 20
-19.04892507127612
 30
0.0
 11
1.999999999999972
 21
-8.614227051333238
 31
0.0
  0
LINE
  5
276
330
1F
100
AcDbEntity
  8
외형선
  6
Continuous
 62
     1
370
    15
100
AcDbLine
 10
205.2
 20
7.4671196647272
 30
0.0
 11
205.2
 21
11.44601378744839
 31
0.0
  0
LINE
  5
277
330
1F
100
AcDbEntity
  8
외형선
  6
Continuous
 62
     1
370
    15
100
AcDbLine
 10
205.2
 20
-11.4438639300005
 30
0.0
 11
205.2
 21
-7.464969807279054
 31
0.0
  0
LINE
  5
278
330
1F
100
AcDbEntity
  8
외형선
  6
Continuous
 62
     1
370
    15
100
AcDbLine
 10
205.2
 20
-19.04892507127612
 30
0.0
 11
205.2
 21
-18.90990866600374
 31
0.0
  0
LINE
  5
279
330
1F
100
AcDbEntity
  8
외형선
  6
Continuous
370
    15
100
AcDbLine
 10
1.999999999999972
 20
8.673245040088176
 30
0.0
 11
1.999999999999972
 21
11.60455435060563
 31
0.0
  0
LINE
  5
27A
330
1F
100
AcDbEntity
  8
외형선
  6
Continuous
370
    15
100
AcDbLine
 10
1.999999999999972
 20
-7.178343387990445
 30
0.0
 11
1.999999999999972
 21
-3.579677978476454
 31
0.0
  0
LINE
  5
285
330
1F
100
AcDbEntity
  8
외형선
  6
Continuous
370
    15
100
AcDbLine
 10
-58.32500000000005
 20
-15.87392507127608
 30
0.0
 11
-58.32500000000005
 21
0.0010749287238951
 31
0.0
  0
LINE
  5
287
330
1F
100
AcDbEntity
  8
외형선
  6
Continuous
370
    15
100
AcDbLine
 10
-61.50000000000006
 20
0.0010749287238951
 30
0.0
 11
-61.50000000000006
 21
12.70107492872391
 31
0.0
  0
LINE
  5
288
330
1F
100
AcDbEntity
  8
외형선
  6
Continuous
370
    15
100
AcDbLine
 10
-61.50000000000006
 20
-12.69892507127612
 30
0.0
 11
-61.50000000000006
 21
0.0010749287238951
 31
0.0
  0
SPLINE
  5
289
330
1F
100
AcDbEntity
  8
외형선
  6
Continuous
370
    15
100
AcDbSpline
210
0.0
220
0.0
230
1.0
 70
    24
 71
     3
 72
    34
 73
    30
 74
     0
 42
0.000000001
 43
0.00000001
 40
0.0
 40
0.0
 40
0.0
 40
0.0
 40
0.0625000000000001
 40
0.0625000000000001
 40
0.1250000000000003
 40
0.1250000000000003
 40
0.1875000000000004
 40
0.1875000000000004
 40
0.2500000000000006
 40
0.2500000000000006
 40
0.3125000000000007
 40
0.3125000000000007
 40
0.3750000000000008
 40
0.3750000000000008
 40
0.437500000000001
 40
0.437500000000001
 40
0.5000000000000011
 40
0.5000000000000011
 40
0.6250000000000013
 40
0.6250000000000013
 40
0.7500000000000017
 40
0.7500000000000017
 40
0.8125000000000017
 40
0.8125000000000017
 40
0.8437500000000016
 40
0.8437500000000016
 40
0.8750000000000013
 40
0.8750000000000013
 40
1.0
 40
1.0
 40
1.0
 40
1.0
 10
1.999999999999972
 20
-3.579677978476443
 30
0.0
 10
1.999999999999972
 20
-3.569724063154716
 30
0.0
 10
1.999999999999972
 20
-3.52497533496253
 30
0.0
 10
1.999999999999972
 20
-3.351757860676663
 30
0.0
 10
1.999999999999972
 20
-3.22313244489186
 30
0.0
 10
2.0
 20
-2.875201393433986
 30
0.0
 10
1.999999999999972
 20
-2.655796193849191
 30
0.0
 10
1.999999999999972
 20
-2.13094682153514
 30
0.0
 10
1.999999999999943
 20
-1.825532198629407
 30
0.0
 10
2.0
 20
-1.146201201491152
 30
0.0
 10
1.999999999999972
 20
-0.7724541805423115
 30
0.0
 10
1.999999999999915
 20
0.0161368674417055
 30
0.0
 10
1.999999999999943
 20
0.4307454878936845
 30
0.0
 10
1.999999999999972
 20
1.270210048015635
 30
0.0
 10
1.999999999999972
 20
1.694871427118457
 30
0.0
 10
1.999999999999972
 20
2.52699747902922
 30
0.0
 10
1.999999999999972
 20
2.934372852579855
 30
0.0
 10
1.999999999999972
 20
4.101308497583148
 30
0.0
 10
1.999999999999972
 20
4.801932906959863
 30
0.0
 10
1.999999999999943
 20
5.993696068058206
 30
0.0
 10
1.999999999999972
 20
6.487297944048738
 30
0.0
 10
1.999999999999972
 20
7.095039351237396
 30
0.0
 10
1.999999999999972
 20
7.275900562015483
 30
0.0
 10
1.999999999999972
 20
7.51911213269765
 30
0.0
 10
1.999999999999972
 20
7.594507426835683
 30
0.0
 10
1.999999999999972
 20
7.74142438389319
 30
0.0
 10
1.999999999999943
 20
7.814443894879481
 30
0.0
 10
1.999999999999972
 20
8.175158469584971
 30
0.0
 10
1.999999999999972
 20
8.451663355243916
 30
0.0
 10
1.999999999999972
 20
8.67324504007766
 30
0.0
  0
SPLINE
  5
28A
330
1F
100
AcDbEntity
  8
외형선
  6
Continuous
370
    15
100
AcDbSpline
210
0.0
220
0.0
230
1.0
 70
    24
 71
     3
 72
    15
 73
    11
 74
     0
 42
0.000000001
 43
0.00000001
 40
0.0
 40
0.0
 40
0.0
 40
0.0
 40
0.2057467867015722
 40
0.3294410514057999
 40
0.4531353161100279
 40
0.576829580814256
 40
0.7005238455184839
 40
0.824218110222712
 40
0.9479123749269397
 40
1.0
 40
1.0
 40
1.0
 40
1.0
 10
1.999999999999915
 20
-15.18315740035823
 30
0.0
 10
1.999999999999972
 20
-14.63738803488016
 30
0.0
 10
2.000000000000028
 20
-13.76350399289527
 30
0.0
 10
2.0
 20
-12.45545893554979
 30
0.0
 10
1.999999999999972
 20
-11.38252883789607
 30
0.0
 10
1.999999999999915
 20
-10.33069001459594
 30
0.0
 10
1.999999999999886
 20
-9.327786286613893
 30
0.0
 10
1.999999999999915
 20
-8.414894028086096
 30
0.0
 10
2.0
 20
-7.737092227963188
 30
0.0
 10
1.999999999999972
 20
-7.422746322573026
 30
0.0
 10
1.999999999999972
 20
-7.329599459241656
 30
0.0
  0
SPLINE
  5
28B
330
1F
100
AcDbEntity
  8
외형선
  6
Continuous
370
    15
100
AcDbSpline
210
0.0
220
0.0
230
1.0
 70
    24
 71
     3
 72
    12
 73
     8
 74
     0
 42
0.000000001
 43
0.00000001
 40
0.0
 40
0.0
 40
0.0
 40
0.0
 40
0.0990056632401135
 40
0.3539459156804943
 40
0.6017012467361219
 40
0.8566414991764982
 40
1.0
 40
1.0
 40
1.0
 40
1.0
 10
1.999999999999972
 20
11.75581042185684
 30
0.0
 10
1.999999999999943
 20
11.87487821304526
 30
0.0
 10
1.999999999999972
 20
12.30054637182556
 30
0.0
 10
1.999999999999972
 20
13.11334631196119
 30
0.0
 10
1.999999999999972
 20
14.16612589259609
 30
0.0
 10
1.999999999999915
 20
15.08913136437697
 30
0.0
 10
1.999999999999972
 20
15.65058205732723
 30
0.0
 10
1.999999999999972
 20
15.85266335677418
 30
0.0
  0
CIRCLE
  5
28D
330
1F
100
AcDbEntity
  8
해칭선
100
AcDbCircle
 10
0.0
 20
0.0
 30
0.0
 40
3.000000000000001
  0
DIMENSION
  5
28E
330
1F
100
AcDbEntity
  8
치수문자_일반주서
100
AcDbDimension
  2
*D11
 10
-72.9125
 20
-15.87392507127616
 30
0.0
 11
-72.91250000000005
 21
0.0010749287238845
 31
0.0
 70
   160
  1
%%c<>
 71
     2
 42
31.75
 52
-270.0
  3
SLDDIMSTYLE1
100
AcDbAlignedDimension
 13
-61.50000000000006
 23
15.87607492872388
 33
0.0
 14
-58.32500000000005
 24
-15.87392507127611
 34
0.0
 50
90.0000000000002
100
AcDbRotatedDimension
1001
ACAD
1000
DSTYLE
1002
{
1070
   171
1070
     6
1070
   273
1070
     7
1002
}
  0
DIMENSION
  5
28F
330
1F
100
AcDbEntity
  8
치수문자_일반주서
100
AcDbDimension
  2
*D12
 10
1.999999999999943
 20
45.96004237216053
 30
0.0
 11
93.43999999999991
 21
45.96004237216053
 31
0.0
 70
   160
  1
<>
 71
     2
 42
203.2
  3
SLDDIMSTYLE1
100
AcDbAlignedDimension
 13
205.2
 23
19.05107492872391
 33
0.0
 14
1.999999999999943
 24
19.02298104241821
 34
0.0
 50
-0.0000000000000427
100
AcDbRotatedDimension
1001
ACAD
1000
DSTYLE
1002
{
1070
   171
1070
     6
1070
   273
1070
     7
1002
}
  0
DIMENSION
  5
290
330
1F
100
AcDbEntity
  8
치수문자_일반주서
100
AcDbDimension
  2
*D13
 10
-61.50000000000003
 20
60.36004237216046
 30
0.0
 11
75.66000000000005
 21
60.36004237216046
 31
0.0
 70
   160
  1
<>
 71
     2
 42
266.7
  3
SLDDIMSTYLE1
100
AcDbAlignedDimension
 13
205.2
 23
19.05107492872391
 33
0.0
 14
-61.50000000000006
 24
12.70107492872391
 34
0.0
 50
0.0000000000000038
100
AcDbRotatedDimension
1001
ACAD
1000
DSTYLE
1002
{
1070
   171
1070
     6
1070
   273
1070
     7
1002
}
  0
DIMENSION
  5
291
330
1F
100
AcDbEntity
  8
치수문자_일반주서
100
AcDbDimension
  2
*D14
 10
228.0815688917768
 20
-19.04892507127603
 30
0.0
 11
228.0815688917765
 21
57.43468807739454
 31
0.0
 70
   160
  1
%%c<>
 71
     2
 42
38.10000000000003
 52
-270.0
  3
SLDDIMSTYLE1
100
AcDbAlignedDimension
 13
205.2
 23
19.05107492872391
 33
0.0
 14
205.2
 24
-19.04892507127612
 34
0.0
 50
90.0000000000002
100
AcDbRotatedDimension
1001
ACAD
1000
DSTYLE
1002
{
1070
   171
1070
     6
1070
   273
1070
     7
1002
}
  0
INSERT
  5
292
330
1F
100
AcDbEntity
  8
해칭선
100
AcDbBlockReference
  2
SW_DOWELSYMBOL_0
 10
0.0
 20
0.0
 30
0.0
  0
LINE
  5
293
330
1F
100
AcDbEntity
  8
외형선
  6
Continuous
370
    15
100
AcDbLine
 10
-39.08132500000005
 20
13.48847492872389
 30
0.0
 11
-25.97492500000004
 21
13.48847492872389
 31
0.0
  0
LINE
  5
294
330
1F
100
AcDbEntity
  8
외형선
  6
Continuous
370
    15
100
AcDbLine
 10
-25.97492500000004
 20
13.48847492872389
 30
0.0
 11
-23.58732500000002
 21
15.87607492872391
 31
0.0
  0
LINE
  5
295
330
1F
100
AcDbEntity
  8
외형선
  6
Continuous
370
    15
100
AcDbLine
 10
-39.08132500000005
 20
13.48847492872389
 30
0.0
 11
-41.46892500000007
 21
15.87607492872391
 31
0.0
  0
LINE
  5
296
330
1F
100
AcDbEntity
  8
외형선
  6
Continuous
370
    15
100
AcDbLine
 10
-48.80000000000007
 20
13.48847492872389
 30
0.0
 11
-46.41240000000016
 21
15.87607492872388
 31
0.0
  0
LINE
  5
297
330
1F
100
AcDbEntity
  8
외형선
  6
Continuous
370
    15
100
AcDbLine
 10
-60.71260000000007
 20
13.48847492872388
 30
0.0
 11
-61.50000000000006
 21
12.70107492872391
 31
0.0
  0
LINE
  5
298
330
1F
100
AcDbEntity
  8
외형선
  6
Continuous
370
    15
100
AcDbLine
 10
-58.32500000000005
 20
0.0010749287238951
 30
0.0
 11
-58.32500000000005
 21
13.48847492872389
 31
0.0
  0
LINE
  5
299
330
1F
100
AcDbEntity
  8
외형선
  6
Continuous
370
    15
100
AcDbLine
 10
-41.46892500000004
 20
15.8760749287239
 30
0.0
 11
-46.41240000000013
 21
15.8760749287239
 31
0.0
  0
LINE
  5
29A
330
1F
100
AcDbEntity
  8
외형선
  6
Continuous
370
    15
100
AcDbLine
 10
1.999999999999972
 20
15.8760749287239
 30
0.0
 11
-23.58732500000002
 21
15.8760749287239
 31
0.0
  0
LINE
  5
29B
330
1F
100
AcDbEntity
  8
외형선
  6
Continuous
370
    15
100
AcDbLine
 10
-60.71260000000007
 20
13.48847492872389
 30
0.0
 11
-48.80000000000007
 21
13.48847492872389
 31
0.0
  0
LINE
  5
2CD
330
1F
100
AcDbEntity
  8
외형선
  6
Continuous
370
    15
100
AcDbLine
 10
2.0
 20
19.02298104241802
 30
0.0
 11
1.999999999999972
 21
15.85266335680248
 31
0.0
  0
LINE
  5
2D2
330
1F
100
AcDbEntity
  8
중심선
 62
     1
100
AcDbLine
 10
-64.50000000000011
 20
0.0010749287238916
 30
0.0
 11
208.2
 21
0.0010749287239236
 31
0.0
  0
LINE
  5
2E2
330
1F
100
AcDbEntity
  8
외형선
  6
Continuous
 62
     1
370
    15
100
AcDbLine
 10
82.9119516523298
 20
-19.04892507127612
 30
0.0
 11
87.51750340817708
 21
-19.04892507127612
 31
0.0
  0
SPLINE
  5
2E3
330
1F
100
AcDbEntity
  8
외형선
  6
Continuous
 62
     1
370
    15
100
AcDbSpline
210
0.0
220
0.0
230
1.0
 70
     8
 71
     3
 72
    28
 73
    24
 74
     0
 42
0.000000001
 43
0.00000001
 40
0.0
 40
0.0
 40
0.0
 40
0.0
 40
0.0465284072301492
 40
0.0952147946997768
 40
0.1438987308972075
 40
0.1925807323762907
 40
0.2412613169807549
 40
0.2899410034997709
 40
0.3386203113221294
 40
0.3872997600895488
 40
0.4359798693496064
 40
0.484661158208809
 40
0.5333441449863127
 40
0.5820293468687846
 40
0.6307172795669328
 40
0.6794084569741753
 40
0.7281013400152027
 40
0.7767909907650323
 40
0.8254776282941839
 40
0.8741617673576616
 40
0.9279868603078549
 40
0.9818114164320183
 40
1.0
 40
1.0
 40
1.0
 40
1.0
 10
82.9119516523298
 20
-19.03692133456513
 30
0.0
 10
81.86468914878483
 20
-18.99186989350786
 30
0.0
 10
79.72159227081559
 20
-18.89967753261357
 30
0.0
 10
76.48284602295783
 20
-18.05643759561003
 30
0.0
 10
73.19570206462984
 20
-16.70947292220425
 30
0.0
 10
69.90875655960625
 20
-14.85410136603733
 30
0.0
 10
66.62195391480137
 20
-12.56081576819258
 30
0.0
 10
63.33524242831791
 20
-9.89360817805919
 30
0.0
 10
60.04856925951245
 20
-6.93278727450889
 30
0.0
 10
56.76188182226304
 20
-3.765974346918572
 30
0.0
 10
53.47512747834764
 20
-0.4872796957695762
 30
0.0
 10
50.18825360771763
 20
2.805963592842112
 30
0.0
 10
46.9012078709419
 20
6.015956427738839
 30
0.0
 10
43.61393732554671
 20
9.047374460221942
 30
0.0
 10
40.32639193404191
 20
11.81016168629283
 30
0.0
 10
37.03855780911528
 20
14.22226215190188
 30
0.0
 10
33.75058206031565
 20
16.21169919987107
 30
0.0
 10
30.46289102877427
 20
17.72036720012044
 30
0.0
 10
27.17542375106621
 20
18.69995521062002
 30
0.0
 10
23.77270113615413
 20
19.14951623823153
 30
0.0
 10
20.2534461301201
 20
18.93149605681383
 30
0.0
 10
17.420905270925
 20
18.34762554016752
 30
0.0
 10
15.79991547648567
 20
17.6356091518817
 30
0.0
 10
15.39049702222795
 20
17.45577294927377
 30
0.0
  0
SPLINE
  5
2E4
330
1F
100
AcDbEntity
  8
외형선
  6
Continuous
 62
     1
370
    15
100
AcDbSpline
210
0.0
220
0.0
230
1.0
 70
     8
 71
     3
 72
    28
 73
    24
 74
     0
 42
0.000000001
 43
0.00000001
 40
0.0
 40
0.0
 40
0.0
 40
0.0
 40
0.041380715564207
 40
0.0900708312174262
 40
0.1387641791927058
 40
0.1874558215179148
 40
0.2361442191030479
 40
0.2848298858464318
 40
0.3335133374636945
 40
0.3821950911464447
 40
0.4308756652187866
 40
0.4795555787921841
 40
0.5282353514191744
 40
0.5769155027464384
 40
0.625596552167727
 40
0.674279018477162
 40
0.7229634195234184
 40
0.7716502718652765
 40
0.8203400904290704
 40
0.8690332576422918
 40
0.9177252224863826
 40
0.9664138956661386
 40
1.0
 40
1.0
 40
1.0
 40
1.0
 10
27.66875612180377
 20
19.01495501985207
 30
0.0
 10
28.60010839855374
 20
18.99005568920911
 30
0.0
 10
30.62732500366417
 20
18.93585886401672
 30
0.0
 10
33.75058632795469
 20
18.16923234348684
 30
0.0
 10
37.03855666561429
 20
16.87987277534947
 30
0.0
 10
40.32639224041634
 20
15.07376224030338
 30
0.0
 10
43.61393724345743
 20
12.82407278064054
 30
0.0
 10
46.90120789295003
 20
10.19247266085397
 30
0.0
 10
50.18825360176834
 20
7.25853319025742
 30
0.0
 10
53.4751274801377
 20
4.109020699944203
 30
0.0
 10
56.76188182105193
 20
0.837565668242334
 30
0.0
 10
60.04856926256664
 20
-2.458715403096296
 30
0.0
 10
63.33524241731155
 20
-5.68193768980219
 30
0.0
 10
66.62195395577285
 20
-8.736397481996569
 30
0.0
 10
69.90875640672223
 20
-11.53138364278582
 30
0.0
 10
73.1957026352209
 20
-13.98392556282754
 30
0.0
 10
76.4828438933479
 20
-16.02104846554941
 30
0.0
 10
79.77023690360957
 20
-17.58270337129994
 30
0.0
 10
83.05791429967476
 20
-18.62069557622352
 30
0.0
 10
86.34587280958115
 20
-19.11075269296555
 30
0.0
 10
89.63373197577019
 20
-19.01361022503352
 30
0.0
 10
92.58145509487375
 20
-18.48532509959815
 30
0.0
 10
94.4331848172558
 20
-17.76372071646497
 30
0.0
 10
95.18909555361395
 20
-17.46914829910811
 30
0.0
  0
LINE
  5
2E5
330
1F
100
AcDbEntity
  8
외형선
  6
Continuous
 62
     1
370
    15
100
AcDbLine
 10
27.66875612180377
 20
19.01495501985207
 30
0.0
 11
22.67713859424055
 21
19.05107492872391
 31
0.0
  0
ENDSEC
  0
SECTION
  2
OBJECTS
  0
DICTIONARY
  5
C
330
0
100
AcDbDictionary
281
     1
  3
ACAD_GROUP
350
D
  3
ACAD_IMAGE_VARS
350
140
  3
ACAD_LAYOUT
350
1A
  3
ACAD_MLINESTYLE
350
17
  3
ACAD_PLOTSETTINGS
350
19
  3
ACAD_PLOTSTYLENAME
350
E
  3
ACAD_SCALELIST
350
47
  3
APPDATA
350
13E
  3
DWGPROPS
350
30D
  0
DICTIONARY
  5
204
330
2
100
AcDbDictionary
280
     1
281
     1
  3
ACAD_LAYERSTATES
360
205
  0
DICTIONARY
  5
D
102
{ACAD_REACTORS
330
C
102
}
330
C
100
AcDbDictionary
281
     1
  0
RASTERVARIABLES
  5
140
102
{ACAD_REACTORS
330
C
102
}
330
C
100
AcDbRasterVariables
 90
        0
 70
     1
 71
     1
 72
     1
  0
DICTIONARY
  5
1A
102
{ACAD_REACTORS
330
C
102
}
330
C
100
AcDbDictionary
281
     1
  3
Layout1
350
1E
  3
Layout2
350
26
  3
Model
350
22
  0
DICTIONARY
  5
17
102
{ACAD_REACTORS
330
C
102
}
330
C
100
AcDbDictionary
281
     1
  3
Standard
350
18
  0
DICTIONARY
  5
19
102
{ACAD_REACTORS
330
C
102
}
330
C
100
AcDbDictionary
281
     1
  0
ACDBDICTIONARYWDFLT
  5
E
102
{ACAD_REACTORS
330
C
102
}
330
C
100
AcDbDictionary
281
     1
  3
Normal
350
F
100
AcDbDictionaryWithDefault
340
F
  0
DICTIONARY
  5
47
102
{ACAD_REACTORS
330
C
102
}
330
C
100
AcDbDictionary
281
     1
  3
A0
350
48
  3
A1
350
49
  3
A2
350
4A
  3
A3
350
4B
  3
A4
350
4C
  3
A5
350
4D
  3
A6
350
4E
  3
A7
350
4F
  3
A8
350
50
  3
A9
350
51
  3
B0
350
52
  3
B1
350
53
  3
B2
350
54
  3
B3
350
55
  3
B4
350
56
  3
B5
350
57
  3
B6
350
58
  3
B7
350
59
  3
B8
350
5A
  3
B9
350
5B
  3
C0
350
5C
  3
C1
350
5D
  3
C2
350
5E
  3
C3
350
5F
  3
C4
350
60
  3
C5
350
61
  3
C6
350
62
  3
C7
350
63
  3
C8
350
64
  3
C9
350
65
  3
D0
350
66
  3
D1
350
67
  3
D2
350
68
  0
DICTIONARY
  5
13E
102
{ACAD_REACTORS
330
C
102
}
330
C
100
AcDbDictionary
281
     1
  0
XRECORD
  5
30D
102
{ACAD_REACTORS
330
C
102
}
330
C
100
AcDbXrecord
280
     1
  1
DWGPROPS COOKIE
  2

  3

  4

  6

  7

  8
12016016
  9

300
=
301
=
302
=
303
=
304
=
305
=
306
=
307
=
308
=
309
=
 40
0.0
 41
2458323.106384977
 42
2458323.370530301
  1

 90
        0
  0
DICTIONARY
  5
205
102
{ACAD_REACTORS
330
204
102
}
330
204
100
AcDbDictionary
281
     1
  0
LAYOUT
  5
1E
102
{ACAD_REACTORS
330
1A
102
}
330
1A
100
AcDbPlotSettings
  1

  2
none_device
  4

  6

 40
0.0
 41
0.0
 42
0.0
 43
0.0
 44
0.0
 45
0.0
 46
0.0
 47
0.0
 48
0.0
 49
0.0
140
0.0
141
0.0
142
1.0
143
1.0
 70
   688
 72
     1
 73
     0
 74
     5
  7

 75
    16
147
1.0
148
0.0
149
0.0
100
AcDbLayout
  1
Layout1
 70
     1
 71
     1
 10
0.0
 20
0.0
 11
420.0
 21
297.0
 12
0.0
 22
0.0
 32
0.0
 14
1.000000000000000E+20
 24
1.000000000000000E+20
 34
1.000000000000000E+20
 15
-1.000000000000000E+20
 25
-1.000000000000000E+20
 35
-1.000000000000000E+20
146
0.0
 13
0.0
 23
0.0
 33
0.0
 16
1.0
 26
0.0
 36
0.0
 17
0.0
 27
1.0
 37
0.0
 76
     0
330
1B
  0
LAYOUT
  5
26
102
{ACAD_REACTORS
330
1A
102
}
330
1A
100
AcDbPlotSettings
  1

  2
none_device
  4

  6

 40
0.0
 41
0.0
 42
0.0
 43
0.0
 44
0.0
 45
0.0
 46
0.0
 47
0.0
 48
0.0
 49
0.0
140
0.0
141
0.0
142
1.0
143
1.0
 70
   688
 72
     1
 73
     0
 74
     5
  7

 75
    16
147
1.0
148
0.0
149
0.0
100
AcDbLayout
  1
Layout2
 70
     1
 71
     2
 10
0.0
 20
0.0
 11
0.0
 21
0.0
 12
0.0
 22
0.0
 32
0.0
 14
0.0
 24
0.0
 34
0.0
 15
0.0
 25
0.0
 35
0.0
146
0.0
 13
0.0
 23
0.0
 33
0.0
 16
1.0
 26
0.0
 36
0.0
 17
0.0
 27
1.0
 37
0.0
 76
     0
330
23
  0
LAYOUT
  5
22
102
{ACAD_REACTORS
330
1A
102
}
330
1A
100
AcDbPlotSettings
  1

  2
none_device
  4
ANSI_A_(11.00_x_8.50_Inches)
  6

 40
6.35
 41
19.05
 42
6.35000508
 43
19.05000254
 44
279.4
 45
215.9
 46
96.39525648754174
 47
90.09827952143297
 48
0.0
 49
0.0
140
0.0
141
0.0
142
0.0605651527843098
143
1.0
 70
  1696
 72
     0
 73
     0
 74
     0
  7

 75
     0
147
0.0235690232323232
148
0.0
149
0.0
100
AcDbLayout
  1
Model
 70
     1
 71
     0
 10
0.0
 20
0.0
 11
420.0
 21
297.0
 12
0.0
 22
0.0
 32
0.0
 14
-77.2875000000001
 24
-49.97073246008785
 34
0.0
 15
228.6319022251101
 25
71.87218807739454
 35
0.0
146
0.0
 13
0.0
 23
0.0
 33
0.0
 16
1.0
 26
0.0
 36
0.0
 17
0.0
 27
1.0
 37
0.0
 76
     0
330
1F
331
29
  0
MLINESTYLE
  5
18
102
{ACAD_REACTORS
330
17
102
}
330
17
100
AcDbMlineStyle
  2
Standard
 70
     0
  3

 62
   256
 51
90.0
 52
90.0
 71
     2
 49
0.5
 62
   256
  6
BYLAYER
 49
-0.5
 62
   256
  6
BYLAYER
  0
ACDBPLACEHOLDER
  5
F
102
{ACAD_REACTORS
330
E
102
}
330
E
  0
SCALE
  5
48
102
{ACAD_REACTORS
330
47
102
}
330
47
100
AcDbScale
 70
     0
300
1:1
140
1.0
141
1.0
290
     1
  0
SCALE
  5
49
102
{ACAD_REACTORS
330
47
102
}
330
47
100
AcDbScale
 70
     0
300
1:2
140
1.0
141
2.0
290
     0
  0
SCALE
  5
4A
102
{ACAD_REACTORS
330
47
102
}
330
47
100
AcDbScale
 70
     0
300
1:4
140
1.0
141
4.0
290
     0
  0
SCALE
  5
4B
102
{ACAD_REACTORS
330
47
102
}
330
47
100
AcDbScale
 70
     0
300
1:5
140
1.0
141
5.0
290
     0
  0
SCALE
  5
4C
102
{ACAD_REACTORS
330
47
102
}
330
47
100
AcDbScale
 70
     0
300
1:8
140
1.0
141
8.0
290
     0
  0
SCALE
  5
4D
102
{ACAD_REACTORS
330
47
102
}
330
47
100
AcDbScale
 70
     0
300
1:10
140
1.0
141
10.0
290
     0
  0
SCALE
  5
4E
102
{ACAD_REACTORS
330
47
102
}
330
47
100
AcDbScale
 70
     0
300
1:16
140
1.0
141
16.0
290
     0
  0
SCALE
  5
4F
102
{ACAD_REACTORS
330
47
102
}
330
47
100
AcDbScale
 70
     0
300
1:20
140
1.0
141
20.0
290
     0
  0
SCALE
  5
50
102
{ACAD_REACTORS
330
47
102
}
330
47
100
AcDbScale
 70
     0
300
1:30
140
1.0
141
30.0
290
     0
  0
SCALE
  5
51
102
{ACAD_REACTORS
330
47
102
}
330
47
100
AcDbScale
 70
     0
300
1:40
140
1.0
141
40.0
290
     0
  0
SCALE
  5
52
102
{ACAD_REACTORS
330
47
102
}
330
47
100
AcDbScale
 70
     0
300
1:50
140
1.0
141
50.0
290
     0
  0
SCALE
  5
53
102
{ACAD_REACTORS
330
47
102
}
330
47
100
AcDbScale
 70
     0
300
1:100
140
1.0
141
100.0
290
     0
  0
SCALE
  5
54
102
{ACAD_REACTORS
330
47
102
}
330
47
100
AcDbScale
 70
     0
300
2:1
140
2.0
141
1.0
290
     0
  0
SCALE
  5
55
102
{ACAD_REACTORS
330
47
102
}
330
47
100
AcDbScale
 70
     0
300
4:1
140
4.0
141
1.0
290
     0
  0
SCALE
  5
56
102
{ACAD_REACTORS
330
47
102
}
330
47
100
AcDbScale
 70
     0
300
8:1
140
8.0
141
1.0
290
     0
  0
SCALE
  5
57
102
{ACAD_REACTORS
330
47
102
}
330
47
100
AcDbScale
 70
     0
300
10:1
140
10.0
141
1.0
290
     0
  0
SCALE
  5
58
102
{ACAD_REACTORS
330
47
102
}
330
47
100
AcDbScale
 70
     0
300
100:1
140
100.0
141
1.0
290
     0
  0
SCALE
  5
59
102
{ACAD_REACTORS
330
47
102
}
330
47
100
AcDbScale
 70
     0
300
1/128" = 1'-0"
140
0.0078125
141
12.0
290
     0
  0
SCALE
  5
5A
102
{ACAD_REACTORS
330
47
102
}
330
47
100
AcDbScale
 70
     0
300
1/64" = 1'-0"
140
0.015625
141
12.0
290
     0
  0
SCALE
  5
5B
102
{ACAD_REACTORS
330
47
102
}
330
47
100
AcDbScale
 70
     0
300
1/32" = 1'-0"
140
0.03125
141
12.0
290
     0
  0
SCALE
  5
5C
102
{ACAD_REACTORS
330
47
102
}
330
47
100
AcDbScale
 70
     0
300
1/16" = 1'-0"
140
0.0625
141
12.0
290
     0
  0
SCALE
  5
5D
102
{ACAD_REACTORS
330
47
102
}
330
47
100
AcDbScale
 70
     0
300
3/32" = 1'-0"
140
0.09375
141
12.0
290
     0
  0
SCALE
  5
5E
102
{ACAD_REACTORS
330
47
102
}
330
47
100
AcDbScale
 70
     0
300
1/8" = 1'-0"
140
0.125
141
12.0
290
     0
  0
SCALE
  5
5F
102
{ACAD_REACTORS
330
47
102
}
330
47
100
AcDbScale
 70
     0
300
3/16" = 1'-0"
140
0.1875
141
12.0
290
     0
  0
SCALE
  5
60
102
{ACAD_REACTORS
330
47
102
}
330
47
100
AcDbScale
 70
     0
300
1/4" = 1'-0"
140
0.25
141
12.0
290
     0
  0
SCALE
  5
61
102
{ACAD_REACTORS
330
47
102
}
330
47
100
AcDbScale
 70
     0
300
3/8" = 1'-0"
140
0.375
141
12.0
290
     0
  0
SCALE
  5
62
102
{ACAD_REACTORS
330
47
102
}
330
47
100
AcDbScale
 70
     0
300
1/2" = 1'-0"
140
0.5
141
12.0
290
     0
  0
SCALE
  5
63
102
{ACAD_REACTORS
330
47
102
}
330
47
100
AcDbScale
 70
     0
300
3/4" = 1'-0"
140
0.75
141
12.0
290
     0
  0
SCALE
  5
64
102
{ACAD_REACTORS
330
47
102
}
330
47
100
AcDbScale
 70
     0
300
1" = 1'-0"
140
1.0
141
12.0
290
     0
  0
SCALE
  5
65
102
{ACAD_REACTORS
330
47
102
}
330
47
100
AcDbScale
 70
     0
300
1-1/2" = 1'-0"
140
1.5
141
12.0
290
     0
  0
SCALE
  5
66
102
{ACAD_REACTORS
330
47
102
}
330
47
100
AcDbScale
 70
     0
300
3" = 1'-0"
140
3.0
141
12.0
290
     0
  0
SCALE
  5
67
102
{ACAD_REACTORS
330
47
102
}
330
47
100
AcDbScale
 70
     0
300
6" = 1'-0"
140
6.0
141
12.0
290
     0
  0
SCALE
  5
68
102
{ACAD_REACTORS
330
47
102
}
330
47
100
AcDbScale
 70
     0
300
1'-0" = 1'-0"
140
12.0
141
12.0
290
     0
  0
ENDSEC
  0
EOF
