  0
SECTION
  2
HEADER
  9
$ACADVER
  1
AC1015
  9
$ACADMAINTVER
 70
     6
  9
$DWGCODEPAGE
  3
ANSI_949
  9
$INSBASE
 10
0.0
 20
0.0
 30
0.0
  9
$EXTMIN
 10
1.000000000000000E+20
 20
1.000000000000000E+20
 30
1.000000000000000E+20
  9
$EXTMAX
 10
-1.000000000000000E+20
 20
-1.000000000000000E+20
 30
-1.000000000000000E+20
  9
$LIMMIN
 10
0.0
 20
0.0
  9
$LIMMAX
 10
420.0
 20
297.0
  9
$ORTHOMODE
 70
     1
  9
$REGENMODE
 70
     1
  9
$FILLMODE
 70
     1
  9
$QTEXTMODE
 70
     0
  9
$MIRRTEXT
 70
     1
  9
$LTSCALE
 40
1.0
  9
$ATTMODE
 70
     1
  9
$TEXTSIZE
 40
3.5
  9
$TRACEWID
 40
1.0
  9
$TEXTSTYLE
  7
Standard
  9
$CLAYER
  8
0
  9
$CELTYPE
  6
ByLayer
  9
$CECOLOR
 62
   256
  9
$CELTSCALE
 40
1.0
  9
$DISPSILH
 70
     0
  9
$DIMSCALE
 40
1.0
  9
$DIMASZ
 40
3.302
  9
$DIMEXO
 40
1.0
  9
$DIMDLI
 40
3.75
  9
$DIMRND
 40
0.0
  9
$DIMDLE
 40
0.0
  9
$DIMEXE
 40
1.0
  9
$DIMTP
 40
0.0
  9
$DIMTM
 40
0.0
  9
$DIMTXT
 40
3.5
  9
$DIMCEN
 40
2.5
  9
$DIMTSZ
 40
0.0
  9
$DIMTOL
 70
     0
  9
$DIMLIM
 70
     0
  9
$DIMTIH
 70
     1
  9
$DIMTOH
 70
     1
  9
$DIMSE1
 70
     0
  9
$DIMSE2
 70
     0
  9
$DIMTAD
 70
     1
  9
$DIMZIN
 70
     0
  9
$DIMBLK
  1

  9
$DIMASO
 70
     1
  9
$DIMSHO
 70
     1
  9
$DIMPOST
  1

  9
$DIMAPOST
  1

  9
$DIMALT
 70
     0
  9
$DIMALTD
 70
     3
  9
$DIMALTF
 40
0.0393700787401575
  9
$DIMLFAC
 40
1.0
  9
$DIMTOFL
 70
     1
  9
$DIMTVP
 40
0.0
  9
$DIMTIX
 70
     0
  9
$DIMSOXD
 70
     0
  9
$DIMSAH
 70
     0
  9
$DIMBLK1
  1

  9
$DIMBLK2
  1

  9
$DIMSTYLE
  2
ISO-25
  9
$DIMCLRD
 70
     0
  9
$DIMCLRE
 70
     0
  9
$DIMCLRT
 70
     0
  9
$DIMTFAC
 40
1.0
  9
$DIMGAP
 40
1.524
  9
$DIMJUST
 70
     0
  9
$DIMSD1
 70
     0
  9
$DIMSD2
 70
     0
  9
$DIMTOLJ
 70
     0
  9
$DIMTZIN
 70
     0
  9
$DIMALTZ
 70
     0
  9
$DIMALTTZ
 70
     0
  9
$DIMUPT
 70
     0
  9
$DIMDEC
 70
     2
  9
$DIMTDEC
 70
     2
  9
$DIMALTU
 70
     2
  9
$DIMALTTD
 70
     3
  9
$DIMTXSTY
  7
Standard
  9
$DIMAUNIT
 70
     0
  9
$DIMADEC
 70
     2
  9
$DIMALTRND
 40
0.0
  9
$DIMAZIN
 70
     0
  9
$DIMDSEP
 70
    44
  9
$DIMATFIT
 70
     3
  9
$DIMFRAC
 70
     0
  9
$DIMLDRBLK
  1

  9
$DIMLUNIT
 70
     2
  9
$DIMLWD
 70
    -2
  9
$DIMLWE
 70
    -2
  9
$DIMTMOVE
 70
     0
  9
$LUNITS
 70
     2
  9
$LUPREC
 70
     2
  9
$SKETCHINC
 40
1.0
  9
$FILLETRAD
 40
10.0
  9
$AUNITS
 70
     0
  9
$AUPREC
 70
     2
  9
$MENU
  1
.
  9
$ELEVATION
 40
0.0
  9
$PELEVATION
 40
0.0
  9
$THICKNESS
 40
0.0
  9
$LIMCHECK
 70
     0
  9
$CHAMFERA
 40
0.0
  9
$CHAMFERB
 40
0.0
  9
$CHAMFERC
 40
0.0
  9
$CHAMFERD
 40
0.0
  9
$SKPOLY
 70
     0
  9
$TDCREATE
 40
2458319.365014132
  9
$TDUCREATE
 40
2458318.990014132
  9
$TDUPDATE
 40
2458331.746983831
  9
$TDUUPDATE
 40
2458331.371983831
  9
$TDINDWG
 40
0.0016895718
  9
$TDUSRTIMER
 40
2458331.370294537
  9
$USRTIMER
 70
     1
  9
$ANGBASE
 50
0.0
  9
$ANGDIR
 70
     0
  9
$PDMODE
 70
     0
  9
$PDSIZE
 40
-1.0
  9
$PLINEWID
 40
0.0
  9
$SPLFRAME
 70
     0
  9
$SPLINETYPE
 70
     6
  9
$SPLINESEGS
 70
     8
  9
$HANDSEED
  5
272
  9
$SURFTAB1
 70
     6
  9
$SURFTAB2
 70
     6
  9
$SURFTYPE
 70
     6
  9
$SURFU
 70
     6
  9
$SURFV
 70
     6
  9
$UCSBASE
  2

  9
$UCSNAME
  2

  9
$UCSORG
 10
0.0
 20
0.0
 30
0.0
  9
$UCSXDIR
 10
1.0
 20
0.0
 30
0.0
  9
$UCSYDIR
 10
0.0
 20
1.0
 30
0.0
  9
$UCSORTHOREF
  2

  9
$UCSORTHOVIEW
 70
     0
  9
$UCSORGTOP
 10
0.0
 20
0.0
 30
0.0
  9
$UCSORGBOTTOM
 10
0.0
 20
0.0
 30
0.0
  9
$UCSORGLEFT
 10
0.0
 20
0.0
 30
0.0
  9
$UCSORGRIGHT
 10
0.0
 20
0.0
 30
0.0
  9
$UCSORGFRONT
 10
0.0
 20
0.0
 30
0.0
  9
$UCSORGBACK
 10
0.0
 20
0.0
 30
0.0
  9
$PUCSBASE
  2

  9
$PUCSNAME
  2

  9
$PUCSORG
 10
0.0
 20
0.0
 30
0.0
  9
$PUCSXDIR
 10
1.0
 20
0.0
 30
0.0
  9
$PUCSYDIR
 10
0.0
 20
1.0
 30
0.0
  9
$PUCSORTHOREF
  2

  9
$PUCSORTHOVIEW
 70
     0
  9
$PUCSORGTOP
 10
0.0
 20
0.0
 30
0.0
  9
$PUCSORGBOTTOM
 10
0.0
 20
0.0
 30
0.0
  9
$PUCSORGLEFT
 10
0.0
 20
0.0
 30
0.0
  9
$PUCSORGRIGHT
 10
0.0
 20
0.0
 30
0.0
  9
$PUCSORGFRONT
 10
0.0
 20
0.0
 30
0.0
  9
$PUCSORGBACK
 10
0.0
 20
0.0
 30
0.0
  9
$USERI1
 70
     0
  9
$USERI2
 70
     0
  9
$USERI3
 70
     0
  9
$USERI4
 70
     0
  9
$USERI5
 70
     0
  9
$USERR1
 40
0.0
  9
$USERR2
 40
0.0
  9
$USERR3
 40
0.0
  9
$USERR4
 40
0.0
  9
$USERR5
 40
0.0
  9
$WORLDVIEW
 70
     1
  9
$SHADEDGE
 70
     3
  9
$SHADEDIF
 70
    70
  9
$TILEMODE
 70
     1
  9
$MAXACTVP
 70
    64
  9
$PINSBASE
 10
0.0
 20
0.0
 30
0.0
  9
$PLIMCHECK
 70
     0
  9
$PEXTMIN
 10
1.000000000000000E+20
 20
1.000000000000000E+20
 30
1.000000000000000E+20
  9
$PEXTMAX
 10
-1.000000000000000E+20
 20
-1.000000000000000E+20
 30
-1.000000000000000E+20
  9
$PLIMMIN
 10
0.0
 20
0.0
  9
$PLIMMAX
 10
0.0
 20
0.0
  9
$UNITMODE
 70
     0
  9
$VISRETAIN
 70
     1
  9
$PLINEGEN
 70
     0
  9
$PSLTSCALE
 70
     1
  9
$TREEDEPTH
 70
  3020
  9
$CMLSTYLE
  2
Standard
  9
$CMLJUST
 70
     0
  9
$CMLSCALE
 40
20.0
  9
$PROXYGRAPHICS
 70
     1
  9
$MEASUREMENT
 70
     1
  9
$CELWEIGHT
370
    -1
  9
$ENDCAPS
280
     0
  9
$JOINSTYLE
280
     0
  9
$LWDISPLAY
290
     1
  9
$INSUNITS
 70
     4
  9
$HYPERLINKBASE
  1

  9
$STYLESHEET
  1

  9
$XEDIT
290
     1
  9
$CEPSNTYPE
380
     0
  9
$PSTYLEMODE
290
     1
  9
$FINGERPRINTGUID
  2
{623FE27C-B8F8-4080-8971-53D26994BCD9}
  9
$VERSIONGUID
  2
{FAEB1C32-E019-11D5-929B-00C0DF256EC4}
  9
$EXTNAMES
290
     1
  9
$PSVPSCALE
 40
0.0
  9
$OLESTARTUP
290
     0
  0
ENDSEC
  0
SECTION
  2
CLASSES
  0
CLASS
  1
ACDBDICTIONARYWDFLT
  2
AcDbDictionaryWithDefault
  3
ObjectDBX Classes
 90
        0
280
     0
281
     0
  0
CLASS
  1
VISUALSTYLE
  2
AcDbVisualStyle
  3
ObjectDBX Classes
 90
     4095
280
     0
281
     0
  0
CLASS
  1
MATERIAL
  2
AcDbMaterial
  3
ObjectDBX Classes
 90
     1153
280
     0
281
     0
  0
CLASS
  1
SCALE
  2
AcDbScale
  3
ObjectDBX Classes
 90
     1153
280
     0
281
     0
  0
CLASS
  1
SUN
  2
AcDbSun
  3
SCENEOE
 90
     1153
280
     0
281
     0
  0
CLASS
  1
ACDBPLACEHOLDER
  2
AcDbPlaceHolder
  3
ObjectDBX Classes
 90
        0
280
     0
281
     0
  0
CLASS
  1
LAYOUT
  2
AcDbLayout
  3
ObjectDBX Classes
 90
        0
280
     0
281
     0
  0
CLASS
  1
TABLESTYLE
  2
AcDbTableStyle
  3
ObjectDBX Classes
 90
     4095
280
     0
281
     0
  0
CLASS
  1
MLEADERSTYLE
  2
AcDbMLeaderStyle
  3
ACDB_MLEADERSTYLE_CLASS
 90
     4095
280
     0
281
     0
  0
CLASS
  1
RASTERVARIABLES
  2
AcDbRasterVariables
  3
ISM
 90
        0
280
     0
281
     0
  0
ENDSEC
  0
SECTION
  2
TABLES
  0
TABLE
  2
VPORT
  5
8
330
0
100
AcDbSymbolTable
 70
     1
  0
VPORT
  5
29
330
8
100
AcDbSymbolTableRecord
100
AcDbViewportTableRecord
  2
*Active
 70
     0
 10
0.0
 20
0.0
 11
1.0
 21
1.0
 12
17.21267271629482
 22
-2.644388028997231
 13
0.0
 23
0.0
 14
10.0
 24
10.0
 15
10.0
 25
10.0
 16
0.0
 26
0.0
 36
1.0
 17
0.0
 27
0.0
 37
0.0
 40
24.25237229167477
 41
1.516441005802708
 42
50.0
 43
0.0
 44
0.0
 50
0.0
 51
0.0
 71
    16
 72
  2000
 73
     1
 74
     3
 75
     0
 76
     0
 77
     0
 78
     0
281
     0
 65
     1
110
0.0
120
0.0
130
0.0
111
1.0
121
0.0
131
0.0
112
0.0
122
1.0
132
0.0
 79
     0
146
0.0
  0
ENDTAB
  0
TABLE
  2
LTYPE
  5
5
330
0
100
AcDbSymbolTable
 70
     6
  0
LTYPE
  5
14
330
5
100
AcDbSymbolTableRecord
100
AcDbLinetypeTableRecord
  2
ByBlock
 70
     0
  3

 72
    65
 73
     0
 40
0.0
  0
LTYPE
  5
15
330
5
100
AcDbSymbolTableRecord
100
AcDbLinetypeTableRecord
  2
ByLayer
 70
     0
  3

 72
    65
 73
     0
 40
0.0
  0
LTYPE
  5
16
330
5
100
AcDbSymbolTableRecord
100
AcDbLinetypeTableRecord
  2
Continuous
 70
     0
  3
Solid line
 72
    65
 73
     0
 40
0.0
  0
LTYPE
  5
6A
330
5
100
AcDbSymbolTableRecord
100
AcDbLinetypeTableRecord
  2
HIDDEN
 70
     0
  3
Hidden __ __ __ __ __ __ __ __ __ __ __ __ __ __
 72
    65
 73
     2
 40
1.905
 49
1.27
 74
     0
 49
-0.635
 74
     0
  0
LTYPE
  5
6B
330
5
100
AcDbSymbolTableRecord
100
AcDbLinetypeTableRecord
  2
PHANTOM
 70
     0
  3
Phantom ______  __  __  ______  __  __  ______
 72
    65
 73
     6
 40
12.7
 49
6.35
 74
     0
 49
-1.27
 74
     0
 49
1.27
 74
     0
 49
-1.27
 74
     0
 49
1.27
 74
     0
 49
-1.27
 74
     0
  0
LTYPE
  5
6C
330
5
100
AcDbSymbolTableRecord
100
AcDbLinetypeTableRecord
  2
CENTER
 70
     0
  3
Center ____ _ ____ _ ____ _ ____ _ ____ _ ____
 72
    65
 73
     4
 40
10.16
 49
6.35
 74
     0
 49
-1.27
 74
     0
 49
1.27
 74
     0
 49
-1.27
 74
     0
  0
LTYPE
  5
6D
330
5
100
AcDbSymbolTableRecord
100
AcDbLinetypeTableRecord
  2
CENTERX2
 70
     0
  3
Center (2x) ________  __  ________  __  _____
 72
    65
 73
     4
 40
20.32
 49
12.7
 74
     0
 49
-2.54
 74
     0
 49
2.54
 74
     0
 49
-2.54
 74
     0
  0
LTYPE
  5
6E
330
5
100
AcDbSymbolTableRecord
100
AcDbLinetypeTableRecord
  2
DOT2
 70
     0
  3
Dot (.5x) ........................................
 72
    65
 73
     2
 40
0.635
 49
0.0
 74
     0
 49
-0.635
 74
     0
  0
ENDTAB
  0
TABLE
  2
LAYER
  5
2
102
{ACAD_XDICTIONARY
360
25D
102
}
330
0
100
AcDbSymbolTable
 70
    18
  0
LAYER
  5
10
330
2
100
AcDbSymbolTableRecord
100
AcDbLayerTableRecord
  2
0
 70
     0
 62
     7
  6
Continuous
370
    -3
390
F
  0
LAYER
  5
6F
330
2
100
AcDbSymbolTableRecord
100
AcDbLayerTableRecord
  2
FORMAT
 70
     0
 62
     2
  6
Continuous
370
    -3
390
F
  0
LAYER
  5
70
330
2
100
AcDbSymbolTableRecord
100
AcDbLayerTableRecord
  2
외형선
 70
     0
 62
     4
  6
Continuous
370
    30
390
F
  0
LAYER
  5
71
330
2
100
AcDbSymbolTableRecord
100
AcDbLayerTableRecord
  2
숨은선
 70
     0
 62
     2
  6
HIDDEN
370
    15
390
F
  0
LAYER
  5
72
330
2
100
AcDbSymbolTableRecord
100
AcDbLayerTableRecord
  2
중심선
 70
     0
 62
     1
  6
CENTERX2
370
    -3
390
F
  0
LAYER
  5
73
330
2
100
AcDbSymbolTableRecord
100
AcDbLayerTableRecord
  2
파단선
 70
     0
 62
     4
  6
Continuous
370
    -3
390
F
  0
LAYER
  5
74
330
2
100
AcDbSymbolTableRecord
100
AcDbLayerTableRecord
  2
해칭선
 70
     0
 62
   100
  6
Continuous
370
    -3
390
F
  0
LAYER
  5
75
330
2
100
AcDbSymbolTableRecord
100
AcDbLayerTableRecord
  2
가는실선
 70
     0
 62
     4
  6
Continuous
370
    -3
390
F
  0
LAYER
  5
76
330
2
100
AcDbSymbolTableRecord
100
AcDbLayerTableRecord
  2
치수_보조선
 70
     0
 62
     4
  6
Continuous
370
    -3
390
F
  0
LAYER
  5
77
330
2
100
AcDbSymbolTableRecord
100
AcDbLayerTableRecord
  2
치수문자_일반주서
 70
     0
 62
     7
  6
Continuous
370
    15
390
F
  0
LAYER
  5
78
330
2
100
AcDbSymbolTableRecord
100
AcDbLayerTableRecord
  2
개별주서
 70
     0
 62
   100
  6
Continuous
370
    30
390
F
  0
LAYER
  5
79
330
2
100
AcDbSymbolTableRecord
100
AcDbLayerTableRecord
  2
중간선
 70
     0
 62
     2
  6
Continuous
370
    15
390
F
  0
LAYER
  5
7A
330
2
100
AcDbSymbolTableRecord
100
AcDbLayerTableRecord
  2
윤곽선
 70
     0
 62
     3
  6
Continuous
370
    40
390
F
  0
LAYER
  5
7B
330
2
100
AcDbSymbolTableRecord
100
AcDbLayerTableRecord
  2
중심마크
 70
     0
 62
   100
  6
Continuous
370
    30
390
F
  0
LAYER
  5
7C
330
2
100
AcDbSymbolTableRecord
100
AcDbLayerTableRecord
  2
가상선
 70
     0
 62
     4
  6
PHANTOM
370
    -3
390
F
  0
LAYER
  5
7D
330
2
100
AcDbSymbolTableRecord
100
AcDbLayerTableRecord
  2
특수지정선
 70
     0
 62
     5
  6
CENTERX2
370
    60
390
F
  0
LAYER
  5
7E
330
2
100
AcDbSymbolTableRecord
100
AcDbLayerTableRecord
  2
참조1
 70
     0
 62
    -4
  6
Continuous
370
    -3
390
F
  0
LAYER
  5
22B
330
2
100
AcDbSymbolTableRecord
100
AcDbLayerTableRecord
  2
Defpoints
 70
     0
 62
     7
  6
Continuous
290
     0
370
    -3
390
F
  0
ENDTAB
  0
TABLE
  2
STYLE
  5
3
330
0
100
AcDbSymbolTable
 70
     2
  0
STYLE
  5
11
330
3
100
AcDbSymbolTableRecord
100
AcDbTextStyleTableRecord
  2
Standard
 70
     0
 40
0.0
 41
1.0
 50
0.0
 71
     0
 42
3.5
  3
txt
  4

  0
STYLE
  5
94
330
3
100
AcDbSymbolTableRecord
100
AcDbTextStyleTableRecord
  2
SLDTEXTSTYLE0
 70
     0
 40
0.0
 41
0.75
 50
0.0
 71
     0
 42
3.5
  3
TXT
  4

  0
ENDTAB
  0
TABLE
  2
VIEW
  5
6
330
0
100
AcDbSymbolTable
 70
     0
  0
ENDTAB
  0
TABLE
  2
UCS
  5
7
330
0
100
AcDbSymbolTable
 70
     0
  0
ENDTAB
  0
TABLE
  2
APPID
  5
9
330
0
100
AcDbSymbolTable
 70
     1
  0
APPID
  5
12
330
9
100
AcDbSymbolTableRecord
100
AcDbRegAppTableRecord
  2
ACAD
 70
     0
  0
ENDTAB
  0
TABLE
  2
DIMSTYLE
  5
A
330
0
100
AcDbSymbolTable
 70
     3
100
AcDbDimStyleTable
  0
DIMSTYLE
105
27
330
A
100
AcDbSymbolTableRecord
100
AcDbDimStyleTableRecord
  2
ISO-25
 70
     0
 41
2.5
 42
0.625
 43
3.75
 44
1.25
 73
     0
 74
     0
 77
     1
 78
     8
140
2.5
141
2.5
143
0.03937007874016
147
0.625
171
     3
172
     1
178
     0
271
     2
272
     2
274
     3
278
    44
283
     0
284
     8
340
11
  0
DIMSTYLE
105
1A9
102
{ACAD_REACTORS
330
1A8
330
1BD
102
}
330
A
100
AcDbSymbolTableRecord
100
AcDbDimStyleTableRecord
  2
SLDDIMSTYLE0
 70
     0
 41
3.302
 44
0.0
 45
0.000000001
 73
     0
 74
     0
 77
     1
 78
    12
 79
     3
140
3.5
143
0.0393700787401575
147
0.875
148
0.000000001
170
     1
172
     1
173
     1
178
     0
271
     2
272
     2
276
     2
284
    12
289
     0
340
94
  0
DIMSTYLE
105
1D2
102
{ACAD_REACTORS
330
1D1
330
1E6
102
}
330
A
100
AcDbSymbolTableRecord
100
AcDbDimStyleTableRecord
  2
SLDDIMSTYLE1
 70
     0
 41
3.302
 44
0.0
 45
0.000000001
 73
     0
 74
     0
 77
     1
 78
    12
 79
     3
140
3.5
143
0.0393700787401575
147
0.875
148
0.000000001
170
     1
173
     1
178
     0
271
     2
272
     2
276
     2
284
    12
340
94
  0
ENDTAB
  0
TABLE
  2
BLOCK_RECORD
  5
1
330
0
100
AcDbSymbolTable
 70
     8
  0
BLOCK_RECORD
  5
1F
330
1
100
AcDbSymbolTableRecord
100
AcDbBlockTableRecord
  2
*Model_Space
340
22
  0
BLOCK_RECORD
  5
1B
330
1
100
AcDbSymbolTableRecord
100
AcDbBlockTableRecord
  2
*Paper_Space
340
1E
  0
BLOCK_RECORD
  5
23
330
1
100
AcDbSymbolTableRecord
100
AcDbBlockTableRecord
  2
*Paper_Space0
340
26
  0
BLOCK_RECORD
  5
7F
330
1
100
AcDbSymbolTableRecord
100
AcDbBlockTableRecord
  2
블럭10
340
0
102
{BLKREFS
331
1A1
102
}
  0
BLOCK_RECORD
  5
1AA
330
1
100
AcDbSymbolTableRecord
100
AcDbBlockTableRecord
  2
_D
340
0
  0
BLOCK_RECORD
  5
1BE
330
1
100
AcDbSymbolTableRecord
100
AcDbBlockTableRecord
  2
_D_1
340
0
  0
BLOCK_RECORD
  5
1D3
330
1
100
AcDbSymbolTableRecord
100
AcDbBlockTableRecord
  2
_D_2
340
0
  0
BLOCK_RECORD
  5
1E7
330
1
100
AcDbSymbolTableRecord
100
AcDbBlockTableRecord
  2
_D_3
340
0
  0
BLOCK_RECORD
  5
200
330
1
100
AcDbSymbolTableRecord
100
AcDbBlockTableRecord
  2
SW_DOWELSYMBOL_0
340
0
102
{BLKREFS
331
206
102
}
  0
ENDTAB
  0
ENDSEC
  0
SECTION
  2
BLOCKS
  0
BLOCK
  5
20
330
1F
100
AcDbEntity
  8
0
100
AcDbBlockBegin
  2
*Model_Space
 70
     0
 10
0.0
 20
0.0
 30
0.0
  3
*Model_Space
  1
*Model_Space
  0
ENDBLK
  5
21
330
1F
100
AcDbEntity
  8
0
100
AcDbBlockEnd
  0
BLOCK
  5
1C
330
1B
100
AcDbEntity
 67
     1
  8
0
100
AcDbBlockBegin
  2
*Paper_Space
 70
     0
 10
0.0
 20
0.0
 30
0.0
  3
*Paper_Space
  1
*Paper_Space
  0
ENDBLK
  5
1D
330
1B
100
AcDbEntity
 67
     1
  8
0
100
AcDbBlockEnd
  0
BLOCK
  5
24
330
23
100
AcDbEntity
  8
0
100
AcDbBlockBegin
  2
*Paper_Space0
 70
     0
 10
0.0
 20
0.0
 30
0.0
  3
*Paper_Space0
  1
*Paper_Space0
  0
ENDBLK
  5
25
330
23
100
AcDbEntity
  8
0
100
AcDbBlockEnd
  0
BLOCK
  5
80
330
7F
100
AcDbEntity
  8
0
100
AcDbBlockBegin
  2
블럭10
 70
     2
 10
0.0
 20
0.0
 30
0.0
  3
블럭10
  1
블럭10
  0
ELLIPSE
  5
82
330
7F
100
AcDbEntity
  8
중심선
100
AcDbEllipse
 10
20.54032771741204
 20
12.0471743016438
 30
0.0
 11
6.600054785286829
 21
-1.261213355974178E-13
 31
0.0
210
0.0
220
0.0
230
1.0
 40
0.636358354079598
 41
0.9219305317359503
 42
6.513795318482858
  0
ELLIPSE
  5
83
330
7F
100
AcDbEntity
  8
중심선
100
AcDbEllipse
 10
20.54032771746488
 20
12.04717430159265
 30
0.0
 11
3.960054785062283
 21
1.540847449632565E-10
 31
0.0
210
0.0
220
0.0
230
1.0
 40
0.3939339440162632
 41
1.131841032648279
 42
5.62031148352944
  0
LINE
  5
84
330
7F
100
AcDbEntity
  8
중심선
100
AcDbLine
 10
2.268634060543552
 20
16.24717430164393
 30
0.0
 11
5.714909304380834
 21
16.24717430164393
 31
0.0
  0
LINE
  5
85
330
7F
100
AcDbEntity
  8
중심선
100
AcDbLine
 10
5.245725140726316
 20
7.84717430164391
 30
0.0
 11
8.692000384563599
 21
7.84717430164391
 31
0.0
  0
LINE
  5
86
330
7F
100
AcDbEntity
  8
중심선
100
AcDbLine
 10
15.74043728645272
 20
16.24717430164393
 30
0.0
 11
8.692000384563599
 21
7.84717430164391
 31
0.0
  0
LINE
  5
87
330
7F
100
AcDbEntity
  8
중심선
100
AcDbLine
 10
0.1404042013395286
 20
13.71084872107135
 30
0.0
 11
3.58671253028996
 21
13.71088815037384
 31
0.0
  0
LINE
  5
88
330
7F
100
AcDbEntity
  8
중심선
100
AcDbLine
 10
2.750260043222114
 20
10.84717430164391
 30
0.0
 11
6.196535287059397
 21
10.84717430164391
 31
0.0
  0
LINE
  5
89
330
7F
100
AcDbEntity
  8
중심선
100
AcDbLine
 10
12.29416204261559
 20
16.24717430164393
 30
0.0
 11
5.245725140726316
 21
7.84717430164391
 31
0.0
  0
LINE
  5
8A
330
7F
100
AcDbEntity
  8
중심선
100
AcDbLine
 10
10.72767329541681
 20
16.24717430164393
 30
0.0
 11
6.196535287059397
 21
10.84717430164391
 31
0.0
  0
LINE
  5
8B
330
7F
100
AcDbEntity
  8
중심선
100
AcDbLine
 10
7.28139805157953
 20
16.24717430164393
 30
0.0
 11
2.750260043222114
 21
10.84717430164391
 31
0.0
  0
LINE
  5
8C
330
7F
100
AcDbEntity
  8
중심선
100
AcDbLine
 10
5.714909304380834
 20
16.24717430164393
 30
0.0
 11
3.58671253028996
 21
13.71088815037384
 31
0.0
  0
LINE
  5
8D
330
7F
100
AcDbEntity
  8
중심선
100
AcDbLine
 10
2.268634060543552
 20
16.24717430164393
 30
0.0
 11
0.1404042013395286
 21
13.71084872107135
 31
0.0
  0
LINE
  5
8E
330
7F
100
AcDbEntity
  8
중심선
100
AcDbLine
 10
7.28139805157953
 20
16.24717430164393
 30
0.0
 11
10.72767329541681
 21
16.24717430164393
 31
0.0
  0
LINE
  5
8F
330
7F
100
AcDbEntity
  8
중심선
100
AcDbLine
 10
12.29416204261559
 20
16.24717430164393
 30
0.0
 11
15.74043728645272
 21
16.24717430164393
 31
0.0
  0
LINE
  5
90
330
7F
100
AcDbEntity
  8
중심선
100
AcDbLine
 10
19.22036997980202
 20
11.08717430171403
 30
0.0
 11
23.66174974927406
 21
11.08717430171406
 31
0.0
  0
LINE
  5
91
330
7F
100
AcDbEntity
  8
중심선
100
AcDbLine
 10
19.22039502424796
 20
13.00717430171391
 30
0.0
 11
19.22036997980202
 21
11.08717430171403
 31
0.0
  0
LINE
  5
92
330
7F
100
AcDbEntity
  8
중심선
100
AcDbLine
 10
19.22039502424796
 20
13.00717430171391
 30
0.0
 11
26.96566020931264
 21
13.00717430171391
 31
0.0
  0
LINE
  5
93
330
7F
100
AcDbEntity
  8
중심선
100
AcDbLine
 10
22.22332737316547
 20
13.45928029700563
 30
0.0
 11
24.52862924686651
 21
15.39360700705356
 31
0.0
  0
ATTDEF
  5
95
330
7F
100
AcDbEntity
  8
FORMAT
 62
     2
100
AcDbText
 10
-9.18129528874128
 20
2.075366912832191
 30
0.0
 40
4.233333333333333
  1
E2191016 [ 3 FLUTE ]
 41
0.75
  7
SLDTEXTSTYLE0
 11
-9.18129528874128
 21
-0.0412997538344756
 31
0.0
100
AcDbAttributeDefinition
  3

  2
AUTOATTR0
 70
     0
 74
     1
  0
ENDBLK
  5
81
330
7F
100
AcDbEntity
  8
0
100
AcDbBlockEnd
  0
BLOCK
  5
1AB
330
1AA
100
AcDbEntity
  8
0
100
AcDbBlockBegin
  2
_D
 70
     0
 10
0.0
 20
0.0
 30
0.0
  3
_D
  1
_D
  0
LINE
  5
1AD
330
1AA
100
AcDbEntity
  8
치수문자_일반주서
 62
     0
370
    -2
100
AcDbLine
 10
-36.67536934298444
 20
4.762500000000003
 30
0.0
 11
-50.11286934298451
 21
4.762499999999954
 31
0.0
  0
LINE
  5
1AE
330
1AA
100
AcDbEntity
  8
치수문자_일반주서
 62
     0
370
    -2
100
AcDbLine
 10
-36.67536934298444
 20
-4.762500000000003
 30
0.0
 11
-50.11286934298447
 21
-4.762500000000052
 31
0.0
  0
LINE
  5
1AF
330
1AA
100
AcDbEntity
  8
치수문자_일반주서
 62
     0
370
    -2
100
AcDbLine
 10
-50.1128693429845
 20
1.460499999999954
 30
0.0
 11
-50.11286934298449
 21
-1.460500000000052
 31
0.0
  0
SOLID
  5
1B0
330
1AA
100
AcDbEntity
  8
치수문자_일반주서
 62
     0
100
AcDbTrace
 10
-49.56253600965116
 20
1.460499999999956
 30
0.0
 11
-50.66320267631783
 21
1.460499999999952
 31
0.0
 12
-50.11286934298451
 22
4.762499999999954
 32
0.0
 13
-50.11286934298451
 23
4.762499999999954
 33
0.0
  0
SOLID
  5
1B1
330
1AA
100
AcDbEntity
  8
치수문자_일반주서
 62
     0
100
AcDbTrace
 10
-50.66320267631782
 20
-1.460500000000054
 30
0.0
 11
-49.56253600965115
 21
-1.46050000000005
 31
0.0
 12
-50.11286934298447
 22
-4.762500000000052
 32
0.0
 13
-50.11286934298447
 23
-4.762500000000052
 33
0.0
  0
MTEXT
  5
1B2
330
1AA
100
AcDbEntity
  8
치수문자_일반주서
 62
     0
100
AcDbMText
 10
-54.48786934298449
 20
-0.363037855143893
 30
0.0
 40
3.5
 41
0.0
 71
     2
 72
     1
  1
\A1;%%c9.53 [3/8]
  7
SLDTEXTSTYLE0
 11
-3.729883127349606E-15
 21
1.0
 31
0.0
 73
     1
 44
1.0
  0
POINT
  5
1B3
330
1AA
100
AcDbEntity
  8
Defpoints
 62
     0
100
AcDbPoint
 10
-36.61286934298444
 20
4.762500000000003
 30
0.0
  0
POINT
  5
1B4
330
1AA
100
AcDbEntity
  8
Defpoints
 62
     0
100
AcDbPoint
 10
-36.61286934298444
 20
-4.762500000000003
 30
0.0
  0
POINT
  5
1B5
330
1AA
100
AcDbEntity
  8
Defpoints
 62
     0
100
AcDbPoint
 10
-50.11286934298447
 20
-4.76250000000005
 30
0.0
  0
ENDBLK
  5
1AC
330
1AA
100
AcDbEntity
  8
0
100
AcDbBlockEnd
  0
BLOCK
  5
1BF
330
1BE
100
AcDbEntity
  8
0
100
AcDbBlockBegin
  2
_D_1
 70
     0
 10
0.0
 20
0.0
 30
0.0
  3
_D_1
  1
_D_1
  0
LINE
  5
1C1
330
1BE
100
AcDbEntity
  8
치수문자_일반주서
 62
     0
370
    -2
100
AcDbLine
 10
24.86213065701557
 20
-3.174999999999997
 30
0.0
 11
39.42463065701561
 21
-3.174999999999947
 31
0.0
  0
LINE
  5
1C2
330
1BE
100
AcDbEntity
  8
치수문자_일반주서
 62
     0
370
    -2
100
AcDbLine
 10
24.86213065701557
 20
3.175000000000002
 30
0.0
 11
39.42463065701559
 21
3.17500000000005
 31
0.0
  0
LINE
  5
1C3
330
1BE
100
AcDbEntity
  8
치수문자_일반주서
 62
     0
370
    -2
100
AcDbLine
 10
39.42463065701559
 20
3.17500000000005
 30
0.0
 11
39.42463065701548
 21
37.77900000000005
 31
0.0
  0
LINE
  5
1C4
330
1BE
100
AcDbEntity
  8
치수문자_일반주서
 62
     0
370
    -2
100
AcDbLine
 10
39.42463065701561
 20
-3.174999999999947
 30
0.0
 11
39.42463065701559
 21
3.17500000000005
 31
0.0
  0
LINE
  5
1C5
330
1BE
100
AcDbEntity
  8
치수문자_일반주서
 62
     0
370
    -2
100
AcDbLine
 10
39.42463065701563
 20
-6.476999999999947
 30
0.0
 11
39.42463065701564
 21
-9.778999999999947
 31
0.0
  0
LINE
  5
1C6
330
1BE
100
AcDbEntity
  8
치수문자_일반주서
 62
     0
370
    -2
100
AcDbLine
 10
39.42463065701558
 20
6.47700000000005
 30
0.0
 11
39.42463065701556
 21
9.77900000000005
 31
0.0
  0
SOLID
  5
1C7
330
1BE
100
AcDbEntity
  8
치수문자_일반주서
 62
     0
100
AcDbTrace
 10
39.97496399034896
 20
-6.476999999999945
 30
0.0
 11
38.87429732368229
 21
-6.476999999999949
 31
0.0
 12
39.42463065701561
 22
-3.174999999999947
 32
0.0
 13
39.42463065701561
 23
-3.174999999999947
 33
0.0
  0
SOLID
  5
1C8
330
1BE
100
AcDbEntity
  8
치수문자_일반주서
 62
     0
100
AcDbTrace
 10
38.87429732368224
 20
6.477000000000048
 30
0.0
 11
39.97496399034891
 21
6.477000000000052
 31
0.0
 12
39.42463065701559
 22
3.17500000000005
 32
0.0
 13
39.42463065701559
 23
3.17500000000005
 33
0.0
  0
MTEXT
  5
1C9
330
1BE
100
AcDbEntity
  8
치수문자_일반주서
 62
     0
100
AcDbMText
 10
35.04963065701552
 20
25.09150000000004
 30
0.0
 40
3.5
 41
0.0
 71
     2
 72
     1
  1
\A1;%%c6.35 [1/4]
  7
SLDTEXTSTYLE0
 11
-3.356894814614646E-15
 21
1.0
 31
0.0
 73
     1
 44
1.0
  0
POINT
  5
1CA
330
1BE
100
AcDbEntity
  8
Defpoints
 62
     0
100
AcDbPoint
 10
24.79963065701557
 20
-3.174999999999997
 30
0.0
  0
POINT
  5
1CB
330
1BE
100
AcDbEntity
  8
Defpoints
 62
     0
100
AcDbPoint
 10
24.79963065701557
 20
3.175000000000002
 30
0.0
  0
POINT
  5
1CC
330
1BE
100
AcDbEntity
  8
Defpoints
 62
     0
100
AcDbPoint
 10
39.42463065701559
 20
3.175000000000054
 30
0.0
  0
ENDBLK
  5
1C0
330
1BE
100
AcDbEntity
  8
0
100
AcDbBlockEnd
  0
BLOCK
  5
1D4
330
1D3
100
AcDbEntity
  8
0
100
AcDbBlockBegin
  2
_D_2
 70
     0
 10
0.0
 20
0.0
 30
0.0
  3
_D_2
  1
_D_2
  0
LINE
  5
1D6
330
1D3
100
AcDbEntity
  8
치수문자_일반주서
 62
     0
370
    -2
100
AcDbLine
 10
24.79963065701557
 20
3.033261423860895
 30
0.0
 11
24.79963065701557
 21
23.85040522621772
 31
0.0
  0
LINE
  5
1D7
330
1D3
100
AcDbEntity
  8
치수문자_일반주서
 62
     0
370
    -2
100
AcDbLine
 10
8.924630657015657
 20
-0.8671752137989241
 30
0.0
 11
8.924630657015657
 21
23.85040522621772
 31
0.0
  0
LINE
  5
1D8
330
1D3
100
AcDbEntity
  8
치수문자_일반주서
 62
     0
370
    -2
100
AcDbLine
 10
8.924630657015657
 20
23.85040522621772
 30
0.0
 11
-19.97111934298434
 21
23.85040522621772
 31
0.0
  0
LINE
  5
1D9
330
1D3
100
AcDbEntity
  8
치수문자_일반주서
 62
     0
370
    -2
100
AcDbLine
 10
21.49763065701557
 20
23.85040522621772
 30
0.0
 11
12.22663065701566
 21
23.85040522621772
 31
0.0
  0
SOLID
  5
1DA
330
1D3
100
AcDbEntity
  8
치수문자_일반주서
 62
     0
100
AcDbTrace
 10
21.49763065701557
 20
23.30007189288439
 30
0.0
 11
21.49763065701557
 21
24.40073855955106
 31
0.0
 12
24.79963065701557
 22
23.85040522621772
 32
0.0
 13
24.79963065701557
 23
23.85040522621772
 33
0.0
  0
SOLID
  5
1DB
330
1D3
100
AcDbEntity
  8
치수문자_일반주서
 62
     0
100
AcDbTrace
 10
12.22663065701566
 20
24.40073855955106
 30
0.0
 11
12.22663065701566
 21
23.30007189288439
 31
0.0
 12
8.924630657015657
 22
23.85040522621772
 32
0.0
 13
8.924630657015657
 23
23.85040522621772
 33
0.0
  0
MTEXT
  5
1DC
330
1D3
100
AcDbEntity
  8
치수문자_일반주서
 62
     0
100
AcDbMText
 10
-7.283619342984343
 20
28.22540522621772
 30
0.0
 40
3.5
 41
0.0
 71
     2
 72
     1
  1
\A1;15.88 [5/8]
  7
SLDTEXTSTYLE0
 73
     1
 44
1.0
  0
POINT
  5
1DD
330
1D3
100
AcDbEntity
  8
Defpoints
 62
     0
100
AcDbPoint
 10
24.79963065701557
 20
2.970761423860895
 30
0.0
  0
POINT
  5
1DE
330
1D3
100
AcDbEntity
  8
Defpoints
 62
     0
100
AcDbPoint
 10
8.924630657015657
 20
-0.9296752137989241
 30
0.0
  0
POINT
  5
22C
330
1D3
100
AcDbEntity
  8
Defpoints
 62
     0
100
AcDbPoint
 10
8.924630657015657
 20
23.85040522621772
 30
0.0
  0
ENDBLK
  5
1D5
330
1D3
100
AcDbEntity
  8
0
100
AcDbBlockEnd
  0
BLOCK
  5
1E8
330
1E7
100
AcDbEntity
  8
0
100
AcDbBlockBegin
  2
_D_3
 70
     0
 10
0.0
 20
0.0
 30
0.0
  3
_D_3
  1
_D_3
  0
LINE
  5
1EA
330
1E7
100
AcDbEntity
  8
치수문자_일반주서
 62
     0
370
    -2
100
AcDbLine
 10
24.79963065701557
 20
3.033261423860895
 30
0.0
 11
24.79963065701557
 21
35.03457571291639
 31
0.0
  0
LINE
  5
1EB
330
1E7
100
AcDbEntity
  8
치수문자_일반주서
 62
     0
370
    -2
100
AcDbLine
 10
-37.11286934298445
 20
4.324999999999994
 30
0.0
 11
-37.11286934298445
 21
35.03457571291639
 31
0.0
  0
LINE
  5
1EC
330
1E7
100
AcDbEntity
  8
치수문자_일반주서
 62
     0
370
    -2
100
AcDbLine
 10
21.49763065701557
 20
35.03457571291639
 30
0.0
 11
-33.81086934298445
 21
35.03457571291639
 31
0.0
  0
SOLID
  5
1ED
330
1E7
100
AcDbEntity
  8
치수문자_일반주서
 62
     0
100
AcDbTrace
 10
21.49763065701557
 20
34.48424237958305
 30
0.0
 11
21.49763065701557
 21
35.58490904624972
 31
0.0
 12
24.79963065701557
 22
35.03457571291639
 32
0.0
 13
24.79963065701557
 23
35.03457571291639
 33
0.0
  0
SOLID
  5
1EE
330
1E7
100
AcDbEntity
  8
치수문자_일반주서
 62
     0
100
AcDbTrace
 10
-33.81086934298445
 20
35.58490904624972
 30
0.0
 11
-33.81086934298445
 21
34.48424237958305
 31
0.0
 12
-37.11286934298445
 22
35.03457571291639
 32
0.0
 13
-37.11286934298445
 23
35.03457571291639
 33
0.0
  0
MTEXT
  5
1EF
330
1E7
100
AcDbEntity
  8
치수문자_일반주서
 62
     0
100
AcDbMText
 10
-4.243673208964552
 20
39.40957571291639
 30
0.0
 40
3.5
 41
0.0
 71
     2
 72
     1
  1
\A1;61.91 [2 7/16]
  7
SLDTEXTSTYLE0
 73
     1
 44
1.0
  0
POINT
  5
1F0
330
1E7
100
AcDbEntity
  8
Defpoints
 62
     0
100
AcDbPoint
 10
24.79963065701557
 20
2.970761423860895
 30
0.0
  0
POINT
  5
1F1
330
1E7
100
AcDbEntity
  8
Defpoints
 62
     0
100
AcDbPoint
 10
-37.11286934298445
 20
4.262499999999994
 30
0.0
  0
POINT
  5
1F2
330
1E7
100
AcDbEntity
  8
Defpoints
 62
     0
100
AcDbPoint
 10
-37.11286934298445
 20
35.03457571291639
 30
0.0
  0
ENDBLK
  5
1E9
330
1E7
100
AcDbEntity
  8
0
100
AcDbBlockEnd
  0
BLOCK
  5
201
330
200
100
AcDbEntity
  8
0
100
AcDbBlockBegin
  2
SW_DOWELSYMBOL_0
 70
     0
 10
0.0
 20
0.0
 30
0.0
  3
SW_DOWELSYMBOL_0
  1
SW_DOWELSYMBOL_0
  0
CIRCLE
  5
203
330
200
100
AcDbEntity
  8
해칭선
 62
     0
100
AcDbCircle
 10
0.0
 20
0.0
 30
0.0
 40
3.000000000000001
  0
HATCH
  5
204
330
200
100
AcDbEntity
  8
0
  6
Continuous
 62
     0
370
     0
100
AcDbHatch
 10
0.0
 20
0.0
 30
0.0
210
0.0
220
0.0
230
1.0
  2
SOLID
 70
     1
 71
     0
 91
        1
 92
        0
 93
        3
 72
     2
 10
-0.0000000000000087
 20
-0.0000000000000052
 40
3.000000000000001
 50
0.0
 51
90.0
 73
     1
 72
     1
 10
-0.0000000000000087
 20
2.999999999999996
 11
-0.0000000000000087
 21
-0.0000000000000053
 72
     1
 10
-0.0000000000000087
 20
-0.0000000000000052
 11
2.999999999999993
 21
-0.0000000000000052
 97
        0
 75
     0
 76
     1
 98
        1
 10
0.0
 20
0.0
  0
HATCH
  5
205
330
200
100
AcDbEntity
  8
0
  6
Continuous
 62
     0
370
     0
100
AcDbHatch
 10
0.0
 20
0.0
 30
0.0
210
0.0
220
0.0
230
1.0
  2
SOLID
 70
     1
 71
     0
 91
        1
 92
        0
 93
        3
 72
     2
 10
-0.0000000000000087
 20
-0.0000000000000052
 40
3.000000000000001
 50
180.0
 51
270.0000000000008
 73
     1
 72
     1
 10
-0.0000000000000087
 20
-3.000000000000007
 11
-0.0000000000000087
 21
-0.0000000000000053
 72
     1
 10
-0.0000000000000087
 20
-0.0000000000000052
 11
-3.00000000000001
 21
-0.0000000000000052
 97
        0
 75
     0
 76
     1
 98
        1
 10
0.0
 20
0.0
  0
ENDBLK
  5
202
330
200
100
AcDbEntity
  8
0
100
AcDbBlockEnd
  0
ENDSEC
  0
SECTION
  2
ENTITIES
  0
LINE
  5
96
330
1F
100
AcDbEntity
  8
외형선
  6
Continuous
370
    15
100
AcDbLine
 10
-36.61286934298445
 20
4.762499999999995
 30
0.0
 11
-37.11286934298445
 21
4.262499999999993
 31
0.0
  0
LINE
  5
97
330
1F
100
AcDbEntity
  8
외형선
  6
Continuous
370
    15
100
AcDbLine
 10
-37.11286934298445
 20
-4.262500000000005
 30
0.0
 11
-36.61286934298445
 21
-4.762500000000007
 31
0.0
  0
LINE
  5
98
330
1F
100
AcDbEntity
  8
외형선
  6
Continuous
370
    15
100
AcDbLine
 10
2.999999999999961
 20
4.7625
 30
0.0
 11
-12.43041934298433
 21
4.762499999999998
 31
0.0
  0
LINE
  5
99
330
1F
100
AcDbEntity
  8
외형선
  6
Continuous
370
    15
100
AcDbLine
 10
-36.61286934298445
 20
-4.762500000000006
 30
0.0
 11
2.999999999999964
 21
-4.762500000000002
 31
0.0
  0
LINE
  5
9A
330
1F
100
AcDbEntity
  8
외형선
  6
Continuous
370
    15
100
AcDbLine
 10
2.999999999999968
 20
-4.762500000000002
 30
0.0
 11
8.924630657015568
 21
-3.174999999999997
 31
0.0
  0
SPLINE
  5
A0
330
1F
100
AcDbEntity
  8
외형선
  6
Continuous
 62
     1
370
    15
100
AcDbSpline
210
0.0
220
0.0
230
1.0
 70
     8
 71
     3
 72
     9
 73
     5
 74
     0
 42
0.000000001
 43
0.00000001
 40
0.0
 40
0.0
 40
0.0
 40
0.0
 40
0.315744013986952
 40
1.0
 40
1.0
 40
1.0
 40
1.0
 10
19.09969606991575
 20
3.069624701855337
 30
0.0
 10
19.08158562932121
 20
3.061128463603262
 30
0.0
 10
19.02422764376241
 20
3.034219835487744
 30
0.0
 10
18.97018925770812
 20
2.991657361042131
 30
0.0
 10
18.933213168576
 20
2.962533733123195
 30
0.0
  0
SPLINE
  5
A1
330
1F
100
AcDbEntity
  8
외형선
  6
Continuous
 62
     1
370
    15
100
AcDbSpline
210
0.0
220
0.0
230
1.0
 70
     8
 71
     3
 72
     9
 73
     5
 74
     0
 42
0.000000001
 43
0.00000001
 40
0.0
 40
0.0
 40
0.0
 40
0.0
 40
0.4788160576607282
 40
1.0
 40
1.0
 40
1.0
 40
1.0
 10
10.92556026260483
 20
-3.163553947064187
 30
0.0
 10
11.00379690260201
 20
-3.150689009080862
 30
0.0
 10
11.16719292649354
 20
-3.123820783219397
 30
0.0
 10
11.31283249267282
 20
-3.03856896673561
 30
0.0
 10
11.38873749593472
 20
-2.994137088929007
 30
0.0
  0
SPLINE
  5
A2
330
1F
100
AcDbEntity
  8
외형선
  6
Continuous
 62
     1
370
    15
100
AcDbSpline
210
0.0
220
0.0
230
1.0
 70
     8
 71
     3
 72
     9
 73
     5
 74
     0
 42
0.000000001
 43
0.00000001
 40
0.0
 40
0.0
 40
0.0
 40
0.0
 40
0.500823516021145
 40
1.0
 40
1.0
 40
1.0
 40
1.0
 10
19.58479971037156
 20
-3.162375287577132
 30
0.0
 10
19.66353499531132
 20
-3.146987591965183
 30
0.0
 10
19.82074663258683
 20
-3.116262805449169
 30
0.0
 10
19.96028335925343
 20
-3.034709780918743
 30
0.0
 10
20.02993681185678
 20
-2.994000428875803
 30
0.0
  0
SPLINE
  5
A3
330
1F
100
AcDbEntity
  8
외형선
  6
Continuous
 62
     1
370
    15
100
AcDbSpline
210
0.0
220
0.0
230
1.0
 70
     8
 71
     3
 72
    11
 73
     7
 74
     0
 42
0.000000001
 43
0.00000001
 40
0.0
 40
0.0
 40
0.0
 40
0.0
 40
0.0249793821007978
 40
0.3545932127874975
 40
0.684097162764301
 40
1.0
 40
1.0
 40
1.0
 40
1.0
 10
9.859071099119996
 20
3.123200056751718
 30
0.0
 10
9.852141618367616
 20
3.126381632969542
 30
0.0
 10
9.753774619815763
 20
3.171545493638858
 30
0.0
 10
9.53832860875758
 20
3.182728961829396
 30
0.0
 10
9.240003647397344
 20
3.148058705742275
 30
0.0
 10
9.063819471961963
 20
3.053499916788596
 30
0.0
 10
8.977583810982239
 20
3.007216874360343
 30
0.0
  0
SPLINE
  5
A4
330
1F
100
AcDbEntity
  8
외형선
  6
Continuous
 62
     1
370
    15
100
AcDbSpline
210
0.0
220
0.0
230
1.0
 70
     8
 71
     3
 72
     9
 73
     5
 74
     0
 42
0.000000001
 43
0.00000001
 40
0.0
 40
0.0
 40
0.0
 40
0.0
 40
0.9751336184119412
 40
1.0
 40
1.0
 40
1.0
 40
1.0
 10
10.30604305110619
 20
2.980360614811512
 30
0.0
 10
10.30344787799079
 20
2.982755155184273
 30
0.0
 10
10.30078652669861
 20
2.985210757501278
 30
0.0
 10
10.29663706649313
 20
2.984689334240968
 30
0.0
 10
10.29653388443228
 20
2.984676368331209
 30
0.0
  0
SPLINE
  5
A5
330
1F
100
AcDbEntity
  8
외형선
  6
Continuous
 62
     1
370
    15
100
AcDbSpline
210
0.0
220
0.0
230
1.0
 70
     8
 71
     3
 72
     9
 73
     5
 74
     0
 42
0.000000001
 43
0.00000001
 40
0.0
 40
0.0
 40
0.0
 40
0.0
 40
0.7431985639246071
 40
1.0
 40
1.0
 40
1.0
 40
1.0
 10
18.95433268056844
 20
2.988799613228748
 30
0.0
 10
18.94242655475962
 20
2.98478999298319
 30
0.0
 10
18.92640644063837
 20
2.97939490687809
 30
0.0
 10
18.90475142495584
 20
2.977959766224289
 30
0.0
 10
18.89919038583033
 20
2.977591220043422
 30
0.0
  0
SPLINE
  5
A6
330
1F
100
AcDbEntity
  8
외형선
  6
Continuous
 62
     1
370
    15
100
AcDbSpline
210
0.0
220
0.0
230
1.0
 70
     8
 71
     3
 72
     9
 73
     5
 74
     0
 42
0.000000001
 43
0.00000001
 40
0.0
 40
0.0
 40
0.0
 40
0.0
 40
0.4992905599921401
 40
1.0
 40
1.0
 40
1.0
 40
1.0
 10
18.7257342957862
 20
3.016649626835106
 30
0.0
 10
18.6562972800651
 20
3.055324361509904
 30
0.0
 10
18.51722592305368
 20
3.132783736418588
 30
0.0
 10
18.36039491552504
 20
3.158992185613931
 30
0.0
 10
18.28186814956951
 20
3.172115003534005
 30
0.0
  0
SPLINE
  5
A7
330
1F
100
AcDbEntity
  8
외형선
  6
Continuous
 62
     1
370
    15
100
AcDbSpline
210
0.0
220
0.0
230
1.0
 70
     8
 71
     3
 72
    11
 73
     7
 74
     0
 42
0.000000001
 43
0.00000001
 40
0.0
 40
0.0
 40
0.0
 40
0.0
 40
0.248335084212523
 40
0.5002322467462017
 40
0.7520184203176679
 40
1.0
 40
1.0
 40
1.0
 40
1.0
 10
20.01790360575614
 20
-3.00370228254013
 30
0.0
 10
20.03587403255661
 20
-2.994114158927865
 30
0.0
 10
20.07207265105585
 20
-2.974800381207522
 30
0.0
 10
20.13882385383476
 20
-2.967908499688495
 30
0.0
 10
20.20569854677386
 20
-2.980363216185939
 30
0.0
 10
20.24221966298995
 20
-3.00371032493587
 30
0.0
 10
20.26034120851197
 20
-3.01529501176516
 30
0.0
  0
SPLINE
  5
A8
330
1F
100
AcDbEntity
  8
외형선
  6
Continuous
 62
     1
370
    15
100
AcDbSpline
210
0.0
220
0.0
230
1.0
 70
     8
 71
     3
 72
    11
 73
     7
 74
     0
 42
0.000000001
 43
0.00000001
 40
0.0
 40
0.0
 40
0.0
 40
0.0
 40
0.2872069405336375
 40
0.5574831087472051
 40
0.7971104934154768
 40
0.9999999999999999
 40
0.9999999999999999
 40
0.9999999999999999
 40
0.9999999999999999
 10
20.22268035310571
 20
-3.004226997183137
 30
0.0
 10
20.32878610291819
 20
-3.059057747658494
 30
0.0
 10
20.53474269697372
 20
-3.165486990535253
 30
0.0
 10
20.86375707424564
 20
-3.186552881047565
 30
0.0
 10
21.14864020451306
 20
-3.130192598717906
 30
0.0
 10
21.30402287475923
 20
-3.043935908868608
 30
0.0
 10
21.37526425315899
 20
-3.004388091397522
 30
0.0
  0
SPLINE
  5
A9
330
1F
100
AcDbEntity
  8
외형선
  6
Continuous
 62
     1
370
    15
100
AcDbSpline
210
0.0
220
0.0
230
1.0
 70
     8
 71
     3
 72
     9
 73
     5
 74
     0
 42
0.000000001
 43
0.00000001
 40
0.0
 40
0.0
 40
0.0
 40
0.0
 40
0.5017978510069102
 40
1.0
 40
1.0
 40
1.0
 40
1.0
 10
18.29279404602541
 20
3.174631598093585
 30
0.0
 10
18.21243517454191
 20
3.160182928895635
 30
0.0
 10
18.05229325420036
 20
3.131389124440399
 30
0.0
 10
17.90902777681066
 20
3.049288938079796
 30
0.0
 10
17.8376526080986
 20
3.00838644880221
 30
0.0
  0
SPLINE
  5
AA
330
1F
100
AcDbEntity
  8
외형선
  6
Continuous
 62
     1
370
    15
100
AcDbSpline
210
0.0
220
0.0
230
1.0
 70
     8
 71
     3
 72
    11
 73
     7
 74
     0
 42
0.000000001
 43
0.00000001
 40
0.0
 40
0.0
 40
0.0
 40
0.0
 40
0.2486808472216973
 40
0.5001511057680593
 40
0.7515572636833209
 40
1.0
 40
1.0
 40
1.0
 40
1.0
 10
11.37285445346816
 20
-3.005871221925802
 30
0.0
 10
11.39057608724804
 20
-2.996367992834136
 30
0.0
 10
11.4262181353995
 20
-2.977254938525105
 30
0.0
 10
11.49216602860267
 20
-2.970282058900086
 30
0.0
 10
11.55802980906493
 20
-2.982507388416785
 30
0.0
 10
11.59353790841262
 20
-3.00519675870034
 30
0.0
 10
11.61118670080797
 20
-3.016474185345867
 30
0.0
  0
SPLINE
  5
AB
330
1F
100
AcDbEntity
  8
외형선
  6
Continuous
 62
     1
370
    15
100
AcDbSpline
210
0.0
220
0.0
230
1.0
 70
     8
 71
     3
 72
     9
 73
     5
 74
     0
 42
0.000000001
 43
0.00000001
 40
0.0
 40
0.0
 40
0.0
 40
0.0
 40
0.4988141772402808
 40
0.9999999999999999
 40
0.9999999999999999
 40
0.9999999999999999
 40
0.9999999999999999
 10
11.59341142730632
 20
-3.011352546547227
 30
0.0
 10
11.66365734865286
 20
-3.051434592388885
 30
0.0
 10
11.80448318029857
 20
-3.131789256852142
 30
0.0
 10
11.96270907167982
 20
-3.160260939946502
 30
0.0
 10
12.04200964523362
 20
-3.174530543863505
 30
0.0
  0
SPLINE
  5
AC
330
1F
100
AcDbEntity
  8
외형선
  6
Continuous
 62
     1
370
    15
100
AcDbSpline
210
0.0
220
0.0
230
1.0
 70
     8
 71
     3
 72
     9
 73
     5
 74
     0
 42
0.000000001
 43
0.00000001
 40
0.0
 40
0.0
 40
0.0
 40
0.0
 40
0.4868189641834043
 40
1.0
 40
1.0
 40
1.0
 40
1.0
 10
17.8304598594271
 20
3.00376929865276
 30
0.0
 10
17.80422250190723
 20
2.989677657434446
 30
0.0
 10
17.75032698950895
 20
2.960731288753119
 30
0.0
 10
17.66440801641592
 20
2.99151874158078
 30
0.0
 10
17.62031602880775
 20
3.007318278513033
 30
0.0
  0
SPLINE
  5
AE
330
1F
100
AcDbEntity
  8
외형선
  6
Continuous
 62
     1
370
    15
100
AcDbSpline
210
0.0
220
0.0
230
1.0
 70
     8
 71
     3
 72
     9
 73
     5
 74
     0
 42
0.000000001
 43
0.00000001
 40
0.0
 40
0.0
 40
0.0
 40
0.0
 40
0.5019370396877444
 40
0.9999999999999999
 40
0.9999999999999999
 40
0.9999999999999999
 40
0.9999999999999999
 10
12.05482557855302
 20
-3.17465208623505
 30
0.0
 10
12.13609947687205
 20
-3.159997405595626
 30
0.0
 10
12.29801998062607
 20
-3.130801152917121
 30
0.0
 10
12.44338393917639
 20
-3.046916411845328
 30
0.0
 10
12.51578434269466
 20
-3.005136529382084
 30
0.0
  0
SPLINE
  5
AF
330
1F
100
AcDbEntity
  8
외형선
  6
Continuous
 62
     1
370
    15
100
AcDbSpline
210
0.0
220
0.0
230
1.0
 70
     8
 71
     3
 72
    11
 73
     7
 74
     0
 42
0.000000001
 43
0.00000001
 40
0.0
 40
0.0
 40
0.0
 40
0.0
 40
0.2452002744102222
 40
0.5004448148150729
 40
0.7554594356665254
 40
1.0
 40
1.0
 40
1.0
 40
1.0
 10
17.62546529787403
 20
3.004259544789786
 30
0.0
 10
17.53692701285717
 20
3.051688245478047
 30
0.0
 10
17.35622360314086
 20
3.148488493316051
 30
0.0
 10
17.04901202349723
 20
3.188502717792365
 30
0.0
 10
16.74192398334968
 20
3.148586497117841
 30
0.0
 10
16.56134010586986
 20
3.051784297358965
 30
0.0
 10
16.47294129705339
 20
3.004398011999933
 30
0.0
  0
SPLINE
  5
B2
330
1F
100
AcDbEntity
  8
외형선
  6
Continuous
 62
     1
370
    15
100
AcDbSpline
210
0.0
220
0.0
230
1.0
 70
     8
 71
     3
 72
     9
 73
     5
 74
     0
 42
0.000000001
 43
0.00000001
 40
0.0
 40
0.0
 40
0.0
 40
0.0
 40
0.501089308889561
 40
1.0
 40
1.0
 40
1.0
 40
1.0
 10
12.51336605012146
 20
-3.006672572286656
 30
0.0
 10
12.54817308930313
 20
-2.990951184539072
 30
0.0
 10
12.61763583489393
 20
-2.959576761918838
 30
0.0
 10
12.68856197156767
 20
-2.989910995356667
 30
0.0
 10
12.72394777943336
 20
-3.00504506872544
 30
0.0
  0
SPLINE
  5
B3
330
1F
100
AcDbEntity
  8
외형선
  6
Continuous
 62
     1
370
    15
100
AcDbSpline
210
0.0
220
0.0
230
1.0
 70
     8
 71
     3
 72
     9
 73
     5
 74
     0
 42
0.000000001
 43
0.00000001
 40
0.0
 40
0.0
 40
0.0
 40
0.0
 40
0.5008920556587084
 40
1.0
 40
1.0
 40
1.0
 40
1.0
 10
21.37365067602472
 20
-3.005392961558034
 30
0.0
 10
21.40871444996598
 20
-2.990090785343379
 30
0.0
 10
21.47871710531882
 20
-2.95954093724381
 30
0.0
 10
21.54924085922192
 20
-2.990832246175933
 30
0.0
 10
21.58443982505973
 20
-3.006449987052791
 30
0.0
  0
SPLINE
  5
B4
330
1F
100
AcDbEntity
  8
외형선
  6
Continuous
 62
     1
370
    15
100
AcDbSpline
210
0.0
220
0.0
230
1.0
 70
     8
 71
     3
 72
    11
 73
     7
 74
     0
 42
0.000000001
 43
0.00000001
 40
0.0
 40
0.0
 40
0.0
 40
0.0
 40
0.1975742804720126
 40
0.435355805653161
 40
0.707433693270952
 40
1.0
 40
1.0
 40
1.0
 40
1.0
 10
12.7236965922488
 20
-3.004885450305727
 30
0.0
 10
12.79457314567857
 20
-3.044170008006392
 30
0.0
 10
12.95074994635638
 20
-3.130733705602263
 30
0.0
 10
13.2349582483362
 20
-3.18662501831142
 30
0.0
 10
13.56471097953525
 20
-3.165207381237747
 30
0.0
 10
13.77062057108795
 20
-3.058390899291101
 30
0.0
 10
13.8773111371538
 20
-3.003044711490357
 30
0.0
  0
SPLINE
  5
B6
330
1F
100
AcDbEntity
  8
외형선
  6
Continuous
 62
     1
370
    15
100
AcDbSpline
210
0.0
220
0.0
230
1.0
 70
     8
 71
     3
 72
     9
 73
     5
 74
     0
 42
0.000000001
 43
0.00000001
 40
0.0
 40
0.0
 40
0.0
 40
0.0
 40
0.4977539891692547
 40
1.0
 40
1.0
 40
1.0
 40
1.0
 10
21.58319296609587
 20
-3.005643805205438
 30
0.0
 10
21.65534855395908
 20
-3.047275486975751
 30
0.0
 10
21.80031090370065
 20
-3.130914559039836
 30
0.0
 10
21.96176733291634
 20
-3.160020816560688
 30
0.0
 10
22.0428581804129
 20
-3.17463931829075
 30
0.0
  0
SPLINE
  5
B8
330
1F
100
AcDbEntity
  8
외형선
  6
Continuous
 62
     1
370
    15
100
AcDbSpline
210
0.0
220
0.0
230
1.0
 70
     8
 71
     3
 72
     9
 73
     5
 74
     0
 42
0.000000001
 43
0.00000001
 40
0.0
 40
0.0
 40
0.0
 40
0.0
 40
0.5011331326049919
 40
1.0
 40
1.0
 40
1.0
 40
1.0
 10
22.05698315104572
 20
-3.174353669846731
 30
0.0
 10
22.13645073481667
 20
-3.159978874614129
 30
0.0
 10
22.29502652755635
 20
-3.131294291022778
 30
0.0
 10
22.43623770610195
 20
-3.050609783086983
 30
0.0
 10
22.50668328438416
 20
-3.010358955365747
 30
0.0
  0
SPLINE
  5
B9
330
1F
100
AcDbEntity
  8
외형선
  6
Continuous
 62
     1
370
    15
100
AcDbSpline
210
0.0
220
0.0
230
1.0
 70
     8
 71
     3
 72
     9
 73
     5
 74
     0
 42
0.000000001
 43
0.00000001
 40
0.0
 40
0.0
 40
0.0
 40
0.0
 40
0.5027899782291032
 40
1.0
 40
1.0
 40
1.0
 40
1.0
 10
16.47969127183811
 20
3.008357250786288
 30
0.0
 10
16.43450972079808
 20
2.992358332570205
 30
0.0
 10
16.34464804296759
 20
2.960538051918562
 30
0.0
 10
16.29379263402216
 20
2.989085119714213
 30
0.0
 10
16.26850681503323
 20
3.003279007914384
 30
0.0
  0
SPLINE
  5
BA
330
1F
100
AcDbEntity
  8
외형선
  6
Continuous
 62
     1
370
    15
100
AcDbSpline
210
0.0
220
0.0
230
1.0
 70
     8
 71
     3
 72
     9
 73
     5
 74
     0
 42
0.000000001
 43
0.00000001
 40
0.0
 40
0.0
 40
0.0
 40
0.0
 40
0.4985275778197968
 40
1.0
 40
1.0
 40
1.0
 40
1.0
 10
16.26089233781439
 20
3.008132792338575
 30
0.0
 10
16.18963544621362
 20
3.048982404395469
 30
0.0
 10
16.04670074255611
 20
3.130922930605757
 30
0.0
 10
15.88673540052842
 20
3.159896442881378
 30
0.0
 10
15.80651719299691
 20
3.174425860261302
 30
0.0
  0
SPLINE
  5
BB
330
1F
100
AcDbEntity
  8
외형선
  6
Continuous
 62
     1
370
    15
100
AcDbSpline
210
0.0
220
0.0
230
1.0
 70
     8
 71
     3
 72
    11
 73
     7
 74
     0
 42
0.000000001
 43
0.00000001
 40
0.0
 40
0.0
 40
0.0
 40
0.0
 40
0.2490382350863178
 40
0.5004951479468346
 40
0.7517177607768456
 40
1.0
 40
1.0
 40
1.0
 40
1.0
 10
22.4893946947768
 20
-3.016072375682119
 30
0.0
 10
22.50690378094631
 20
-3.004970825532554
 30
0.0
 10
22.54209200282632
 20
-2.982659906156583
 30
0.0
 10
22.60773235376608
 20
-2.970753107409525
 30
0.0
 10
22.67352331006484
 20
-2.977995364528717
 30
0.0
 10
22.70914673449161
 20
-2.997237215588394
 30
0.0
 10
22.72685359669549
 20
-3.006801506802501
 30
0.0
  0
SPLINE
  5
BC
330
1F
100
AcDbEntity
  8
외형선
  6
Continuous
 62
     1
370
    15
100
AcDbSpline
210
0.0
220
0.0
230
1.0
 70
     8
 71
     3
 72
    11
 73
     7
 74
     0
 42
0.000000001
 43
0.00000001
 40
0.0
 40
0.0
 40
0.0
 40
0.0
 40
0.2484043661906186
 40
0.5002355417966367
 40
0.75196523671226
 40
1.0
 40
1.0
 40
1.0
 40
1.0
 10
13.84050799613607
 20
-3.015403158981711
 30
0.0
 10
13.85855588946995
 20
-3.003974258563856
 30
0.0
 10
13.89490065199815
 20
-2.980958792771767
 30
0.0
 10
13.9617024500249
 20
-2.968852189753917
 30
0.0
 10
14.0284292542969
 20
-2.976078655069752
 30
0.0
 10
14.06468551251717
 20
-2.995609671687203
 30
0.0
 10
14.08267961409393
 20
-3.00530298021277
 30
0.0
  0
SPLINE
  5
BD
330
1F
100
AcDbEntity
  8
외형선
  6
Continuous
 62
     1
370
    15
100
AcDbSpline
210
0.0
220
0.0
230
1.0
 70
     8
 71
     3
 72
     9
 73
     5
 74
     0
 42
0.000000001
 43
0.00000001
 40
0.0
 40
0.0
 40
0.0
 40
0.0
 40
0.5174812125300065
 40
1.0
 40
1.0
 40
1.0
 40
1.0
 10
22.71256162813088
 20
-2.996554167123337
 30
0.0
 10
22.790419049843
 20
-3.041685944976268
 30
0.0
 10
22.94087363607129
 20
-3.128900276163827
 30
0.0
 10
23.10955173866597
 20
-3.153917838344107
 30
0.0
 10
23.19094209220269
 20
-3.165989282112791
 30
0.0
  0
LINE
  5
BE
330
1F
100
AcDbEntity
  8
외형선
  6
Continuous
 62
     1
370
    15
100
AcDbLine
 10
24.79963065701557
 20
2.975000000000003
 30
0.0
 11
24.59963065701557
 21
3.175000000000001
 31
0.0
  0
SPLINE
  5
BF
330
1F
100
AcDbEntity
  8
외형선
  6
Continuous
 62
     1
370
    15
100
AcDbSpline
210
0.0
220
0.0
230
1.0
 70
     8
 71
     3
 72
     9
 73
     5
 74
     0
 42
0.000000001
 43
0.00000001
 40
0.0
 40
0.0
 40
0.0
 40
0.0
 40
0.9450832789245451
 40
1.0
 40
1.0
 40
1.0
 40
1.0
 10
24.60050177385442
 20
3.162320858426663
 30
0.0
 10
24.51277005417811
 20
3.172131560176021
 30
0.0
 10
24.41994043626747
 20
3.182512340333853
 30
0.0
 10
24.33399154349827
 20
3.150899172693375
 30
0.0
 10
24.32927151212732
 20
3.149163081183752
 30
0.0
  0
SPLINE
  5
C0
330
1F
100
AcDbEntity
  8
외형선
  6
Continuous
 62
     1
370
    15
100
AcDbSpline
210
0.0
220
0.0
230
1.0
 70
     8
 71
     3
 72
     9
 73
     5
 74
     0
 42
0.000000001
 43
0.00000001
 40
0.0
 40
0.0
 40
0.0
 40
0.0
 40
0.8478634666793549
 40
0.9999999999999999
 40
0.9999999999999999
 40
0.9999999999999999
 40
0.9999999999999999
 10
15.81868314213302
 20
3.171148186221293
 30
0.0
 10
15.74558648419421
 20
3.165451841638779
 30
0.0
 10
15.65937371431855
 20
3.158733372443706
 30
0.0
 10
15.57826602399942
 20
3.122458178721089
 30
0.0
 10
15.56592658116862
 20
3.116939396502595
 30
0.0
  0
LINE
  5
C1
330
1F
100
AcDbEntity
  8
외형선
  6
Continuous
 62
     1
370
    15
100
AcDbLine
 10
14.07169695870181
 20
-2.996757253334311
 30
0.0
 11
14.24573710888765
 21
-3.085856448128145
 31
0.0
  0
LINE
  5
C2
330
1F
100
AcDbEntity
  8
외형선
  6
Continuous
370
    15
100
AcDbLine
 10
-36.61286934298445
 20
4.762499999999996
 30
0.0
 11
-36.61286934298445
 21
-4.762500000000007
 31
0.0
  0
LINE
  5
C3
330
1F
100
AcDbEntity
  8
외형선
  6
Continuous
370
    15
100
AcDbLine
 10
-37.11286934298445
 20
4.262499999999994
 30
0.0
 11
-37.11286934298445
 21
-4.262500000000008
 31
0.0
  0
LINE
  5
C4
330
1F
100
AcDbEntity
  8
외형선
  6
Continuous
370
    15
100
AcDbLine
 10
2.999999999999966
 20
4.762499999999999
 30
0.0
 11
2.999999999999968
 21
-4.762500000000002
 31
0.0
  0
SPLINE
  5
CF
330
1F
100
AcDbEntity
  8
외형선
  6
Continuous
 62
     1
370
    15
100
AcDbSpline
210
0.0
220
0.0
230
1.0
 70
     8
 71
     3
 72
    10
 73
     6
 74
     0
 42
0.000000001
 43
0.00000001
 40
0.0
 40
0.0
 40
0.0
 40
0.0
 40
0.5
 40
0.5
 40
1.0
 40
1.0
 40
1.0
 40
1.0
 10
23.26815955571369
 20
-0.8512043878999044
 30
0.0
 10
23.42528777548976
 20
-0.9796782493391668
 30
0.0
 10
23.59558234470072
 20
-1.122166202682077
 30
0.0
 10
23.93917534319663
 20
-1.360458312922601
 30
0.0
 10
24.11050877441702
 20
-1.454002118050348
 30
0.0
 10
24.25943246015049
 20
-1.502401654974169
 30
0.0
  0
SPLINE
  5
D0
330
1F
100
AcDbEntity
  8
외형선
  6
Continuous
 62
     1
370
    15
100
AcDbSpline
210
0.0
220
0.0
230
1.0
 70
     8
 71
     3
 72
    10
 73
     6
 74
     0
 42
0.000000001
 43
0.00000001
 40
0.0
 40
0.0
 40
0.0
 40
0.0
 40
0.5
 40
0.5
 40
1.0
 40
1.0
 40
1.0
 40
1.0
 10
24.54083307507122
 20
0.5630919079106914
 30
0.0
 10
24.38390052379778
 20
0.6833543734853778
 30
0.0
 10
24.21312939176715
 20
0.823564141018822
 30
0.0
 10
23.86960881514267
 20
1.069683893942416
 30
0.0
 10
23.69887267211474
 20
1.173742929240164
 30
0.0
 10
23.55066447217108
 20
1.237064705519334
 30
0.0
  0
SPLINE
  5
D1
330
1F
100
AcDbEntity
  8
외형선
  6
Continuous
 62
     1
370
    15
100
AcDbSpline
210
0.0
220
0.0
230
1.0
 70
     8
 71
     3
 72
    10
 73
     6
 74
     0
 42
0.000000001
 43
0.00000001
 40
0.0
 40
0.0
 40
0.0
 40
0.0
 40
0.5
 40
0.5
 40
1.0
 40
1.0
 40
1.0
 40
1.0
 10
16.9273489014661
 20
-0.3004329908733285
 30
0.0
 10
16.77022186053346
 20
-0.2105969331058499
 30
0.0
 10
16.59934870618016
 20
-0.0810190171181779
 30
0.0
 10
16.25633571451957
 20
0.1787818366788436
 30
0.0
 10
16.08549569630364
 20
0.3060825642769885
 30
0.0
 10
15.93663718032082
 20
0.4073343101405175
 30
0.0
  0
SPLINE
  5
D2
330
1F
100
AcDbEntity
  8
외형선
  6
Continuous
 62
     1
370
    15
100
AcDbSpline
210
0.0
220
0.0
230
1.0
 70
     8
 71
     3
 72
    10
 73
     6
 74
     0
 42
0.000000001
 43
0.00000001
 40
0.0
 40
0.0
 40
0.0
 40
0.0
 40
0.5000000000000001
 40
0.5000000000000001
 40
1.0
 40
1.0
 40
1.0
 40
1.0
 10
15.65501766509959
 20
-1.637189285669827
 30
0.0
 10
15.81202539988018
 20
-1.781852869450011
 30
0.0
 10
15.98279327133154
 20
-1.918670279560043
 30
0.0
 10
16.32590522774352
 20
-2.117674691553331
 30
0.0
 10
16.49626034718871
 20
-2.177869695758922
 30
0.0
 10
16.6446916765741
 20
-2.181770938424381
 30
0.0
  0
SPLINE
  5
D3
330
1F
100
AcDbEntity
  8
외형선
  6
Continuous
 62
     1
370
    15
100
AcDbSpline
210
0.0
220
0.0
230
1.0
 70
     8
 71
     3
 72
    10
 73
     6
 74
     0
 42
0.000000001
 43
0.00000001
 40
0.0
 40
0.0
 40
0.0
 40
0.0
 40
0.5
 40
0.5
 40
1.0
 40
1.0
 40
1.0
 40
1.0
 10
14.64260531637826
 20
1.291358439582137
 30
0.0
 10
14.48566317928935
 20
1.429893971611031
 30
0.0
 10
14.3149044994466
 20
1.570234694693736
 30
0.0
 10
13.97187246726597
 20
1.789277874158537
 30
0.0
 10
13.80154151328207
 20
1.865756110005055
 30
0.0
 10
13.65298990237272
 20
1.890330422097761
 30
0.0
  0
SPLINE
  5
D4
330
1F
100
AcDbEntity
  8
외형선
  6
Continuous
 62
     1
370
    15
100
AcDbSpline
210
0.0
220
0.0
230
1.0
 70
     8
 71
     3
 72
    10
 73
     6
 74
     0
 42
0.000000001
 43
0.00000001
 40
0.0
 40
0.0
 40
0.0
 40
0.0
 40
0.5
 40
0.5
 40
1.0
 40
1.0
 40
1.0
 40
1.0
 10
13.37080439895434
 20
-0.0955922342170405
 30
0.0
 10
13.52772185238505
 20
-0.200193645985512
 30
0.0
 10
13.69835997214095
 20
-0.3358702388321787
 30
0.0
 10
14.04100024286821
 20
-0.5921009888170303
 30
0.0
 10
14.21148282770208
 20
-0.7100835316506691
 30
0.0
 10
14.35994821923961
 20
-0.7944804312707203
 30
0.0
  0
SPLINE
  5
DD
330
1F
100
AcDbEntity
  8
외형선
  6
Continuous
 62
     1
370
    15
100
AcDbSpline
210
0.0
220
0.0
230
1.0
 70
     8
 71
     3
 72
     8
 73
     4
 74
     0
 42
0.000000001
 43
0.00000001
 40
0.0
 40
0.0
 40
0.0
 40
0.0
 40
1.0
 40
1.0
 40
1.0
 40
1.0
 10
15.00813509366874
 20
-1.285414036511395
 30
0.0
 10
15.14697354826589
 20
-1.374401854145912
 30
0.0
 10
15.28224241367919
 20
-1.443747149191828
 30
0.0
 10
15.40186677292445
 20
-1.483013170489445
 30
0.0
  0
SPLINE
  5
DE
330
1F
100
AcDbEntity
  8
외형선
  6
Continuous
 62
     1
370
    15
100
AcDbSpline
210
0.0
220
0.0
230
1.0
 70
     8
 71
     3
 72
    12
 73
     8
 74
     0
 42
0.000000001
 43
0.00000001
 40
0.0
 40
0.0
 40
0.0
 40
0.0
 40
0.2500000000000001
 40
0.2500000000000001
 40
0.5000000000000001
 40
0.5000000000000001
 40
1.0
 40
1.0
 40
1.0
 40
1.0
 10
15.2876154387742
 20
0.8955833648539748
 30
0.0
 10
15.26422397261705
 20
0.7169282752953333
 30
0.0
 10
15.24181654975512
 20
0.5362129598002192
 30
0.0
 10
15.19690619446897
 20
0.171055916956591
 30
0.0
 10
15.17358853373384
 20
-0.0156267358775884
 30
0.0
 10
15.10256849720377
 20
-0.5753660750696041
 30
0.0
 10
15.05384721968306
 20
-0.9474669805155638
 30
0.0
 10
15.00813509366884
 20
-1.285414036510622
 30
0.0
  0
SPLINE
  5
DF
330
1F
100
AcDbEntity
  8
외형선
  6
Continuous
 62
     1
370
    15
100
AcDbSpline
210
0.0
220
0.0
230
1.0
 70
     8
 71
     3
 72
     8
 73
     4
 74
     0
 42
0.000000001
 43
0.00000001
 40
0.0
 40
0.0
 40
0.0
 40
0.0
 40
1.0
 40
1.0
 40
1.0
 40
1.0
 10
15.68324294770956
 20
0.5857462545436365
 30
0.0
 10
15.55918465239293
 20
0.6813671434922162
 30
0.0
 10
15.42440382379968
 20
0.791833254804371
 30
0.0
 10
15.28761543877448
 20
0.8955833648537745
 30
0.0
  0
SPLINE
  5
E0
330
1F
100
AcDbEntity
  8
외형선
  6
Continuous
 62
     1
370
    15
100
AcDbSpline
210
0.0
220
0.0
230
1.0
 70
     8
 71
     3
 72
     8
 73
     4
 74
     0
 42
0.000000001
 43
0.00000001
 40
0.0
 40
0.0
 40
0.0
 40
0.0
 40
1.0
 40
1.0
 40
1.0
 40
1.0
 10
14.61259168058073
 20
-0.9671778234945985
 30
0.0
 10
14.73655689251011
 20
-1.071254170732046
 30
0.0
 10
14.87133458297762
 20
-1.184210053629692
 30
0.0
 10
15.00813509366874
 20
-1.28541403651139
 30
0.0
  0
SPLINE
  5
E1
330
1F
100
AcDbEntity
  8
외형선
  6
Continuous
 62
     1
370
    15
100
AcDbSpline
210
0.0
220
0.0
230
1.0
 70
     8
 71
     3
 72
     8
 73
     4
 74
     0
 42
0.000000001
 43
0.00000001
 40
0.0
 40
0.0
 40
0.0
 40
0.0
 40
1.0
 40
1.0
 40
1.0
 40
1.0
 10
15.28761543877425
 20
0.8955833648537752
 30
0.0
 10
15.14921717851251
 20
0.991376199354913
 30
0.0
 10
15.01426437768048
 20
1.072119539819606
 30
0.0
 10
14.89504961138628
 20
1.12664598188529
 30
0.0
  0
SPLINE
  5
E2
330
1F
100
AcDbEntity
  8
외형선
  6
Continuous
 62
     1
370
    15
100
AcDbSpline
210
0.0
220
0.0
230
1.0
 70
     8
 71
     3
 72
    10
 73
     6
 74
     0
 42
0.000000001
 43
0.00000001
 40
0.0
 40
0.0
 40
0.0
 40
0.0
 40
0.5
 40
0.5
 40
1.0
 40
1.0
 40
1.0
 40
1.0
 10
20.98374610540138
 20
0.7635782604331781
 30
0.0
 10
21.14089339854884
 20
0.6929297599374872
 30
0.0
 10
21.31120417106292
 20
0.5727347598297153
 30
0.0
 10
21.65519469101851
 20
0.3160875217958227
 30
0.0
 10
21.82668722740948
 20
0.1808228524898116
 30
0.0
 10
21.97556645990539
 20
0.0620160307760137
 30
0.0
  0
SPLINE
  5
E3
330
1F
100
AcDbEntity
  8
외형선
  6
Continuous
 62
     1
370
    15
100
AcDbSpline
210
0.0
220
0.0
230
1.0
 70
     8
 71
     3
 72
    10
 73
     6
 74
     0
 42
0.000000001
 43
0.00000001
 40
0.0
 40
0.0
 40
0.0
 40
0.0
 40
0.5
 40
0.5
 40
1.0
 40
1.0
 40
1.0
 40
1.0
 10
22.25736937269248
 20
2.010346699827497
 30
0.0
 10
22.10037538788204
 20
2.159467243598578
 30
0.0
 10
21.92948425479052
 20
2.289206916182647
 30
0.0
 10
21.58554338111129
 20
2.459958018770354
 30
0.0
 10
21.41432091843417
 20
2.498788252421733
 30
0.0
 10
21.26589489767435
 20
2.478511249500174
 30
0.0
  0
SPLINE
  5
E7
330
1F
100
AcDbEntity
  8
외형선
  6
Continuous
370
    15
100
AcDbSpline
210
0.0
220
0.0
230
1.0
 70
    24
 71
     3
 72
     9
 73
     5
 74
     0
 42
0.000000001
 43
0.00000001
 40
0.0
 40
0.0
 40
0.0
 40
0.0
 40
0.5
 40
1.0
 40
1.0
 40
1.0
 40
1.0
 10
8.92463065701557
 20
2.640549678932088
 30
0.0
 10
8.92463065701557
 20
2.629302703815934
 30
0.0
 10
8.92463065701557
 20
2.606880440376314
 30
0.0
 10
8.92463065701557
 20
2.584609444794577
 30
0.0
 10
8.92463065701557
 20
2.573513582527248
 30
0.0
  0
SPLINE
  5
E8
330
1F
100
AcDbEntity
  8
외형선
  6
Continuous
 62
     1
370
    15
100
AcDbSpline
210
0.0
220
0.0
230
1.0
 70
     8
 71
     3
 72
    10
 73
     6
 74
     0
 42
0.000000001
 43
0.00000001
 40
0.0
 40
0.0
 40
0.0
 40
0.0
 40
0.4999999999999998
 40
0.4999999999999998
 40
1.0
 40
1.0
 40
1.0
 40
1.0
 10
8.924630657015568
 20
2.640549678932089
 30
0.0
 10
9.066013403637948
 20
2.648122059561229
 30
0.0
 10
9.217111226129152
 20
2.605371660374551
 30
0.0
 10
9.515888455409176
 20
2.448966957611937
 30
0.0
 10
9.661891088292617
 20
2.336766534313079
 30
0.0
 10
9.791486261312606
 20
2.200236956844294
 30
0.0
  0
SPLINE
  5
E9
330
1F
100
AcDbEntity
  8
외형선
  6
Continuous
 62
     1
370
    15
100
AcDbSpline
210
0.0
220
0.0
230
1.0
 70
     8
 71
     3
 72
     8
 73
     4
 74
     0
 42
0.000000001
 43
0.00000001
 40
0.0
 40
0.0
 40
0.0
 40
0.0
 40
1.0
 40
1.0
 40
1.0
 40
1.0
 10
9.791486261312597
 20
2.2002369568443
 30
0.0
 10
9.866678365471438
 20
2.121021458530858
 30
0.0
 10
9.966029815007403
 20
2.072016413175278
 30
0.0
 10
10.04489395684604
 20
2.073746923075943
 30
0.0
  0
SPLINE
  5
EA
330
1F
100
AcDbEntity
  8
외형선
  6
Continuous
 62
     1
370
    15
100
AcDbSpline
210
0.0
220
0.0
230
1.0
 70
     8
 71
     3
 72
     8
 73
     4
 74
     0
 42
0.000000001
 43
0.00000001
 40
0.0
 40
0.0
 40
0.0
 40
0.0
 40
1.0
 40
1.0
 40
1.0
 40
1.0
 10
10.04489395684604
 20
2.073746923075933
 30
0.0
 10
10.16912696001146
 20
2.076472958469899
 30
0.0
 10
10.30377997718142
 20
2.033846258063105
 30
0.0
 10
10.44075291915297
 20
1.963976908319094
 30
0.0
  0
SPLINE
  5
EB
330
1F
100
AcDbEntity
  8
외형선
  6
Continuous
 62
     1
370
    15
100
AcDbSpline
210
0.0
220
0.0
230
1.0
 70
     8
 71
     3
 72
     8
 73
     4
 74
     0
 42
0.000000001
 43
0.00000001
 40
0.0
 40
0.0
 40
0.0
 40
0.0
 40
1.0
 40
1.0
 40
1.0
 40
1.0
 10
10.44075291915298
 20
1.963976908319093
 30
0.0
 10
10.57905766046858
 20
1.870042565439266
 30
0.0
 10
10.71439679664575
 20
1.754723396292541
 30
0.0
 10
10.8336689939845
 20
1.629010096598092
 30
0.0
  0
SPLINE
  5
EC
330
1F
100
AcDbEntity
  8
외형선
  6
Continuous
 62
     1
370
    15
100
AcDbSpline
210
0.0
220
0.0
230
1.0
 70
     8
 71
     3
 72
     8
 73
     4
 74
     0
 42
0.000000001
 43
0.00000001
 40
0.0
 40
0.0
 40
0.0
 40
0.0
 40
1.0
 40
1.0
 40
1.0
 40
1.0
 10
10.83366899398452
 20
1.629010096598078
 30
0.0
 10
10.90812638282352
 20
1.550531756746596
 30
0.0
 10
11.0071464905757
 20
1.491087860916313
 30
0.0
 10
11.08620166192227
 20
1.473669263890776
 30
0.0
  0
SPLINE
  5
ED
330
1F
100
AcDbEntity
  8
외형선
  6
Continuous
 62
     1
370
    15
100
AcDbSpline
210
0.0
220
0.0
230
1.0
 70
     8
 71
     3
 72
    10
 73
     6
 74
     0
 42
0.000000001
 43
0.00000001
 40
0.0
 40
0.0
 40
0.0
 40
0.0
 40
0.5
 40
0.5
 40
1.0
 40
1.0
 40
1.0
 40
1.0
 10
11.08620166192227
 20
1.473669263890784
 30
0.0
 10
11.24310242235289
 20
1.439098582777972
 30
0.0
 10
11.41356905792045
 20
1.343196002257975
 30
0.0
 10
11.75599673851135
 20
1.103127531677094
 30
0.0
 10
11.92690513497768
 20
0.9614382300744094
 30
0.0
 10
12.07547135758953
 20
0.8207244272381209
 30
0.0
  0
SPLINE
  5
EE
330
1F
100
AcDbEntity
  8
외형선
  6
Continuous
 62
     1
370
    15
100
AcDbSpline
210
0.0
220
0.0
230
1.0
 70
     8
 71
     3
 72
     8
 73
     4
 74
     0
 42
0.000000001
 43
0.00000001
 40
0.0
 40
0.0
 40
0.0
 40
0.0
 40
1.0
 40
1.0
 40
1.0
 40
1.0
 10
12.07547135758953
 20
0.8207244272381228
 30
0.0
 10
12.1504884023638
 20
0.7496723841683792
 30
0.0
 10
12.24970239752642
 20
0.6836714787449953
 30
0.0
 10
12.3284305613965
 20
0.6461618004588309
 30
0.0
  0
SPLINE
  5
EF
330
1F
100
AcDbEntity
  8
외형선
  6
Continuous
 62
     1
370
    15
100
AcDbSpline
210
0.0
220
0.0
230
1.0
 70
     8
 71
     3
 72
     8
 73
     4
 74
     0
 42
0.000000001
 43
0.00000001
 40
0.0
 40
0.0
 40
0.0
 40
0.0
 40
1.0
 40
1.0
 40
1.0
 40
1.0
 10
12.32843056139651
 20
0.6461618004588231
 30
0.0
 10
12.45266492524483
 20
0.5869708986142556
 30
0.0
 10
12.58766047150332
 20
0.4961398983082481
 30
0.0
 10
12.72456747895556
 20
0.3960161682306081
 30
0.0
  0
SPLINE
  5
F0
330
1F
100
AcDbEntity
  8
외형선
  6
Continuous
 62
     1
370
    15
100
AcDbSpline
210
0.0
220
0.0
230
1.0
 70
     8
 71
     3
 72
     8
 73
     4
 74
     0
 42
0.000000001
 43
0.00000001
 40
0.0
 40
0.0
 40
0.0
 40
0.0
 40
1.0
 40
1.0
 40
1.0
 40
1.0
 10
12.72456747895557
 20
0.3960161682306164
 30
0.0
 10
12.86309901017588
 20
0.2890421261302725
 30
0.0
 10
12.99851734105871
 20
0.1812591817677263
 30
0.0
 10
13.11803512911384
 20
0.0849523848074955
 30
0.0
  0
SPLINE
  5
F1
330
1F
100
AcDbEntity
  8
외형선
  6
Continuous
 62
     1
370
    15
100
AcDbSpline
210
0.0
220
0.0
230
1.0
 70
     8
 71
     3
 72
     8
 73
     4
 74
     0
 42
0.000000001
 43
0.00000001
 40
0.0
 40
0.0
 40
0.0
 40
0.0
 40
1.0
 40
1.0
 40
1.0
 40
1.0
 10
13.11803512911387
 20
0.0849523848074733
 30
0.0
 10
13.19256302556351
 20
0.0248982028480628
 30
0.0
 10
13.29165023591228
 20
-0.0428279494256879
 30
0.0
 10
13.37080439895435
 20
-0.0955922342170405
 30
0.0
  0
SPLINE
  5
F2
330
1F
100
AcDbEntity
  8
외형선
  6
Continuous
 62
     1
370
    15
100
AcDbSpline
210
0.0
220
0.0
230
1.0
 70
     8
 71
     3
 72
     8
 73
     4
 74
     0
 42
0.000000001
 43
0.00000001
 40
0.0
 40
0.0
 40
0.0
 40
0.0
 40
1.0
 40
1.0
 40
1.0
 40
1.0
 10
14.35994821923989
 20
-0.7944804312721397
 30
0.0
 10
14.4348404727776
 20
-0.8370538144605076
 30
0.0
 10
14.53395723014187
 20
-0.9011594120279867
 30
0.0
 10
14.61259168058073
 20
-0.9671778234946025
 30
0.0
  0
SPLINE
  5
F3
330
1F
100
AcDbEntity
  8
외형선
  6
Continuous
 62
     1
370
    15
100
AcDbSpline
210
0.0
220
0.0
230
1.0
 70
     8
 71
     3
 72
     8
 73
     4
 74
     0
 42
0.000000001
 43
0.00000001
 40
0.0
 40
0.0
 40
0.0
 40
0.0
 40
1.0
 40
1.0
 40
1.0
 40
1.0
 10
15.40186677292446
 20
-1.483013170489456
 30
0.0
 10
15.47651823796483
 20
-1.507517092890104
 30
0.0
 10
15.57571041197451
 20
-1.564117271269585
 30
0.0
 10
15.65501766509959
 20
-1.637189285669824
 30
0.0
  0
SPLINE
  5
F4
330
1F
100
AcDbEntity
  8
외형선
  6
Continuous
 62
     1
370
    15
100
AcDbSpline
210
0.0
220
0.0
230
1.0
 70
     8
 71
     3
 72
     8
 73
     4
 74
     0
 42
0.000000001
 43
0.00000001
 40
0.0
 40
0.0
 40
0.0
 40
0.0
 40
1.0
 40
1.0
 40
1.0
 40
1.0
 10
16.6446916765741
 20
-2.18177093842438
 30
0.0
 10
16.71951197032874
 20
-2.183737451312506
 30
0.0
 10
16.8185692136504
 20
-2.227587521340931
 30
0.0
 10
16.89716357672185
 20
-2.303277201673546
 30
0.0
  0
SPLINE
  5
F5
330
1F
100
AcDbEntity
  8
외형선
  6
Continuous
 62
     1
370
    15
100
AcDbSpline
210
0.0
220
0.0
230
1.0
 70
     8
 71
     3
 72
     8
 73
     4
 74
     0
 42
0.000000001
 43
0.00000001
 40
0.0
 40
0.0
 40
0.0
 40
0.0
 40
1.0
 40
1.0
 40
1.0
 40
1.0
 10
16.89716357672185
 20
-2.30327720167355
 30
0.0
 10
17.02093832519987
 20
-2.422477495173398
 30
0.0
 10
17.1555618048662
 20
-2.525435387033931
 30
0.0
 10
17.29230796009168
 20
-2.598979588713954
 30
0.0
  0
SPLINE
  5
F6
330
1F
100
AcDbEntity
  8
외형선
  6
Continuous
 62
     1
370
    15
100
AcDbSpline
210
0.0
220
0.0
230
1.0
 70
     8
 71
     3
 72
     8
 73
     4
 74
     0
 42
0.000000001
 43
0.00000001
 40
0.0
 40
0.0
 40
0.0
 40
0.0
 40
1.0
 40
1.0
 40
1.0
 40
1.0
 10
17.29230796009168
 20
-2.598979588713949
 30
0.0
 10
17.43104055077375
 20
-2.644375721494039
 30
0.0
 10
17.5660789464334
 20
-2.654696693496781
 30
0.0
 10
17.6853674673795
 20
-2.625558329426953
 30
0.0
  0
SPLINE
  5
F7
330
1F
100
AcDbEntity
  8
외형선
  6
Continuous
 62
     1
370
    15
100
AcDbSpline
210
0.0
220
0.0
230
1.0
 70
     8
 71
     3
 72
     8
 73
     4
 74
     0
 42
0.000000001
 43
0.00000001
 40
0.0
 40
0.0
 40
0.0
 40
0.0
 40
1.0
 40
1.0
 40
1.0
 40
1.0
 10
17.68536746737952
 20
-2.625558329426949
 30
0.0
 10
17.76001221717587
 20
-2.607325008414854
 30
0.0
 10
17.85922491955455
 20
-2.636566243060415
 30
0.0
 10
17.93861633591309
 20
-2.708885638582228
 30
0.0
  0
SPLINE
  5
F8
330
1F
100
AcDbEntity
  8
외형선
  6
Continuous
 62
     1
370
    15
100
AcDbSpline
210
0.0
220
0.0
230
1.0
 70
     8
 71
     3
 72
    10
 73
     6
 74
     0
 42
0.000000001
 43
0.00000001
 40
0.0
 40
0.0
 40
0.0
 40
0.0
 40
0.5
 40
0.5
 40
1.0
 40
1.0
 40
1.0
 40
1.0
 10
17.93861633591256
 20
-2.708885638581741
 30
0.0
 10
18.09578707965171
 20
-2.85205594215204
 30
0.0
 10
18.26673248032312
 20
-2.950878133110828
 30
0.0
 10
18.61039438395821
 20
-3.036026467672157
 30
0.0
 10
18.78101377097301
 20
-3.020779106705034
 30
0.0
 10
18.92947606258683
 20
-2.942965075063655
 30
0.0
  0
SPLINE
  5
F9
330
1F
100
AcDbEntity
  8
외형선
  6
Continuous
 62
     1
370
    15
100
AcDbSpline
210
0.0
220
0.0
230
1.0
 70
     8
 71
     3
 72
     8
 73
     4
 74
     0
 42
0.000000001
 43
0.00000001
 40
0.0
 40
0.0
 40
0.0
 40
0.0
 40
1.0
 40
1.0
 40
1.0
 40
1.0
 10
18.92947606258683
 20
-2.942965075063654
 30
0.0
 10
19.00427709835389
 20
-2.903759360934397
 30
0.0
 10
19.10331257974192
 20
-2.914730008776452
 30
0.0
 10
19.18192083711718
 20
-2.978419025363417
 30
0.0
  0
SPLINE
  5
FA
330
1F
100
AcDbEntity
  8
외형선
  6
Continuous
 62
     1
370
    15
100
AcDbSpline
210
0.0
220
0.0
230
1.0
 70
     8
 71
     3
 72
     8
 73
     4
 74
     0
 42
0.000000001
 43
0.00000001
 40
0.0
 40
0.0
 40
0.0
 40
0.0
 40
1.0
 40
1.0
 40
1.0
 40
1.0
 10
19.18192083711718
 20
-2.978419025363417
 30
0.0
 10
19.30558995420495
 20
-3.078616698133319
 30
0.0
 10
19.44013008689453
 20
-3.142255452810073
 30
0.0
 10
19.57688393669039
 20
-3.167312544179372
 30
0.0
  0
SPLINE
  5
FB
330
1F
100
AcDbEntity
  8
외형선
  6
Continuous
 62
     1
370
    15
100
AcDbSpline
210
0.0
220
0.0
230
1.0
 70
     8
 71
     3
 72
    13
 73
     9
 74
     0
 42
0.000000001
 43
0.00000001
 40
0.0
 40
0.0
 40
0.0
 40
0.0
 40
0.208972469713899
 40
0.4193835589722306
 40
0.605522439810907
 40
0.7927151359740618
 40
0.9832588989307665
 40
1.0
 40
1.0
 40
1.0
 40
1.0
 10
19.57688393669041
 20
-3.167312544179363
 30
0.0
 10
19.60142536103681
 20
-3.1646452662789
 30
0.0
 10
19.65067715912643
 20
-3.159292348259621
 30
0.0
 10
19.72064631364005
 20
-3.142170601547507
 30
0.0
 10
19.7869403905492
 20
-3.119668820610134
 30
0.0
 10
19.849227938873
 20
-3.091184695415686
 30
0.0
 10
19.89217961792285
 20
-3.068722963610097
 30
0.0
 10
19.9135625626131
 20
-3.054006685763416
 30
0.0
 10
19.91528952921966
 20
-3.052818144111078
 30
0.0
  0
SPLINE
  5
FC
330
1F
100
AcDbEntity
  8
외형선
  6
Continuous
 62
     1
370
    15
100
AcDbSpline
210
0.0
220
0.0
230
1.0
 70
     8
 71
     3
 72
    11
 73
     7
 74
     0
 42
0.000000001
 43
0.00000001
 40
0.0
 40
0.0
 40
0.0
 40
0.0
 40
0.1897845435358237
 40
0.4555872047126316
 40
0.7269011489394994
 40
0.9999999999999999
 40
0.9999999999999999
 40
0.9999999999999999
 40
0.9999999999999999
 10
17.06690193268768
 20
-2.450305621202834
 30
0.0
 10
17.05109636303612
 20
-2.46300958193638
 30
0.0
 10
17.01315430957756
 20
-2.493506069435018
 30
0.0
 10
16.95125319589739
 20
-2.537485432044194
 30
0.0
 10
16.88160592072668
 20
-2.58284990711229
 30
0.0
 10
16.83433067804111
 20
-2.608955471956808
 30
0.0
 10
16.8106155586082
 20
-2.622051049112669
 30
0.0
  0
SPLINE
  5
FD
330
1F
100
AcDbEntity
  8
외형선
  6
Continuous
 62
     1
370
    15
100
AcDbSpline
210
0.0
220
0.0
230
1.0
 70
     8
 71
     3
 72
     8
 73
     4
 74
     0
 42
0.000000001
 43
0.00000001
 40
0.0
 40
0.0
 40
0.0
 40
0.0
 40
1.0
 40
1.0
 40
1.0
 40
1.0
 10
16.81061555860821
 20
-2.622051049112688
 30
0.0
 10
16.67208325791506
 20
-2.666025866508218
 30
0.0
 10
16.53700738919411
 20
-2.674474204137906
 30
0.0
 10
16.41814005390765
 20
-2.643749668330369
 30
0.0
  0
SPLINE
  5
FE
330
1F
100
AcDbEntity
  8
외형선
  6
Continuous
 62
     1
370
    15
100
AcDbSpline
210
0.0
220
0.0
230
1.0
 70
     8
 71
     3
 72
     8
 73
     4
 74
     0
 42
0.000000001
 43
0.00000001
 40
0.0
 40
0.0
 40
0.0
 40
0.0
 40
1.0
 40
1.0
 40
1.0
 40
1.0
 10
16.41814005390765
 20
-2.643749668330371
 30
0.0
 10
16.34377311845207
 20
-2.624527486174141
 30
0.0
 10
16.24493107659134
 20
-2.653031098844896
 30
0.0
 10
16.16584911312072
 20
-2.725050420028996
 30
0.0
  0
SPLINE
  5
FF
330
1F
100
AcDbEntity
  8
외형선
  6
Continuous
 62
     1
370
    15
100
AcDbSpline
210
0.0
220
0.0
230
1.0
 70
     8
 71
     3
 72
    10
 73
     6
 74
     0
 42
0.000000001
 43
0.00000001
 40
0.0
 40
0.0
 40
0.0
 40
0.0
 40
0.4999999999999992
 40
0.4999999999999992
 40
1.0
 40
1.0
 40
1.0
 40
1.0
 10
16.16584911312071
 20
-2.725050420029001
 30
0.0
 10
16.0090386312494
 20
-2.867856490633461
 30
0.0
 10
15.83825727169956
 20
-2.965366902103291
 30
0.0
 10
15.49458938309078
 20
-3.047117628494821
 30
0.0
 10
15.3237469084901
 20
-3.029643804378311
 30
0.0
 10
15.17545222833447
 20
-2.950679998864959
 30
0.0
  0
SPLINE
  5
100
330
1F
100
AcDbEntity
  8
외형선
  6
Continuous
 62
     1
370
    15
100
AcDbSpline
210
0.0
220
0.0
230
1.0
 70
     8
 71
     3
 72
     8
 73
     4
 74
     0
 42
0.000000001
 43
0.00000001
 40
0.0
 40
0.0
 40
0.0
 40
0.0
 40
1.0
 40
1.0
 40
1.0
 40
1.0
 10
15.17545222833447
 20
-2.950679998864958
 30
0.0
 10
15.10036388330964
 20
-2.91069703071912
 30
0.0
 10
15.00107660074581
 20
-2.920879327157913
 30
0.0
 10
14.92212626235528
 20
-2.984178312715205
 30
0.0
  0
SPLINE
  5
101
330
1F
100
AcDbEntity
  8
외형선
  6
Continuous
 62
     1
370
    15
100
AcDbSpline
210
0.0
220
0.0
230
1.0
 70
     8
 71
     3
 72
     8
 73
     4
 74
     0
 42
0.000000001
 43
0.00000001
 40
0.0
 40
0.0
 40
0.0
 40
0.0
 40
1.0
 40
1.0
 40
1.0
 40
1.0
 10
14.92212626235525
 20
-2.984178312715223
 30
0.0
 10
14.79815215828318
 20
-3.083575417060967
 30
0.0
 10
14.66334309568728
 20
-3.146074600209828
 30
0.0
 10
14.52622579214346
 20
-3.169873240389419
 30
0.0
  0
SPLINE
  5
102
330
1F
100
AcDbEntity
  8
외형선
  6
Continuous
 62
     1
370
    15
100
AcDbSpline
210
0.0
220
0.0
230
1.0
 70
     8
 71
     3
 72
     8
 73
     4
 74
     0
 42
0.000000001
 43
0.00000001
 40
0.0
 40
0.0
 40
0.0
 40
0.0
 40
1.0
 40
1.0
 40
1.0
 40
1.0
 10
14.52622579214349
 20
-3.169873240389419
 30
0.0
 10
14.38762281243249
 20
-3.157626136950065
 30
0.0
 10
14.25238643330457
 20
-3.104917624087643
 30
0.0
 10
14.13335729593509
 20
-3.014486632974487
 30
0.0
  0
SPLINE
  5
103
330
1F
100
AcDbEntity
  8
외형선
  6
Continuous
 62
     1
370
    15
100
AcDbSpline
210
0.0
220
0.0
230
1.0
 70
     8
 71
     3
 72
     8
 73
     4
 74
     0
 42
0.000000001
 43
0.00000001
 40
0.0
 40
0.0
 40
0.0
 40
0.0
 40
1.0
 40
1.0
 40
1.0
 40
1.0
 10
14.13335729593508
 20
-3.014486632974485
 30
0.0
 10
14.05888444642919
 20
-2.95790675899847
 30
0.0
 10
13.96006719130052
 20
-2.950390155227329
 30
0.0
 10
13.88102837994918
 20
-3.000408887068869
 30
0.0
  0
SPLINE
  5
104
330
1F
100
AcDbEntity
  8
외형선
  6
Continuous
 62
     1
370
    15
100
AcDbSpline
210
0.0
220
0.0
230
1.0
 70
     8
 71
     3
 72
    10
 73
     6
 74
     0
 42
0.000000001
 43
0.00000001
 40
0.0
 40
0.0
 40
0.0
 40
0.0
 40
0.5
 40
0.5
 40
1.0
 40
1.0
 40
1.0
 40
1.0
 10
13.88102837994918
 20
-3.000408887068867
 30
0.0
 10
13.72449316281737
 20
-3.099470258509157
 30
0.0
 10
13.55398359963671
 20
-3.130157874973909
 30
0.0
 10
13.21063074522046
 20
-3.074025701762507
 30
0.0
 10
13.03975241556515
 20
-2.9863855705128
 30
0.0
 10
12.89150323531379
 20
-2.848406396654003
 30
0.0
  0
SPLINE
  5
105
330
1F
100
AcDbEntity
  8
외형선
  6
Continuous
 62
     1
370
    15
100
AcDbSpline
210
0.0
220
0.0
230
1.0
 70
     8
 71
     3
 72
     8
 73
     4
 74
     0
 42
0.000000001
 43
0.00000001
 40
0.0
 40
0.0
 40
0.0
 40
0.0
 40
1.0
 40
1.0
 40
1.0
 40
1.0
 10
12.8915032353138
 20
-2.848406396654004
 30
0.0
 10
12.81645630003816
 20
-2.778558360311345
 30
0.0
 10
12.71742288713334
 20
-2.75259872420513
 30
0.0
 10
12.63863788423953
 20
-2.784974624823685
 30
0.0
  0
SPLINE
  5
106
330
1F
100
AcDbEntity
  8
외형선
  6
Continuous
 62
     1
370
    15
100
AcDbSpline
210
0.0
220
0.0
230
1.0
 70
     8
 71
     3
 72
     8
 73
     4
 74
     0
 42
0.000000001
 43
0.00000001
 40
0.0
 40
0.0
 40
0.0
 40
0.0
 40
1.0
 40
1.0
 40
1.0
 40
1.0
 10
12.6386378842395
 20
-2.784974624823708
 30
0.0
 10
12.51461380152419
 20
-2.835941068040183
 30
0.0
 10
12.37966767133696
 20
-2.840303461133237
 30
0.0
 10
12.24237437511309
 20
-2.808382840108271
 30
0.0
  0
SPLINE
  5
107
330
1F
100
AcDbEntity
  8
외형선
  6
Continuous
 62
     1
370
    15
100
AcDbSpline
210
0.0
220
0.0
230
1.0
 70
     8
 71
     3
 72
     8
 73
     4
 74
     0
 42
0.000000001
 43
0.00000001
 40
0.0
 40
0.0
 40
0.0
 40
0.0
 40
1.0
 40
1.0
 40
1.0
 40
1.0
 10
12.24237437511209
 20
-2.808382840108041
 30
0.0
 10
12.10363172812842
 20
-2.743398390489561
 30
0.0
 10
11.96815921214393
 20
-2.644709783224752
 30
0.0
 10
11.84888029099979
 20
-2.520607201937431
 30
0.0
  0
SPLINE
  5
108
330
1F
100
AcDbEntity
  8
외형선
  6
Continuous
 62
     1
370
    15
100
AcDbSpline
210
0.0
220
0.0
230
1.0
 70
     8
 71
     3
 72
     8
 73
     4
 74
     0
 42
0.000000001
 43
0.00000001
 40
0.0
 40
0.0
 40
0.0
 40
0.0
 40
1.0
 40
1.0
 40
1.0
 40
1.0
 10
11.84888029099979
 20
-2.520607201937432
 30
0.0
 10
11.77431300916746
 20
-2.443024406367138
 30
0.0
 10
11.67531087923003
 20
-2.401726358564104
 30
0.0
 10
11.59628219521342
 20
-2.415274395376237
 30
0.0
  0
SPLINE
  5
109
330
1F
100
AcDbEntity
  8
외형선
  6
Continuous
 62
     1
370
    15
100
AcDbSpline
210
0.0
220
0.0
230
1.0
 70
     8
 71
     3
 72
    10
 73
     6
 74
     0
 42
0.000000001
 43
0.00000001
 40
0.0
 40
0.0
 40
0.0
 40
0.0
 40
0.5
 40
0.5
 40
1.0
 40
1.0
 40
1.0
 40
1.0
 10
11.59628219521342
 20
-2.415274395376243
 30
0.0
 10
11.43980705870109
 20
-2.442099224057527
 30
0.0
 10
11.26957877596939
 20
-2.396916169921864
 30
0.0
 10
10.92635579277658
 20
-2.219033580986799
 30
0.0
 10
10.75536691439009
 20
-2.086492959351897
 30
0.0
 10
10.60705688152713
 20
-1.92935947826225
 30
0.0
  0
SPLINE
  5
10A
330
1F
100
AcDbEntity
  8
외형선
  6
Continuous
 62
     1
370
    15
100
AcDbSpline
210
0.0
220
0.0
230
1.0
 70
     8
 71
     3
 72
     8
 73
     4
 74
     0
 42
0.000000001
 43
0.00000001
 40
0.0
 40
0.0
 40
0.0
 40
0.0
 40
1.0
 40
1.0
 40
1.0
 40
1.0
 10
10.60705688152713
 20
-1.92935947826226
 30
0.0
 10
10.53209349179989
 20
-1.849936271654209
 30
0.0
 10
10.43305566339694
 20
-1.795416807213791
 30
0.0
 10
10.3545038666266
 20
-1.787565528808935
 30
0.0
  0
SPLINE
  5
10B
330
1F
100
AcDbEntity
  8
외형선
  6
Continuous
 62
     1
370
    15
100
AcDbSpline
210
0.0
220
0.0
230
1.0
 70
     8
 71
     3
 72
     8
 73
     4
 74
     0
 42
0.000000001
 43
0.00000001
 40
0.0
 40
0.0
 40
0.0
 40
0.0
 40
1.0
 40
1.0
 40
1.0
 40
1.0
 10
10.35450386662657
 20
-1.787565528808946
 30
0.0
 10
10.23075361277938
 20
-1.775196649476149
 30
0.0
 10
10.09606645090332
 20
-1.720236119765721
 30
0.0
 10
9.958942059764295
 20
-1.641777091874625
 30
0.0
  0
SPLINE
  5
10C
330
1F
100
AcDbEntity
  8
외형선
  6
Continuous
 62
     1
370
    15
100
AcDbSpline
210
0.0
220
0.0
230
1.0
 70
     8
 71
     3
 72
     8
 73
     4
 74
     0
 42
0.000000001
 43
0.00000001
 40
0.0
 40
0.0
 40
0.0
 40
0.0
 40
1.0
 40
1.0
 40
1.0
 40
1.0
 10
9.958942059764299
 20
-1.641777091874633
 30
0.0
 10
9.820108035116128
 20
-1.542518603206315
 30
0.0
 10
9.684454712443841
 20
-1.4260611271463
 30
0.0
 10
9.564934169754023
 20
-1.303918538855726
 30
0.0
  0
SPLINE
  5
10D
330
1F
100
AcDbEntity
  8
외형선
  6
Continuous
 62
     1
370
    15
100
AcDbSpline
210
0.0
220
0.0
230
1.0
 70
     8
 71
     3
 72
     8
 73
     4
 74
     0
 42
0.000000001
 43
0.00000001
 40
0.0
 40
0.0
 40
0.0
 40
0.0
 40
1.0
 40
1.0
 40
1.0
 40
1.0
 10
9.564934169754014
 20
-1.30391853885572
 30
0.0
 10
9.490235330302333
 20
-1.22758095380468
 30
0.0
 10
9.391084390445066
 20
-1.164346239049371
 30
0.0
 10
9.311899673425739
 20
-1.137675485229351
 30
0.0
  0
SPLINE
  5
10E
330
1F
100
AcDbEntity
  8
외형선
  6
Continuous
 62
     1
370
    15
100
AcDbSpline
210
0.0
220
0.0
230
1.0
 70
     8
 71
     3
 72
    10
 73
     6
 74
     0
 42
0.000000001
 43
0.00000001
 40
0.0
 40
0.0
 40
0.0
 40
0.0
 40
0.5
 40
0.5
 40
1.0
 40
1.0
 40
1.0
 40
1.0
 10
9.311899673425737
 20
-1.13767548522934
 30
0.0
 10
9.250509048200728
 20
-1.116998082898868
 30
0.0
 10
9.187816122438873
 20
-1.087721051535731
 30
0.0
 10
9.058381074696928
 20
-1.016740554492667
 30
0.0
 10
8.99127808638922
 20
-0.9747430132330098
 30
0.0
 10
8.924630657015657
 20
-0.9296752137989244
 30
0.0
  0
SPLINE
  5
10F
330
1F
100
AcDbEntity
  8
외형선
  6
Continuous
370
    15
100
AcDbSpline
210
0.0
220
0.0
230
1.0
 70
    24
 71
     3
 72
     9
 73
     5
 74
     0
 42
0.000000001
 43
0.00000001
 40
0.0
 40
0.0
 40
0.0
 40
0.0
 40
0.5
 40
1.0
 40
1.0
 40
1.0
 40
1.0
 10
8.92463065701557
 20
-0.8747848327537644
 30
0.0
 10
8.924630657015571
 20
-0.8846728993367335
 30
0.0
 10
8.92463065701557
 20
-0.9037170717556067
 30
0.0
 10
8.92463065701557
 20
-0.9212736684643171
 30
0.0
 10
8.92463065701557
 20
-0.9296752137988619
 30
0.0
  0
SPLINE
  5
117
330
1F
100
AcDbEntity
  8
외형선
  6
Continuous
 62
     1
370
    15
100
AcDbSpline
210
0.0
220
0.0
230
1.0
 70
     8
 71
     3
 72
     8
 73
     4
 74
     0
 42
0.000000001
 43
0.00000001
 40
0.0
 40
0.0
 40
0.0
 40
0.0
 40
1.0
 40
1.0
 40
1.0
 40
1.0
 10
22.62314437636324
 20
-0.411976562117717
 30
0.0
 10
22.76140987478665
 20
-0.5135366498245832
 30
0.0
 10
22.89657335094724
 20
-0.6055180013858205
 30
0.0
 10
23.01564951475248
 20
-0.6770659800270501
 30
0.0
  0
SPLINE
  5
118
330
1F
100
AcDbEntity
  8
외형선
  6
Continuous
 62
     1
370
    15
100
AcDbSpline
210
0.0
220
0.0
230
1.0
 70
     8
 71
     3
 72
    12
 73
     8
 74
     0
 42
0.000000001
 43
0.00000001
 40
0.0
 40
0.0
 40
0.0
 40
0.0
 40
0.4999999999999999
 40
0.4999999999999999
 40
0.7499999999999999
 40
0.7499999999999999
 40
1.0
 40
1.0
 40
1.0
 40
1.0
 10
22.90326215699631
 20
1.721122972615672
 30
0.0
 10
22.85601015527301
 20
1.407237163617345
 30
0.0
 10
22.80727710634453
 20
1.053522285039551
 30
0.0
 10
22.73853763074523
 20
0.5122472680701381
 30
0.0
 10
22.71672332969659
 20
0.3312238699842171
 30
0.0
 10
22.67068704069517
 20
-0.0386986385645799
 30
0.0
 10
22.64698834948149
 20
-0.2262235275392742
 30
0.0
 10
22.62314437636282
 20
-0.411976562117727
 30
0.0
  0
SPLINE
  5
119
330
1F
100
AcDbEntity
  8
외형선
  6
Continuous
 62
     1
370
    15
100
AcDbSpline
210
0.0
220
0.0
230
1.0
 70
     8
 71
     3
 72
     8
 73
     4
 74
     0
 42
0.000000001
 43
0.00000001
 40
0.0
 40
0.0
 40
0.0
 40
0.0
 40
1.0
 40
1.0
 40
1.0
 40
1.0
 10
23.29829520819831
 20
1.400320562534956
 30
0.0
 10
23.17464136741992
 20
1.512188480451097
 30
0.0
 10
23.04008938632112
 20
1.625474007244222
 30
0.0
 10
22.90326215699631
 20
1.721122972615634
 30
0.0
  0
SPLINE
  5
11A
330
1F
100
AcDbEntity
  8
외형선
  6
Continuous
 62
     1
370
    15
100
AcDbSpline
210
0.0
220
0.0
230
1.0
 70
     8
 71
     3
 72
     8
 73
     4
 74
     0
 42
0.000000001
 43
0.00000001
 40
0.0
 40
0.0
 40
0.0
 40
0.0
 40
1.0
 40
1.0
 40
1.0
 40
1.0
 10
24.42631513268684
 20
-3.02178137859479
 30
0.0
 10
24.28768126458407
 20
-3.036601044038658
 30
0.0
 10
24.15225864668225
 20
-3.011718344359567
 30
0.0
 10
24.03288560475123
 20
-2.947027976311092
 30
0.0
  0
SPLINE
  5
11B
330
1F
100
AcDbEntity
  8
외형선
  6
Continuous
 62
     1
370
    15
100
AcDbSpline
210
0.0
220
0.0
230
1.0
 70
     8
 71
     3
 72
     8
 73
     4
 74
     0
 42
0.000000001
 43
0.00000001
 40
0.0
 40
0.0
 40
0.0
 40
0.0
 40
1.0
 40
1.0
 40
1.0
 40
1.0
 10
24.03288560475122
 20
-2.947027976311094
 30
0.0
 10
23.95809926531086
 20
-2.906499932917589
 30
0.0
 10
23.8588294435803
 20
-2.916358161934539
 30
0.0
 10
23.77951802077002
 20
-2.979054091946049
 30
0.0
  0
SPLINE
  5
11C
330
1F
100
AcDbEntity
  8
외형선
  6
Continuous
 62
     1
370
    15
100
AcDbSpline
210
0.0
220
0.0
230
1.0
 70
     8
 71
     3
 72
    10
 73
     6
 74
     0
 42
0.000000001
 43
0.00000001
 40
0.0
 40
0.0
 40
0.0
 40
0.0
 40
0.5
 40
0.5
 40
1.0
 40
1.0
 40
1.0
 40
1.0
 10
23.77951802077002
 20
-2.97905409194605
 30
0.0
 10
23.62252573132089
 20
-3.103156992170079
 30
0.0
 10
23.45244596982876
 20
-3.167702394376169
 30
0.0
 10
23.10893381659083
 20
-3.177211010028051
 30
0.0
 10
22.93761438533572
 20
-3.12067265150309
 30
0.0
 10
22.78899574572935
 20
-3.005834768641575
 30
0.0
  0
SPLINE
  5
11D
330
1F
100
AcDbEntity
  8
외형선
  6
Continuous
 62
     1
370
    15
100
AcDbSpline
210
0.0
220
0.0
230
1.0
 70
     8
 71
     3
 72
     8
 73
     4
 74
     0
 42
0.000000001
 43
0.00000001
 40
0.0
 40
0.0
 40
0.0
 40
0.0
 40
1.0
 40
1.0
 40
1.0
 40
1.0
 10
22.78899574572935
 20
-3.005834768641573
 30
0.0
 10
22.71410097524894
 20
-2.947963448448167
 30
0.0
 10
22.61507166847764
 20
-2.93885322849595
 30
0.0
 10
22.53656992112504
 20
-2.987521234383262
 30
0.0
  0
SPLINE
  5
11E
330
1F
100
AcDbEntity
  8
외형선
  6
Continuous
 62
     1
370
    15
100
AcDbSpline
210
0.0
220
0.0
230
1.0
 70
     8
 71
     3
 72
     8
 73
     4
 74
     0
 42
0.000000001
 43
0.00000001
 40
0.0
 40
0.0
 40
0.0
 40
0.0
 40
1.0
 40
1.0
 40
1.0
 40
1.0
 10
22.53656992112504
 20
-2.987521234383264
 30
0.0
 10
22.41285515219504
 20
-3.064219541181317
 30
0.0
 10
22.27866856690651
 20
-3.097058124244111
 30
0.0
 10
22.1418141451478
 20
-3.091173679988344
 30
0.0
  0
SPLINE
  5
11F
330
1F
100
AcDbEntity
  8
외형선
  6
Continuous
 62
     1
370
    15
100
AcDbSpline
210
0.0
220
0.0
230
1.0
 70
     8
 71
     3
 72
     8
 73
     4
 74
     0
 42
0.000000001
 43
0.00000001
 40
0.0
 40
0.0
 40
0.0
 40
0.0
 40
1.0
 40
1.0
 40
1.0
 40
1.0
 10
22.14181414514753
 20
-3.091173679988334
 30
0.0
 10
22.00342939242307
 20
-3.049496571845344
 30
0.0
 10
21.86816925268076
 20
-2.969561748733706
 30
0.0
 10
21.74896068259324
 20
-2.857374461531902
 30
0.0
  0
SPLINE
  5
120
330
1F
100
AcDbEntity
  8
외형선
  6
Continuous
 62
     1
370
    15
100
AcDbSpline
210
0.0
220
0.0
230
1.0
 70
     8
 71
     3
 72
     8
 73
     4
 74
     0
 42
0.000000001
 43
0.00000001
 40
0.0
 40
0.0
 40
0.0
 40
0.0
 40
1.0
 40
1.0
 40
1.0
 40
1.0
 10
21.74896068259324
 20
-2.857374461531901
 30
0.0
 10
21.67434399512402
 20
-2.787152633176689
 30
0.0
 10
21.57519920706415
 20
-2.760957477942132
 30
0.0
 10
21.49601004288887
 20
-2.792933632270034
 30
0.0
  0
SPLINE
  5
121
330
1F
100
AcDbEntity
  8
외형선
  6
Continuous
 62
     1
370
    15
100
AcDbSpline
210
0.0
220
0.0
230
1.0
 70
     8
 71
     3
 72
    10
 73
     6
 74
     0
 42
0.000000001
 43
0.00000001
 40
0.0
 40
0.0
 40
0.0
 40
0.0
 40
0.5
 40
0.5
 40
1.0
 40
1.0
 40
1.0
 40
1.0
 10
21.49601004288887
 20
-2.792933632270036
 30
0.0
 10
21.3387735133828
 20
-2.856424888754845
 30
0.0
 10
21.1684535518309
 20
-2.845918856444103
 30
0.0
 10
20.82473412920138
 20
-2.720328835082242
 30
0.0
 10
20.65327192761446
 20
-2.604729273815354
 30
0.0
 10
20.50439802901775
 20
-2.450670359895976
 30
0.0
  0
SPLINE
  5
122
330
1F
100
AcDbEntity
  8
외형선
  6
Continuous
 62
     1
370
    15
100
AcDbSpline
210
0.0
220
0.0
230
1.0
 70
     8
 71
     3
 72
     8
 73
     4
 74
     0
 42
0.000000001
 43
0.00000001
 40
0.0
 40
0.0
 40
0.0
 40
0.0
 40
1.0
 40
1.0
 40
1.0
 40
1.0
 10
20.50439802901775
 20
-2.450670359895974
 30
0.0
 10
20.42945953988697
 20
-2.373121895356054
 30
0.0
 10
20.33036378699407
 20
-2.330704316173207
 30
0.0
 10
20.25179266683557
 20
-2.342433413311372
 30
0.0
  0
SPLINE
  5
123
330
1F
100
AcDbEntity
  8
외형선
  6
Continuous
 62
     1
370
    15
100
AcDbSpline
210
0.0
220
0.0
230
1.0
 70
     8
 71
     3
 72
     8
 73
     4
 74
     0
 42
0.000000001
 43
0.00000001
 40
0.0
 40
0.0
 40
0.0
 40
0.0
 40
1.0
 40
1.0
 40
1.0
 40
1.0
 10
20.25179266683558
 20
-2.342433413311374
 30
0.0
 10
20.12797940484429
 20
-2.360916257567116
 30
0.0
 10
19.99375712945606
 20
-2.332604261384629
 30
0.0
 10
19.85703988244196
 20
-2.273772919618712
 30
0.0
  0
SPLINE
  5
124
330
1F
100
AcDbEntity
  8
외형선
  6
Continuous
 62
     1
370
    15
100
AcDbSpline
210
0.0
220
0.0
230
1.0
 70
     8
 71
     3
 72
     8
 73
     4
 74
     0
 42
0.000000001
 43
0.00000001
 40
0.0
 40
0.0
 40
0.0
 40
0.0
 40
1.0
 40
1.0
 40
1.0
 40
1.0
 10
19.85703988244168
 20
-2.273772919618595
 30
0.0
 10
19.71883599838373
 20
-2.187437398684653
 30
0.0
 10
19.58366219934229
 20
-2.07535596639087
 30
0.0
 10
19.46452948465467
 20
-1.947921651851909
 30
0.0
  0
SPLINE
  5
125
330
1F
100
AcDbEntity
  8
외형선
  6
Continuous
 62
     1
370
    15
100
AcDbSpline
210
0.0
220
0.0
230
1.0
 70
     8
 71
     3
 72
     8
 73
     4
 74
     0
 42
0.000000001
 43
0.00000001
 40
0.0
 40
0.0
 40
0.0
 40
0.0
 40
1.0
 40
1.0
 40
1.0
 40
1.0
 10
19.46452948465467
 20
-1.947921651851908
 30
0.0
 10
19.39003925252098
 20
-1.868240670043552
 30
0.0
 10
19.29098537742266
 20
-1.813577996681709
 30
0.0
 10
19.21189234831613
 20
-1.805858091404371
 30
0.0
  0
SPLINE
  5
126
330
1F
100
AcDbEntity
  8
외형선
  6
Continuous
 62
     1
370
    15
100
AcDbSpline
210
0.0
220
0.0
230
1.0
 70
     8
 71
     3
 72
    10
 73
     6
 74
     0
 42
0.000000001
 43
0.00000001
 40
0.0
 40
0.0
 40
0.0
 40
0.0
 40
0.5
 40
0.5
 40
1.0
 40
1.0
 40
1.0
 40
1.0
 10
19.21189234831613
 20
-1.805858091404375
 30
0.0
 10
19.05461824891625
 20
-1.790507292937543
 30
0.0
 10
18.88395329351882
 20
-1.708478117708182
 30
0.0
 10
18.54053821267449
 20
-1.483089372927082
 30
0.0
 10
18.36915896752638
 20
-1.341454551220239
 30
0.0
 10
18.22020414958418
 20
-1.192483003093658
 30
0.0
  0
SPLINE
  5
127
330
1F
100
AcDbEntity
  8
외형선
  6
Continuous
 62
     1
370
    15
100
AcDbSpline
210
0.0
220
0.0
230
1.0
 70
     8
 71
     3
 72
     8
 73
     4
 74
     0
 42
0.000000001
 43
0.00000001
 40
0.0
 40
0.0
 40
0.0
 40
0.0
 40
1.0
 40
1.0
 40
1.0
 40
1.0
 10
18.22020414958419
 20
-1.192483003093704
 30
0.0
 10
18.14516902545412
 20
-1.11743945123045
 30
0.0
 10
18.04596918482061
 20
-1.053894048548888
 30
0.0
 10
17.96727527974043
 20
-1.025314602724143
 30
0.0
  0
SPLINE
  5
128
330
1F
100
AcDbEntity
  8
외형선
  6
Continuous
 62
     1
370
    15
100
AcDbSpline
210
0.0
220
0.0
230
1.0
 70
     8
 71
     3
 72
     8
 73
     4
 74
     0
 42
0.000000001
 43
0.00000001
 40
0.0
 40
0.0
 40
0.0
 40
0.0
 40
1.0
 40
1.0
 40
1.0
 40
1.0
 10
17.96727527974043
 20
-1.025314602724152
 30
0.0
 10
17.84335804770935
 20
-0.9803112976273145
 30
0.0
 10
17.70877159341798
 20
-0.8994367959714771
 30
0.0
 10
17.57221826450948
 20
-0.8043340080518555
 30
0.0
  0
SPLINE
  5
129
330
1F
100
AcDbEntity
  8
외형선
  6
Continuous
 62
     1
370
    15
100
AcDbSpline
210
0.0
220
0.0
230
1.0
 70
     8
 71
     3
 72
     8
 73
     4
 74
     0
 42
0.000000001
 43
0.00000001
 40
0.0
 40
0.0
 40
0.0
 40
0.0
 40
1.0
 40
1.0
 40
1.0
 40
1.0
 10
17.5722182645092
 20
-0.8043340080516594
 30
0.0
 10
17.43412774810072
 20
-0.6978456038639431
 30
0.0
 10
17.2989636856637
 20
-0.5855740610805973
 30
0.0
 10
17.17981728421891
 20
-0.4793899655428122
 30
0.0
  0
SPLINE
  5
12A
330
1F
100
AcDbEntity
  8
외형선
  6
Continuous
 62
     1
370
    15
100
AcDbSpline
210
0.0
220
0.0
230
1.0
 70
     8
 71
     3
 72
     8
 73
     4
 74
     0
 42
0.000000001
 43
0.00000001
 40
0.0
 40
0.0
 40
0.0
 40
0.0
 40
1.0
 40
1.0
 40
1.0
 40
1.0
 10
17.1798172842189
 20
-0.4793899655428039
 30
0.0
 10
17.10540004584941
 20
-0.4130688089416554
 30
0.0
 10
17.00639919602916
 20
-0.3456293287331302
 30
0.0
 10
16.9273489014661
 20
-0.3004329908733276
 30
0.0
  0
SPLINE
  5
12B
330
1F
100
AcDbEntity
  8
외형선
  6
Continuous
 62
     1
370
    15
100
AcDbSpline
210
0.0
220
0.0
230
1.0
 70
     8
 71
     3
 72
     8
 73
     4
 74
     0
 42
0.000000001
 43
0.00000001
 40
0.0
 40
0.0
 40
0.0
 40
0.0
 40
1.0
 40
1.0
 40
1.0
 40
1.0
 10
15.93663718032082
 20
0.4073343101405166
 30
0.0
 10
15.86145688712377
 20
0.4584710280533279
 30
0.0
 10
15.76211269020414
 20
0.5249555200810343
 30
0.0
 10
15.68324294770956
 20
0.585746254543642
 30
0.0
  0
SPLINE
  5
12C
330
1F
100
AcDbEntity
  8
외형선
  6
Continuous
 62
     1
370
    15
100
AcDbSpline
210
0.0
220
0.0
230
1.0
 70
     8
 71
     3
 72
     8
 73
     4
 74
     0
 42
0.000000001
 43
0.00000001
 40
0.0
 40
0.0
 40
0.0
 40
0.0
 40
1.0
 40
1.0
 40
1.0
 40
1.0
 10
14.89504961138628
 20
1.12664598188529
 30
0.0
 10
14.82065217079659
 20
1.16067387843074
 30
0.0
 10
14.7216664788261
 20
1.221569787498656
 30
0.0
 10
14.64260531637826
 20
1.291358439582136
 30
0.0
  0
SPLINE
  5
12D
330
1F
100
AcDbEntity
  8
외형선
  6
Continuous
 62
     1
370
    15
100
AcDbSpline
210
0.0
220
0.0
230
1.0
 70
     8
 71
     3
 72
     8
 73
     4
 74
     0
 42
0.000000001
 43
0.00000001
 40
0.0
 40
0.0
 40
0.0
 40
0.0
 40
1.0
 40
1.0
 40
1.0
 40
1.0
 10
13.65298990237271
 20
1.89033042209776
 30
0.0
 10
13.57792706563105
 20
1.902747773652292
 30
0.0
 10
13.47865159925365
 20
1.953064565554911
 30
0.0
 10
13.39981358634325
 20
2.028526253200529
 30
0.0
  0
SPLINE
  5
12E
330
1F
100
AcDbEntity
  8
외형선
  6
Continuous
 62
     1
370
    15
100
AcDbSpline
210
0.0
220
0.0
230
1.0
 70
     8
 71
     3
 72
     8
 73
     4
 74
     0
 42
0.000000001
 43
0.00000001
 40
0.0
 40
0.0
 40
0.0
 40
0.0
 40
1.0
 40
1.0
 40
1.0
 40
1.0
 10
13.39981358634325
 20
2.02852625320053
 30
0.0
 10
13.27560202240887
 20
2.147418319268246
 30
0.0
 10
13.14058586814158
 20
2.255915172684824
 30
0.0
 10
13.00350708494349
 20
2.338672521113468
 30
0.0
  0
SPLINE
  5
12F
330
1F
100
AcDbEntity
  8
외형선
  6
Continuous
 62
     1
370
    15
100
AcDbSpline
210
0.0
220
0.0
230
1.0
 70
     8
 71
     3
 72
     8
 73
     4
 74
     0
 42
0.000000001
 43
0.00000001
 40
0.0
 40
0.0
 40
0.0
 40
0.0
 40
1.0
 40
1.0
 40
1.0
 40
1.0
 10
13.00350708494294
 20
2.338672521113804
 30
0.0
 10
12.86479680393146
 20
2.39635434616911
 30
0.0
 10
12.72974716838361
 20
2.421990929120743
 30
0.0
 10
12.61045239503897
 20
2.40918902912568
 30
0.0
  0
SPLINE
  5
130
330
1F
100
AcDbEntity
  8
외형선
  6
Continuous
 62
     1
370
    15
100
AcDbSpline
210
0.0
220
0.0
230
1.0
 70
     8
 71
     3
 72
     8
 73
     4
 74
     0
 42
0.000000001
 43
0.00000001
 40
0.0
 40
0.0
 40
0.0
 40
0.0
 40
1.0
 40
1.0
 40
1.0
 40
1.0
 10
12.61045239503897
 20
2.409189029125682
 30
0.0
 10
12.53602165201104
 20
2.401201630331195
 30
0.0
 10
12.43701323233486
 20
2.438061092548336
 30
0.0
 10
12.3578871853154
 20
2.512481101432054
 30
0.0
  0
SPLINE
  5
131
330
1F
100
AcDbEntity
  8
외형선
  6
Continuous
 62
     1
370
    15
100
AcDbSpline
210
0.0
220
0.0
230
1.0
 70
     8
 71
     3
 72
    10
 73
     6
 74
     0
 42
0.000000001
 43
0.00000001
 40
0.0
 40
0.0
 40
0.0
 40
0.0
 40
0.5
 40
0.5
 40
1.0
 40
1.0
 40
1.0
 40
1.0
 10
12.3578871853154
 20
2.512481101432059
 30
0.0
 10
12.20105455434575
 20
2.659986078992078
 30
0.0
 10
12.03036332885472
 20
2.771096155159071
 30
0.0
 10
11.68723788425608
 20
2.887201394084756
 30
0.0
 10
11.51702074199392
 20
2.890544698172373
 30
0.0
 10
11.36871210823887
 20
2.831460200617446
 30
0.0
  0
SPLINE
  5
132
330
1F
100
AcDbEntity
  8
외형선
  6
Continuous
 62
     1
370
    15
100
AcDbSpline
210
0.0
220
0.0
230
1.0
 70
     8
 71
     3
 72
     8
 73
     4
 74
     0
 42
0.000000001
 43
0.00000001
 40
0.0
 40
0.0
 40
0.0
 40
0.0
 40
1.0
 40
1.0
 40
1.0
 40
1.0
 10
11.36871210823887
 20
2.831460200617444
 30
0.0
 10
11.29381151290096
 20
2.801620642865096
 30
0.0
 10
11.19467771262532
 20
2.821305645235378
 30
0.0
 10
11.11596744454597
 20
2.889827082946396
 30
0.0
  0
SPLINE
  5
133
330
1F
100
AcDbEntity
  8
외형선
  6
Continuous
 62
     1
370
    15
100
AcDbSpline
210
0.0
220
0.0
230
1.0
 70
     8
 71
     3
 72
     8
 73
     4
 74
     0
 42
0.000000001
 43
0.00000001
 40
0.0
 40
0.0
 40
0.0
 40
0.0
 40
1.0
 40
1.0
 40
1.0
 40
1.0
 10
11.11596744454596
 20
2.889827082946399
 30
0.0
 10
10.99195821048701
 20
2.997783658556012
 30
0.0
 10
10.85707426531088
 20
3.07315113664805
 30
0.0
 10
10.72003870749279
 20
3.111205220379148
 30
0.0
  0
SPLINE
  5
134
330
1F
100
AcDbEntity
  8
외형선
  6
Continuous
 62
     1
370
    15
100
AcDbSpline
210
0.0
220
0.0
230
1.0
 70
     8
 71
     3
 72
     8
 73
     4
 74
     0
 42
0.000000001
 43
0.00000001
 40
0.0
 40
0.0
 40
0.0
 40
0.0
 40
1.0
 40
1.0
 40
1.0
 40
1.0
 10
10.72003870749252
 20
3.111205220379224
 30
0.0
 10
10.58106296593665
 20
3.114298147580583
 30
0.0
 10
10.44561716794909
 20
3.077194951912291
 30
0.0
 10
10.32625212075871
 20
3.000593745505954
 30
0.0
  0
SPLINE
  5
135
330
1F
100
AcDbEntity
  8
외형선
  6
Continuous
 62
     1
370
    15
100
AcDbSpline
210
0.0
220
0.0
230
1.0
 70
     8
 71
     3
 72
     8
 73
     4
 74
     0
 42
0.000000001
 43
0.00000001
 40
0.0
 40
0.0
 40
0.0
 40
0.0
 40
1.0
 40
1.0
 40
1.0
 40
1.0
 10
10.32625212075871
 20
3.000593745505951
 30
0.0
 10
10.25173490512694
 20
2.952773141821767
 30
0.0
 10
10.15266581496347
 20
2.954883474713088
 30
0.0
 10
10.0734202251538
 20
3.012530880663628
 30
0.0
  0
SPLINE
  5
136
330
1F
100
AcDbEntity
  8
외형선
  6
Continuous
 62
     1
370
    15
100
AcDbSpline
210
0.0
220
0.0
230
1.0
 70
     8
 71
     3
 72
     9
 73
     5
 74
     0
 42
0.000000001
 43
0.00000001
 40
0.0
 40
0.0
 40
0.0
 40
0.0
 40
0.6084821751631662
 40
1.0
 40
1.0
 40
1.0
 40
1.0
 10
10.07342022515379
 20
3.012530880663631
 30
0.0
 10
10.03115353958448
 20
3.041158843341621
 30
0.0
 10
9.961691051947975
 20
3.08820699667547
 30
0.0
 10
9.887815994065933
 20
3.113054790460747
 30
0.0
 10
9.85889259209426
 20
3.122783144635553
 30
0.0
  0
SPLINE
  5
137
330
1F
100
AcDbEntity
  8
외형선
  6
Continuous
 62
     1
370
    15
100
AcDbSpline
210
0.0
220
0.0
230
1.0
 70
     8
 71
     3
 72
    11
 73
     7
 74
     0
 42
0.000000001
 43
0.00000001
 40
0.0
 40
0.0
 40
0.0
 40
0.0
 40
0.0516982033315286
 40
0.5031548199560906
 40
0.7504110986800755
 40
1.0
 40
1.0
 40
1.0
 40
1.0
 10
12.52108635868604
 20
2.418878586596431
 30
0.0
 10
12.52688143457602
 20
2.421129933174034
 30
0.0
 10
12.58328224114484
 20
2.443041253276363
 30
0.0
 10
12.66444417002545
 20
2.455511010928616
 30
0.0
 10
12.76346609578278
 20
2.46317757848281
 30
0.0
 10
12.81236004287749
 20
2.458923848953682
 30
0.0
 10
12.83692179174156
 20
2.456786998839542
 30
0.0
  0
SPLINE
  5
138
330
1F
100
AcDbEntity
  8
외형선
  6
Continuous
 62
     1
370
    15
100
AcDbSpline
210
0.0
220
0.0
230
1.0
 70
     8
 71
     3
 72
     8
 73
     4
 74
     0
 42
0.000000001
 43
0.00000001
 40
0.0
 40
0.0
 40
0.0
 40
0.0
 40
1.0
 40
1.0
 40
1.0
 40
1.0
 10
12.83692179174156
 20
2.456786998839536
 30
0.0
 10
12.9118062282476
 20
2.447568412676639
 30
0.0
 10
13.01092148792438
 20
2.48374184269417
 30
0.0
 10
13.08965981986445
 20
2.55846072865575
 30
0.0
  0
SPLINE
  5
139
330
1F
100
AcDbEntity
  8
외형선
  6
Continuous
 62
     1
370
    15
100
AcDbSpline
210
0.0
220
0.0
230
1.0
 70
     8
 71
     3
 72
     8
 73
     4
 74
     0
 42
0.000000001
 43
0.00000001
 40
0.0
 40
0.0
 40
0.0
 40
0.0
 40
1.0
 40
1.0
 40
1.0
 40
1.0
 10
13.08965981986444
 20
2.558460728655739
 30
0.0
 10
13.21365552489103
 20
2.676126682649521
 30
0.0
 10
13.34855373700734
 20
2.771276592109062
 30
0.0
 10
13.48568305124694
 20
2.833540322171026
 30
0.0
  0
SPLINE
  5
13A
330
1F
100
AcDbEntity
  8
외형선
  6
Continuous
 62
     1
370
    15
100
AcDbSpline
210
0.0
220
0.0
230
1.0
 70
     8
 71
     3
 72
     8
 73
     4
 74
     0
 42
0.000000001
 43
0.00000001
 40
0.0
 40
0.0
 40
0.0
 40
0.0
 40
1.0
 40
1.0
 40
1.0
 40
1.0
 10
13.48568305124753
 20
2.833540322171335
 30
0.0
 10
13.62461606265751
 20
2.864621494352872
 30
0.0
 10
13.76016435751239
 20
2.8579753039893
 30
0.0
 10
13.87948909635601
 20
2.811245578239394
 30
0.0
  0
SPLINE
  5
13B
330
1F
100
AcDbEntity
  8
외형선
  6
Continuous
 62
     1
370
    15
100
AcDbSpline
210
0.0
220
0.0
230
1.0
 70
     8
 71
     3
 72
     8
 73
     4
 74
     0
 42
0.000000001
 43
0.00000001
 40
0.0
 40
0.0
 40
0.0
 40
0.0
 40
1.0
 40
1.0
 40
1.0
 40
1.0
 10
13.87948909635601
 20
2.811245578239395
 30
0.0
 10
13.95406728616013
 20
2.782039410346261
 30
0.0
 10
14.05299887021518
 20
2.80221346196902
 30
0.0
 10
14.13221378181958
 20
2.870739359071373
 30
0.0
  0
SPLINE
  5
13C
330
1F
100
AcDbEntity
  8
외형선
  6
Continuous
 62
     1
370
    15
100
AcDbSpline
210
0.0
220
0.0
230
1.0
 70
     8
 71
     3
 72
    10
 73
     6
 74
     0
 42
0.000000001
 43
0.00000001
 40
0.0
 40
0.0
 40
0.0
 40
0.0
 40
0.5
 40
0.5
 40
1.0
 40
1.0
 40
1.0
 40
1.0
 10
14.13221378181959
 20
2.87073935907138
 30
0.0
 10
14.28885687507436
 20
3.006245519120873
 30
0.0
 10
14.45941150046281
 20
3.089536531567827
 30
0.0
 10
14.80270406911511
 20
3.138682440229903
 30
0.0
 10
14.97351660692504
 20
3.102955297589199
 30
0.0
 10
15.12159956916595
 20
3.006601367761621
 30
0.0
  0
SPLINE
  5
13D
330
1F
100
AcDbEntity
  8
외형선
  6
Continuous
 62
     1
370
    15
100
AcDbSpline
210
0.0
220
0.0
230
1.0
 70
     8
 71
     3
 72
     8
 73
     4
 74
     0
 42
0.000000001
 43
0.00000001
 40
0.0
 40
0.0
 40
0.0
 40
0.0
 40
1.0
 40
1.0
 40
1.0
 40
1.0
 10
15.12159956916607
 20
3.006601367761635
 30
0.0
 10
15.1964341983653
 20
2.957908320962591
 30
0.0
 10
15.29536780284188
 20
2.959267264634713
 30
0.0
 10
15.3740148306315
 20
3.016444997937986
 30
0.0
  0
SPLINE
  5
13E
330
1F
100
AcDbEntity
  8
외형선
  6
Continuous
 62
     1
370
    15
100
AcDbSpline
210
0.0
220
0.0
230
1.0
 70
     8
 71
     3
 72
     8
 73
     4
 74
     0
 42
0.000000001
 43
0.00000001
 40
0.0
 40
0.0
 40
0.0
 40
0.0
 40
1.0
 40
1.0
 40
1.0
 40
1.0
 10
15.37401483062895
 20
3.016444997935879
 30
0.0
 10
15.49775471253256
 20
3.106406006829783
 30
0.0
 10
15.63241513545848
 20
3.15592799867771
 30
0.0
 10
15.76940014065961
 20
3.166294080153262
 30
0.0
  0
SPLINE
  5
13F
330
1F
100
AcDbEntity
  8
외형선
  6
Continuous
 62
     1
370
    15
100
AcDbSpline
210
0.0
220
0.0
230
1.0
 70
     8
 71
     3
 72
     8
 73
     4
 74
     0
 42
0.000000001
 43
0.00000001
 40
0.0
 40
0.0
 40
0.0
 40
0.0
 40
1.0
 40
1.0
 40
1.0
 40
1.0
 10
15.76940014066008
 20
3.166294080153193
 30
0.0
 10
15.9082378072928
 20
3.140338559973058
 30
0.0
 10
16.04371505564282
 20
3.074438418696488
 30
0.0
 10
16.16311458410519
 20
2.973047688301422
 30
0.0
  0
SPLINE
  5
140
330
1F
100
AcDbEntity
  8
외형선
  6
Continuous
 62
     1
370
    15
100
AcDbSpline
210
0.0
220
0.0
230
1.0
 70
     8
 71
     3
 72
     8
 73
     4
 74
     0
 42
0.000000001
 43
0.00000001
 40
0.0
 40
0.0
 40
0.0
 40
0.0
 40
1.0
 40
1.0
 40
1.0
 40
1.0
 10
16.16311458410519
 20
2.973047688301423
 30
0.0
 10
16.23791130589267
 20
2.909532410219063
 30
0.0
 10
16.33703451735004
 20
2.893160272915804
 30
0.0
 10
16.41631863438396
 20
2.935315269059264
 30
0.0
  0
SPLINE
  5
141
330
1F
100
AcDbEntity
  8
외형선
  6
Continuous
 62
     1
370
    15
100
AcDbSpline
210
0.0
220
0.0
230
1.0
 70
     8
 71
     3
 72
    10
 73
     6
 74
     0
 42
0.000000001
 43
0.00000001
 40
0.0
 40
0.0
 40
0.0
 40
0.0
 40
0.5
 40
0.5
 40
1.0
 40
1.0
 40
1.0
 40
1.0
 10
16.41631863438396
 20
2.935315269059267
 30
0.0
 10
16.57297544218954
 20
3.018608964895803
 30
0.0
 10
16.7435196577758
 20
3.03096982065529
 30
0.0
 10
17.08698956225876
 20
2.942543142066338
 30
0.0
 10
17.25809764395746
 20
2.841101330505345
 30
0.0
 10
17.40642464959592
 20
2.694214785479391
 30
0.0
  0
SPLINE
  5
142
330
1F
100
AcDbEntity
  8
외형선
  6
Continuous
 62
     1
370
    15
100
AcDbSpline
210
0.0
220
0.0
230
1.0
 70
     8
 71
     3
 72
     8
 73
     4
 74
     0
 42
0.000000001
 43
0.00000001
 40
0.0
 40
0.0
 40
0.0
 40
0.0
 40
1.0
 40
1.0
 40
1.0
 40
1.0
 10
17.40642464959593
 20
2.694214785479384
 30
0.0
 10
17.48130824738057
 20
2.620058411120217
 30
0.0
 10
17.58018885559574
 20
2.586124580069745
 30
0.0
 10
17.65873608165175
 20
2.609240907846777
 30
0.0
  0
SPLINE
  5
143
330
1F
100
AcDbEntity
  8
외형선
  6
Continuous
 62
     1
370
    15
100
AcDbSpline
210
0.0
220
0.0
230
1.0
 70
     8
 71
     3
 72
     8
 73
     4
 74
     0
 42
0.000000001
 43
0.00000001
 40
0.0
 40
0.0
 40
0.0
 40
0.0
 40
1.0
 40
1.0
 40
1.0
 40
1.0
 10
17.65873608165166
 20
2.609240907846748
 30
0.0
 10
17.78230340466751
 20
2.645606580892012
 30
0.0
 10
17.91679598638017
 20
2.635278334956121
 30
0.0
 10
18.05369948974087
 20
2.590834353408897
 30
0.0
  0
SPLINE
  5
144
330
1F
100
AcDbEntity
  8
외형선
  6
Continuous
 62
     1
370
    15
100
AcDbSpline
210
0.0
220
0.0
230
1.0
 70
     8
 71
     3
 72
     8
 73
     4
 74
     0
 42
0.000000001
 43
0.00000001
 40
0.0
 40
0.0
 40
0.0
 40
0.0
 40
1.0
 40
1.0
 40
1.0
 40
1.0
 10
18.05369948974129
 20
2.590834353408859
 30
0.0
 10
18.19227702479058
 20
2.515438688299016
 30
0.0
 10
18.32757355002387
 20
2.409555784594592
 30
0.0
 10
18.44677699328837
 20
2.282698319211626
 30
0.0
  0
SPLINE
  5
145
330
1F
100
AcDbEntity
  8
외형선
  6
Continuous
 62
     1
370
    15
100
AcDbSpline
210
0.0
220
0.0
230
1.0
 70
     8
 71
     3
 72
     8
 73
     4
 74
     0
 42
0.000000001
 43
0.00000001
 40
0.0
 40
0.0
 40
0.0
 40
0.0
 40
1.0
 40
1.0
 40
1.0
 40
1.0
 10
18.44677699328837
 20
2.282698319211621
 30
0.0
 10
18.5214768675027
 20
2.203201985483821
 30
0.0
 10
18.6206333376219
 20
2.1552401707422
 30
0.0
 10
18.69984377713996
 20
2.158914568431725
 30
0.0
  0
SPLINE
  5
146
330
1F
100
AcDbEntity
  8
외형선
  6
Continuous
 62
     1
370
    15
100
AcDbSpline
210
0.0
220
0.0
230
1.0
 70
     8
 71
     3
 72
    10
 73
     6
 74
     0
 42
0.000000001
 43
0.00000001
 40
0.0
 40
0.0
 40
0.0
 40
0.0
 40
0.5000000000000001
 40
0.5000000000000001
 40
1.0
 40
1.0
 40
1.0
 40
1.0
 10
18.69984377713996
 20
2.158914568431723
 30
0.0
 10
18.85681411786854
 20
2.166196076536042
 30
0.0
 10
19.02723461444623
 20
2.103325408698958
 30
0.0
 10
19.37108412272288
 20
1.902209711522258
 30
0.0
 10
19.54249853522359
 20
1.764064651205005
 30
0.0
 10
19.6911555179192
 20
1.608883930272058
 30
0.0
  0
SPLINE
  5
147
330
1F
100
AcDbEntity
  8
외형선
  6
Continuous
 62
     1
370
    15
100
AcDbSpline
210
0.0
220
0.0
230
1.0
 70
     8
 71
     3
 72
     8
 73
     4
 74
     0
 42
0.000000001
 43
0.00000001
 40
0.0
 40
0.0
 40
0.0
 40
0.0
 40
1.0
 40
1.0
 40
1.0
 40
1.0
 10
19.69115551791921
 20
1.608883930272059
 30
0.0
 10
19.76607824922406
 20
1.530673251921626
 30
0.0
 10
19.86509517521016
 20
1.471378668862617
 30
0.0
 10
19.9435922642958
 20
1.453788277117033
 30
0.0
  0
SPLINE
  5
148
330
1F
100
AcDbEntity
  8
외형선
  6
Continuous
 62
     1
370
    15
100
AcDbSpline
210
0.0
220
0.0
230
1.0
 70
     8
 71
     3
 72
     8
 73
     4
 74
     0
 42
0.000000001
 43
0.00000001
 40
0.0
 40
0.0
 40
0.0
 40
0.0
 40
1.0
 40
1.0
 40
1.0
 40
1.0
 10
19.94359226429581
 20
1.45378827711703
 30
0.0
 10
20.06716614050976
 20
1.42609664017299
 30
0.0
 10
20.20147437280066
 20
1.358514576596133
 30
0.0
 10
20.33835604592745
 20
1.271892051865048
 30
0.0
  0
SPLINE
  5
149
330
1F
100
AcDbEntity
  8
외형선
  6
Continuous
 62
     1
370
    15
100
AcDbSpline
210
0.0
220
0.0
230
1.0
 70
     8
 71
     3
 72
     8
 73
     4
 74
     0
 42
0.000000001
 43
0.00000001
 40
0.0
 40
0.0
 40
0.0
 40
0.0
 40
1.0
 40
1.0
 40
1.0
 40
1.0
 10
20.33835604592787
 20
1.271892051865032
 30
0.0
 10
20.47674317570513
 20
1.168677706218973
 30
0.0
 10
20.61193505439974
 20
1.053244739458229
 30
0.0
 10
20.73103054757247
 20
0.9374409819089239
 30
0.0
  0
SPLINE
  5
14A
330
1F
100
AcDbEntity
  8
외형선
  6
Continuous
 62
     1
370
    15
100
AcDbSpline
210
0.0
220
0.0
230
1.0
 70
     8
 71
     3
 72
     8
 73
     4
 74
     0
 42
0.000000001
 43
0.00000001
 40
0.0
 40
0.0
 40
0.0
 40
0.0
 40
1.0
 40
1.0
 40
1.0
 40
1.0
 10
20.73103054757247
 20
0.9374409819089251
 30
0.0
 10
20.80558577173065
 20
0.8649464242019831
 30
0.0
 10
20.90465069349604
 20
0.7991370800302671
 30
0.0
 10
20.98374610540138
 20
0.7635782604331782
 30
0.0
  0
SPLINE
  5
14B
330
1F
100
AcDbEntity
  8
외형선
  6
Continuous
 62
     1
370
    15
100
AcDbSpline
210
0.0
220
0.0
230
1.0
 70
     8
 71
     3
 72
     8
 73
     4
 74
     0
 42
0.000000001
 43
0.00000001
 40
0.0
 40
0.0
 40
0.0
 40
0.0
 40
1.0
 40
1.0
 40
1.0
 40
1.0
 10
21.97556645990539
 20
0.0620160307760141
 30
0.0
 10
22.05056897755713
 20
0.002163420083781
 30
0.0
 10
22.1496901554882
 20
-0.0655465209410673
 30
0.0
 10
22.22829160475247
 20
-0.1186362732511922
 30
0.0
  0
SPLINE
  5
14C
330
1F
100
AcDbEntity
  8
외형선
  6
Continuous
 62
     1
370
    15
100
AcDbSpline
210
0.0
220
0.0
230
1.0
 70
     8
 71
     3
 72
     8
 73
     4
 74
     0
 42
0.000000001
 43
0.00000001
 40
0.0
 40
0.0
 40
0.0
 40
0.0
 40
1.0
 40
1.0
 40
1.0
 40
1.0
 10
22.22829160475247
 20
-0.1186362732511935
 30
0.0
 10
22.35207683922562
 20
-0.2022444954830095
 30
0.0
 10
22.48627722852352
 20
-0.3078844213131706
 30
0.0
 10
22.62314437636282
 20
-0.4119765621177318
 30
0.0
  0
SPLINE
  5
14D
330
1F
100
AcDbEntity
  8
외형선
  6
Continuous
 62
     1
370
    15
100
AcDbSpline
210
0.0
220
0.0
230
1.0
 70
     8
 71
     3
 72
     8
 73
     4
 74
     0
 42
0.000000001
 43
0.00000001
 40
0.0
 40
0.0
 40
0.0
 40
0.0
 40
1.0
 40
1.0
 40
1.0
 40
1.0
 10
23.0156495147524
 20
-0.6770659800269964
 30
0.0
 10
23.09011426161318
 20
-0.721808789567231
 30
0.0
 10
23.18912569204964
 20
-0.786583369064372
 30
0.0
 10
23.26815955571374
 20
-0.8512043878976978
 30
0.0
  0
SPLINE
  5
14E
330
1F
100
AcDbEntity
  8
외형선
  6
Continuous
 62
     1
370
    15
100
AcDbSpline
210
0.0
220
0.0
230
1.0
 70
     8
 71
     3
 72
     8
 73
     4
 74
     0
 42
0.000000001
 43
0.00000001
 40
0.0
 40
0.0
 40
0.0
 40
0.0
 40
1.0
 40
1.0
 40
1.0
 40
1.0
 10
24.25943246015049
 20
-1.502401654974173
 30
0.0
 10
24.33456758807515
 20
-1.526820238091796
 30
0.0
 10
24.43383041957506
 20
-1.583549506760347
 30
0.0
 10
24.51258938528203
 20
-1.657017277735967
 30
0.0
  0
SPLINE
  5
14F
330
1F
100
AcDbEntity
  8
외형선
  6
Continuous
 62
     1
370
    15
100
AcDbSpline
210
0.0
220
0.0
230
1.0
 70
     8
 71
     3
 72
     8
 73
     4
 74
     0
 42
0.000000001
 43
0.00000001
 40
0.0
 40
0.0
 40
0.0
 40
0.0
 40
1.0
 40
1.0
 40
1.0
 40
1.0
 10
24.51258938528203
 20
-1.65701727773597
 30
0.0
 10
24.55496013287942
 20
-1.696541468443768
 30
0.0
 10
24.59851115494451
 20
-1.735718809609828
 30
0.0
 10
24.64311783797447
 20
-1.773964926304869
 30
0.0
  0
SPLINE
  5
150
330
1F
100
AcDbEntity
  8
외형선
  6
Continuous
 62
     1
370
    15
100
AcDbSpline
210
0.0
220
0.0
230
1.0
 70
     8
 71
     3
 72
    10
 73
     6
 74
     0
 42
0.000000001
 43
0.00000001
 40
0.0
 40
0.0
 40
0.0
 40
0.0
 40
0.1337841424771196
 40
0.9246652811230245
 40
1.0
 40
1.0
 40
1.0
 40
1.0
 10
23.95120057559695
 20
-1.358860852681796
 30
0.0
 10
23.94166972988834
 20
-1.361292897532269
 30
0.0
 10
23.87579613707446
 20
-1.378102269657604
 30
0.0
 10
23.79581259942188
 20
-1.412129405617615
 30
0.0
 10
23.72696230140066
 20
-1.442986819737321
 30
0.0
 10
23.72097439688359
 20
-1.445670486398223
 30
0.0
  0
LINE
  5
151
330
1F
100
AcDbEntity
  8
외형선
  6
Continuous
 62
     1
370
    15
100
AcDbLine
 10
24.79963065701557
 20
-1.720915759481668
 30
0.0
 11
24.72269990037068
 21
-1.706254601686084
 31
0.0
  0
SPLINE
  5
152
330
1F
100
AcDbEntity
  8
외형선
  6
Continuous
 62
     1
370
    15
100
AcDbSpline
210
0.0
220
0.0
230
1.0
 70
     8
 71
     3
 72
     9
 73
     5
 74
     0
 42
0.000000001
 43
0.00000001
 40
0.0
 40
0.0
 40
0.0
 40
0.0
 40
0.3282428763761909
 40
1.0
 40
1.0
 40
1.0
 40
1.0
 10
24.52511237470818
 20
-1.668599156471256
 30
0.0
 10
24.43555720560549
 20
-1.653394735346929
 30
0.0
 10
24.16272517923716
 20
-1.607074092254276
 30
0.0
 10
23.89848178161012
 20
-1.510526810609572
 30
0.0
 10
23.7209743968836
 20
-1.445670486398228
 30
0.0
  0
LINE
  5
153
330
1F
100
AcDbEntity
  8
외형선
  6
Continuous
 62
     1
370
    15
100
AcDbLine
 10
24.79963065701557
 20
-2.744850377284789
 30
0.0
 11
24.79963065701557
 21
-1.720915759481669
 31
0.0
  0
SPLINE
  5
154
330
1F
100
AcDbEntity
  8
외형선
  6
Continuous
 62
     1
370
    15
100
AcDbSpline
210
0.0
220
0.0
230
1.0
 70
     8
 71
     3
 72
     8
 73
     4
 74
     0
 42
0.000000001
 43
0.00000001
 40
0.0
 40
0.0
 40
0.0
 40
0.0
 40
1.0
 40
1.0
 40
1.0
 40
1.0
 10
24.66975043448517
 20
-2.896220149199045
 30
0.0
 10
24.71255338228377
 20
-2.845818527853078
 30
0.0
 10
24.75581281139769
 20
-2.795340511211469
 30
0.0
 10
24.79963065701557
 20
-2.744850377284789
 30
0.0
  0
SPLINE
  5
155
330
1F
100
AcDbEntity
  8
외형선
  6
Continuous
 62
     1
370
    15
100
AcDbSpline
210
0.0
220
0.0
230
1.0
 70
     8
 71
     3
 72
     8
 73
     4
 74
     0
 42
0.000000001
 43
0.00000001
 40
0.0
 40
0.0
 40
0.0
 40
0.0
 40
1.0
 40
1.0
 40
1.0
 40
1.0
 10
24.66975043448516
 20
-2.896220149199043
 30
0.0
 10
24.59052185419258
 20
-2.950251823838129
 30
0.0
 10
24.50896615700712
 20
-2.992471791881932
 30
0.0
 10
24.42631513268712
 20
-3.021781378594691
 30
0.0
  0
SPLINE
  5
156
330
1F
100
AcDbEntity
  8
외형선
  6
Continuous
 62
     1
370
    15
100
AcDbSpline
210
0.0
220
0.0
230
1.0
 70
     8
 71
     3
 72
     8
 73
     4
 74
     0
 42
0.000000001
 43
0.00000001
 40
0.0
 40
0.0
 40
0.0
 40
0.0
 40
1.0
 40
1.0
 40
1.0
 40
1.0
 10
22.90326215699631
 20
1.721122972615633
 30
0.0
 10
22.76461798715973
 20
1.799226637931133
 30
0.0
 10
22.62939787008076
 20
1.852081867454672
 30
0.0
 10
22.51031018857963
 20
1.87198410536069
 30
0.0
  0
SPLINE
  5
15A
330
1F
100
AcDbEntity
  8
외형선
  6
Continuous
370
    15
100
AcDbSpline
210
0.0
220
0.0
230
1.0
 70
     8
 71
     3
 72
     8
 73
     4
 74
     0
 42
0.000000001
 43
0.00000001
 40
0.0
 40
0.0
 40
0.0
 40
0.0
 40
1.0
 40
1.0
 40
1.0
 40
1.0
 10
8.924630657015507
 20
-2.699970464307901
 30
0.0
 10
8.9609760063737
 20
-2.696941037068217
 30
0.0
 10
8.996230572452204
 20
-2.690829709357308
 30
0.0
 10
9.0303363027846
 20
-2.681573045696795
 30
0.0
  0
SPLINE
  5
15B
330
1F
100
AcDbEntity
  8
외형선
  6
Continuous
 62
     1
370
    15
100
AcDbSpline
210
0.0
220
0.0
230
1.0
 70
     8
 71
     3
 72
     8
 73
     4
 74
     0
 42
0.000000001
 43
0.00000001
 40
0.0
 40
0.0
 40
0.0
 40
0.0
 40
1.0
 40
1.0
 40
1.0
 40
1.0
 10
9.030336302784605
 20
-2.681573045696788
 30
0.0
 10
9.105540382851196
 20
-2.661161845928008
 30
0.0
 10
9.20470799078139
 20
-2.688939340744869
 30
0.0
 10
9.28361967712405
 20
-2.761196706561633
 30
0.0
  0
SPLINE
  5
15C
330
1F
100
AcDbEntity
  8
외형선
  6
Continuous
 62
     1
370
    15
100
AcDbSpline
210
0.0
220
0.0
230
1.0
 70
     8
 71
     3
 72
     8
 73
     4
 74
     0
 42
0.000000001
 43
0.00000001
 40
0.0
 40
0.0
 40
0.0
 40
0.0
 40
1.0
 40
1.0
 40
1.0
 40
1.0
 10
9.28361967712405
 20
-2.761196706561633
 30
0.0
 10
9.407507313426322
 20
-2.874637372594236
 30
0.0
 10
9.542248551887306
 20
-2.960027210004548
 30
0.0
 10
9.679376328071662
 20
-3.009723961726005
 30
0.0
  0
SPLINE
  5
15D
330
1F
100
AcDbEntity
  8
외형선
  6
Continuous
 62
     1
370
    15
100
AcDbSpline
210
0.0
220
0.0
230
1.0
 70
     8
 71
     3
 72
     8
 73
     4
 74
     0
 42
0.000000001
 43
0.00000001
 40
0.0
 40
0.0
 40
0.0
 40
0.0
 40
1.0
 40
1.0
 40
1.0
 40
1.0
 10
9.67937632807165
 20
-3.009723961726
 30
0.0
 10
9.81791367435466
 20
-3.025772382714008
 30
0.0
 10
9.953163023621904
 20
-3.002315570107059
 30
0.0
 10
10.0722269818786
 20
-2.938902930683913
 30
0.0
  0
SPLINE
  5
15E
330
1F
100
AcDbEntity
  8
외형선
  6
Continuous
 62
     1
370
    15
100
AcDbSpline
210
0.0
220
0.0
230
1.0
 70
     8
 71
     3
 72
     8
 73
     4
 74
     0
 42
0.000000001
 43
0.00000001
 40
0.0
 40
0.0
 40
0.0
 40
0.0
 40
1.0
 40
1.0
 40
1.0
 40
1.0
 10
10.0722269818786
 20
-2.938902930683914
 30
0.0
 10
10.14670721212634
 20
-2.899235275971219
 30
0.0
 10
10.24564077779836
 20
-2.909920215407121
 30
0.0
 10
10.32459348765204
 20
-2.973086081522025
 30
0.0
  0
SPLINE
  5
15F
330
1F
100
AcDbEntity
  8
외형선
  6
Continuous
 62
     1
370
    15
100
AcDbSpline
210
0.0
220
0.0
230
1.0
 70
     8
 71
     3
 72
    12
 73
     8
 74
     0
 42
0.000000001
 43
0.00000001
 40
0.0
 40
0.0
 40
0.0
 40
0.0
 40
0.2235974235514409
 40
0.4542667328191615
 40
0.6398765016001055
 40
0.9064434072158595
 40
1.0
 40
1.0
 40
1.0
 40
1.0
 10
10.32459348765204
 20
-2.973086081522025
 30
0.0
 10
10.36691123761804
 20
-3.004010580514451
 30
0.0
 10
10.45288515320249
 20
-3.066837651140903
 30
0.0
 10
10.58124158591458
 20
-3.125219515115961
 30
0.0
 10
10.72022355238116
 20
-3.163312915486502
 30
0.0
 10
10.83323823168454
 20
-3.177680906555647
 30
0.0
 10
10.90650031374783
 20
-3.166350211055479
 30
0.0
 10
10.92553309224901
 20
-3.163406606237741
 30
0.0
  0
SPLINE
  5
160
330
1F
100
AcDbEntity
  8
외형선
  6
Continuous
 62
     1
370
    15
100
AcDbSpline
210
0.0
220
0.0
230
1.0
 70
     8
 71
     3
 72
    10
 73
     6
 74
     0
 42
0.000000001
 43
0.00000001
 40
0.0
 40
0.0
 40
0.0
 40
0.0
 40
0.3285963652770058
 40
0.660849269379583
 40
1.0
 40
1.0
 40
1.0
 40
1.0
 10
21.64436851499122
 20
2.421216225337083
 30
0.0
 10
21.65585882320054
 20
2.427079248070528
 30
0.0
 10
21.67896730091809
 20
2.438870535799737
 30
0.0
 10
21.71305551419692
 20
2.462634032435603
 30
0.0
 10
21.73433896732238
 20
2.481439152700326
 30
0.0
 10
21.74509002421917
 20
2.490938312292777
 30
0.0
  0
SPLINE
  5
161
330
1F
100
AcDbEntity
  8
외형선
  6
Continuous
 62
     1
370
    15
100
AcDbSpline
210
0.0
220
0.0
230
1.0
 70
     8
 71
     3
 72
    10
 73
     6
 74
     0
 42
0.000000001
 43
0.00000001
 40
0.0
 40
0.0
 40
0.0
 40
0.0
 40
0.5
 40
0.5
 40
1.0
 40
1.0
 40
1.0
 40
1.0
 10
21.74509002422
 20
2.490938312295
 30
0.0
 10
21.90239657323933
 20
2.639045954903159
 30
0.0
 10
22.0735105926356
 20
2.751335157128135
 30
0.0
 10
22.41716382338147
 20
2.870807601407414
 30
0.0
 10
22.5879498929288
 20
2.876187048381281
 30
0.0
 10
22.73682616655692
 20
2.81870990479198
 30
0.0
  0
SPLINE
  5
162
330
1F
100
AcDbEntity
  8
외형선
  6
Continuous
 62
     1
370
    15
100
AcDbSpline
210
0.0
220
0.0
230
1.0
 70
     8
 71
     3
 72
     8
 73
     4
 74
     0
 42
0.000000001
 43
0.00000001
 40
0.0
 40
0.0
 40
0.0
 40
0.0
 40
1.0
 40
1.0
 40
1.0
 40
1.0
 10
22.73682616655693
 20
2.818709904791976
 30
0.0
 10
22.81181320588965
 20
2.789759416429882
 30
0.0
 10
22.9109984363099
 20
2.810151384579309
 30
0.0
 10
22.98971231466632
 20
2.879075990342231
 30
0.0
  0
SPLINE
  5
163
330
1F
100
AcDbEntity
  8
외형선
  6
Continuous
 62
     1
370
    15
100
AcDbSpline
210
0.0
220
0.0
230
1.0
 70
     8
 71
     3
 72
     8
 73
     4
 74
     0
 42
0.000000001
 43
0.00000001
 40
0.0
 40
0.0
 40
0.0
 40
0.0
 40
1.0
 40
1.0
 40
1.0
 40
1.0
 10
22.98971231466633
 20
2.879075990342232
 30
0.0
 10
23.11354498205449
 20
2.987508174837723
 30
0.0
 10
23.24816307481456
 20
3.063947004575936
 30
0.0
 10
23.38486324640546
 20
3.103209678477897
 30
0.0
  0
SPLINE
  5
164
330
1F
100
AcDbEntity
  8
외형선
  6
Continuous
 62
     1
370
    15
100
AcDbSpline
210
0.0
220
0.0
230
1.0
 70
     8
 71
     3
 72
     8
 73
     4
 74
     0
 42
0.000000001
 43
0.00000001
 40
0.0
 40
0.0
 40
0.0
 40
0.0
 40
1.0
 40
1.0
 40
1.0
 40
1.0
 10
23.38486324640546
 20
3.103209678477894
 30
0.0
 10
23.52331210650357
 20
3.107587136674453
 30
0.0
 10
23.65809297125382
 20
3.071847100810368
 30
0.0
 10
23.77717300225783
 20
2.996462945130275
 30
0.0
  0
SPLINE
  5
165
330
1F
100
AcDbEntity
  8
외형선
  6
Continuous
 62
     1
370
    15
100
AcDbSpline
210
0.0
220
0.0
230
1.0
 70
     8
 71
     3
 72
     8
 73
     4
 74
     0
 42
0.000000001
 43
0.00000001
 40
0.0
 40
0.0
 40
0.0
 40
0.0
 40
1.0
 40
1.0
 40
1.0
 40
1.0
 10
23.77717300225785
 20
2.996462945130276
 30
0.0
 10
23.8515485220614
 20
2.949379183760821
 30
0.0
 10
23.95052049834043
 20
2.952424665431296
 30
0.0
 10
24.02960034892798
 20
3.010609125541177
 30
0.0
  0
SPLINE
  5
166
330
1F
100
AcDbEntity
  8
외형선
  6
Continuous
 62
     1
370
    15
100
AcDbSpline
210
0.0
220
0.0
230
1.0
 70
     8
 71
     3
 72
     8
 73
     4
 74
     0
 42
0.000000001
 43
0.00000001
 40
0.0
 40
0.0
 40
0.0
 40
0.0
 40
1.0
 40
1.0
 40
1.0
 40
1.0
 10
24.02960034892734
 20
3.01060912554038
 30
0.0
 10
24.20912017752226
 20
3.142694153878151
 30
0.0
 10
24.40722698698828
 20
3.191668279165469
 30
0.0
 10
24.6032189679615
 20
3.162221800041232
 30
0.0
  0
SPLINE
  5
167
330
1F
100
AcDbEntity
  8
외형선
  6
Continuous
 62
     1
370
    15
100
AcDbSpline
210
0.0
220
0.0
230
1.0
 70
     8
 71
     3
 72
     8
 73
     4
 74
     0
 42
0.000000001
 43
0.00000001
 40
0.000256322446989
 40
0.000256322446989
 40
0.000256322446989
 40
0.000256322446989
 40
0.0003196818605161
 40
0.0003196818605161
 40
0.0003196818605161
 40
0.0003196818605161
 10
24.64233377565937
 20
3.120734155990523
 30
0.0
 10
24.62931003401122
 20
3.134597170926928
 30
0.0
 10
24.61627155451139
 20
3.148426249747893
 30
0.0
 10
24.60321896796597
 20
3.162221800047754
 30
0.0
  0
SPLINE
  5
168
330
1F
100
AcDbEntity
  8
외형선
  6
Continuous
 62
     1
370
    15
100
AcDbSpline
210
0.0
220
0.0
230
1.0
 70
     8
 71
     3
 72
    18
 73
    14
 74
     0
 42
0.000000001
 43
0.00000001
 40
0.0
 40
0.0
 40
0.0
 40
0.0
 40
0.2500000000000009
 40
0.2500000000000009
 40
0.5000000000000018
 40
0.5000000000000018
 40
0.6250000000000013
 40
0.6250000000000013
 40
0.7500000000000009
 40
0.7500000000000009
 40
0.8750000000000004
 40
0.8750000000000004
 40
1.0
 40
1.0
 40
1.0
 40
1.0
 10
24.64233377565974
 20
3.120734155990508
 30
0.0
 10
24.64730428129503
 20
2.928429724169338
 30
0.0
 10
24.63802492204351
 20
2.737465357386816
 30
0.0
 10
24.57926301938292
 20
2.359317353110078
 30
0.0
 10
24.5287070128099
 20
2.171539499017295
 30
0.0
 10
24.41414030556179
 20
1.916787878490574
 30
0.0
 10
24.36878097787285
 20
1.835013675100536
 30
0.0
 10
24.2670420825144
 20
1.687104016535869
 30
0.0
 10
24.21043376509318
 20
1.620117930449457
 30
0.0
 10
24.08510375334457
 20
1.500855102920656
 30
0.0
 10
24.01634065883843
 20
1.448962421243492
 30
0.0
 10
23.87365973698204
 20
1.365058569286712
 30
0.0
 10
23.79860906287806
 20
1.332094234837155
 30
0.0
 10
23.72097439688359
 20
1.308188953547445
 30
0.0
  0
SPLINE
  5
169
330
1F
100
AcDbEntity
  8
외형선
  6
Continuous
 62
     1
370
    15
100
AcDbSpline
210
0.0
220
0.0
230
1.0
 70
     8
 71
     3
 72
     8
 73
     4
 74
     0
 42
0.000000001
 43
0.00000001
 40
0.0
 40
0.0
 40
0.0
 40
0.0
 40
1.0
 40
1.0
 40
1.0
 40
1.0
 10
24.79963065701557
 20
0.7917171133154425
 30
0.0
 10
24.42986756428594
 20
0.9923889796852919
 30
0.0
 10
24.07048139352173
 20
1.164082933762879
 30
0.0
 10
23.7209743968836
 20
1.308188953547439
 30
0.0
  0
LINE
  5
16A
330
1F
100
AcDbEntity
  8
외형선
  6
Continuous
 62
     1
370
    15
100
AcDbLine
 10
24.79963065701557
 20
0.3872729032093863
 30
0.0
 11
24.79963065701557
 21
0.7917171133154427
 31
0.0
  0
SPLINE
  5
16B
330
1F
100
AcDbEntity
  8
외형선
  6
Continuous
 62
     1
370
    15
100
AcDbSpline
210
0.0
220
0.0
230
1.0
 70
     8
 71
     3
 72
     8
 73
     4
 74
     0
 42
0.000000001
 43
0.00000001
 40
0.0
 40
0.0
 40
0.0
 40
0.0
 40
1.0
 40
1.0
 40
1.0
 40
1.0
 10
24.77196965426741
 20
0.3989637299418158
 30
0.0
 10
24.78116574905386
 20
0.3921502385766456
 30
0.0
 10
24.79038573964216
 20
0.3854243444744239
 30
0.0
 10
24.79963065701557
 20
0.3787874001401476
 30
0.0
  0
SPLINE
  5
16C
330
1F
100
AcDbEntity
  8
외형선
  6
Continuous
 62
     1
370
    15
100
AcDbSpline
210
0.0
220
0.0
230
1.0
 70
     8
 71
     3
 72
     8
 73
     4
 74
     0
 42
0.000000001
 43
0.00000001
 40
0.0
 40
0.0
 40
0.0
 40
0.0
 40
1.0
 40
1.0
 40
1.0
 40
1.0
 10
24.77196965426765
 20
0.3989637299416358
 30
0.0
 10
24.70145182959921
 20
0.44786498806504
 30
0.0
 10
24.61256584847876
 20
0.5081207746276936
 30
0.0
 10
24.54083307507123
 20
0.5630919079107264
 30
0.0
  0
SPLINE
  5
16D
330
1F
100
AcDbEntity
  8
외형선
  6
Continuous
 62
     1
370
    15
100
AcDbSpline
210
0.0
220
0.0
230
1.0
 70
     8
 71
     3
 72
     8
 73
     4
 74
     0
 42
0.000000001
 43
0.00000001
 40
0.0
 40
0.0
 40
0.0
 40
0.0
 40
1.0
 40
1.0
 40
1.0
 40
1.0
 10
23.55066447217108
 20
1.237064705519334
 30
0.0
 10
23.47590270603673
 20
1.269006580740781
 30
0.0
 10
23.37690467137487
 20
1.32920366945092
 30
0.0
 10
23.29829520819831
 20
1.400320562534956
 30
0.0
  0
SPLINE
  5
16E
330
1F
100
AcDbEntity
  8
외형선
  6
Continuous
 62
     1
370
    15
100
AcDbSpline
210
0.0
220
0.0
230
1.0
 70
     8
 71
     3
 72
     8
 73
     4
 74
     0
 42
0.000000001
 43
0.00000001
 40
0.0
 40
0.0
 40
0.0
 40
0.0
 40
1.0
 40
1.0
 40
1.0
 40
1.0
 10
22.51031018857964
 20
1.871984105360689
 30
0.0
 10
22.43566025615179
 20
1.884459792989497
 30
0.0
 10
22.33666570052951
 20
1.935027180163191
 30
0.0
 10
22.25736937269249
 20
2.010346699827493
 30
0.0
  0
SPLINE
  5
16F
330
1F
100
AcDbEntity
  8
외형선
  6
Continuous
 62
     1
370
    15
100
AcDbSpline
210
0.0
220
0.0
230
1.0
 70
     8
 71
     3
 72
     8
 73
     4
 74
     0
 42
0.000000001
 43
0.00000001
 40
0.0
 40
0.0
 40
0.0
 40
0.0
 40
1.0
 40
1.0
 40
1.0
 40
1.0
 10
21.26589489767435
 20
2.478511249500171
 30
0.0
 10
21.19103282201269
 20
2.468284076938821
 30
0.0
 10
21.0921278755861
 20
2.503862304205648
 30
0.0
 10
21.01349904931452
 20
2.578473349780058
 30
0.0
  0
SPLINE
  5
170
330
1F
100
AcDbEntity
  8
외형선
  6
Continuous
 62
     1
370
    15
100
AcDbSpline
210
0.0
220
0.0
230
1.0
 70
     8
 71
     3
 72
     8
 73
     4
 74
     0
 42
0.000000001
 43
0.00000001
 40
0.0
 40
0.0
 40
0.0
 40
0.0
 40
1.0
 40
1.0
 40
1.0
 40
1.0
 10
21.01349904931452
 20
2.57847334978006
 30
0.0
 10
20.88991922771909
 20
2.695738481899518
 30
0.0
 10
20.75543610128972
 20
2.790092694779537
 30
0.0
 10
20.61859428230281
 20
2.851225538812096
 30
0.0
  0
SPLINE
  5
171
330
1F
100
AcDbEntity
  8
외형선
  6
Continuous
 62
     1
370
    15
100
AcDbSpline
210
0.0
220
0.0
230
1.0
 70
     8
 71
     3
 72
     8
 73
     4
 74
     0
 42
0.000000001
 43
0.00000001
 40
0.0
 40
0.0
 40
0.0
 40
0.0
 40
1.0
 40
1.0
 40
1.0
 40
1.0
 10
20.61859428230282
 20
2.851225538812096
 30
0.0
 10
20.48010883976136
 20
2.880856084108533
 30
0.0
 10
20.34496626102319
 20
2.872469125122442
 30
0.0
 10
20.22596899168314
 20
2.824214641513855
 30
0.0
  0
SPLINE
  5
172
330
1F
100
AcDbEntity
  8
외형선
  6
Continuous
 62
     1
370
    15
100
AcDbSpline
210
0.0
220
0.0
230
1.0
 70
     8
 71
     3
 72
     8
 73
     4
 74
     0
 42
0.000000001
 43
0.00000001
 40
0.0
 40
0.0
 40
0.0
 40
0.0
 40
1.0
 40
1.0
 40
1.0
 40
1.0
 10
20.22596899168314
 20
2.824214641513851
 30
0.0
 10
20.15141297929816
 20
2.793981495009691
 30
0.0
 10
20.0524386353346
 20
2.813459992123981
 30
0.0
 10
19.97338539759459
 20
2.881540224555368
 30
0.0
  0
SPLINE
  5
173
330
1F
100
AcDbEntity
  8
외형선
  6
Continuous
 62
     1
370
    15
100
AcDbSpline
210
0.0
220
0.0
230
1.0
 70
     8
 71
     3
 72
    14
 73
    10
 74
     0
 42
0.000000001
 43
0.00000001
 40
0.0
 40
0.0
 40
0.0
 40
0.0
 40
0.153707972577411
 40
0.3122811196159244
 40
0.4397426634762331
 40
0.6231098701699881
 40
0.7896588619513066
 40
0.9610218620661176
 40
0.9999999999999999
 40
0.9999999999999999
 40
0.9999999999999999
 40
0.9999999999999999
 10
19.9733853975944
 20
2.881540224554937
 30
0.0
 10
19.93092499295732
 20
2.915395810581207
 30
0.0
 10
19.84466022427245
 20
2.984178581782048
 30
0.0
 10
19.71593894232632
 20
3.053168221351446
 30
0.0
 10
19.57645328344507
 20
3.105133549852066
 30
0.0
 10
19.43266832896973
 20
3.13168093703706
 30
0.0
 10
19.27757261591337
 20
3.126231710470405
 30
0.0
 10
19.1675578237958
 20
3.10189615454523
 30
0.0
 10
19.10974310533982
 20
3.075901396553836
 30
0.0
 10
19.0990295088865
 20
3.071084329992601
 30
0.0
  0
SPLINE
  5
174
330
1F
100
AcDbEntity
  8
외형선
  6
Continuous
 62
     1
370
    15
100
AcDbSpline
210
0.0
220
0.0
230
1.0
 70
     8
 71
     3
 72
     8
 73
     4
 74
     0
 42
0.000000001
 43
0.00000001
 40
0.0
 40
0.0
 40
0.0
 40
0.0
 40
1.0
 40
1.0
 40
1.0
 40
1.0
 10
18.98147882724138
 20
3.00925668741376
 30
0.0
 10
18.9064622324533
 20
2.959756137435623
 30
0.0
 10
18.80746081271762
 20
2.960285291223525
 30
0.0
 10
18.72882792073999
 20
3.016825908281807
 30
0.0
  0
LINE
  5
177
330
1F
100
AcDbEntity
  8
외형선
  6
Continuous
 62
     1
370
    15
100
AcDbLine
 10
24.79963065701557
 20
-1.622862244781236
 30
0.0
 11
24.79963065701557
 21
0.3787874001401474
 31
0.0
  0
SPLINE
  5
178
330
1F
100
AcDbEntity
  8
외형선
  6
Continuous
 62
     1
370
    15
100
AcDbSpline
210
0.0
220
0.0
230
1.0
 70
     8
 71
     3
 72
     8
 73
     4
 74
     0
 42
0.000000001
 43
0.00000001
 40
0.0001080573747973
 40
0.0001080573747973
 40
0.0001080573747973
 40
0.0001080573747973
 40
0.0003097718223893
 40
0.0003097718223893
 40
0.0003097718223893
 40
0.0003097718223893
 10
24.66949679504761
 20
-1.763926364463968
 30
0.0
 10
24.71302082291605
 20
-1.716930872956196
 30
0.0
 10
24.75640469717009
 20
-1.669909476106912
 30
0.0
 10
24.79963065701557
 20
-1.622862244781237
 30
0.0
  0
SPLINE
  5
179
330
1F
100
AcDbEntity
  8
외형선
  6
Continuous
 62
     1
370
    15
100
AcDbSpline
210
0.0
220
0.0
230
1.0
 70
     8
 71
     3
 72
    10
 73
     6
 74
     0
 42
0.000000001
 43
0.00000001
 40
0.0
 40
0.0
 40
0.0
 40
0.0
 40
0.5
 40
0.5
 40
1.0
 40
1.0
 40
1.0
 40
1.0
 10
24.75778418677152
 20
0.1046226900823593
 30
0.0
 10
24.740628987678
 20
-0.2236346201444478
 30
0.0
 10
24.72451288689925
 20
-0.5484044534076116
 30
0.0
 10
24.69455968060081
 20
-1.187953640592431
 30
0.0
 10
24.68185275017296
 20
-1.486297195740881
 30
0.0
 10
24.66949679504761
 20
-1.76392636446397
 30
0.0
  0
SPLINE
  5
17A
330
1F
100
AcDbEntity
  8
외형선
  6
Continuous
 62
     1
370
    15
100
AcDbSpline
210
0.0
220
0.0
230
1.0
 70
     8
 71
     3
 72
     8
 73
     4
 74
     0
 42
0.000000001
 43
0.00000001
 40
0.0
 40
0.0
 40
0.0
 40
0.0
 40
1.0
 40
1.0
 40
1.0
 40
1.0
 10
24.7719696542673
 20
0.3989637299417204
 30
0.0
 10
24.76767912704753
 20
0.301498139286112
 30
0.0
 10
24.76294570412575
 20
0.2033860908539639
 30
0.0
 10
24.75778418677152
 20
0.1046226900823402
 30
0.0
  0
SPLINE
  5
17B
330
1F
100
AcDbEntity
  8
외형선
  6
Continuous
 62
     1
370
    15
100
AcDbSpline
210
0.0
220
0.0
230
1.0
 70
     8
 71
     3
 72
    12
 73
     8
 74
     0
 42
0.000000001
 43
0.00000001
 40
0.0
 40
0.0
 40
0.0
 40
0.0
 40
0.2499999999999999
 40
0.2499999999999999
 40
0.5
 40
0.5
 40
1.0
 40
1.0
 40
1.0
 40
1.0
 10
13.00350708494295
 20
2.338672521113804
 30
0.0
 10
12.98072168740438
 20
2.213701132031096
 30
0.0
 10
12.95874990428747
 20
2.07851271420149
 30
0.0
 10
12.91231991288388
 20
1.783342737878392
 30
0.0
 10
12.88848186758432
 20
1.624435121402036
 30
0.0
 10
12.81673477137944
 20
1.124009565546012
 30
0.0
 10
12.76926861531013
 20
0.7603655893548146
 30
0.0
 10
12.72456747895555
 20
0.3960161682304885
 30
0.0
  0
SPLINE
  5
17D
330
1F
100
AcDbEntity
  8
외형선
  6
Continuous
 62
     1
370
    15
100
AcDbSpline
210
0.0
220
0.0
230
1.0
 70
     8
 71
     3
 72
    12
 73
     8
 74
     0
 42
0.000000001
 43
0.00000001
 40
0.0
 40
0.0
 40
0.0
 40
0.0
 40
0.25
 40
0.25
 40
0.5
 40
0.5
 40
1.0
 40
1.0
 40
1.0
 40
1.0
 10
17.57221826450918
 20
-0.8043340080518498
 30
0.0
 10
17.5484613392383
 20
-0.9853221786495815
 30
0.0
 10
17.52496786739721
 20
-1.161400841877379
 30
0.0
 10
17.4795477535522
 20
-1.496200355180105
 30
0.0
 10
17.45759155088427
 20
-1.655179535528577
 30
0.0
 10
17.38803077810886
 20
-2.112886466763874
 30
0.0
 10
17.33919270653073
 20
-2.385000259255504
 30
0.0
 10
17.29230796009168
 20
-2.598979588713954
 30
0.0
  0
SPLINE
  5
17E
330
1F
100
AcDbEntity
  8
외형선
  6
Continuous
 62
     1
370
    15
100
AcDbSpline
210
0.0
220
0.0
230
1.0
 70
     8
 71
     3
 72
     8
 73
     4
 74
     0
 42
0.000000001
 43
0.00000001
 40
0.0
 40
0.0
 40
0.0
 40
0.0
 40
1.0
 40
1.0
 40
1.0
 40
1.0
 10
24.66949679504762
 20
-1.763926364463972
 30
0.0
 10
24.66067106130744
 20
-1.767355809640192
 30
0.0
 10
24.65187801315204
 20
-1.770702155728434
 30
0.0
 10
24.64311783797448
 20
-1.773964926304869
 30
0.0
  0
SPLINE
  5
182
330
1F
100
AcDbEntity
  8
외형선
  6
Continuous
370
    15
100
AcDbSpline
210
0.0
220
0.0
230
1.0
 70
    24
 71
     3
 72
    14
 73
    10
 74
     0
 42
0.000000001
 43
0.00000001
 40
0.0
 40
0.0
 40
0.0
 40
0.0
 40
0.2499999999999999
 40
0.2499999999999999
 40
0.4999999999999998
 40
0.4999999999999998
 40
0.7499999999999999
 40
0.7499999999999999
 40
1.0
 40
1.0
 40
1.0
 40
1.0
 10
8.92463065701557
 20
-2.699970464307857
 30
0.0
 10
8.92463065701557
 20
-2.613256605614872
 30
0.0
 10
8.92463065701543
 20
-2.509092026101971
 30
0.0
 10
8.924630657015427
 20
-2.266959092167176
 30
0.0
 10
8.924630657015562
 20
-2.127197792720471
 30
0.0
 10
8.924630657015562
 20
-1.824390459491165
 30
0.0
 10
8.924630657015568
 20
-1.660807090492275
 30
0.0
 10
8.924630657015568
 20
-1.309137431418079
 30
0.0
 10
8.92463065701557
 20
-1.122608913304332
 30
0.0
 10
8.92463065701557
 20
-0.9296752137989287
 30
0.0
  0
SPLINE
  5
183
330
1F
100
AcDbEntity
  8
외형선
  6
Continuous
 62
     1
370
    15
100
AcDbSpline
210
0.0
220
0.0
230
1.0
 70
     8
 71
     3
 72
    10
 73
     6
 74
     0
 42
0.000000001
 43
0.00000001
 40
0.0
 40
0.0
 40
0.0
 40
0.0
 40
0.5
 40
0.5
 40
1.0
 40
1.0
 40
1.0
 40
1.0
 10
20.61859428230302
 20
2.851225538812787
 30
0.0
 10
20.57088019766525
 20
2.686370724946415
 30
0.0
 10
20.52298826994438
 20
2.460326826117968
 30
0.0
 10
20.43420272540635
 20
1.93184159762354
 30
0.0
 10
20.38604747211253
 20
1.615172372328571
 30
0.0
 10
20.33835604592753
 20
1.271892051865601
 30
0.0
  0
SPLINE
  5
184
330
1F
100
AcDbEntity
  8
외형선
  6
Continuous
 62
     1
370
    15
100
AcDbSpline
210
0.0
220
0.0
230
1.0
 70
     8
 71
     3
 72
    12
 73
     8
 74
     0
 42
0.000000001
 43
0.00000001
 40
0.0
 40
0.0
 40
0.0
 40
0.0
 40
0.5000000000000002
 40
0.5000000000000002
 40
0.7500000000000001
 40
0.7500000000000001
 40
1.0
 40
1.0
 40
1.0
 40
1.0
 10
9.958942059764297
 20
-1.641777091874639
 30
0.0
 10
9.913487497286056
 20
-1.957720117646362
 30
0.0
 10
9.864819913894737
 20
-2.246573262483175
 30
0.0
 10
9.793550191604817
 20
-2.59731592983767
 30
0.0
 10
9.770096478779035
 20
-2.700678267192839
 30
0.0
 10
9.724828116574306
 20
-2.876883349678637
 30
0.0
 10
9.70268525806406
 20
-2.950460101749723
 30
0.0
 10
9.679376328071623
 20
-3.009723961726094
 30
0.0
  0
SPLINE
  5
185
330
1F
100
AcDbEntity
  8
외형선
  6
Continuous
 62
     1
370
    15
100
AcDbSpline
210
0.0
220
0.0
230
1.0
 70
     8
 71
     3
 72
    12
 73
     8
 74
     0
 42
0.000000001
 43
0.00000001
 40
0.0
 40
0.0
 40
0.0
 40
0.0
 40
0.5000000000000001
 40
0.5000000000000001
 40
0.75
 40
0.75
 40
1.0
 40
1.0
 40
1.0
 40
1.0
 10
10.72003870749236
 20
3.111205220378972
 30
0.0
 10
10.67511914975972
 20
3.037864309337914
 30
0.0
 10
10.62666503255265
 20
2.898068267228219
 30
0.0
 10
10.55514315002798
 20
2.60234259264401
 30
0.0
 10
10.53151355071088
 20
2.489831103701818
 30
0.0
 10
10.48573595559869
 20
2.243158618546218
 30
0.0
 10
10.46386317364447
 20
2.109801957156266
 30
0.0
 10
10.44075291915248
 20
1.963976908316016
 30
0.0
  0
LINE
  5
186
330
1F
100
AcDbEntity
  8
외형선
  6
Continuous
 62
     1
370
    15
100
AcDbLine
 10
11.38713070777013
 20
-2.983305702145759
 30
0.0
 11
11.37218314426797
 21
-2.988495066373089
 31
0.0
  0
SPLINE
  5
187
330
1F
100
AcDbEntity
  8
외형선
  6
Continuous
 62
     1
370
    15
100
AcDbSpline
210
0.0
220
0.0
230
1.0
 70
     8
 71
     3
 72
    12
 73
     8
 74
     0
 42
0.000000001
 43
0.00000001
 40
0.0
 40
0.0
 40
0.0
 40
0.0
 40
0.25
 40
0.25
 40
0.5
 40
0.5
 40
1.0
 40
1.0
 40
1.0
 40
1.0
 10
19.8570398824416
 20
-2.273772919619013
 30
0.0
 10
19.83316841772859
 20
-2.404547232901084
 30
0.0
 10
19.8092851321976
 20
-2.523363600820933
 30
0.0
 10
19.76259341654626
 20
-2.732139409452734
 30
0.0
 10
19.74028347701658
 20
-2.821567825353803
 30
0.0
 10
19.67285948051216
 20
-3.047135470252251
 30
0.0
 10
19.62445224981349
 20
-3.141282740674034
 30
0.0
 10
19.57688393669041
 20
-3.167312544179361
 30
0.0
  0
LINE
  5
188
330
1F
100
AcDbEntity
  8
외형선
  6
Continuous
 62
     1
370
    15
100
AcDbLine
 10
20.02928734460714
 20
-2.980131527977102
 30
0.0
 11
20.01726400422403
 21
-2.98729677101071
 31
0.0
  0
SPLINE
  5
189
330
1F
100
AcDbEntity
  8
외형선
  6
Continuous
370
    15
100
AcDbSpline
210
0.0
220
0.0
230
1.0
 70
    24
 71
     3
 72
     8
 73
     4
 74
     0
 42
0.000000001
 43
0.00000001
 40
0.0
 40
0.0
 40
0.0
 40
0.0
 40
1.0
 40
1.0
 40
1.0
 40
1.0
 10
8.924630657015571
 20
2.640549678932091
 30
0.0
 10
8.924630657015571
 20
2.80153204334963
 30
0.0
 10
8.92463065701557
 20
2.905712554123886
 30
0.0
 10
8.92463065701557
 20
2.949360134087135
 30
0.0
  0
LINE
  5
18A
330
1F
100
AcDbEntity
  8
외형선
  6
Continuous
370
    15
100
AcDbLine
 10
8.978937474589847
 20
2.995606189539287
 30
0.0
 11
8.97205702744682
 21
2.991209922764972
 31
0.0
  0
SPLINE
  5
18B
330
1F
100
AcDbEntity
  8
외형선
  6
Continuous
 62
     1
370
    15
100
AcDbSpline
210
0.0
220
0.0
230
1.0
 70
     8
 71
     3
 72
    11
 73
     7
 74
     0
 42
0.000000001
 43
0.00000001
 40
0.0
 40
0.0
 40
0.0
 40
0.0
 40
0.048657483261465
 40
0.2649741381413812
 40
0.6305250959798999
 40
1.0
 40
1.0
 40
1.0
 40
1.0
 10
18.29279020997788
 20
3.169882610608393
 30
0.0
 10
18.28887303077563
 20
3.170861885666045
 30
0.0
 10
18.26754124142919
 20
3.176194725488656
 30
0.0
 10
18.21882277095506
 20
3.119430225073559
 30
0.0
 10
18.14333905958206
 20
2.96161619771782
 30
0.0
 10
18.08368550015087
 20
2.714867392199504
 30
0.0
 10
18.05369948974089
 20
2.590834353408973
 30
0.0
  0
LINE
  5
18C
330
1F
100
AcDbEntity
  8
외형선
  6
Continuous
 62
     1
370
    15
100
AcDbLine
 10
17.83927955972296
 20
2.997544938600609
 30
0.0
 11
17.83182003049146
 21
2.99265955263244
 31
0.0
  0
SPLINE
  5
18D
330
1F
100
AcDbEntity
  8
외형선
  6
Continuous
 62
     1
370
    15
100
AcDbSpline
210
0.0
220
0.0
230
1.0
 70
     8
 71
     3
 72
    10
 73
     6
 74
     0
 42
0.000000001
 43
0.00000001
 40
0.0
 40
0.0
 40
0.0
 40
0.0
 40
0.46545944781904
 40
0.9372810649361253
 40
1.0
 40
1.0
 40
1.0
 40
1.0
 10
12.24237437511209
 20
-2.808382840108038
 30
0.0
 10
12.21399775086498
 20
-2.900648393294856
 30
0.0
 10
12.15685663423656
 20
-3.086440638683936
 30
0.0
 10
12.09217448425895
 20
-3.18822097810057
 30
0.0
 10
12.05913255370644
 20
-3.16811406541467
 30
0.0
 10
12.05525566412669
 20
-3.165754872747364
 30
0.0
  0
SPLINE
  5
18F
330
1F
100
AcDbEntity
  8
외형선
  6
Continuous
370
    15
100
AcDbSpline
210
0.0
220
0.0
230
1.0
 70
     8
 71
     3
 72
     8
 73
     4
 74
     0
 42
0.000000001
 43
0.00000001
 40
0.0
 40
0.0
 40
0.0
 40
0.0
 40
0.0001204356388692
 40
0.0001204356388692
 40
0.0001204356388692
 40
0.0001204356388692
 10
8.912274166935294
 20
2.928030290064648
 30
0.0
 10
8.916426407111357
 20
2.936919920371866
 30
0.0
 10
8.920546955044994
 20
2.945043786511688
 30
0.0
 10
8.924630657016271
 20
2.952392133945728
 30
0.0
  0
LINE
  5
190
330
1F
100
AcDbEntity
  8
외형선
  6
Continuous
 62
     1
370
    15
100
AcDbLine
 10
17.62388678608505
 20
2.993485348596328
 30
0.0
 11
17.61960554270118
 21
2.997876047231679
 31
0.0
  0
SPLINE
  5
195
330
1F
100
AcDbEntity
  8
외형선
  6
Continuous
 62
     1
370
    15
100
AcDbSpline
210
0.0
220
0.0
230
1.0
 70
     8
 71
     3
 72
     8
 73
     4
 74
     0
 42
0.000000001
 43
0.00000001
 40
0.0000661226100496
 40
0.0000661226100496
 40
0.0000661226100496
 40
0.0000661226100496
 40
0.0003097718223893
 40
0.0003097718223893
 40
0.0003097718223893
 40
0.0003097718223893
 10
24.64233377565951
 20
3.120734155990347
 30
0.0
 10
24.69497590174552
 20
3.071072971794826
 30
0.0
 10
24.74741846236914
 20
3.021094472325514
 30
0.0
 10
24.79963065701557
 20
2.970761423860896
 30
0.0
  0
LINE
  5
196
330
1F
100
AcDbEntity
  8
외형선
  6
Continuous
 62
     1
370
    15
100
AcDbLine
 10
24.79963065701557
 20
0.3787874001401474
 30
0.0
 11
24.79963065701557
 21
0.3872729032093863
 31
0.0
  0
LINE
  5
197
330
1F
100
AcDbEntity
  8
외형선
  6
Continuous
 62
     1
370
    15
100
AcDbLine
 10
24.79963065701557
 20
0.7917171133154425
 30
0.0
 11
24.79963065701557
 21
2.970761423860895
 31
0.0
  0
SPLINE
  5
198
330
1F
100
AcDbEntity
  8
외형선
  6
Continuous
 62
     1
370
    15
100
AcDbSpline
210
0.0
220
0.0
230
1.0
 70
     8
 71
     3
 72
     9
 73
     5
 74
     0
 42
0.000000001
 43
0.00000001
 40
0.0
 40
0.0
 40
0.0
 40
0.0
 40
0.828537193320435
 40
1.0
 40
1.0
 40
1.0
 40
1.0
 10
22.14181414514753
 20
-3.091173679988334
 30
0.0
 10
22.11416152612455
 20
-3.13673742801249
 30
0.0
 10
22.08078629656827
 20
-3.191730430609701
 30
0.0
 10
22.04851727711493
 20
-3.168061848714192
 30
0.0
 10
22.04298434047066
 20
-3.164003567232263
 30
0.0
  0
LINE
  5
199
330
1F
100
AcDbEntity
  8
외형선
  6
Continuous
 62
     1
370
    15
100
AcDbLine
 10
24.79963065701557
 20
-1.622862244781236
 30
0.0
 11
24.79963065701557
 21
-1.720915759481668
 31
0.0
  0
LINE
  5
19A
330
1F
100
AcDbEntity
  8
외형선
  6
Continuous
 62
     1
370
    15
100
AcDbLine
 10
15.80708668026892
 20
3.154268650449097
 30
0.0
 11
15.76940014065967
 21
3.166294080153292
 31
0.0
  0
SPLINE
  5
19B
330
1F
100
AcDbEntity
  8
외형선
  6
Continuous
 62
     1
370
    15
100
AcDbSpline
210
0.0
220
0.0
230
1.0
 70
     8
 71
     3
 72
     9
 73
     5
 74
     0
 42
0.000000001
 43
0.00000001
 40
0.0
 40
0.0
 40
0.0
 40
0.0
 40
0.3315927720672848
 40
0.9999999999999999
 40
0.9999999999999999
 40
0.9999999999999999
 40
0.9999999999999999
 10
24.60116413364065
 20
3.170431925333384
 30
0.0
 10
24.60129131399109
 20
3.17131511769138
 30
0.0
 10
24.60167485778683
 20
3.173978602641579
 30
0.0
 10
24.60260035735841
 20
3.166931880232615
 30
0.0
 10
24.6032189679615
 20
3.162221800041229
 30
0.0
  0
LINE
  5
19C
330
1F
100
AcDbEntity
  8
외형선
  6
Continuous
 62
     1
370
    15
100
AcDbLine
 10
24.79963065701557
 20
2.970761423860895
 30
0.0
 11
24.79963065701557
 21
2.975000000000003
 31
0.0
  0
LINE
  5
19D
330
1F
100
AcDbEntity
  8
중심선
100
AcDbLine
 10
-40.11286934298444
 20
-0.0000000000000052
 30
0.0
 11
27.79963065701557
 21
0.000000000000003
 31
0.0
  0
LINE
  5
19E
330
1F
100
AcDbEntity
  8
참조1
100
AcDbLine
 10
-6.156619342984435
 20
-0.0000000000000052
 30
0.0
 11
-6.156619342984431
 21
-38.04226164784988
 31
0.0
  0
LINE
  5
19F
330
1F
100
AcDbEntity
  8
참조1
100
AcDbLine
 10
-6.156619342984431
 20
-38.04226164784988
 30
0.0
 11
-21.31496278973688
 21
-38.04226164784988
 31
0.0
  0
CIRCLE
  5
1A0
330
1F
100
AcDbEntity
  8
해칭선
100
AcDbCircle
 10
-0.0000000000000087
 20
-0.0000000000000052
 30
0.0
 40
3.000000000000001
  0
INSERT
  5
1A1
330
1F
100
AcDbEntity
  8
0
  6
Continuous
 62
     7
100
AcDbBlockReference
 66
     1
  2
블럭10
 10
-20.09689227510964
 20
-50.0894359494938
 30
0.0
  0
ATTRIB
  5
1A2
330
1A1
100
AcDbEntity
  8
FORMAT
 62
     2
100
AcDbText
 10
-29.27818756385092
 20
-48.01406903666161
 30
0.0
 40
4.233333333333333
  1
E2191016 [ 3 FLUTE ]
 41
0.75
  7
SLDTEXTSTYLE0
 11
-29.27818756385092
 21
-50.13073570332828
 31
0.0
100
AcDbAttribute
  2
AUTOATTR0
 70
     0
 74
     1
  0
SEQEND
  5
1A3
330
1A1
100
AcDbEntity
  8
0
  6
Continuous
 62
     7
  0
HATCH
  5
1A4
330
1F
100
AcDbEntity
  8
중심선
100
AcDbHatch
 10
0.0
 20
0.0
 30
0.0
210
0.0
220
0.0
230
1.0
  2
SOLID
 70
     1
 71
     0
 91
        1
 92
        0
 93
        4
 72
     1
 10
-14.38198297072879
 20
-33.84226164784987
 11
-17.82825821456607
 21
-33.84226164784987
 72
     1
 10
-17.82825821456607
 20
-33.84226164784987
 11
-19.9564880737701
 21
-36.37858722842247
 72
     1
 10
-19.9564880737701
 20
-36.37858722842247
 11
-16.51017974481966
 21
-36.37854779911998
 72
     1
 10
-16.51017974481966
 20
-36.37854779911998
 11
-14.38198297072879
 21
-33.84226164784987
 97
        0
 75
     0
 76
     1
 98
        1
 10
0.0
 20
0.0
  0
HATCH
  5
1A5
330
1F
100
AcDbEntity
  8
중심선
100
AcDbHatch
 10
0.0
 20
0.0
 30
0.0
210
0.0
220
0.0
230
1.0
  2
SOLID
 70
     1
 71
     0
 91
        1
 92
        0
 93
        4
 72
     1
 10
-9.369218979692839
 20
-33.84226164784987
 11
-12.81549422353009
 21
-33.84226164784987
 72
     1
 10
-12.81549422353009
 20
-33.84226164784987
 11
-17.34663223188751
 21
-39.24226164784989
 72
     1
 10
-17.34663223188751
 20
-39.24226164784989
 11
-13.90035698805023
 21
-39.24226164784989
 72
     1
 10
-13.90035698805023
 20
-39.24226164784989
 11
-9.369218979692839
 21
-33.84226164784987
 97
        0
 75
     0
 76
     1
 98
        1
 10
0.0
 20
0.0
  0
HATCH
  5
1A6
330
1F
100
AcDbEntity
  8
중심선
100
AcDbHatch
 10
0.0
 20
0.0
 30
0.0
210
0.0
220
0.0
230
1.0
  2
SOLID
 70
     1
 71
     0
 91
        1
 92
        0
 93
        4
 72
     1
 10
-4.356454988656972
 20
-33.84226164784987
 11
-7.80273023249406
 21
-33.84226164784984
 72
     1
 10
-7.80273023249406
 20
-33.84226164784984
 11
-14.85116713438331
 21
-42.24226164784989
 72
     1
 10
-14.85116713438331
 20
-42.24226164784989
 11
-11.40489189054603
 21
-42.24226164784989
 72
     1
 10
-11.40489189054603
 20
-42.24226164784989
 11
-4.356454988656972
 21
-33.84226164784987
 97
        0
 75
     0
 76
     1
 98
        1
 10
0.0
 20
0.0
  0
HATCH
  5
1A7
330
1F
100
AcDbEntity
  8
중심선
100
AcDbHatch
 10
0.0
 20
0.0
 30
0.0
210
0.0
220
0.0
230
1.0
  2
SOLID
 70
     1
 71
     0
 91
        1
 92
        0
 93
        6
 72
     3
 10
0.4434354423552556
 20
-38.04226164790114
 11
3.960054785062284
 21
1.540850780301639E-10
 40
0.3939339440162633
 50
17.09539180608433
 51
320.0019657685079
 73
     0
 72
     1
 10
2.126435098055851
 20
-36.63015565248817
 11
4.431736971756889
 21
-34.69582894244025
 72
     3
 10
0.4434354423024089
 20
-38.04226164785002
 11
6.600054785286829
 21
-1.249000902703301E-13
 40
0.6363583540795982
 50
39.99873849337408
 51
368.4976242363725
 73
     1
 72
     1
 10
6.868767934203018
 20
-37.08226164777989
 11
-0.8764972508616689
 21
-37.08226164777989
 72
     1
 10
-0.8764972508616686
 20
-37.08226164777989
 11
-0.8765222953076024
 21
-39.00226164777978
 72
     1
 10
-0.8765222953076024
 20
-39.00226164777978
 11
3.564857474164435
 21
-39.00226164777975
 97
        0
 75
     0
 76
     1
 98
        1
 10
0.0
 20
0.0
  0
DIMENSION
  5
1A8
330
1F
100
AcDbEntity
  8
치수문자_일반주서
100
AcDbDimension
  2
_D
 10
-50.11286934298447
 20
-4.762500000000052
 30
0.0
 11
-50.11286934298449
 21
-0.3630378551438768
 31
0.0
 70
   160
  1
%%c<>
 71
     2
 42
9.525000000000006
  3
SLDDIMSTYLE0
100
AcDbAlignedDimension
 13
-36.61286934298444
 23
4.762500000000003
 33
0.0
 14
-36.61286934298444
 24
-4.762500000000003
 34
0.0
 50
90.0000000000002
100
AcDbRotatedDimension
1001
ACAD
1000
DSTYLE
1002
{
1070
   171
1070
     6
1070
   273
1070
     7
1002
}
  0
DIMENSION
  5
1BD
330
1F
100
AcDbEntity
  8
치수문자_일반주서
100
AcDbDimension
  2
_D_1
 10
39.42463065701559
 20
3.17500000000005
 30
0.0
 11
39.42463065701552
 21
25.09150000000006
 31
0.0
 70
   160
  1
%%c<>
 71
     2
 42
6.35
  3
SLDDIMSTYLE0
100
AcDbAlignedDimension
 13
24.79963065701557
 23
-3.174999999999997
 33
0.0
 14
24.79963065701557
 24
3.175000000000002
 34
0.0
 50
90.0000000000002
100
AcDbRotatedDimension
1001
ACAD
1000
DSTYLE
1002
{
1070
   171
1070
     6
1070
   273
1070
     7
1002
}
  0
DIMENSION
  5
1D1
330
1F
100
AcDbEntity
  8
치수문자_일반주서
100
AcDbDimension
  2
_D_2
 10
8.924630657015657
 20
23.85040522621772
 30
0.0
 11
-7.283619342984343
 21
23.85040522621772
 31
0.0
 70
   160
  1
<>
 71
     2
 42
15.87499999999991
  3
SLDDIMSTYLE1
100
AcDbAlignedDimension
 13
24.79963065701557
 23
2.970761423860895
 33
0.0
 14
8.924630657015657
 24
-0.9296752137989241
 34
0.0
100
AcDbRotatedDimension
1001
ACAD
1000
DSTYLE
1002
{
1070
   171
1070
     6
1070
   273
1070
     7
1002
}
  0
DIMENSION
  5
1E6
330
1F
100
AcDbEntity
  8
치수문자_일반주서
100
AcDbDimension
  2
_D_3
 10
-37.11286934298445
 20
35.03457571291639
 30
0.0
 11
-4.243673208964552
 21
35.03457571291639
 31
0.0
 70
   160
  1
<>
 71
     2
 42
61.91250000000002
  3
SLDDIMSTYLE1
100
AcDbAlignedDimension
 13
24.79963065701557
 23
2.970761423860895
 33
0.0
 14
-37.11286934298445
 24
4.262499999999994
 34
0.0
100
AcDbRotatedDimension
1001
ACAD
1000
DSTYLE
1002
{
1070
   171
1070
     6
1070
   273
1070
     7
1002
}
  0
LINE
  5
1F9
330
1F
100
AcDbEntity
  8
참조1
100
AcDbLine
 10
98.32345799139918
 20
9.397738352150132
 30
0.0
 11
98.32345799139918
 21
-5.482261647849873
 31
0.0
  0
LINE
  5
1FA
330
1F
100
AcDbEntity
  8
참조1
100
AcDbLine
 10
111.0234579913992
 20
7.397738352150131
 30
0.0
 11
98.32345799139918
 21
7.397738352150131
 31
0.0
  0
SOLID
  5
1FB
330
1F
100
AcDbEntity
  8
참조1
100
AcDbTrace
 10
98.32345799139918
 20
7.397738352150131
 30
0.0
 11
104.6734579913992
 21
6.381738352150131
 31
0.0
 12
104.6734579913992
 22
8.41373835215013
 32
0.0
 13
104.6734579913992
 23
8.41373835215013
 33
0.0
  0
LINE
  5
1FC
330
1F
100
AcDbEntity
  8
참조1
100
AcDbLine
 10
111.0234579913992
 20
-3.482261647849873
 30
0.0
 11
98.32345799139918
 21
-3.482261647849873
 31
0.0
  0
SOLID
  5
1FD
330
1F
100
AcDbEntity
  8
참조1
100
AcDbTrace
 10
98.32345799139918
 20
-3.482261647849873
 30
0.0
 11
104.6734579913992
 21
-4.498261647849873
 31
0.0
 12
104.6734579913992
 22
-2.466261647849873
 32
0.0
 13
104.6734579913992
 23
-2.466261647849873
 33
0.0
  0
MTEXT
  5
1FE
330
1F
100
AcDbEntity
  8
참조1
100
AcDbMText
 10
107.9235728019618
 20
13.0234559181662
 30
0.0
 40
3.5
 41
0.0
 71
     1
 72
     1
  1
A
  7
SLDTEXTSTYLE0
 73
     1
 44
1.0
  0
MTEXT
  5
1FF
330
1F
100
AcDbEntity
  8
참조1
100
AcDbMText
 10
107.9235728019618
 20
2.1434559181662
 30
0.0
 40
3.5
 41
0.0
 71
     1
 72
     1
  1
A
  7
SLDTEXTSTYLE0
 73
     1
 44
1.0
  0
INSERT
  5
206
330
1F
100
AcDbEntity
  8
해칭선
100
AcDbBlockReference
  2
SW_DOWELSYMBOL_0
 10
-0.0000000000000087
 20
-0.0000000000000052
 30
0.0
  0
LINE
  5
22F
330
1F
100
AcDbEntity
  8
외형선
  6
Continuous
370
    15
100
AcDbLine
 10
8.924630657015568
 20
3.175000000000002
 30
0.0
 11
8.924630657015568
 21
-3.174999999999997
 31
0.0
  0
LINE
  5
230
330
1F
100
AcDbEntity
  8
외형선
  6
Continuous
370
    15
100
AcDbLine
 10
2.999999999999968
 20
4.762499999999998
 30
0.0
 11
8.924630657015568
 21
3.174999999999994
 31
0.0
  0
LINE
  5
26C
330
1F
100
AcDbEntity
  8
외형선
  6
Continuous
370
    15
100
AcDbLine
 10
-20.83781934298457
 20
3.4925
 30
0.0
 11
-13.70041934298445
 21
3.4925
 31
0.0
  0
LINE
  5
26D
330
1F
100
AcDbEntity
  8
외형선
  6
Continuous
370
    15
100
AcDbLine
 10
-20.83781934298457
 20
3.4925
 30
0.0
 11
-22.10781934298456
 21
4.762499999999982
 31
0.0
  0
LINE
  5
26E
330
1F
100
AcDbEntity
  8
외형선
  6
Continuous
370
    15
100
AcDbLine
 10
-13.70041934298445
 20
3.4925
 30
0.0
 11
-12.43041934298435
 21
4.762499999999982
 31
0.0
  0
LINE
  5
26F
330
1F
100
AcDbEntity
  8
외형선
  6
Continuous
370
    15
100
AcDbLine
 10
-22.10781934298457
 20
4.762499999999998
 30
0.0
 11
-36.61286934298445
 21
4.762499999999996
 31
0.0
  0
ENDSEC
  0
SECTION
  2
OBJECTS
  0
DICTIONARY
  5
C
330
0
100
AcDbDictionary
281
     1
  3
ACAD_GROUP
350
D
  3
ACAD_IMAGE_VARS
350
22A
  3
ACAD_LAYOUT
350
1A
  3
ACAD_MLINESTYLE
350
17
  3
ACAD_PLOTSETTINGS
350
19
  3
ACAD_PLOTSTYLENAME
350
E
  3
ACAD_SCALELIST
350
47
  3
APPDATA
350
228
  3
DWGPROPS
350
271
  0
DICTIONARY
  5
25D
330
2
100
AcDbDictionary
280
     1
281
     1
  3
ACAD_LAYERSTATES
360
25E
  0
DICTIONARY
  5
D
102
{ACAD_REACTORS
330
C
102
}
330
C
100
AcDbDictionary
281
     1
  0
RASTERVARIABLES
  5
22A
102
{ACAD_REACTORS
330
C
102
}
330
C
100
AcDbRasterVariables
 90
        0
 70
     1
 71
     1
 72
     1
  0
DICTIONARY
  5
1A
102
{ACAD_REACTORS
330
C
102
}
330
C
100
AcDbDictionary
281
     1
  3
Layout1
350
1E
  3
Layout2
350
26
  3
Model
350
22
  0
DICTIONARY
  5
17
102
{ACAD_REACTORS
330
C
102
}
330
C
100
AcDbDictionary
281
     1
  3
Standard
350
18
  0
DICTIONARY
  5
19
102
{ACAD_REACTORS
330
C
102
}
330
C
100
AcDbDictionary
281
     1
  0
ACDBDICTIONARYWDFLT
  5
E
102
{ACAD_REACTORS
330
C
102
}
330
C
100
AcDbDictionary
281
     1
  3
Normal
350
F
100
AcDbDictionaryWithDefault
340
F
  0
DICTIONARY
  5
47
102
{ACAD_REACTORS
330
C
102
}
330
C
100
AcDbDictionary
281
     1
  3
A0
350
48
  3
A1
350
49
  3
A2
350
4A
  3
A3
350
4B
  3
A4
350
4C
  3
A5
350
4D
  3
A6
350
4E
  3
A7
350
4F
  3
A8
350
50
  3
A9
350
51
  3
B0
350
52
  3
B1
350
53
  3
B2
350
54
  3
B3
350
55
  3
B4
350
56
  3
B5
350
57
  3
B6
350
58
  3
B7
350
59
  3
B8
350
5A
  3
B9
350
5B
  3
C0
350
5C
  3
C1
350
5D
  3
C2
350
5E
  3
C3
350
5F
  3
C4
350
60
  3
C5
350
61
  3
C6
350
62
  3
C7
350
63
  3
C8
350
64
  3
C9
350
65
  3
D0
350
66
  3
D1
350
67
  3
D2
350
68
  0
DICTIONARY
  5
228
102
{ACAD_REACTORS
330
C
102
}
330
C
100
AcDbDictionary
281
     1
  0
XRECORD
  5
271
102
{ACAD_REACTORS
330
C
102
}
330
C
100
AcDbXrecord
280
     1
  1
DWGPROPS COOKIE
  2

  3

  4

  6

  7

  8
12016016
  9

300
=
301
=
302
=
303
=
304
=
305
=
306
=
307
=
308
=
309
=
 40
0.0
 41
2458318.990014132
 42
2458331.371983831
  1

 90
        0
  0
DICTIONARY
  5
25E
102
{ACAD_REACTORS
330
25D
102
}
330
25D
100
AcDbDictionary
281
     1
  0
LAYOUT
  5
1E
102
{ACAD_REACTORS
330
1A
102
}
330
1A
100
AcDbPlotSettings
  1

  2
none_device
  4

  6

 40
0.0
 41
0.0
 42
0.0
 43
0.0
 44
0.0
 45
0.0
 46
0.0
 47
0.0
 48
0.0
 49
0.0
140
0.0
141
0.0
142
1.0
143
1.0
 70
   688
 72
     1
 73
     0
 74
     5
  7

 75
    16
147
1.0
148
0.0
149
0.0
100
AcDbLayout
  1
Layout1
 70
     1
 71
     1
 10
0.0
 20
0.0
 11
420.0
 21
297.0
 12
0.0
 22
0.0
 32
0.0
 14
1.000000000000000E+20
 24
1.000000000000000E+20
 34
1.000000000000000E+20
 15
-1.000000000000000E+20
 25
-1.000000000000000E+20
 35
-1.000000000000000E+20
146
0.0
 13
0.0
 23
0.0
 33
0.0
 16
1.0
 26
0.0
 36
0.0
 17
0.0
 27
1.0
 37
0.0
 76
     0
330
1B
  0
LAYOUT
  5
26
102
{ACAD_REACTORS
330
1A
102
}
330
1A
100
AcDbPlotSettings
  1

  2
none_device
  4

  6

 40
0.0
 41
0.0
 42
0.0
 43
0.0
 44
0.0
 45
0.0
 46
0.0
 47
0.0
 48
0.0
 49
0.0
140
0.0
141
0.0
142
1.0
143
1.0
 70
   688
 72
     1
 73
     0
 74
     5
  7

 75
    16
147
1.0
148
0.0
149
0.0
100
AcDbLayout
  1
Layout2
 70
     1
 71
     2
 10
0.0
 20
0.0
 11
0.0
 21
0.0
 12
0.0
 22
0.0
 32
0.0
 14
0.0
 24
0.0
 34
0.0
 15
0.0
 25
0.0
 35
0.0
146
0.0
 13
0.0
 23
0.0
 33
0.0
 16
1.0
 26
0.0
 36
0.0
 17
0.0
 27
1.0
 37
0.0
 76
     0
330
23
  0
LAYOUT
  5
22
102
{ACAD_REACTORS
330
1A
102
}
330
1A
100
AcDbPlotSettings
  1

  2
none_device
  4
ANSI_A_(11.00_x_8.50_Inches)
  6

 40
6.35
 41
19.05
 42
6.35000508
 43
19.05000254
 44
279.4
 45
215.9
 46
93.034397451424
 47
83.43208854043168
 48
0.0
 49
0.0
140
0.0
141
0.0
142
0.0633400226764609
143
1.0
 70
  1696
 72
     0
 73
     0
 74
     0
  7

 75
     0
147
0.0235690232323232
148
0.0
149
0.0
100
AcDbLayout
  1
Model
 70
     1
 71
     0
 10
0.0
 20
0.0
 11
420.0
 21
297.0
 12
0.0
 22
0.0
 32
0.0
 14
1.000000000000000E+20
 24
1.000000000000000E+20
 34
1.000000000000000E+20
 15
-1.000000000000000E+20
 25
-1.000000000000000E+20
 35
-1.000000000000000E+20
146
0.0
 13
0.0
 23
0.0
 33
0.0
 16
1.0
 26
0.0
 36
0.0
 17
0.0
 27
1.0
 37
0.0
 76
     0
330
1F
331
29
  0
MLINESTYLE
  5
18
102
{ACAD_REACTORS
330
17
102
}
330
17
100
AcDbMlineStyle
  2
Standard
 70
     0
  3

 62
   256
 51
90.0
 52
90.0
 71
     2
 49
0.5
 62
   256
  6
BYLAYER
 49
-0.5
 62
   256
  6
BYLAYER
  0
ACDBPLACEHOLDER
  5
F
102
{ACAD_REACTORS
330
E
102
}
330
E
  0
SCALE
  5
48
102
{ACAD_REACTORS
330
47
102
}
330
47
100
AcDbScale
 70
     0
300
1:1
140
1.0
141
1.0
290
     1
  0
SCALE
  5
49
102
{ACAD_REACTORS
330
47
102
}
330
47
100
AcDbScale
 70
     0
300
1:2
140
1.0
141
2.0
290
     0
  0
SCALE
  5
4A
102
{ACAD_REACTORS
330
47
102
}
330
47
100
AcDbScale
 70
     0
300
1:4
140
1.0
141
4.0
290
     0
  0
SCALE
  5
4B
102
{ACAD_REACTORS
330
47
102
}
330
47
100
AcDbScale
 70
     0
300
1:5
140
1.0
141
5.0
290
     0
  0
SCALE
  5
4C
102
{ACAD_REACTORS
330
47
102
}
330
47
100
AcDbScale
 70
     0
300
1:8
140
1.0
141
8.0
290
     0
  0
SCALE
  5
4D
102
{ACAD_REACTORS
330
47
102
}
330
47
100
AcDbScale
 70
     0
300
1:10
140
1.0
141
10.0
290
     0
  0
SCALE
  5
4E
102
{ACAD_REACTORS
330
47
102
}
330
47
100
AcDbScale
 70
     0
300
1:16
140
1.0
141
16.0
290
     0
  0
SCALE
  5
4F
102
{ACAD_REACTORS
330
47
102
}
330
47
100
AcDbScale
 70
     0
300
1:20
140
1.0
141
20.0
290
     0
  0
SCALE
  5
50
102
{ACAD_REACTORS
330
47
102
}
330
47
100
AcDbScale
 70
     0
300
1:30
140
1.0
141
30.0
290
     0
  0
SCALE
  5
51
102
{ACAD_REACTORS
330
47
102
}
330
47
100
AcDbScale
 70
     0
300
1:40
140
1.0
141
40.0
290
     0
  0
SCALE
  5
52
102
{ACAD_REACTORS
330
47
102
}
330
47
100
AcDbScale
 70
     0
300
1:50
140
1.0
141
50.0
290
     0
  0
SCALE
  5
53
102
{ACAD_REACTORS
330
47
102
}
330
47
100
AcDbScale
 70
     0
300
1:100
140
1.0
141
100.0
290
     0
  0
SCALE
  5
54
102
{ACAD_REACTORS
330
47
102
}
330
47
100
AcDbScale
 70
     0
300
2:1
140
2.0
141
1.0
290
     0
  0
SCALE
  5
55
102
{ACAD_REACTORS
330
47
102
}
330
47
100
AcDbScale
 70
     0
300
4:1
140
4.0
141
1.0
290
     0
  0
SCALE
  5
56
102
{ACAD_REACTORS
330
47
102
}
330
47
100
AcDbScale
 70
     0
300
8:1
140
8.0
141
1.0
290
     0
  0
SCALE
  5
57
102
{ACAD_REACTORS
330
47
102
}
330
47
100
AcDbScale
 70
     0
300
10:1
140
10.0
141
1.0
290
     0
  0
SCALE
  5
58
102
{ACAD_REACTORS
330
47
102
}
330
47
100
AcDbScale
 70
     0
300
100:1
140
100.0
141
1.0
290
     0
  0
SCALE
  5
59
102
{ACAD_REACTORS
330
47
102
}
330
47
100
AcDbScale
 70
     0
300
1/128" = 1'-0"
140
0.0078125
141
12.0
290
     0
  0
SCALE
  5
5A
102
{ACAD_REACTORS
330
47
102
}
330
47
100
AcDbScale
 70
     0
300
1/64" = 1'-0"
140
0.015625
141
12.0
290
     0
  0
SCALE
  5
5B
102
{ACAD_REACTORS
330
47
102
}
330
47
100
AcDbScale
 70
     0
300
1/32" = 1'-0"
140
0.03125
141
12.0
290
     0
  0
SCALE
  5
5C
102
{ACAD_REACTORS
330
47
102
}
330
47
100
AcDbScale
 70
     0
300
1/16" = 1'-0"
140
0.0625
141
12.0
290
     0
  0
SCALE
  5
5D
102
{ACAD_REACTORS
330
47
102
}
330
47
100
AcDbScale
 70
     0
300
3/32" = 1'-0"
140
0.09375
141
12.0
290
     0
  0
SCALE
  5
5E
102
{ACAD_REACTORS
330
47
102
}
330
47
100
AcDbScale
 70
     0
300
1/8" = 1'-0"
140
0.125
141
12.0
290
     0
  0
SCALE
  5
5F
102
{ACAD_REACTORS
330
47
102
}
330
47
100
AcDbScale
 70
     0
300
3/16" = 1'-0"
140
0.1875
141
12.0
290
     0
  0
SCALE
  5
60
102
{ACAD_REACTORS
330
47
102
}
330
47
100
AcDbScale
 70
     0
300
1/4" = 1'-0"
140
0.25
141
12.0
290
     0
  0
SCALE
  5
61
102
{ACAD_REACTORS
330
47
102
}
330
47
100
AcDbScale
 70
     0
300
3/8" = 1'-0"
140
0.375
141
12.0
290
     0
  0
SCALE
  5
62
102
{ACAD_REACTORS
330
47
102
}
330
47
100
AcDbScale
 70
     0
300
1/2" = 1'-0"
140
0.5
141
12.0
290
     0
  0
SCALE
  5
63
102
{ACAD_REACTORS
330
47
102
}
330
47
100
AcDbScale
 70
     0
300
3/4" = 1'-0"
140
0.75
141
12.0
290
     0
  0
SCALE
  5
64
102
{ACAD_REACTORS
330
47
102
}
330
47
100
AcDbScale
 70
     0
300
1" = 1'-0"
140
1.0
141
12.0
290
     0
  0
SCALE
  5
65
102
{ACAD_REACTORS
330
47
102
}
330
47
100
AcDbScale
 70
     0
300
1-1/2" = 1'-0"
140
1.5
141
12.0
290
     0
  0
SCALE
  5
66
102
{ACAD_REACTORS
330
47
102
}
330
47
100
AcDbScale
 70
     0
300
3" = 1'-0"
140
3.0
141
12.0
290
     0
  0
SCALE
  5
67
102
{ACAD_REACTORS
330
47
102
}
330
47
100
AcDbScale
 70
     0
300
6" = 1'-0"
140
6.0
141
12.0
290
     0
  0
SCALE
  5
68
102
{ACAD_REACTORS
330
47
102
}
330
47
100
AcDbScale
 70
     0
300
1'-0" = 1'-0"
140
12.0
141
12.0
290
     0
  0
ENDSEC
  0
EOF
