  0
SECTION
  2
HEADER
  9
$ACADVER
  1
AC1015
  9
$ACADMAINTVER
 70
     6
  9
$DWGCODEPAGE
  3
ANSI_949
  9
$INSBASE
 10
0.0
 20
0.0
 30
0.0
  9
$EXTMIN
 10
1.000000000000000E+20
 20
1.000000000000000E+20
 30
1.000000000000000E+20
  9
$EXTMAX
 10
-1.000000000000000E+20
 20
-1.000000000000000E+20
 30
-1.000000000000000E+20
  9
$LIMMIN
 10
0.0
 20
0.0
  9
$LIMMAX
 10
420.0
 20
297.0
  9
$ORTHOMODE
 70
     1
  9
$REGENMODE
 70
     1
  9
$FILLMODE
 70
     1
  9
$QTEXTMODE
 70
     0
  9
$MIRRTEXT
 70
     1
  9
$LTSCALE
 40
1.0
  9
$ATTMODE
 70
     1
  9
$TEXTSIZE
 40
3.5
  9
$TRACEWID
 40
1.0
  9
$TEXTSTYLE
  7
Standard
  9
$CLAYER
  8
0
  9
$CELTYPE
  6
ByLayer
  9
$CECOLOR
 62
   256
  9
$CELTSCALE
 40
1.0
  9
$DISPSILH
 70
     0
  9
$DIMSCALE
 40
1.0
  9
$DIMASZ
 40
3.302
  9
$DIMEXO
 40
1.0
  9
$DIMDLI
 40
3.75
  9
$DIMRND
 40
0.0
  9
$DIMDLE
 40
0.0
  9
$DIMEXE
 40
1.0
  9
$DIMTP
 40
0.0
  9
$DIMTM
 40
0.0
  9
$DIMTXT
 40
3.5
  9
$DIMCEN
 40
2.5
  9
$DIMTSZ
 40
0.0
  9
$DIMTOL
 70
     0
  9
$DIMLIM
 70
     0
  9
$DIMTIH
 70
     1
  9
$DIMTOH
 70
     1
  9
$DIMSE1
 70
     0
  9
$DIMSE2
 70
     0
  9
$DIMTAD
 70
     1
  9
$DIMZIN
 70
     0
  9
$DIMBLK
  1

  9
$DIMASO
 70
     1
  9
$DIMSHO
 70
     1
  9
$DIMPOST
  1

  9
$DIMAPOST
  1

  9
$DIMALT
 70
     0
  9
$DIMALTD
 70
     3
  9
$DIMALTF
 40
0.0393700787401575
  9
$DIMLFAC
 40
1.0
  9
$DIMTOFL
 70
     1
  9
$DIMTVP
 40
0.0
  9
$DIMTIX
 70
     0
  9
$DIMSOXD
 70
     0
  9
$DIMSAH
 70
     0
  9
$DIMBLK1
  1

  9
$DIMBLK2
  1

  9
$DIMSTYLE
  2
ISO-25
  9
$DIMCLRD
 70
     0
  9
$DIMCLRE
 70
     0
  9
$DIMCLRT
 70
     0
  9
$DIMTFAC
 40
1.0
  9
$DIMGAP
 40
1.524
  9
$DIMJUST
 70
     0
  9
$DIMSD1
 70
     0
  9
$DIMSD2
 70
     0
  9
$DIMTOLJ
 70
     0
  9
$DIMTZIN
 70
     0
  9
$DIMALTZ
 70
     0
  9
$DIMALTTZ
 70
     0
  9
$DIMUPT
 70
     0
  9
$DIMDEC
 70
     2
  9
$DIMTDEC
 70
     2
  9
$DIMALTU
 70
     2
  9
$DIMALTTD
 70
     3
  9
$DIMTXSTY
  7
Standard
  9
$DIMAUNIT
 70
     0
  9
$DIMADEC
 70
     2
  9
$DIMALTRND
 40
0.0
  9
$DIMAZIN
 70
     0
  9
$DIMDSEP
 70
    44
  9
$DIMATFIT
 70
     3
  9
$DIMFRAC
 70
     0
  9
$DIMLDRBLK
  1

  9
$DIMLUNIT
 70
     2
  9
$DIMLWD
 70
    -2
  9
$DIMLWE
 70
    -2
  9
$DIMTMOVE
 70
     0
  9
$LUNITS
 70
     2
  9
$LUPREC
 70
     2
  9
$SKETCHINC
 40
1.0
  9
$FILLETRAD
 40
10.0
  9
$AUNITS
 70
     0
  9
$AUPREC
 70
     2
  9
$MENU
  1
.
  9
$ELEVATION
 40
0.0
  9
$PELEVATION
 40
0.0
  9
$THICKNESS
 40
0.0
  9
$LIMCHECK
 70
     0
  9
$CHAMFERA
 40
0.0
  9
$CHAMFERB
 40
0.0
  9
$CHAMFERC
 40
0.0
  9
$CHAMFERD
 40
0.0
  9
$SKPOLY
 70
     0
  9
$TDCREATE
 40
2458319.365192523
  9
$TDUCREATE
 40
2458318.990192523
  9
$TDUPDATE
 40
2458331.745278322
  9
$TDUUPDATE
 40
2458331.370278322
  9
$TDINDWG
 40
0.0019360648
  9
$TDUSRTIMER
 40
2458331.368342673
  9
$USRTIMER
 70
     1
  9
$ANGBASE
 50
0.0
  9
$ANGDIR
 70
     0
  9
$PDMODE
 70
     0
  9
$PDSIZE
 40
-1.0
  9
$PLINEWID
 40
0.0
  9
$SPLFRAME
 70
     0
  9
$SPLINETYPE
 70
     6
  9
$SPLINESEGS
 70
     8
  9
$HANDSEED
  5
28B
  9
$SURFTAB1
 70
     6
  9
$SURFTAB2
 70
     6
  9
$SURFTYPE
 70
     6
  9
$SURFU
 70
     6
  9
$SURFV
 70
     6
  9
$UCSBASE
  2

  9
$UCSNAME
  2

  9
$UCSORG
 10
0.0
 20
0.0
 30
0.0
  9
$UCSXDIR
 10
1.0
 20
0.0
 30
0.0
  9
$UCSYDIR
 10
0.0
 20
1.0
 30
0.0
  9
$UCSORTHOREF
  2

  9
$UCSORTHOVIEW
 70
     0
  9
$UCSORGTOP
 10
0.0
 20
0.0
 30
0.0
  9
$UCSORGBOTTOM
 10
0.0
 20
0.0
 30
0.0
  9
$UCSORGLEFT
 10
0.0
 20
0.0
 30
0.0
  9
$UCSORGRIGHT
 10
0.0
 20
0.0
 30
0.0
  9
$UCSORGFRONT
 10
0.0
 20
0.0
 30
0.0
  9
$UCSORGBACK
 10
0.0
 20
0.0
 30
0.0
  9
$PUCSBASE
  2

  9
$PUCSNAME
  2

  9
$PUCSORG
 10
0.0
 20
0.0
 30
0.0
  9
$PUCSXDIR
 10
1.0
 20
0.0
 30
0.0
  9
$PUCSYDIR
 10
0.0
 20
1.0
 30
0.0
  9
$PUCSORTHOREF
  2

  9
$PUCSORTHOVIEW
 70
     0
  9
$PUCSORGTOP
 10
0.0
 20
0.0
 30
0.0
  9
$PUCSORGBOTTOM
 10
0.0
 20
0.0
 30
0.0
  9
$PUCSORGLEFT
 10
0.0
 20
0.0
 30
0.0
  9
$PUCSORGRIGHT
 10
0.0
 20
0.0
 30
0.0
  9
$PUCSORGFRONT
 10
0.0
 20
0.0
 30
0.0
  9
$PUCSORGBACK
 10
0.0
 20
0.0
 30
0.0
  9
$USERI1
 70
     0
  9
$USERI2
 70
     0
  9
$USERI3
 70
     0
  9
$USERI4
 70
     0
  9
$USERI5
 70
     0
  9
$USERR1
 40
0.0
  9
$USERR2
 40
0.0
  9
$USERR3
 40
0.0
  9
$USERR4
 40
0.0
  9
$USERR5
 40
0.0
  9
$WORLDVIEW
 70
     1
  9
$SHADEDGE
 70
     3
  9
$SHADEDIF
 70
    70
  9
$TILEMODE
 70
     1
  9
$MAXACTVP
 70
    64
  9
$PINSBASE
 10
0.0
 20
0.0
 30
0.0
  9
$PLIMCHECK
 70
     0
  9
$PEXTMIN
 10
1.000000000000000E+20
 20
1.000000000000000E+20
 30
1.000000000000000E+20
  9
$PEXTMAX
 10
-1.000000000000000E+20
 20
-1.000000000000000E+20
 30
-1.000000000000000E+20
  9
$PLIMMIN
 10
0.0
 20
0.0
  9
$PLIMMAX
 10
0.0
 20
0.0
  9
$UNITMODE
 70
     0
  9
$VISRETAIN
 70
     1
  9
$PLINEGEN
 70
     0
  9
$PSLTSCALE
 70
     1
  9
$TREEDEPTH
 70
  3020
  9
$CMLSTYLE
  2
Standard
  9
$CMLJUST
 70
     0
  9
$CMLSCALE
 40
20.0
  9
$PROXYGRAPHICS
 70
     1
  9
$MEASUREMENT
 70
     1
  9
$CELWEIGHT
370
    -1
  9
$ENDCAPS
280
     0
  9
$JOINSTYLE
280
     0
  9
$LWDISPLAY
290
     1
  9
$INSUNITS
 70
     4
  9
$HYPERLINKBASE
  1

  9
$STYLESHEET
  1

  9
$XEDIT
290
     1
  9
$CEPSNTYPE
380
     0
  9
$PSTYLEMODE
290
     1
  9
$FINGERPRINTGUID
  2
{36781BE1-4894-4E11-8CFD-0E315AF91F51}
  9
$VERSIONGUID
  2
{FAEB1C32-E019-11D5-929B-00C0DF256EC4}
  9
$EXTNAMES
290
     1
  9
$PSVPSCALE
 40
0.0
  9
$OLESTARTUP
290
     0
  0
ENDSEC
  0
SECTION
  2
CLASSES
  0
CLASS
  1
ACDBDICTIONARYWDFLT
  2
AcDbDictionaryWithDefault
  3
ObjectDBX Classes
 90
        0
280
     0
281
     0
  0
CLASS
  1
VISUALSTYLE
  2
AcDbVisualStyle
  3
ObjectDBX Classes
 90
     4095
280
     0
281
     0
  0
CLASS
  1
MATERIAL
  2
AcDbMaterial
  3
ObjectDBX Classes
 90
     1153
280
     0
281
     0
  0
CLASS
  1
SCALE
  2
AcDbScale
  3
ObjectDBX Classes
 90
     1153
280
     0
281
     0
  0
CLASS
  1
SUN
  2
AcDbSun
  3
SCENEOE
 90
     1153
280
     0
281
     0
  0
CLASS
  1
ACDBPLACEHOLDER
  2
AcDbPlaceHolder
  3
ObjectDBX Classes
 90
        0
280
     0
281
     0
  0
CLASS
  1
LAYOUT
  2
AcDbLayout
  3
ObjectDBX Classes
 90
        0
280
     0
281
     0
  0
CLASS
  1
TABLESTYLE
  2
AcDbTableStyle
  3
ObjectDBX Classes
 90
     4095
280
     0
281
     0
  0
CLASS
  1
MLEADERSTYLE
  2
AcDbMLeaderStyle
  3
ACDB_MLEADERSTYLE_CLASS
 90
     4095
280
     0
281
     0
  0
CLASS
  1
RASTERVARIABLES
  2
AcDbRasterVariables
  3
ISM
 90
        0
280
     0
281
     0
  0
ENDSEC
  0
SECTION
  2
TABLES
  0
TABLE
  2
VPORT
  5
8
330
0
100
AcDbSymbolTable
 70
     1
  0
VPORT
  5
29
330
8
100
AcDbSymbolTableRecord
100
AcDbViewportTableRecord
  2
*Active
 70
     0
 10
0.0
 20
0.0
 11
1.0
 21
1.0
 12
-41.01097958330521
 22
-4.296484518310741
 13
0.0
 23
0.0
 14
10.0
 24
10.0
 15
10.0
 25
10.0
 16
0.0
 26
0.0
 36
1.0
 17
0.0
 27
0.0
 37
0.0
 40
143.2206582440239
 41
1.516441005802708
 42
50.0
 43
0.0
 44
0.0
 50
0.0
 51
0.0
 71
    16
 72
  2000
 73
     1
 74
     3
 75
     0
 76
     0
 77
     0
 78
     0
281
     0
 65
     1
110
0.0
120
0.0
130
0.0
111
1.0
121
0.0
131
0.0
112
0.0
122
1.0
132
0.0
 79
     0
146
0.0
  0
ENDTAB
  0
TABLE
  2
LTYPE
  5
5
330
0
100
AcDbSymbolTable
 70
     6
  0
LTYPE
  5
14
330
5
100
AcDbSymbolTableRecord
100
AcDbLinetypeTableRecord
  2
ByBlock
 70
     0
  3

 72
    65
 73
     0
 40
0.0
  0
LTYPE
  5
15
330
5
100
AcDbSymbolTableRecord
100
AcDbLinetypeTableRecord
  2
ByLayer
 70
     0
  3

 72
    65
 73
     0
 40
0.0
  0
LTYPE
  5
16
330
5
100
AcDbSymbolTableRecord
100
AcDbLinetypeTableRecord
  2
Continuous
 70
     0
  3
Solid line
 72
    65
 73
     0
 40
0.0
  0
LTYPE
  5
6A
330
5
100
AcDbSymbolTableRecord
100
AcDbLinetypeTableRecord
  2
HIDDEN
 70
     0
  3
Hidden __ __ __ __ __ __ __ __ __ __ __ __ __ __
 72
    65
 73
     2
 40
1.905
 49
1.27
 74
     0
 49
-0.635
 74
     0
  0
LTYPE
  5
6B
330
5
100
AcDbSymbolTableRecord
100
AcDbLinetypeTableRecord
  2
PHANTOM
 70
     0
  3
Phantom ______  __  __  ______  __  __  ______
 72
    65
 73
     6
 40
12.7
 49
6.35
 74
     0
 49
-1.27
 74
     0
 49
1.27
 74
     0
 49
-1.27
 74
     0
 49
1.27
 74
     0
 49
-1.27
 74
     0
  0
LTYPE
  5
6C
330
5
100
AcDbSymbolTableRecord
100
AcDbLinetypeTableRecord
  2
CENTER
 70
     0
  3
Center ____ _ ____ _ ____ _ ____ _ ____ _ ____
 72
    65
 73
     4
 40
10.16
 49
6.35
 74
     0
 49
-1.27
 74
     0
 49
1.27
 74
     0
 49
-1.27
 74
     0
  0
LTYPE
  5
6D
330
5
100
AcDbSymbolTableRecord
100
AcDbLinetypeTableRecord
  2
CENTERX2
 70
     0
  3
Center (2x) ________  __  ________  __  _____
 72
    65
 73
     4
 40
20.32
 49
12.7
 74
     0
 49
-2.54
 74
     0
 49
2.54
 74
     0
 49
-2.54
 74
     0
  0
LTYPE
  5
6E
330
5
100
AcDbSymbolTableRecord
100
AcDbLinetypeTableRecord
  2
DOT2
 70
     0
  3
Dot (.5x) ........................................
 72
    65
 73
     2
 40
0.635
 49
0.0
 74
     0
 49
-0.635
 74
     0
  0
ENDTAB
  0
TABLE
  2
LAYER
  5
2
102
{ACAD_XDICTIONARY
360
276
102
}
330
0
100
AcDbSymbolTable
 70
    18
  0
LAYER
  5
10
330
2
100
AcDbSymbolTableRecord
100
AcDbLayerTableRecord
  2
0
 70
     0
 62
     7
  6
Continuous
370
    -3
390
F
  0
LAYER
  5
6F
330
2
100
AcDbSymbolTableRecord
100
AcDbLayerTableRecord
  2
FORMAT
 70
     0
 62
     2
  6
Continuous
370
    -3
390
F
  0
LAYER
  5
70
330
2
100
AcDbSymbolTableRecord
100
AcDbLayerTableRecord
  2
외형선
 70
     0
 62
     4
  6
Continuous
370
    30
390
F
  0
LAYER
  5
71
330
2
100
AcDbSymbolTableRecord
100
AcDbLayerTableRecord
  2
숨은선
 70
     0
 62
     2
  6
HIDDEN
370
    15
390
F
  0
LAYER
  5
72
330
2
100
AcDbSymbolTableRecord
100
AcDbLayerTableRecord
  2
중심선
 70
     0
 62
     1
  6
CENTERX2
370
    -3
390
F
  0
LAYER
  5
73
330
2
100
AcDbSymbolTableRecord
100
AcDbLayerTableRecord
  2
파단선
 70
     0
 62
     4
  6
Continuous
370
    -3
390
F
  0
LAYER
  5
74
330
2
100
AcDbSymbolTableRecord
100
AcDbLayerTableRecord
  2
해칭선
 70
     0
 62
   100
  6
Continuous
370
    -3
390
F
  0
LAYER
  5
75
330
2
100
AcDbSymbolTableRecord
100
AcDbLayerTableRecord
  2
가는실선
 70
     0
 62
     4
  6
Continuous
370
    -3
390
F
  0
LAYER
  5
76
330
2
100
AcDbSymbolTableRecord
100
AcDbLayerTableRecord
  2
치수_보조선
 70
     0
 62
     4
  6
Continuous
370
    -3
390
F
  0
LAYER
  5
77
330
2
100
AcDbSymbolTableRecord
100
AcDbLayerTableRecord
  2
치수문자_일반주서
 70
     0
 62
     7
  6
Continuous
370
    15
390
F
  0
LAYER
  5
78
330
2
100
AcDbSymbolTableRecord
100
AcDbLayerTableRecord
  2
개별주서
 70
     0
 62
   100
  6
Continuous
370
    30
390
F
  0
LAYER
  5
79
330
2
100
AcDbSymbolTableRecord
100
AcDbLayerTableRecord
  2
중간선
 70
     0
 62
     2
  6
Continuous
370
    15
390
F
  0
LAYER
  5
7A
330
2
100
AcDbSymbolTableRecord
100
AcDbLayerTableRecord
  2
윤곽선
 70
     0
 62
     3
  6
Continuous
370
    40
390
F
  0
LAYER
  5
7B
330
2
100
AcDbSymbolTableRecord
100
AcDbLayerTableRecord
  2
중심마크
 70
     0
 62
   100
  6
Continuous
370
    30
390
F
  0
LAYER
  5
7C
330
2
100
AcDbSymbolTableRecord
100
AcDbLayerTableRecord
  2
가상선
 70
     0
 62
     4
  6
PHANTOM
370
    -3
390
F
  0
LAYER
  5
7D
330
2
100
AcDbSymbolTableRecord
100
AcDbLayerTableRecord
  2
특수지정선
 70
     0
 62
     5
  6
CENTERX2
370
    60
390
F
  0
LAYER
  5
7E
330
2
100
AcDbSymbolTableRecord
100
AcDbLayerTableRecord
  2
참조1
 70
     0
 62
    -4
  6
Continuous
370
    -3
390
F
  0
LAYER
  5
242
330
2
100
AcDbSymbolTableRecord
100
AcDbLayerTableRecord
  2
Defpoints
 70
     0
 62
     7
  6
Continuous
290
     0
370
    -3
390
F
  0
ENDTAB
  0
TABLE
  2
STYLE
  5
3
330
0
100
AcDbSymbolTable
 70
     2
  0
STYLE
  5
11
330
3
100
AcDbSymbolTableRecord
100
AcDbTextStyleTableRecord
  2
Standard
 70
     0
 40
0.0
 41
1.0
 50
0.0
 71
     0
 42
3.5
  3
txt
  4

  0
STYLE
  5
94
330
3
100
AcDbSymbolTableRecord
100
AcDbTextStyleTableRecord
  2
SLDTEXTSTYLE0
 70
     0
 40
0.0
 41
0.75
 50
0.0
 71
     0
 42
3.5
  3
TXT
  4

  0
ENDTAB
  0
TABLE
  2
VIEW
  5
6
330
0
100
AcDbSymbolTable
 70
     0
  0
ENDTAB
  0
TABLE
  2
UCS
  5
7
330
0
100
AcDbSymbolTable
 70
     0
  0
ENDTAB
  0
TABLE
  2
APPID
  5
9
330
0
100
AcDbSymbolTable
 70
     1
  0
APPID
  5
12
330
9
100
AcDbSymbolTableRecord
100
AcDbRegAppTableRecord
  2
ACAD
 70
     0
  0
ENDTAB
  0
TABLE
  2
DIMSTYLE
  5
A
330
0
100
AcDbSymbolTable
 70
     4
100
AcDbDimStyleTable
  0
DIMSTYLE
105
27
330
A
100
AcDbSymbolTableRecord
100
AcDbDimStyleTableRecord
  2
ISO-25
 70
     0
 41
2.5
 42
0.625
 43
3.75
 44
1.25
 73
     0
 74
     0
 77
     1
 78
     8
140
2.5
141
2.5
143
0.03937007874016
147
0.625
171
     3
172
     1
178
     0
271
     2
272
     2
274
     3
278
    44
283
     0
284
     8
340
11
  0
DIMSTYLE
105
1BF
102
{ACAD_REACTORS
330
1BE
330
1D3
102
}
330
A
100
AcDbSymbolTableRecord
100
AcDbDimStyleTableRecord
  2
SLDDIMSTYLE0
 70
     0
 41
3.302
 44
0.0
 45
0.000000001
 73
     0
 74
     0
 77
     1
 78
    12
 79
     3
140
3.5
143
0.0393700787401575
147
0.875
148
0.000000001
170
     1
172
     1
173
     1
178
     0
271
     2
272
     2
276
     2
284
    12
289
     0
340
94
  0
DIMSTYLE
105
1E8
102
{ACAD_REACTORS
330
1E7
102
}
330
A
100
AcDbSymbolTableRecord
100
AcDbDimStyleTableRecord
  2
SLDDIMSTYLE1
 70
     0
 41
3.302
 44
0.0
 45
0.000000001
 73
     0
 74
     0
 77
     1
 78
    12
 79
     3
140
3.5
143
0.0393700787401575
147
0.875
148
0.000000001
170
     1
173
     1
178
     0
271
     2
272
     2
276
     2
284
    12
340
94
  0
DIMSTYLE
105
1FD
102
{ACAD_REACTORS
330
1FC
102
}
330
A
100
AcDbSymbolTableRecord
100
AcDbDimStyleTableRecord
  2
SLDDIMSTYLE2
 70
     0
 41
3.302
 44
0.0
 45
0.000000001
 73
     0
 74
     0
 77
     1
 78
     4
 79
     1
140
3.5
143
0.0393700787401575
147
0.875
148
0.000000001
170
     1
173
     1
178
     0
271
     2
272
     2
276
     2
284
    12
340
94
  0
ENDTAB
  0
TABLE
  2
BLOCK_RECORD
  5
1
330
0
100
AcDbSymbolTable
 70
     8
  0
BLOCK_RECORD
  5
1F
330
1
100
AcDbSymbolTableRecord
100
AcDbBlockTableRecord
  2
*Model_Space
340
22
  0
BLOCK_RECORD
  5
1B
330
1
100
AcDbSymbolTableRecord
100
AcDbBlockTableRecord
  2
*Paper_Space
340
1E
  0
BLOCK_RECORD
  5
23
330
1
100
AcDbSymbolTableRecord
100
AcDbBlockTableRecord
  2
*Paper_Space0
340
26
  0
BLOCK_RECORD
  5
7F
330
1
100
AcDbSymbolTableRecord
100
AcDbBlockTableRecord
  2
블럭10
340
0
102
{BLKREFS
331
1B7
102
}
  0
BLOCK_RECORD
  5
1C0
330
1
100
AcDbSymbolTableRecord
100
AcDbBlockTableRecord
  2
_D
340
0
  0
BLOCK_RECORD
  5
1D4
330
1
100
AcDbSymbolTableRecord
100
AcDbBlockTableRecord
  2
_D_1
340
0
  0
BLOCK_RECORD
  5
1E9
330
1
100
AcDbSymbolTableRecord
100
AcDbBlockTableRecord
  2
_D_2
340
0
  0
BLOCK_RECORD
  5
1FE
330
1
100
AcDbSymbolTableRecord
100
AcDbBlockTableRecord
  2
_D_3
340
0
  0
BLOCK_RECORD
  5
217
330
1
100
AcDbSymbolTableRecord
100
AcDbBlockTableRecord
  2
SW_DOWELSYMBOL_0
340
0
102
{BLKREFS
331
21D
102
}
  0
ENDTAB
  0
ENDSEC
  0
SECTION
  2
BLOCKS
  0
BLOCK
  5
20
330
1F
100
AcDbEntity
  8
0
100
AcDbBlockBegin
  2
*Model_Space
 70
     0
 10
0.0
 20
0.0
 30
0.0
  3
*Model_Space
  1
*Model_Space
  0
ENDBLK
  5
21
330
1F
100
AcDbEntity
  8
0
100
AcDbBlockEnd
  0
BLOCK
  5
1C
330
1B
100
AcDbEntity
 67
     1
  8
0
100
AcDbBlockBegin
  2
*Paper_Space
 70
     0
 10
0.0
 20
0.0
 30
0.0
  3
*Paper_Space
  1
*Paper_Space
  0
ENDBLK
  5
1D
330
1B
100
AcDbEntity
 67
     1
  8
0
100
AcDbBlockEnd
  0
BLOCK
  5
24
330
23
100
AcDbEntity
  8
0
100
AcDbBlockBegin
  2
*Paper_Space0
 70
     0
 10
0.0
 20
0.0
 30
0.0
  3
*Paper_Space0
  1
*Paper_Space0
  0
ENDBLK
  5
25
330
23
100
AcDbEntity
  8
0
100
AcDbBlockEnd
  0
BLOCK
  5
80
330
7F
100
AcDbEntity
  8
0
100
AcDbBlockBegin
  2
블럭10
 70
     2
 10
0.0
 20
0.0
 30
0.0
  3
블럭10
  1
블럭10
  0
ELLIPSE
  5
82
330
7F
100
AcDbEntity
  8
중심선
100
AcDbEllipse
 10
20.54032771741204
 20
12.0471743016438
 30
0.0
 11
6.600054785286829
 21
-1.261213355974178E-13
 31
0.0
210
0.0
220
0.0
230
1.0
 40
0.636358354079598
 41
0.9219305317359503
 42
6.513795318482858
  0
ELLIPSE
  5
83
330
7F
100
AcDbEntity
  8
중심선
100
AcDbEllipse
 10
20.54032771746488
 20
12.04717430159265
 30
0.0
 11
3.960054785062283
 21
1.540847449632565E-10
 31
0.0
210
0.0
220
0.0
230
1.0
 40
0.3939339440162632
 41
1.131841032648279
 42
5.62031148352944
  0
LINE
  5
84
330
7F
100
AcDbEntity
  8
중심선
100
AcDbLine
 10
2.268634060543552
 20
16.24717430164393
 30
0.0
 11
5.714909304380834
 21
16.24717430164393
 31
0.0
  0
LINE
  5
85
330
7F
100
AcDbEntity
  8
중심선
100
AcDbLine
 10
5.245725140726316
 20
7.84717430164391
 30
0.0
 11
8.692000384563599
 21
7.84717430164391
 31
0.0
  0
LINE
  5
86
330
7F
100
AcDbEntity
  8
중심선
100
AcDbLine
 10
15.74043728645272
 20
16.24717430164393
 30
0.0
 11
8.692000384563599
 21
7.84717430164391
 31
0.0
  0
LINE
  5
87
330
7F
100
AcDbEntity
  8
중심선
100
AcDbLine
 10
0.1404042013395286
 20
13.71084872107135
 30
0.0
 11
3.58671253028996
 21
13.71088815037384
 31
0.0
  0
LINE
  5
88
330
7F
100
AcDbEntity
  8
중심선
100
AcDbLine
 10
2.750260043222114
 20
10.84717430164391
 30
0.0
 11
6.196535287059397
 21
10.84717430164391
 31
0.0
  0
LINE
  5
89
330
7F
100
AcDbEntity
  8
중심선
100
AcDbLine
 10
12.29416204261559
 20
16.24717430164393
 30
0.0
 11
5.245725140726316
 21
7.84717430164391
 31
0.0
  0
LINE
  5
8A
330
7F
100
AcDbEntity
  8
중심선
100
AcDbLine
 10
10.72767329541681
 20
16.24717430164393
 30
0.0
 11
6.196535287059397
 21
10.84717430164391
 31
0.0
  0
LINE
  5
8B
330
7F
100
AcDbEntity
  8
중심선
100
AcDbLine
 10
7.28139805157953
 20
16.24717430164393
 30
0.0
 11
2.750260043222114
 21
10.84717430164391
 31
0.0
  0
LINE
  5
8C
330
7F
100
AcDbEntity
  8
중심선
100
AcDbLine
 10
5.714909304380834
 20
16.24717430164393
 30
0.0
 11
3.58671253028996
 21
13.71088815037384
 31
0.0
  0
LINE
  5
8D
330
7F
100
AcDbEntity
  8
중심선
100
AcDbLine
 10
2.268634060543552
 20
16.24717430164393
 30
0.0
 11
0.1404042013395286
 21
13.71084872107135
 31
0.0
  0
LINE
  5
8E
330
7F
100
AcDbEntity
  8
중심선
100
AcDbLine
 10
7.28139805157953
 20
16.24717430164393
 30
0.0
 11
10.72767329541681
 21
16.24717430164393
 31
0.0
  0
LINE
  5
8F
330
7F
100
AcDbEntity
  8
중심선
100
AcDbLine
 10
12.29416204261559
 20
16.24717430164393
 30
0.0
 11
15.74043728645272
 21
16.24717430164393
 31
0.0
  0
LINE
  5
90
330
7F
100
AcDbEntity
  8
중심선
100
AcDbLine
 10
19.22036997980202
 20
11.08717430171403
 30
0.0
 11
23.66174974927406
 21
11.08717430171406
 31
0.0
  0
LINE
  5
91
330
7F
100
AcDbEntity
  8
중심선
100
AcDbLine
 10
19.22039502424796
 20
13.00717430171391
 30
0.0
 11
19.22036997980202
 21
11.08717430171403
 31
0.0
  0
LINE
  5
92
330
7F
100
AcDbEntity
  8
중심선
100
AcDbLine
 10
19.22039502424796
 20
13.00717430171391
 30
0.0
 11
26.96566020931264
 21
13.00717430171391
 31
0.0
  0
LINE
  5
93
330
7F
100
AcDbEntity
  8
중심선
100
AcDbLine
 10
22.22332737316547
 20
13.45928029700563
 30
0.0
 11
24.52862924686651
 21
15.39360700705356
 31
0.0
  0
ATTDEF
  5
95
330
7F
100
AcDbEntity
  8
FORMAT
 62
     2
100
AcDbText
 10
-9.18129528874128
 20
2.075366912832191
 30
0.0
 40
4.233333333333333
  1
E2191020 [ 3 FLUTE ]
 41
0.75
  7
SLDTEXTSTYLE0
 11
-9.18129528874128
 21
-0.0412997538344756
 31
0.0
100
AcDbAttributeDefinition
  3

  2
AUTOATTR0
 70
     0
 74
     1
  0
ENDBLK
  5
81
330
7F
100
AcDbEntity
  8
0
100
AcDbBlockEnd
  0
BLOCK
  5
1C1
330
1C0
100
AcDbEntity
  8
0
100
AcDbBlockBegin
  2
_D
 70
     0
 10
0.0
 20
0.0
 30
0.0
  3
_D
  1
_D
  0
LINE
  5
1C3
330
1C0
100
AcDbEntity
  8
치수문자_일반주서
 62
     0
370
    -2
100
AcDbLine
 10
-38.05018467149223
 20
4.762500000000008
 30
0.0
 11
-51.4876846714923
 21
4.762499999999958
 31
0.0
  0
LINE
  5
1C4
330
1C0
100
AcDbEntity
  8
치수문자_일반주서
 62
     0
370
    -2
100
AcDbLine
 10
-38.05018467149223
 20
-4.762499999999998
 30
0.0
 11
-51.48768467149226
 21
-4.762500000000048
 31
0.0
  0
LINE
  5
1C5
330
1C0
100
AcDbEntity
  8
치수문자_일반주서
 62
     0
370
    -2
100
AcDbLine
 10
-51.48768467149228
 20
1.460499999999958
 30
0.0
 11
-51.48768467149227
 21
-1.460500000000049
 31
0.0
  0
SOLID
  5
1C6
330
1C0
100
AcDbEntity
  8
치수문자_일반주서
 62
     0
100
AcDbTrace
 10
-50.93735133815895
 20
1.46049999999996
 30
0.0
 11
-52.03801800482562
 21
1.460499999999956
 31
0.0
 12
-51.4876846714923
 22
4.762499999999958
 32
0.0
 13
-51.4876846714923
 23
4.762499999999958
 33
0.0
  0
SOLID
  5
1C7
330
1C0
100
AcDbEntity
  8
치수문자_일반주서
 62
     0
100
AcDbTrace
 10
-52.03801800482561
 20
-1.460500000000051
 30
0.0
 11
-50.93735133815894
 21
-1.460500000000047
 31
0.0
 12
-51.48768467149226
 22
-4.762500000000048
 32
0.0
 13
-51.48768467149226
 23
-4.762500000000048
 33
0.0
  0
MTEXT
  5
1C8
330
1C0
100
AcDbEntity
  8
치수문자_일반주서
 62
     0
100
AcDbMText
 10
-55.86268467149227
 20
-0.3630378551438878
 30
0.0
 40
3.5
 41
0.0
 71
     2
 72
     1
  1
\A1;%%c9.53 [3/8]
  7
SLDTEXTSTYLE0
 11
-3.729883127349605E-15
 21
1.0
 31
0.0
 73
     1
 44
1.0
  0
POINT
  5
1C9
330
1C0
100
AcDbEntity
  8
Defpoints
 62
     0
100
AcDbPoint
 10
-37.98768467149223
 20
4.762500000000008
 30
0.0
  0
POINT
  5
1CA
330
1C0
100
AcDbEntity
  8
Defpoints
 62
     0
100
AcDbPoint
 10
-37.98768467149223
 20
-4.762499999999998
 30
0.0
  0
POINT
  5
1CB
330
1C0
100
AcDbEntity
  8
Defpoints
 62
     0
100
AcDbPoint
 10
-51.48768467149226
 20
-4.762500000000048
 30
0.0
  0
ENDBLK
  5
1C2
330
1C0
100
AcDbEntity
  8
0
100
AcDbBlockEnd
  0
BLOCK
  5
1D5
330
1D4
100
AcDbEntity
  8
0
100
AcDbBlockBegin
  2
_D_1
 70
     0
 10
0.0
 20
0.0
 30
0.0
  3
_D_1
  1
_D_1
  0
LINE
  5
1D7
330
1D4
100
AcDbEntity
  8
치수문자_일반주서
 62
     0
370
    -2
100
AcDbLine
 10
25.07481532850779
 20
-3.968749999999991
 30
0.0
 11
44.01231532850785
 21
-3.968749999999918
 31
0.0
  0
LINE
  5
1D8
330
1D4
100
AcDbEntity
  8
치수문자_일반주서
 62
     0
370
    -2
100
AcDbLine
 10
25.07481532850779
 20
3.968750000000009
 30
0.0
 11
44.01231532850782
 21
3.968750000000082
 31
0.0
  0
LINE
  5
1D9
330
1D4
100
AcDbEntity
  8
치수문자_일반주서
 62
     0
370
    -2
100
AcDbLine
 10
44.01231532850782
 20
3.968750000000082
 30
0.0
 11
44.0123153285077
 21
39.88525000000007
 31
0.0
  0
LINE
  5
1DA
330
1D4
100
AcDbEntity
  8
치수문자_일반주서
 62
     0
370
    -2
100
AcDbLine
 10
44.01231532850785
 20
-3.968749999999918
 30
0.0
 11
44.01231532850782
 21
3.968750000000082
 31
0.0
  0
LINE
  5
1DB
330
1D4
100
AcDbEntity
  8
치수문자_일반주서
 62
     0
370
    -2
100
AcDbLine
 10
44.01231532850787
 20
-7.270749999999918
 30
0.0
 11
44.01231532850788
 21
-10.57274999999992
 31
0.0
  0
LINE
  5
1DC
330
1D4
100
AcDbEntity
  8
치수문자_일반주서
 62
     0
370
    -2
100
AcDbLine
 10
44.01231532850781
 20
7.270750000000081
 30
0.0
 11
44.0123153285078
 21
10.57275000000008
 31
0.0
  0
SOLID
  5
1DD
330
1D4
100
AcDbEntity
  8
치수문자_일반주서
 62
     0
100
AcDbTrace
 10
44.5626486618412
 20
-7.270749999999916
 30
0.0
 11
43.46198199517453
 21
-7.27074999999992
 31
0.0
 12
44.01231532850785
 22
-3.968749999999918
 32
0.0
 13
44.01231532850785
 23
-3.968749999999918
 33
0.0
  0
SOLID
  5
1DE
330
1D4
100
AcDbEntity
  8
치수문자_일반주서
 62
     0
100
AcDbTrace
 10
43.46198199517448
 20
7.27075000000008
 30
0.0
 11
44.56264866184114
 21
7.270750000000083
 31
0.0
 12
44.01231532850782
 22
3.968750000000082
 32
0.0
 13
44.01231532850782
 23
3.968750000000082
 33
0.0
  0
MTEXT
  5
1DF
330
1D4
100
AcDbEntity
  8
치수문자_일반주서
 62
     0
100
AcDbMText
 10
39.63731532850775
 20
25.88525000000006
 30
0.0
 40
3.5
 41
0.0
 71
     2
 72
     1
  1
\A1;%%c7.94 [5/16]
  7
SLDTEXTSTYLE0
 11
-3.580687802255623E-15
 21
1.0
 31
0.0
 73
     1
 44
1.0
  0
POINT
  5
1E0
330
1D4
100
AcDbEntity
  8
Defpoints
 62
     0
100
AcDbPoint
 10
25.01231532850779
 20
-3.968749999999991
 30
0.0
  0
POINT
  5
1E1
330
1D4
100
AcDbEntity
  8
Defpoints
 62
     0
100
AcDbPoint
 10
25.01231532850779
 20
3.968750000000009
 30
0.0
  0
POINT
  5
1E2
330
1D4
100
AcDbEntity
  8
Defpoints
 62
     0
100
AcDbPoint
 10
44.01231532850782
 20
3.96875000000008
 30
0.0
  0
ENDBLK
  5
1D6
330
1D4
100
AcDbEntity
  8
0
100
AcDbBlockEnd
  0
BLOCK
  5
1EA
330
1E9
100
AcDbEntity
  8
0
100
AcDbBlockBegin
  2
_D_2
 70
     0
 10
0.0
 20
0.0
 30
0.0
  3
_D_2
  1
_D_2
  0
LINE
  5
1EC
330
1E9
100
AcDbEntity
  8
치수문자_일반주서
 62
     0
370
    -2
100
AcDbLine
 10
25.01231532850779
 20
3.826022169603072
 30
0.0
 11
25.01231532850779
 21
17.29972008757571
 31
0.0
  0
LINE
  5
1ED
330
1E9
100
AcDbEntity
  8
치수문자_일반주서
 62
     0
370
    -2
100
AcDbLine
 10
5.962315328507791
 20
-1.660727518301193
 30
0.0
 11
5.962315328507792
 21
17.29972008757571
 31
0.0
  0
LINE
  5
1EE
330
1E9
100
AcDbEntity
  8
치수문자_일반주서
 62
     0
370
    -2
100
AcDbLine
 10
5.962315328507792
 20
17.29972008757571
 30
0.0
 11
-22.49593467149221
 21
17.29972008757571
 31
0.0
  0
LINE
  5
1EF
330
1E9
100
AcDbEntity
  8
치수문자_일반주서
 62
     0
370
    -2
100
AcDbLine
 10
21.71031532850779
 20
17.29972008757571
 30
0.0
 11
9.264315328507791
 21
17.29972008757571
 31
0.0
  0
SOLID
  5
1F0
330
1E9
100
AcDbEntity
  8
치수문자_일반주서
 62
     0
100
AcDbTrace
 10
21.71031532850779
 20
16.74938675424238
 30
0.0
 11
21.71031532850779
 21
17.85005342090905
 31
0.0
 12
25.01231532850779
 22
17.29972008757571
 32
0.0
 13
25.01231532850779
 23
17.29972008757571
 33
0.0
  0
SOLID
  5
1F1
330
1E9
100
AcDbEntity
  8
치수문자_일반주서
 62
     0
100
AcDbTrace
 10
9.264315328507791
 20
17.85005342090905
 30
0.0
 11
9.264315328507791
 21
16.74938675424238
 31
0.0
 12
5.962315328507792
 22
17.29972008757571
 32
0.0
 13
5.962315328507792
 23
17.29972008757571
 33
0.0
  0
MTEXT
  5
1F2
330
1E9
100
AcDbEntity
  8
치수문자_일반주서
 62
     0
100
AcDbMText
 10
-10.02718467149221
 20
21.67472008757571
 30
0.0
 40
3.5
 41
0.0
 71
     2
 72
     1
  1
\A1;19.05 [3/4]
  7
SLDTEXTSTYLE0
 73
     1
 44
1.0
  0
POINT
  5
1F3
330
1E9
100
AcDbEntity
  8
Defpoints
 62
     0
100
AcDbPoint
 10
25.01231532850779
 20
3.763522169603072
 30
0.0
  0
POINT
  5
1F4
330
1E9
100
AcDbEntity
  8
Defpoints
 62
     0
100
AcDbPoint
 10
5.962315328507791
 20
-1.723227518301193
 30
0.0
  0
POINT
  5
243
330
1E9
100
AcDbEntity
  8
Defpoints
 62
     0
100
AcDbPoint
 10
5.962315328507791
 20
17.29972008757571
 30
0.0
  0
ENDBLK
  5
1EB
330
1E9
100
AcDbEntity
  8
0
100
AcDbBlockEnd
  0
BLOCK
  5
1FF
330
1FE
100
AcDbEntity
  8
0
100
AcDbBlockBegin
  2
_D_3
 70
     0
 10
0.0
 20
0.0
 30
0.0
  3
_D_3
  1
_D_3
  0
LINE
  5
201
330
1FE
100
AcDbEntity
  8
치수문자_일반주서
 62
     0
370
    -2
100
AcDbLine
 10
25.01231532850779
 20
3.826022169603072
 30
0.0
 11
25.01231532850779
 21
33.92107307527675
 31
0.0
  0
LINE
  5
202
330
1FE
100
AcDbEntity
  8
치수문자_일반주서
 62
     0
370
    -2
100
AcDbLine
 10
-38.48768467149222
 20
4.324999999999998
 30
0.0
 11
-38.48768467149222
 21
33.92107307527675
 31
0.0
  0
LINE
  5
203
330
1FE
100
AcDbEntity
  8
치수문자_일반주서
 62
     0
370
    -2
100
AcDbLine
 10
21.71031532850779
 20
33.92107307527675
 30
0.0
 11
-35.18568467149222
 21
33.92107307527675
 31
0.0
  0
SOLID
  5
204
330
1FE
100
AcDbEntity
  8
치수문자_일반주서
 62
     0
100
AcDbTrace
 10
21.71031532850779
 20
33.37073974194342
 30
0.0
 11
21.71031532850779
 21
34.47140640861009
 31
0.0
 12
25.01231532850779
 22
33.92107307527675
 32
0.0
 13
25.01231532850779
 23
33.92107307527675
 33
0.0
  0
SOLID
  5
205
330
1FE
100
AcDbEntity
  8
치수문자_일반주서
 62
     0
100
AcDbTrace
 10
-35.18568467149222
 20
34.47140640861009
 30
0.0
 11
-35.18568467149222
 21
33.37073974194342
 31
0.0
 12
-38.48768467149222
 22
33.92107307527675
 32
0.0
 13
-38.48768467149222
 23
33.92107307527675
 33
0.0
  0
MTEXT
  5
206
330
1FE
100
AcDbEntity
  8
치수문자_일반주서
 62
     0
100
AcDbMText
 10
-5.02973059824266
 20
38.29607307527675
 30
0.0
 40
3.5
 41
0.0
 71
     2
 72
     1
  1
\A1;63.50 [2 1/2]
  7
SLDTEXTSTYLE0
 73
     1
 44
1.0
  0
POINT
  5
207
330
1FE
100
AcDbEntity
  8
Defpoints
 62
     0
100
AcDbPoint
 10
25.01231532850779
 20
3.763522169603072
 30
0.0
  0
POINT
  5
208
330
1FE
100
AcDbEntity
  8
Defpoints
 62
     0
100
AcDbPoint
 10
-38.48768467149222
 20
4.262499999999998
 30
0.0
  0
POINT
  5
209
330
1FE
100
AcDbEntity
  8
Defpoints
 62
     0
100
AcDbPoint
 10
-38.48768467149222
 20
33.92107307527675
 30
0.0
  0
ENDBLK
  5
200
330
1FE
100
AcDbEntity
  8
0
100
AcDbBlockEnd
  0
BLOCK
  5
218
330
217
100
AcDbEntity
  8
0
100
AcDbBlockBegin
  2
SW_DOWELSYMBOL_0
 70
     0
 10
0.0
 20
0.0
 30
0.0
  3
SW_DOWELSYMBOL_0
  1
SW_DOWELSYMBOL_0
  0
CIRCLE
  5
21A
330
217
100
AcDbEntity
  8
해칭선
 62
     0
100
AcDbCircle
 10
0.0
 20
0.0
 30
0.0
 40
3.000000000000001
  0
HATCH
  5
21B
330
217
100
AcDbEntity
  8
0
  6
Continuous
 62
     0
370
     0
100
AcDbHatch
 10
0.0
 20
0.0
 30
0.0
210
0.0
220
0.0
230
1.0
  2
SOLID
 70
     1
 71
     0
 91
        1
 92
        0
 93
        3
 72
     2
 10
0.0
 20
0.0
 40
3.000000000000001
 50
0.0
 51
90.0
 73
     1
 72
     1
 10
0.0
 20
3.000000000000001
 11
0.0
 21
0.0
 72
     1
 10
0.0
 20
0.0
 11
3.000000000000001
 21
0.0
 97
        0
 75
     0
 76
     1
 98
        1
 10
0.0
 20
0.0
  0
HATCH
  5
21C
330
217
100
AcDbEntity
  8
0
  6
Continuous
 62
     0
370
     0
100
AcDbHatch
 10
0.0
 20
0.0
 30
0.0
210
0.0
220
0.0
230
1.0
  2
SOLID
 70
     1
 71
     0
 91
        1
 92
        0
 93
        3
 72
     2
 10
0.0
 20
0.0
 40
3.000000000000001
 50
180.0
 51
270.0000000000008
 73
     1
 72
     1
 10
0.0
 20
-3.000000000000001
 11
0.0
 21
0.0
 72
     1
 10
0.0
 20
0.0
 11
-3.000000000000001
 21
0.0
 97
        0
 75
     0
 76
     1
 98
        1
 10
0.0
 20
0.0
  0
ENDBLK
  5
219
330
217
100
AcDbEntity
  8
0
100
AcDbBlockEnd
  0
ENDSEC
  0
SECTION
  2
ENTITIES
  0
LINE
  5
96
330
1F
100
AcDbEntity
  8
외형선
  6
Continuous
370
    15
100
AcDbLine
 10
3.781505126815691
 20
4.762500000000006
 30
0.0
 11
-13.8052346714921
 21
4.762500000000003
 31
0.0
  0
LINE
  5
97
330
1F
100
AcDbEntity
  8
외형선
  6
Continuous
370
    15
100
AcDbLine
 10
-37.98768467149221
 20
-4.7625
 30
0.0
 11
3.781505126815666
 21
-4.762499999999995
 31
0.0
  0
LINE
  5
98
330
1F
100
AcDbEntity
  8
외형선
  6
Continuous
370
    15
100
AcDbLine
 10
-37.98768467149221
 20
4.7625
 30
0.0
 11
-38.48768467149222
 21
4.262499999999997
 31
0.0
  0
LINE
  5
99
330
1F
100
AcDbEntity
  8
외형선
  6
Continuous
370
    15
100
AcDbLine
 10
-38.48768467149222
 20
-4.262499999999998
 30
0.0
 11
-37.98768467149221
 21
-4.762500000000002
 31
0.0
  0
SPLINE
  5
A3
330
1F
100
AcDbEntity
  8
외형선
  6
Continuous
 62
     1
370
    15
100
AcDbSpline
210
0.0
220
0.0
230
1.0
 70
     8
 71
     3
 72
     9
 73
     5
 74
     0
 42
0.000000001
 43
0.00000001
 40
0.0
 40
0.0
 40
0.0
 40
0.0
 40
0.35925335268832
 40
1.0
 40
1.0
 40
1.0
 40
1.0
 10
6.801052156169805
 20
3.856727976947303
 30
0.0
 10
6.782501841302811
 20
3.847002607431683
 30
0.0
 10
6.730866095308566
 20
3.819931546179658
 30
0.0
 10
6.681958403452719
 20
3.777788325160667
 30
0.0
 10
6.650620963868332
 20
3.750785197585833
 30
0.0
  0
SPLINE
  5
A4
330
1F
100
AcDbEntity
  8
외형선
  6
Continuous
 62
     1
370
    15
100
AcDbSpline
210
0.0
220
0.0
230
1.0
 70
     8
 71
     3
 72
     9
 73
     5
 74
     0
 42
0.000000001
 43
0.00000001
 40
0.0
 40
0.0
 40
0.0
 40
0.0
 40
0.5044601008723121
 40
1.0
 40
1.0
 40
1.0
 40
1.0
 10
18.64497276927133
 20
-3.958266233000587
 30
0.0
 10
18.72637071104256
 20
-3.94231293267629
 30
0.0
 10
18.88772726160123
 20
-3.910688428980735
 30
0.0
 10
19.03107722616942
 20
-3.824314063109742
 30
0.0
 10
19.10211285315149
 20
-3.781512118558811
 30
0.0
  0
LINE
  5
A5
330
1F
100
AcDbEntity
  8
외형선
  6
Continuous
 62
     1
370
    15
100
AcDbLine
 10
7.566038389356604
 20
-3.880994921674169
 30
0.0
 11
7.721045823976385
 21
-3.801330464479755
 31
0.0
  0
SPLINE
  5
A6
330
1F
100
AcDbEntity
  8
외형선
  6
Continuous
 62
     1
370
    15
100
AcDbSpline
210
0.0
220
0.0
230
1.0
 70
     8
 71
     3
 72
    11
 73
     7
 74
     0
 42
0.000000001
 43
0.00000001
 40
0.0
 40
0.0
 40
0.0
 40
0.0
 40
0.0211448139111034
 40
0.3519640508021286
 40
0.6827261719906424
 40
1.0
 40
1.0
 40
1.0
 40
1.0
 10
17.55461210316216
 20
3.916676405172192
 30
0.0
 10
17.54884620629982
 20
3.919290210100523
 30
0.0
 10
17.45287050158526
 20
3.962798059091273
 30
0.0
 10
17.24087236612423
 20
3.972519656674193
 30
0.0
 10
16.94601353096367
 20
3.937019937630576
 30
0.0
 10
16.77229125397451
 20
3.842717632166698
 30
0.0
 10
16.68723805299226
 20
3.796547888834301
 30
0.0
  0
SPLINE
  5
A7
330
1F
100
AcDbEntity
  8
외형선
  6
Continuous
 62
     1
370
    15
100
AcDbSpline
210
0.0
220
0.0
230
1.0
 70
     8
 71
     3
 72
     9
 73
     5
 74
     0
 42
0.000000001
 43
0.00000001
 40
0.0
 40
0.0
 40
0.0
 40
0.0
 40
0.7342213609250836
 40
1.0
 40
1.0
 40
1.0
 40
1.0
 10
6.668084618587153
 20
3.776914883937279
 30
0.0
 10
6.658638430660393
 20
3.775815642492718
 30
0.0
 10
6.645772844844616
 20
3.774318489858564
 30
0.0
 10
6.628237706028478
 20
3.772478564854761
 30
0.0
 10
6.623577240697935
 20
3.771989552091251
 30
0.0
  0
SPLINE
  5
A8
330
1F
100
AcDbEntity
  8
외형선
  6
Continuous
 62
     1
370
    15
100
AcDbSpline
210
0.0
220
0.0
230
1.0
 70
     8
 71
     3
 72
     9
 73
     5
 74
     0
 42
0.000000001
 43
0.00000001
 40
0.0
 40
0.0
 40
0.0
 40
0.0
 40
0.200496340079866
 40
1.0
 40
1.0
 40
1.0
 40
1.0
 10
6.256934056768316
 20
3.904003425360643
 30
0.0
 10
6.239728641175115
 20
3.911836454762637
 30
0.0
 10
6.153914528127717
 20
3.950904646226254
 30
0.0
 10
6.06204024076083
 20
3.957157158678488
 30
0.0
 10
5.988586411758452
 20
3.962156065267747
 30
0.0
  0
SPLINE
  5
A9
330
1F
100
AcDbEntity
  8
외형선
  6
Continuous
 62
     1
370
    15
100
AcDbSpline
210
0.0
220
0.0
230
1.0
 70
     8
 71
     3
 72
    11
 73
     7
 74
     0
 42
0.000000001
 43
0.00000001
 40
0.0
 40
0.0
 40
0.0
 40
0.0
 40
0.2160425667863096
 40
0.4808326336733987
 40
0.7456926072375177
 40
1.0
 40
1.0
 40
1.0
 40
1.0
 10
7.993444947591651
 20
-3.824170781422262
 30
0.0
 10
8.066543727830656
 20
-3.86228571973491
 30
0.0
 10
8.229235180461831
 20
-3.947115790233457
 30
0.0
 10
8.514824353940824
 20
-3.981214991155456
 30
0.0
 10
8.814216251562698
 20
-3.942569764043319
 30
0.0
 10
8.989551078069187
 20
-3.849223743202974
 30
0.0
 10
9.075436566028142
 20
-3.803499407036345
 30
0.0
  0
SPLINE
  5
AA
330
1F
100
AcDbEntity
  8
외형선
  6
Continuous
 62
     1
370
    15
100
AcDbSpline
210
0.0
220
0.0
230
1.0
 70
     8
 71
     3
 72
     9
 73
     5
 74
     0
 42
0.000000001
 43
0.00000001
 40
0.0
 40
0.0
 40
0.0
 40
0.0
 40
0.5848803843439369
 40
1.0
 40
1.0
 40
1.0
 40
1.0
 10
7.737134800410435
 20
-3.787741854126118
 30
0.0
 10
7.760444572417396
 20
-3.778677103281317
 30
0.0
 10
7.800298485509569
 20
-3.763178633701132
 30
0.0
 10
7.849626605215655
 20
-3.771797292830753
 30
0.0
 10
7.870103675309081
 20
-3.775375067296111
 30
0.0
  0
SPLINE
  5
AC
330
1F
100
AcDbEntity
  8
외형선
  6
Continuous
 62
     1
370
    15
100
AcDbSpline
210
0.0
220
0.0
230
1.0
 70
     8
 71
     3
 72
    11
 73
     7
 74
     0
 42
0.000000001
 43
0.00000001
 40
0.0
 40
0.0
 40
0.0
 40
0.0
 40
0.2478908028173225
 40
0.5000580783734418
 40
0.7522021277032254
 40
1.0
 40
1.0
 40
1.0
 40
1.0
 10
19.08629078174893
 20
-3.796541870176176
 30
0.0
 10
19.10502808995201
 20
-3.786910812640207
 30
0.0
 10
19.14282595186312
 20
-3.767482547979295
 30
0.0
 10
19.21145872944516
 20
-3.761098216172433
 30
0.0
 10
19.27999350221262
 20
-3.774215502054586
 30
0.0
 10
19.31759532721121
 20
-3.798247520163205
 30
0.0
 10
19.33623279653727
 20
-3.810159069678674
 30
0.0
  0
SPLINE
  5
AD
330
1F
100
AcDbEntity
  8
외형선
  6
Continuous
 62
     1
370
    15
100
AcDbSpline
210
0.0
220
0.0
230
1.0
 70
     8
 71
     3
 72
     9
 73
     5
 74
     0
 42
0.000000001
 43
0.00000001
 40
0.0
 40
0.0
 40
0.0
 40
0.0
 40
0.4992328011814145
 40
1.0
 40
1.0
 40
1.0
 40
1.0
 10
19.32079409621852
 20
-3.809551911455704
 30
0.0
 10
19.39010254596657
 20
-3.848841081181274
 30
0.0
 10
19.52893246576356
 20
-3.927540176338072
 30
0.0
 10
19.68551554743442
 20
-3.954953759290698
 30
0.0
 10
19.76392721862511
 20
-3.968681582435465
 30
0.0
  0
SPLINE
  5
AF
330
1F
100
AcDbEntity
  8
외형선
  6
Continuous
 62
     1
370
    15
100
AcDbSpline
210
0.0
220
0.0
230
1.0
 70
     8
 71
     3
 72
    11
 73
     7
 74
     0
 42
0.000000001
 43
0.00000001
 40
0.0
 40
0.0
 40
0.0
 40
0.0
 40
0.2483466410352578
 40
0.4995333953245055
 40
0.7509448556325768
 40
1.0
 40
1.0
 40
1.0
 40
1.0
 10
16.6971175640365
 20
3.803094329459177
 30
0.0
 10
16.67903076255034
 20
3.793206775863764
 30
0.0
 10
16.64265031738193
 20
3.773318593771266
 30
0.0
 10
16.57568376109904
 20
3.765207350273092
 30
0.0
 10
16.50885622343347
 20
3.776289119541924
 30
0.0
 10
16.47286749325584
 20
3.798065746904092
 30
0.0
 10
16.45495784992249
 20
3.808902795811755
 30
0.0
  0
SPLINE
  5
B0
330
1F
100
AcDbEntity
  8
외형선
  6
Continuous
 62
     1
370
    15
100
AcDbSpline
210
0.0
220
0.0
230
1.0
 70
     8
 71
     3
 72
     9
 73
     5
 74
     0
 42
0.000000001
 43
0.00000001
 40
0.0
 40
0.0
 40
0.0
 40
0.0
 40
0.5478015132774287
 40
1.0
 40
1.0
 40
1.0
 40
1.0
 10
19.76161210434618
 20
-3.968749982210922
 30
0.0
 10
19.85354655327599
 20
-3.951474314301028
 30
0.0
 10
20.02137093254756
 20
-3.919937950323979
 30
0.0
 10
20.15992760191778
 20
-3.837548092177948
 30
0.0
 10
20.22258271813232
 20
-3.800291523003025
 30
0.0
  0
SPLINE
  5
B2
330
1F
100
AcDbEntity
  8
외형선
  6
Continuous
 62
     1
370
    15
100
AcDbSpline
210
0.0
220
0.0
230
1.0
 70
     8
 71
     3
 72
     9
 73
     5
 74
     0
 42
0.000000001
 43
0.00000001
 40
0.0
 40
0.0
 40
0.0
 40
0.0
 40
0.4989734938031655
 40
1.0
 40
1.0
 40
1.0
 40
1.0
 10
16.46747594679542
 20
3.803531866195622
 30
0.0
 10
16.39741810541287
 20
3.843831585270054
 30
0.0
 10
16.2570141716316
 20
3.924596835478575
 30
0.0
 10
16.09913853909235
 20
3.953423525612263
 30
0.0
 10
16.0200386625076
 20
3.967866461455163
 30
0.0
  0
SPLINE
  5
B3
330
1F
100
AcDbEntity
  8
외형선
  6
Continuous
 62
     1
370
    15
100
AcDbSpline
210
0.0
220
0.0
230
1.0
 70
     8
 71
     3
 72
     9
 73
     5
 74
     0
 42
0.000000001
 43
0.00000001
 40
0.0
 40
0.0
 40
0.0
 40
0.0
 40
0.4568180835030968
 40
1.0
 40
1.0
 40
1.0
 40
1.0
 10
9.08379712193528
 20
-3.798382359206146
 30
0.0
 10
9.11360978532693
 20
-3.784441830682365
 30
0.0
 10
9.17887135107544
 20
-3.753925244261621
 30
0.0
 10
9.258298689018215
 20
-3.784231110108689
 30
0.0
 10
9.301442182664218
 20
-3.800692708400598
 30
0.0
  0
SPLINE
  5
B4
330
1F
100
AcDbEntity
  8
외형선
  6
Continuous
 62
     1
370
    15
100
AcDbSpline
210
0.0
220
0.0
230
1.0
 70
     8
 71
     3
 72
     9
 73
     5
 74
     0
 42
0.000000001
 43
0.00000001
 40
0.0
 40
0.0
 40
0.0
 40
0.0
 40
0.5018583624273423
 40
1.0
 40
1.0
 40
1.0
 40
1.0
 10
16.00673078901448
 20
3.968459385965725
 30
0.0
 10
15.92646451369952
 20
3.953982305562084
 30
0.0
 10
15.76652640899855
 20
3.92513536091097
 30
0.0
 10
15.62340526747017
 20
3.842376781099095
 30
0.0
 10
15.55211066765796
 20
3.801151286628421
 30
0.0
  0
SPLINE
  5
B5
330
1F
100
AcDbEntity
  8
외형선
  6
Continuous
 62
     1
370
    15
100
AcDbSpline
210
0.0
220
0.0
230
1.0
 70
     8
 71
     3
 72
     9
 73
     5
 74
     0
 42
0.000000001
 43
0.00000001
 40
0.0
 40
0.0
 40
0.0
 40
0.0
 40
0.5086108262150997
 40
1.0
 40
1.0
 40
1.0
 40
1.0
 10
20.22304258374416
 20
-3.799969993947768
 30
0.0
 10
20.26011476341709
 20
-3.784325644821556
 30
0.0
 10
20.33300385220981
 20
-3.753566666994382
 30
0.0
 10
20.40445466953951
 20
-3.783565300411426
 30
0.0
 10
20.43956482763341
 20
-3.798306304100902
 30
0.0
  0
SPLINE
  5
B6
330
1F
100
AcDbEntity
  8
외형선
  6
Continuous
 62
     1
370
    15
100
AcDbSpline
210
0.0
220
0.0
230
1.0
 70
     8
 71
     3
 72
     9
 73
     5
 74
     0
 42
0.000000001
 43
0.00000001
 40
0.0
 40
0.0
 40
0.0
 40
0.0
 40
0.4496862481338196
 40
1.0
 40
1.0
 40
1.0
 40
1.0
 10
9.299070268983797
 20
-3.79897651607781
 30
0.0
 10
9.36168759031267
 20
-3.83641197329982
 30
0.0
 10
9.500934279729414
 20
-3.919659920901878
 30
0.0
 10
9.66779402385841
 20
-3.951294022245696
 30
0.0
 10
9.75961923568547
 20
-3.968702703243129
 30
0.0
  0
SPLINE
  5
B7
330
1F
100
AcDbEntity
  8
외형선
  6
Continuous
 62
     1
370
    15
100
AcDbSpline
210
0.0
220
0.0
230
1.0
 70
     8
 71
     3
 72
    11
 73
     7
 74
     0
 42
0.000000001
 43
0.00000001
 40
0.0
 40
0.0
 40
0.0
 40
0.0
 40
0.2447964932056223
 40
0.4996793933553045
 40
0.7547268595363815
 40
1.0
 40
1.0
 40
1.0
 40
1.0
 10
20.44269778898131
 20
-3.800462622493952
 30
0.0
 10
20.52988616118866
 20
-3.847204788067056
 30
0.0
 10
20.70785534841723
 20
-3.94261504755171
 30
0.0
 10
21.01165171726354
 20
-3.982093203977866
 30
0.0
 10
21.31552817176
 20
-3.942551483837488
 30
0.0
 10
21.49354971716727
 20
-3.847155774876874
 30
0.0
 10
21.58082156432354
 20
-3.800389751625428
 30
0.0
  0
SPLINE
  5
B8
330
1F
100
AcDbEntity
  8
외형선
  6
Continuous
 62
     1
370
    15
100
AcDbSpline
210
0.0
220
0.0
230
1.0
 70
     8
 71
     3
 72
     9
 73
     5
 74
     0
 42
0.000000001
 43
0.00000001
 40
0.0
 40
0.0
 40
0.0
 40
0.0
 40
0.4993459607740102
 40
1.0
 40
1.0
 40
1.0
 40
1.0
 10
15.55563382252078
 20
3.80338640851456
 30
0.0
 10
15.51786113990734
 20
3.786239234544787
 30
0.0
 10
15.44221682598341
 20
3.751899968150813
 30
0.0
 10
15.3667665908311
 20
3.784966805437495
 30
0.0
 10
15.32899212584154
 20
3.801521851089502
 30
0.0
  0
SPLINE
  5
B9
330
1F
100
AcDbEntity
  8
외형선
  6
Continuous
 62
     1
370
    15
100
AcDbSpline
210
0.0
220
0.0
230
1.0
 70
     8
 71
     3
 72
     9
 73
     5
 74
     0
 42
0.000000001
 43
0.00000001
 40
0.0
 40
0.0
 40
0.0
 40
0.0
 40
0.5016591768782453
 40
1.0
 40
1.0
 40
1.0
 40
1.0
 10
9.763718170607621
 20
-3.968693195004413
 30
0.0
 10
9.844240845374145
 20
-3.954422169771565
 30
0.0
 10
10.00475355694778
 20
-3.925974518675746
 30
0.0
 10
10.14842625222135
 20
-3.843227118165768
 30
0.0
 10
10.2200242214441
 20
-3.80199071048444
 30
0.0
  0
SPLINE
  5
BA
330
1F
100
AcDbEntity
  8
외형선
  6
Continuous
 62
     1
370
    15
100
AcDbSpline
210
0.0
220
0.0
230
1.0
 70
     8
 71
     3
 72
    11
 73
     7
 74
     0
 42
0.000000001
 43
0.00000001
 40
0.0
 40
0.0
 40
0.0
 40
0.0
 40
0.2734844179538484
 40
0.5385586750600031
 40
0.7830643840324203
 40
1.0
 40
1.0
 40
1.0
 40
1.0
 10
15.33081686776596
 20
3.800392757547406
 30
0.0
 10
15.23097194788307
 20
3.852478866196029
 30
0.0
 10
15.0343525274206
 20
3.955049337569532
 30
0.0
 10
14.71397566120064
 20
3.981170545773342
 30
0.0
 10
14.42427138824011
 20
3.928689177141307
 30
0.0
 10
14.26349298100001
 20
3.839158002723433
 30
0.0
 10
14.18790685352551
 20
3.797067059799828
 30
0.0
  0
SPLINE
  5
BB
330
1F
100
AcDbEntity
  8
외형선
  6
Continuous
 62
     1
370
    15
100
AcDbSpline
210
0.0
220
0.0
230
1.0
 70
     8
 71
     3
 72
     9
 73
     5
 74
     0
 42
0.000000001
 43
0.00000001
 40
0.0
 40
0.0
 40
0.0
 40
0.0
 40
0.4795083862272658
 40
1.0
 40
1.0
 40
1.0
 40
1.0
 10
10.224954050575
 20
-3.798580947890751
 30
0.0
 10
10.25656683690011
 20
-3.784095185284497
 30
0.0
 10
10.32249433104434
 20
-3.753885572643042
 30
0.0
 10
10.40063922431114
 20
-3.783911242832512
 30
0.0
 10
10.44131298591568
 20
-3.799539352364036
 30
0.0
  0
SPLINE
  5
BD
330
1F
100
AcDbEntity
  8
외형선
  6
Continuous
 62
     1
370
    15
100
AcDbSpline
210
0.0
220
0.0
230
1.0
 70
     8
 71
     3
 72
    11
 73
     7
 74
     0
 42
0.000000001
 43
0.00000001
 40
0.0
 40
0.0
 40
0.0
 40
0.0
 40
0.2447871770829905
 40
0.4998088155399006
 40
0.7549288424475936
 40
1.0
 40
1.0
 40
1.0
 40
1.0
 10
10.44736544354888
 20
-3.803227763616149
 30
0.0
 10
10.53363008064867
 20
-3.849130383816898
 30
0.0
 10
10.70976604743263
 20
-3.942854795798397
 30
0.0
 10
11.01063821420034
 20
-3.981821753923934
 30
0.0
 10
11.31156002045102
 20
-3.943326748368166
 30
0.0
 10
11.48773701857592
 20
-3.849942199984491
 30
0.0
 10
11.57405581468021
 20
-3.804187976237829
 30
0.0
  0
SPLINE
  5
BE
330
1F
100
AcDbEntity
  8
외형선
  6
Continuous
 62
     1
370
    15
100
AcDbSpline
210
0.0
220
0.0
230
1.0
 70
     8
 71
     3
 72
     9
 73
     5
 74
     0
 42
0.000000001
 43
0.00000001
 40
0.0
 40
0.0
 40
0.0
 40
0.0
 40
0.5086480522782831
 40
1.0
 40
1.0
 40
1.0
 40
1.0
 10
21.57820486168683
 20
-3.801985079797199
 30
0.0
 10
21.62463954125165
 20
-3.785708880453454
 30
0.0
 10
21.71592993223384
 20
-3.75370993880639
 30
0.0
 10
21.77274018459013
 20
-3.784841369928918
 30
0.0
 10
21.80065401273595
 20
-3.800137859246338
 30
0.0
  0
SPLINE
  5
BF
330
1F
100
AcDbEntity
  8
외형선
  6
Continuous
 62
     1
370
    15
100
AcDbSpline
210
0.0
220
0.0
230
1.0
 70
     8
 71
     3
 72
     9
 73
     5
 74
     0
 42
0.000000001
 43
0.00000001
 40
0.0
 40
0.0
 40
0.0
 40
0.0
 40
0.4985999236992445
 40
1.0
 40
1.0
 40
1.0
 40
1.0
 10
21.80754391256488
 20
-3.804470871977009
 30
0.0
 10
21.87803918443177
 20
-3.844877628496094
 30
0.0
 10
22.01942563179395
 20
-3.925918067129332
 30
0.0
 10
22.17802266859854
 20
-3.954312030307655
 30
0.0
 10
22.25754323495343
 20
-3.968548765611747
 30
0.0
  0
SPLINE
  5
C0
330
1F
100
AcDbEntity
  8
외형선
  6
Continuous
 62
     1
370
    15
100
AcDbSpline
210
0.0
220
0.0
230
1.0
 70
     8
 71
     3
 72
    11
 73
     7
 74
     0
 42
0.000000001
 43
0.00000001
 40
0.0
 40
0.0
 40
0.0
 40
0.0
 40
0.2483510772461175
 40
0.4996295621767379
 40
0.7510868704539055
 40
0.9999999999999999
 40
0.9999999999999999
 40
0.9999999999999999
 40
0.9999999999999999
 10
14.20988952635983
 20
3.808027752637464
 30
0.0
 10
14.19175363883899
 20
3.797245536418376
 30
0.0
 10
14.15526808926053
 20
3.775554009936695
 30
0.0
 10
14.08816738630398
 20
3.764941233699991
 30
0.0
 10
14.02119815151728
 20
3.773560574951643
 30
0.0
 10
13.98506979963039
 20
3.793719608173138
 30
0.0
 10
13.96709747262277
 20
3.803747874570359
 30
0.0
  0
SPLINE
  5
C1
330
1F
100
AcDbEntity
  8
외형선
  6
Continuous
370
    15
100
AcDbSpline
210
0.0
220
0.0
230
1.0
 70
     8
 71
     3
 72
     9
 73
     5
 74
     0
 42
0.000000001
 43
0.00000001
 40
0.0
 40
0.0
 40
0.0
 40
0.0
 40
0.9482682186313051
 40
1.0
 40
1.0
 40
1.0
 40
1.0
 10
6.005909961103662
 20
3.968352415962766
 30
0.0
 10
5.992064283212295
 20
3.966665155244583
 30
0.0
 10
5.977463268837529
 20
3.964885847781746
 30
0.0
 10
5.96298176996675
 20
3.962226375339955
 30
0.0
 10
5.962232616233275
 20
3.96208879609304
 30
0.0
  0
LINE
  5
C2
330
1F
100
AcDbEntity
  8
외형선
  6
Continuous
 62
     1
370
    15
100
AcDbLine
 10
22.24972041834599
 20
-3.967004647790403
 30
0.0
 11
22.39295332188692
 21
-3.934178589894512
 31
0.0
  0
SPLINE
  5
C3
330
1F
100
AcDbEntity
  8
외형선
  6
Continuous
 62
     1
370
    15
100
AcDbSpline
210
0.0
220
0.0
230
1.0
 70
     8
 71
     3
 72
     9
 73
     5
 74
     0
 42
0.000000001
 43
0.00000001
 40
0.0
 40
0.0
 40
0.0
 40
0.0
 40
0.4991789129305179
 40
1.0
 40
1.0
 40
1.0
 40
1.0
 10
13.97345041029147
 20
3.799680743262995
 30
0.0
 10
13.90388491395474
 20
3.840012922390524
 30
0.0
 10
13.76452506814652
 20
3.920809963456928
 30
0.0
 10
13.60749442164733
 20
3.950306826447229
 30
0.0
 10
13.52885016256438
 20
3.965079477435174
 30
0.0
  0
LINE
  5
C4
330
1F
100
AcDbEntity
  8
외형선
  6
Continuous
 62
     1
370
    15
100
AcDbLine
 10
25.01231532850779
 20
3.768750000000008
 30
0.0
 11
24.81231532850779
 21
3.968750000000005
 31
0.0
  0
SPLINE
  5
C5
330
1F
100
AcDbEntity
  8
외형선
  6
Continuous
 62
     1
370
    15
100
AcDbSpline
210
0.0
220
0.0
230
1.0
 70
     8
 71
     3
 72
     9
 73
     5
 74
     0
 42
0.000000001
 43
0.00000001
 40
0.0
 40
0.0
 40
0.0
 40
0.0
 40
0.4522625843392187
 40
1.0
 40
1.0
 40
1.0
 40
1.0
 10
11.62970478585719
 20
-3.780642497475483
 30
0.0
 10
11.65573152296166
 20
-3.774459408065542
 30
0.0
 10
11.71327936796524
 20
-3.760787948997187
 30
0.0
 10
11.76463291823084
 20
-3.782072976395897
 30
0.0
 10
11.79276117913833
 20
-3.793731582295536
 30
0.0
  0
LINE
  5
C6
330
1F
100
AcDbEntity
  8
외형선
  6
Continuous
 62
     1
370
    15
100
AcDbLine
 10
22.78358963079386
 20
-3.777913565702241
 30
0.0
 11
22.84392659310311
 21
-3.769570453496298
 31
0.0
  0
LINE
  5
C7
330
1F
100
AcDbEntity
  8
외형선
  6
Continuous
 62
     1
370
    15
100
AcDbLine
 10
13.50673038134595
 20
3.968459336998158
 30
0.0
 11
13.4364124633301
 21
3.956064083944726
 31
0.0
  0
LINE
  5
C8
330
1F
100
AcDbEntity
  8
외형선
  6
Continuous
 62
     1
370
    15
100
AcDbLine
 10
11.78198172027909
 20
-3.782456436486057
 30
0.0
 11
11.82970552962646
 21
-3.807064131619839
 31
0.0
  0
SPLINE
  5
C9
330
1F
100
AcDbEntity
  8
외형선
  6
Continuous
 62
     1
370
    15
100
AcDbSpline
210
0.0
220
0.0
230
1.0
 70
     8
 71
     3
 72
     9
 73
     5
 74
     0
 42
0.000000001
 43
0.00000001
 40
0.0
 40
0.0
 40
0.0
 40
0.0
 40
0.4283765499440664
 40
1.0
 40
1.0
 40
1.0
 40
1.0
 10
23.13581440014736
 20
-3.888722218763812
 30
0.0
 10
23.14826686275865
 20
-3.896386412017215
 30
0.0
 10
23.17733582699799
 20
-3.914277665061774
 30
0.0
 10
23.21003512940187
 20
-3.917960493440825
 30
0.0
 10
23.22872681745638
 20
-3.920065684504821
 30
0.0
  0
LINE
  5
CC
330
1F
100
AcDbEntity
  8
외형선
  6
Continuous
370
    15
100
AcDbLine
 10
-37.98768467149221
 20
4.762500000000001
 30
0.0
 11
-37.98768467149221
 21
-4.762499999999994
 31
0.0
  0
LINE
  5
CE
330
1F
100
AcDbEntity
  8
외형선
  6
Continuous
370
    15
100
AcDbLine
 10
-38.48768467149222
 20
4.262499999999998
 30
0.0
 11
-38.48768467149222
 21
-4.262499999999998
 31
0.0
  0
SPLINE
  5
D2
330
1F
100
AcDbEntity
  8
외형선
  6
Continuous
 62
     1
370
    15
100
AcDbSpline
210
0.0
220
0.0
230
1.0
 70
     8
 71
     3
 72
    10
 73
     6
 74
     0
 42
0.000000001
 43
0.00000001
 40
0.0
 40
0.0
 40
0.0
 40
0.0
 40
0.5
 40
0.5
 40
1.0
 40
1.0
 40
1.0
 40
1.0
 10
23.45414458953382
 20
-1.316497040189404
 30
0.0
 10
23.61350951902066
 20
-1.454163169430516
 30
0.0
 10
23.78723962919197
 20
-1.597863440793042
 30
0.0
 10
24.13629195157453
 20
-1.834480324771254
 30
0.0
 10
24.31079837955054
 20
-1.926513882486556
 30
0.0
 10
24.46316569731256
 20
-1.97320497231312
 30
0.0
  0
SPLINE
  5
D3
330
1F
100
AcDbEntity
  8
외형선
  6
Continuous
 62
     1
370
    15
100
AcDbSpline
210
0.0
220
0.0
230
1.0
 70
     8
 71
     3
 72
    10
 73
     6
 74
     0
 42
0.000000001
 43
0.00000001
 40
0.0
 40
0.0
 40
0.0
 40
0.0
 40
0.5
 40
0.5
 40
1.0
 40
1.0
 40
1.0
 40
1.0
 10
24.7486974766102
 20
0.6649653917981607
 30
0.0
 10
24.58946411825296
 20
0.788463296067631
 30
0.0
 10
24.41538870236039
 20
0.929751139273889
 30
0.0
 10
24.06662266268034
 20
1.182163204978945
 30
0.0
 10
23.89250917604568
 20
1.292298738132823
 30
0.0
 10
23.74069864015235
 20
1.365458667269981
 30
0.0
  0
SPLINE
  5
D4
330
1F
100
AcDbEntity
  8
외형선
  6
Continuous
 62
     1
370
    15
100
AcDbSpline
210
0.0
220
0.0
230
1.0
 70
     8
 71
     3
 72
    10
 73
     6
 74
     0
 42
0.000000001
 43
0.00000001
 40
0.0
 40
0.0
 40
0.0
 40
0.0
 40
0.5
 40
0.5
 40
1.0
 40
1.0
 40
1.0
 40
1.0
 10
14.67736183897906
 20
-0.0259094711563593
 30
0.0
 10
14.5178040764091
 20
0.0791481113265357
 30
0.0
 10
14.34343390049328
 20
0.2145981179897251
 30
0.0
 10
13.99460317593352
 20
0.4768282080558331
 30
0.0
 10
13.8207420115345
 20
0.6028051012300002
 30
0.0
 10
13.66845099783794
 20
0.7003135736059433
 30
0.0
  0
SPLINE
  5
D5
330
1F
100
AcDbEntity
  8
외형선
  6
Continuous
 62
     1
370
    15
100
AcDbSpline
210
0.0
220
0.0
230
1.0
 70
     8
 71
     3
 72
    10
 73
     6
 74
     0
 42
0.000000001
 43
0.00000001
 40
0.0
 40
0.0
 40
0.0
 40
0.0
 40
0.5
 40
0.5
 40
1.0
 40
1.0
 40
1.0
 40
1.0
 10
13.38292010001143
 20
-1.942466551715502
 30
0.0
 10
13.54235956431008
 20
-2.08943604633905
 30
0.0
 10
13.71647025991398
 20
-2.229151123132399
 30
0.0
 10
14.06466081505873
 20
-2.441479497834704
 30
0.0
 10
14.23854045168862
 20
-2.512412835309128
 30
0.0
 10
14.39063152797523
 20
-2.530641702487276
 30
0.0
  0
SPLINE
  5
D6
330
1F
100
AcDbEntity
  8
외형선
  6
Continuous
 62
     1
370
    15
100
AcDbSpline
210
0.0
220
0.0
230
1.0
 70
     8
 71
     3
 72
    10
 73
     6
 74
     0
 42
0.000000001
 43
0.00000001
 40
0.0
 40
0.0
 40
0.0
 40
0.0
 40
0.4999999999999999
 40
0.4999999999999999
 40
1.0
 40
1.0
 40
1.0
 40
1.0
 10
12.35216229360305
 20
1.604618188171118
 30
0.0
 10
12.19317502023922
 20
1.746830365223305
 30
0.0
 10
12.01926052479673
 20
1.888653538701835
 30
0.0
 10
11.67077068246452
 20
2.114241232607302
 30
0.0
 10
11.49685374554236
 20
2.19675376778924
 30
0.0
 10
11.34514540977741
 20
2.231164694628102
 30
0.0
  0
SPLINE
  5
D7
330
1F
100
AcDbEntity
  8
외형선
  6
Continuous
 62
     1
370
    15
100
AcDbSpline
210
0.0
220
0.0
230
1.0
 70
     8
 71
     3
 72
    10
 73
     6
 74
     0
 42
0.000000001
 43
0.00000001
 40
0.0
 40
0.0
 40
0.0
 40
0.0
 40
0.5
 40
0.5
 40
1.0
 40
1.0
 40
1.0
 40
1.0
 10
11.05856435077544
 20
-0.3564755754395712
 30
0.0
 10
11.21754481888199
 20
-0.4722660212524328
 30
0.0
 10
11.39089398551398
 20
-0.6121221381180392
 30
0.0
 10
11.7391975695662
 20
-0.8696510059648531
 30
0.0
 10
11.91331702359892
 20
-0.9866681291506437
 30
0.0
 10
12.06527345225961
 20
-1.070639525289576
 30
0.0
  0
SPLINE
  5
D8
330
1F
100
AcDbEntity
  8
외형선
  6
Continuous
 62
     1
370
    15
100
AcDbSpline
210
0.0
220
0.0
230
1.0
 70
     8
 71
     3
 72
     8
 73
     4
 74
     0
 42
0.000000001
 43
0.00000001
 40
0.0
 40
0.0
 40
0.0
 40
0.0
 40
1.0
 40
1.0
 40
1.0
 40
1.0
 10
12.72434283466507
 20
-1.574181776084331
 30
0.0
 10
12.86520428727258
 20
-1.665214661349096
 30
0.0
 10
13.00297165771741
 20
-1.737112167476023
 30
0.0
 10
13.12521116968232
 20
-1.780889825520287
 30
0.0
  0
SPLINE
  5
D9
330
1F
100
AcDbEntity
  8
외형선
  6
Continuous
 62
     1
370
    15
100
AcDbSpline
210
0.0
220
0.0
230
1.0
 70
     8
 71
     3
 72
    12
 73
     8
 74
     0
 42
0.000000001
 43
0.00000001
 40
0.0
 40
0.0
 40
0.0
 40
0.0
 40
0.2500000000000001
 40
0.2500000000000001
 40
0.5000000000000001
 40
0.5000000000000001
 40
1.0
 40
1.0
 40
1.0
 40
1.0
 10
13.00890507800885
 20
1.201221780924395
 30
0.0
 10
12.98497651573071
 20
0.9750475368196423
 30
0.0
 10
12.96172769340621
 20
0.7445949431148114
 30
0.0
 10
12.91639367347237
 20
0.2823134429351276
 30
0.0
 10
12.89278396196681
 20
0.0453269283933024
 30
0.0
 10
12.82070048274029
 20
-0.6667329214057705
 30
0.0
 10
12.77101751947754
 20
-1.142098154690237
 30
0.0
 10
12.72434283466518
 20
-1.574181776083428
 30
0.0
  0
SPLINE
  5
DA
330
1F
100
AcDbEntity
  8
외형선
  6
Continuous
 62
     1
370
    15
100
AcDbSpline
210
0.0
220
0.0
230
1.0
 70
     8
 71
     3
 72
     8
 73
     4
 74
     0
 42
0.000000001
 43
0.00000001
 40
0.0
 40
0.0
 40
0.0
 40
0.0
 40
1.0
 40
1.0
 40
1.0
 40
1.0
 10
13.4109694872864
 20
0.8823692814333125
 30
0.0
 10
13.2852409827964
 20
0.9839438143576592
 30
0.0
 10
13.14816069101357
 20
1.096439160463888
 30
0.0
 10
13.00890507800885
 20
1.201221780924394
 30
0.0
  0
SPLINE
  5
DB
330
1F
100
AcDbEntity
  8
외형선
  6
Continuous
 62
     1
370
    15
100
AcDbSpline
210
0.0
220
0.0
230
1.0
 70
     8
 71
     3
 72
     8
 73
     4
 74
     0
 42
0.000000001
 43
0.00000001
 40
0.0
 40
0.0
 40
0.0
 40
0.0
 40
1.0
 40
1.0
 40
1.0
 40
1.0
 10
12.32237016121315
 20
-1.24786421424279
 30
0.0
 10
12.44819178346144
 20
-1.355948607629422
 30
0.0
 10
12.5850775677033
 20
-1.470945961739035
 30
0.0
 10
12.72434283466508
 20
-1.574181776084344
 30
0.0
  0
SPLINE
  5
DC
330
1F
100
AcDbEntity
  8
외형선
  6
Continuous
 62
     1
370
    15
100
AcDbSpline
210
0.0
220
0.0
230
1.0
 70
     8
 71
     3
 72
     8
 73
     4
 74
     0
 42
0.000000001
 43
0.00000001
 40
0.0
 40
0.0
 40
0.0
 40
0.0
 40
1.0
 40
1.0
 40
1.0
 40
1.0
 10
13.00890507800885
 20
1.20122178092439
 30
0.0
 10
12.8680479356479
 20
1.297273830392299
 30
0.0
 10
12.73066117922125
 20
1.378188969722814
 30
0.0
 10
12.60900619541096
 20
1.434207929930406
 30
0.0
  0
SPLINE
  5
DD
330
1F
100
AcDbEntity
  8
외형선
  6
Continuous
 62
     1
370
    15
100
AcDbSpline
210
0.0
220
0.0
230
1.0
 70
     8
 71
     3
 72
    10
 73
     6
 74
     0
 42
0.000000001
 43
0.00000001
 40
0.0
 40
0.0
 40
0.0
 40
0.0
 40
0.5
 40
0.5
 40
1.0
 40
1.0
 40
1.0
 40
1.0
 10
21.13087717152887
 20
0.3346296491444898
 30
0.0
 10
21.29006477660437
 20
0.2387099802925706
 30
0.0
 10
21.4641026996823
 20
0.1077595558886646
 30
0.0
 10
21.81280849856625
 20
-0.1543052911425705
 30
0.0
 10
21.98689426351556
 20
-0.2847362560189212
 30
0.0
 10
22.13868031379357
 20
-0.3922280742912382
 30
0.0
  0
SPLINE
  5
DE
330
1F
100
AcDbEntity
  8
외형선
  6
Continuous
 62
     1
370
    15
100
AcDbSpline
210
0.0
220
0.0
230
1.0
 70
     8
 71
     3
 72
    10
 73
     6
 74
     0
 42
0.000000001
 43
0.00000001
 40
0.0
 40
0.0
 40
0.0
 40
0.0
 40
0.5
 40
0.5
 40
1.0
 40
1.0
 40
1.0
 40
1.0
 10
22.42530096119718
 20
2.201926910316724
 30
0.0
 10
22.26597007310633
 20
2.352140341514217
 30
0.0
 10
22.09225414790048
 20
2.489553368176583
 30
0.0
 10
21.7432343912667
 20
2.688096820760151
 30
0.0
 10
21.56875560052544
 20
2.748119749484633
 30
0.0
 10
21.41640060918346
 20
2.753554994569929
 30
0.0
  0
SPLINE
  5
DF
330
1F
100
AcDbEntity
  8
외형선
  6
Continuous
 62
     1
370
    15
100
AcDbSpline
210
0.0
220
0.0
230
1.0
 70
     8
 71
     3
 72
     8
 73
     4
 74
     0
 42
0.000000001
 43
0.00000001
 40
0.0
 40
0.0
 40
0.0
 40
0.0
 40
1.0
 40
1.0
 40
1.0
 40
1.0
 10
22.79707397648767
 20
-0.8891992597345812
 30
0.0
 10
22.93781787276729
 20
-0.988781300698508
 30
0.0
 10
23.07526179531381
 20
-1.07601353153117
 30
0.0
 10
23.19704274434969
 20
-1.140848900819019
 30
0.0
  0
SPLINE
  5
E0
330
1F
100
AcDbEntity
  8
외형선
  6
Continuous
 62
     1
370
    15
100
AcDbSpline
210
0.0
220
0.0
230
1.0
 70
     8
 71
     3
 72
    10
 73
     6
 74
     0
 42
0.000000001
 43
0.00000001
 40
0.0
 40
0.0
 40
0.0
 40
0.0
 40
0.5
 40
0.5
 40
1.0
 40
1.0
 40
1.0
 40
1.0
 10
23.0822884323043
 20
1.865818835370793
 30
0.0
 10
23.03375068762479
 20
1.44524247297595
 30
0.0
 10
22.98514338250897
 20
0.9835566228306254
 30
0.0
 10
22.89466034947825
 20
0.06051066390659
 30
0.0
 10
22.845561667553
 20
-0.4249525836471446
 30
0.0
 10
22.7970739764877
 20
-0.8891992597344092
 30
0.0
  0
SPLINE
  5
E1
330
1F
100
AcDbEntity
  8
외형선
  6
Continuous
 62
     1
370
    15
100
AcDbSpline
210
0.0
220
0.0
230
1.0
 70
     8
 71
     3
 72
     8
 73
     4
 74
     0
 42
0.000000001
 43
0.00000001
 40
0.0
 40
0.0
 40
0.0
 40
0.0
 40
1.0
 40
1.0
 40
1.0
 40
1.0
 10
23.48383322708291
 20
1.538382938799854
 30
0.0
 10
23.35839002526584
 20
1.650606306768941
 30
0.0
 10
23.22151674838447
 20
1.765487170620487
 30
0.0
 10
23.08228843230429
 20
1.865818835370784
 30
0.0
  0
SPLINE
  5
E2
330
1F
100
AcDbEntity
  8
외형선
  6
Continuous
 62
     1
370
    15
100
AcDbSpline
210
0.0
220
0.0
230
1.0
 70
     8
 71
     3
 72
    10
 73
     6
 74
     0
 42
0.000000001
 43
0.00000001
 40
0.0
 40
0.0
 40
0.0
 40
0.0
 40
0.3689241269252191
 40
0.8129857262169894
 40
0.9999999999999999
 40
0.9999999999999999
 40
0.9999999999999999
 40
0.9999999999999999
 10
9.816739901255144
 20
3.095089755417356
 30
0.0
 10
9.90520441401705
 20
3.146670728532481
 30
0.0
 10
10.1001506940329
 20
3.260337989159971
 30
0.0
 10
10.34113539954301
 20
3.305227095008379
 30
0.0
 10
10.47571974525268
 20
3.286602311069744
 30
0.0
 10
10.51560273674279
 20
3.281083005719534
 30
0.0
  0
SPLINE
  5
E3
330
1F
100
AcDbEntity
  8
외형선
  6
Continuous
 62
     1
370
    15
100
AcDbSpline
210
0.0
220
0.0
230
1.0
 70
     8
 71
     3
 72
     8
 73
     4
 74
     0
 42
0.000000001
 43
0.00000001
 40
0.0
 40
0.0
 40
0.0
 40
0.0
 40
1.0
 40
1.0
 40
1.0
 40
1.0
 10
10.51560273674279
 20
3.281083005719525
 30
0.0
 10
10.59263192587572
 20
3.265363860872701
 30
0.0
 10
10.69302312757765
 20
3.298049206613112
 30
0.0
 10
10.77316854279756
 20
3.372751820951273
 30
0.0
  0
SPLINE
  5
E4
330
1F
100
AcDbEntity
  8
외형선
  6
Continuous
 62
     1
370
    15
100
AcDbSpline
210
0.0
220
0.0
230
1.0
 70
     8
 71
     3
 72
     8
 73
     4
 74
     0
 42
0.000000001
 43
0.00000001
 40
0.0
 40
0.0
 40
0.0
 40
0.0
 40
1.0
 40
1.0
 40
1.0
 40
1.0
 10
10.77316854279758
 20
3.37275182095129
 30
0.0
 10
10.89922352064812
 20
3.490246207497755
 30
0.0
 10
11.03656069452219
 20
3.581696365654817
 30
0.0
 10
11.17587198557843
 20
3.639984401521353
 30
0.0
  0
SPLINE
  5
E5
330
1F
100
AcDbEntity
  8
외형선
  6
Continuous
 62
     1
370
    15
100
AcDbSpline
210
0.0
220
0.0
230
1.0
 70
     8
 71
     3
 72
     8
 73
     4
 74
     0
 42
0.000000001
 43
0.00000001
 40
0.0
 40
0.0
 40
0.0
 40
0.0
 40
1.0
 40
1.0
 40
1.0
 40
1.0
 10
11.17587198557841
 20
3.63998440152135
 30
0.0
 10
11.31665851565575
 20
3.666011253485003
 30
0.0
 10
11.45424185193534
 20
3.654641842371313
 30
0.0
 10
11.57636137528604
 20
3.60333433215752
 30
0.0
  0
SPLINE
  5
E6
330
1F
100
AcDbEntity
  8
외형선
  6
Continuous
 62
     1
370
    15
100
AcDbSpline
210
0.0
220
0.0
230
1.0
 70
     8
 71
     3
 72
     8
 73
     4
 74
     0
 42
0.000000001
 43
0.00000001
 40
0.0
 40
0.0
 40
0.0
 40
0.0
 40
1.0
 40
1.0
 40
1.0
 40
1.0
 10
11.57636137528605
 20
3.603334332157514
 30
0.0
 10
11.65281991489821
 20
3.571210907544913
 30
0.0
 10
11.75303380277429
 20
3.589874889748077
 30
0.0
 10
11.83353573797675
 20
3.658091767022513
 30
0.0
  0
SPLINE
  5
E7
330
1F
100
AcDbEntity
  8
외형선
  6
Continuous
 62
     1
370
    15
100
AcDbSpline
210
0.0
220
0.0
230
1.0
 70
     8
 71
     3
 72
    10
 73
     6
 74
     0
 42
0.000000001
 43
0.00000001
 40
0.0
 40
0.0
 40
0.0
 40
0.0
 40
0.5
 40
0.5
 40
1.0
 40
1.0
 40
1.0
 40
1.0
 10
11.83353573797674
 20
3.658091767022505
 30
0.0
 10
11.99274980887021
 20
3.793008855750729
 30
0.0
 10
12.16676531709827
 20
3.8741675069305
 30
0.0
 10
12.51500594374842
 20
3.922288846443848
 30
0.0
 10
12.68846994114515
 20
3.888044253370626
 30
0.0
 10
12.84029669082978
 20
3.793283657469809
 30
0.0
  0
SPLINE
  5
E8
330
1F
100
AcDbEntity
  8
외형선
  6
Continuous
 62
     1
370
    15
100
AcDbSpline
210
0.0
220
0.0
230
1.0
 70
     8
 71
     3
 72
     8
 73
     4
 74
     0
 42
0.000000001
 43
0.00000001
 40
0.0
 40
0.0
 40
0.0
 40
0.0
 40
1.0
 40
1.0
 40
1.0
 40
1.0
 10
12.8402966908298
 20
3.793283657469805
 30
0.0
 10
12.91708332202701
 20
3.745358328470943
 30
0.0
 10
13.01728217825809
 20
3.748467279273819
 30
0.0
 10
13.09726722963526
 20
3.807139435446338
 30
0.0
  0
SPLINE
  5
E9
330
1F
100
AcDbEntity
  8
외형선
  6
Continuous
 62
     1
370
    15
100
AcDbSpline
210
0.0
220
0.0
230
1.0
 70
     8
 71
     3
 72
     8
 73
     4
 74
     0
 42
0.000000001
 43
0.00000001
 40
0.0
 40
0.0
 40
0.0
 40
0.0
 40
1.0
 40
1.0
 40
1.0
 40
1.0
 10
13.09726722963578
 20
3.807139435446335
 30
0.0
 10
13.22288087392903
 20
3.899281944933655
 30
0.0
 10
13.35989982590728
 20
3.952094708261065
 30
0.0
 10
13.49911916249183
 20
3.966822645402856
 30
0.0
  0
SPLINE
  5
EA
330
1F
100
AcDbEntity
  8
외형선
  6
Continuous
 62
     1
370
    15
100
AcDbSpline
210
0.0
220
0.0
230
1.0
 70
     8
 71
     3
 72
     8
 73
     4
 74
     0
 42
0.000000001
 43
0.00000001
 40
0.0
 40
0.0
 40
0.0
 40
0.0
 40
1.0
 40
1.0
 40
1.0
 40
1.0
 10
13.49911916249083
 20
3.966822645402398
 30
0.0
 10
13.6401132045862
 20
3.945285462640867
 30
0.0
 10
13.77765548300475
 20
3.884610988713505
 30
0.0
 10
13.89953116861984
 20
3.78775075652211
 30
0.0
  0
SPLINE
  5
EB
330
1F
100
AcDbEntity
  8
외형선
  6
Continuous
 62
     1
370
    15
100
AcDbSpline
210
0.0
220
0.0
230
1.0
 70
     8
 71
     3
 72
     8
 73
     4
 74
     0
 42
0.000000001
 43
0.00000001
 40
0.0
 40
0.0
 40
0.0
 40
0.0
 40
1.0
 40
1.0
 40
1.0
 40
1.0
 10
13.89953116861721
 20
3.787750756524208
 30
0.0
 10
13.976138875103
 20
3.726867076564496
 30
0.0
 10
14.07634393182548
 20
3.71494620175068
 30
0.0
 10
14.15702599806865
 20
3.761300196287427
 30
0.0
  0
SPLINE
  5
EC
330
1F
100
AcDbEntity
  8
외형선
  6
Continuous
 62
     1
370
    15
100
AcDbSpline
210
0.0
220
0.0
230
1.0
 70
     8
 71
     3
 72
    10
 73
     6
 74
     0
 42
0.000000001
 43
0.00000001
 40
0.0
 40
0.0
 40
0.0
 40
0.0
 40
0.5
 40
0.5
 40
1.0
 40
1.0
 40
1.0
 40
1.0
 10
14.15702599806799
 20
3.761300196286522
 30
0.0
 10
14.31631702596202
 20
3.852817131592742
 30
0.0
 10
14.49046594001863
 20
3.875998909210679
 30
0.0
 10
14.83946292771304
 20
3.809540115093977
 30
0.0
 10
15.01376792718236
 20
3.718753461547599
 30
0.0
 10
15.16577130026998
 20
3.578273906363931
 30
0.0
  0
SPLINE
  5
ED
330
1F
100
AcDbEntity
  8
외형선
  6
Continuous
 62
     1
370
    15
100
AcDbSpline
210
0.0
220
0.0
230
1.0
 70
     8
 71
     3
 72
     8
 73
     4
 74
     0
 42
0.000000001
 43
0.00000001
 40
0.0
 40
0.0
 40
0.0
 40
0.0
 40
1.0
 40
1.0
 40
1.0
 40
1.0
 10
15.16577130026999
 20
3.578273906363926
 30
0.0
 10
15.24266236842476
 20
3.507212173768343
 30
0.0
 10
15.34276795721203
 20
3.480108805308222
 30
0.0
 10
15.42272621093038
 20
3.511419706455552
 30
0.0
  0
SPLINE
  5
EE
330
1F
100
AcDbEntity
  8
외형선
  6
Continuous
 62
     1
370
    15
100
AcDbSpline
210
0.0
220
0.0
230
1.0
 70
     8
 71
     3
 72
     8
 73
     4
 74
     0
 42
0.000000001
 43
0.00000001
 40
0.0
 40
0.0
 40
0.0
 40
0.0
 40
1.0
 40
1.0
 40
1.0
 40
1.0
 10
15.42272621093039
 20
3.511419706455551
 30
0.0
 10
15.54816134406423
 20
3.560538926439889
 30
0.0
 10
15.68502246188333
 20
3.564670494961659
 30
0.0
 10
15.82427509559523
 20
3.533257687707643
 30
0.0
  0
SPLINE
  5
EF
330
1F
100
AcDbEntity
  8
외형선
  6
Continuous
 62
     1
370
    15
100
AcDbSpline
210
0.0
220
0.0
230
1.0
 70
     8
 71
     3
 72
     8
 73
     4
 74
     0
 42
0.000000001
 43
0.00000001
 40
0.0
 40
0.0
 40
0.0
 40
0.0
 40
1.0
 40
1.0
 40
1.0
 40
1.0
 10
15.82427509559522
 20
3.53325768770765
 30
0.0
 10
15.96495699357628
 20
3.468605441705747
 30
0.0
 10
16.10237706376616
 20
3.370724075917298
 30
0.0
 10
16.22413287078118
 20
3.246795448001116
 30
0.0
  0
SPLINE
  5
F0
330
1F
100
AcDbEntity
  8
외형선
  6
Continuous
 62
     1
370
    15
100
AcDbSpline
210
0.0
220
0.0
230
1.0
 70
     8
 71
     3
 72
     8
 73
     4
 74
     0
 42
0.000000001
 43
0.00000001
 40
0.0
 40
0.0
 40
0.0
 40
0.0
 40
1.0
 40
1.0
 40
1.0
 40
1.0
 10
16.22413287078084
 20
3.24679544800147
 30
0.0
 10
16.30056600297275
 20
3.168998310993372
 30
0.0
 10
16.40071506734934
 20
3.128894405396483
 30
0.0
 10
16.48110423276383
 20
3.144501627045996
 30
0.0
  0
SPLINE
  5
F1
330
1F
100
AcDbEntity
  8
외형선
  6
Continuous
 62
     1
370
    15
100
AcDbSpline
210
0.0
220
0.0
230
1.0
 70
     8
 71
     3
 72
    10
 73
     6
 74
     0
 42
0.000000001
 43
0.00000001
 40
0.0
 40
0.0
 40
0.0
 40
0.0
 40
0.5
 40
0.5
 40
1.0
 40
1.0
 40
1.0
 40
1.0
 10
16.48110423276509
 20
3.144501627042711
 30
0.0
 10
16.64039227018542
 20
3.175426736083189
 30
0.0
 10
16.81396876552711
 20
3.135480628402394
 30
0.0
 10
17.16267738579715
 20
2.966466800785219
 30
0.0
 10
17.33699792469247
 20
2.836711636248543
 30
0.0
 10
17.48931087980369
 20
2.677730049157623
 30
0.0
  0
SPLINE
  5
F2
330
1F
100
AcDbEntity
  8
외형선
  6
Continuous
 62
     1
370
    15
100
AcDbSpline
210
0.0
220
0.0
230
1.0
 70
     8
 71
     3
 72
     8
 73
     4
 74
     0
 42
0.000000001
 43
0.00000001
 40
0.0
 40
0.0
 40
0.0
 40
0.0
 40
1.0
 40
1.0
 40
1.0
 40
1.0
 10
17.48931087980369
 20
2.677730049157615
 30
0.0
 10
17.56642669268785
 20
2.597237918247424
 30
0.0
 10
17.66687562359962
 20
2.545271972183978
 30
0.0
 10
17.74706647329282
 20
2.5433361556647
 30
0.0
  0
SPLINE
  5
F3
330
1F
100
AcDbEntity
  8
외형선
  6
Continuous
 62
     1
370
    15
100
AcDbSpline
210
0.0
220
0.0
230
1.0
 70
     8
 71
     3
 72
     8
 73
     4
 74
     0
 42
0.000000001
 43
0.00000001
 40
0.0
 40
0.0
 40
0.0
 40
0.0
 40
1.0
 40
1.0
 40
1.0
 40
1.0
 10
17.74706647329284
 20
2.5433361556647
 30
0.0
 10
17.87301789695314
 20
2.54029567352139
 30
0.0
 10
18.01012182554753
 20
2.494567566173942
 30
0.0
 10
18.14933065169676
 20
2.422481954932478
 30
0.0
  0
SPLINE
  5
F4
330
1F
100
AcDbEntity
  8
외형선
  6
Continuous
 62
     1
370
    15
100
AcDbSpline
210
0.0
220
0.0
230
1.0
 70
     8
 71
     3
 72
     8
 73
     4
 74
     0
 42
0.000000001
 43
0.00000001
 40
0.0
 40
0.0
 40
0.0
 40
0.0
 40
1.0
 40
1.0
 40
1.0
 40
1.0
 10
18.14933065169675
 20
2.422481954932482
 30
0.0
 10
18.28992601183428
 20
2.326600258884481
 30
0.0
 10
18.42749058255007
 20
2.209898360434666
 30
0.0
 10
18.54946605744875
 20
2.082408394052195
 30
0.0
  0
SPLINE
  5
F5
330
1F
100
AcDbEntity
  8
외형선
  6
Continuous
 62
     1
370
    15
100
AcDbSpline
210
0.0
220
0.0
230
1.0
 70
     8
 71
     3
 72
     8
 73
     4
 74
     0
 42
0.000000001
 43
0.00000001
 40
0.0
 40
0.0
 40
0.0
 40
0.0
 40
1.0
 40
1.0
 40
1.0
 40
1.0
 10
18.54946605744875
 20
2.082408394052199
 30
0.0
 10
18.62587429611113
 20
2.002545751283212
 30
0.0
 10
18.72604522030934
 20
1.941813746207913
 30
0.0
 10
18.80648477124405
 20
1.923815970630374
 30
0.0
  0
SPLINE
  5
F6
330
1F
100
AcDbEntity
  8
외형선
  6
Continuous
 62
     1
370
    15
100
AcDbSpline
210
0.0
220
0.0
230
1.0
 70
     8
 71
     3
 72
    10
 73
     6
 74
     0
 42
0.000000001
 43
0.00000001
 40
0.0
 40
0.0
 40
0.0
 40
0.0
 40
0.5
 40
0.5
 40
1.0
 40
1.0
 40
1.0
 40
1.0
 10
18.80648477124405
 20
1.923815970630366
 30
0.0
 10
18.96568833167288
 20
1.888195309917468
 30
0.0
 10
19.13967738639633
 20
1.794102204164031
 30
0.0
 10
19.48777000690466
 20
1.555336037662294
 30
0.0
 10
19.66126743888617
 20
1.41088366270096
 30
0.0
 10
19.81316279680664
 20
1.263687478481556
 30
0.0
  0
SPLINE
  5
F7
330
1F
100
AcDbEntity
  8
외형선
  6
Continuous
 62
     1
370
    15
100
AcDbSpline
210
0.0
220
0.0
230
1.0
 70
     8
 71
     3
 72
     8
 73
     4
 74
     0
 42
0.000000001
 43
0.00000001
 40
0.0
 40
0.0
 40
0.0
 40
0.0
 40
1.0
 40
1.0
 40
1.0
 40
1.0
 10
19.81316279680611
 20
1.263687478481888
 30
0.0
 10
19.8900041457858
 20
1.189223363745716
 30
0.0
 10
19.99025297152707
 20
1.12235441276952
 30
0.0
 10
20.07027875377789
 20
1.087650905287554
 30
0.0
  0
SPLINE
  5
F8
330
1F
100
AcDbEntity
  8
외형선
  6
Continuous
 62
     1
370
    15
100
AcDbSpline
210
0.0
220
0.0
230
1.0
 70
     8
 71
     3
 72
     8
 73
     4
 74
     0
 42
0.000000001
 43
0.00000001
 40
0.0
 40
0.0
 40
0.0
 40
0.0
 40
1.0
 40
1.0
 40
1.0
 40
1.0
 10
20.07027875377791
 20
1.087650905287561
 30
0.0
 10
20.19601790164281
 20
1.033123610008774
 30
0.0
 10
20.33314969057537
 20
0.9471171235425069
 30
0.0
 10
20.47243869958021
 20
0.8491226453678862
 30
0.0
  0
SPLINE
  5
F9
330
1F
100
AcDbEntity
  8
외형선
  6
Continuous
 62
     1
370
    15
100
AcDbSpline
210
0.0
220
0.0
230
1.0
 70
     8
 71
     3
 72
     8
 73
     4
 74
     0
 42
0.000000001
 43
0.00000001
 40
0.0
 40
0.0
 40
0.0
 40
0.0
 40
1.0
 40
1.0
 40
1.0
 40
1.0
 10
20.47243869958069
 20
0.8491226453659364
 30
0.0
 10
20.61359495203024
 20
0.7409043761140935
 30
0.0
 10
20.75127263531013
 20
0.62762992039635
 30
0.0
 10
20.87329504029717
 20
0.5205964250759942
 30
0.0
  0
SPLINE
  5
FA
330
1F
100
AcDbEntity
  8
외형선
  6
Continuous
 62
     1
370
    15
100
AcDbSpline
210
0.0
220
0.0
230
1.0
 70
     8
 71
     3
 72
     8
 73
     4
 74
     0
 42
0.000000001
 43
0.00000001
 40
0.0
 40
0.0
 40
0.0
 40
0.0
 40
1.0
 40
1.0
 40
1.0
 40
1.0
 10
20.87329504029717
 20
0.5205964250759885
 30
0.0
 10
20.94988138167317
 20
0.4534177474213204
 30
0.0
 10
21.05017838169981
 20
0.3832553018357397
 30
0.0
 10
21.13087717152886
 20
0.3346296491444889
 30
0.0
  0
SPLINE
  5
FB
330
1F
100
AcDbEntity
  8
외형선
  6
Continuous
 62
     1
370
    15
100
AcDbSpline
210
0.0
220
0.0
230
1.0
 70
     8
 71
     3
 72
     8
 73
     4
 74
     0
 42
0.000000001
 43
0.00000001
 40
0.0
 40
0.0
 40
0.0
 40
0.0
 40
1.0
 40
1.0
 40
1.0
 40
1.0
 10
22.13868031379358
 20
-0.3922280742912373
 30
0.0
 10
22.21550739866998
 20
-0.4466354656872222
 30
0.0
 10
22.31555906340959
 20
-0.5161158034706209
 30
0.0
 10
22.39552940719791
 20
-0.5773413526077489
 30
0.0
  0
SPLINE
  5
FC
330
1F
100
AcDbEntity
  8
외형선
  6
Continuous
 62
     1
370
    15
100
AcDbSpline
210
0.0
220
0.0
230
1.0
 70
     8
 71
     3
 72
     8
 73
     4
 74
     0
 42
0.000000001
 43
0.00000001
 40
0.0
 40
0.0
 40
0.0
 40
0.0
 40
1.0
 40
1.0
 40
1.0
 40
1.0
 10
22.39552940719793
 20
-0.5773413526077498
 30
0.0
 10
22.52097017470795
 20
-0.673379202530135
 30
0.0
 10
22.6578431225026
 20
-0.783716491462061
 30
0.0
 10
22.79707397648768
 20
-0.8891992597345917
 30
0.0
  0
SPLINE
  5
FD
330
1F
100
AcDbEntity
  8
외형선
  6
Continuous
 62
     1
370
    15
100
AcDbSpline
210
0.0
220
0.0
230
1.0
 70
     8
 71
     3
 72
     8
 73
     4
 74
     0
 42
0.000000001
 43
0.00000001
 40
0.0
 40
0.0
 40
0.0
 40
0.0
 40
1.0
 40
1.0
 40
1.0
 40
1.0
 10
23.19704274435005
 20
-1.140848900820483
 30
0.0
 10
23.27353049161736
 20
-1.181570469993088
 30
0.0
 10
23.37371258115506
 20
-1.247016488249602
 30
0.0
 10
23.45414458953382
 20
-1.316497040189405
 30
0.0
  0
SPLINE
  5
FE
330
1F
100
AcDbEntity
  8
외형선
  6
Continuous
 62
     1
370
    15
100
AcDbSpline
210
0.0
220
0.0
230
1.0
 70
     8
 71
     3
 72
     8
 73
     4
 74
     0
 42
0.000000001
 43
0.00000001
 40
0.0
 40
0.0
 40
0.0
 40
0.0
 40
1.0
 40
1.0
 40
1.0
 40
1.0
 10
24.46316569731256
 20
-1.973204972313116
 30
0.0
 10
24.54018327420801
 20
-1.99680606114154
 30
0.0
 10
24.64052386439608
 20
-2.054836041196153
 30
0.0
 10
24.72059766141741
 20
-2.130525583009549
 30
0.0
  0
SPLINE
  5
FF
330
1F
100
AcDbEntity
  8
외형선
  6
Continuous
 62
     1
370
    15
100
AcDbSpline
210
0.0
220
0.0
230
1.0
 70
     8
 71
     3
 72
     8
 73
     4
 74
     0
 42
0.000000001
 43
0.00000001
 40
0.0
 40
0.0
 40
0.0
 40
0.0
 40
1.0
 40
1.0
 40
1.0
 40
1.0
 10
24.72059766141742
 20
-2.130525583009554
 30
0.0
 10
24.75197448305209
 20
-2.160184439482362
 30
0.0
 10
24.78394877579345
 20
-2.189448479080354
 30
0.0
 10
24.81656411077972
 20
-2.218243189364776
 30
0.0
  0
SPLINE
  5
100
330
1F
100
AcDbEntity
  8
외형선
  6
Continuous
 62
     1
370
    15
100
AcDbSpline
210
0.0
220
0.0
230
1.0
 70
     8
 71
     3
 72
    10
 73
     6
 74
     0
 42
0.000000001
 43
0.00000001
 40
0.0
 40
0.0
 40
0.0
 40
0.0
 40
0.1336643548823025
 40
0.9511921481288498
 40
1.0
 40
1.0
 40
1.0
 40
1.0
 10
23.94230870277932
 20
-1.701446535983623
 30
0.0
 10
23.93076977705611
 20
-1.704454632932812
 30
0.0
 10
23.84865562212357
 20
-1.725861074473626
 30
0.0
 10
23.75184876052414
 20
-1.767579688304868
 30
0.0
 10
23.66866001150705
 20
-1.805005900125221
 30
0.0
 10
23.66397330126691
 20
-1.807114428168503
 30
0.0
  0
LINE
  5
101
330
1F
100
AcDbEntity
  8
외형선
  6
Continuous
 62
     1
370
    15
100
AcDbLine
 10
25.01231532850779
 20
-2.151144699352081
 30
0.0
 11
24.93586539620352
 21
-2.136571396407454
 31
0.0
  0
SPLINE
  5
102
330
1F
100
AcDbEntity
  8
외형선
  6
Continuous
 62
     1
370
    15
100
AcDbSpline
210
0.0
220
0.0
230
1.0
 70
     8
 71
     3
 72
     9
 73
     5
 74
     0
 42
0.000000001
 43
0.00000001
 40
0.0
 40
0.0
 40
0.0
 40
0.0
 40
0.3269356937654417
 40
1.0
 40
1.0
 40
1.0
 40
1.0
 10
24.66716888862377
 20
-2.085351003045453
 30
0.0
 10
24.55589079730066
 20
-2.066441311867924
 30
0.0
 10
24.21552388892952
 20
-2.008602135729835
 30
0.0
 10
23.8858589826831
 20
-1.888171793149386
 30
0.0
 10
23.66397330127048
 20
-1.807114428170885
 30
0.0
  0
LINE
  5
103
330
1F
100
AcDbEntity
  8
외형선
  6
Continuous
 62
     1
370
    15
100
AcDbLine
 10
25.01231532850779
 20
-3.475118908198019
 30
0.0
 11
25.01231532850779
 21
-2.151144699352082
 31
0.0
  0
SPLINE
  5
104
330
1F
100
AcDbEntity
  8
외형선
  6
Continuous
 62
     1
370
    15
100
AcDbSpline
210
0.0
220
0.0
230
1.0
 70
     8
 71
     3
 72
     8
 73
     4
 74
     0
 42
0.000000001
 43
0.00000001
 40
0.0
 40
0.0
 40
0.0
 40
0.0
 40
1.0
 40
1.0
 40
1.0
 40
1.0
 10
24.88442399350645
 20
-3.625114559046853
 30
0.0
 10
24.92667104464213
 20
-3.575164868432243
 30
0.0
 10
24.96928079873641
 20
-3.525153276854806
 30
0.0
 10
25.01231532850768
 20
-3.475118908202614
 30
0.0
  0
SPLINE
  5
105
330
1F
100
AcDbEntity
  8
외형선
  6
Continuous
 62
     1
370
    15
100
AcDbSpline
210
0.0
220
0.0
230
1.0
 70
     8
 71
     3
 72
     8
 73
     4
 74
     0
 42
0.000000001
 43
0.00000001
 40
0.0
 40
0.0
 40
0.0
 40
0.0
 40
1.0
 40
1.0
 40
1.0
 40
1.0
 10
24.88442399350645
 20
-3.625114559046857
 30
0.0
 10
24.80250564245592
 20
-3.681336637122787
 30
0.0
 10
24.71801097067839
 20
-3.725488453842014
 30
0.0
 10
24.63242194219409
 20
-3.756622550013262
 30
0.0
  0
SPLINE
  5
106
330
1F
100
AcDbEntity
  8
외형선
  6
Continuous
 62
     1
370
    15
100
AcDbSpline
210
0.0
220
0.0
230
1.0
 70
     8
 71
     3
 72
     8
 73
     4
 74
     0
 42
0.000000001
 43
0.00000001
 40
0.0
 40
0.0
 40
0.0
 40
0.0
 40
1.0
 40
1.0
 40
1.0
 40
1.0
 10
24.63242194219409
 20
-3.756622550013256
 30
0.0
 10
24.49159386777399
 20
-3.773764025531491
 30
0.0
 10
24.35399087348091
 20
-3.752563037154363
 30
0.0
 10
24.23199618252495
 20
-3.691902596732934
 30
0.0
  0
SPLINE
  5
107
330
1F
100
AcDbEntity
  8
외형선
  6
Continuous
 62
     1
370
    15
100
AcDbSpline
210
0.0
220
0.0
230
1.0
 70
     8
 71
     3
 72
     8
 73
     4
 74
     0
 42
0.000000001
 43
0.00000001
 40
0.0
 40
0.0
 40
0.0
 40
0.0
 40
1.0
 40
1.0
 40
1.0
 40
1.0
 10
24.23199618252493
 20
-3.691902596732931
 30
0.0
 10
24.1553773046099
 20
-3.6538047513062
 30
0.0
 10
24.05504787038618
 20
-3.66706471616569
 30
0.0
 10
23.97444897899681
 20
-3.732157619164431
 30
0.0
  0
SPLINE
  5
108
330
1F
100
AcDbEntity
  8
외형선
  6
Continuous
 62
     1
370
    15
100
AcDbSpline
210
0.0
220
0.0
230
1.0
 70
     8
 71
     3
 72
    10
 73
     6
 74
     0
 42
0.000000001
 43
0.00000001
 40
0.0
 40
0.0
 40
0.0
 40
0.0
 40
0.5
 40
0.5
 40
1.0
 40
1.0
 40
1.0
 40
1.0
 10
23.97444897899681
 20
-3.732157619164436
 30
0.0
 10
23.81493379985645
 20
-3.86098452861223
 30
0.0
 10
23.64118886203197
 20
-3.932331795927411
 30
0.0
 10
23.29248613288651
 20
-3.959658569465248
 30
0.0
 10
23.1180349436451
 20
-3.914082410665902
 30
0.0
 10
22.96572177416191
 20
-3.808974174206213
 30
0.0
  0
SPLINE
  5
109
330
1F
100
AcDbEntity
  8
외형선
  6
Continuous
 62
     1
370
    15
100
AcDbSpline
210
0.0
220
0.0
230
1.0
 70
     8
 71
     3
 72
     8
 73
     4
 74
     0
 42
0.000000001
 43
0.00000001
 40
0.0
 40
0.0
 40
0.0
 40
0.0
 40
1.0
 40
1.0
 40
1.0
 40
1.0
 10
22.96572177416191
 20
-3.808974174206215
 30
0.0
 10
22.88884536620213
 20
-3.755923320537921
 30
0.0
 10
22.78859790661431
 20
-3.753359540279499
 30
0.0
 10
22.7086261904342
 20
-3.807708506689043
 30
0.0
  0
SPLINE
  5
10A
330
1F
100
AcDbEntity
  8
외형선
  6
Continuous
 62
     1
370
    15
100
AcDbSpline
210
0.0
220
0.0
230
1.0
 70
     8
 71
     3
 72
     8
 73
     4
 74
     0
 42
0.000000001
 43
0.00000001
 40
0.0
 40
0.0
 40
0.0
 40
0.0
 40
1.0
 40
1.0
 40
1.0
 40
1.0
 10
22.70862619043421
 20
-3.807708506689044
 30
0.0
 10
22.58296457844695
 20
-3.893108433751792
 30
0.0
 10
22.44601783661582
 20
-3.93740766252313
 30
0.0
 10
22.30706403286777
 20
-3.943479985944631
 30
0.0
  0
SPLINE
  5
10B
330
1F
100
AcDbEntity
  8
외형선
  6
Continuous
 62
     1
370
    15
100
AcDbSpline
210
0.0
220
0.0
230
1.0
 70
     8
 71
     3
 72
     8
 73
     4
 74
     0
 42
0.000000001
 43
0.00000001
 40
0.0
 40
0.0
 40
0.0
 40
0.0
 40
1.0
 40
1.0
 40
1.0
 40
1.0
 10
22.30706403286779
 20
-3.94347998594463
 30
0.0
 10
22.16652034226124
 20
-3.913352811599598
 30
0.0
 10
22.02922124852553
 20
-3.84468556145764
 30
0.0
 10
21.9073576503972
 20
-3.741064113496365
 30
0.0
  0
SPLINE
  5
10C
330
1F
100
AcDbEntity
  8
외형선
  6
Continuous
 62
     1
370
    15
100
AcDbSpline
210
0.0
220
0.0
230
1.0
 70
     8
 71
     3
 72
     8
 73
     4
 74
     0
 42
0.000000001
 43
0.00000001
 40
0.0
 40
0.0
 40
0.0
 40
0.0
 40
1.0
 40
1.0
 40
1.0
 40
1.0
 10
21.90735765039719
 20
-3.741064113496359
 30
0.0
 10
21.83097912056451
 20
-3.676118929077279
 30
0.0
 10
21.73082542905794
 20
-3.658693414680204
 30
0.0
 10
21.65038691441991
 20
-3.699926366020511
 30
0.0
  0
SPLINE
  5
10D
330
1F
100
AcDbEntity
  8
외형선
  6
Continuous
 62
     1
370
    15
100
AcDbSpline
210
0.0
220
0.0
230
1.0
 70
     8
 71
     3
 72
    10
 73
     6
 74
     0
 42
0.000000001
 43
0.00000001
 40
0.0
 40
0.0
 40
0.0
 40
0.0
 40
0.5
 40
0.5
 40
1.0
 40
1.0
 40
1.0
 40
1.0
 10
21.65038691441992
 20
-3.699926366020514
 30
0.0
 10
21.49099698341345
 20
-3.781629979008627
 30
0.0
 10
21.31675674733796
 20
-3.793208109568682
 30
0.0
 10
20.96807105649902
 20
-3.705775178133207
 30
0.0
 10
20.79444432333073
 20
-3.605906054006279
 30
0.0
 10
20.64232689899579
 20
-3.459923239274957
 30
0.0
  0
SPLINE
  5
10E
330
1F
100
AcDbEntity
  8
외형선
  6
Continuous
 62
     1
370
    15
100
AcDbSpline
210
0.0
220
0.0
230
1.0
 70
     8
 71
     3
 72
     8
 73
     4
 74
     0
 42
0.000000001
 43
0.00000001
 40
0.0
 40
0.0
 40
0.0
 40
0.0
 40
1.0
 40
1.0
 40
1.0
 40
1.0
 10
20.64232689899578
 20
-3.459923239274954
 30
0.0
 10
20.56526852911974
 20
-3.38597248851584
 30
0.0
 10
20.46482711831253
 20
-3.353713643147969
 30
0.0
 10
20.38457679050684
 20
-3.379243688718423
 30
0.0
  0
SPLINE
  5
10F
330
1F
100
AcDbEntity
  8
외형선
  6
Continuous
 62
     1
370
    15
100
AcDbSpline
210
0.0
220
0.0
230
1.0
 70
     8
 71
     3
 72
     8
 73
     4
 74
     0
 42
0.000000001
 43
0.00000001
 40
0.0
 40
0.0
 40
0.0
 40
0.0
 40
1.0
 40
1.0
 40
1.0
 40
1.0
 10
20.38457679050685
 20
-3.379243688718441
 30
0.0
 10
20.25872193843245
 20
-3.419281906587183
 30
0.0
 10
20.12151748608681
 20
-3.41408443590061
 30
0.0
 10
19.98210608929296
 20
-3.374503195353341
 30
0.0
  0
SPLINE
  5
110
330
1F
100
AcDbEntity
  8
외형선
  6
Continuous
 62
     1
370
    15
100
AcDbSpline
210
0.0
220
0.0
230
1.0
 70
     8
 71
     3
 72
     8
 73
     4
 74
     0
 42
0.000000001
 43
0.00000001
 40
0.0
 40
0.0
 40
0.0
 40
0.0
 40
1.0
 40
1.0
 40
1.0
 40
1.0
 10
19.98210608929272
 20
-3.374503195353271
 30
0.0
 10
19.84117073921618
 20
-3.302941699668304
 30
0.0
 10
19.70366574112523
 20
-3.199846809862903
 30
0.0
 10
19.58189301218477
 20
-3.073105525234697
 30
0.0
  0
SPLINE
  5
111
330
1F
100
AcDbEntity
  8
외형선
  6
Continuous
 62
     1
370
    15
100
AcDbSpline
210
0.0
220
0.0
230
1.0
 70
     8
 71
     3
 72
     8
 73
     4
 74
     0
 42
0.000000001
 43
0.00000001
 40
0.0
 40
0.0
 40
0.0
 40
0.0
 40
1.0
 40
1.0
 40
1.0
 40
1.0
 10
19.58189301218476
 20
-3.073105525234679
 30
0.0
 10
19.505472319084
 20
-2.993566724552104
 30
0.0
 10
19.40544416197245
 20
-2.948564326809254
 30
0.0
 10
19.32497260539748
 20
-2.957906280931706
 30
0.0
  0
SPLINE
  5
112
330
1F
100
AcDbEntity
  8
외형선
  6
Continuous
 62
     1
370
    15
100
AcDbSpline
210
0.0
220
0.0
230
1.0
 70
     8
 71
     3
 72
    10
 73
     6
 74
     0
 42
0.000000001
 43
0.00000001
 40
0.0
 40
0.0
 40
0.0
 40
0.0
 40
0.5
 40
0.5
 40
1.0
 40
1.0
 40
1.0
 40
1.0
 10
19.32497260539748
 20
-2.957906280931713
 30
0.0
 10
19.16606865108519
 20
-2.976353462945388
 30
0.0
 10
18.99224291996728
 20
-2.926183688136673
 30
0.0
 10
18.6438335773844
 20
-2.742130000398603
 30
0.0
 10
18.46987578445528
 20
-2.607844599609515
 30
0.0
 10
18.31815715483295
 20
-2.448740666190272
 30
0.0
  0
SPLINE
  5
113
330
1F
100
AcDbEntity
  8
외형선
  6
Continuous
 62
     1
370
    15
100
AcDbSpline
210
0.0
220
0.0
230
1.0
 70
     8
 71
     3
 72
     8
 73
     4
 74
     0
 42
0.000000001
 43
0.00000001
 40
0.0
 40
0.0
 40
0.0
 40
0.0
 40
1.0
 40
1.0
 40
1.0
 40
1.0
 10
18.31815715483295
 20
-2.448740666190273
 30
0.0
 10
18.24126158176427
 20
-2.368101998623811
 30
0.0
 10
18.14114111347718
 20
-2.312305193900023
 30
0.0
 10
18.06116809114788
 20
-2.303912316593395
 30
0.0
  0
SPLINE
  5
114
330
1F
100
AcDbEntity
  8
외형선
  6
Continuous
 62
     1
370
    15
100
AcDbSpline
210
0.0
220
0.0
230
1.0
 70
     8
 71
     3
 72
     8
 73
     4
 74
     0
 42
0.000000001
 43
0.00000001
 40
0.0
 40
0.0
 40
0.0
 40
0.0
 40
1.0
 40
1.0
 40
1.0
 40
1.0
 10
18.06116809114788
 20
-2.303912316593394
 30
0.0
 10
17.93558579607073
 20
-2.290732912292188
 30
0.0
 10
17.79855939462665
 20
-2.236793686011913
 30
0.0
 10
17.65915645299402
 20
-2.159078339929792
 30
0.0
  0
SPLINE
  5
115
330
1F
100
AcDbEntity
  8
외형선
  6
Continuous
 62
     1
370
    15
100
AcDbSpline
210
0.0
220
0.0
230
1.0
 70
     8
 71
     3
 72
     8
 73
     4
 74
     0
 42
0.000000001
 43
0.00000001
 40
0.0
 40
0.0
 40
0.0
 40
0.0
 40
1.0
 40
1.0
 40
1.0
 40
1.0
 10
17.65915645299403
 20
-2.159078339929798
 30
0.0
 10
17.51815334525893
 20
-2.059708747382477
 30
0.0
 10
17.38040974289292
 20
-1.942096321270237
 30
0.0
 10
17.25826698829816
 20
-1.816740114364051
 30
0.0
  0
SPLINE
  5
116
330
1F
100
AcDbEntity
  8
외형선
  6
Continuous
 62
     1
370
    15
100
AcDbSpline
210
0.0
220
0.0
230
1.0
 70
     8
 71
     3
 72
     8
 73
     4
 74
     0
 42
0.000000001
 43
0.00000001
 40
0.0
 40
0.0
 40
0.0
 40
0.0
 40
1.0
 40
1.0
 40
1.0
 40
1.0
 10
17.25826698829816
 20
-1.816740114364047
 30
0.0
 10
17.18156916797921
 20
-1.738024451981487
 30
0.0
 10
17.08119590169428
 20
-1.674500519479707
 30
0.0
 10
17.00056197946551
 20
-1.65018886207046
 30
0.0
  0
SPLINE
  5
117
330
1F
100
AcDbEntity
  8
외형선
  6
Continuous
 62
     1
370
    15
100
AcDbSpline
210
0.0
220
0.0
230
1.0
 70
     8
 71
     3
 72
    10
 73
     6
 74
     0
 42
0.000000001
 43
0.00000001
 40
0.0
 40
0.0
 40
0.0
 40
0.0
 40
0.5
 40
0.5
 40
1.0
 40
1.0
 40
1.0
 40
1.0
 10
17.0005619794655
 20
-1.650188862070461
 30
0.0
 10
16.84125533263532
 20
-1.602156861223943
 30
0.0
 10
16.66775856340746
 20
-1.498690365729361
 30
0.0
 10
16.31922852708662
 20
-1.251845769143107
 30
0.0
 10
16.14490145182734
 20
-1.108453813922199
 30
0.0
 10
15.99275441096302
 20
-0.9667091534470993
 30
0.0
  0
SPLINE
  5
118
330
1F
100
AcDbEntity
  8
외형선
  6
Continuous
 62
     1
370
    15
100
AcDbSpline
210
0.0
220
0.0
230
1.0
 70
     8
 71
     3
 72
     8
 73
     4
 74
     0
 42
0.000000001
 43
0.00000001
 40
0.0
 40
0.0
 40
0.0
 40
0.0
 40
1.0
 40
1.0
 40
1.0
 40
1.0
 10
15.99275441096302
 20
-0.9667091534471066
 30
0.0
 10
15.91591298267953
 20
-0.8951214176581568
 30
0.0
 10
15.81570436271063
 20
-0.8269090941920658
 30
0.0
 10
15.73577862380394
 20
-0.7866616785490096
 30
0.0
  0
SPLINE
  5
119
330
1F
100
AcDbEntity
  8
외형선
  6
Continuous
 62
     1
370
    15
100
AcDbSpline
210
0.0
220
0.0
230
1.0
 70
     8
 71
     3
 72
     8
 73
     4
 74
     0
 42
0.000000001
 43
0.00000001
 40
0.0
 40
0.0
 40
0.0
 40
0.0
 40
1.0
 40
1.0
 40
1.0
 40
1.0
 10
15.73577862380394
 20
-0.7866616785490161
 30
0.0
 10
15.61012445825226
 20
-0.7233872503433062
 30
0.0
 10
15.47326190255585
 20
-0.6310996800104182
 30
0.0
 10
15.33431023513171
 20
-0.5297558785712394
 30
0.0
  0
SPLINE
  5
11A
330
1F
100
AcDbEntity
  8
외형선
  6
Continuous
 62
     1
370
    15
100
AcDbSpline
210
0.0
220
0.0
230
1.0
 70
     8
 71
     3
 72
     8
 73
     4
 74
     0
 42
0.000000001
 43
0.00000001
 40
0.0
 40
0.0
 40
0.0
 40
0.0
 40
1.0
 40
1.0
 40
1.0
 40
1.0
 10
15.33431023513171
 20
-0.5297558785712334
 30
0.0
 10
15.19381543021595
 20
-0.4213065364257876
 30
0.0
 10
15.05636793241532
 20
-0.3115270811996258
 30
0.0
 10
14.93447648364974
 20
-0.21150868204804
 30
0.0
  0
SPLINE
  5
11B
330
1F
100
AcDbEntity
  8
외형선
  6
Continuous
 62
     1
370
    15
100
AcDbSpline
210
0.0
220
0.0
230
1.0
 70
     8
 71
     3
 72
     8
 73
     4
 74
     0
 42
0.000000001
 43
0.00000001
 40
0.0
 40
0.0
 40
0.0
 40
0.0
 40
1.0
 40
1.0
 40
1.0
 40
1.0
 10
14.93447648364972
 20
-0.2115086820480352
 30
0.0
 10
14.85804311440235
 20
-0.1487910483558919
 30
0.0
 10
14.75784186295163
 20
-0.0788999156232347
 30
0.0
 10
14.67736183897907
 20
-0.0259094711563511
 30
0.0
  0
SPLINE
  5
11C
330
1F
100
AcDbEntity
  8
외형선
  6
Continuous
 62
     1
370
    15
100
AcDbSpline
210
0.0
220
0.0
230
1.0
 70
     8
 71
     3
 72
     8
 73
     4
 74
     0
 42
0.000000001
 43
0.00000001
 40
0.0
 40
0.0
 40
0.0
 40
0.0
 40
1.0
 40
1.0
 40
1.0
 40
1.0
 10
13.66845099783794
 20
0.7003135736059435
 30
0.0
 10
13.59146931248157
 20
0.749603195874679
 30
0.0
 10
13.49111217144486
 20
0.8176229795209444
 30
0.0
 10
13.4109694872864
 20
0.8823692814333098
 30
0.0
  0
SPLINE
  5
11D
330
1F
100
AcDbEntity
  8
외형선
  6
Continuous
 62
     1
370
    15
100
AcDbSpline
210
0.0
220
0.0
230
1.0
 70
     8
 71
     3
 72
     8
 73
     4
 74
     0
 42
0.000000001
 43
0.00000001
 40
0.0
 40
0.0
 40
0.0
 40
0.0
 40
1.0
 40
1.0
 40
1.0
 40
1.0
 10
12.60900619541096
 20
1.434207929930399
 30
0.0
 10
12.53268311676438
 20
1.469352725250011
 30
0.0
 10
12.43261187564864
 20
1.532657018175716
 30
0.0
 10
12.35216229360305
 20
1.604618188171128
 30
0.0
  0
SPLINE
  5
11E
330
1F
100
AcDbEntity
  8
외형선
  6
Continuous
 62
     1
370
    15
100
AcDbSpline
210
0.0
220
0.0
230
1.0
 70
     8
 71
     3
 72
     8
 73
     4
 74
     0
 42
0.000000001
 43
0.00000001
 40
0.0
 40
0.0
 40
0.0
 40
0.0
 40
1.0
 40
1.0
 40
1.0
 40
1.0
 10
11.34514540977741
 20
2.231164694628092
 30
0.0
 10
11.26820681468452
 20
2.248616130987712
 30
0.0
 10
11.16805373268206
 20
2.303658308463941
 30
0.0
 10
11.0879624793221
 20
2.380625083110074
 30
0.0
  0
SPLINE
  5
11F
330
1F
100
AcDbEntity
  8
외형선
  6
Continuous
 62
     1
370
    15
100
AcDbSpline
210
0.0
220
0.0
230
1.0
 70
     8
 71
     3
 72
     8
 73
     4
 74
     0
 42
0.000000001
 43
0.00000001
 40
0.0
 40
0.0
 40
0.0
 40
0.0
 40
1.0
 40
1.0
 40
1.0
 40
1.0
 10
11.0879624793221
 20
2.380625083110062
 30
0.0
 10
10.96221467167202
 20
2.501467282072176
 30
0.0
 10
10.82502597511424
 20
2.613250478550295
 30
0.0
 10
10.68550158380226
 20
2.701905191053714
 30
0.0
  0
SPLINE
  5
120
330
1F
100
AcDbEntity
  8
외형선
  6
Continuous
 62
     1
370
    15
100
AcDbSpline
210
0.0
220
0.0
230
1.0
 70
     8
 71
     3
 72
     8
 73
     4
 74
     0
 42
0.000000001
 43
0.00000001
 40
0.0
 40
0.0
 40
0.0
 40
0.0
 40
1.0
 40
1.0
 40
1.0
 40
1.0
 10
10.68550158380226
 20
2.701905191053711
 30
0.0
 10
10.54440803000292
 20
2.767619220570008
 30
0.0
 10
10.40657333193313
 20
2.80400630302542
 30
0.0
 10
10.28443213715507
 20
2.80458943077527
 30
0.0
  0
SPLINE
  5
121
330
1F
100
AcDbEntity
  8
외형선
  6
Continuous
 62
     1
370
    15
100
AcDbSpline
210
0.0
220
0.0
230
1.0
 70
     8
 71
     3
 72
     8
 73
     4
 74
     0
 42
0.000000001
 43
0.00000001
 40
0.0
 40
0.0
 40
0.0
 40
0.0
 40
1.0
 40
1.0
 40
1.0
 40
1.0
 10
10.28443213715505
 20
2.804589430775268
 30
0.0
 10
10.207837225352
 20
2.804955110991926
 30
0.0
 10
10.10757597741205
 20
2.849198139296835
 30
0.0
 10
10.02706080669389
 20
2.926204177704497
 30
0.0
  0
SPLINE
  5
122
330
1F
100
AcDbEntity
  8
외형선
  6
Continuous
 62
     1
370
    15
100
AcDbSpline
210
0.0
220
0.0
230
1.0
 70
     8
 71
     3
 72
    10
 73
     6
 74
     0
 42
0.000000001
 43
0.00000001
 40
0.0
 40
0.0
 40
0.0
 40
0.0
 40
0.5
 40
0.5
 40
1.0
 40
1.0
 40
1.0
 40
1.0
 10
10.02706080669389
 20
2.926204177704486
 30
0.0
 10
9.867958730515305
 20
3.078372029795799
 30
0.0
 10
9.694557793898355
 20
3.200272962164794
 30
0.0
 10
9.346149595241602
 20
3.347885854678394
 30
0.0
 10
9.171937305106752
 20
3.372218327529826
 30
0.0
 10
9.019927357894069
 20
3.336463312407211
 30
0.0
  0
SPLINE
  5
123
330
1F
100
AcDbEntity
  8
외형선
  6
Continuous
 62
     1
370
    15
100
AcDbSpline
210
0.0
220
0.0
230
1.0
 70
     8
 71
     3
 72
     8
 73
     4
 74
     0
 42
0.000000001
 43
0.00000001
 40
0.0
 40
0.0
 40
0.0
 40
0.0
 40
1.0
 40
1.0
 40
1.0
 40
1.0
 10
9.019927357894069
 20
3.336463312407213
 30
0.0
 10
8.943092735798885
 20
3.31839065910177
 30
0.0
 10
8.84290083984283
 20
3.349217871319126
 30
0.0
 10
8.762992835964003
 20
3.423236633357395
 30
0.0
  0
SPLINE
  5
124
330
1F
100
AcDbEntity
  8
외형선
  6
Continuous
 62
     1
370
    15
100
AcDbSpline
210
0.0
220
0.0
230
1.0
 70
     8
 71
     3
 72
     8
 73
     4
 74
     0
 42
0.000000001
 43
0.00000001
 40
0.0
 40
0.0
 40
0.0
 40
0.0
 40
1.0
 40
1.0
 40
1.0
 40
1.0
 10
8.762992835963999
 20
3.4232366333574
 30
0.0
 10
8.637323110432437
 20
3.539644465589582
 30
0.0
 10
8.500577093908873
 20
3.629089381698587
 30
0.0
 10
8.361481432473337
 20
3.684649149155203
 30
0.0
  0
SPLINE
  5
125
330
1F
100
AcDbEntity
  8
외형선
  6
Continuous
 62
     1
370
    15
100
AcDbSpline
210
0.0
220
0.0
230
1.0
 70
     8
 71
     3
 72
     8
 73
     4
 74
     0
 42
0.000000001
 43
0.00000001
 40
0.0
 40
0.0
 40
0.0
 40
0.0
 40
1.0
 40
1.0
 40
1.0
 40
1.0
 10
8.361481432473354
 20
3.684649149155192
 30
0.0
 10
8.220870406769365
 20
3.707467851016794
 30
0.0
 10
8.083348959431596
 20
3.69241611679819
 30
0.0
 10
7.96138901077689
 20
3.637727070966379
 30
0.0
  0
SPLINE
  5
126
330
1F
100
AcDbEntity
  8
외형선
  6
Continuous
 62
     1
370
    15
100
AcDbSpline
210
0.0
220
0.0
230
1.0
 70
     8
 71
     3
 72
     8
 73
     4
 74
     0
 42
0.000000001
 43
0.00000001
 40
0.0
 40
0.0
 40
0.0
 40
0.0
 40
1.0
 40
1.0
 40
1.0
 40
1.0
 10
7.961389010776878
 20
3.637727070966372
 30
0.0
 10
7.884872598597787
 20
3.603415728441981
 30
0.0
 10
7.784601730563744
 20
3.6201836177487
 30
0.0
 10
7.704052094935
 20
3.687315291667475
 30
0.0
  0
SPLINE
  5
127
330
1F
100
AcDbEntity
  8
외형선
  6
Continuous
 62
     1
370
    15
100
AcDbSpline
210
0.0
220
0.0
230
1.0
 70
     8
 71
     3
 72
    11
 73
     7
 74
     0
 42
0.000000001
 43
0.00000001
 40
0.0
 40
0.0
 40
0.0
 40
0.0
 40
0.3183714248510603
 40
0.6355263405747306
 40
0.9819580188675157
 40
1.0
 40
1.0
 40
1.0
 40
1.0
 10
7.704052094935002
 20
3.687315291667478
 30
0.0
 10
7.611012904169502
 20
3.752463115933853
 30
0.0
 10
7.425290028867823
 20
3.882509832192337
 30
0.0
 10
7.118868808301602
 20
3.939324167688421
 30
0.0
 10
6.906429871497385
 20
3.914570181190403
 30
0.0
 10
6.805516290610334
 20
3.860397088679998
 30
0.0
 10
6.800520920230901
 20
3.857715441083016
 30
0.0
  0
SPLINE
  5
128
330
1F
100
AcDbEntity
  8
외형선
  6
Continuous
 62
     1
370
    15
100
AcDbSpline
210
0.0
220
0.0
230
1.0
 70
     8
 71
     3
 72
     8
 73
     4
 74
     0
 42
0.000000001
 43
0.00000001
 40
0.0
 40
0.0
 40
0.0
 40
0.0
 40
1.0
 40
1.0
 40
1.0
 40
1.0
 10
6.694966932101969
 20
3.801873569443547
 30
0.0
 10
6.618067751973279
 20
3.752067075074376
 30
0.0
 10
6.517780920794022
 20
3.753094485334942
 30
0.0
 10
6.437733336472198
 20
3.810267593722645
 30
0.0
  0
SPLINE
  5
129
330
1F
100
AcDbEntity
  8
외형선
  6
Continuous
 62
     1
370
    15
100
AcDbSpline
210
0.0
220
0.0
230
1.0
 70
     8
 71
     3
 72
    10
 73
     6
 74
     0
 42
0.000000001
 43
0.00000001
 40
0.0
 40
0.0
 40
0.0
 40
0.0
 40
0.3580994838667798
 40
0.7188125889592603
 40
0.9999999999999999
 40
0.9999999999999999
 40
0.9999999999999999
 40
0.9999999999999999
 10
6.4377333364722
 20
3.810267593722646
 30
0.0
 10
6.416967923655423
 20
3.824305599140845
 30
0.0
 10
6.375285539792546
 20
3.852484067619829
 30
0.0
 10
6.315316303563951
 20
3.884820139829086
 30
0.0
 10
6.275917733371874
 20
3.900962247809309
 30
0.0
 10
6.25865901231997
 20
3.908033370884645
 30
0.0
  0
SPLINE
  5
12A
330
1F
100
AcDbEntity
  8
외형선
  6
Continuous
 62
     1
370
    15
100
AcDbSpline
210
0.0
220
0.0
230
1.0
 70
     8
 71
     3
 72
     8
 73
     4
 74
     0
 42
0.000000001
 43
0.00000001
 40
0.0
 40
0.0
 40
0.0
 40
0.0
 40
1.0
 40
1.0
 40
1.0
 40
1.0
 10
23.0822884323043
 20
1.865818835370774
 30
0.0
 10
22.94155353775655
 20
1.951126630718311
 30
0.0
 10
22.80412215473442
 20
2.014773657943497
 30
0.0
 10
22.68235839415542
 20
2.048334101713977
 30
0.0
  0
SPLINE
  5
12B
330
1F
100
AcDbEntity
  8
외형선
  6
Continuous
 62
     1
370
    15
100
AcDbSpline
210
0.0
220
0.0
230
1.0
 70
     8
 71
     3
 72
     9
 73
     5
 74
     0
 42
0.000000001
 43
0.00000001
 40
0.0
 40
0.0
 40
0.0
 40
0.0
 40
0.3814212865887356
 40
1.0
 40
1.0
 40
1.0
 40
1.0
 10
15.41660269715168
 20
-3.05061458023358
 30
0.0
 10
15.38963012668867
 20
-3.059112279066726
 30
0.0
 10
15.31891417188646
 20
-3.081391315743321
 30
0.0
 10
15.25642970598534
 20
-3.075201559843272
 30
0.0
 10
15.21777814546004
 20
-3.07137270860229
 30
0.0
  0
SPLINE
  5
12C
330
1F
100
AcDbEntity
  8
외형선
  6
Continuous
 62
     1
370
    15
100
AcDbSpline
210
0.0
220
0.0
230
1.0
 70
     8
 71
     3
 72
     8
 73
     4
 74
     0
 42
0.000000001
 43
0.00000001
 40
0.0
 40
0.0
 40
0.0
 40
0.0
 40
1.0
 40
1.0
 40
1.0
 40
1.0
 10
15.21777814546004
 20
-3.071372708602289
 30
0.0
 10
15.14097064551104
 20
-3.063755043430291
 30
0.0
 10
15.04076367104809
 20
-3.102403643920673
 30
0.0
 10
14.96074767072251
 20
-3.178804515859255
 30
0.0
  0
SPLINE
  5
12D
330
1F
100
AcDbEntity
  8
외형선
  6
Continuous
 62
     1
370
    15
100
AcDbSpline
210
0.0
220
0.0
230
1.0
 70
     8
 71
     3
 72
     8
 73
     4
 74
     0
 42
0.000000001
 43
0.00000001
 40
0.0
 40
0.0
 40
0.0
 40
0.0
 40
1.0
 40
1.0
 40
1.0
 40
1.0
 10
14.96074767072252
 20
-3.178804515859248
 30
0.0
 10
14.83521696005095
 20
-3.298663740406268
 30
0.0
 10
14.69828495040124
 20
-3.39644879312426
 30
0.0
 10
14.55910037091765
 20
-3.462976498821713
 30
0.0
  0
SPLINE
  5
12E
330
1F
100
AcDbEntity
  8
외형선
  6
Continuous
 62
     1
370
    15
100
AcDbSpline
210
0.0
220
0.0
230
1.0
 70
     8
 71
     3
 72
     8
 73
     4
 74
     0
 42
0.000000001
 43
0.00000001
 40
0.0
 40
0.0
 40
0.0
 40
0.0
 40
1.0
 40
1.0
 40
1.0
 40
1.0
 10
14.55910037091767
 20
-3.4629764988217
 30
0.0
 10
14.41832385544618
 20
-3.49904736815398
 30
0.0
 10
14.28095676057851
 20
-3.49916661536151
 30
0.0
 10
14.15929550584606
 20
-3.460207160863487
 30
0.0
  0
SPLINE
  5
12F
330
1F
100
AcDbEntity
  8
외형선
  6
Continuous
 62
     1
370
    15
100
AcDbSpline
210
0.0
220
0.0
230
1.0
 70
     8
 71
     3
 72
     8
 73
     4
 74
     0
 42
0.000000001
 43
0.00000001
 40
0.0
 40
0.0
 40
0.0
 40
0.0
 40
1.0
 40
1.0
 40
1.0
 40
1.0
 10
14.15929550584576
 20
-3.460207160863392
 30
0.0
 10
14.08286013258939
 20
-3.435730342397435
 30
0.0
 10
13.98284141733368
 20
-3.46132527230017
 30
0.0
 10
13.90242687490464
 20
-3.532896592347515
 30
0.0
  0
SPLINE
  5
130
330
1F
100
AcDbEntity
  8
외형선
  6
Continuous
 62
     1
370
    15
100
AcDbSpline
210
0.0
220
0.0
230
1.0
 70
     8
 71
     3
 72
    10
 73
     6
 74
     0
 42
0.000000001
 43
0.00000001
 40
0.0
 40
0.0
 40
0.0
 40
0.0
 40
0.5
 40
0.5
 40
1.0
 40
1.0
 40
1.0
 40
1.0
 10
13.90242687490464
 20
-3.532896592347503
 30
0.0
 10
13.7433810843276
 20
-3.674452047812759
 30
0.0
 10
13.56937508372256
 20
-3.767068829067816
 30
0.0
 10
13.22050539306573
 20
-3.840748726721757
 30
0.0
 10
13.04628255080078
 20
-3.820419245581083
 30
0.0
 10
12.89418293896799
 20
-3.739179206059807
 30
0.0
  0
SPLINE
  5
131
330
1F
100
AcDbEntity
  8
외형선
  6
Continuous
 62
     1
370
    15
100
AcDbSpline
210
0.0
220
0.0
230
1.0
 70
     8
 71
     3
 72
     8
 73
     4
 74
     0
 42
0.000000001
 43
0.00000001
 40
0.0
 40
0.0
 40
0.0
 40
0.0
 40
1.0
 40
1.0
 40
1.0
 40
1.0
 10
12.89418293896799
 20
-3.739179206059811
 30
0.0
 10
12.81704577570748
 20
-3.697978402741972
 30
0.0
 10
12.71664575015828
 20
-3.70818344239247
 30
0.0
 10
12.63649221736177
 20
-3.771719789264155
 30
0.0
  0
SPLINE
  5
132
330
1F
100
AcDbEntity
  8
외형선
  6
Continuous
 62
     1
370
    15
100
AcDbSpline
210
0.0
220
0.0
230
1.0
 70
     8
 71
     3
 72
     8
 73
     4
 74
     0
 42
0.000000001
 43
0.00000001
 40
0.0
 40
0.0
 40
0.0
 40
0.0
 40
1.0
 40
1.0
 40
1.0
 40
1.0
 10
12.63649221736177
 20
-3.771719789264154
 30
0.0
 10
12.51073525031728
 20
-3.87140520550094
 30
0.0
 10
12.37370127591835
 20
-3.934231516723528
 30
0.0
 10
12.23419136741128
 20
-3.959375671065267
 30
0.0
  0
SPLINE
  5
133
330
1F
100
AcDbEntity
  8
외형선
  6
Continuous
 62
     1
370
    15
100
AcDbSpline
210
0.0
220
0.0
230
1.0
 70
     8
 71
     3
 72
     8
 73
     4
 74
     0
 42
0.000000001
 43
0.00000001
 40
0.0
 40
0.0
 40
0.0
 40
0.0
 40
1.0
 40
1.0
 40
1.0
 40
1.0
 10
12.23419136741147
 20
-3.959375671065223
 30
0.0
 10
12.09341430820416
 20
-3.948548822713419
 30
0.0
 10
11.95583737611845
 20
-3.898362600787958
 30
0.0
 10
11.83392885891104
 20
-3.810427775979738
 30
0.0
  0
SPLINE
  5
134
330
1F
100
AcDbEntity
  8
외형선
  6
Continuous
 62
     1
370
    15
100
AcDbSpline
210
0.0
220
0.0
230
1.0
 70
     8
 71
     3
 72
     8
 73
     4
 74
     0
 42
0.000000001
 43
0.00000001
 40
0.0
 40
0.0
 40
0.0
 40
0.0
 40
1.0
 40
1.0
 40
1.0
 40
1.0
 10
11.83392885891075
 20
-3.81042777597952
 30
0.0
 10
11.75748405961604
 20
-3.755286755585931
 30
0.0
 10
11.6573151973113
 20
-3.750415543548062
 30
0.0
 10
11.5769078144521
 20
-3.802716814149973
 30
0.0
  0
SPLINE
  5
135
330
1F
100
AcDbEntity
  8
외형선
  6
Continuous
 62
     1
370
    15
100
AcDbSpline
210
0.0
220
0.0
230
1.0
 70
     8
 71
     3
 72
    10
 73
     6
 74
     0
 42
0.000000001
 43
0.00000001
 40
0.0
 40
0.0
 40
0.0
 40
0.0
 40
0.5
 40
0.5
 40
1.0
 40
1.0
 40
1.0
 40
1.0
 10
11.5769078144521
 20
-3.802716814149973
 30
0.0
 10
11.41778372548585
 20
-3.906219648595902
 30
0.0
 10
11.24436265021095
 20
-3.943275575422965
 30
0.0
 10
10.89632090617694
 20
-3.902440123617231
 30
0.0
 10
10.72224577764345
 20
-3.823339754709222
 30
0.0
 10
10.57024279727174
 20
-3.691262568155938
 30
0.0
  0
SPLINE
  5
136
330
1F
100
AcDbEntity
  8
외형선
  6
Continuous
 62
     1
370
    15
100
AcDbSpline
210
0.0
220
0.0
230
1.0
 70
     8
 71
     3
 72
     8
 73
     4
 74
     0
 42
0.000000001
 43
0.00000001
 40
0.0
 40
0.0
 40
0.0
 40
0.0
 40
1.0
 40
1.0
 40
1.0
 40
1.0
 10
10.57024279727174
 20
-3.691262568155941
 30
0.0
 10
10.4933684723537
 20
-3.624465558462258
 30
0.0
 10
10.39311261555962
 20
-3.604159159610602
 30
0.0
 10
10.31312474841634
 20
-3.64253225951932
 30
0.0
  0
SPLINE
  5
137
330
1F
100
AcDbEntity
  8
외형선
  6
Continuous
 62
     1
370
    15
100
AcDbSpline
210
0.0
220
0.0
230
1.0
 70
     8
 71
     3
 72
     8
 73
     4
 74
     0
 42
0.000000001
 43
0.00000001
 40
0.0
 40
0.0
 40
0.0
 40
0.0
 40
1.0
 40
1.0
 40
1.0
 40
1.0
 10
10.31312474841635
 20
-3.642532259519316
 30
0.0
 10
10.18731523351215
 20
-3.70288767662575
 30
0.0
 10
10.05019695217846
 20
-3.718423284873333
 30
0.0
 10
9.911083145658509
 20
-3.69708094542206
 30
0.0
  0
SPLINE
  5
138
330
1F
100
AcDbEntity
  8
외형선
  6
Continuous
 62
     1
370
    15
100
AcDbSpline
210
0.0
220
0.0
230
1.0
 70
     8
 71
     3
 72
     8
 73
     4
 74
     0
 42
0.000000001
 43
0.00000001
 40
0.0
 40
0.0
 40
0.0
 40
0.0
 40
1.0
 40
1.0
 40
1.0
 40
1.0
 10
9.911083145658509
 20
-3.697080945422058
 30
0.0
 10
9.770179645367637
 20
-3.641146188357492
 30
0.0
 10
9.632567858984338
 20
-3.549980027270088
 30
0.0
 10
9.510299252739792
 20
-3.429937343662298
 30
0.0
  0
SPLINE
  5
139
330
1F
100
AcDbEntity
  8
외형선
  6
Continuous
 62
     1
370
    15
100
AcDbSpline
210
0.0
220
0.0
230
1.0
 70
     8
 71
     3
 72
     8
 73
     4
 74
     0
 42
0.000000001
 43
0.00000001
 40
0.0
 40
0.0
 40
0.0
 40
0.0
 40
1.0
 40
1.0
 40
1.0
 40
1.0
 10
9.510299252739486
 20
-3.429937343661992
 30
0.0
 10
9.433656789041688
 20
-3.354690170219929
 30
0.0
 10
9.333285269737292
 20
-3.320345649715843
 30
0.0
 10
9.252603230087807
 20
-3.343474548864645
 30
0.0
  0
SPLINE
  5
13A
330
1F
100
AcDbEntity
  8
외형선
  6
Continuous
 62
     1
370
    15
100
AcDbSpline
210
0.0
220
0.0
230
1.0
 70
     8
 71
     3
 72
    10
 73
     6
 74
     0
 42
0.000000001
 43
0.00000001
 40
0.0
 40
0.0
 40
0.0
 40
0.0
 40
0.5
 40
0.5
 40
1.0
 40
1.0
 40
1.0
 40
1.0
 10
9.2526032300878
 20
-3.343474548864652
 30
0.0
 10
9.093188533489524
 20
-3.389173522966919
 30
0.0
 10
8.919013339599076
 20
-3.36392014572425
 30
0.0
 10
8.570455938560936
 20
-3.216060749588766
 30
0.0
 10
8.39681047073395
 20
-3.092748915590129
 30
0.0
 10
8.244851384006601
 20
-2.935160010806853
 30
0.0
  0
SPLINE
  5
13B
330
1F
100
AcDbEntity
  8
외형선
  6
Continuous
 62
     1
370
    15
100
AcDbSpline
210
0.0
220
0.0
230
1.0
 70
     8
 71
     3
 72
     8
 73
     4
 74
     0
 42
0.000000001
 43
0.00000001
 40
0.0
 40
0.0
 40
0.0
 40
0.0
 40
1.0
 40
1.0
 40
1.0
 40
1.0
 10
8.244851384006605
 20
-2.935160010806853
 30
0.0
 10
8.168071094339165
 20
-2.855535145863149
 30
0.0
 10
8.0678822040272
 20
-2.808531518999006
 30
0.0
 10
7.987907377051516
 20
-2.814501259127092
 30
0.0
  0
SPLINE
  5
13C
330
1F
100
AcDbEntity
  8
외형선
  6
Continuous
 62
     1
370
    15
100
AcDbSpline
210
0.0
220
0.0
230
1.0
 70
     8
 71
     3
 72
     8
 73
     4
 74
     0
 42
0.000000001
 43
0.00000001
 40
0.0
 40
0.0
 40
0.0
 40
0.0
 40
1.0
 40
1.0
 40
1.0
 40
1.0
 10
7.987907377051523
 20
-2.814501259127096
 30
0.0
 10
7.862377098901191
 20
-2.823871496826915
 30
0.0
 10
7.725448018996516
 20
-2.789558658350416
 30
0.0
 10
7.586302505487402
 20
-2.726293932679841
 30
0.0
  0
SPLINE
  5
13D
330
1F
100
AcDbEntity
  8
외형선
  6
Continuous
 62
     1
370
    15
100
AcDbSpline
210
0.0
220
0.0
230
1.0
 70
     8
 71
     3
 72
     8
 73
     4
 74
     0
 42
0.000000001
 43
0.00000001
 40
0.0
 40
0.0
 40
0.0
 40
0.0
 40
1.0
 40
1.0
 40
1.0
 40
1.0
 10
7.586302505487397
 20
-2.726293932679832
 30
0.0
 10
7.445480753905632
 20
-2.636417473006265
 30
0.0
 10
7.30810384808698
 20
-2.522106338929429
 30
0.0
 10
7.186425093668308
 20
-2.393110799759516
 30
0.0
  0
SPLINE
  5
13E
330
1F
100
AcDbEntity
  8
외형선
  6
Continuous
 62
     1
370
    15
100
AcDbSpline
210
0.0
220
0.0
230
1.0
 70
     8
 71
     3
 72
     8
 73
     4
 74
     0
 42
0.000000001
 43
0.00000001
 40
0.0
 40
0.0
 40
0.0
 40
0.0
 40
1.0
 40
1.0
 40
1.0
 40
1.0
 10
7.186425093668004
 20
-2.393110799759195
 30
0.0
 10
7.109973668517841
 20
-2.312062198837256
 30
0.0
 10
7.009922159279857
 20
-2.254696703998853
 30
0.0
 10
6.929416710623012
 20
-2.244038552369763
 30
0.0
  0
SPLINE
  5
13F
330
1F
100
AcDbEntity
  8
외형선
  6
Continuous
 62
     1
370
    15
100
AcDbSpline
210
0.0
220
0.0
230
1.0
 70
     8
 71
     3
 72
    10
 73
     6
 74
     0
 42
0.000000001
 43
0.00000001
 40
0.0
 40
0.0
 40
0.0
 40
0.0
 40
0.5
 40
0.5
 40
1.0
 40
1.0
 40
1.0
 40
1.0
 10
6.929416710623003
 20
-2.244038552369759
 30
0.0
 10
6.770161733582547
 20
-2.222954716166089
 30
0.0
 10
6.595956940024698
 20
-2.139863732113757
 30
0.0
 10
6.246800758671236
 20
-1.913656052287187
 30
0.0
 10
6.072455929027513
 20
-1.770536298057996
 30
0.0
 10
5.920322813634948
 20
-1.617711244785749
 30
0.0
  0
SPLINE
  5
148
330
1F
100
AcDbEntity
  8
외형선
  6
Continuous
370
    15
100
AcDbSpline
210
0.0
220
0.0
230
1.0
 70
    24
 71
     3
 72
     9
 73
     5
 74
     0
 42
0.000000001
 43
0.00000001
 40
0.0
 40
0.0
 40
0.0
 40
0.0
 40
0.5
 40
1.0
 40
1.0
 40
1.0
 40
1.0
 10
5.962315328507791
 20
3.005204891796212
 30
0.0
 10
5.962315328507791
 20
2.995345777839556
 30
0.0
 10
5.962315328507791
 20
2.975647582469134
 30
0.0
 10
5.962315328507791
 20
2.955995499936144
 30
0.0
 10
5.962315328507791
 20
2.946182426037957
 30
0.0
  0
SPLINE
  5
149
330
1F
100
AcDbEntity
  8
외형선
  6
Continuous
 62
     1
370
    15
100
AcDbSpline
210
0.0
220
0.0
230
1.0
 70
     8
 71
     3
 72
     8
 73
     4
 74
     0
 42
0.000000001
 43
0.00000001
 40
0.0
 40
0.0
 40
0.0
 40
0.0
 40
1.0
 40
1.0
 40
1.0
 40
1.0
 10
5.962315328493673
 20
3.005204891802133
 30
0.0
 10
6.028087957655321
 20
2.95294010169508
 30
0.0
 10
6.091682388799645
 20
2.894853199745747
 30
0.0
 10
6.151443988274008
 20
2.831926322867872
 30
0.0
  0
SPLINE
  5
14A
330
1F
100
AcDbEntity
  8
외형선
  6
Continuous
 62
     1
370
    15
100
AcDbSpline
210
0.0
220
0.0
230
1.0
 70
     8
 71
     3
 72
     8
 73
     4
 74
     0
 42
0.000000001
 43
0.00000001
 40
0.0
 40
0.0
 40
0.0
 40
0.0
 40
1.0
 40
1.0
 40
1.0
 40
1.0
 10
6.151443988274013
 20
2.831926322867873
 30
0.0
 10
6.22804036881504
 20
2.751273009536398
 30
0.0
 10
6.328385405176836
 20
2.701401010455167
 30
0.0
 10
6.409030392390057
 20
2.703109392264161
 30
0.0
  0
SPLINE
  5
14B
330
1F
100
AcDbEntity
  8
외형선
  6
Continuous
 62
     1
370
    15
100
AcDbSpline
210
0.0
220
0.0
230
1.0
 70
     8
 71
     3
 72
    10
 73
     6
 74
     0
 42
0.000000001
 43
0.00000001
 40
0.0
 40
0.0
 40
0.0
 40
0.0
 40
0.5000000000000002
 40
0.5000000000000002
 40
1.0
 40
1.0
 40
1.0
 40
1.0
 10
6.409030392390064
 20
2.703109392264158
 30
0.0
 10
6.568627661512752
 20
2.706490297646584
 30
0.0
 10
6.742943954237147
 20
2.642862329928054
 30
0.0
 10
7.091616080892428
 20
2.439956385535703
 30
0.0
 10
7.265490812168255
 20
2.300463622132411
 30
0.0
 10
7.417690995760476
 20
2.142364111186204
 30
0.0
  0
SPLINE
  5
14C
330
1F
100
AcDbEntity
  8
외형선
  6
Continuous
 62
     1
370
    15
100
AcDbSpline
210
0.0
220
0.0
230
1.0
 70
     8
 71
     3
 72
     8
 73
     4
 74
     0
 42
0.000000001
 43
0.00000001
 40
0.0
 40
0.0
 40
0.0
 40
0.0
 40
1.0
 40
1.0
 40
1.0
 40
1.0
 10
7.417690995760473
 20
2.142364111186199
 30
0.0
 10
7.494525382125045
 20
2.062551599654436
 30
0.0
 10
7.594759588570901
 20
2.003053415549171
 30
0.0
 10
7.674759913318742
 20
1.987282563315187
 30
0.0
  0
SPLINE
  5
14D
330
1F
100
AcDbEntity
  8
외형선
  6
Continuous
 62
     1
370
    15
100
AcDbSpline
210
0.0
220
0.0
230
1.0
 70
     8
 71
     3
 72
     8
 73
     4
 74
     0
 42
0.000000001
 43
0.00000001
 40
0.0
 40
0.0
 40
0.0
 40
0.0
 40
1.0
 40
1.0
 40
1.0
 40
1.0
 10
7.674759913319204
 20
1.987282563315339
 30
0.0
 10
7.800337416855425
 20
1.962526860654951
 30
0.0
 10
7.937286445406992
 20
1.899049939142525
 30
0.0
 10
8.07640533069057
 20
1.814657878988458
 30
0.0
  0
SPLINE
  5
14E
330
1F
100
AcDbEntity
  8
외형선
  6
Continuous
 62
     1
370
    15
100
AcDbSpline
210
0.0
220
0.0
230
1.0
 70
     8
 71
     3
 72
     8
 73
     4
 74
     0
 42
0.000000001
 43
0.00000001
 40
0.0
 40
0.0
 40
0.0
 40
0.0
 40
1.0
 40
1.0
 40
1.0
 40
1.0
 10
8.076405330690577
 20
1.814657878988456
 30
0.0
 10
8.217210523468644
 20
1.711574922202636
 30
0.0
 10
8.354512457087193
 20
1.593561289364085
 30
0.0
 10
8.476132487212158
 20
1.471661893319027
 30
0.0
  0
SPLINE
  5
14F
330
1F
100
AcDbEntity
  8
외형선
  6
Continuous
 62
     1
370
    15
100
AcDbSpline
210
0.0
220
0.0
230
1.0
 70
     8
 71
     3
 72
     8
 73
     4
 74
     0
 42
0.000000001
 43
0.00000001
 40
0.0
 40
0.0
 40
0.0
 40
0.0
 40
1.0
 40
1.0
 40
1.0
 40
1.0
 10
8.476132487212151
 20
1.471661893319037
 30
0.0
 10
8.552462600118393
 20
1.395156447186837
 30
0.0
 10
8.652558907713587
 20
1.328875053342842
 30
0.0
 10
8.733026242682687
 20
1.297449793259753
 30
0.0
  0
SPLINE
  5
150
330
1F
100
AcDbEntity
  8
외형선
  6
Continuous
 62
     1
370
    15
100
AcDbSpline
210
0.0
220
0.0
230
1.0
 70
     8
 71
     3
 72
    10
 73
     6
 74
     0
 42
0.000000001
 43
0.00000001
 40
0.0
 40
0.0
 40
0.0
 40
0.0
 40
0.5
 40
0.5
 40
1.0
 40
1.0
 40
1.0
 40
1.0
 10
8.73302624268267
 20
1.297449793259768
 30
0.0
 10
8.8922211973108
 20
1.235278691718682
 30
0.0
 10
9.066356904970323
 20
1.123227684811822
 30
0.0
 10
9.41525474585292
 20
0.8690735000957913
 30
0.0
 10
9.58933636339109
 20
0.7273706348534248
 30
0.0
 10
9.741286338267543
 20
0.5931810354807907
 30
0.0
  0
SPLINE
  5
151
330
1F
100
AcDbEntity
  8
외형선
  6
Continuous
 62
     1
370
    15
100
AcDbSpline
210
0.0
220
0.0
230
1.0
 70
     8
 71
     3
 72
     8
 73
     4
 74
     0
 42
0.000000001
 43
0.00000001
 40
0.0
 40
0.0
 40
0.0
 40
0.0
 40
1.0
 40
1.0
 40
1.0
 40
1.0
 10
9.741286338267543
 20
0.5931810354807945
 30
0.0
 10
9.818387556582739
 20
0.5250916422099476
 30
0.0
 10
9.918691296319569
 20
0.4550742346385432
 30
0.0
 10
9.99894179549823
 20
0.4079688687737065
 30
0.0
  0
SPLINE
  5
152
330
1F
100
AcDbEntity
  8
외형선
  6
Continuous
 62
     1
370
    15
100
AcDbSpline
210
0.0
220
0.0
230
1.0
 70
     8
 71
     3
 72
     8
 73
     4
 74
     0
 42
0.000000001
 43
0.00000001
 40
0.0
 40
0.0
 40
0.0
 40
0.0
 40
1.0
 40
1.0
 40
1.0
 40
1.0
 10
9.998941795498709
 20
0.4079688687735933
 30
0.0
 10
10.12469321883096
 20
0.3341554113531547
 30
0.0
 10
10.26182995508278
 20
0.2355571222519056
 30
0.0
 10
10.40131688425863
 20
0.1319318673143716
 30
0.0
  0
SPLINE
  5
153
330
1F
100
AcDbEntity
  8
외형선
  6
Continuous
 62
     1
370
    15
100
AcDbSpline
210
0.0
220
0.0
230
1.0
 70
     8
 71
     3
 72
     8
 73
     4
 74
     0
 42
0.000000001
 43
0.00000001
 40
0.0
 40
0.0
 40
0.0
 40
0.0
 40
1.0
 40
1.0
 40
1.0
 40
1.0
 10
10.40131688425862
 20
0.1319318673143736
 30
0.0
 10
10.54216241134376
 20
0.0249512969550747
 30
0.0
 10
10.67972151298907
 20
-0.0797007895414967
 30
0.0
 10
10.80158157500088
 20
-0.1710112270031776
 30
0.0
  0
SPLINE
  5
154
330
1F
100
AcDbEntity
  8
외형선
  6
Continuous
 62
     1
370
    15
100
AcDbSpline
210
0.0
220
0.0
230
1.0
 70
     8
 71
     3
 72
     8
 73
     4
 74
     0
 42
0.000000001
 43
0.00000001
 40
0.0
 40
0.0
 40
0.0
 40
0.0
 40
1.0
 40
1.0
 40
1.0
 40
1.0
 10
10.80158157500088
 20
-0.1710112270031793
 30
0.0
 10
10.87803814456613
 20
-0.2283005693731617
 30
0.0
 10
10.97818127206377
 20
-0.2979300658515859
 30
0.0
 10
11.05856435077544
 20
-0.3564755754395708
 30
0.0
  0
SPLINE
  5
155
330
1F
100
AcDbEntity
  8
외형선
  6
Continuous
 62
     1
370
    15
100
AcDbSpline
210
0.0
220
0.0
230
1.0
 70
     8
 71
     3
 72
     8
 73
     4
 74
     0
 42
0.000000001
 43
0.00000001
 40
0.0
 40
0.0
 40
0.0
 40
0.0
 40
1.0
 40
1.0
 40
1.0
 40
1.0
 10
12.06527345226052
 20
-1.070639525293349
 30
0.0
 10
12.14216297417159
 20
-1.113128813573069
 30
0.0
 10
12.24240332085674
 20
-1.17917039773898
 30
0.0
 10
12.32237016121269
 20
-1.247864214242684
 30
0.0
  0
SPLINE
  5
156
330
1F
100
AcDbEntity
  8
외형선
  6
Continuous
 62
     1
370
    15
100
AcDbSpline
210
0.0
220
0.0
230
1.0
 70
     8
 71
     3
 72
     8
 73
     4
 74
     0
 42
0.000000001
 43
0.00000001
 40
0.0
 40
0.0
 40
0.0
 40
0.0
 40
1.0
 40
1.0
 40
1.0
 40
1.0
 10
13.12521116968242
 20
-1.780889825520636
 30
0.0
 10
13.20187497342059
 20
-1.808345447115271
 30
0.0
 10
13.30225675628709
 20
-1.868111993927941
 30
0.0
 10
13.38292010001143
 20
-1.942466551715503
 30
0.0
  0
SPLINE
  5
157
330
1F
100
AcDbEntity
  8
외형선
  6
Continuous
 62
     1
370
    15
100
AcDbSpline
210
0.0
220
0.0
230
1.0
 70
     8
 71
     3
 72
     8
 73
     4
 74
     0
 42
0.000000001
 43
0.00000001
 40
0.0
 40
0.0
 40
0.0
 40
0.0
 40
1.0
 40
1.0
 40
1.0
 40
1.0
 10
14.39063152797523
 20
-2.530641702487276
 30
0.0
 10
14.46743694852105
 20
-2.53984721173789
 30
0.0
 10
14.56764657093055
 20
-2.589754393927425
 30
0.0
 10
14.64760519511756
 20
-2.667099013299792
 30
0.0
  0
SPLINE
  5
158
330
1F
100
AcDbEntity
  8
외형선
  6
Continuous
 62
     1
370
    15
100
AcDbSpline
210
0.0
220
0.0
230
1.0
 70
     8
 71
     3
 72
     8
 73
     4
 74
     0
 42
0.000000001
 43
0.00000001
 40
0.0
 40
0.0
 40
0.0
 40
0.0
 40
1.0
 40
1.0
 40
1.0
 40
1.0
 10
14.647605195118
 20
-2.667099013299999
 30
0.0
 10
14.7731817122348
 20
-2.788570186888217
 30
0.0
 10
14.91012209487097
 20
-2.896779075600362
 30
0.0
 10
15.04919414355606
 20
-2.979126339391832
 30
0.0
  0
SPLINE
  5
159
330
1F
100
AcDbEntity
  8
외형선
  6
Continuous
 62
     1
370
    15
100
AcDbSpline
210
0.0
220
0.0
230
1.0
 70
     8
 71
     3
 72
     8
 73
     4
 74
     0
 42
0.000000001
 43
0.00000001
 40
0.0
 40
0.0
 40
0.0
 40
0.0
 40
1.0
 40
1.0
 40
1.0
 40
1.0
 10
15.04919414355606
 20
-2.979126339391838
 30
0.0
 10
15.19002176016316
 20
-3.035918378178634
 30
0.0
 10
15.32723268827653
 20
-3.061155532931188
 30
0.0
 10
15.44899389606561
 20
-3.048962520934161
 30
0.0
  0
SPLINE
  5
15A
330
1F
100
AcDbEntity
  8
외형선
  6
Continuous
 62
     1
370
    15
100
AcDbSpline
210
0.0
220
0.0
230
1.0
 70
     8
 71
     3
 72
     8
 73
     4
 74
     0
 42
0.000000001
 43
0.00000001
 40
0.0
 40
0.0
 40
0.0
 40
0.0
 40
1.0
 40
1.0
 40
1.0
 40
1.0
 10
15.44899389606647
 20
-3.048962520936248
 30
0.0
 10
15.52538513565195
 20
-3.041312799669049
 30
0.0
 10
15.62554365050899
 20
-3.079879737794363
 30
0.0
 10
15.70605689545262
 20
-3.155854868764755
 30
0.0
  0
SPLINE
  5
15B
330
1F
100
AcDbEntity
  8
외형선
  6
Continuous
 62
     1
370
    15
100
AcDbSpline
210
0.0
220
0.0
230
1.0
 70
     8
 71
     3
 72
    10
 73
     6
 74
     0
 42
0.000000001
 43
0.00000001
 40
0.0
 40
0.0
 40
0.0
 40
0.0
 40
0.5
 40
0.5
 40
1.0
 40
1.0
 40
1.0
 40
1.0
 10
15.70605689545262
 20
-3.155854868764756
 30
0.0
 10
15.86545997797135
 20
-3.306273226389327
 30
0.0
 10
16.0397855516543
 20
-3.419593603105054
 30
0.0
 10
16.38895084991332
 20
-3.544442560683394
 30
0.0
 10
16.56314528629624
 20
-3.554659272211541
 30
0.0
 10
16.71512410449902
 20
-3.504059963572621
 30
0.0
  0
SPLINE
  5
15C
330
1F
100
AcDbEntity
  8
외형선
  6
Continuous
 62
     1
370
    15
100
AcDbSpline
210
0.0
220
0.0
230
1.0
 70
     8
 71
     3
 72
     8
 73
     4
 74
     0
 42
0.000000001
 43
0.00000001
 40
0.0
 40
0.0
 40
0.0
 40
0.0
 40
1.0
 40
1.0
 40
1.0
 40
1.0
 10
16.71512410449903
 20
-3.504059963572619
 30
0.0
 10
16.79207077632945
 20
-3.47844160146975
 30
0.0
 10
16.89233158275782
 20
-3.502860158523166
 30
0.0
 10
16.97249093646826
 20
-3.574369576040019
 30
0.0
  0
SPLINE
  5
15D
330
1F
100
AcDbEntity
  8
외형선
  6
Continuous
 62
     1
370
    15
100
AcDbSpline
210
0.0
220
0.0
230
1.0
 70
     8
 71
     3
 72
     8
 73
     4
 74
     0
 42
0.000000001
 43
0.00000001
 40
0.0
 40
0.0
 40
0.0
 40
0.0
 40
1.0
 40
1.0
 40
1.0
 40
1.0
 10
16.97249093646871
 20
-3.574369576040287
 30
0.0
 10
17.09812157761067
 20
-3.686443508207543
 30
0.0
 10
17.23514859337486
 20
-3.768015458800767
 30
0.0
 10
17.37449681412658
 20
-3.814106901596422
 30
0.0
  0
SPLINE
  5
15E
330
1F
100
AcDbEntity
  8
외형선
  6
Continuous
 62
     1
370
    15
100
AcDbSpline
210
0.0
220
0.0
230
1.0
 70
     8
 71
     3
 72
     8
 73
     4
 74
     0
 42
0.000000001
 43
0.00000001
 40
0.0
 40
0.0
 40
0.0
 40
0.0
 40
1.0
 40
1.0
 40
1.0
 40
1.0
 10
17.37449681412658
 20
-3.814106901596428
 30
0.0
 10
17.51528120308275
 20
-3.826014638005677
 30
0.0
 10
17.65273648352341
 20
-3.799245800811321
 30
0.0
 10
17.77448688081454
 20
-3.733145607245941
 30
0.0
  0
SPLINE
  5
15F
330
1F
100
AcDbEntity
  8
외형선
  6
Continuous
 62
     1
370
    15
100
AcDbSpline
210
0.0
220
0.0
230
1.0
 70
     8
 71
     3
 72
     8
 73
     4
 74
     0
 42
0.000000001
 43
0.00000001
 40
0.0
 40
0.0
 40
0.0
 40
0.0
 40
1.0
 40
1.0
 40
1.0
 40
1.0
 10
17.77448688081454
 20
-3.73314560724594
 30
0.0
 10
17.85091408829788
 20
-3.691652081797893
 30
0.0
 10
17.95101545535577
 20
-3.701583255617849
 30
0.0
 10
18.03135873097337
 20
-3.764601921405571
 30
0.0
  0
SPLINE
  5
160
330
1F
100
AcDbEntity
  8
외형선
  6
Continuous
 62
     1
370
    15
100
AcDbSpline
210
0.0
220
0.0
230
1.0
 70
     8
 71
     3
 72
    10
 73
     6
 74
     0
 42
0.000000001
 43
0.00000001
 40
0.0
 40
0.0
 40
0.0
 40
0.0
 40
0.4712620330659902
 40
0.94076424472208
 40
1.0
 40
1.0
 40
1.0
 40
1.0
 10
18.03135873097338
 20
-3.764601921405571
 30
0.0
 10
18.12371263852094
 20
-3.821830991332797
 30
0.0
 10
18.30807557884921
 20
-3.936075422177272
 30
0.0
 10
18.52395966126083
 20
-3.986040485216992
 30
0.0
 10
18.63131575967575
 20
-3.955448146655812
 30
0.0
 10
18.64334311532447
 20
-3.9520208151727
 30
0.0
  0
SPLINE
  5
161
330
1F
100
AcDbEntity
  8
외형선
  6
Continuous
 62
     1
370
    15
100
AcDbSpline
210
0.0
220
0.0
230
1.0
 70
     8
 71
     3
 72
    10
 73
     6
 74
     0
 42
0.000000001
 43
0.00000001
 40
0.0
 40
0.0
 40
0.0
 40
0.0
 40
0.4383566634489116
 40
0.8799175211828346
 40
1.0
 40
1.0
 40
1.0
 40
1.0
 10
19.29561724338348
 20
-3.796228768621523
 30
0.0
 10
19.31634670248012
 20
-3.808722387530076
 30
0.0
 10
19.35795714389617
 20
-3.83380094820285
 30
0.0
 10
19.40669099853368
 20
-3.857196219387795
 30
0.0
 10
19.4347077904759
 20
-3.866829051933845
 30
0.0
 10
19.44069793690154
 20
-3.868888605274695
 30
0.0
  0
SPLINE
  5
165
330
1F
100
AcDbEntity
  8
외형선
  6
Continuous
 62
     1
370
    15
100
AcDbSpline
210
0.0
220
0.0
230
1.0
 70
     8
 71
     3
 72
     8
 73
     4
 74
     0
 42
0.000000001
 43
0.00000001
 40
0.0
 40
0.0
 40
0.0
 40
0.0
 40
1.0
 40
1.0
 40
1.0
 40
1.0
 10
5.962315328507798
 20
-3.707785389487282
 30
0.0
 10
6.195264048469943
 20
-3.813165228620732
 30
0.0
 10
6.438220174769437
 20
-3.82071837707028
 30
0.0
 10
6.64275664222754
 20
-3.716416115312176
 30
0.0
  0
SPLINE
  5
166
330
1F
100
AcDbEntity
  8
외형선
  6
Continuous
 62
     1
370
    15
100
AcDbSpline
210
0.0
220
0.0
230
1.0
 70
     8
 71
     3
 72
     8
 73
     4
 74
     0
 42
0.000000001
 43
0.00000001
 40
0.0
 40
0.0
 40
0.0
 40
0.0
 40
1.0
 40
1.0
 40
1.0
 40
1.0
 10
6.642756642227611
 20
-3.716416115312213
 30
0.0
 10
6.719610327237091
 20
-3.677224995652458
 30
0.0
 10
6.819794807160799
 20
-3.689402210261787
 30
0.0
 10
6.899697373453127
 20
-3.754126176492217
 30
0.0
  0
SPLINE
  5
167
330
1F
100
AcDbEntity
  8
외형선
  6
Continuous
 62
     1
370
    15
100
AcDbSpline
210
0.0
220
0.0
230
1.0
 70
     8
 71
     3
 72
     8
 73
     4
 74
     0
 42
0.000000001
 43
0.00000001
 40
0.0
 40
0.0
 40
0.0
 40
0.0
 40
1.0
 40
1.0
 40
1.0
 40
1.0
 10
6.899697373453116
 20
-3.75412617649221
 30
0.0
 10
7.02529706861963
 20
-3.85586646852197
 30
0.0
 10
7.161941530435295
 20
-3.921465729304996
 30
0.0
 10
7.301127623318156
 20
-3.949620647969139
 30
0.0
  0
SPLINE
  5
168
330
1F
100
AcDbEntity
  8
외형선
  6
Continuous
 62
     1
370
    15
100
AcDbSpline
210
0.0
220
0.0
230
1.0
 70
     8
 71
     3
 72
    11
 73
     7
 74
     0
 42
0.000000001
 43
0.00000001
 40
0.0
 40
0.0
 40
0.0
 40
0.0
 40
0.284615157545861
 40
0.5711879057975338
 40
0.8097518995322653
 40
1.0
 40
1.0
 40
1.0
 40
1.0
 10
7.301127623317357
 20
-3.949620647969906
 30
0.0
 10
7.327041889760417
 20
-3.947447964660079
 30
0.0
 10
7.379048661667871
 20
-3.943087654266203
 30
0.0
 10
7.45159636914616
 20
-3.926998908418325
 30
0.0
 10
7.514735136446716
 20
-3.907691598279329
 30
0.0
 10
7.55147995352739
 20
-3.891751829303256
 30
0.0
 10
7.567782272762659
 20
-3.884679942081342
 30
0.0
  0
SPLINE
  5
169
330
1F
100
AcDbEntity
  8
외형선
  6
Continuous
 62
     1
370
    15
100
AcDbSpline
210
0.0
220
0.0
230
1.0
 70
     8
 71
     3
 72
    10
 73
     6
 74
     0
 42
0.000000001
 43
0.00000001
 40
0.0
 40
0.0
 40
0.0
 40
0.0
 40
0.2108814198625849
 40
0.6013965654087335
 40
1.0
 40
1.0
 40
1.0
 40
1.0
 10
7.870451795947404
 20
-3.773365359362349
 30
0.0
 10
7.876900902670028
 20
-3.77421011184024
 30
0.0
 10
7.8952926160579
 20
-3.77661919671436
 30
0.0
 10
7.925107217132246
 20
-3.78794642100496
 30
0.0
 10
7.94706412587846
 20
-3.800996911277021
 30
0.0
 10
7.958155106954744
 20
-3.80758903871703
 30
0.0
  0
LINE
  5
16A
330
1F
100
AcDbEntity
  8
외형선
  6
Continuous
 62
     1
370
    15
100
AcDbLine
 10
7.958155106954741
 20
-3.807589038717029
 30
0.0
 11
7.994055060272726
 21
-3.822799614449949
 31
0.0
  0
SPLINE
  5
16B
330
1F
100
AcDbEntity
  8
외형선
  6
Continuous
 62
     1
370
    15
100
AcDbSpline
210
0.0
220
0.0
230
1.0
 70
     8
 71
     3
 72
    12
 73
     8
 74
     0
 42
0.000000001
 43
0.00000001
 40
0.0
 40
0.0
 40
0.0
 40
0.0
 40
0.1417724315348183
 40
0.3530951996293323
 40
0.5657250878245442
 40
0.7822351650074255
 40
0.9999999999999999
 40
0.9999999999999999
 40
0.9999999999999999
 40
0.9999999999999999
 10
20.92939153180061
 20
3.072881155290844
 30
0.0
 10
20.94380663924151
 20
3.085385609892255
 30
0.0
 10
20.97970857859898
 20
3.116528920661082
 30
0.0
 10
21.03890895580109
 20
3.162322678800343
 30
0.0
 10
21.10681382242297
 20
3.210519626307934
 30
0.0
 10
21.17629895641415
 20
3.254978766697588
 30
0.0
 10
21.2234005988571
 20
3.280723896409243
 30
0.0
 10
21.24701946586253
 20
3.293633654183267
 30
0.0
  0
SPLINE
  5
16C
330
1F
100
AcDbEntity
  8
외형선
  6
Continuous
 62
     1
370
    15
100
AcDbSpline
210
0.0
220
0.0
230
1.0
 70
     8
 71
     3
 72
     8
 73
     4
 74
     0
 42
0.000000001
 43
0.00000001
 40
0.0
 40
0.0
 40
0.0
 40
0.0
 40
1.0
 40
1.0
 40
1.0
 40
1.0
 10
21.24701946586252
 20
3.293633654183278
 30
0.0
 10
21.38787394724651
 20
3.337999192173971
 30
0.0
 10
21.52550792046385
 20
3.34771374194263
 30
0.0
 10
21.64753995169909
 20
3.318810257429403
 30
0.0
  0
SPLINE
  5
16D
330
1F
100
AcDbEntity
  8
외형선
  6
Continuous
 62
     1
370
    15
100
AcDbSpline
210
0.0
220
0.0
230
1.0
 70
     8
 71
     3
 72
     8
 73
     4
 74
     0
 42
0.000000001
 43
0.00000001
 40
0.0
 40
0.0
 40
0.0
 40
0.0
 40
1.0
 40
1.0
 40
1.0
 40
1.0
 10
21.64753995169744
 20
3.318810257429911
 30
0.0
 10
21.72418502330552
 20
3.300656747914313
 30
0.0
 10
21.8245388862579
 20
3.331363927561889
 30
0.0
 10
21.90516622582587
 20
3.404999272378012
 30
0.0
  0
SPLINE
  5
16E
330
1F
100
AcDbEntity
  8
외형선
  6
Continuous
 62
     1
370
    15
100
AcDbSpline
210
0.0
220
0.0
230
1.0
 70
     8
 71
     3
 72
    10
 73
     6
 74
     0
 42
0.000000001
 43
0.00000001
 40
0.0
 40
0.0
 40
0.0
 40
0.0
 40
0.5
 40
0.5
 40
1.0
 40
1.0
 40
1.0
 40
1.0
 10
21.90516622582587
 20
3.404999272378015
 30
0.0
 10
22.06466588386824
 20
3.550667136168839
 30
0.0
 10
22.2383846551868
 20
3.652059665089127
 30
0.0
 10
22.58699586757055
 20
3.746638899665223
 30
0.0
 10
22.76141509670027
 20
3.738181697210349
 30
0.0
 10
22.91369408266407
 20
3.667902436876278
 30
0.0
  0
SPLINE
  5
16F
330
1F
100
AcDbEntity
  8
외형선
  6
Continuous
 62
     1
370
    15
100
AcDbSpline
210
0.0
220
0.0
230
1.0
 70
     8
 71
     3
 72
     8
 73
     4
 74
     0
 42
0.000000001
 43
0.00000001
 40
0.0
 40
0.0
 40
0.0
 40
0.0
 40
1.0
 40
1.0
 40
1.0
 40
1.0
 10
22.91369408266408
 20
3.667902436876271
 30
0.0
 10
22.99055736207286
 20
3.632428767351154
 30
0.0
 10
23.09079511792959
 20
3.648106035049539
 30
0.0
 10
23.17075649520703
 20
3.714947029222753
 30
0.0
  0
SPLINE
  5
170
330
1F
100
AcDbEntity
  8
외형선
  6
Continuous
 62
     1
370
    15
100
AcDbSpline
210
0.0
220
0.0
230
1.0
 70
     8
 71
     3
 72
     8
 73
     4
 74
     0
 42
0.000000001
 43
0.00000001
 40
0.0
 40
0.0
 40
0.0
 40
0.0
 40
1.0
 40
1.0
 40
1.0
 40
1.0
 10
23.17075649520704
 20
3.71494702922275
 30
0.0
 10
23.29640645055497
 20
3.819979836550893
 30
0.0
 10
23.43334660898797
 20
3.890386371389003
 30
0.0
 10
23.57229811722534
 20
3.923845741225017
 30
0.0
  0
SPLINE
  5
171
330
1F
100
AcDbEntity
  8
외형선
  6
Continuous
 62
     1
370
    15
100
AcDbSpline
210
0.0
220
0.0
230
1.0
 70
     8
 71
     3
 72
     8
 73
     4
 74
     0
 42
0.000000001
 43
0.00000001
 40
0.0
 40
0.0
 40
0.0
 40
0.0
 40
1.0
 40
1.0
 40
1.0
 40
1.0
 10
23.57229811722533
 20
3.92384574122502
 30
0.0
 10
23.71285889144733
 20
3.921897700818354
 30
0.0
 10
23.85014281581206
 20
3.8806493880886
 30
0.0
 10
23.97201078750376
 20
3.800684556346629
 30
0.0
  0
SPLINE
  5
172
330
1F
100
AcDbEntity
  8
외형선
  6
Continuous
 62
     1
370
    15
100
AcDbSpline
210
0.0
220
0.0
230
1.0
 70
     8
 71
     3
 72
     8
 73
     4
 74
     0
 42
0.000000001
 43
0.00000001
 40
0.0
 40
0.0
 40
0.0
 40
0.0
 40
1.0
 40
1.0
 40
1.0
 40
1.0
 10
23.97201078750426
 20
3.800684556346421
 30
0.0
 10
24.04839617371935
 20
3.750563556780625
 30
0.0
 10
24.14855639691345
 20
3.751368765037252
 30
0.0
 10
24.22900451803351
 20
3.808110889673922
 30
0.0
  0
SPLINE
  5
173
330
1F
100
AcDbEntity
  8
외형선
  6
Continuous
 62
     1
370
    15
100
AcDbSpline
210
0.0
220
0.0
230
1.0
 70
     8
 71
     3
 72
     8
 73
     4
 74
     0
 42
0.000000001
 43
0.00000001
 40
0.0
 40
0.0
 40
0.0
 40
0.0
 40
1.0
 40
1.0
 40
1.0
 40
1.0
 10
24.22900451803107
 20
3.808110889672199
 30
0.0
 10
24.41182469007346
 20
3.937058649342673
 30
0.0
 10
24.61348679795979
 20
3.98218630421398
 30
0.0
 10
24.8140607136357
 20
3.950645217034019
 30
0.0
  0
SPLINE
  5
174
330
1F
100
AcDbEntity
  8
외형선
  6
Continuous
 62
     1
370
    15
100
AcDbSpline
210
0.0
220
0.0
230
1.0
 70
     8
 71
     3
 72
    18
 73
    14
 74
     0
 42
0.000000001
 43
0.00000001
 40
0.0
 40
0.0
 40
0.0
 40
0.0
 40
0.2499999999999993
 40
0.2499999999999993
 40
0.4999999999999987
 40
0.4999999999999987
 40
0.624999999999999
 40
0.624999999999999
 40
0.7499999999999993
 40
0.7499999999999993
 40
0.8749999999999997
 40
0.8749999999999997
 40
1.0
 40
1.0
 40
1.0
 40
1.0
 10
24.81406071363591
 20
3.950645217033848
 30
0.0
 10
24.82294560210306
 20
3.705593128353191
 30
0.0
 10
24.81363177390491
 20
3.462422299081584
 30
0.0
 10
24.7442530102446
 20
2.981326944429797
 30
0.0
 10
24.68255753631432
 20
2.741179213107059
 30
0.0
 10
24.54041117304908
 20
2.415459908305986
 30
0.0
 10
24.48379289510246
 20
2.310658003808356
 30
0.0
 10
24.35585868573096
 20
2.120613540309142
 30
0.0
 10
24.28451736934981
 20
2.034674458838019
 30
0.0
 10
24.12636102249655
 20
1.881855969832274
 30
0.0
 10
24.03909757574685
 20
1.815152003685919
 30
0.0
 10
23.85793826361831
 20
1.707661982935639
 30
0.0
 10
23.76276401448965
 20
1.665647110858754
 30
0.0
 10
23.6639733012713
 20
1.635262512107285
 30
0.0
  0
SPLINE
  5
175
330
1F
100
AcDbEntity
  8
외형선
  6
Continuous
 62
     1
370
    15
100
AcDbSpline
210
0.0
220
0.0
230
1.0
 70
     8
 71
     3
 72
     8
 73
     4
 74
     0
 42
0.000000001
 43
0.00000001
 40
0.0
 40
0.0
 40
0.0
 40
0.0
 40
1.0
 40
1.0
 40
1.0
 40
1.0
 10
25.01231532850779
 20
0.9896463916443087
 30
0.0
 10
24.55012262452803
 20
1.24042267876562
 30
0.0
 10
24.10085518393908
 20
1.455125965889308
 30
0.0
 10
23.66397330126998
 20
1.63526251210382
 30
0.0
  0
LINE
  5
176
330
1F
100
AcDbEntity
  8
외형선
  6
Continuous
 62
     1
370
    15
100
AcDbLine
 10
25.01231532850779
 20
0.4840109183655095
 30
0.0
 11
25.01231532850779
 21
0.9896463916443093
 31
0.0
  0
SPLINE
  5
177
330
1F
100
AcDbEntity
  8
외형선
  6
Continuous
 62
     1
370
    15
100
AcDbSpline
210
0.0
220
0.0
230
1.0
 70
     8
 71
     3
 72
     8
 73
     4
 74
     0
 42
0.000000001
 43
0.00000001
 40
0.0
 40
0.0
 40
0.0
 40
0.0
 40
1.0
 40
1.0
 40
1.0
 40
1.0
 10
24.98434487573119
 20
0.4955512312663116
 30
0.0
 10
24.99364875111052
 20
0.4884691496061943
 30
0.0
 10
25.00297201117193
 20
0.4814584318669183
 30
0.0
 10
25.01231532850768
 20
0.4745199249237924
 30
0.0
  0
SPLINE
  5
178
330
1F
100
AcDbEntity
  8
외형선
  6
Continuous
 62
     1
370
    15
100
AcDbSpline
210
0.0
220
0.0
230
1.0
 70
     8
 71
     3
 72
     8
 73
     4
 74
     0
 42
0.000000001
 43
0.00000001
 40
0.0
 40
0.0
 40
0.0
 40
0.0
 40
1.0
 40
1.0
 40
1.0
 40
1.0
 10
24.98434487573221
 20
0.495551231265614
 30
0.0
 10
24.91200043890129
 20
0.5458013304810911
 30
0.0
 10
24.82185159432847
 20
0.6082286607507745
 30
0.0
 10
24.74869747661022
 20
0.6649653917981532
 30
0.0
  0
SPLINE
  5
179
330
1F
100
AcDbEntity
  8
외형선
  6
Continuous
 62
     1
370
    15
100
AcDbSpline
210
0.0
220
0.0
230
1.0
 70
     8
 71
     3
 72
     8
 73
     4
 74
     0
 42
0.000000001
 43
0.00000001
 40
0.0
 40
0.0
 40
0.0
 40
0.0
 40
1.0
 40
1.0
 40
1.0
 40
1.0
 10
23.74069864015234
 20
1.365458667269983
 30
0.0
 10
23.66386986562416
 20
1.402483684454069
 30
0.0
 10
23.56381200315879
 20
1.466832727331771
 30
0.0
 10
23.48383322708344
 20
1.538382938799714
 30
0.0
  0
SPLINE
  5
17A
330
1F
100
AcDbEntity
  8
외형선
  6
Continuous
 62
     1
370
    15
100
AcDbSpline
210
0.0
220
0.0
230
1.0
 70
     8
 71
     3
 72
     8
 73
     4
 74
     0
 42
0.000000001
 43
0.00000001
 40
0.0
 40
0.0
 40
0.0
 40
0.0
 40
1.0
 40
1.0
 40
1.0
 40
1.0
 10
22.68235839415542
 20
2.048334101713979
 30
0.0
 10
22.60588446612448
 20
2.069411793051582
 30
0.0
 10
22.50571673902322
 20
2.126112797595681
 30
0.0
 10
22.4253009611972
 20
2.201926910316711
 30
0.0
  0
SPLINE
  5
17B
330
1F
100
AcDbEntity
  8
외형선
  6
Continuous
 62
     1
370
    15
100
AcDbSpline
210
0.0
220
0.0
230
1.0
 70
     8
 71
     3
 72
     8
 73
     4
 74
     0
 42
0.000000001
 43
0.00000001
 40
0.0
 40
0.0
 40
0.0
 40
0.0
 40
1.0
 40
1.0
 40
1.0
 40
1.0
 10
21.41640060918345
 20
2.753554994569905
 30
0.0
 10
21.33935752461727
 20
2.756303496887134
 30
0.0
 10
21.23899707395344
 20
2.802199654852541
 30
0.0
 10
21.15890058460641
 20
2.87974182771184
 30
0.0
  0
SPLINE
  5
17C
330
1F
100
AcDbEntity
  8
외형선
  6
Continuous
 62
     1
370
    15
100
AcDbSpline
210
0.0
220
0.0
230
1.0
 70
     8
 71
     3
 72
     8
 73
     4
 74
     0
 42
0.000000001
 43
0.00000001
 40
0.0
 40
0.0
 40
0.0
 40
0.0
 40
1.0
 40
1.0
 40
1.0
 40
1.0
 10
21.15890058460588
 20
2.87974182771211
 30
0.0
 10
21.03306927990533
 20
3.001560310141654
 30
0.0
 10
20.89621429661042
 20
3.106802113387956
 30
0.0
 10
20.75696989951824
 20
3.183738542954185
 30
0.0
  0
SPLINE
  5
17D
330
1F
100
AcDbEntity
  8
외형선
  6
Continuous
 62
     1
370
    15
100
AcDbSpline
210
0.0
220
0.0
230
1.0
 70
     8
 71
     3
 72
     8
 73
     4
 74
     0
 42
0.000000001
 43
0.00000001
 40
0.0
 40
0.0
 40
0.0
 40
0.0
 40
1.0
 40
1.0
 40
1.0
 40
1.0
 10
20.75696989951825
 20
3.183738542954178
 30
0.0
 10
20.61638987505429
 20
3.232931986176832
 30
0.0
 10
20.47889311860607
 20
3.248359657145872
 30
0.0
 10
20.35700585367714
 20
3.225393387165037
 30
0.0
  0
SPLINE
  5
17E
330
1F
100
AcDbEntity
  8
외형선
  6
Continuous
 62
     1
370
    15
100
AcDbSpline
210
0.0
220
0.0
230
1.0
 70
     8
 71
     3
 72
     8
 73
     4
 74
     0
 42
0.000000001
 43
0.00000001
 40
0.0
 40
0.0
 40
0.0
 40
0.0
 40
1.0
 40
1.0
 40
1.0
 40
1.0
 10
20.35700585367713
 20
3.225393387165042
 30
0.0
 10
20.28061410709462
 20
3.210999484099412
 30
0.0
 10
20.18046036687187
 20
3.244540912369181
 30
0.0
 10
20.10005212532543
 20
3.319069671869259
 30
0.0
  0
SPLINE
  5
17F
330
1F
100
AcDbEntity
  8
외형선
  6
Continuous
 62
     1
370
    15
100
AcDbSpline
210
0.0
220
0.0
230
1.0
 70
     8
 71
     3
 72
    10
 73
     6
 74
     0
 42
0.000000001
 43
0.00000001
 40
0.0
 40
0.0
 40
0.0
 40
0.0
 40
0.5
 40
0.5
 40
1.0
 40
1.0
 40
1.0
 40
1.0
 10
20.10005212532541
 20
3.319069671869272
 30
0.0
 10
19.94082564010494
 20
3.466653454262825
 30
0.0
 10
19.76684739153174
 20
3.572490604829004
 30
0.0
 10
19.41888848116555
 20
3.678461610825367
 30
0.0
 10
19.24520774612954
 20
3.677039738748705
 30
0.0
 10
19.0932169169809
 20
3.613952713103153
 30
0.0
  0
SPLINE
  5
180
330
1F
100
AcDbEntity
  8
외형선
  6
Continuous
 62
     1
370
    15
100
AcDbSpline
210
0.0
220
0.0
230
1.0
 70
     8
 71
     3
 72
     8
 73
     4
 74
     0
 42
0.000000001
 43
0.00000001
 40
0.0
 40
0.0
 40
0.0
 40
0.0
 40
1.0
 40
1.0
 40
1.0
 40
1.0
 10
19.09321691698089
 20
3.613952713103151
 30
0.0
 10
19.01631134954729
 20
3.5820314219822
 30
0.0
 10
18.91600731305287
 20
3.601000290688929
 30
0.0
 10
18.8359337933646
 20
3.669662247145198
 30
0.0
  0
SPLINE
  5
181
330
1F
100
AcDbEntity
  8
외형선
  6
Continuous
 62
     1
370
    15
100
AcDbSpline
210
0.0
220
0.0
230
1.0
 70
     8
 71
     3
 72
     8
 73
     4
 74
     0
 42
0.000000001
 43
0.00000001
 40
0.0
 40
0.0
 40
0.0
 40
0.0
 40
1.0
 40
1.0
 40
1.0
 40
1.0
 10
18.8359337933641
 20
3.669662247145518
 30
0.0
 10
18.71006229277692
 20
3.777595350698729
 30
0.0
 10
18.57281703614741
 20
3.852265328421914
 30
0.0
 10
18.43346244774193
 20
3.890508226569794
 30
0.0
  0
SPLINE
  5
182
330
1F
100
AcDbEntity
  8
외형선
  6
Continuous
 62
     1
370
    15
100
AcDbSpline
210
0.0
220
0.0
230
1.0
 70
     8
 71
     3
 72
     8
 73
     4
 74
     0
 42
0.000000001
 43
0.00000001
 40
0.0
 40
0.0
 40
0.0
 40
0.0
 40
1.0
 40
1.0
 40
1.0
 40
1.0
 10
18.43346244774195
 20
3.890508226569788
 30
0.0
 10
18.29227142114292
 20
3.893778337944286
 30
0.0
 10
18.15465709942526
 20
3.858029036802626
 30
0.0
 10
18.03252552101891
 20
3.783095895872081
 30
0.0
  0
SPLINE
  5
183
330
1F
100
AcDbEntity
  8
외형선
  6
Continuous
 62
     1
370
    15
100
AcDbSpline
210
0.0
220
0.0
230
1.0
 70
     8
 71
     3
 72
     8
 73
     4
 74
     0
 42
0.000000001
 43
0.00000001
 40
0.0
 40
0.0
 40
0.0
 40
0.0
 40
1.0
 40
1.0
 40
1.0
 40
1.0
 10
18.03252552101898
 20
3.783095895872065
 30
0.0
 10
17.95601546930027
 20
3.736153585268609
 30
0.0
 10
17.85576849449029
 20
3.740245118872982
 30
0.0
 10
17.77516015152868
 20
3.799489426492641
 30
0.0
  0
LINE
  5
184
330
1F
100
AcDbEntity
  8
외형선
  6
Continuous
 62
     1
370
    15
100
AcDbLine
 10
17.77516015152867
 20
3.799489426492651
 30
0.0
 11
17.55152501816772
 21
3.909931992767996
 31
0.0
  0
SPLINE
  5
18A
330
1F
100
AcDbEntity
  8
외형선
  6
Continuous
 62
     1
370
    15
100
AcDbSpline
210
0.0
220
0.0
230
1.0
 70
     8
 71
     3
 72
    12
 73
     8
 74
     0
 42
0.000000001
 43
0.00000001
 40
0.0
 40
0.0
 40
0.0
 40
0.0
 40
0.5000000000000001
 40
0.5000000000000001
 40
0.75
 40
0.75
 40
1.0
 40
1.0
 40
1.0
 40
1.0
 10
10.68550158380226
 20
2.701905191053668
 30
0.0
 10
10.63992128945986
 20
2.359546606818118
 30
0.0
 10
10.59059468337645
 20
1.949977096209446
 30
0.0
 10
10.51778122932576
 20
1.2878545871772
 30
0.0
 10
10.49372586984698
 20
1.059583193757247
 30
0.0
 10
10.44716370969612
 20
0.5992860968468071
 30
0.0
 10
10.42488261944602
 20
0.3680938703927133
 30
0.0
 10
10.40131688425853
 20
0.1319318673133544
 30
0.0
  0
LINE
  5
18B
330
1F
100
AcDbEntity
  8
외형선
  6
Continuous
 62
     1
370
    15
100
AcDbLine
 10
25.01231532850779
 20
-2.053613000865014
 30
0.0
 11
25.01231532850779
 21
0.4745199249235753
 31
0.0
  0
SPLINE
  5
18C
330
1F
100
AcDbEntity
  8
외형선
  6
Continuous
 62
     1
370
    15
100
AcDbSpline
210
0.0
220
0.0
230
1.0
 70
     8
 71
     3
 72
     8
 73
     4
 74
     0
 42
0.000000001
 43
0.00000001
 40
0.0001094052155982
 40
0.0001094052155982
 40
0.0001094052155982
 40
0.0001094052155982
 40
0.0003101536342217
 40
0.0003101536342217
 40
0.0003101536342217
 40
0.0003101536342217
 10
24.88292230099264
 20
-2.194021731566216
 30
0.0
 10
24.92616959088581
 20
-2.14723912525103
 30
0.0
 10
24.96930430469472
 20
-2.100436190447665
 30
0.0
 10
25.01231532850779
 20
-2.053613000865014
 30
0.0
  0
SPLINE
  5
18D
330
1F
100
AcDbEntity
  8
외형선
  6
Continuous
 62
     1
370
    15
100
AcDbSpline
210
0.0
220
0.0
230
1.0
 70
     8
 71
     3
 72
    14
 73
    10
 74
     0
 42
0.000000001
 43
0.00000001
 40
0.0
 40
0.0
 40
0.0
 40
0.0
 40
0.25
 40
0.25
 40
0.5
 40
0.5
 40
0.75
 40
0.75
 40
1.0
 40
1.0
 40
1.0
 40
1.0
 10
24.97046885826373
 20
0.1321495102590778
 30
0.0
 10
24.96202129067807
 20
-0.072096647270464
 30
0.0
 10
24.9537994602609
 20
-0.2755009776068207
 30
0.0
 10
24.93783065633121
 20
-0.680662174866359
 30
0.0
 10
24.93003141771657
 20
-0.88386455401206
 30
0.0
 10
24.9153335167846
 20
-1.277418659481905
 30
0.0
 10
24.90839675459464
 20
-1.468656638253878
 30
0.0
 10
24.89529270233473
 20
-1.840160883849546
 30
0.0
 10
24.88906511263571
 20
-2.021360224100942
 30
0.0
 10
24.88292230099264
 20
-2.194021731566214
 30
0.0
  0
SPLINE
  5
18E
330
1F
100
AcDbEntity
  8
외형선
  6
Continuous
 62
     1
370
    15
100
AcDbSpline
210
0.0
220
0.0
230
1.0
 70
     8
 71
     3
 72
     8
 73
     4
 74
     0
 42
0.000000001
 43
0.00000001
 40
0.0
 40
0.0
 40
0.0
 40
0.0
 40
1.0
 40
1.0
 40
1.0
 40
1.0
 10
24.98434487573076
 20
0.4955512312660721
 30
0.0
 10
24.98013825144755
 20
0.3751460962497246
 30
0.0
 10
24.97550912497251
 20
0.2540135969042058
 30
0.0
 10
24.97046885826433
 20
0.1321495102735956
 30
0.0
  0
SPLINE
  5
18F
330
1F
100
AcDbEntity
  8
외형선
  6
Continuous
 62
     1
370
    15
100
AcDbSpline
210
0.0
220
0.0
230
1.0
 70
     8
 71
     3
 72
    10
 73
     6
 74
     0
 42
0.000000001
 43
0.00000001
 40
0.0
 40
0.0
 40
0.0
 40
0.0
 40
0.5
 40
0.5
 40
1.0
 40
1.0
 40
1.0
 40
1.0
 10
15.33431023513171
 20
-0.5297558785712564
 30
0.0
 10
15.28580302367959
 20
-1.001805263987814
 30
0.0
 10
15.23694950039272
 20
-1.46265791055116
 30
0.0
 10
15.14671225955245
 20
-2.282697210829038
 30
0.0
 10
15.09768384811101
 20
-2.66446281092152
 30
0.0
 10
15.04919414355606
 20
-2.979126339391826
 30
0.0
  0
SPLINE
  5
190
330
1F
100
AcDbEntity
  8
외형선
  6
Continuous
 62
     1
370
    15
100
AcDbSpline
210
0.0
220
0.0
230
1.0
 70
     8
 71
     3
 72
     8
 73
     4
 74
     0
 42
0.000000001
 43
0.00000001
 40
0.0
 40
0.0
 40
0.0
 40
0.0
 40
1.0
 40
1.0
 40
1.0
 40
1.0
 10
24.88292230099265
 20
-2.194021731566215
 30
0.0
 10
24.86055832499044
 20
-2.202649961866195
 30
0.0
 10
24.83839418094444
 20
-2.210741495521782
 30
0.0
 10
24.81656411077971
 20
-2.218243189364774
 30
0.0
  0
SPLINE
  5
191
330
1F
100
AcDbEntity
  8
외형선
  6
Continuous
 62
     1
370
    15
100
AcDbSpline
210
0.0
220
0.0
230
1.0
 70
     8
 71
     3
 72
    12
 73
     8
 74
     0
 42
0.000000001
 43
0.00000001
 40
0.0
 40
0.0
 40
0.0
 40
0.0
 40
0.2500000000000001
 40
0.2500000000000001
 40
0.5000000000000001
 40
0.5000000000000001
 40
1.0
 40
1.0
 40
1.0
 40
1.0
 10
20.75696989951825
 20
3.18373854295418
 30
0.0
 10
20.73306580293821
 20
3.04209718046673
 30
0.0
 10
20.70993882086076
 20
2.884963035039812
 30
0.0
 10
20.6645017377203
 20
2.544630059687226
 30
0.0
 10
20.64085314799726
 20
2.357986010584949
 30
0.0
 10
20.56869979921807
 20
1.759530861301739
 30
0.0
 10
20.51903531138075
 20
1.308681825023416
 30
0.0
 10
20.47243869958023
 20
0.8491226453680706
 30
0.0
  0
SPLINE
  5
195
330
1F
100
AcDbEntity
  8
외형선
  6
Continuous
 62
     1
370
    15
100
AcDbSpline
210
0.0
220
0.0
230
1.0
 70
     8
 71
     3
 72
    12
 73
     8
 74
     0
 42
0.000000001
 43
0.00000001
 40
0.0
 40
0.0
 40
0.0
 40
0.0
 40
0.5
 40
0.5
 40
0.75
 40
0.75
 40
1.0
 40
1.0
 40
1.0
 40
1.0
 10
8.361481432473354
 20
3.684649149155194
 30
0.0
 10
8.313326312713649
 20
3.508079145611178
 30
0.0
 10
8.263790311840253
 20
3.248257664898579
 30
0.0
 10
8.19430666464163
 20
2.773976707161687
 30
0.0
 10
8.17202291948447
 20
2.602752168984911
 30
0.0
 10
8.124894861289643
 20
2.2283698995193
 30
0.0
 10
8.100686724212306
 20
2.026575305850917
 30
0.0
 10
8.076405330689923
 20
1.81465787898274
 30
0.0
  0
SPLINE
  5
196
330
1F
100
AcDbEntity
  8
외형선
  6
Continuous
370
    15
100
AcDbSpline
210
0.0
220
0.0
230
1.0
 70
    24
 71
     3
 72
    14
 73
    10
 74
     0
 42
0.000000001
 43
0.00000001
 40
0.0
 40
0.0
 40
0.0
 40
0.0
 40
0.2499999999999998
 40
0.2499999999999998
 40
0.4999999999999999
 40
0.4999999999999999
 40
0.7499999999999999
 40
0.7499999999999999
 40
1.0
 40
1.0
 40
1.0
 40
1.0
 10
5.962315328507791
 20
-3.707785389487261
 30
0.0
 10
5.962315328507791
 20
-3.618170040765178
 30
0.0
 10
5.962315328507853
 20
-3.507853688030226
 30
0.0
 10
5.962315328507853
 20
-3.246194355583712
 30
0.0
 10
5.962315328507816
 20
-3.09277273116652
 30
0.0
 10
5.962315328507816
 20
-2.753895178572767
 30
0.0
 10
5.962315328507795
 20
-2.568799129206382
 30
0.0
 10
5.962315328507795
 20
-2.167204918149736
 30
0.0
 10
5.962315328507791
 20
-1.949992112818428
 30
0.0
 10
5.962315328507791
 20
-1.723227518301195
 30
0.0
  0
SPLINE
  5
198
330
1F
100
AcDbEntity
  8
외형선
  6
Continuous
 62
     1
370
    15
100
AcDbSpline
210
0.0
220
0.0
230
1.0
 70
     8
 71
     3
 72
    10
 73
     6
 74
     0
 42
0.000000001
 43
0.00000001
 40
0.0
 40
0.0
 40
0.0
 40
0.0
 40
0.5
 40
0.5
 40
1.0
 40
1.0
 40
1.0
 40
1.0
 10
17.65915645299403
 20
-2.159078339929808
 30
0.0
 10
17.6123817498874
 20
-2.554341749496676
 30
0.0
 10
17.5626680202325
 20
-2.910493121713408
 30
0.0
 10
17.46665120188252
 20
-3.474971699578704
 30
0.0
 10
17.42242137886338
 20
-3.68283772637378
 30
0.0
 10
17.37449681412659
 20
-3.814106901596422
 30
0.0
  0
SPLINE
  5
199
330
1F
100
AcDbEntity
  8
외형선
  6
Continuous
 62
     1
370
    15
100
AcDbSpline
210
0.0
220
0.0
230
1.0
 70
     8
 71
     3
 72
    12
 73
     8
 74
     0
 42
0.000000001
 43
0.00000001
 40
0.0
 40
0.0
 40
0.0
 40
0.0
 40
0.4999999999999999
 40
0.4999999999999999
 40
0.7499999999999999
 40
0.7499999999999999
 40
1.0
 40
1.0
 40
1.0
 40
1.0
 10
18.43346244774195
 20
3.890508226569792
 30
0.0
 10
18.38779405428504
 20
3.798124458952914
 30
0.0
 10
18.33844254126065
 20
3.61966542430068
 30
0.0
 10
18.26569823915572
 20
3.240989349064898
 30
0.0
 10
18.24168296546054
 20
3.096805832394134
 30
0.0
 10
18.19522902267106
 20
2.780801217610512
 30
0.0
 10
18.1729230691137
 20
2.609666070328361
 30
0.0
 10
18.14933065169577
 20
2.422481954924671
 30
0.0
  0
SPLINE
  5
19A
330
1F
100
AcDbEntity
  8
외형선
  6
Continuous
 62
     1
370
    15
100
AcDbSpline
210
0.0
220
0.0
230
1.0
 70
     8
 71
     3
 72
    10
 73
     6
 74
     0
 42
0.000000001
 43
0.00000001
 40
0.0
 40
0.0
 40
0.0
 40
0.0
 40
0.4999999999999999
 40
0.4999999999999999
 40
1.0
 40
1.0
 40
1.0
 40
1.0
 10
7.586302505487398
 20
-2.726293932679836
 30
0.0
 10
7.537800981161721
 20
-3.072469372920519
 30
0.0
 10
7.488768948858877
 20
-3.358799348646936
 30
0.0
 10
7.398542346986397
 20
-3.768268205405333
 30
0.0
 10
7.349642363959316
 20
-3.902902406235633
 30
0.0
 10
7.301127623317357
 20
-3.949620647969906
 30
0.0
  0
LINE
  5
19B
330
1F
100
AcDbEntity
  8
외형선
  6
Continuous
 62
     1
370
    15
100
AcDbLine
 10
19.10120902550986
 20
-3.780607337206991
 30
0.0
 11
19.08604647423068
 21
-3.786825647293492
 31
0.0
  0
LINE
  5
19C
330
1F
100
AcDbEntity
  8
외형선
  6
Continuous
 62
     1
370
    15
100
AcDbLine
 10
16.69757151602098
 20
3.797085238283774
 30
0.0
 11
16.68816912163181
 21
3.787856251568874
 31
0.0
  0
SPLINE
  5
19D
330
1F
100
AcDbEntity
  8
외형선
  6
Continuous
370
    15
100
AcDbSpline
210
0.0
220
0.0
230
1.0
 70
    24
 71
     3
 72
    12
 73
     8
 74
     0
 42
0.000000001
 43
0.00000001
 40
0.0
 40
0.0
 40
0.0
 40
0.0
 40
0.2499999999999999
 40
0.2499999999999999
 40
0.5
 40
0.5
 40
1.0
 40
1.0
 40
1.0
 40
1.0
 10
5.962315328507791
 20
3.005204891797823
 30
0.0
 10
5.962315328507791
 20
3.131683778911378
 30
0.0
 10
5.962315328507793
 20
3.246569345821349
 30
0.0
 10
5.962315328507793
 20
3.453528523249904
 30
0.0
 10
5.962315328507787
 20
3.546077151566272
 30
0.0
 10
5.962315328507787
 20
3.781976337007261
 30
0.0
 10
5.962315328507876
 20
3.886642666774496
 30
0.0
 10
5.962315328507876
 20
3.938091761679825
 30
0.0
  0
LINE
  5
19E
330
1F
100
AcDbEntity
  8
외형선
  6
Continuous
370
    15
100
AcDbLine
 10
6.006101775630776
 20
3.95198217800615
 30
0.0
 11
5.962315328507834
 21
3.938091761679813
 31
0.0
  0
LINE
  5
19F
330
1F
100
AcDbEntity
  8
외형선
  6
Continuous
 62
     1
370
    15
100
AcDbLine
 10
9.082817587236814
 20
-3.785501905846097
 30
0.0
 11
9.074642136636829
 21
-3.791522712859626
 31
0.0
  0
SPLINE
  5
1A1
330
1F
100
AcDbEntity
  8
외형선
  6
Continuous
 62
     1
370
    15
100
AcDbSpline
210
0.0
220
0.0
230
1.0
 70
     8
 71
     3
 72
    11
 73
     7
 74
     0
 42
0.000000001
 43
0.00000001
 40
0.0
 40
0.0
 40
0.0
 40
0.0
 40
0.3231439287312493
 40
0.6503240696205034
 40
0.9792407224098248
 40
0.9999999999999999
 40
0.9999999999999999
 40
0.9999999999999999
 40
0.9999999999999999
 10
19.98210608929272
 20
-3.374503195353269
 30
0.0
 10
19.95918838558975
 20
-3.488417171790797
 30
0.0
 10
19.91306672581732
 20
-3.717667961166198
 30
0.0
 10
19.84149558733696
 20
-3.902730434367873
 30
0.0
 10
19.79070911594294
 20
-3.985529674835383
 30
0.0
 10
19.76547790521289
 20
-3.966070988986486
 30
0.0
 10
19.76397999911763
 20
-3.964915781475809
 30
0.0
  0
LINE
  5
1A2
330
1F
100
AcDbEntity
  8
외형선
  6
Continuous
 62
     1
370
    15
100
AcDbLine
 10
16.46668678339501
 20
3.790936429968079
 30
0.0
 11
16.45454589403023
 21
3.800364045126766
 31
0.0
  0
SPLINE
  5
1A3
330
1F
100
AcDbEntity
  8
외형선
  6
Continuous
 62
     1
370
    15
100
AcDbSpline
210
0.0
220
0.0
230
1.0
 70
     8
 71
     3
 72
    10
 73
     6
 74
     0
 42
0.000000001
 43
0.00000001
 40
0.0
 40
0.0
 40
0.0
 40
0.0
 40
0.3518032403710473
 40
0.6738590085727814
 40
1.0
 40
1.0
 40
1.0
 40
1.0
 10
16.00686672738075
 20
3.953901294603448
 30
0.0
 10
15.98545888347381
 20
3.947082798606079
 30
0.0
 10
15.94445338149038
 20
3.934022359060672
 30
0.0
 10
15.88484515039035
 20
3.778585632637718
 30
0.0
 10
15.84454976698128
 20
3.615376541357307
 30
0.0
 10
15.82427509559524
 20
3.533257687707685
 30
0.0
  0
LINE
  5
1A4
330
1F
100
AcDbEntity
  8
외형선
  6
Continuous
 62
     1
370
    15
100
AcDbLine
 10
20.44411977274451
 20
-3.782058184477459
 30
0.0
 11
20.44121397407596
 21
-3.7799887102762
 31
0.0
  0
SPLINE
  5
1A5
330
1F
100
AcDbEntity
  8
외형선
  6
Continuous
 62
     1
370
    15
100
AcDbSpline
210
0.0
220
0.0
230
1.0
 70
     8
 71
     3
 72
    10
 73
     6
 74
     0
 42
0.000000001
 43
0.00000001
 40
0.0
 40
0.0
 40
0.0
 40
0.0
 40
0.4836407148989803
 40
0.9695354983078133
 40
0.9999999999999999
 40
0.9999999999999999
 40
0.9999999999999999
 40
0.9999999999999999
 10
9.911083145658509
 20
-3.697080945422056
 30
0.0
 10
9.886907659268587
 20
-3.770280679648931
 30
0.0
 10
9.838444013587342
 20
-3.917021304690138
 30
0.0
 10
9.78671199006535
 20
-3.988958418571708
 30
0.0
 10
9.761161764329348
 20
-3.966187736576527
 30
0.0
 10
9.75965433545641
 20
-3.964844297037063
 30
0.0
  0
SPLINE
  5
1A6
330
1F
100
AcDbEntity
  8
외형선
  6
Continuous
 62
     1
370
    15
100
AcDbSpline
210
0.0
220
0.0
230
1.0
 70
     8
 71
     3
 72
     8
 73
     4
 74
     0
 42
0.000000001
 43
0.00000001
 40
0.0
 40
0.0
 40
0.0
 40
0.0
 40
1.0
 40
1.0
 40
1.0
 40
1.0
 10
24.81622774093085
 20
3.950596926962401
 30
0.0
 10
24.81550540672899
 20
3.950613808031203
 30
0.0
 10
24.8147830642963
 20
3.950629904636147
 30
0.0
 10
24.81406071363574
 20
3.950645217034007
 30
0.0
  0
SPLINE
  5
1A7
330
1F
100
AcDbEntity
  8
외형선
  6
Continuous
 62
     1
370
    15
100
AcDbSpline
210
0.0
220
0.0
230
1.0
 70
     8
 71
     3
 72
     8
 73
     4
 74
     0
 42
0.000000001
 43
0.00000001
 40
0.0000063458874003
 40
0.0000063458874003
 40
0.0000063458874003
 40
0.0000063458874003
 40
0.0003101536342217
 40
0.0003101536342217
 40
0.0003101536342217
 40
0.0003101536342217
 10
24.81622774093071
 20
3.950596926962187
 30
0.0
 10
24.88184863414987
 20
3.888644379620215
 30
0.0
 10
24.94722360753166
 20
3.826301153017661
 30
0.0
 10
25.01231532850779
 20
3.763522169603071
 30
0.0
  0
LINE
  5
1A8
330
1F
100
AcDbEntity
  8
외형선
  6
Continuous
 62
     1
370
    15
100
AcDbLine
 10
25.01231532850779
 20
0.4745199249235753
 30
0.0
 11
25.01231532850779
 21
0.4840109183655095
 31
0.0
  0
LINE
  5
1A9
330
1F
100
AcDbEntity
  8
외형선
  6
Continuous
 62
     1
370
    15
100
AcDbLine
 10
25.01231532850779
 20
0.9896463916443087
 30
0.0
 11
25.01231532850779
 21
3.763522169603072
 31
0.0
  0
LINE
  5
1AA
330
1F
100
AcDbEntity
  8
외형선
  6
Continuous
 62
     1
370
    15
100
AcDbLine
 10
10.44861173173554
 20
-3.782995356281357
 30
0.0
 11
10.4429553073361
 21
-3.779235148211911
 31
0.0
  0
LINE
  5
1AC
330
1F
100
AcDbEntity
  8
외형선
  6
Continuous
 62
     1
370
    15
100
AcDbLine
 10
21.80882988844116
 20
-3.790929791131001
 30
0.0
 11
21.80218997432915
 21
-3.78557252541951
 31
0.0
  0
LINE
  5
1AD
330
1F
100
AcDbEntity
  8
외형선
  6
Continuous
 62
     1
370
    15
100
AcDbLine
 10
25.01231532850779
 20
-2.053613000865014
 30
0.0
 11
25.01231532850779
 21
-2.151144699352082
 31
0.0
  0
LINE
  5
1AE
330
1F
100
AcDbEntity
  8
외형선
  6
Continuous
 62
     1
370
    15
100
AcDbLine
 10
22.30706403286771
 20
-3.943479985944717
 30
0.0
 11
22.25753247928015
 21
-3.963304402390783
 31
0.0
  0
SPLINE
  5
1AF
330
1F
100
AcDbEntity
  8
외형선
  6
Continuous
 62
     1
370
    15
100
AcDbSpline
210
0.0
220
0.0
230
1.0
 70
     8
 71
     3
 72
     9
 73
     5
 74
     0
 42
0.000000001
 43
0.00000001
 40
0.0
 40
0.0
 40
0.0
 40
0.0
 40
0.1989907540064146
 40
1.0
 40
1.0
 40
1.0
 40
1.0
 10
13.97248143487559
 20
3.799444312901715
 30
0.0
 10
13.97211422479813
 20
3.800060922676748
 30
0.0
 10
13.97026886228724
 20
3.803159608231819
 30
0.0
 10
13.96845741246989
 20
3.801569136900516
 30
0.0
 10
13.96700642441753
 20
3.800295154658655
 30
0.0
  0
LINE
  5
1B0
330
1F
100
AcDbEntity
  8
외형선
  6
Continuous
 62
     1
370
    15
100
AcDbLine
 10
13.50672622661534
 20
3.963120554541216
 30
0.0
 11
13.49911916248967
 21
3.966822645402627
 31
0.0
  0
SPLINE
  5
1B1
330
1F
100
AcDbEntity
  8
외형선
  6
Continuous
 62
     1
370
    15
100
AcDbSpline
210
0.0
220
0.0
230
1.0
 70
     8
 71
     3
 72
     9
 73
     5
 74
     0
 42
0.000000001
 43
0.00000001
 40
0.0
 40
0.0
 40
0.0
 40
0.0
 40
0.3737452163826703
 40
1.0
 40
1.0
 40
1.0
 40
1.0
 10
24.81388789893867
 20
3.962549960923375
 30
0.0
 10
24.81405129599015
 20
3.963884789829636
 30
0.0
 10
24.81448848433216
 20
3.96745628411973
 30
0.0
 10
24.81555797025541
 20
3.957089300220795
 30
0.0
 10
24.81622774093085
 20
3.950596926962401
 30
0.0
  0
LINE
  5
1B2
330
1F
100
AcDbEntity
  8
외형선
  6
Continuous
 62
     1
370
    15
100
AcDbLine
 10
25.01231532850779
 20
3.763522169603072
 30
0.0
 11
25.01231532850779
 21
3.768750000000008
 31
0.0
  0
LINE
  5
1B3
330
1F
100
AcDbEntity
  8
중심선
100
AcDbLine
 10
-41.48768467149221
 20
0.0
 30
0.0
 11
28.01231532850779
 21
0.0000000000000087
 31
0.0
  0
LINE
  5
1B4
330
1F
100
AcDbEntity
  8
참조1
100
AcDbLine
 10
-6.737684671492212
 20
0.0
 30
0.0
 11
-6.737684671492208
 21
-38.04226164784987
 31
0.0
  0
LINE
  5
1B5
330
1F
100
AcDbEntity
  8
참조1
100
AcDbLine
 10
-6.737684671492208
 20
-38.04226164784987
 30
0.0
 11
-24.27727811824466
 21
-38.04226164784988
 31
0.0
  0
CIRCLE
  5
1B6
330
1F
100
AcDbEntity
  8
해칭선
100
AcDbCircle
 10
0.0
 20
0.0
 30
0.0
 40
3.000000000000001
  0
INSERT
  5
1B7
330
1F
100
AcDbEntity
  8
0
  6
Continuous
 62
     7
100
AcDbBlockReference
 66
     1
  2
블럭10
 10
-20.67795760361742
 20
-50.0894359494938
 30
0.0
  0
ATTRIB
  5
1B8
330
1B7
100
AcDbEntity
  8
FORMAT
 62
     2
100
AcDbText
 10
-29.8592528923587
 20
-48.0140690366616
 30
0.0
 40
4.233333333333333
  1
E2191020 [ 3 FLUTE ]
 41
0.75
  7
SLDTEXTSTYLE0
 11
-29.8592528923587
 21
-50.13073570332827
 31
0.0
100
AcDbAttribute
  2
AUTOATTR0
 70
     0
 74
     1
  0
SEQEND
  5
1B9
330
1B7
100
AcDbEntity
  8
0
  6
Continuous
 62
     7
  0
HATCH
  5
1BA
330
1F
100
AcDbEntity
  8
중심선
100
AcDbHatch
 10
0.0
 20
0.0
 30
0.0
210
0.0
220
0.0
230
1.0
  2
SOLID
 70
     1
 71
     0
 91
        1
 92
        0
 93
        4
 72
     1
 10
-14.96304829923657
 20
-33.84226164784986
 11
-18.40932354307385
 21
-33.84226164784986
 72
     1
 10
-18.40932354307385
 20
-33.84226164784986
 11
-20.53755340227787
 21
-36.37858722842243
 72
     1
 10
-20.53755340227787
 20
-36.37858722842243
 11
-17.09124507332744
 21
-36.37854779911994
 72
     1
 10
-17.09124507332744
 20
-36.37854779911994
 11
-14.96304829923657
 21
-33.84226164784986
 97
        0
 75
     0
 76
     1
 98
        1
 10
-2.962315328507779
 20
0.0000000000000052
  0
HATCH
  5
1BB
330
1F
100
AcDbEntity
  8
중심선
100
AcDbHatch
 10
0.0
 20
0.0
 30
0.0
210
0.0
220
0.0
230
1.0
  2
SOLID
 70
     1
 71
     0
 91
        1
 92
        0
 93
        4
 72
     1
 10
-9.950284308200562
 20
-33.84226164784986
 11
-13.3965595520379
 21
-33.84226164784986
 72
     1
 10
-13.3965595520379
 20
-33.84226164784986
 11
-17.92769756039529
 21
-39.24226164784988
 72
     1
 10
-17.92769756039529
 20
-39.24226164784988
 11
-14.481422316558
 21
-39.24226164784988
 72
     1
 10
-14.481422316558
 20
-39.24226164784988
 11
-9.95028430820056
 21
-33.84226164784986
 97
        0
 75
     0
 76
     1
 98
        1
 10
-2.962315328507779
 20
0.0000000000000052
  0
HATCH
  5
1BC
330
1F
100
AcDbEntity
  8
중심선
100
AcDbHatch
 10
0.0
 20
0.0
 30
0.0
210
0.0
220
0.0
230
1.0
  2
SOLID
 70
     1
 71
     0
 91
        1
 92
        0
 93
        4
 72
     1
 10
-4.93752031716472
 20
-33.84226164784986
 11
-8.383795561001836
 21
-33.84226164784986
 72
     1
 10
-8.383795561001836
 20
-33.84226164784986
 11
-15.43223246289108
 21
-42.24226164784988
 72
     1
 10
-15.43223246289109
 20
-42.24226164784988
 11
-11.9859572190538
 21
-42.24226164784988
 72
     1
 10
-11.9859572190538
 20
-42.24226164784988
 11
-4.93752031716472
 21
-33.84226164784986
 97
        0
 75
     0
 76
     1
 98
        1
 10
-2.962315328507779
 20
0.0000000000000052
  0
HATCH
  5
1BD
330
1F
100
AcDbEntity
  8
중심선
100
AcDbHatch
 10
0.0
 20
0.0
 30
0.0
210
0.0
220
0.0
230
1.0
  2
SOLID
 70
     1
 71
     0
 91
        1
 92
        0
 93
        6
 72
     3
 10
-0.1376298861525216
 20
-38.04226164790114
 11
3.960054785062283
 21
1.540882976769353E-10
 40
0.3939339440162628
 50
17.09539180608437
 51
320.0019657685082
 73
     0
 72
     1
 10
1.545369769548047
 20
-36.63015565248819
 11
3.850671643249112
 21
-34.69582894244024
 72
     3
 10
-0.1376298862053682
 20
-38.04226164785001
 11
6.600054785286829
 21
-1.278976924368180E-13
 40
0.636358354079598
 50
39.9987384933741
 51
368.4976242363725
 73
     1
 72
     1
 10
6.287702605695242
 20
-37.08226164777988
 11
-1.457562579369446
 21
-37.08226164777988
 72
     1
 10
-1.457562579369446
 20
-37.08226164777988
 11
-1.45758762381538
 21
-39.00226164777978
 72
     1
 10
-1.45758762381538
 20
-39.00226164777978
 11
2.983792145656658
 21
-39.00226164777975
 97
        0
 75
     0
 76
     1
 98
        1
 10
-2.962315328507779
 20
0.0000000000000052
  0
DIMENSION
  5
1BE
330
1F
100
AcDbEntity
  8
치수문자_일반주서
100
AcDbDimension
  2
_D
 10
-51.48768467149226
 20
-4.762500000000048
 30
0.0
 11
-51.48768467149227
 21
-0.3630378551438715
 31
0.0
 70
   160
  1
%%c<>
 71
     2
 42
9.525000000000006
 52
-270.0
  3
SLDDIMSTYLE0
100
AcDbAlignedDimension
 13
-37.98768467149223
 23
4.762500000000008
 33
0.0
 14
-37.98768467149223
 24
-4.762499999999998
 34
0.0
 50
90.0000000000002
100
AcDbRotatedDimension
1001
ACAD
1000
DSTYLE
1002
{
1070
   171
1070
     6
1070
   273
1070
     7
1002
}
  0
DIMENSION
  5
1D3
330
1F
100
AcDbEntity
  8
치수문자_일반주서
100
AcDbDimension
  2
_D_1
 10
44.01231532850782
 20
3.968750000000082
 30
0.0
 11
44.01231532850775
 21
25.88525000000007
 31
0.0
 70
   160
  1
%%c<>
 71
     2
 42
7.9375
 52
-270.0
  3
SLDDIMSTYLE0
100
AcDbAlignedDimension
 13
25.01231532850779
 23
-3.968749999999991
 33
0.0
 14
25.01231532850779
 24
3.968750000000009
 34
0.0
 50
90.0000000000002
100
AcDbRotatedDimension
1001
ACAD
1000
DSTYLE
1002
{
1070
   171
1070
     6
1070
   273
1070
     7
1002
}
  0
DIMENSION
  5
1E7
330
1F
100
AcDbEntity
  8
치수문자_일반주서
100
AcDbDimension
  2
_D_2
 10
5.962315328507792
 20
17.29972008757571
 30
0.0
 11
-10.02718467149221
 21
17.29972008757571
 31
0.0
 70
   160
  1
<>
 71
     2
 42
19.05
  3
SLDDIMSTYLE1
100
AcDbAlignedDimension
 13
25.01231532850779
 23
3.763522169603072
 33
0.0
 14
5.962315328507791
 24
-1.723227518301193
 34
0.0
 50
0.0000000000000214
100
AcDbRotatedDimension
1001
ACAD
1000
DSTYLE
1002
{
1070
   171
1070
     6
1070
   273
1070
     7
1002
}
  0
DIMENSION
  5
1FC
330
1F
100
AcDbEntity
  8
치수문자_일반주서
100
AcDbDimension
  2
_D_3
 10
-38.48768467149222
 20
33.92107307527675
 30
0.0
 11
-5.02973059824266
 21
33.92107307527675
 31
0.0
 70
   160
  1
<>
 71
     2
 42
63.50000000000001
  3
SLDDIMSTYLE2
100
AcDbAlignedDimension
 13
25.01231532850779
 23
3.763522169603072
 33
0.0
 14
-38.48768467149222
 24
4.262499999999998
 34
0.0
 50
0.0000000000000064
100
AcDbRotatedDimension
1001
ACAD
1000
DSTYLE
1002
{
1070
   171
1070
     6
1070
   273
1070
     7
1002
}
  0
LINE
  5
210
330
1F
100
AcDbEntity
  8
참조1
100
AcDbLine
 10
95.3611426628914
 20
9.397738352150137
 30
0.0
 11
95.3611426628914
 21
-5.482261647849867
 31
0.0
  0
LINE
  5
211
330
1F
100
AcDbEntity
  8
참조1
100
AcDbLine
 10
108.0611426628914
 20
7.397738352150136
 30
0.0
 11
95.3611426628914
 21
7.397738352150136
 31
0.0
  0
SOLID
  5
212
330
1F
100
AcDbEntity
  8
참조1
100
AcDbTrace
 10
95.3611426628914
 20
7.397738352150136
 30
0.0
 11
101.7111426628914
 21
6.381738352150136
 31
0.0
 12
101.7111426628914
 22
8.413738352150135
 32
0.0
 13
101.7111426628914
 23
8.413738352150135
 33
0.0
  0
LINE
  5
213
330
1F
100
AcDbEntity
  8
참조1
100
AcDbLine
 10
108.0611426628914
 20
-3.482261647849868
 30
0.0
 11
95.3611426628914
 21
-3.482261647849868
 31
0.0
  0
SOLID
  5
214
330
1F
100
AcDbEntity
  8
참조1
100
AcDbTrace
 10
95.3611426628914
 20
-3.482261647849868
 30
0.0
 11
101.7111426628914
 21
-4.498261647849867
 31
0.0
 12
101.7111426628914
 22
-2.466261647849868
 32
0.0
 13
101.7111426628914
 23
-2.466261647849868
 33
0.0
  0
MTEXT
  5
215
330
1F
100
AcDbEntity
  8
참조1
100
AcDbMText
 10
104.961257473454
 20
13.02345591816621
 30
0.0
 40
3.5
 41
0.0
 71
     1
 72
     1
  1
A
  7
SLDTEXTSTYLE0
 73
     1
 44
1.0
  0
MTEXT
  5
216
330
1F
100
AcDbEntity
  8
참조1
100
AcDbMText
 10
104.961257473454
 20
2.143455918166205
 30
0.0
 40
3.5
 41
0.0
 71
     1
 72
     1
  1
A
  7
SLDTEXTSTYLE0
 73
     1
 44
1.0
  0
INSERT
  5
21D
330
1F
100
AcDbEntity
  8
해칭선
100
AcDbBlockReference
  2
SW_DOWELSYMBOL_0
 10
0.0
 20
0.0
 30
0.0
  0
LINE
  5
245
330
1F
100
AcDbEntity
  8
0
100
AcDbLine
 10
5.962315328507787
 20
3.968750000000009
 30
0.0
 11
5.962315328507787
 21
-3.968749999999991
 31
0.0
  0
LINE
  5
246
330
1F
100
AcDbEntity
  8
외형선
  6
Continuous
370
    15
100
AcDbLine
 10
5.962315328507787
 20
3.968750000000009
 30
0.0
 11
3.781505126815692
 21
4.762500000000005
 31
0.0
  0
LINE
  5
247
330
1F
100
AcDbEntity
  8
외형선
  6
Continuous
370
    15
100
AcDbLine
 10
5.962315328507787
 20
-3.968749999999991
 30
0.0
 11
3.781505126815692
 21
-4.762499999999987
 31
0.0
  0
LINE
  5
248
330
1F
100
AcDbEntity
  8
외형선
  6
Continuous
370
    15
100
AcDbLine
 10
3.781505126815691
 20
4.762500000000006
 30
0.0
 11
3.781505126815666
 21
-4.762499999999995
 31
0.0
  0
LINE
  5
285
330
1F
100
AcDbEntity
  8
외형선
  6
Continuous
370
    15
100
AcDbLine
 10
-22.21263467149234
 20
3.492500000000007
 30
0.0
 11
-15.07523467149221
 21
3.492500000000007
 31
0.0
  0
LINE
  5
286
330
1F
100
AcDbEntity
  8
외형선
  6
Continuous
370
    15
100
AcDbLine
 10
-22.21263467149234
 20
3.492500000000007
 30
0.0
 11
-23.48263467149232
 21
4.762499999999989
 31
0.0
  0
LINE
  5
287
330
1F
100
AcDbEntity
  8
외형선
  6
Continuous
370
    15
100
AcDbLine
 10
-15.07523467149221
 20
3.492500000000007
 30
0.0
 11
-13.80523467149212
 21
4.762499999999989
 31
0.0
  0
LINE
  5
288
330
1F
100
AcDbEntity
  8
외형선
  6
Continuous
370
    15
100
AcDbLine
 10
-23.48263467149233
 20
4.762500000000002
 30
0.0
 11
-37.98768467149221
 21
4.7625
 31
0.0
  0
ENDSEC
  0
SECTION
  2
OBJECTS
  0
DICTIONARY
  5
C
330
0
100
AcDbDictionary
281
     1
  3
ACAD_GROUP
350
D
  3
ACAD_IMAGE_VARS
350
241
  3
ACAD_LAYOUT
350
1A
  3
ACAD_MLINESTYLE
350
17
  3
ACAD_PLOTSETTINGS
350
19
  3
ACAD_PLOTSTYLENAME
350
E
  3
ACAD_SCALELIST
350
47
  3
APPDATA
350
23F
  3
DWGPROPS
350
28A
  0
DICTIONARY
  5
276
330
2
100
AcDbDictionary
280
     1
281
     1
  3
ACAD_LAYERSTATES
360
277
  0
DICTIONARY
  5
D
102
{ACAD_REACTORS
330
C
102
}
330
C
100
AcDbDictionary
281
     1
  0
RASTERVARIABLES
  5
241
102
{ACAD_REACTORS
330
C
102
}
330
C
100
AcDbRasterVariables
 90
        0
 70
     1
 71
     1
 72
     1
  0
DICTIONARY
  5
1A
102
{ACAD_REACTORS
330
C
102
}
330
C
100
AcDbDictionary
281
     1
  3
Layout1
350
1E
  3
Layout2
350
26
  3
Model
350
22
  0
DICTIONARY
  5
17
102
{ACAD_REACTORS
330
C
102
}
330
C
100
AcDbDictionary
281
     1
  3
Standard
350
18
  0
DICTIONARY
  5
19
102
{ACAD_REACTORS
330
C
102
}
330
C
100
AcDbDictionary
281
     1
  0
ACDBDICTIONARYWDFLT
  5
E
102
{ACAD_REACTORS
330
C
102
}
330
C
100
AcDbDictionary
281
     1
  3
Normal
350
F
100
AcDbDictionaryWithDefault
340
F
  0
DICTIONARY
  5
47
102
{ACAD_REACTORS
330
C
102
}
330
C
100
AcDbDictionary
281
     1
  3
A0
350
48
  3
A1
350
49
  3
A2
350
4A
  3
A3
350
4B
  3
A4
350
4C
  3
A5
350
4D
  3
A6
350
4E
  3
A7
350
4F
  3
A8
350
50
  3
A9
350
51
  3
B0
350
52
  3
B1
350
53
  3
B2
350
54
  3
B3
350
55
  3
B4
350
56
  3
B5
350
57
  3
B6
350
58
  3
B7
350
59
  3
B8
350
5A
  3
B9
350
5B
  3
C0
350
5C
  3
C1
350
5D
  3
C2
350
5E
  3
C3
350
5F
  3
C4
350
60
  3
C5
350
61
  3
C6
350
62
  3
C7
350
63
  3
C8
350
64
  3
C9
350
65
  3
D0
350
66
  3
D1
350
67
  3
D2
350
68
  0
DICTIONARY
  5
23F
102
{ACAD_REACTORS
330
C
102
}
330
C
100
AcDbDictionary
281
     1
  0
XRECORD
  5
28A
102
{ACAD_REACTORS
330
C
102
}
330
C
100
AcDbXrecord
280
     1
  1
DWGPROPS COOKIE
  2

  3

  4

  6

  7

  8
12016016
  9

300
=
301
=
302
=
303
=
304
=
305
=
306
=
307
=
308
=
309
=
 40
0.0
 41
2458318.990192523
 42
2458331.370278322
  1

 90
        0
  0
DICTIONARY
  5
277
102
{ACAD_REACTORS
330
276
102
}
330
276
100
AcDbDictionary
281
     1
  0
LAYOUT
  5
1E
102
{ACAD_REACTORS
330
1A
102
}
330
1A
100
AcDbPlotSettings
  1

  2
none_device
  4

  6

 40
0.0
 41
0.0
 42
0.0
 43
0.0
 44
0.0
 45
0.0
 46
0.0
 47
0.0
 48
0.0
 49
0.0
140
0.0
141
0.0
142
1.0
143
1.0
 70
   688
 72
     1
 73
     0
 74
     5
  7

 75
    16
147
1.0
148
0.0
149
0.0
100
AcDbLayout
  1
Layout1
 70
     1
 71
     1
 10
0.0
 20
0.0
 11
420.0
 21
297.0
 12
0.0
 22
0.0
 32
0.0
 14
1.000000000000000E+20
 24
1.000000000000000E+20
 34
1.000000000000000E+20
 15
-1.000000000000000E+20
 25
-1.000000000000000E+20
 35
-1.000000000000000E+20
146
0.0
 13
0.0
 23
0.0
 33
0.0
 16
1.0
 26
0.0
 36
0.0
 17
0.0
 27
1.0
 37
0.0
 76
     0
330
1B
  0
LAYOUT
  5
26
102
{ACAD_REACTORS
330
1A
102
}
330
1A
100
AcDbPlotSettings
  1

  2
none_device
  4

  6

 40
0.0
 41
0.0
 42
0.0
 43
0.0
 44
0.0
 45
0.0
 46
0.0
 47
0.0
 48
0.0
 49
0.0
140
0.0
141
0.0
142
1.0
143
1.0
 70
   688
 72
     1
 73
     0
 74
     5
  7

 75
    16
147
1.0
148
0.0
149
0.0
100
AcDbLayout
  1
Layout2
 70
     1
 71
     2
 10
0.0
 20
0.0
 11
0.0
 21
0.0
 12
0.0
 22
0.0
 32
0.0
 14
0.0
 24
0.0
 34
0.0
 15
0.0
 25
0.0
 35
0.0
146
0.0
 13
0.0
 23
0.0
 33
0.0
 16
1.0
 26
0.0
 36
0.0
 17
0.0
 27
1.0
 37
0.0
 76
     0
330
23
  0
LAYOUT
  5
22
102
{ACAD_REACTORS
330
1A
102
}
330
1A
100
AcDbPlotSettings
  1

  2
none_device
  4
ANSI_A_(11.00_x_8.50_Inches)
  6

 40
6.35
 41
19.05
 42
6.35000508
 43
19.05000254
 44
279.4
 45
215.9
 46
91.36976094463829
 47
82.73747594376404
 48
0.0
 49
0.0
140
0.0
141
0.0
142
0.0639303201823355
143
1.0
 70
  1696
 72
     0
 73
     0
 74
     0
  7

 75
     0
147
0.0235690232323232
148
0.0
149
0.0
100
AcDbLayout
  1
Model
 70
     1
 71
     0
 10
0.0
 20
0.0
 11
420.0
 21
297.0
 12
0.0
 22
0.0
 32
0.0
 14
1.000000000000000E+20
 24
1.000000000000000E+20
 34
1.000000000000000E+20
 15
-1.000000000000000E+20
 25
-1.000000000000000E+20
 35
-1.000000000000000E+20
146
0.0
 13
0.0
 23
0.0
 33
0.0
 16
1.0
 26
0.0
 36
0.0
 17
0.0
 27
1.0
 37
0.0
 76
     0
330
1F
331
29
  0
MLINESTYLE
  5
18
102
{ACAD_REACTORS
330
17
102
}
330
17
100
AcDbMlineStyle
  2
Standard
 70
     0
  3

 62
   256
 51
90.0
 52
90.0
 71
     2
 49
0.5
 62
   256
  6
BYLAYER
 49
-0.5
 62
   256
  6
BYLAYER
  0
ACDBPLACEHOLDER
  5
F
102
{ACAD_REACTORS
330
E
102
}
330
E
  0
SCALE
  5
48
102
{ACAD_REACTORS
330
47
102
}
330
47
100
AcDbScale
 70
     0
300
1:1
140
1.0
141
1.0
290
     1
  0
SCALE
  5
49
102
{ACAD_REACTORS
330
47
102
}
330
47
100
AcDbScale
 70
     0
300
1:2
140
1.0
141
2.0
290
     0
  0
SCALE
  5
4A
102
{ACAD_REACTORS
330
47
102
}
330
47
100
AcDbScale
 70
     0
300
1:4
140
1.0
141
4.0
290
     0
  0
SCALE
  5
4B
102
{ACAD_REACTORS
330
47
102
}
330
47
100
AcDbScale
 70
     0
300
1:5
140
1.0
141
5.0
290
     0
  0
SCALE
  5
4C
102
{ACAD_REACTORS
330
47
102
}
330
47
100
AcDbScale
 70
     0
300
1:8
140
1.0
141
8.0
290
     0
  0
SCALE
  5
4D
102
{ACAD_REACTORS
330
47
102
}
330
47
100
AcDbScale
 70
     0
300
1:10
140
1.0
141
10.0
290
     0
  0
SCALE
  5
4E
102
{ACAD_REACTORS
330
47
102
}
330
47
100
AcDbScale
 70
     0
300
1:16
140
1.0
141
16.0
290
     0
  0
SCALE
  5
4F
102
{ACAD_REACTORS
330
47
102
}
330
47
100
AcDbScale
 70
     0
300
1:20
140
1.0
141
20.0
290
     0
  0
SCALE
  5
50
102
{ACAD_REACTORS
330
47
102
}
330
47
100
AcDbScale
 70
     0
300
1:30
140
1.0
141
30.0
290
     0
  0
SCALE
  5
51
102
{ACAD_REACTORS
330
47
102
}
330
47
100
AcDbScale
 70
     0
300
1:40
140
1.0
141
40.0
290
     0
  0
SCALE
  5
52
102
{ACAD_REACTORS
330
47
102
}
330
47
100
AcDbScale
 70
     0
300
1:50
140
1.0
141
50.0
290
     0
  0
SCALE
  5
53
102
{ACAD_REACTORS
330
47
102
}
330
47
100
AcDbScale
 70
     0
300
1:100
140
1.0
141
100.0
290
     0
  0
SCALE
  5
54
102
{ACAD_REACTORS
330
47
102
}
330
47
100
AcDbScale
 70
     0
300
2:1
140
2.0
141
1.0
290
     0
  0
SCALE
  5
55
102
{ACAD_REACTORS
330
47
102
}
330
47
100
AcDbScale
 70
     0
300
4:1
140
4.0
141
1.0
290
     0
  0
SCALE
  5
56
102
{ACAD_REACTORS
330
47
102
}
330
47
100
AcDbScale
 70
     0
300
8:1
140
8.0
141
1.0
290
     0
  0
SCALE
  5
57
102
{ACAD_REACTORS
330
47
102
}
330
47
100
AcDbScale
 70
     0
300
10:1
140
10.0
141
1.0
290
     0
  0
SCALE
  5
58
102
{ACAD_REACTORS
330
47
102
}
330
47
100
AcDbScale
 70
     0
300
100:1
140
100.0
141
1.0
290
     0
  0
SCALE
  5
59
102
{ACAD_REACTORS
330
47
102
}
330
47
100
AcDbScale
 70
     0
300
1/128" = 1'-0"
140
0.0078125
141
12.0
290
     0
  0
SCALE
  5
5A
102
{ACAD_REACTORS
330
47
102
}
330
47
100
AcDbScale
 70
     0
300
1/64" = 1'-0"
140
0.015625
141
12.0
290
     0
  0
SCALE
  5
5B
102
{ACAD_REACTORS
330
47
102
}
330
47
100
AcDbScale
 70
     0
300
1/32" = 1'-0"
140
0.03125
141
12.0
290
     0
  0
SCALE
  5
5C
102
{ACAD_REACTORS
330
47
102
}
330
47
100
AcDbScale
 70
     0
300
1/16" = 1'-0"
140
0.0625
141
12.0
290
     0
  0
SCALE
  5
5D
102
{ACAD_REACTORS
330
47
102
}
330
47
100
AcDbScale
 70
     0
300
3/32" = 1'-0"
140
0.09375
141
12.0
290
     0
  0
SCALE
  5
5E
102
{ACAD_REACTORS
330
47
102
}
330
47
100
AcDbScale
 70
     0
300
1/8" = 1'-0"
140
0.125
141
12.0
290
     0
  0
SCALE
  5
5F
102
{ACAD_REACTORS
330
47
102
}
330
47
100
AcDbScale
 70
     0
300
3/16" = 1'-0"
140
0.1875
141
12.0
290
     0
  0
SCALE
  5
60
102
{ACAD_REACTORS
330
47
102
}
330
47
100
AcDbScale
 70
     0
300
1/4" = 1'-0"
140
0.25
141
12.0
290
     0
  0
SCALE
  5
61
102
{ACAD_REACTORS
330
47
102
}
330
47
100
AcDbScale
 70
     0
300
3/8" = 1'-0"
140
0.375
141
12.0
290
     0
  0
SCALE
  5
62
102
{ACAD_REACTORS
330
47
102
}
330
47
100
AcDbScale
 70
     0
300
1/2" = 1'-0"
140
0.5
141
12.0
290
     0
  0
SCALE
  5
63
102
{ACAD_REACTORS
330
47
102
}
330
47
100
AcDbScale
 70
     0
300
3/4" = 1'-0"
140
0.75
141
12.0
290
     0
  0
SCALE
  5
64
102
{ACAD_REACTORS
330
47
102
}
330
47
100
AcDbScale
 70
     0
300
1" = 1'-0"
140
1.0
141
12.0
290
     0
  0
SCALE
  5
65
102
{ACAD_REACTORS
330
47
102
}
330
47
100
AcDbScale
 70
     0
300
1-1/2" = 1'-0"
140
1.5
141
12.0
290
     0
  0
SCALE
  5
66
102
{ACAD_REACTORS
330
47
102
}
330
47
100
AcDbScale
 70
     0
300
3" = 1'-0"
140
3.0
141
12.0
290
     0
  0
SCALE
  5
67
102
{ACAD_REACTORS
330
47
102
}
330
47
100
AcDbScale
 70
     0
300
6" = 1'-0"
140
6.0
141
12.0
290
     0
  0
SCALE
  5
68
102
{ACAD_REACTORS
330
47
102
}
330
47
100
AcDbScale
 70
     0
300
1'-0" = 1'-0"
140
12.0
141
12.0
290
     0
  0
ENDSEC
  0
EOF
