  0
SECTION
  2
HEADER
  9
$ACADVER
  1
AC1015
  9
$ACADMAINTVER
 70
     6
  9
$DWGCODEPAGE
  3
ANSI_949
  9
$INSBASE
 10
0.0
 20
0.0
 30
0.0
  9
$EXTMIN
 10
1.000000000000000E+20
 20
1.000000000000000E+20
 30
1.000000000000000E+20
  9
$EXTMAX
 10
-1.000000000000000E+20
 20
-1.000000000000000E+20
 30
-1.000000000000000E+20
  9
$LIMMIN
 10
0.0
 20
0.0
  9
$LIMMAX
 10
420.0
 20
297.0
  9
$ORTHOMODE
 70
     1
  9
$REGENMODE
 70
     1
  9
$FILLMODE
 70
     1
  9
$QTEXTMODE
 70
     0
  9
$MIRRTEXT
 70
     1
  9
$LTSCALE
 40
1.0
  9
$ATTMODE
 70
     1
  9
$TEXTSIZE
 40
3.5
  9
$TRACEWID
 40
1.0
  9
$TEXTSTYLE
  7
Standard
  9
$CLAYER
  8
0
  9
$CELTYPE
  6
ByLayer
  9
$CECOLOR
 62
   256
  9
$CELTSCALE
 40
1.0
  9
$DISPSILH
 70
     0
  9
$DIMSCALE
 40
1.0
  9
$DIMASZ
 40
3.302
  9
$DIMEXO
 40
1.0
  9
$DIMDLI
 40
3.75
  9
$DIMRND
 40
0.0
  9
$DIMDLE
 40
0.0
  9
$DIMEXE
 40
1.0
  9
$DIMTP
 40
0.0
  9
$DIMTM
 40
0.0
  9
$DIMTXT
 40
3.5
  9
$DIMCEN
 40
2.5
  9
$DIMTSZ
 40
0.0
  9
$DIMTOL
 70
     0
  9
$DIMLIM
 70
     0
  9
$DIMTIH
 70
     1
  9
$DIMTOH
 70
     1
  9
$DIMSE1
 70
     0
  9
$DIMSE2
 70
     0
  9
$DIMTAD
 70
     1
  9
$DIMZIN
 70
     0
  9
$DIMBLK
  1

  9
$DIMASO
 70
     1
  9
$DIMSHO
 70
     1
  9
$DIMPOST
  1

  9
$DIMAPOST
  1

  9
$DIMALT
 70
     0
  9
$DIMALTD
 70
     3
  9
$DIMALTF
 40
0.0393700787401575
  9
$DIMLFAC
 40
1.0
  9
$DIMTOFL
 70
     1
  9
$DIMTVP
 40
0.0
  9
$DIMTIX
 70
     0
  9
$DIMSOXD
 70
     0
  9
$DIMSAH
 70
     0
  9
$DIMBLK1
  1

  9
$DIMBLK2
  1

  9
$DIMSTYLE
  2
ISO-25
  9
$DIMCLRD
 70
     0
  9
$DIMCLRE
 70
     0
  9
$DIMCLRT
 70
     0
  9
$DIMTFAC
 40
1.0
  9
$DIMGAP
 40
1.524
  9
$DIMJUST
 70
     0
  9
$DIMSD1
 70
     0
  9
$DIMSD2
 70
     0
  9
$DIMTOLJ
 70
     0
  9
$DIMTZIN
 70
     0
  9
$DIMALTZ
 70
     0
  9
$DIMALTTZ
 70
     0
  9
$DIMUPT
 70
     0
  9
$DIMDEC
 70
     2
  9
$DIMTDEC
 70
     2
  9
$DIMALTU
 70
     2
  9
$DIMALTTD
 70
     3
  9
$DIMTXSTY
  7
Standard
  9
$DIMAUNIT
 70
     0
  9
$DIMADEC
 70
     2
  9
$DIMALTRND
 40
0.0
  9
$DIMAZIN
 70
     0
  9
$DIMDSEP
 70
    44
  9
$DIMATFIT
 70
     3
  9
$DIMFRAC
 70
     0
  9
$DIMLDRBLK
  1

  9
$DIMLUNIT
 70
     2
  9
$DIMLWD
 70
    -2
  9
$DIMLWE
 70
    -2
  9
$DIMTMOVE
 70
     0
  9
$LUNITS
 70
     2
  9
$LUPREC
 70
     2
  9
$SKETCHINC
 40
1.0
  9
$FILLETRAD
 40
10.0
  9
$AUNITS
 70
     0
  9
$AUPREC
 70
     2
  9
$MENU
  1
.
  9
$ELEVATION
 40
0.0
  9
$PELEVATION
 40
0.0
  9
$THICKNESS
 40
0.0
  9
$LIMCHECK
 70
     0
  9
$CHAMFERA
 40
0.0
  9
$CHAMFERB
 40
0.0
  9
$CHAMFERC
 40
0.0
  9
$CHAMFERD
 40
0.0
  9
$SKPOLY
 70
     0
  9
$TDCREATE
 40
2458319.365518426
  9
$TDUCREATE
 40
2458318.990518426
  9
$TDUPDATE
 40
2458331.775817928
  9
$TDUUPDATE
 40
2458331.400817928
  9
$TDINDWG
 40
0.0001095602
  9
$TDUSRTIMER
 40
2458331.400708646
  9
$USRTIMER
 70
     1
  9
$ANGBASE
 50
0.0
  9
$ANGDIR
 70
     0
  9
$PDMODE
 70
     0
  9
$PDSIZE
 40
-1.0
  9
$PLINEWID
 40
0.0
  9
$SPLFRAME
 70
     0
  9
$SPLINETYPE
 70
     6
  9
$SPLINESEGS
 70
     8
  9
$HANDSEED
  5
309
  9
$SURFTAB1
 70
     6
  9
$SURFTAB2
 70
     6
  9
$SURFTYPE
 70
     6
  9
$SURFU
 70
     6
  9
$SURFV
 70
     6
  9
$UCSBASE
  2

  9
$UCSNAME
  2

  9
$UCSORG
 10
0.0
 20
0.0
 30
0.0
  9
$UCSXDIR
 10
1.0
 20
0.0
 30
0.0
  9
$UCSYDIR
 10
0.0
 20
1.0
 30
0.0
  9
$UCSORTHOREF
  2

  9
$UCSORTHOVIEW
 70
     0
  9
$UCSORGTOP
 10
0.0
 20
0.0
 30
0.0
  9
$UCSORGBOTTOM
 10
0.0
 20
0.0
 30
0.0
  9
$UCSORGLEFT
 10
0.0
 20
0.0
 30
0.0
  9
$UCSORGRIGHT
 10
0.0
 20
0.0
 30
0.0
  9
$UCSORGFRONT
 10
0.0
 20
0.0
 30
0.0
  9
$UCSORGBACK
 10
0.0
 20
0.0
 30
0.0
  9
$PUCSBASE
  2

  9
$PUCSNAME
  2

  9
$PUCSORG
 10
0.0
 20
0.0
 30
0.0
  9
$PUCSXDIR
 10
1.0
 20
0.0
 30
0.0
  9
$PUCSYDIR
 10
0.0
 20
1.0
 30
0.0
  9
$PUCSORTHOREF
  2

  9
$PUCSORTHOVIEW
 70
     0
  9
$PUCSORGTOP
 10
0.0
 20
0.0
 30
0.0
  9
$PUCSORGBOTTOM
 10
0.0
 20
0.0
 30
0.0
  9
$PUCSORGLEFT
 10
0.0
 20
0.0
 30
0.0
  9
$PUCSORGRIGHT
 10
0.0
 20
0.0
 30
0.0
  9
$PUCSORGFRONT
 10
0.0
 20
0.0
 30
0.0
  9
$PUCSORGBACK
 10
0.0
 20
0.0
 30
0.0
  9
$USERI1
 70
     0
  9
$USERI2
 70
     0
  9
$USERI3
 70
     0
  9
$USERI4
 70
     0
  9
$USERI5
 70
     0
  9
$USERR1
 40
0.0
  9
$USERR2
 40
0.0
  9
$USERR3
 40
0.0
  9
$USERR4
 40
0.0
  9
$USERR5
 40
0.0
  9
$WORLDVIEW
 70
     1
  9
$SHADEDGE
 70
     3
  9
$SHADEDIF
 70
    70
  9
$TILEMODE
 70
     1
  9
$MAXACTVP
 70
    64
  9
$PINSBASE
 10
0.0
 20
0.0
 30
0.0
  9
$PLIMCHECK
 70
     0
  9
$PEXTMIN
 10
1.000000000000000E+20
 20
1.000000000000000E+20
 30
1.000000000000000E+20
  9
$PEXTMAX
 10
-1.000000000000000E+20
 20
-1.000000000000000E+20
 30
-1.000000000000000E+20
  9
$PLIMMIN
 10
0.0
 20
0.0
  9
$PLIMMAX
 10
0.0
 20
0.0
  9
$UNITMODE
 70
     0
  9
$VISRETAIN
 70
     1
  9
$PLINEGEN
 70
     0
  9
$PSLTSCALE
 70
     1
  9
$TREEDEPTH
 70
  3020
  9
$CMLSTYLE
  2
Standard
  9
$CMLJUST
 70
     0
  9
$CMLSCALE
 40
20.0
  9
$PROXYGRAPHICS
 70
     1
  9
$MEASUREMENT
 70
     1
  9
$CELWEIGHT
370
    -1
  9
$ENDCAPS
280
     0
  9
$JOINSTYLE
280
     0
  9
$LWDISPLAY
290
     1
  9
$INSUNITS
 70
     4
  9
$HYPERLINKBASE
  1

  9
$STYLESHEET
  1

  9
$XEDIT
290
     1
  9
$CEPSNTYPE
380
     0
  9
$PSTYLEMODE
290
     1
  9
$FINGERPRINTGUID
  2
{5EBC07F1-E5B2-4AAD-B7D8-30272AF43E56}
  9
$VERSIONGUID
  2
{FAEB1C32-E019-11D5-929B-00C0DF256EC4}
  9
$EXTNAMES
290
     1
  9
$PSVPSCALE
 40
0.0
  9
$OLESTARTUP
290
     0
  0
ENDSEC
  0
SECTION
  2
CLASSES
  0
CLASS
  1
ACDBDICTIONARYWDFLT
  2
AcDbDictionaryWithDefault
  3
ObjectDBX Classes
 90
        0
280
     0
281
     0
  0
CLASS
  1
VISUALSTYLE
  2
AcDbVisualStyle
  3
ObjectDBX Classes
 90
     4095
280
     0
281
     0
  0
CLASS
  1
MATERIAL
  2
AcDbMaterial
  3
ObjectDBX Classes
 90
     1153
280
     0
281
     0
  0
CLASS
  1
SCALE
  2
AcDbScale
  3
ObjectDBX Classes
 90
     1153
280
     0
281
     0
  0
CLASS
  1
SUN
  2
AcDbSun
  3
SCENEOE
 90
     1153
280
     0
281
     0
  0
CLASS
  1
ACDBPLACEHOLDER
  2
AcDbPlaceHolder
  3
ObjectDBX Classes
 90
        0
280
     0
281
     0
  0
CLASS
  1
LAYOUT
  2
AcDbLayout
  3
ObjectDBX Classes
 90
        0
280
     0
281
     0
  0
CLASS
  1
TABLESTYLE
  2
AcDbTableStyle
  3
ObjectDBX Classes
 90
     4095
280
     0
281
     0
  0
CLASS
  1
MLEADERSTYLE
  2
AcDbMLeaderStyle
  3
ACDB_MLEADERSTYLE_CLASS
 90
     4095
280
     0
281
     0
  0
CLASS
  1
RASTERVARIABLES
  2
AcDbRasterVariables
  3
ISM
 90
        0
280
     0
281
     0
  0
ENDSEC
  0
SECTION
  2
TABLES
  0
TABLE
  2
VPORT
  5
8
330
0
100
AcDbSymbolTable
 70
     1
  0
VPORT
  5
29
330
8
100
AcDbSymbolTableRecord
100
AcDbViewportTableRecord
  2
*Active
 70
     0
 10
0.0
 20
0.0
 11
1.0
 21
1.0
 12
7.874031334525448
 22
-28.43454534744366
 13
0.0
 23
0.0
 14
10.0
 24
10.0
 15
10.0
 25
10.0
 16
0.0
 26
0.0
 36
1.0
 17
0.0
 27
0.0
 37
0.0
 40
132.5302957381278
 41
1.516441005802708
 42
50.0
 43
0.0
 44
0.0
 50
0.0
 51
0.0
 71
    16
 72
  2000
 73
     1
 74
     3
 75
     0
 76
     0
 77
     0
 78
     0
281
     0
 65
     1
110
0.0
120
0.0
130
0.0
111
1.0
121
0.0
131
0.0
112
0.0
122
1.0
132
0.0
 79
     0
146
0.0
  0
ENDTAB
  0
TABLE
  2
LTYPE
  5
5
330
0
100
AcDbSymbolTable
 70
     6
  0
LTYPE
  5
14
330
5
100
AcDbSymbolTableRecord
100
AcDbLinetypeTableRecord
  2
ByBlock
 70
     0
  3

 72
    65
 73
     0
 40
0.0
  0
LTYPE
  5
15
330
5
100
AcDbSymbolTableRecord
100
AcDbLinetypeTableRecord
  2
ByLayer
 70
     0
  3

 72
    65
 73
     0
 40
0.0
  0
LTYPE
  5
16
330
5
100
AcDbSymbolTableRecord
100
AcDbLinetypeTableRecord
  2
Continuous
 70
     0
  3
Solid line
 72
    65
 73
     0
 40
0.0
  0
LTYPE
  5
6A
330
5
100
AcDbSymbolTableRecord
100
AcDbLinetypeTableRecord
  2
HIDDEN
 70
     0
  3
Hidden __ __ __ __ __ __ __ __ __ __ __ __ __ __
 72
    65
 73
     2
 40
1.905
 49
1.27
 74
     0
 49
-0.635
 74
     0
  0
LTYPE
  5
6B
330
5
100
AcDbSymbolTableRecord
100
AcDbLinetypeTableRecord
  2
PHANTOM
 70
     0
  3
Phantom ______  __  __  ______  __  __  ______
 72
    65
 73
     6
 40
12.7
 49
6.35
 74
     0
 49
-1.27
 74
     0
 49
1.27
 74
     0
 49
-1.27
 74
     0
 49
1.27
 74
     0
 49
-1.27
 74
     0
  0
LTYPE
  5
6C
330
5
100
AcDbSymbolTableRecord
100
AcDbLinetypeTableRecord
  2
CENTER
 70
     0
  3
Center ____ _ ____ _ ____ _ ____ _ ____ _ ____
 72
    65
 73
     4
 40
10.16
 49
6.35
 74
     0
 49
-1.27
 74
     0
 49
1.27
 74
     0
 49
-1.27
 74
     0
  0
LTYPE
  5
6D
330
5
100
AcDbSymbolTableRecord
100
AcDbLinetypeTableRecord
  2
CENTERX2
 70
     0
  3
Center (2x) ________  __  ________  __  _____
 72
    65
 73
     4
 40
20.32
 49
12.7
 74
     0
 49
-2.54
 74
     0
 49
2.54
 74
     0
 49
-2.54
 74
     0
  0
LTYPE
  5
6E
330
5
100
AcDbSymbolTableRecord
100
AcDbLinetypeTableRecord
  2
DOT2
 70
     0
  3
Dot (.5x) ........................................
 72
    65
 73
     2
 40
0.635
 49
0.0
 74
     0
 49
-0.635
 74
     0
  0
ENDTAB
  0
TABLE
  2
LAYER
  5
2
102
{ACAD_XDICTIONARY
360
2F5
102
}
330
0
100
AcDbSymbolTable
 70
    18
  0
LAYER
  5
10
330
2
100
AcDbSymbolTableRecord
100
AcDbLayerTableRecord
  2
0
 70
     0
 62
     7
  6
Continuous
370
    -3
390
F
  0
LAYER
  5
6F
330
2
100
AcDbSymbolTableRecord
100
AcDbLayerTableRecord
  2
FORMAT
 70
     0
 62
     2
  6
Continuous
370
    -3
390
F
  0
LAYER
  5
70
330
2
100
AcDbSymbolTableRecord
100
AcDbLayerTableRecord
  2
외형선
 70
     0
 62
     4
  6
Continuous
370
    30
390
F
  0
LAYER
  5
71
330
2
100
AcDbSymbolTableRecord
100
AcDbLayerTableRecord
  2
숨은선
 70
     0
 62
     2
  6
HIDDEN
370
    15
390
F
  0
LAYER
  5
72
330
2
100
AcDbSymbolTableRecord
100
AcDbLayerTableRecord
  2
중심선
 70
     0
 62
     1
  6
CENTERX2
370
    -3
390
F
  0
LAYER
  5
73
330
2
100
AcDbSymbolTableRecord
100
AcDbLayerTableRecord
  2
파단선
 70
     0
 62
     4
  6
Continuous
370
    -3
390
F
  0
LAYER
  5
74
330
2
100
AcDbSymbolTableRecord
100
AcDbLayerTableRecord
  2
해칭선
 70
     0
 62
   100
  6
Continuous
370
    -3
390
F
  0
LAYER
  5
75
330
2
100
AcDbSymbolTableRecord
100
AcDbLayerTableRecord
  2
가는실선
 70
     0
 62
     4
  6
Continuous
370
    -3
390
F
  0
LAYER
  5
76
330
2
100
AcDbSymbolTableRecord
100
AcDbLayerTableRecord
  2
치수_보조선
 70
     0
 62
     4
  6
Continuous
370
    -3
390
F
  0
LAYER
  5
77
330
2
100
AcDbSymbolTableRecord
100
AcDbLayerTableRecord
  2
치수문자_일반주서
 70
     0
 62
     7
  6
Continuous
370
    15
390
F
  0
LAYER
  5
78
330
2
100
AcDbSymbolTableRecord
100
AcDbLayerTableRecord
  2
개별주서
 70
     0
 62
   100
  6
Continuous
370
    30
390
F
  0
LAYER
  5
79
330
2
100
AcDbSymbolTableRecord
100
AcDbLayerTableRecord
  2
중간선
 70
     0
 62
     2
  6
Continuous
370
    15
390
F
  0
LAYER
  5
7A
330
2
100
AcDbSymbolTableRecord
100
AcDbLayerTableRecord
  2
윤곽선
 70
     0
 62
     3
  6
Continuous
370
    40
390
F
  0
LAYER
  5
7B
330
2
100
AcDbSymbolTableRecord
100
AcDbLayerTableRecord
  2
중심마크
 70
     0
 62
   100
  6
Continuous
370
    30
390
F
  0
LAYER
  5
7C
330
2
100
AcDbSymbolTableRecord
100
AcDbLayerTableRecord
  2
가상선
 70
     0
 62
     4
  6
PHANTOM
370
    -3
390
F
  0
LAYER
  5
7D
330
2
100
AcDbSymbolTableRecord
100
AcDbLayerTableRecord
  2
특수지정선
 70
     0
 62
     5
  6
CENTERX2
370
    60
390
F
  0
LAYER
  5
7E
330
2
100
AcDbSymbolTableRecord
100
AcDbLayerTableRecord
  2
참조1
 70
     0
 62
    -4
  6
Continuous
370
    -3
390
F
  0
LAYER
  5
2C5
330
2
100
AcDbSymbolTableRecord
100
AcDbLayerTableRecord
  2
Defpoints
 70
     0
 62
     7
  6
Continuous
290
     0
370
    -3
390
F
  0
ENDTAB
  0
TABLE
  2
STYLE
  5
3
330
0
100
AcDbSymbolTable
 70
     2
  0
STYLE
  5
11
330
3
100
AcDbSymbolTableRecord
100
AcDbTextStyleTableRecord
  2
Standard
 70
     0
 40
0.0
 41
1.0
 50
0.0
 71
     0
 42
3.5
  3
txt
  4

  0
STYLE
  5
94
330
3
100
AcDbSymbolTableRecord
100
AcDbTextStyleTableRecord
  2
SLDTEXTSTYLE0
 70
     0
 40
0.0
 41
0.75
 50
0.0
 71
     0
 42
3.5
  3
TXT
  4

  0
ENDTAB
  0
TABLE
  2
VIEW
  5
6
330
0
100
AcDbSymbolTable
 70
     0
  0
ENDTAB
  0
TABLE
  2
UCS
  5
7
330
0
100
AcDbSymbolTable
 70
     0
  0
ENDTAB
  0
TABLE
  2
APPID
  5
9
330
0
100
AcDbSymbolTable
 70
     1
  0
APPID
  5
12
330
9
100
AcDbSymbolTableRecord
100
AcDbRegAppTableRecord
  2
ACAD
 70
     0
  0
ENDTAB
  0
TABLE
  2
DIMSTYLE
  5
A
330
0
100
AcDbSymbolTable
 70
     3
100
AcDbDimStyleTable
  0
DIMSTYLE
105
27
330
A
100
AcDbSymbolTableRecord
100
AcDbDimStyleTableRecord
  2
ISO-25
 70
     0
 41
2.5
 42
0.625
 43
3.75
 44
1.25
 73
     0
 74
     0
 77
     1
 78
     8
140
2.5
141
2.5
143
0.03937007874016
147
0.625
171
     3
172
     1
178
     0
271
     2
272
     2
274
     3
278
    44
283
     0
284
     8
340
11
  0
DIMSTYLE
105
244
102
{ACAD_REACTORS
330
243
102
}
330
A
100
AcDbSymbolTableRecord
100
AcDbDimStyleTableRecord
  2
SLDDIMSTYLE0
 70
     0
 41
3.302
 44
0.0
 45
0.000000001
 73
     0
 74
     0
 77
     1
 78
     4
 79
     1
140
3.5
143
0.0393700787401575
147
0.875
148
0.000000001
170
     1
172
     1
173
     1
178
     0
271
     2
272
     2
276
     2
284
    12
289
     0
340
94
  0
DIMSTYLE
105
259
102
{ACAD_REACTORS
330
258
330
26C
330
280
102
}
330
A
100
AcDbSymbolTableRecord
100
AcDbDimStyleTableRecord
  2
SLDDIMSTYLE1
 70
     0
 41
3.302
 44
0.0
 45
0.000000001
 73
     0
 74
     0
 77
     1
 78
    12
 79
     3
140
3.5
143
0.0393700787401575
147
0.875
148
0.000000001
170
     1
173
     1
178
     0
271
     2
272
     2
276
     2
284
    12
340
94
  0
ENDTAB
  0
TABLE
  2
BLOCK_RECORD
  5
1
330
0
100
AcDbSymbolTable
 70
     8
  0
BLOCK_RECORD
  5
1F
330
1
100
AcDbSymbolTableRecord
100
AcDbBlockTableRecord
  2
*Model_Space
340
22
  0
BLOCK_RECORD
  5
1B
330
1
100
AcDbSymbolTableRecord
100
AcDbBlockTableRecord
  2
*Paper_Space
340
1E
  0
BLOCK_RECORD
  5
23
330
1
100
AcDbSymbolTableRecord
100
AcDbBlockTableRecord
  2
*Paper_Space0
340
26
  0
BLOCK_RECORD
  5
7F
330
1
100
AcDbSymbolTableRecord
100
AcDbBlockTableRecord
  2
블럭10
340
0
102
{BLKREFS
331
23C
102
}
  0
BLOCK_RECORD
  5
245
330
1
100
AcDbSymbolTableRecord
100
AcDbBlockTableRecord
  2
_D
340
0
  0
BLOCK_RECORD
  5
25A
330
1
100
AcDbSymbolTableRecord
100
AcDbBlockTableRecord
  2
_D_1
340
0
  0
BLOCK_RECORD
  5
26D
330
1
100
AcDbSymbolTableRecord
100
AcDbBlockTableRecord
  2
_D_2
340
0
  0
BLOCK_RECORD
  5
281
330
1
100
AcDbSymbolTableRecord
100
AcDbBlockTableRecord
  2
_D_3
340
0
  0
BLOCK_RECORD
  5
29A
330
1
100
AcDbSymbolTableRecord
100
AcDbBlockTableRecord
  2
SW_DOWELSYMBOL_0
340
0
102
{BLKREFS
331
2A0
102
}
  0
ENDTAB
  0
ENDSEC
  0
SECTION
  2
BLOCKS
  0
BLOCK
  5
20
330
1F
100
AcDbEntity
  8
0
100
AcDbBlockBegin
  2
*Model_Space
 70
     0
 10
0.0
 20
0.0
 30
0.0
  3
*Model_Space
  1
*Model_Space
  0
ENDBLK
  5
21
330
1F
100
AcDbEntity
  8
0
100
AcDbBlockEnd
  0
BLOCK
  5
1C
330
1B
100
AcDbEntity
 67
     1
  8
0
100
AcDbBlockBegin
  2
*Paper_Space
 70
     0
 10
0.0
 20
0.0
 30
0.0
  3
*Paper_Space
  1
*Paper_Space
  0
ENDBLK
  5
1D
330
1B
100
AcDbEntity
 67
     1
  8
0
100
AcDbBlockEnd
  0
BLOCK
  5
24
330
23
100
AcDbEntity
  8
0
100
AcDbBlockBegin
  2
*Paper_Space0
 70
     0
 10
0.0
 20
0.0
 30
0.0
  3
*Paper_Space0
  1
*Paper_Space0
  0
ENDBLK
  5
25
330
23
100
AcDbEntity
  8
0
100
AcDbBlockEnd
  0
BLOCK
  5
80
330
7F
100
AcDbEntity
  8
0
100
AcDbBlockBegin
  2
블럭10
 70
     2
 10
0.0
 20
0.0
 30
0.0
  3
블럭10
  1
블럭10
  0
ELLIPSE
  5
82
330
7F
100
AcDbEntity
  8
중심선
100
AcDbEllipse
 10
20.54032771741204
 20
12.0471743016438
 30
0.0
 11
6.600054785286829
 21
-1.261213355974178E-13
 31
0.0
210
0.0
220
0.0
230
1.0
 40
0.636358354079598
 41
0.9219305317359503
 42
6.513795318482858
  0
ELLIPSE
  5
83
330
7F
100
AcDbEntity
  8
중심선
100
AcDbEllipse
 10
20.54032771746488
 20
12.04717430159265
 30
0.0
 11
3.960054785062283
 21
1.540847449632565E-10
 31
0.0
210
0.0
220
0.0
230
1.0
 40
0.3939339440162632
 41
1.131841032648279
 42
5.62031148352944
  0
LINE
  5
84
330
7F
100
AcDbEntity
  8
중심선
100
AcDbLine
 10
2.268634060543552
 20
16.24717430164393
 30
0.0
 11
5.714909304380834
 21
16.24717430164393
 31
0.0
  0
LINE
  5
85
330
7F
100
AcDbEntity
  8
중심선
100
AcDbLine
 10
5.245725140726316
 20
7.84717430164391
 30
0.0
 11
8.692000384563599
 21
7.84717430164391
 31
0.0
  0
LINE
  5
86
330
7F
100
AcDbEntity
  8
중심선
100
AcDbLine
 10
15.74043728645272
 20
16.24717430164393
 30
0.0
 11
8.692000384563599
 21
7.84717430164391
 31
0.0
  0
LINE
  5
87
330
7F
100
AcDbEntity
  8
중심선
100
AcDbLine
 10
0.1404042013395286
 20
13.71084872107135
 30
0.0
 11
3.58671253028996
 21
13.71088815037384
 31
0.0
  0
LINE
  5
88
330
7F
100
AcDbEntity
  8
중심선
100
AcDbLine
 10
2.750260043222114
 20
10.84717430164391
 30
0.0
 11
6.196535287059397
 21
10.84717430164391
 31
0.0
  0
LINE
  5
89
330
7F
100
AcDbEntity
  8
중심선
100
AcDbLine
 10
12.29416204261559
 20
16.24717430164393
 30
0.0
 11
5.245725140726316
 21
7.84717430164391
 31
0.0
  0
LINE
  5
8A
330
7F
100
AcDbEntity
  8
중심선
100
AcDbLine
 10
10.72767329541681
 20
16.24717430164393
 30
0.0
 11
6.196535287059397
 21
10.84717430164391
 31
0.0
  0
LINE
  5
8B
330
7F
100
AcDbEntity
  8
중심선
100
AcDbLine
 10
7.28139805157953
 20
16.24717430164393
 30
0.0
 11
2.750260043222114
 21
10.84717430164391
 31
0.0
  0
LINE
  5
8C
330
7F
100
AcDbEntity
  8
중심선
100
AcDbLine
 10
5.714909304380834
 20
16.24717430164393
 30
0.0
 11
3.58671253028996
 21
13.71088815037384
 31
0.0
  0
LINE
  5
8D
330
7F
100
AcDbEntity
  8
중심선
100
AcDbLine
 10
2.268634060543552
 20
16.24717430164393
 30
0.0
 11
0.1404042013395286
 21
13.71084872107135
 31
0.0
  0
LINE
  5
8E
330
7F
100
AcDbEntity
  8
중심선
100
AcDbLine
 10
7.28139805157953
 20
16.24717430164393
 30
0.0
 11
10.72767329541681
 21
16.24717430164393
 31
0.0
  0
LINE
  5
8F
330
7F
100
AcDbEntity
  8
중심선
100
AcDbLine
 10
12.29416204261559
 20
16.24717430164393
 30
0.0
 11
15.74043728645272
 21
16.24717430164393
 31
0.0
  0
LINE
  5
90
330
7F
100
AcDbEntity
  8
중심선
100
AcDbLine
 10
19.22036997980202
 20
11.08717430171403
 30
0.0
 11
23.66174974927406
 21
11.08717430171406
 31
0.0
  0
LINE
  5
91
330
7F
100
AcDbEntity
  8
중심선
100
AcDbLine
 10
19.22039502424796
 20
13.00717430171391
 30
0.0
 11
19.22036997980202
 21
11.08717430171403
 31
0.0
  0
LINE
  5
92
330
7F
100
AcDbEntity
  8
중심선
100
AcDbLine
 10
19.22039502424796
 20
13.00717430171391
 30
0.0
 11
26.96566020931264
 21
13.00717430171391
 31
0.0
  0
LINE
  5
93
330
7F
100
AcDbEntity
  8
중심선
100
AcDbLine
 10
22.22332737316547
 20
13.45928029700563
 30
0.0
 11
24.52862924686651
 21
15.39360700705356
 31
0.0
  0
ATTDEF
  5
95
330
7F
100
AcDbEntity
  8
FORMAT
 62
     2
100
AcDbText
 10
-9.18129528874128
 20
2.075366912832191
 30
0.0
 40
4.233333333333333
  1
E2191032 [ 3 FLUTE ]
 41
0.75
  7
SLDTEXTSTYLE0
 11
-9.18129528874128
 21
-0.0412997538344756
 31
0.0
100
AcDbAttributeDefinition
  3

  2
AUTOATTR0
 70
     0
 74
     1
  0
ENDBLK
  5
81
330
7F
100
AcDbEntity
  8
0
100
AcDbBlockEnd
  0
BLOCK
  5
246
330
245
100
AcDbEntity
  8
0
100
AcDbBlockBegin
  2
_D
 70
     0
 10
0.0
 20
0.0
 30
0.0
  3
_D
  1
_D
  0
LINE
  5
248
330
245
100
AcDbEntity
  8
치수문자_일반주서
 62
     0
370
    -2
100
AcDbLine
 10
-40.3625
 20
6.349999999999995
 30
0.0
 11
-53.80000000000007
 21
6.349999999999945
 31
0.0
  0
LINE
  5
249
330
245
100
AcDbEntity
  8
치수문자_일반주서
 62
     0
370
    -2
100
AcDbLine
 10
-40.3625
 20
-6.349999999999993
 30
0.0
 11
-53.80000000000003
 21
-6.350000000000044
 31
0.0
  0
LINE
  5
24A
330
245
100
AcDbEntity
  8
치수문자_일반주서
 62
     0
370
    -2
100
AcDbLine
 10
-53.80000000000005
 20
3.047999999999945
 30
0.0
 11
-53.80000000000004
 21
-3.048000000000044
 31
0.0
  0
SOLID
  5
24B
330
245
100
AcDbEntity
  8
치수문자_일반주서
 62
     0
100
AcDbTrace
 10
-53.24966666666672
 20
3.047999999999947
 30
0.0
 11
-54.35033333333339
 21
3.047999999999943
 31
0.0
 12
-53.80000000000007
 22
6.349999999999945
 32
0.0
 13
-53.80000000000007
 23
6.349999999999945
 33
0.0
  0
SOLID
  5
24C
330
245
100
AcDbEntity
  8
치수문자_일반주서
 62
     0
100
AcDbTrace
 10
-54.35033333333337
 20
-3.048000000000046
 30
0.0
 11
-53.24966666666671
 21
-3.048000000000043
 31
0.0
 12
-53.80000000000003
 22
-6.350000000000044
 32
0.0
 13
-53.80000000000003
 23
-6.350000000000044
 33
0.0
  0
MTEXT
  5
24D
330
245
100
AcDbEntity
  8
치수문자_일반주서
 62
     0
100
AcDbMText
 10
-58.17500000000005
 20
-0.4840504735251916
 30
0.0
 40
3.5
 41
0.0
 71
     2
 72
     1
  1
\A1;%%c12.70 [1/2]
  7
SLDTEXTSTYLE0
 11
-3.356894814614650E-15
 21
1.0
 31
0.0
 73
     1
 44
1.0
  0
POINT
  5
24E
330
245
100
AcDbEntity
  8
Defpoints
 62
     0
100
AcDbPoint
 10
-40.3
 20
6.349999999999995
 30
0.0
  0
POINT
  5
24F
330
245
100
AcDbEntity
  8
Defpoints
 62
     0
100
AcDbPoint
 10
-40.3
 20
-6.349999999999993
 30
0.0
  0
POINT
  5
250
330
245
100
AcDbEntity
  8
Defpoints
 62
     0
100
AcDbPoint
 10
-53.80000000000003
 20
-6.350000000000044
 30
0.0
  0
ENDBLK
  5
247
330
245
100
AcDbEntity
  8
0
100
AcDbBlockEnd
  0
BLOCK
  5
25B
330
25A
100
AcDbEntity
  8
0
100
AcDbBlockBegin
  2
_D_1
 70
     0
 10
0.0
 20
0.0
 30
0.0
  3
_D_1
  1
_D_1
  0
LINE
  5
25D
330
25A
100
AcDbEntity
  8
치수문자_일반주서
 62
     0
370
    -2
100
AcDbLine
 10
41.81249999999998
 20
-6.349999999999993
 30
0.0
 11
60.75000000000008
 21
-6.349999999999923
 31
0.0
  0
LINE
  5
25E
330
25A
100
AcDbEntity
  8
치수문자_일반주서
 62
     0
370
    -2
100
AcDbLine
 10
41.81249999999998
 20
6.350000000000006
 30
0.0
 11
60.75000000000004
 21
6.350000000000076
 31
0.0
  0
LINE
  5
25F
330
25A
100
AcDbEntity
  8
치수문자_일반주서
 62
     0
370
    -2
100
AcDbLine
 10
60.75000000000004
 20
6.350000000000076
 30
0.0
 11
60.74999999999994
 21
35.91254890178772
 31
0.0
  0
LINE
  5
260
330
25A
100
AcDbEntity
  8
치수문자_일반주서
 62
     0
370
    -2
100
AcDbLine
 10
60.75000000000006
 20
-3.047999999999924
 30
0.0
 11
60.75000000000005
 21
3.048000000000076
 31
0.0
  0
SOLID
  5
261
330
25A
100
AcDbEntity
  8
치수문자_일반주서
 62
     0
100
AcDbTrace
 10
60.19966666666673
 20
-3.047999999999925
 30
0.0
 11
61.3003333333334
 21
-3.047999999999922
 31
0.0
 12
60.75000000000008
 22
-6.349999999999923
 32
0.0
 13
60.75000000000008
 23
-6.349999999999923
 33
0.0
  0
SOLID
  5
262
330
25A
100
AcDbEntity
  8
치수문자_일반주서
 62
     0
100
AcDbTrace
 10
61.30033333333338
 20
3.048000000000078
 30
0.0
 11
60.19966666666672
 21
3.048000000000075
 31
0.0
 12
60.75000000000004
 22
6.350000000000076
 32
0.0
 13
60.75000000000004
 23
6.350000000000076
 33
0.0
  0
MTEXT
  5
263
330
25A
100
AcDbEntity
  8
치수문자_일반주서
 62
     0
100
AcDbMText
 10
56.37499999999998
 20
23.66254890178771
 30
0.0
 40
3.5
 41
0.0
 71
     2
 72
     1
  1
\A1;%%c12.7 [1/2]
  7
SLDTEXTSTYLE0
 11
-3.356894814614647E-15
 21
1.0
 31
0.0
 73
     1
 44
1.0
  0
POINT
  5
264
330
25A
100
AcDbEntity
  8
Defpoints
 62
     0
100
AcDbPoint
 10
41.74999999999998
 20
-6.349999999999993
 30
0.0
  0
POINT
  5
265
330
25A
100
AcDbEntity
  8
Defpoints
 62
     0
100
AcDbPoint
 10
41.74999999999998
 20
6.350000000000006
 30
0.0
  0
POINT
  5
266
330
25A
100
AcDbEntity
  8
Defpoints
 62
     0
100
AcDbPoint
 10
60.75000000000004
 20
6.350000000000077
 30
0.0
  0
ENDBLK
  5
25C
330
25A
100
AcDbEntity
  8
0
100
AcDbBlockEnd
  0
BLOCK
  5
26E
330
26D
100
AcDbEntity
  8
0
100
AcDbBlockBegin
  2
_D_2
 70
     0
 10
0.0
 20
0.0
 30
0.0
  3
_D_2
  1
_D_2
  0
LINE
  5
270
330
26D
100
AcDbEntity
  8
치수문자_일반주서
 62
     0
370
    -2
100
AcDbLine
 10
41.74999999999998
 20
6.204298901787657
 30
0.0
 11
41.74999999999998
 21
25.95898292495662
 31
0.0
  0
LINE
  5
271
330
26D
100
AcDbEntity
  8
치수문자_일반주서
 62
     0
370
    -2
100
AcDbLine
 10
10.0
 20
0.1935371616277253
 30
0.0
 11
10.0
 21
25.95898292495662
 31
0.0
  0
LINE
  5
272
330
26D
100
AcDbEntity
  8
치수문자_일반주서
 62
     0
370
    -2
100
AcDbLine
 10
38.44799999999998
 20
25.95898292495662
 30
0.0
 11
13.302
 21
25.95898292495662
 31
0.0
  0
SOLID
  5
273
330
26D
100
AcDbEntity
  8
치수문자_일반주서
 62
     0
100
AcDbTrace
 10
38.44799999999998
 20
25.40864959162328
 30
0.0
 11
38.44799999999998
 21
26.50931625828995
 31
0.0
 12
41.74999999999998
 22
25.95898292495662
 32
0.0
 13
41.74999999999998
 23
25.95898292495662
 33
0.0
  0
SOLID
  5
274
330
26D
100
AcDbEntity
  8
치수문자_일반주서
 62
     0
100
AcDbTrace
 10
13.302
 20
26.50931625828995
 30
0.0
 11
13.302
 21
25.40864959162328
 31
0.0
 12
10.0
 22
25.95898292495662
 32
0.0
 13
10.0
 23
25.95898292495662
 33
0.0
  0
MTEXT
  5
275
330
26D
100
AcDbEntity
  8
치수문자_일반주서
 62
     0
100
AcDbMText
 10
27.00265737584871
 20
30.33398292495662
 30
0.0
 40
3.5
 41
0.0
 71
     2
 72
     1
  1
\A1;31.75 [1 1/4]
  7
SLDTEXTSTYLE0
 73
     1
 44
1.0
  0
POINT
  5
276
330
26D
100
AcDbEntity
  8
Defpoints
 62
     0
100
AcDbPoint
 10
41.74999999999998
 20
6.141798901787657
 30
0.0
  0
POINT
  5
277
330
26D
100
AcDbEntity
  8
Defpoints
 62
     0
100
AcDbPoint
 10
10.0
 20
0.1310371616277253
 30
0.0
  0
POINT
  5
278
330
26D
100
AcDbEntity
  8
Defpoints
 62
     0
100
AcDbPoint
 10
10.0
 20
25.95898292495662
 30
0.0
  0
ENDBLK
  5
26F
330
26D
100
AcDbEntity
  8
0
100
AcDbBlockEnd
  0
BLOCK
  5
282
330
281
100
AcDbEntity
  8
0
100
AcDbBlockBegin
  2
_D_3
 70
     0
 10
0.0
 20
0.0
 30
0.0
  3
_D_3
  1
_D_3
  0
LINE
  5
284
330
281
100
AcDbEntity
  8
치수문자_일반주서
 62
     0
370
    -2
100
AcDbLine
 10
41.74999999999998
 20
6.204298901787657
 30
0.0
 11
41.74999999999999
 21
40.82698515476594
 31
0.0
  0
LINE
  5
285
330
281
100
AcDbEntity
  8
치수문자_일반주서
 62
     0
370
    -2
100
AcDbLine
 10
-40.80000000000003
 20
5.912499999999995
 30
0.0
 11
-40.80000000000002
 21
40.82698515476594
 31
0.0
  0
LINE
  5
286
330
281
100
AcDbEntity
  8
치수문자_일반주서
 62
     0
370
    -2
100
AcDbLine
 10
38.44799999999999
 20
40.82698515476594
 30
0.0
 11
-37.49800000000002
 21
40.82698515476594
 31
0.0
  0
SOLID
  5
287
330
281
100
AcDbEntity
  8
치수문자_일반주서
 62
     0
100
AcDbTrace
 10
38.44799999999999
 20
40.2766518214326
 30
0.0
 11
38.44799999999999
 21
41.37731848809927
 31
0.0
 12
41.74999999999999
 22
40.82698515476594
 32
0.0
 13
41.74999999999999
 23
40.82698515476594
 33
0.0
  0
SOLID
  5
288
330
281
100
AcDbEntity
  8
치수문자_일반주서
 62
     0
100
AcDbTrace
 10
-37.49800000000002
 20
41.37731848809927
 30
0.0
 11
-37.49800000000002
 21
40.2766518214326
 31
0.0
 12
-40.80000000000002
 22
40.82698515476594
 32
0.0
 13
-40.80000000000002
 23
40.82698515476594
 33
0.0
  0
MTEXT
  5
289
330
281
100
AcDbEntity
  8
치수문자_일반주서
 62
     0
100
AcDbMText
 10
2.906239968916368
 20
45.20198515476594
 30
0.0
 40
3.5
 41
0.0
 71
     2
 72
     1
  1
\A1;82.55 [3 1/4]
  7
SLDTEXTSTYLE0
 73
     1
 44
1.0
  0
POINT
  5
28A
330
281
100
AcDbEntity
  8
Defpoints
 62
     0
100
AcDbPoint
 10
41.74999999999998
 20
6.141798901787657
 30
0.0
  0
POINT
  5
28B
330
281
100
AcDbEntity
  8
Defpoints
 62
     0
100
AcDbPoint
 10
-40.80000000000003
 20
5.849999999999995
 30
0.0
  0
POINT
  5
28C
330
281
100
AcDbEntity
  8
Defpoints
 62
     0
100
AcDbPoint
 10
-40.80000000000003
 20
40.82698515476594
 30
0.0
  0
ENDBLK
  5
283
330
281
100
AcDbEntity
  8
0
100
AcDbBlockEnd
  0
BLOCK
  5
29B
330
29A
100
AcDbEntity
  8
0
100
AcDbBlockBegin
  2
SW_DOWELSYMBOL_0
 70
     0
 10
0.0
 20
0.0
 30
0.0
  3
SW_DOWELSYMBOL_0
  1
SW_DOWELSYMBOL_0
  0
CIRCLE
  5
29D
330
29A
100
AcDbEntity
  8
해칭선
 62
     0
100
AcDbCircle
 10
0.0
 20
0.0
 30
0.0
 40
3.000000000000001
  0
HATCH
  5
29E
330
29A
100
AcDbEntity
  8
0
  6
Continuous
 62
     0
370
     0
100
AcDbHatch
 10
0.0
 20
0.0
 30
0.0
210
0.0
220
0.0
230
1.0
  2
SOLID
 70
     1
 71
     0
 91
        1
 92
        0
 93
        3
 72
     2
 10
0.0
 20
0.0
 40
3.000000000000001
 50
0.0
 51
90.0
 73
     1
 72
     1
 10
0.0
 20
3.000000000000001
 11
0.0
 21
0.0
 72
     1
 10
0.0
 20
0.0
 11
3.000000000000001
 21
0.0
 97
        0
 75
     0
 76
     1
 98
        1
 10
0.0
 20
0.0
  0
HATCH
  5
29F
330
29A
100
AcDbEntity
  8
0
  6
Continuous
 62
     0
370
     0
100
AcDbHatch
 10
0.0
 20
0.0
 30
0.0
210
0.0
220
0.0
230
1.0
  2
SOLID
 70
     1
 71
     0
 91
        1
 92
        0
 93
        3
 72
     2
 10
0.0
 20
0.0
 40
3.000000000000001
 50
180.0
 51
270.0000000000008
 73
     1
 72
     1
 10
0.0
 20
-3.000000000000001
 11
0.0
 21
0.0
 72
     1
 10
0.0
 20
0.0
 11
-3.000000000000001
 21
0.0
 97
        0
 75
     0
 76
     1
 98
        1
 10
0.0
 20
0.0
  0
ENDBLK
  5
29C
330
29A
100
AcDbEntity
  8
0
100
AcDbBlockEnd
  0
ENDSEC
  0
SECTION
  2
ENTITIES
  0
SPLINE
  5
96
330
1F
100
AcDbEntity
  8
외형선
  6
Continuous
370
    15
100
AcDbSpline
210
0.0
220
0.0
230
1.0
 70
     8
 71
     3
 72
    10
 73
     6
 74
     0
 42
0.000000001
 43
0.00000001
 40
0.0
 40
0.0
 40
0.0
 40
0.0
 40
0.3547858418135344
 40
0.7234375977536375
 40
1.0
 40
1.0
 40
1.0
 40
1.0
 10
7.191130248592623
 20
-6.185330561914947
 30
0.0
 10
7.276308786240549
 20
-6.230463622524197
 30
0.0
 10
7.449994850885059
 20
-6.322493656134124
 30
0.0
 10
7.725663628321929
 20
-6.36645587538109
 30
0.0
 10
7.897628283435082
 20
-6.332010981019025
 30
0.0
 10
7.971338628312257
 20
-6.317246638654512
 30
0.0
  0
SPLINE
  5
97
330
1F
100
AcDbEntity
  8
외형선
  6
Continuous
370
    15
100
AcDbSpline
210
0.0
220
0.0
230
1.0
 70
     8
 71
     3
 72
     9
 73
     5
 74
     0
 42
0.000000001
 43
0.00000001
 40
0.0
 40
0.0
 40
0.0
 40
0.0
 40
0.5009767175208696
 40
1.0
 40
1.0
 40
1.0
 40
1.0
 10
6.502282729553252
 20
-6.349819259755943
 30
0.0
 10
6.581087159095523
 20
-6.335610399329636
 30
0.0
 10
6.738388739760276
 20
-6.307248082420741
 30
0.0
 10
6.87816858334335
 20
-6.226456499190898
 30
0.0
 10
6.947921979712596
 20
-6.186139618130858
 30
0.0
  0
SPLINE
  5
98
330
1F
100
AcDbEntity
  8
외형선
  6
Continuous
370
    15
100
AcDbSpline
210
0.0
220
0.0
230
1.0
 70
     8
 71
     3
 72
     9
 73
     5
 74
     0
 42
0.000000001
 43
0.00000001
 40
0.0
 40
0.0
 40
0.0
 40
0.0
 40
0.5369875880500744
 40
1.0
 40
1.0
 40
1.0
 40
1.0
 10
8.197783687910293
 20
6.186230545148645
 30
0.0
 10
8.12354898575683
 20
6.228913576777818
 30
0.0
 10
7.985306121665637
 20
6.308399644201025
 30
0.0
 10
7.826007912370818
 20
6.336713418215105
 30
0.0
 10
7.75225086426592
 20
6.349823047012767
 30
0.0
  0
LINE
  5
99
330
1F
100
AcDbEntity
  8
외형선
  6
Continuous
 62
     1
370
    15
100
AcDbLine
 10
19.15293230468735
 20
-0.3723755264396587
 30
0.0
 11
19.11536510642843
 21
-0.344522511094823
 31
0.0
  0
SPLINE
  5
9A
330
1F
100
AcDbEntity
  8
외형선
  6
Continuous
370
    15
100
AcDbSpline
210
0.0
220
0.0
230
1.0
 70
     8
 71
     3
 72
     9
 73
     5
 74
     0
 42
0.000000001
 43
0.00000001
 40
0.0
 40
0.0
 40
0.0
 40
0.0
 40
0.5005794704889567
 40
1.0
 40
1.0
 40
1.0
 40
1.0
 10
6.947667211645
 20
-6.186306564514617
 30
0.0
 10
6.987997165814162
 20
-6.168247908975868
 30
0.0
 10
7.068563702291915
 20
-6.132172407275585
 30
0.0
 10
7.149988993607045
 20
-6.167422101346735
 30
0.0
 10
7.19065445571124
 20
-6.185026522224849
 30
0.0
  0
LINE
  5
9B
330
1F
100
AcDbEntity
  8
외형선
  6
Continuous
370
    15
100
AcDbLine
 10
7.749313558421153
 20
6.350000000000001
 30
0.0
 11
-11.066125
 21
6.349999999999998
 31
0.0
  0
LINE
  5
9C
330
1F
100
AcDbEntity
  8
외형선
  6
Continuous
370
    15
100
AcDbLine
 10
-40.30000000000002
 20
-6.350000000000004
 30
0.0
 11
6.499299912803866
 21
-6.349999999999999
 31
0.0
  0
LINE
  5
9D
330
1F
100
AcDbEntity
  8
외형선
  6
Continuous
370
    15
100
AcDbLine
 10
-40.30000000000002
 20
6.349999999999995
 30
0.0
 11
-40.80000000000003
 21
5.849999999999994
 31
0.0
  0
LINE
  5
9E
330
1F
100
AcDbEntity
  8
외형선
  6
Continuous
370
    15
100
AcDbLine
 10
-40.80000000000003
 20
-5.850000000000006
 30
0.0
 11
-40.30000000000002
 21
-6.350000000000008
 31
0.0
  0
LINE
  5
9F
330
1F
100
AcDbEntity
  8
외형선
  6
Continuous
 62
     1
370
    15
100
AcDbLine
 10
29.86307991749712
 20
6.222671196875296
 30
0.0
 11
29.80092785660371
 21
6.186291160001336
 31
0.0
  0
SPLINE
  5
A0
330
1F
100
AcDbEntity
  8
외형선
  6
Continuous
 62
     1
370
    15
100
AcDbSpline
210
0.0
220
0.0
230
1.0
 70
     8
 71
     3
 72
     9
 73
     5
 74
     0
 42
0.000000001
 43
0.00000001
 40
0.0
 40
0.0
 40
0.0
 40
0.0
 40
0.0948246492976614
 40
1.0
 40
1.0
 40
1.0
 40
1.0
 10
31.70809678605439
 20
-6.300441023436232
 30
0.0
 10
31.71658592383474
 20
-6.298498211542895
 30
0.0
 10
31.80611051309736
 20
-6.278009742482062
 30
0.0
 10
31.88053196508538
 20
-6.229797240704221
 30
0.0
 10
31.94789642898841
 20
-6.186156472499228
 30
0.0
  0
SPLINE
  5
A1
330
1F
100
AcDbEntity
  8
외형선
  6
Continuous
 62
     1
370
    15
100
AcDbSpline
210
0.0
220
0.0
230
1.0
 70
     8
 71
     3
 72
     9
 73
     5
 74
     0
 42
0.000000001
 43
0.00000001
 40
0.0
 40
0.0
 40
0.0
 40
0.0
 40
0.5003766007498534
 40
0.9999999999999999
 40
0.9999999999999999
 40
0.9999999999999999
 40
0.9999999999999999
 10
14.03413781695084
 20
-6.326174118764807
 30
0.0
 10
14.11165669954501
 20
-6.310997843021553
 30
0.0
 10
14.26657777794476
 20
-6.280668135915929
 30
0.0
 10
14.40341625182927
 20
-6.199949585706812
 30
0.0
 10
14.47178395529966
 20
-6.159620709268793
 30
0.0
  0
SPLINE
  5
A2
330
1F
100
AcDbEntity
  8
외형선
  6
Continuous
 62
     1
370
    15
100
AcDbSpline
210
0.0
220
0.0
230
1.0
 70
     8
 71
     3
 72
    11
 73
     7
 74
     0
 42
0.000000001
 43
0.00000001
 40
0.0
 40
0.0
 40
0.0
 40
0.0
 40
0.2449302987509583
 40
0.5000393534040136
 40
0.7551282843223966
 40
1.0
 40
1.0
 40
1.0
 40
1.0
 10
12.03064594260724
 20
6.188239480402774
 30
0.0
 10
11.94658853329383
 20
6.231890037145682
 30
0.0
 10
11.77498047656814
 20
6.321005170229491
 30
0.0
 10
11.48064126641499
 20
6.355843849883883
 30
0.0
 10
11.18631167973179
 20
6.315150431658383
 30
0.0
 10
11.01470973089272
 20
6.222131785380522
 30
0.0
 10
10.93066218852724
 20
6.176572928580191
 30
0.0
  0
SPLINE
  5
A3
330
1F
100
AcDbEntity
  8
외형선
  6
Continuous
 62
     1
370
    15
100
AcDbSpline
210
0.0
220
0.0
230
1.0
 70
     8
 71
     3
 72
    11
 73
     7
 74
     0
 42
0.000000001
 43
0.00000001
 40
0.0
 40
0.0
 40
0.0
 40
0.0
 40
0.2449424664937561
 40
0.5000415250075524
 40
0.7551193635432395
 40
1.0
 40
1.0
 40
1.0
 40
1.0
 10
29.53429316458154
 20
6.189476678816264
 30
0.0
 10
29.45017954515121
 20
6.233310462818674
 30
0.0
 10
29.27846451698186
 20
6.322795608098599
 30
0.0
 10
28.98394303602135
 20
6.358097831231738
 30
0.0
 10
28.68943159307239
 20
6.317783404581404
 30
0.0
 10
28.5177224920164
 20
6.224954909665231
 30
0.0
 10
28.43361903931936
 20
6.179487331749407
 30
0.0
  0
LINE
  5
A4
330
1F
100
AcDbEntity
  8
외형선
  6
Continuous
 62
     1
370
    15
100
AcDbLine
 10
29.8009275605409
 20
6.186290964849005
 30
0.0
 11
29.74323441581958
 21
6.161070263619804
 31
0.0
  0
SPLINE
  5
A5
330
1F
100
AcDbEntity
  8
외형선
  6
Continuous
 62
     1
370
    15
100
AcDbSpline
210
0.0
220
0.0
230
1.0
 70
     8
 71
     3
 72
    11
 73
     7
 74
     0
 42
0.000000001
 43
0.00000001
 40
0.0
 40
0.0
 40
0.0
 40
0.0
 40
0.2472116773084005
 40
0.5000830483463599
 40
0.752913467721409
 40
1.0
 40
1.0
 40
1.0
 40
1.0
 10
31.96782259966525
 20
-6.165508725945097
 30
0.0
 10
31.98748408149806
 20
-6.155742373233893
 30
0.0
 10
32.02725717748211
 20
-6.135986075763568
 30
0.0
 10
32.0985447774095
 20
-6.129838202370379
 30
0.0
 10
32.16993933961835
 20
-6.143366657746659
 30
0.0
 10
32.20997080967489
 20
-6.168380590609322
 30
0.0
 10
32.22975657026084
 20
-6.180743855966178
 30
0.0
  0
SPLINE
  5
A6
330
1F
100
AcDbEntity
  8
외형선
  6
Continuous
 62
     1
370
    15
100
AcDbSpline
210
0.0
220
0.0
230
1.0
 70
     8
 71
     3
 72
    11
 73
     7
 74
     0
 42
0.000000001
 43
0.00000001
 40
0.0
 40
0.0
 40
0.0
 40
0.0
 40
0.2449189191538149
 40
0.4999635396336928
 40
0.7550267586678366
 40
1.0
 40
1.0
 40
1.0
 40
1.0
 10
32.20654158728601
 20
-6.190393191634753
 30
0.0
 10
32.2908250404441
 20
-6.234648447643365
 30
0.0
 10
32.46287648391389
 20
-6.324988608043816
 30
0.0
 10
32.75797210407142
 20
-6.361315855579085
 30
0.0
 10
33.05307626796608
 20
-6.321795250048174
 30
0.0
 10
33.2251317087209
 20
-6.229342377992243
 30
0.0
 10
33.30942352012135
 20
-6.184048721362848
 30
0.0
  0
SPLINE
  5
A7
330
1F
100
AcDbEntity
  8
외형선
  6
Continuous
 62
     1
370
    15
100
AcDbSpline
210
0.0
220
0.0
230
1.0
 70
     8
 71
     3
 72
    11
 73
     7
 74
     0
 42
0.000000001
 43
0.00000001
 40
0.0
 40
0.0
 40
0.0
 40
0.0
 40
0.2473192141094874
 40
0.5000951370272659
 40
0.7528242921105901
 40
0.9999999999999999
 40
0.9999999999999999
 40
0.9999999999999999
 40
0.9999999999999999
 10
14.46425341258686
 20
-6.170308554558234
 30
0.0
 10
14.4838685402608
 20
-6.160418311516146
 30
0.0
 10
14.5235315724972
 20
-6.140419612801306
 30
0.0
 10
14.59472767734641
 20
-6.133866101213941
 30
0.0
 10
14.66603133211191
 20
-6.147004167825982
 30
0.0
 10
14.7059558530654
 20
-6.171701959372502
 30
0.0
 10
14.72569635262794
 20
-6.183913671162048
 30
0.0
  0
SPLINE
  5
A8
330
1F
100
AcDbEntity
  8
외형선
  6
Continuous
 62
     1
370
    15
100
AcDbSpline
210
0.0
220
0.0
230
1.0
 70
     8
 71
     3
 72
    11
 73
     7
 74
     0
 42
0.000000001
 43
0.00000001
 40
0.0
 40
0.0
 40
0.0
 40
0.0
 40
0.2449335512238237
 40
0.4999556406962314
 40
0.7550003375077174
 40
1.0
 40
1.0
 40
1.0
 40
1.0
 10
14.70318340216554
 20
-6.190077069616567
 30
0.0
 10
14.7875536269801
 20
-6.234543169182919
 30
0.0
 10
14.95976919153664
 20
-6.325306877081978
 30
0.0
 10
15.25515588102247
 20
-6.362146246411755
 30
0.0
 10
15.55055279210384
 20
-6.323016469624855
 30
0.0
 10
15.72277246262604
 20
-6.230742446370711
 30
0.0
 10
15.80715249885165
 20
-6.185532248248394
 30
0.0
  0
SPLINE
  5
A9
330
1F
100
AcDbEntity
  8
외형선
  6
Continuous
 62
     1
370
    15
100
AcDbSpline
210
0.0
220
0.0
230
1.0
 70
     8
 71
     3
 72
    11
 73
     7
 74
     0
 42
0.000000001
 43
0.00000001
 40
0.0
 40
0.0
 40
0.0
 40
0.0
 40
0.2476961445890312
 40
0.499753757496541
 40
0.7519311473714236
 40
1.0
 40
1.0
 40
1.0
 40
1.0
 10
10.93941881203801
 20
6.184195283474849
 30
0.0
 10
10.91998506004114
 20
6.173922719664981
 30
0.0
 10
10.88077536382723
 20
6.153196711306548
 30
0.0
 10
10.81011321340378
 20
6.145273224910348
 30
0.0
 10
10.73956544073229
 20
6.15704536792729
 30
0.0
 10
10.70065628514911
 20
6.180303730876863
 30
0.0
 10
10.6813614883827
 20
6.191837401538829
 30
0.0
  0
SPLINE
  5
AA
330
1F
100
AcDbEntity
  8
외형선
  6
Continuous
 62
     1
370
    15
100
AcDbSpline
210
0.0
220
0.0
230
1.0
 70
     8
 71
     3
 72
     9
 73
     5
 74
     0
 42
0.000000001
 43
0.00000001
 40
0.0
 40
0.0
 40
0.0
 40
0.0
 40
0.4994746684416919
 40
1.0
 40
1.0
 40
1.0
 40
1.0
 10
10.68982378233543
 20
6.190236777519917
 30
0.0
 10
10.6210973737359
 20
6.229585937329968
 30
0.0
 10
10.48349998803874
 20
6.308367029337727
 30
0.0
 10
10.32795893759333
 20
6.336103149664322
 30
0.0
 10
10.25010670174822
 20
6.349985780486932
 30
0.0
  0
SPLINE
  5
AB
330
1F
100
AcDbEntity
  8
외형선
  6
Continuous
 62
     1
370
    15
100
AcDbSpline
210
0.0
220
0.0
230
1.0
 70
     8
 71
     3
 72
    11
 73
     7
 74
     0
 42
0.000000001
 43
0.00000001
 40
0.0
 40
0.0
 40
0.0
 40
0.0
 40
0.247864877127264
 40
0.4997339403815069
 40
0.7517326429773659
 40
1.0
 40
1.0
 40
1.0
 40
1.0
 10
28.44163326868345
 20
6.18564231490367
 30
0.0
 10
28.42230636682739
 20
6.175283289481428
 30
0.0
 10
28.38334034254902
 20
6.154397891547007
 30
0.0
 10
28.31291550814738
 20
6.14605887562263
 30
0.0
 10
28.24260643066209
 20
6.157386047155524
 30
0.0
 10
28.20394532664491
 20
6.180202241141179
 30
0.0
 10
28.18475895585404
 20
6.191525248307511
 30
0.0
  0
SPLINE
  5
AC
330
1F
100
AcDbEntity
  8
외형선
  6
Continuous
 62
     1
370
    15
100
AcDbSpline
210
0.0
220
0.0
230
1.0
 70
     8
 71
     3
 72
     9
 73
     5
 74
     0
 42
0.000000001
 43
0.00000001
 40
0.0
 40
0.0
 40
0.0
 40
0.0
 40
0.4994303784984702
 40
1.0
 40
1.0
 40
1.0
 40
1.0
 10
28.1927703638876
 20
6.1890354187205
 30
0.0
 10
28.12394483247368
 20
6.228572608565765
 30
0.0
 10
27.98613677277806
 20
6.307737175935758
 30
0.0
 10
27.83042531953006
 20
6.33576495387056
 30
0.0
 10
27.75248089631426
 20
6.349794808062915
 30
0.0
  0
SPLINE
  5
AD
330
1F
100
AcDbEntity
  8
외형선
  6
Continuous
 62
     1
370
    15
100
AcDbSpline
210
0.0
220
0.0
230
1.0
 70
     8
 71
     3
 72
     9
 73
     5
 74
     0
 42
0.000000001
 43
0.00000001
 40
0.0
 40
0.0
 40
0.0
 40
0.0
 40
0.5002377978000624
 40
1.0
 40
1.0
 40
1.0
 40
1.0
 10
33.30377449212567
 20
-6.187375939246198
 30
0.0
 10
33.34605166829871
 20
-6.168495921148876
 30
0.0
 10
33.4305658260832
 20
-6.130753834924385
 30
0.0
 10
33.51484269561583
 20
-6.169959489343141
 30
0.0
 10
33.55696108952799
 20
-6.189552993534147
 30
0.0
  0
LINE
  5
AE
330
1F
100
AcDbEntity
  8
외형선
  6
Continuous
370
    15
100
AcDbLine
 10
9.961498110025978
 20
6.266910939044151
 30
0.0
 11
9.804278964882485
 21
6.18827920302842
 31
0.0
  0
SPLINE
  5
AF
330
1F
100
AcDbEntity
  8
외형선
  6
Continuous
 62
     1
370
    15
100
AcDbSpline
210
0.0
220
0.0
230
1.0
 70
     8
 71
     3
 72
     9
 73
     5
 74
     0
 42
0.000000001
 43
0.00000001
 40
0.0
 40
0.0
 40
0.0
 40
0.0
 40
0.8927363507081489
 40
1.0
 40
1.0
 40
1.0
 40
1.0
 10
10.25076984827169
 20
6.349954848011227
 30
0.0
 10
10.17069036286564
 20
6.339618360584998
 30
0.0
 10
10.08098920379159
 20
6.32803992825385
 30
0.0
 10
10.001036731587
 20
6.286818209673434
 30
0.0
 10
9.992460737648436
 20
6.282396617708415
 30
0.0
  0
SPLINE
  5
B0
330
1F
100
AcDbEntity
  8
외형선
  6
Continuous
 62
     1
370
    15
100
AcDbSpline
210
0.0
220
0.0
230
1.0
 70
     8
 71
     3
 72
     9
 73
     5
 74
     0
 42
0.000000001
 43
0.00000001
 40
0.0
 40
0.0
 40
0.0
 40
0.0
 40
0.4992282333121497
 40
1.0
 40
1.0
 40
1.0
 40
1.0
 10
33.55039523201103
 20
-6.185934490071181
 30
0.0
 10
33.61949270194232
 20
-6.22592857526143
 30
0.0
 10
33.7579012800647
 20
-6.306040400918616
 30
0.0
 10
33.914059333338
 20
-6.334684044896161
 30
0.0
 10
33.99225887755821
 20
-6.349027973095173
 30
0.0
  0
SPLINE
  5
B1
330
1F
100
AcDbEntity
  8
외형선
  6
Continuous
 62
     1
370
    15
100
AcDbSpline
210
0.0
220
0.0
230
1.0
 70
     8
 71
     3
 72
     9
 73
     5
 74
     0
 42
0.000000001
 43
0.00000001
 40
0.0
 40
0.0
 40
0.0
 40
0.0
 40
0.5003023890782509
 40
0.9999999999999999
 40
0.9999999999999999
 40
0.9999999999999999
 40
0.9999999999999999
 10
15.80329946488145
 20
-6.187600336883706
 30
0.0
 10
15.84518253044365
 20
-6.168735930332404
 30
0.0
 10
15.9288980322612
 20
-6.131029921000615
 30
0.0
 10
16.01242497888627
 20
-6.169162912778118
 30
0.0
 10
16.0541631945624
 20
-6.188217877666634
 30
0.0
  0
LINE
  5
B2
330
1F
100
AcDbEntity
  8
외형선
  6
Continuous
370
    15
100
AcDbLine
 10
9.999999999999979
 20
6.270765503509121
 30
0.0
 11
9.967800546080642
 21
6.273316811027701
 31
0.0
  0
SPLINE
  5
B3
330
1F
100
AcDbEntity
  8
외형선
  6
Continuous
 62
     1
370
    15
100
AcDbSpline
210
0.0
220
0.0
230
1.0
 70
     8
 71
     3
 72
     9
 73
     5
 74
     0
 42
0.000000001
 43
0.00000001
 40
0.0
 40
0.0
 40
0.0
 40
0.0
 40
0.5520783702795897
 40
1.0
 40
1.0
 40
1.0
 40
1.0
 10
27.7509448357677
 20
6.349943787742895
 30
0.0
 10
27.66090014723805
 20
6.333162298008348
 30
0.0
 10
27.49779886782358
 20
6.302765364098312
 30
0.0
 10
27.36177336564921
 20
6.222285028443019
 30
0.0
 10
27.30084460103172
 20
6.186236145335854
 30
0.0
  0
SPLINE
  5
B4
330
1F
100
AcDbEntity
  8
외형선
  6
Continuous
 62
     1
370
    15
100
AcDbSpline
210
0.0
220
0.0
230
1.0
 70
     8
 71
     3
 72
     9
 73
     5
 74
     0
 42
0.000000001
 43
0.00000001
 40
0.0
 40
0.0
 40
0.0
 40
0.0
 40
0.4991177797400353
 40
1.0
 40
1.0
 40
1.0
 40
1.0
 10
16.0484985104485
 20
-6.184573476231247
 30
0.0
 10
16.11779237755201
 20
-6.224814695827202
 30
0.0
 10
16.25662507379378
 20
-6.305439392500836
 30
0.0
 10
16.4131121146815
 20
-6.334331807723188
 30
0.0
 10
16.49149369116324
 20
-6.348803504808431
 30
0.0
  0
SPLINE
  5
B5
330
1F
100
AcDbEntity
  8
외형선
  6
Continuous
 62
     1
370
    15
100
AcDbSpline
210
0.0
220
0.0
230
1.0
 70
     8
 71
     3
 72
     9
 73
     5
 74
     0
 42
0.000000001
 43
0.00000001
 40
0.0
 40
0.0
 40
0.0
 40
0.0
 40
0.5009723003418709
 40
1.0
 40
1.0
 40
1.0
 40
1.0
 10
34.00214764555221
 20
-6.34983503971664
 30
0.0
 10
34.08094277437024
 20
-6.33564097122019
 30
0.0
 10
34.23822717665011
 20
-6.307307930677303
 30
0.0
 10
34.3779856953899
 20
-6.226561142068653
 30
0.0
 10
34.44772906750423
 20
-6.186266257894498
 30
0.0
  0
SPLINE
  5
B6
330
1F
100
AcDbEntity
  8
외형선
  6
Continuous
370
    15
100
AcDbSpline
210
0.0
220
0.0
230
1.0
 70
     8
 71
     3
 72
     9
 73
     5
 74
     0
 42
0.000000001
 43
0.00000001
 40
0.0
 40
0.0
 40
0.0
 40
0.0
 40
0.4994346823978513
 40
1.0
 40
1.0
 40
1.0
 40
1.0
 10
9.800957687607475
 20
6.186310805661059
 30
0.0
 10
9.761138685636823
 20
6.168475552262859
 30
0.0
 10
9.681410538245302
 20
6.132764669485213
 30
0.0
 10
9.601702465063134
 20
6.165765109635251
 30
0.0
 10
9.561803368095244
 20
6.182283985439963
 30
0.0
  0
SPLINE
  5
B7
330
1F
100
AcDbEntity
  8
외형선
  6
Continuous
 62
     1
370
    15
100
AcDbSpline
210
0.0
220
0.0
230
1.0
 70
     8
 71
     3
 72
     9
 73
     5
 74
     0
 42
0.000000001
 43
0.00000001
 40
0.0
 40
0.0
 40
0.0
 40
0.0
 40
0.5009753608847682
 40
1.0
 40
1.0
 40
1.0
 40
1.0
 10
16.50214768814942
 20
-6.349835034854091
 30
0.0
 10
16.58094950034393
 20
-6.335639337205725
 30
0.0
 10
16.73824628247576
 20
-6.307303217793997
 30
0.0
 10
16.87802010604175
 20
-6.226541261424304
 30
0.0
 10
16.94777068790451
 20
-6.186239055292676
 30
0.0
  0
SPLINE
  5
B8
330
1F
100
AcDbEntity
  8
외형선
  6
Continuous
370
    15
100
AcDbSpline
210
0.0
220
0.0
230
1.0
 70
     8
 71
     3
 72
    10
 73
     6
 74
     0
 42
0.000000001
 43
0.00000001
 40
0.0
 40
0.0
 40
0.0
 40
0.0
 40
0.0014774804579186
 40
0.5102565833851853
 40
1.0
 40
1.0
 40
1.0
 40
1.0
 10
9.000152748041007
 20
6.349872783370024
 30
0.0
 10
8.999865770650153
 20
6.349915288821614
 30
0.0
 10
8.900756437473124
 20
6.364594797024836
 30
0.0
 10
8.69946510628383
 20
6.318289616022785
 30
0.0
 10
8.525886931657196
 20
6.228921857313263
 30
0.0
 10
8.440752378727542
 20
6.185089824856266
 30
0.0
  0
SPLINE
  5
B9
330
1F
100
AcDbEntity
  8
외형선
  6
Continuous
370
    15
100
AcDbSpline
210
0.0
220
0.0
230
1.0
 70
     8
 71
     3
 72
     9
 73
     5
 74
     0
 42
0.000000001
 43
0.00000001
 40
0.0
 40
0.0
 40
0.0
 40
0.0
 40
0.6835365486098287
 40
0.9999999999999999
 40
0.9999999999999999
 40
0.9999999999999999
 40
0.9999999999999999
 10
9.557976816762583
 20
6.18501642848322
 30
0.0
 10
9.473292745753106
 20
6.234401629271932
 30
0.0
 10
9.349401680700758
 20
6.306651168655234
 30
0.0
 10
9.208268823090435
 20
6.321139805664536
 30
0.0
 10
9.163605431866515
 20
6.325724929738439
 30
0.0
  0
SPLINE
  5
BA
330
1F
100
AcDbEntity
  8
외형선
  6
Continuous
 62
     1
370
    15
100
AcDbSpline
210
0.0
220
0.0
230
1.0
 70
     8
 71
     3
 72
     9
 73
     5
 74
     0
 42
0.000000001
 43
0.00000001
 40
0.0
 40
0.0
 40
0.0
 40
0.0
 40
0.4994204204362607
 40
1.0
 40
1.0
 40
1.0
 40
1.0
 10
27.30100636106151
 20
6.186342785044879
 30
0.0
 10
27.26132212420259
 20
6.168535178141997
 30
0.0
 10
27.18186154302681
 20
6.132878632726159
 30
0.0
 10
27.10243320319664
 20
6.165337368519245
 30
0.0
 10
27.06267299823902
 20
6.181585548835717
 30
0.0
  0
SPLINE
  5
BB
330
1F
100
AcDbEntity
  8
외형선
  6
Continuous
 62
     1
370
    15
100
AcDbSpline
210
0.0
220
0.0
230
1.0
 70
     8
 71
     3
 72
    11
 73
     7
 74
     0
 42
0.000000001
 43
0.00000001
 40
0.0
 40
0.0
 40
0.0
 40
0.0
 40
0.2454085018424865
 40
0.5001706571244584
 40
0.7548464049232161
 40
1.0
 40
1.0
 40
1.0
 40
1.0
 10
27.05804395947124
 20
6.184973276017818
 30
0.0
 10
26.97259013389942
 20
6.230797766344172
 30
0.0
 10
26.79842544209306
 20
6.3241933303399
 30
0.0
 10
26.49933412052499
 20
6.36313254620456
 30
0.0
 10
26.2002769778832
 20
6.324249541499843
 30
0.0
 10
26.02610636102459
 20
6.230852172246967
 30
0.0
 10
25.94068009806455
 20
6.18504313528381
 30
0.0
  0
SPLINE
  5
BC
330
1F
100
AcDbEntity
  8
외형선
  6
Continuous
 62
     1
370
    15
100
AcDbSpline
210
0.0
220
0.0
230
1.0
 70
     8
 71
     3
 72
     9
 73
     5
 74
     0
 42
0.000000001
 43
0.00000001
 40
0.0
 40
0.0
 40
0.0
 40
0.0
 40
0.5006354002867437
 40
1.0
 40
1.0
 40
1.0
 40
1.0
 10
34.4478422235956
 20
-6.186192146583271
 30
0.0
 10
34.48784516683539
 20
-6.168274960008292
 30
0.0
 10
34.56774951082883
 20
-6.132486067403581
 30
0.0
 10
34.64855720237418
 20
-6.166733388184491
 30
0.0
 10
34.68890970291648
 20
-6.1838352878175
 30
0.0
  0
SPLINE
  5
BD
330
1F
100
AcDbEntity
  8
외형선
  6
Continuous
 62
     1
370
    15
100
AcDbSpline
210
0.0
220
0.0
230
1.0
 70
     8
 71
     3
 72
    11
 73
     7
 74
     0
 42
0.000000001
 43
0.00000001
 40
0.0
 40
0.0
 40
0.0
 40
0.0
 40
0.2451546515963454
 40
0.4998285944931112
 40
0.7545893223498525
 40
1.0
 40
1.0
 40
1.0
 40
1.0
 10
34.69064404725598
 20
-6.185019771452965
 30
0.0
 10
34.77607506480098
 20
-6.230834938885896
 30
0.0
 10
34.95025436406201
 20
-6.324244264776127
 30
0.0
 10
35.24932846026087
 20
-6.363134239533514
 30
0.0
 10
35.54843687014979
 20
-6.324191670737481
 30
0.0
 10
35.72261015858479
 20
-6.230786693671615
 30
0.0
 10
35.80806883189712
 20
-6.184957247075403
 30
0.0
  0
SPLINE
  5
BE
330
1F
100
AcDbEntity
  8
외형선
  6
Continuous
 62
     1
370
    15
100
AcDbSpline
210
0.0
220
0.0
230
1.0
 70
     8
 71
     3
 72
     9
 73
     5
 74
     0
 42
0.000000001
 43
0.00000001
 40
0.0
 40
0.0
 40
0.0
 40
0.0
 40
0.5005843224713342
 40
0.9999999999999999
 40
0.9999999999999999
 40
0.9999999999999999
 40
0.9999999999999999
 10
16.94788950889146
 20
-6.186161033026316
 30
0.0
 10
16.98817918210638
 20
-6.168163465822342
 30
0.0
 10
17.06866446981178
 20
-6.132210347843897
 30
0.0
 10
17.15001241445885
 20
-6.167428102409204
 30
0.0
 10
17.19063885335033
 20
-6.185016401166474
 30
0.0
  0
SPLINE
  5
BF
330
1F
100
AcDbEntity
  8
외형선
  6
Continuous
 62
     1
370
    15
100
AcDbSpline
210
0.0
220
0.0
230
1.0
 70
     8
 71
     3
 72
    11
 73
     7
 74
     0
 42
0.000000001
 43
0.00000001
 40
0.0
 40
0.0
 40
0.0
 40
0.0
 40
0.2451524076105804
 40
0.4998301663007308
 40
0.7545939171629672
 40
1.0
 40
1.0
 40
1.0
 40
1.0
 10
17.19071702266305
 20
-6.185067012361811
 30
0.0
 10
17.27613797191816
 20
-6.230869570301396
 30
0.0
 10
17.45029888548166
 20
-6.324254336027654
 30
0.0
 10
17.74933708858168
 20
-6.363130661670264
 30
0.0
 10
18.04840932247049
 20
-6.324196274877334
 30
0.0
 10
18.22256440596586
 20
-6.230811925214459
 30
0.0
 10
18.30801281562036
 20
-6.184993313405037
 30
0.0
  0
SPLINE
  5
C0
330
1F
100
AcDbEntity
  8
외형선
  6
Continuous
370
    15
100
AcDbSpline
210
0.0
220
0.0
230
1.0
 70
     8
 71
     3
 72
     9
 73
     5
 74
     0
 42
0.000000001
 43
0.00000001
 40
0.0
 40
0.0
 40
0.0
 40
0.0
 40
0.4994149577365061
 40
1.0
 40
1.0
 40
1.0
 40
1.0
 10
8.440628301459167
 20
6.18500955085277
 30
0.0
 10
8.400006970503533
 20
6.167425233951324
 30
0.0
 10
8.318669136451184
 20
6.132215401668479
 30
0.0
 10
8.238194535427757
 20
6.168156064053619
 30
0.0
 10
8.197910153873309
 20
6.186147422052662
 30
0.0
  0
SPLINE
  5
C1
330
1F
100
AcDbEntity
  8
외형선
  6
Continuous
 62
     1
370
    15
100
AcDbSpline
210
0.0
220
0.0
230
1.0
 70
     8
 71
     3
 72
     9
 73
     5
 74
     0
 42
0.000000001
 43
0.00000001
 40
0.0
 40
0.0
 40
0.0
 40
0.0
 40
0.4994166889495769
 40
1.0
 40
1.0
 40
1.0
 40
1.0
 10
25.94065763854721
 20
6.185028585714239
 30
0.0
 10
25.90002435798651
 20
6.167433935241199
 30
0.0
 10
25.8186628787653
 20
6.132203533730099
 30
0.0
 10
25.73816324898886
 20
6.168171322992457
 30
0.0
 10
25.69786647777704
 20
6.186176198032575
 30
0.0
  0
SPLINE
  5
C2
330
1F
100
AcDbEntity
  8
외형선
  6
Continuous
 62
     1
370
    15
100
AcDbSpline
210
0.0
220
0.0
230
1.0
 70
     8
 71
     3
 72
     9
 73
     5
 74
     0
 42
0.000000001
 43
0.00000001
 40
0.0
 40
0.0
 40
0.0
 40
0.0
 40
0.4990260748207808
 40
1.0
 40
1.0
 40
1.0
 40
1.0
 10
25.69774847103467
 20
6.186253584168576
 30
0.0
 10
25.62800126437543
 20
6.226552121733421
 30
0.0
 10
25.48823460652235
 20
6.307306494296653
 30
0.0
 10
25.33094361939226
 20
6.335640667089356
 30
0.0
 10
25.25214493617439
 20
6.349835348850025
 30
0.0
  0
SPLINE
  5
C3
330
1F
100
AcDbEntity
  8
외형선
  6
Continuous
 62
     1
370
    15
100
AcDbSpline
210
0.0
220
0.0
230
1.0
 70
     8
 71
     3
 72
     9
 73
     5
 74
     0
 42
0.000000001
 43
0.00000001
 40
0.0
 40
0.0
 40
0.0
 40
0.0
 40
0.5005811160099807
 40
1.0
 40
1.0
 40
1.0
 40
1.0
 10
35.81277713834002
 20
-6.181499988283015
 30
0.0
 10
35.85252155767901
 20
-6.165284381759908
 30
0.0
 10
35.93191811913101
 20
-6.13289081755126
 30
0.0
 10
36.01134824536987
 20
-6.168543992398304
 30
0.0
 10
36.05101715037126
 20
-6.186349861191115
 30
0.0
  0
SPLINE
  5
C4
330
1F
100
AcDbEntity
  8
외형선
  6
Continuous
 62
     1
370
    15
100
AcDbSpline
210
0.0
220
0.0
230
1.0
 70
     8
 71
     3
 72
     9
 73
     5
 74
     0
 42
0.000000001
 43
0.00000001
 40
0.0
 40
0.0
 40
0.0
 40
0.0
 40
0.5005741750132069
 40
1.0
 40
1.0
 40
1.0
 40
1.0
 10
18.31233957579886
 20
-6.181856721937068
 30
0.0
 10
18.3521529041569
 20
-6.16550386683863
 30
0.0
 10
18.43168822648351
 20
-6.132835671165116
 30
0.0
 10
18.51125116454843
 20
-6.168512242214592
 30
0.0
 10
18.55098695052988
 20
-6.186330043143679
 30
0.0
  0
SPLINE
  5
C5
330
1F
100
AcDbEntity
  8
외형선
  6
Continuous
 62
     1
370
    15
100
AcDbSpline
210
0.0
220
0.0
230
1.0
 70
     8
 71
     3
 72
     9
 73
     5
 74
     0
 42
0.000000001
 43
0.00000001
 40
0.0
 40
0.0
 40
0.0
 40
0.0
 40
0.4366095953579362
 40
1.0
 40
1.0
 40
1.0
 40
1.0
 10
36.05089656817836
 20
-6.18627051686876
 30
0.0
 10
36.11217645319498
 20
-6.222263339851884
 30
0.0
 10
36.25253041166988
 20
-6.304700426360755
 30
0.0
 10
36.41118949341766
 20
-6.333653677855255
 30
0.0
 10
36.50057649768367
 20
-6.349965661930443
 30
0.0
  0
SPLINE
  5
C6
330
1F
100
AcDbEntity
  8
외형선
  6
Continuous
 62
     1
370
    15
100
AcDbSpline
210
0.0
220
0.0
230
1.0
 70
     8
 71
     3
 72
     9
 73
     5
 74
     0
 42
0.000000001
 43
0.00000001
 40
0.0
 40
0.0
 40
0.0
 40
0.0
 40
0.500823431368043
 40
1.0
 40
1.0
 40
1.0
 40
1.0
 10
25.24177227534845
 20
6.348887932604261
 30
0.0
 10
25.16348719674792
 20
6.33447645375638
 30
0.0
 10
25.00717446515968
 20
6.305700885471733
 30
0.0
 10
24.86856674421362
 20
6.225337188944201
 30
0.0
 10
24.79937701768588
 20
6.18522151466901
 30
0.0
  0
SPLINE
  5
C7
330
1F
100
AcDbEntity
  8
외형선
  6
Continuous
 62
     1
370
    15
100
AcDbSpline
210
0.0
220
0.0
230
1.0
 70
     8
 71
     3
 72
     9
 73
     5
 74
     0
 42
0.000000001
 43
0.00000001
 40
0.0
 40
0.0
 40
0.0
 40
0.0
 40
0.4986111050408414
 40
1.0
 40
1.0
 40
1.0
 40
1.0
 10
18.55270671923007
 20
-6.187401427189744
 30
0.0
 10
18.62291801768101
 20
-6.227743255500548
 30
0.0
 10
18.76373176559219
 20
-6.30865165866878
 30
0.0
 10
18.92175628909611
 20
-6.336152336803609
 30
0.0
 10
19.00098803031219
 20
-6.349940871424256
 30
0.0
  0
SPLINE
  5
C8
330
1F
100
AcDbEntity
  8
외형선
  6
Continuous
 62
     1
370
    15
100
AcDbSpline
210
0.0
220
0.0
230
1.0
 70
     8
 71
     3
 72
     9
 73
     5
 74
     0
 42
0.000000001
 43
0.00000001
 40
0.0
 40
0.0
 40
0.0
 40
0.0
 40
0.5005946990800789
 40
1.0
 40
1.0
 40
1.0
 40
1.0
 10
36.50351424326194
 20
-6.349642212813114
 30
0.0
 10
36.58151055346381
 20
-6.335539906928251
 30
0.0
 10
36.73731785694747
 20
-6.307368801819111
 30
0.0
 10
36.87524464826992
 20
-6.22800572705049
 30
0.0
 10
36.94412601899523
 20
-6.188371386813735
 30
0.0
  0
SPLINE
  5
C9
330
1F
100
AcDbEntity
  8
외형선
  6
Continuous
 62
     1
370
    15
100
AcDbSpline
210
0.0
220
0.0
230
1.0
 70
     8
 71
     3
 72
     9
 73
     5
 74
     0
 42
0.000000001
 43
0.00000001
 40
0.0
 40
0.0
 40
0.0
 40
0.0
 40
0.5005463360072618
 40
1.0
 40
1.0
 40
1.0
 40
1.0
 10
19.00133015575181
 20
-6.349915168955884
 30
0.0
 10
19.07922621272359
 20
-6.335959421937871
 30
0.0
 10
19.23484828278636
 20
-6.308078392722204
 30
0.0
 10
19.37254576450541
 20
-6.229109698979257
 30
0.0
 10
19.44131927627256
 20
-6.189668495548621
 30
0.0
  0
SPLINE
  5
CA
330
1F
100
AcDbEntity
  8
외형선
  6
Continuous
 62
     1
370
    15
100
AcDbSpline
210
0.0
220
0.0
230
1.0
 70
     8
 71
     3
 72
     9
 73
     5
 74
     0
 42
0.000000001
 43
0.00000001
 40
0.0
 40
0.0
 40
0.0
 40
0.0
 40
0.4997320062686066
 40
1.0
 40
1.0
 40
1.0
 40
1.0
 10
24.80552567320841
 20
6.188906315696771
 30
0.0
 10
24.7635841928711
 20
6.1695750583405
 30
0.0
 10
24.67965624787017
 20
6.130891809891766
 30
0.0
 10
24.5955137400422
 20
6.168653351380224
 30
0.0
 10
24.55341993646357
 20
6.18754424198086
 30
0.0
  0
SPLINE
  5
CB
330
1F
100
AcDbEntity
  8
외형선
  6
Continuous
 62
     1
370
    15
100
AcDbSpline
210
0.0
220
0.0
230
1.0
 70
     8
 71
     3
 72
    11
 73
     7
 74
     0
 42
0.000000001
 43
0.00000001
 40
0.0
 40
0.0
 40
0.0
 40
0.0
 40
0.2449854818415912
 40
0.500040114606712
 40
0.7550742936868947
 40
1.0
 40
1.0
 40
1.0
 40
1.0
 10
24.5582591227789
 20
6.184833836823723
 30
0.0
 10
24.47392585720127
 20
6.230084844073718
 30
0.0
 10
24.30179314359069
 20
6.322446720709277
 30
0.0
 10
24.00655168383072
 20
6.361772986154921
 30
0.0
 10
23.71131954898271
 20
6.32519439431142
 30
0.0
 10
23.53919090430119
 20
6.234647926092054
 30
0.0
 10
23.45486667928426
 20
6.19029005192913
 30
0.0
  0
SPLINE
  5
CC
330
1F
100
AcDbEntity
  8
외형선
  6
Continuous
 62
     1
370
    15
100
AcDbSpline
210
0.0
220
0.0
230
1.0
 70
     8
 71
     3
 72
    11
 73
     7
 74
     0
 42
0.000000001
 43
0.00000001
 40
0.0
 40
0.0
 40
0.0
 40
0.0
 40
0.2483742579912628
 40
0.5002776655757177
 40
0.7520456592585707
 40
1.0
 40
1.0
 40
1.0
 40
1.0
 10
36.93638176655651
 20
-6.191219513793199
 30
0.0
 10
36.95550713758342
 20
-6.180007057623947
 30
0.0
 10
36.9940296320158
 20
-6.157422827506503
 30
0.0
 10
37.06420195895503
 20
-6.146319431468042
 30
0.0
 10
37.13449086268682
 20
-6.154860538204199
 30
0.0
 10
37.17332091451387
 20
-6.175811167026041
 30
0.0
 10
37.19258777380448
 20
-6.186206538614992
 30
0.0
  0
SPLINE
  5
CD
330
1F
100
AcDbEntity
  8
외형선
  6
Continuous
 62
     1
370
    15
100
AcDbSpline
210
0.0
220
0.0
230
1.0
 70
     8
 71
     3
 72
    11
 73
     7
 74
     0
 42
0.000000001
 43
0.00000001
 40
0.0
 40
0.0
 40
0.0
 40
0.0
 40
0.2481635027139251
 40
0.5002554272570098
 40
0.7522230033996778
 40
1.0
 40
1.0
 40
1.0
 40
1.0
 10
19.43304825233873
 20
-6.191737963428339
 30
0.0
 10
19.45229208454538
 20
-6.180305731325217
 30
0.0
 10
19.49108437832479
 20
-6.157260295180474
 30
0.0
 10
19.56152065094863
 20
-6.145705324279205
 30
0.0
 10
19.63207193724181
 20
-6.153833625715261
 30
0.0
 10
19.67116678117712
 20
-6.174641883519751
 30
0.0
 10
19.69055028935547
 20
-6.184958769193933
 30
0.0
  0
SPLINE
  5
CE
330
1F
100
AcDbEntity
  8
외형선
  6
Continuous
 62
     1
370
    15
100
AcDbSpline
210
0.0
220
0.0
230
1.0
 70
     8
 71
     3
 72
    11
 73
     7
 74
     0
 42
0.000000001
 43
0.00000001
 40
0.0
 40
0.0
 40
0.0
 40
0.0
 40
0.2448857716615788
 40
0.4999571690712086
 40
0.755050445894841
 40
1.0
 40
1.0
 40
1.0
 40
1.0
 10
37.18503909838284
 20
-6.18076330165089
 30
0.0
 10
37.2691737393642
 20
-6.226184956378621
 30
0.0
 10
37.44094246500493
 20
-6.318917505755105
 30
0.0
 10
37.73555580280127
 20
-6.359039473142854
 30
0.0
 10
38.03017942928933
 20
-6.323500169098313
 30
0.0
 10
38.20195397998992
 20
-6.233825462850207
 30
0.0
 10
38.2860989711751
 20
-6.189897667166817
 30
0.0
  0
SPLINE
  5
CF
330
1F
100
AcDbEntity
  8
외형선
  6
Continuous
 62
     1
370
    15
100
AcDbSpline
210
0.0
220
0.0
230
1.0
 70
     8
 71
     3
 72
    11
 73
     7
 74
     0
 42
0.000000001
 43
0.00000001
 40
0.0
 40
0.0
 40
0.0
 40
0.0
 40
0.2448759515582993
 40
0.4999596341617452
 40
0.7550639515080534
 40
1.0
 40
1.0
 40
1.0
 40
1.0
 10
19.68215599055591
 20
-6.178088847476004
 30
0.0
 10
19.76623036506398
 20
-6.223602240237612
 30
0.0
 10
19.93788378081977
 20
-6.31652626585038
 30
0.0
 10
20.23230050991525
 20
-6.357031437221962
 30
0.0
 10
20.52672705517692
 20
-6.321963026457977
 30
0.0
 10
20.69838649187445
 20
-6.232664596330864
 30
0.0
 10
20.78247087182358
 20
-6.188923318413826
 30
0.0
  0
LINE
  5
D0
330
1F
100
AcDbEntity
  8
외형선
  6
Continuous
370
    15
100
AcDbLine
 10
9.15595165769949
 20
6.337643248925262
 30
0.0
 11
8.99999999999998
 21
6.350000000000001
 31
0.0
  0
LINE
  5
D1
330
1F
100
AcDbEntity
  8
외형선
  6
Continuous
 62
     1
370
    15
100
AcDbLine
 10
41.60694939781278
 20
6.337624764385377
 30
0.0
 11
41.55309373089213
 21
6.33379463975266
 31
0.0
  0
LINE
  5
D2
330
1F
100
AcDbEntity
  8
외형선
  6
Continuous
 62
     1
370
    15
100
AcDbLine
 10
41.74999999999998
 20
6.150000000000006
 30
0.0
 11
41.54999999999999
 21
6.350000000000001
 31
0.0
  0
LINE
  5
D3
330
1F
100
AcDbEntity
  8
외형선
  6
Continuous
 62
     1
370
    15
100
AcDbLine
 10
38.45017919412329
 20
-6.154199983858094
 30
0.0
 11
38.46707298096452
 21
-6.153839010343803
 31
0.0
  0
LINE
  5
D4
330
1F
100
AcDbEntity
  8
외형선
  6
Continuous
 62
     1
370
    15
100
AcDbLine
 10
38.4754756977615
 20
-6.156084731513515
 30
0.0
 11
38.55092744944871
 21
-6.186290891620761
 31
0.0
  0
LINE
  5
D5
330
1F
100
AcDbEntity
  8
외형선
  6
Continuous
 62
     1
370
    15
100
AcDbLine
 10
40.6978963310683
 20
6.186156537043856
 30
0.0
 11
40.66265258344639
 21
6.203936128302136
 31
0.0
  0
LINE
  5
D6
330
1F
100
AcDbEntity
  8
외형선
  6
Continuous
 62
     1
370
    15
100
AcDbLine
 10
38.55092782378382
 20
-6.186291138368004
 30
0.0
 11
38.56585858775354
 21
-6.194454951982829
 31
0.0
  0
SPLINE
  5
D7
330
1F
100
AcDbEntity
  8
외형선
  6
Continuous
370
    15
100
AcDbSpline
210
0.0
220
0.0
230
1.0
 70
    24
 71
     3
 72
    14
 73
    10
 74
     0
 42
0.000000001
 43
0.00000001
 40
0.0
 40
0.0
 40
0.0
 40
0.0
 40
0.0647860050578766
 40
0.1297244583321882
 40
0.1951275754532112
 40
0.423574804599287
 40
0.6395571572953151
 40
0.8614467287401418
 40
1.0
 40
1.0
 40
1.0
 40
1.0
 10
7.96977678968859
 20
-4.669532973716557
 30
0.0
 10
7.96977678968859
 20
-4.736491963426967
 30
0.0
 10
7.969776789688589
 20
-4.870567504323394
 30
0.0
 10
7.969776789688585
 20
-5.058268581224462
 30
0.0
 10
7.969776789688601
 20
-5.383176426758138
 30
0.0
 10
7.969776789688589
 20
-5.775495037453948
 30
0.0
 10
7.969776789688576
 20
-6.125363776550601
 30
0.0
 10
7.969776789688585
 20
-6.310602697113528
 30
0.0
 10
7.969776789688592
 20
-6.307238956000142
 30
0.0
 10
7.969776789688594
 20
-6.305945942851555
 30
0.0
  0
SPLINE
  5
D8
330
1F
100
AcDbEntity
  8
외형선
  6
Continuous
370
    15
100
AcDbSpline
210
0.0
220
0.0
230
1.0
 70
     8
 71
     3
 72
     8
 73
     4
 74
     0
 42
0.000000001
 43
0.00000001
 40
0.0
 40
0.0
 40
0.0
 40
0.0
 40
0.000118229839595
 40
0.000118229839595
 40
0.000118229839595
 40
0.000118229839595
 10
8.056618163675235
 20
-5.143964530620948
 30
0.0
 10
8.028270214655494
 20
-5.170748980005659
 30
0.0
 10
7.99924288815985
 20
-5.196512013370519
 30
0.0
 10
7.969776789688802
 20
-5.221069930870869
 30
0.0
  0
SPLINE
  5
D9
330
1F
100
AcDbEntity
  8
외형선
  6
Continuous
370
    15
100
AcDbSpline
210
0.0
220
0.0
230
1.0
 70
    24
 71
     3
 72
    10
 73
     6
 74
     0
 42
0.000000001
 43
0.00000001
 40
0.0
 40
0.0
 40
0.0
 40
0.0
 40
0.5
 40
0.5
 40
1.0
 40
1.0
 40
1.0
 40
1.0
 10
7.969776789688598
 20
2.095011613940458
 30
0.0
 10
7.969776789688598
 20
1.704855288291204
 30
0.0
 10
7.969776789688587
 20
1.304862083424674
 30
0.0
 10
7.969776789688587
 20
0.4861880808879214
 30
0.0
 10
7.969776789688592
 20
0.0645303666877888
 30
0.0
 10
7.969776789688592
 20
-0.3561400745576352
 30
0.0
  0
SPLINE
  5
DA
330
1F
100
AcDbEntity
  8
외형선
  6
Continuous
370
    15
100
AcDbSpline
210
0.0
220
0.0
230
1.0
 70
     8
 71
     3
 72
    12
 73
     8
 74
     0
 42
0.000000001
 43
0.00000001
 40
0.0
 40
0.0
 40
0.0
 40
0.0
 40
0.2499999999999999
 40
0.2499999999999999
 40
0.4999999999999998
 40
0.4999999999999998
 40
1.0
 40
1.0
 40
1.0
 40
1.0
 10
8.853089922382935
 20
-0.9908397525609673
 30
0.0
 10
8.784300293722406
 20
-0.9513986040050213
 30
0.0
 10
8.713382430184364
 20
-0.9061361773077419
 30
0.0
 10
8.566919233594673
 20
-0.8070896940135319
 30
0.0
 10
8.490952478773927
 20
-0.7529155614949307
 30
0.0
 10
8.2635152893473
 20
-0.5857757614472041
 30
0.0
 10
8.113033349985495
 20
-0.4691948676749831
 30
0.0
 10
7.96977678968859
 20
-0.3561273380460832
 30
0.0
  0
SPLINE
  5
DB
330
1F
100
AcDbEntity
  8
외형선
  6
Continuous
370
    15
100
AcDbSpline
210
0.0
220
0.0
230
1.0
 70
     8
 71
     3
 72
    10
 73
     6
 74
     0
 42
0.000000001
 43
0.00000001
 40
0.0
 40
0.0
 40
0.0
 40
0.0
 40
0.5
 40
0.5
 40
1.0
 40
1.0
 40
1.0
 40
1.0
 10
7.969776789688592
 20
-4.669531268548781
 30
0.0
 10
8.07258134063728
 20
-4.727916920968051
 30
0.0
 10
8.174723019183192
 20
-4.772475024536607
 30
0.0
 10
8.371965055195652
 20
-4.830627841289642
 30
0.0
 10
8.469352569558172
 20
-4.844654463326239
 30
0.0
 10
8.559174564138004
 20
-4.840548861134351
 30
0.0
  0
SPLINE
  5
DC
330
1F
100
AcDbEntity
  8
외형선
  6
Continuous
 62
     1
370
    15
100
AcDbSpline
210
0.0
220
0.0
230
1.0
 70
     8
 71
     3
 72
    14
 73
    10
 74
     0
 42
0.000000001
 43
0.00000001
 40
0.0
 40
0.0
 40
0.0
 40
0.0
 40
0.25
 40
0.25
 40
0.5
 40
0.5
 40
0.75
 40
0.75
 40
1.0
 40
1.0
 40
1.0
 40
1.0
 10
22.64397823212769
 20
-2.829632915779881
 30
0.0
 10
22.72549735605731
 20
-2.904941227558854
 30
0.0
 10
22.8098789645347
 20
-2.977736311508495
 30
0.0
 10
22.98527771740123
 20
-3.11688110064823
 30
0.0
 10
23.0756080717539
 20
-3.182452714645323
 30
0.0
 10
23.25612587504416
 20
-3.29918435097169
 30
0.0
 10
23.34403674881041
 20
-3.349023033959779
 30
0.0
 10
23.51609938524921
 20
-3.431060091234821
 30
0.0
 10
23.60103521945887
 20
-3.463339155828668
 30
0.0
 10
23.67989654206413
 20
-3.483910830811733
 30
0.0
  0
SPLINE
  5
DD
330
1F
100
AcDbEntity
  8
외형선
  6
Continuous
 62
     1
370
    15
100
AcDbSpline
210
0.0
220
0.0
230
1.0
 70
     8
 71
     3
 72
    14
 73
    10
 74
     0
 42
0.000000001
 43
0.00000001
 40
0.0
 40
0.0
 40
0.0
 40
0.0
 40
0.25
 40
0.25
 40
0.5
 40
0.5
 40
0.75
 40
0.75
 40
1.0
 40
1.0
 40
1.0
 40
1.0
 10
23.97243968647491
 20
0.8603285749780293
 30
0.0
 10
23.89088490546421
 20
0.9236946643926688
 30
0.0
 10
23.80638456244425
 20
0.9902492102768699
 30
0.0
 10
23.63074198978723
 20
1.126486803465869
 30
0.0
 10
23.54032347391281
 20
1.195597859330881
 30
0.0
 10
23.35979419372626
 20
1.328621773188944
 30
0.0
 10
23.27193710379258
 20
1.390916021476683
 30
0.0
 10
23.10007542189868
 20
1.50616413815441
 30
0.0
 10
23.01529630169929
 20
1.559508490660958
 30
0.0
 10
22.93659727455704
 20
1.604989464426271
 30
0.0
  0
SPLINE
  5
DE
330
1F
100
AcDbEntity
  8
외형선
  6
Continuous
 62
     1
370
    15
100
AcDbSpline
210
0.0
220
0.0
230
1.0
 70
     8
 71
     3
 72
    14
 73
    10
 74
     0
 42
0.000000001
 43
0.00000001
 40
0.0
 40
0.0
 40
0.0
 40
0.0
 40
0.25
 40
0.25
 40
0.5
 40
0.5
 40
0.75
 40
0.75
 40
1.0
 40
1.0
 40
1.0
 40
1.0
 10
40.15046593021697
 20
-2.737035809928811
 30
0.0
 10
40.23195700435043
 20
-2.811876256336886
 30
0.0
 10
40.3164077061439
 20
-2.88438493589776
 30
0.0
 10
40.49198879707232
 20
-3.023394126750206
 30
0.0
 10
40.58239942772551
 20
-3.089168786017185
 30
0.0
 10
40.76298937088995
 20
-3.206789460802253
 30
0.0
 10
40.85090428520748
 20
-3.257306037229237
 30
0.0
 10
41.0229225179844
 20
-3.341156659473752
 30
0.0
 10
41.10780637772475
 20
-3.37458820906794
 30
0.0
 10
41.18660911766407
 20
-3.396524223569719
 30
0.0
  0
SPLINE
  5
DF
330
1F
100
AcDbEntity
  8
외형선
  6
Continuous
 62
     1
370
    15
100
AcDbSpline
210
0.0
220
0.0
230
1.0
 70
     8
 71
     3
 72
    14
 73
    10
 74
     0
 42
0.000000001
 43
0.00000001
 40
0.0
 40
0.0
 40
0.0
 40
0.0
 40
0.25
 40
0.25
 40
0.5
 40
0.5
 40
0.75
 40
0.75
 40
1.0
 40
1.0
 40
1.0
 40
1.0
 10
41.4789716789771
 20
0.9640127339416655
 30
0.0
 10
41.397515777336
 20
1.028255659174367
 30
0.0
 10
41.3131071430059
 20
1.095362946496139
 30
0.0
 10
41.1376135516776
 20
1.232144452914503
 30
0.0
 10
41.047240692553
 20
1.301243641169666
 30
0.0
 10
40.86672366285515
 20
1.433694930348317
 30
0.0
 10
40.77884677563166
 20
1.495432190405591
 30
0.0
 10
40.60690686727897
 20
1.609044618628745
 30
0.0
 10
40.52206096649621
 20
1.661296946535028
 30
0.0
 10
40.44329550155162
 20
1.705442504861131
 30
0.0
  0
SPLINE
  5
E0
330
1F
100
AcDbEntity
  8
외형선
  6
Continuous
370
    15
100
AcDbSpline
210
0.0
220
0.0
230
1.0
 70
     8
 71
     3
 72
     8
 73
     4
 74
     0
 42
0.000000001
 43
0.00000001
 40
0.0
 40
0.0
 40
0.0
 40
0.0
 40
0.0001227031607244
 40
0.0001227031607244
 40
0.0001227031607244
 40
0.0001227031607244
 10
7.96977678968859
 20
5.959554678874232
 30
0.0
 10
7.999545723820582
 20
5.937292174196984
 30
0.0
 10
8.028712865960753
 20
5.913355467223097
 30
0.0
 10
8.057023467137352
 20
5.88787684044214
 30
0.0
  0
SPLINE
  5
E2
330
1F
100
AcDbEntity
  8
외형선
  6
Continuous
370
    15
100
AcDbSpline
210
0.0
220
0.0
230
1.0
 70
    24
 71
     3
 72
     8
 73
     4
 74
     0
 42
0.000000001
 43
0.00000001
 40
0.0
 40
0.0
 40
0.0
 40
0.0
 40
1.0
 40
1.0
 40
1.0
 40
1.0
 10
7.96977678968859
 20
5.959557116901927
 30
0.0
 10
7.96977678968859
 20
5.803683309389858
 30
0.0
 10
7.969776789688464
 20
5.595339846198992
 30
0.0
 10
7.969776789688464
 20
5.338561091195532
 30
0.0
  0
SPLINE
  5
E3
330
1F
100
AcDbEntity
  8
외형선
  6
Continuous
 62
     1
370
    15
100
AcDbSpline
210
0.0
220
0.0
230
1.0
 70
     8
 71
     3
 72
    14
 73
    10
 74
     0
 42
0.000000001
 43
0.00000001
 40
0.0
 40
0.0
 40
0.0
 40
0.0
 40
0.25
 40
0.25
 40
0.5
 40
0.5
 40
0.75
 40
0.75
 40
1.0
 40
1.0
 40
1.0
 40
1.0
 10
20.25675233069886
 20
-1.177932555676916
 30
0.0
 10
20.33821364262378
 20
-1.24358194711842
 30
0.0
 10
20.42261791114608
 20
-1.311570132983229
 30
0.0
 10
20.5980474666287
 20
-1.449279085172552
 30
0.0
 10
20.6883223034275
 20
-1.518376277937431
 30
0.0
 10
20.86850177207939
 20
-1.649962956630134
 30
0.0
 10
20.95612693746838
 20
-1.710920239398437
 30
0.0
 10
21.12771189831079
 20
-1.821910434270715
 30
0.0
 10
21.21244222500605
 20
-1.872291900746367
 30
0.0
 10
21.29114263769334
 20
-1.914060986624436
 30
0.0
  0
SPLINE
  5
E4
330
1F
100
AcDbEntity
  8
외형선
  6
Continuous
 62
     1
370
    15
100
AcDbSpline
210
0.0
220
0.0
230
1.0
 70
     8
 71
     3
 72
    14
 73
    10
 74
     0
 42
0.000000001
 43
0.00000001
 40
0.0
 40
0.0
 40
0.0
 40
0.0
 40
0.25
 40
0.25
 40
0.5
 40
0.5
 40
0.75
 40
0.75
 40
1.0
 40
1.0
 40
1.0
 40
1.0
 10
21.58491994820772
 20
2.539128984263665
 30
0.0
 10
21.50346979422802
 20
2.61293241320979
 30
0.0
 10
21.4190812364261
 20
2.685073181111836
 30
0.0
 10
21.24369364206369
 20
2.824485132586258
 30
0.0
 10
21.15344553159195
 20
2.891016588299917
 30
0.0
 10
20.97331976848841
 20
3.011195280304092
 30
0.0
 10
20.88570527034182
 20
3.063499875650046
 30
0.0
 10
20.71409673905061
 20
3.151512572286208
 30
0.0
 10
20.62935852172451
 20
3.187391036536343
 30
0.0
 10
20.55065800878793
 20
3.212063933081013
 30
0.0
  0
SPLINE
  5
E5
330
1F
100
AcDbEntity
  8
외형선
  6
Continuous
 62
     1
370
    15
100
AcDbSpline
210
0.0
220
0.0
230
1.0
 70
     8
 71
     3
 72
     8
 73
     4
 74
     0
 42
0.000000001
 43
0.00000001
 40
0.0
 40
0.0
 40
0.0
 40
0.0
 40
1.0
 40
1.0
 40
1.0
 40
1.0
 10
21.96775707245256
 20
-2.433706044213245
 30
0.0
 10
22.11228672041734
 20
-2.527650959118741
 30
0.0
 10
22.25343122033069
 20
-2.604666770104863
 30
0.0
 10
22.37955112492757
 20
-2.655924538205905
 30
0.0
  0
SPLINE
  5
E6
330
1F
100
AcDbEntity
  8
외형선
  6
Continuous
 62
     1
370
    15
100
AcDbSpline
210
0.0
220
0.0
230
1.0
 70
     8
 71
     3
 72
    12
 73
     8
 74
     0
 42
0.000000001
 43
0.00000001
 40
0.0
 40
0.0
 40
0.0
 40
0.0
 40
0.2499999999999999
 40
0.2499999999999999
 40
0.5
 40
0.5
 40
1.0
 40
1.0
 40
1.0
 40
1.0
 10
22.26020646349723
 20
2.126263101263513
 30
0.0
 10
22.23547236476794
 20
1.758078610055057
 30
0.0
 10
22.21113283967699
 20
1.379731735282212
 30
0.0
 10
22.16439286440297
 20
0.6223568256376656
 30
0.0
 10
22.14072040030744
 20
0.2365394654621342
 30
0.0
 10
22.06707528629633
 20
-0.9324097140183201
 30
0.0
 10
22.01592492567591
 20
-1.718247073485472
 30
0.0
 10
21.96775707358555
 20
-2.43370604494828
 30
0.0
  0
SPLINE
  5
E7
330
1F
100
AcDbEntity
  8
외형선
  6
Continuous
 62
     1
370
    15
100
AcDbSpline
210
0.0
220
0.0
230
1.0
 70
     8
 71
     3
 72
     8
 73
     4
 74
     0
 42
0.000000001
 43
0.00000001
 40
0.0
 40
0.0
 40
0.0
 40
0.0
 40
1.0
 40
1.0
 40
1.0
 40
1.0
 10
22.67249166011158
 20
1.792496813121007
 30
0.0
 10
22.54397337540209
 20
1.903322685946801
 30
0.0
 10
22.40325229333341
 20
2.01931422508039
 30
0.0
 10
22.26020646349718
 20
2.126263101263111
 30
0.0
  0
SPLINE
  5
E8
330
1F
100
AcDbEntity
  8
외형선
  6
Continuous
 62
     1
370
    15
100
AcDbSpline
210
0.0
220
0.0
230
1.0
 70
     8
 71
     3
 72
    14
 73
    10
 74
     0
 42
0.000000001
 43
0.00000001
 40
0.0
 40
0.0
 40
0.0
 40
0.0
 40
0.25
 40
0.25
 40
0.5
 40
0.5
 40
0.75
 40
0.75
 40
1.0
 40
1.0
 40
1.0
 40
1.0
 10
37.76357781383531
 20
-1.075219356276289
 30
0.0
 10
37.84495244303186
 20
-1.140263535665855
 30
0.0
 10
37.92920172167562
 20
-1.208004042617597
 30
0.0
 10
38.10435127362334
 20
-1.345591125788161
 30
0.0
 10
38.19455689734516
 20
-1.414776478608666
 30
0.0
 10
38.37481713852038
 20
-1.546814606710944
 30
0.0
 10
38.4625953147604
 20
-1.60805576072216
 30
0.0
 10
38.63438896488111
 20
-1.720126073063166
 30
0.0
 10
38.71919031901748
 20
-1.771316295665541
 30
0.0
 10
38.79793054835964
 20
-1.81414335909554
 30
0.0
  0
SPLINE
  5
E9
330
1F
100
AcDbEntity
  8
외형선
  6
Continuous
 62
     1
370
    15
100
AcDbSpline
210
0.0
220
0.0
230
1.0
 70
     8
 71
     3
 72
    14
 73
    10
 74
     0
 42
0.000000001
 43
0.00000001
 40
0.0
 40
0.0
 40
0.0
 40
0.0
 40
0.25
 40
0.25
 40
0.5
 40
0.5
 40
0.75
 40
0.75
 40
1.0
 40
1.0
 40
1.0
 40
1.0
 10
39.09178208207682
 20
2.634558956053405
 30
0.0
 10
39.01036709408158
 20
2.708753301488145
 30
0.0
 10
38.92599249789392
 20
2.780968148805965
 30
0.0
 10
38.75057387367571
 20
2.919979628439638
 30
0.0
 10
38.6602705268068
 20
2.986036878035644
 30
0.0
 10
38.47997896382246
 20
3.104742690627753
 30
0.0
 10
38.39224508943242
 20
3.156047239419487
 30
0.0
 10
38.22063434291862
 20
3.241977266207632
 30
0.0
 10
38.13598144355901
 20
3.276719576594363
 30
0.0
 10
38.05739647128206
 20
3.300208227559539
 30
0.0
  0
SPLINE
  5
EA
330
1F
100
AcDbEntity
  8
외형선
  6
Continuous
 62
     1
370
    15
100
AcDbSpline
210
0.0
220
0.0
230
1.0
 70
     8
 71
     3
 72
     8
 73
     4
 74
     0
 42
0.000000001
 43
0.00000001
 40
0.0
 40
0.0
 40
0.0
 40
0.0
 40
1.0
 40
1.0
 40
1.0
 40
1.0
 10
39.47446167188879
 20
-2.333957351792732
 30
0.0
 10
39.61900063930064
 20
-2.429107468092847
 30
0.0
 10
39.76004854797493
 20
-2.508030760661883
 30
0.0
 10
39.88611400314591
 20
-2.561640113335606
 30
0.0
  0
SPLINE
  5
EB
330
1F
100
AcDbEntity
  8
외형선
  6
Continuous
 62
     1
370
    15
100
AcDbSpline
210
0.0
220
0.0
230
1.0
 70
     8
 71
     3
 72
    14
 73
    10
 74
     0
 42
0.000000001
 43
0.00000001
 40
0.0
 40
0.0
 40
0.0
 40
0.0
 40
0.2499999999999998
 40
0.2499999999999998
 40
0.3749999999999998
 40
0.3749999999999998
 40
0.4999999999999998
 40
0.4999999999999998
 40
1.0
 40
1.0
 40
1.0
 40
1.0
 10
39.76697751362718
 20
2.226658232264505
 30
0.0
 10
39.74218701802125
 20
1.860536682817491
 30
0.0
 10
39.71773319907992
 20
1.483361628039638
 30
0.0
 10
39.68243384037097
 20
0.9157532167701562
 30
0.0
 10
39.67094734836444
 20
0.7265299954289093
 30
0.0
 10
39.6472196538368
 20
0.3425854359335408
 30
0.0
 10
39.63514196700842
 20
0.1487311477485916
 30
0.0
 10
39.57404085621644
 20
-0.8239974895454466
 30
0.0
 10
39.52287356427901
 20
-1.612534906880428
 30
0.0
 10
39.47446167302132
 20
-2.333957352537031
 30
0.0
  0
SPLINE
  5
EC
330
1F
100
AcDbEntity
  8
외형선
  6
Continuous
 62
     1
370
    15
100
AcDbSpline
210
0.0
220
0.0
230
1.0
 70
     8
 71
     3
 72
     8
 73
     4
 74
     0
 42
0.000000001
 43
0.00000001
 40
0.0
 40
0.0
 40
0.0
 40
0.0
 40
1.0
 40
1.0
 40
1.0
 40
1.0
 10
40.17918006875592
 20
1.891377582146849
 30
0.0
 10
40.05053516180227
 20
2.003150291654205
 30
0.0
 10
39.90989218603269
 20
2.119715150400978
 30
0.0
 10
39.76697751362715
 20
2.226658232262206
 30
0.0
  0
SPLINE
  5
ED
330
1F
100
AcDbEntity
  8
외형선
  6
Continuous
 62
     1
370
    15
100
AcDbSpline
210
0.0
220
0.0
230
1.0
 70
     8
 71
     3
 72
     8
 73
     4
 74
     0
 42
0.000000001
 43
0.00000001
 40
0.0
 40
0.0
 40
0.0
 40
0.0
 40
1.0
 40
1.0
 40
1.0
 40
1.0
 10
21.55525309817584
 20
-2.097914539465091
 30
0.0
 10
21.68386954022312
 20
-2.211430791398132
 30
0.0
 10
21.82469181108233
 20
-2.32796177439975
 30
0.0
 10
21.96775707358547
 20
-2.433706044949657
 30
0.0
  0
SPLINE
  5
EE
330
1F
100
AcDbEntity
  8
외형선
  6
Continuous
 62
     1
370
    15
100
AcDbSpline
210
0.0
220
0.0
230
1.0
 70
     8
 71
     3
 72
     8
 73
     4
 74
     0
 42
0.000000001
 43
0.00000001
 40
0.0
 40
0.0
 40
0.0
 40
0.0
 40
1.0
 40
1.0
 40
1.0
 40
1.0
 10
22.2602064648334
 20
2.126263100366805
 30
0.0
 10
22.11589359569025
 20
2.223065948193086
 30
0.0
 10
21.97488328312314
 20
2.304620445780204
 30
0.0
 10
21.8489025686825
 20
2.361844194391687
 30
0.0
  0
SPLINE
  5
EF
330
1F
100
AcDbEntity
  8
외형선
  6
Continuous
 62
     1
370
    15
100
AcDbSpline
210
0.0
220
0.0
230
1.0
 70
     8
 71
     3
 72
    12
 73
     8
 74
     0
 42
0.000000001
 43
0.00000001
 40
0.0
 40
0.0
 40
0.0
 40
0.0
 40
0.5000000000000001
 40
0.5000000000000001
 40
0.75
 40
0.75
 40
1.0
 40
1.0
 40
1.0
 40
1.0
 10
24.64875218767462
 20
0.3677792230179229
 30
0.0
 10
24.60080807614603
 20
-0.4043600892740554
 30
0.0
 10
24.54970205378815
 20
-1.201338821492765
 30
0.0
 10
24.47583395296418
 20
-2.315622240247073
 30
0.0
 10
24.45179839961565
 20
-2.672979774774918
 30
0.0
 10
24.40534926571948
 20
-3.346943846456787
 30
0.0
 10
24.38111682640432
 20
-3.672207526748162
 30
0.0
 10
24.3564429076042
 20
-3.9766032244554
 30
0.0
  0
SPLINE
  5
F0
330
1F
100
AcDbEntity
  8
외형선
  6
Continuous
 62
     1
370
    15
100
AcDbSpline
210
0.0
220
0.0
230
1.0
 70
     8
 71
     3
 72
     8
 73
     4
 74
     0
 42
0.000000001
 43
0.00000001
 40
0.0
 40
0.0
 40
0.0
 40
0.0
 40
1.0
 40
1.0
 40
1.0
 40
1.0
 10
23.94409606042625
 20
-3.64305481227408
 30
0.0
 10
24.07272482339696
 20
-3.76691150292243
 30
0.0
 10
24.21350518608122
 20
-3.881787444170886
 30
0.0
 10
24.35644290760421
 20
-3.976603224455227
 30
0.0
  0
SPLINE
  5
F1
330
1F
100
AcDbEntity
  8
외형선
  6
Continuous
 62
     1
370
    15
100
AcDbSpline
210
0.0
220
0.0
230
1.0
 70
     8
 71
     3
 72
     8
 73
     4
 74
     0
 42
0.000000001
 43
0.00000001
 40
0.0
 40
0.0
 40
0.0
 40
0.0
 40
1.0
 40
1.0
 40
1.0
 40
1.0
 10
24.64875218901194
 20
0.3677792220146237
 30
0.0
 10
24.5043674988682
 20
0.4762557345562933
 30
0.0
 10
24.36318185086722
 20
0.5795713717881412
 30
0.0
 10
24.23693769358114
 20
0.6678415030808366
 30
0.0
  0
SPLINE
  5
F2
330
1F
100
AcDbEntity
  8
외형선
  6
Continuous
 62
     1
370
    15
100
AcDbSpline
210
0.0
220
0.0
230
1.0
 70
     8
 71
     3
 72
     8
 73
     4
 74
     0
 42
0.000000001
 43
0.00000001
 40
0.0
 40
0.0
 40
0.0
 40
0.0
 40
1.0
 40
1.0
 40
1.0
 40
1.0
 10
39.06202968278372
 20
-1.998716349390985
 30
0.0
 10
39.19067839808228
 20
-2.111282949018662
 30
0.0
 10
39.33149389428669
 20
-2.227667849619612
 30
0.0
 10
39.47446167302122
 20
-2.333957352538314
 30
0.0
  0
SPLINE
  5
F3
330
1F
100
AcDbEntity
  8
외형선
  6
Continuous
 62
     1
370
    15
100
AcDbSpline
210
0.0
220
0.0
230
1.0
 70
     8
 71
     3
 72
     8
 73
     4
 74
     0
 42
0.000000001
 43
0.00000001
 40
0.0
 40
0.0
 40
0.0
 40
0.0
 40
1.0
 40
1.0
 40
1.0
 40
1.0
 10
39.76697751496291
 20
2.226658231370747
 30
0.0
 10
39.62277596489569
 20
2.322895913439679
 30
0.0
 10
39.48177573294432
 20
2.403206912578919
 30
0.0
 10
39.355751393859
 20
2.458551513636551
 30
0.0
  0
SPLINE
  5
F4
330
1F
100
AcDbEntity
  8
외형선
  6
Continuous
 62
     1
370
    15
100
AcDbSpline
210
0.0
220
0.0
230
1.0
 70
     8
 71
     3
 72
     8
 73
     4
 74
     0
 42
0.000000001
 43
0.00000001
 40
0.0
 40
0.0
 40
0.0
 40
0.0
 40
1.0
 40
1.0
 40
1.0
 40
1.0
 10
24.35644290647188
 20
-3.976603223875644
 30
0.0
 10
24.50085668412255
 20
-4.050520020416095
 30
0.0
 10
24.64177420157636
 20
-4.098941599786735
 30
0.0
 10
24.76769622427307
 20
-4.114484593103047
 30
0.0
  0
SPLINE
  5
F5
330
1F
100
AcDbEntity
  8
외형선
  6
Continuous
 62
     1
370
    15
100
AcDbSpline
210
0.0
220
0.0
230
1.0
 70
     8
 71
     3
 72
     8
 73
     4
 74
     0
 42
0.000000001
 43
0.00000001
 40
0.0
 40
0.0
 40
0.0
 40
0.0
 40
1.0
 40
1.0
 40
1.0
 40
1.0
 10
25.06122461046546
 20
0.062382564104389
 30
0.0
 10
24.93249282436543
 20
0.1522646789257404
 30
0.0
 10
24.79174536576473
 20
0.2593876597986253
 30
0.0
 10
24.6487521876747
 20
0.3677792230193118
 30
0.0
  0
SPLINE
  5
F6
330
1F
100
AcDbEntity
  8
외형선
  6
Continuous
 62
     1
370
    15
100
AcDbSpline
210
0.0
220
0.0
230
1.0
 70
     8
 71
     3
 72
     8
 73
     4
 74
     0
 42
0.000000001
 43
0.00000001
 40
0.0
 40
0.0
 40
0.0
 40
0.0
 40
1.0
 40
1.0
 40
1.0
 40
1.0
 10
17.57656787737711
 20
4.928963287270681
 30
0.0
 10
17.70510791133373
 20
5.053239872477858
 30
0.0
 10
17.84586172349967
 20
5.15681344909913
 30
0.0
 10
17.98889569817793
 20
5.232269885280094
 30
0.0
  0
SPLINE
  5
F7
330
1F
100
AcDbEntity
  8
외형선
  6
Continuous
 62
     1
370
    15
100
AcDbSpline
210
0.0
220
0.0
230
1.0
 70
     8
 71
     3
 72
     8
 73
     4
 74
     0
 42
0.000000001
 43
0.00000001
 40
0.0
 40
0.0
 40
0.0
 40
0.0
 40
1.0
 40
1.0
 40
1.0
 40
1.0
 10
17.98889569704523
 20
5.232269884912314
 30
0.0
 10
18.13333153287761
 20
5.279163667329462
 30
0.0
 10
18.27441608861612
 20
5.293602094126975
 30
0.0
 10
18.40047735640396
 20
5.270745690752476
 30
0.0
  0
SPLINE
  5
F8
330
1F
100
AcDbEntity
  8
외형선
  6
Continuous
 62
     1
370
    15
100
AcDbSpline
210
0.0
220
0.0
230
1.0
 70
     8
 71
     3
 72
     8
 73
     4
 74
     0
 42
0.000000001
 43
0.00000001
 40
0.0
 40
0.0
 40
0.0
 40
0.0
 40
1.0
 40
1.0
 40
1.0
 40
1.0
 10
18.40047735640398
 20
5.270745690752479
 30
0.0
 10
18.48003557634928
 20
5.256320841639526
 30
0.0
 10
18.58208922272399
 20
5.292036981101477
 30
0.0
 10
18.66475640737532
 20
5.368758429095318
 30
0.0
  0
SPLINE
  5
F9
330
1F
100
AcDbEntity
  8
외형선
  6
Continuous
 62
     1
370
    15
100
AcDbSpline
210
0.0
220
0.0
230
1.0
 70
     8
 71
     3
 72
    14
 73
    10
 74
     0
 42
0.000000001
 43
0.00000001
 40
0.0
 40
0.0
 40
0.0
 40
0.0
 40
0.25
 40
0.25
 40
0.5
 40
0.5
 40
0.75
 40
0.75
 40
1.0
 40
1.0
 40
1.0
 40
1.0
 10
18.66475640737531
 20
5.368758429095296
 30
0.0
 10
18.74633049516819
 20
5.44446539989203
 30
0.0
 10
18.83082301757402
 20
5.508659593128215
 30
0.0
 10
19.00636371012722
 20
5.616518217335274
 30
0.0
 10
19.09662986416475
 20
5.659364241756485
 30
0.0
 10
19.27706756022284
 20
5.719275954507487
 30
0.0
 10
19.36496166666863
 20
5.735890285399972
 30
0.0
 10
19.53702775245605
 20
5.742490198992754
 30
0.0
 10
19.62197859693338
 20
5.732024466055972
 30
0.0
 10
19.70086647420291
 20
5.70657731017018
 30
0.0
  0
SPLINE
  5
FA
330
1F
100
AcDbEntity
  8
외형선
  6
Continuous
 62
     1
370
    15
100
AcDbSpline
210
0.0
220
0.0
230
1.0
 70
     8
 71
     3
 72
     8
 73
     4
 74
     0
 42
0.000000001
 43
0.00000001
 40
0.0
 40
0.0
 40
0.0
 40
0.0
 40
1.0
 40
1.0
 40
1.0
 40
1.0
 10
19.70086647420292
 20
5.706577310170183
 30
0.0
 10
19.78083487210064
 20
5.680781606727846
 30
0.0
 10
19.88294954448487
 20
5.706990891029671
 30
0.0
 10
19.96520165670778
 20
5.780201136670204
 30
0.0
  0
SPLINE
  5
FB
330
1F
100
AcDbEntity
  8
외형선
  6
Continuous
 62
     1
370
    15
100
AcDbSpline
210
0.0
220
0.0
230
1.0
 70
     8
 71
     3
 72
     8
 73
     4
 74
     0
 42
0.000000001
 43
0.00000001
 40
0.0
 40
0.0
 40
0.0
 40
0.0
 40
1.0
 40
1.0
 40
1.0
 40
1.0
 10
19.96520165670777
 20
5.780201136670189
 30
0.0
 10
20.09387080495387
 20
5.89472585457561
 30
0.0
 10
20.23470544819478
 20
5.978922157385462
 30
0.0
 10
20.37773444556648
 20
6.029593420819323
 30
0.0
  0
SPLINE
  5
FC
330
1F
100
AcDbEntity
  8
외형선
  6
Continuous
 62
     1
370
    15
100
AcDbSpline
210
0.0
220
0.0
230
1.0
 70
     8
 71
     3
 72
     8
 73
     4
 74
     0
 42
0.000000001
 43
0.00000001
 40
0.0
 40
0.0
 40
0.0
 40
0.0
 40
1.0
 40
1.0
 40
1.0
 40
1.0
 10
20.377734444434
 20
6.029593420685875
 30
0.0
 10
20.52218264571776
 20
6.046613918175285
 30
0.0
 10
20.66319965434006
 20
6.027226386026448
 30
0.0
 10
20.78915342245469
 20
5.969194558107509
 30
0.0
  0
SPLINE
  5
FD
330
1F
100
AcDbEntity
  8
외형선
  6
Continuous
 62
     1
370
    15
100
AcDbSpline
210
0.0
220
0.0
230
1.0
 70
     8
 71
     3
 72
     8
 73
     4
 74
     0
 42
0.000000001
 43
0.00000001
 40
0.0
 40
0.0
 40
0.0
 40
0.0
 40
1.0
 40
1.0
 40
1.0
 40
1.0
 10
20.78915342245473
 20
5.969194558107488
 30
0.0
 10
20.86863646014433
 20
5.932573613496449
 30
0.0
 10
20.97052928251644
 20
5.948982780105806
 30
0.0
 10
21.05313861486279
 20
6.01657838797653
 30
0.0
  0
SPLINE
  5
FE
330
1F
100
AcDbEntity
  8
외형선
  6
Continuous
 62
     1
370
    15
100
AcDbSpline
210
0.0
220
0.0
230
1.0
 70
     8
 71
     3
 72
    14
 73
    10
 74
     0
 42
0.000000001
 43
0.00000001
 40
0.0
 40
0.0
 40
0.0
 40
0.0
 40
0.25
 40
0.25
 40
0.5
 40
0.5
 40
0.75
 40
0.75
 40
1.0
 40
1.0
 40
1.0
 40
1.0
 10
21.05313861486277
 20
6.016578387976511
 30
0.0
 10
21.13444595180245
 20
6.08310862988362
 30
0.0
 10
21.2187162765446
 20
6.135012319369408
 30
0.0
 10
21.39396157556562
 20
6.213513553717579
 30
0.0
 10
21.4842168807882
 20
6.239339491180177
 30
0.0
 10
21.66452252666803
 20
6.26251861980359
 30
0.0
 10
21.75230022663879
 20
6.259908521229362
 30
0.0
 10
21.92405344623294
 20
6.226766708551456
 30
0.0
 10
22.00881567602561
 20
6.195564475294363
 30
0.0
 10
22.08750644196267
 20
6.149600645260107
 30
0.0
  0
SPLINE
  5
FF
330
1F
100
AcDbEntity
  8
외형선
  6
Continuous
 62
     1
370
    15
100
AcDbSpline
210
0.0
220
0.0
230
1.0
 70
     8
 71
     3
 72
     8
 73
     4
 74
     0
 42
0.000000001
 43
0.00000001
 40
0.0
 40
0.0
 40
0.0
 40
0.0
 40
1.0
 40
1.0
 40
1.0
 40
1.0
 10
22.08750644196269
 20
6.149600645260102
 30
0.0
 10
22.16737152127422
 20
6.102950890521618
 30
0.0
 10
22.26937663429309
 20
6.1090665090499
 30
0.0
 10
22.35149093341666
 20
6.170217164162827
 30
0.0
  0
SPLINE
  5
100
330
1F
100
AcDbEntity
  8
외형선
  6
Continuous
 62
     1
370
    15
100
AcDbSpline
210
0.0
220
0.0
230
1.0
 70
     8
 71
     3
 72
     8
 73
     4
 74
     0
 42
0.000000001
 43
0.00000001
 40
0.0
 40
0.0
 40
0.0
 40
0.0
 40
1.0
 40
1.0
 40
1.0
 40
1.0
 10
22.35149093341665
 20
6.170217164162824
 30
0.0
 10
22.48009566440729
 20
6.265989321200482
 30
0.0
 10
22.62082600738457
 20
6.324108713925869
 30
0.0
 10
22.76364926527494
 20
6.345921662750172
 30
0.0
  0
SPLINE
  5
101
330
1F
100
AcDbEntity
  8
외형선
  6
Continuous
 62
     1
370
    15
100
AcDbSpline
210
0.0
220
0.0
230
1.0
 70
     8
 71
     3
 72
     8
 73
     4
 74
     0
 42
0.000000001
 43
0.00000001
 40
0.0
 40
0.0
 40
0.0
 40
0.0
 40
1.0
 40
1.0
 40
1.0
 40
1.0
 10
22.76364926414253
 20
6.345921662861789
 30
0.0
 10
22.90793949222487
 20
6.331693752700043
 30
0.0
 10
23.04887675780679
 20
6.279975960026669
 30
0.0
 10
23.17495844577897
 20
6.191214468948878
 30
0.0
  0
SPLINE
  5
102
330
1F
100
AcDbEntity
  8
외형선
  6
Continuous
 62
     1
370
    15
100
AcDbSpline
210
0.0
220
0.0
230
1.0
 70
     8
 71
     3
 72
     8
 73
     4
 74
     0
 42
0.000000001
 43
0.00000001
 40
0.0
 40
0.0
 40
0.0
 40
0.0
 40
1.0
 40
1.0
 40
1.0
 40
1.0
 10
23.17495844577662
 20
6.191214468950553
 30
0.0
 10
23.25442671378926
 20
6.135268819145126
 30
0.0
 10
23.35643065827713
 20
6.130955819845157
 30
0.0
 10
23.43908463155529
 20
6.183960134579509
 30
0.0
  0
SPLINE
  5
103
330
1F
100
AcDbEntity
  8
외형선
  6
Continuous
 62
     1
370
    15
100
AcDbSpline
210
0.0
220
0.0
230
1.0
 70
     8
 71
     3
 72
    14
 73
    10
 74
     0
 42
0.000000001
 43
0.00000001
 40
0.0
 40
0.0
 40
0.0
 40
0.0
 40
0.25
 40
0.25
 40
0.5
 40
0.5
 40
0.75
 40
0.75
 40
1.0
 40
1.0
 40
1.0
 40
1.0
 10
23.4390846315553
 20
6.183960134579516
 30
0.0
 10
23.52058322572194
 20
6.236223528150187
 30
0.0
 10
23.60504581221194
 20
6.271814580532394
 30
0.0
 10
23.78065191071983
 20
6.314914837542287
 30
0.0
 10
23.87106112755371
 20
6.321763933823866
 30
0.0
 10
24.05157670317015
 20
6.306563655448103
 30
0.0
 10
24.13943829347076
 20
6.28504384509363
 30
0.0
 10
24.31133222615203
 20
6.214980099690756
 30
0.0
 10
24.39613512628865
 20
6.165609716660718
 30
0.0
 10
24.4748792906061
 20
6.102841346517891
 30
0.0
  0
SPLINE
  5
104
330
1F
100
AcDbEntity
  8
외형선
  6
Continuous
 62
     1
370
    15
100
AcDbSpline
210
0.0
220
0.0
230
1.0
 70
     8
 71
     3
 72
     8
 73
     4
 74
     0
 42
0.000000001
 43
0.00000001
 40
0.0
 40
0.0
 40
0.0
 40
0.0
 40
1.0
 40
1.0
 40
1.0
 40
1.0
 10
24.4748792906061
 20
6.102841346517893
 30
0.0
 10
24.55495383260575
 20
6.039012508726334
 30
0.0
 10
24.65707509037986
 20
6.024423175008359
 30
0.0
 10
24.73935964194716
 20
6.068605704498782
 30
0.0
  0
SPLINE
  5
105
330
1F
100
AcDbEntity
  8
외형선
  6
Continuous
 62
     1
370
    15
100
AcDbSpline
210
0.0
220
0.0
230
1.0
 70
     8
 71
     3
 72
     8
 73
     4
 74
     0
 42
0.000000001
 43
0.00000001
 40
0.0
 40
0.0
 40
0.0
 40
0.0
 40
1.0
 40
1.0
 40
1.0
 40
1.0
 10
24.73935964194717
 20
6.068605704498801
 30
0.0
 10
24.86803173801519
 20
6.137695935542617
 30
0.0
 10
25.00888845507571
 20
6.165027088282156
 30
0.0
 10
25.15209081242963
 20
6.15616214519275
 30
0.0
  0
SPLINE
  5
106
330
1F
100
AcDbEntity
  8
외형선
  6
Continuous
 62
     1
370
    15
100
AcDbSpline
210
0.0
220
0.0
230
1.0
 70
     8
 71
     3
 72
     8
 73
     4
 74
     0
 42
0.000000001
 43
0.00000001
 40
0.0
 40
0.0
 40
0.0
 40
0.0
 40
1.0
 40
1.0
 40
1.0
 40
1.0
 10
25.1520908112965
 20
6.15616214554132
 30
0.0
 10
25.2964938221967
 20
6.11174040304604
 30
0.0
 10
25.43763408116034
 20
6.031758545124672
 30
0.0
 10
25.56375937295739
 20
5.919479433869165
 30
0.0
  0
SPLINE
  5
107
330
1F
100
AcDbEntity
  8
외형선
  6
Continuous
 62
     1
370
    15
100
AcDbSpline
210
0.0
220
0.0
230
1.0
 70
     8
 71
     3
 72
     8
 73
     4
 74
     0
 42
0.000000001
 43
0.00000001
 40
0.0
 40
0.0
 40
0.0
 40
0.0
 40
1.0
 40
1.0
 40
1.0
 40
1.0
 10
25.56375937295742
 20
5.91947943386914
 30
0.0
 10
25.64325916089175
 20
5.848707224686613
 30
0.0
 10
25.74528418612005
 20
5.824129168061291
 30
0.0
 10
25.82791666941949
 20
5.858380112694899
 30
0.0
  0
SPLINE
  5
108
330
1F
100
AcDbEntity
  8
외형선
  6
Continuous
 62
     1
370
    15
100
AcDbSpline
210
0.0
220
0.0
230
1.0
 70
     8
 71
     3
 72
    14
 73
    10
 74
     0
 42
0.000000001
 43
0.00000001
 40
0.0
 40
0.0
 40
0.0
 40
0.0
 40
0.25
 40
0.25
 40
0.5
 40
0.5
 40
0.75
 40
0.75
 40
1.0
 40
1.0
 40
1.0
 40
1.0
 10
25.82791666941948
 20
5.858380112694885
 30
0.0
 10
25.90939326654635
 20
5.892151945583097
 30
0.0
 10
25.99381268474849
 20
5.908577489031626
 30
0.0
 10
26.16927717514817
 20
5.91282816437619
 30
0.0
 10
26.25957945716317
 20
5.900165774567101
 30
0.0
 10
26.43982874264264
 20
5.847776125650876
 30
0.0
 10
26.52752630731231
 20
5.809026293887651
 30
0.0
 10
26.69904322701032
 20
5.707479164256481
 30
0.0
 10
26.78373284488666
 20
5.643780571748946
 30
0.0
 10
26.86240276292685
 20
5.569057418581516
 30
0.0
  0
SPLINE
  5
109
330
1F
100
AcDbEntity
  8
외형선
  6
Continuous
 62
     1
370
    15
100
AcDbSpline
210
0.0
220
0.0
230
1.0
 70
     8
 71
     3
 72
     8
 73
     4
 74
     0
 42
0.000000001
 43
0.00000001
 40
0.0
 40
0.0
 40
0.0
 40
0.0
 40
1.0
 40
1.0
 40
1.0
 40
1.0
 10
26.86240276292684
 20
5.569057418581528
 30
0.0
 10
26.94222543987249
 20
5.4932393388856
 30
0.0
 10
27.04421112517896
 20
5.459155767507514
 30
0.0
 10
27.12636111671518
 20
5.482964950261858
 30
0.0
  0
SPLINE
  5
10A
330
1F
100
AcDbEntity
  8
외형선
  6
Continuous
 62
     1
370
    15
100
AcDbSpline
210
0.0
220
0.0
230
1.0
 70
     8
 71
     3
 72
     8
 73
     4
 74
     0
 42
0.000000001
 43
0.00000001
 40
0.0
 40
0.0
 40
0.0
 40
0.0
 40
1.0
 40
1.0
 40
1.0
 40
1.0
 10
27.12636111671521
 20
5.482964950261855
 30
0.0
 10
27.2548503256028
 20
5.520204431351985
 30
0.0
 10
27.39554813601983
 20
5.51477642086578
 30
0.0
 10
27.53851469134665
 20
5.476152089326626
 30
0.0
  0
SPLINE
  5
10B
330
1F
100
AcDbEntity
  8
외형선
  6
Continuous
 62
     1
370
    15
100
AcDbSpline
210
0.0
220
0.0
230
1.0
 70
     8
 71
     3
 72
     8
 73
     4
 74
     0
 42
0.000000001
 43
0.00000001
 40
0.0
 40
0.0
 40
0.0
 40
0.0
 40
1.0
 40
1.0
 40
1.0
 40
1.0
 10
27.53851469021201
 20
5.476152089883898
 30
0.0
 10
27.68286619476438
 20
5.405236630963165
 30
0.0
 10
27.82384816327904
 20
5.30345825723584
 30
0.0
 10
27.94978768036018
 20
5.176708127726188
 30
0.0
  0
SPLINE
  5
10C
330
1F
100
AcDbEntity
  8
외형선
  6
Continuous
 62
     1
370
    15
100
AcDbSpline
210
0.0
220
0.0
230
1.0
 70
     8
 71
     3
 72
     8
 73
     4
 74
     0
 42
0.000000001
 43
0.00000001
 40
0.0
 40
0.0
 40
0.0
 40
0.0
 40
1.0
 40
1.0
 40
1.0
 40
1.0
 10
27.94978768036028
 20
5.176708127726012
 30
0.0
 10
28.02926268975784
 20
5.096721575709672
 30
0.0
 10
28.13123333696218
 20
5.053835118729721
 30
0.0
 10
28.21380747339394
 20
5.06653717236293
 30
0.0
  0
SPLINE
  5
10D
330
1F
100
AcDbEntity
  8
외형선
  6
Continuous
 62
     1
370
    15
100
AcDbSpline
210
0.0
220
0.0
230
1.0
 70
     8
 71
     3
 72
    14
 73
    10
 74
     0
 42
0.000000001
 43
0.00000001
 40
0.0
 40
0.0
 40
0.0
 40
0.0
 40
0.25
 40
0.25
 40
0.5
 40
0.5
 40
0.75
 40
0.75
 40
1.0
 40
1.0
 40
1.0
 40
1.0
 10
28.21380747339443
 20
5.066537172361874
 30
0.0
 10
28.29526557710474
 20
5.079067551084523
 30
0.0
 10
28.3796360107278
 20
5.074904796288454
 30
0.0
 10
28.55492064274883
 20
5.039693992572548
 30
0.0
 10
28.64513138630157
 20
5.008425450215929
 30
0.0
 10
28.82545860981964
 20
4.923015537540166
 30
0.0
 10
28.91328232597525
 20
4.870193575741191
 30
0.0
 10
29.08518909507823
 20
4.745469110085724
 30
0.0
 10
29.17005283261813
 20
4.672612687207947
 30
0.0
 10
29.24886526404768
 20
4.592009068827999
 30
0.0
  0
SPLINE
  5
10E
330
1F
100
AcDbEntity
  8
외형선
  6
Continuous
 62
     1
370
    15
100
AcDbSpline
210
0.0
220
0.0
230
1.0
 70
     8
 71
     3
 72
     8
 73
     4
 74
     0
 42
0.000000001
 43
0.00000001
 40
0.0
 40
0.0
 40
0.0
 40
0.0
 40
1.0
 40
1.0
 40
1.0
 40
1.0
 10
29.24886526404766
 20
4.592009068828009
 30
0.0
 10
29.32885182986487
 20
4.51020463125758
 30
0.0
 10
29.43098649109258
 20
4.459426291294949
 30
0.0
 10
29.51326063022992
 20
4.460889455745524
 30
0.0
  0
SPLINE
  5
10F
330
1F
100
AcDbEntity
  8
외형선
  6
Continuous
 62
     1
370
    15
100
AcDbSpline
210
0.0
220
0.0
230
1.0
 70
     8
 71
     3
 72
     8
 73
     4
 74
     0
 42
0.000000001
 43
0.00000001
 40
0.0
 40
0.0
 40
0.0
 40
0.0
 40
1.0
 40
1.0
 40
1.0
 40
1.0
 10
29.51326063022992
 20
4.460889455745523
 30
0.0
 10
29.64208136871022
 20
4.463180405575173
 30
0.0
 10
29.78307309772764
 20
4.425122026453468
 30
0.0
 10
29.92622560520065
 20
4.35948512671076
 30
0.0
  0
SPLINE
  5
110
330
1F
100
AcDbEntity
  8
외형선
  6
Continuous
 62
     1
370
    15
100
AcDbSpline
210
0.0
220
0.0
230
1.0
 70
     8
 71
     3
 72
     8
 73
     4
 74
     0
 42
0.000000001
 43
0.00000001
 40
0.0
 40
0.0
 40
0.0
 40
0.0
 40
1.0
 40
1.0
 40
1.0
 40
1.0
 10
29.92622560406665
 20
4.359485127432806
 30
0.0
 10
30.07084244362119
 20
4.267403542143712
 30
0.0
 10
30.21202199070244
 20
4.151578937926867
 30
0.0
 10
30.33814139229204
 20
4.019936474965737
 30
0.0
  0
SPLINE
  5
111
330
1F
100
AcDbEntity
  8
외형선
  6
Continuous
 62
     1
370
    15
100
AcDbSpline
210
0.0
220
0.0
230
1.0
 70
     8
 71
     3
 72
     8
 73
     4
 74
     0
 42
0.000000001
 43
0.00000001
 40
0.0
 40
0.0
 40
0.0
 40
0.0
 40
1.0
 40
1.0
 40
1.0
 40
1.0
 10
30.33814139229205
 20
4.019936474965705
 30
0.0
 10
30.41768903488875
 20
3.936905256436312
 30
0.0
 10
30.51966972733225
 20
3.878778078839466
 30
0.0
 10
30.60238986010421
 20
3.868848124926526
 30
0.0
  0
SPLINE
  5
112
330
1F
100
AcDbEntity
  8
외형선
  6
Continuous
 62
     1
370
    15
100
AcDbSpline
210
0.0
220
0.0
230
1.0
 70
     8
 71
     3
 72
    14
 73
    10
 74
     0
 42
0.000000001
 43
0.00000001
 40
0.0
 40
0.0
 40
0.0
 40
0.0
 40
0.25
 40
0.25
 40
0.5
 40
0.5
 40
0.75
 40
0.75
 40
1.0
 40
1.0
 40
1.0
 40
1.0
 10
30.6023898601042
 20
3.86884812492652
 30
0.0
 10
30.68376839538252
 20
3.859079220093593
 30
0.0
 10
30.76810449405266
 20
3.834798255789843
 30
0.0
 10
30.94346629215364
 20
3.763478023139959
 30
0.0
 10
31.0337760146348
 20
3.716390335402154
 30
0.0
 10
31.21417830906799
 20
3.605081751872234
 30
0.0
 10
31.30199977748239
 20
3.542477163735859
 30
0.0
 10
31.47383213192225
 20
3.404604549033499
 30
0.0
 10
31.55862858773495
 20
3.328429058409546
 30
0.0
 10
31.63734784821959
 20
3.248386982359581
 30
0.0
  0
SPLINE
  5
113
330
1F
100
AcDbEntity
  8
외형선
  6
Continuous
 62
     1
370
    15
100
AcDbSpline
210
0.0
220
0.0
230
1.0
 70
     8
 71
     3
 72
     8
 73
     4
 74
     0
 42
0.000000001
 43
0.00000001
 40
0.0
 40
0.0
 40
0.0
 40
0.0
 40
1.0
 40
1.0
 40
1.0
 40
1.0
 10
31.63734784821958
 20
3.248386982359577
 30
0.0
 10
31.71722913180941
 20
3.167163356315557
 30
0.0
 10
31.81923810877897
 20
3.103674838844542
 30
0.0
 10
31.90135805867214
 20
3.082657759126518
 30
0.0
  0
SPLINE
  5
114
330
1F
100
AcDbEntity
  8
외형선
  6
Continuous
 62
     1
370
    15
100
AcDbSpline
210
0.0
220
0.0
230
1.0
 70
     8
 71
     3
 72
     8
 73
     4
 74
     0
 42
0.000000001
 43
0.00000001
 40
0.0
 40
0.0
 40
0.0
 40
0.0
 40
1.0
 40
1.0
 40
1.0
 40
1.0
 10
31.90135805867214
 20
3.082657759126522
 30
0.0
 10
32.02996230295579
 20
3.049743885485566
 30
0.0
 10
32.17064825274819
 20
2.982079704319569
 30
0.0
 10
32.31345715622528
 20
2.894611730994229
 30
0.0
  0
SPLINE
  5
115
330
1F
100
AcDbEntity
  8
외형선
  6
Continuous
 62
     1
370
    15
100
AcDbSpline
210
0.0
220
0.0
230
1.0
 70
     8
 71
     3
 72
     8
 73
     4
 74
     0
 42
0.000000001
 43
0.00000001
 40
0.0
 40
0.0
 40
0.0
 40
0.0
 40
1.0
 40
1.0
 40
1.0
 40
1.0
 10
32.31345715509392
 20
2.894611731824992
 30
0.0
 10
32.45762414743504
 20
2.788750868543133
 30
0.0
 10
32.59860404433685
 20
2.668510788488682
 30
0.0
 10
32.72462213325259
 20
2.543145580246834
 30
0.0
  0
SPLINE
  5
116
330
1F
100
AcDbEntity
  8
외형선
  6
Continuous
 62
     1
370
    15
100
AcDbSpline
210
0.0
220
0.0
230
1.0
 70
     8
 71
     3
 72
     8
 73
     4
 74
     0
 42
0.000000001
 43
0.00000001
 40
0.0
 40
0.0
 40
0.0
 40
0.0
 40
1.0
 40
1.0
 40
1.0
 40
1.0
 10
32.72462213325262
 20
2.543145580246826
 30
0.0
 10
32.80404039768928
 20
2.464138769835948
 30
0.0
 10
32.90600209802042
 20
2.396052610546334
 30
0.0
 10
32.98859460953639
 20
2.364626156849159
 30
0.0
  0
SPLINE
  5
117
330
1F
100
AcDbEntity
  8
외형선
  6
Continuous
 62
     1
370
    15
100
AcDbSpline
210
0.0
220
0.0
230
1.0
 70
     8
 71
     3
 72
    14
 73
    10
 74
     0
 42
0.000000001
 43
0.00000001
 40
0.0
 40
0.0
 40
0.0
 40
0.0
 40
0.25
 40
0.25
 40
0.5
 40
0.5
 40
0.75
 40
0.75
 40
1.0
 40
1.0
 40
1.0
 40
1.0
 10
32.9885946095364
 20
2.364626156849166
 30
0.0
 10
33.07002052572375
 20
2.333643592717829
 30
0.0
 10
33.15440889722411
 20
2.291278391182619
 30
0.0
 10
33.32986237439751
 20
2.189408229948163
 30
0.0
 10
33.42018815737917
 20
2.1300989446171
 30
0.0
 10
33.60053187818423
 20
2.001515011132324
 30
0.0
 10
33.68829719584424
 20
1.933981047920422
 30
0.0
 10
33.85998001292833
 20
1.793654574914828
 30
0.0
 10
33.9446728443009
 20
1.720084088824985
 30
0.0
 10
34.02330100128163
 20
1.64683069915417
 30
0.0
  0
SPLINE
  5
118
330
1F
100
AcDbEntity
  8
외형선
  6
Continuous
 62
     1
370
    15
100
AcDbSpline
210
0.0
220
0.0
230
1.0
 70
     8
 71
     3
 72
     8
 73
     4
 74
     0
 42
0.000000001
 43
0.00000001
 40
0.0
 40
0.0
 40
0.0
 40
0.0
 40
1.0
 40
1.0
 40
1.0
 40
1.0
 10
34.02330100128164
 20
1.646830699154161
 30
0.0
 10
34.10325439147471
 20
1.572342664940787
 30
0.0
 10
34.20523832541014
 20
1.500825290687068
 30
0.0
 10
34.28746187261866
 20
1.458790151763613
 30
0.0
  0
SPLINE
  5
119
330
1F
100
AcDbEntity
  8
외형선
  6
Continuous
 62
     1
370
    15
100
AcDbSpline
210
0.0
220
0.0
230
1.0
 70
     8
 71
     3
 72
     8
 73
     4
 74
     0
 42
0.000000001
 43
0.00000001
 40
0.0
 40
0.0
 40
0.0
 40
0.0
 40
1.0
 40
1.0
 40
1.0
 40
1.0
 10
34.28746187261866
 20
1.458790151763627
 30
0.0
 10
34.41608923641738
 20
1.393031992572014
 30
0.0
 10
34.55692970917224
 20
1.30129926866008
 30
0.0
 10
34.70009391978051
 20
1.199393539664579
 30
0.0
  0
SPLINE
  5
11A
330
1F
100
AcDbEntity
  8
외형선
  6
Continuous
 62
     1
370
    15
100
AcDbSpline
210
0.0
220
0.0
230
1.0
 70
     8
 71
     3
 72
     8
 73
     4
 74
     0
 42
0.000000001
 43
0.00000001
 40
0.0
 40
0.0
 40
0.0
 40
0.0
 40
1.0
 40
1.0
 40
1.0
 40
1.0
 10
34.70009391864304
 20
1.199393540537027
 30
0.0
 10
34.8446235757219
 20
1.088537548286634
 30
0.0
 10
34.98586439557985
 20
0.9734571917395611
 30
0.0
 10
35.11212018509789
 20
0.8640921389766176
 30
0.0
  0
SPLINE
  5
11B
330
1F
100
AcDbEntity
  8
외형선
  6
Continuous
 62
     1
370
    15
100
AcDbSpline
210
0.0
220
0.0
230
1.0
 70
     8
 71
     3
 72
     8
 73
     4
 74
     0
 42
0.000000001
 43
0.00000001
 40
0.0
 40
0.0
 40
0.0
 40
0.0
 40
1.0
 40
1.0
 40
1.0
 40
1.0
 10
35.11212018509791
 20
0.8640921389765901
 30
0.0
 10
35.19174835398933
 20
0.7951167761400019
 30
0.0
 10
35.29387831986122
 20
0.7221239210246575
 30
0.0
 10
35.37662750882946
 20
0.671375757737716
 30
0.0
  0
SPLINE
  5
11C
330
1F
100
AcDbEntity
  8
외형선
  6
Continuous
 62
     1
370
    15
100
AcDbSpline
210
0.0
220
0.0
230
1.0
 70
     8
 71
     3
 72
    14
 73
    10
 74
     0
 42
0.000000001
 43
0.00000001
 40
0.0
 40
0.0
 40
0.0
 40
0.0
 40
0.25
 40
0.25
 40
0.5
 40
0.5
 40
0.75
 40
0.75
 40
1.0
 40
1.0
 40
1.0
 40
1.0
 10
35.37662750882948
 20
0.6713757577376022
 30
0.0
 10
35.45819176464593
 20
0.6213542865405742
 30
0.0
 10
35.54268657702985
 20
0.5640224899949309
 30
0.0
 10
35.71827387853246
 20
0.4392532024144584
 30
0.0
 10
35.80863039224214
 20
0.3722297641344467
 30
0.0
 10
35.9889817566727
 20
0.2361437574308833
 30
0.0
 10
36.07669493868558
 20
0.1687721989870061
 30
0.0
 10
36.24844659722793
 20
0.036854275589541
 30
0.0
 10
36.33326140807842
 20
-0.0282839904784658
 30
0.0
 10
36.41203448842433
 20
-0.0888250581901591
 30
0.0
  0
SPLINE
  5
11D
330
1F
100
AcDbEntity
  8
외형선
  6
Continuous
 62
     1
370
    15
100
AcDbSpline
210
0.0
220
0.0
230
1.0
 70
     8
 71
     3
 72
     8
 73
     4
 74
     0
 42
0.000000001
 43
0.00000001
 40
0.0
 40
0.0
 40
0.0
 40
0.0
 40
1.0
 40
1.0
 40
1.0
 40
1.0
 10
36.41203448842435
 20
-0.0888250581901695
 30
0.0
 10
36.49190686022926
 20
-0.1502109865872932
 30
0.0
 10
36.59393736554754
 20
-0.2233890962911483
 30
0.0
 10
36.67612464018581
 20
-0.2826210055578353
 30
0.0
  0
SPLINE
  5
11E
330
1F
100
AcDbEntity
  8
외형선
  6
Continuous
 62
     1
370
    15
100
AcDbSpline
210
0.0
220
0.0
230
1.0
 70
     8
 71
     3
 72
     8
 73
     4
 74
     0
 42
0.000000001
 43
0.00000001
 40
0.0
 40
0.0
 40
0.0
 40
0.0
 40
1.0
 40
1.0
 40
1.0
 40
1.0
 10
36.67612464018581
 20
-0.2826210055578426
 30
0.0
 10
36.80466137751568
 20
-0.3752567134149105
 30
0.0
 10
36.94539480024954
 20
-0.4833847145119672
 30
0.0
 10
37.08838122366796
 20
-0.5915585705560671
 30
0.0
  0
SPLINE
  5
11F
330
1F
100
AcDbEntity
  8
외형선
  6
Continuous
 62
     1
370
    15
100
AcDbSpline
210
0.0
220
0.0
230
1.0
 70
     8
 71
     3
 72
     8
 73
     4
 74
     0
 42
0.000000001
 43
0.00000001
 40
0.0
 40
0.0
 40
0.0
 40
0.0
 40
1.0
 40
1.0
 40
1.0
 40
1.0
 10
37.08838122253614
 20
-0.5915585697174804
 30
0.0
 10
37.23274001107496
 20
-0.6985164557975583
 30
0.0
 10
37.37371512543149
 20
-0.7992081287212723
 30
0.0
 10
37.49963574909133
 20
-0.8837837838914144
 30
0.0
  0
SPLINE
  5
120
330
1F
100
AcDbEntity
  8
외형선
  6
Continuous
 62
     1
370
    15
100
AcDbSpline
210
0.0
220
0.0
230
1.0
 70
     8
 71
     3
 72
     8
 73
     4
 74
     0
 42
0.000000001
 43
0.00000001
 40
0.0
 40
0.0
 40
0.0
 40
0.0
 40
1.0
 40
1.0
 40
1.0
 40
1.0
 10
37.49963574909137
 20
-0.8837837838914318
 30
0.0
 10
37.57909168431378
 20
-0.9371510368741086
 30
0.0
 10
37.68103311076825
 20
-1.00923991616131
 30
0.0
 10
37.76357781383533
 20
-1.0752193562763
 30
0.0
  0
SPLINE
  5
121
330
1F
100
AcDbEntity
  8
외형선
  6
Continuous
 62
     1
370
    15
100
AcDbSpline
210
0.0
220
0.0
230
1.0
 70
     8
 71
     3
 72
     8
 73
     4
 74
     0
 42
0.000000001
 43
0.00000001
 40
0.0
 40
0.0
 40
0.0
 40
0.0
 40
1.0
 40
1.0
 40
1.0
 40
1.0
 10
38.79793054835962
 20
-1.814143359095531
 30
0.0
 10
38.87781898569959
 20
-1.85759493654033
 30
0.0
 10
38.97986439869627
 20
-1.926822381262223
 30
0.0
 10
39.06202968278271
 20
-1.998716349387661
 30
0.0
  0
SPLINE
  5
122
330
1F
100
AcDbEntity
  8
외형선
  6
Continuous
 62
     1
370
    15
100
AcDbSpline
210
0.0
220
0.0
230
1.0
 70
     8
 71
     3
 72
     8
 73
     4
 74
     0
 42
0.000000001
 43
0.00000001
 40
0.0
 40
0.0
 40
0.0
 40
0.0
 40
1.0
 40
1.0
 40
1.0
 40
1.0
 10
39.88611400314594
 20
-2.561640113335618
 30
0.0
 10
39.96565545621974
 20
-2.595465127525508
 30
0.0
 10
40.06770696147127
 20
-2.661030943984152
 30
0.0
 10
40.15046593021697
 20
-2.737035809928813
 30
0.0
  0
SPLINE
  5
123
330
1F
100
AcDbEntity
  8
외형선
  6
Continuous
 62
     1
370
    15
100
AcDbSpline
210
0.0
220
0.0
230
1.0
 70
     8
 71
     3
 72
     8
 73
     4
 74
     0
 42
0.000000001
 43
0.00000001
 40
0.0
 40
0.0
 40
0.0
 40
0.0
 40
1.0
 40
1.0
 40
1.0
 40
1.0
 10
41.18660911766408
 20
-3.396524223569723
 30
0.0
 10
41.26206199949061
 20
-3.417527751000648
 30
0.0
 10
41.35729305197958
 20
-3.472450287852719
 30
0.0
 10
41.43675178718224
 20
-3.544665942553676
 30
0.0
  0
SPLINE
  5
124
330
1F
100
AcDbEntity
  8
외형선
  6
Continuous
 62
     1
370
    15
100
AcDbSpline
210
0.0
220
0.0
230
1.0
 70
     8
 71
     3
 72
     9
 73
     5
 74
     0
 42
0.000000001
 43
0.00000001
 40
0.0
 40
0.0
 40
0.0
 40
0.0
 40
0.3490335165588937
 40
1.0
 40
1.0
 40
1.0
 40
1.0
 10
40.11024631607079
 20
-2.702370345550913
 30
0.0
 10
40.05325285725326
 20
-2.717740837468922
 30
0.0
 10
39.88996349931583
 20
-2.761778132424276
 30
0.0
 10
39.70985947635589
 20
-2.840306289317363
 30
0.0
 10
39.59261779387607
 20
-2.891425487461166
 30
0.0
  0
LINE
  5
125
330
1F
100
AcDbEntity
  8
외형선
  6
Continuous
 62
     1
370
    15
100
AcDbLine
 10
41.74999999999998
 20
-3.441831518963338
 30
0.0
 11
41.67487638540559
 21
-3.427507402512633
 31
0.0
  0
SPLINE
  5
126
330
1F
100
AcDbEntity
  8
외형선
  6
Continuous
 62
     1
370
    15
100
AcDbSpline
210
0.0
220
0.0
230
1.0
 70
     8
 71
     3
 72
     9
 73
     5
 74
     0
 42
0.000000001
 43
0.00000001
 40
0.0
 40
0.0
 40
0.0
 40
0.0
 40
0.1783321740339129
 40
1.0
 40
1.0
 40
1.0
 40
1.0
 10
40.90327194253582
 20
-3.280382534344057
 30
0.0
 10
40.82384427952613
 20
-3.2661347245961
 30
0.0
 10
40.37845261960841
 20
-3.186239944951636
 30
0.0
 10
39.94707055613282
 20
-3.024402285369475
 30
0.0
 10
39.59261779387608
 20
-2.891425487461164
 30
0.0
  0
LINE
  5
127
330
1F
100
AcDbEntity
  8
외형선
  6
Continuous
 62
     1
370
    15
100
AcDbLine
 10
41.74999999999998
 20
-5.666835510620686
 30
0.0
 11
41.74999999999998
 21
-3.441831518963337
 31
0.0
  0
SPLINE
  5
128
330
1F
100
AcDbEntity
  8
외형선
  6
Continuous
 62
     1
370
    15
100
AcDbSpline
210
0.0
220
0.0
230
1.0
 70
     8
 71
     3
 72
     8
 73
     4
 74
     0
 42
0.000000001
 43
0.00000001
 40
0.0001188410273847
 40
0.0001188410273847
 40
0.0001188410273847
 40
0.0001188410273847
 40
0.000314883019918
 40
0.000314883019918
 40
0.000314883019918
 40
0.000314883019918
 10
41.62507054944434
 20
-5.814758784669137
 30
0.0
 10
41.6664838433825
 20
-5.765484603265625
 30
0.0
 10
41.70813076693972
 20
-5.716158865721561
 30
0.0
 10
41.74999999999998
 20
-5.66683551062069
 30
0.0
  0
SPLINE
  5
129
330
1F
100
AcDbEntity
  8
외형선
  6
Continuous
 62
     1
370
    15
100
AcDbSpline
210
0.0
220
0.0
230
1.0
 70
     8
 71
     3
 72
     8
 73
     4
 74
     0
 42
0.000000001
 43
0.00000001
 40
0.0
 40
0.0
 40
0.0
 40
0.0
 40
1.0
 40
1.0
 40
1.0
 40
1.0
 10
41.62507054944432
 20
-5.814758784669142
 30
0.0
 10
41.53911681492851
 20
-5.874262758874318
 30
0.0
 10
41.44992202111482
 20
-5.921525503508192
 30
0.0
 10
41.35975785824147
 20
-5.955615323805961
 30
0.0
  0
SPLINE
  5
12A
330
1F
100
AcDbEntity
  8
외형선
  6
Continuous
 62
     1
370
    15
100
AcDbSpline
210
0.0
220
0.0
230
1.0
 70
     8
 71
     3
 72
     8
 73
     4
 74
     0
 42
0.000000001
 43
0.00000001
 40
0.0
 40
0.0
 40
0.0
 40
0.0
 40
1.0
 40
1.0
 40
1.0
 40
1.0
 10
41.35975785957932
 20
-5.955615323612206
 30
0.0
 10
41.21542748719139
 20
-5.976507152066188
 30
0.0
 10
41.07436517258979
 20
-5.961275278587004
 30
0.0
 10
40.94829579093302
 20
-5.907331772925159
 30
0.0
  0
SPLINE
  5
12B
330
1F
100
AcDbEntity
  8
외형선
  6
Continuous
 62
     1
370
    15
100
AcDbSpline
210
0.0
220
0.0
230
1.0
 70
     8
 71
     3
 72
     8
 73
     4
 74
     0
 42
0.000000001
 43
0.00000001
 40
0.0
 40
0.0
 40
0.0
 40
0.0
 40
1.0
 40
1.0
 40
1.0
 40
1.0
 10
40.94829579093303
 20
-5.907331772925159
 30
0.0
 10
40.86878270361144
 20
-5.873309121114267
 30
0.0
 10
40.76674016452919
 20
-5.892150369802679
 30
0.0
 10
40.68408278558969
 20
-5.961120743192427
 30
0.0
  0
SPLINE
  5
12C
330
1F
100
AcDbEntity
  8
외형선
  6
Continuous
 62
     1
370
    15
100
AcDbSpline
210
0.0
220
0.0
230
1.0
 70
     8
 71
     3
 72
    14
 73
    10
 74
     0
 42
0.000000001
 43
0.00000001
 40
0.0
 40
0.0
 40
0.0
 40
0.0
 40
0.25
 40
0.25
 40
0.5
 40
0.5
 40
0.75
 40
0.75
 40
1.0
 40
1.0
 40
1.0
 40
1.0
 10
40.6840827855897
 20
-5.961120743192427
 30
0.0
 10
40.60249079126762
 20
-6.029202146041245
 30
0.0
 10
40.51794927626923
 20
-6.082917607932505
 30
0.0
 10
40.34223158142686
 20
-6.165473100298031
 30
0.0
 10
40.25179938731868
 20
-6.193518093113407
 30
0.0
 10
40.07130846300235
 20
-6.221390989183176
 30
0.0
 10
39.9834793466554
 20
-6.221201157672159
 30
0.0
 10
39.81167580875925
 20
-6.193056750413716
 30
0.0
 10
39.72688027531018
 20
-6.164441262819567
 30
0.0
 10
39.64808044386795
 20
-6.120917051274316
 30
0.0
  0
SPLINE
  5
12D
330
1F
100
AcDbEntity
  8
외형선
  6
Continuous
 62
     1
370
    15
100
AcDbSpline
210
0.0
220
0.0
230
1.0
 70
     8
 71
     3
 72
     8
 73
     4
 74
     0
 42
0.000000001
 43
0.00000001
 40
0.0
 40
0.0
 40
0.0
 40
0.0
 40
1.0
 40
1.0
 40
1.0
 40
1.0
 10
39.64808044386795
 20
-6.120917051274321
 30
0.0
 10
39.56809922514811
 20
-6.076740313589779
 30
0.0
 10
39.46598114768044
 20
-6.085358220196526
 30
0.0
 10
39.38367622315071
 20
-6.148353114438405
 30
0.0
  0
SPLINE
  5
12E
330
1F
100
AcDbEntity
  8
외형선
  6
Continuous
 62
     1
370
    15
100
AcDbSpline
210
0.0
220
0.0
230
1.0
 70
     8
 71
     3
 72
     8
 73
     4
 74
     0
 42
0.000000001
 43
0.00000001
 40
0.0
 40
0.0
 40
0.0
 40
0.0
 40
1.0
 40
1.0
 40
1.0
 40
1.0
 10
39.3836762231504
 20
-6.148353114438755
 30
0.0
 10
39.25500755465012
 20
-6.246834088824811
 30
0.0
 10
39.11415143205103
 20
-6.308512353081059
 30
0.0
 10
38.97102428467156
 20
-6.334047420692621
 30
0.0
  0
SPLINE
  5
12F
330
1F
100
AcDbEntity
  8
외형선
  6
Continuous
 62
     1
370
    15
100
AcDbSpline
210
0.0
220
0.0
230
1.0
 70
     8
 71
     3
 72
     8
 73
     4
 74
     0
 42
0.000000001
 43
0.00000001
 40
0.0
 40
0.0
 40
0.0
 40
0.0
 40
1.0
 40
1.0
 40
1.0
 40
1.0
 10
38.97102428600868
 20
-6.334047420788815
 30
0.0
 10
38.82658361209059
 20
-6.323658287646968
 30
0.0
 10
38.68549775614886
 20
-6.27573720972084
 30
0.0
 10
38.55946253702205
 20
-6.190487601187788
 30
0.0
  0
SPLINE
  5
130
330
1F
100
AcDbEntity
  8
외형선
  6
Continuous
 62
     1
370
    15
100
AcDbSpline
210
0.0
220
0.0
230
1.0
 70
     8
 71
     3
 72
     8
 73
     4
 74
     0
 42
0.000000001
 43
0.00000001
 40
0.0
 40
0.0
 40
0.0
 40
0.0
 40
1.0
 40
1.0
 40
1.0
 40
1.0
 10
38.55946253702205
 20
-6.190487601187784
 30
0.0
 10
38.47996534131941
 20
-6.136716085098251
 30
0.0
 10
38.37797593359595
 20
-6.135016736436591
 30
0.0
 10
38.29538371765347
 20
-6.190070139166
 30
0.0
  0
SPLINE
  5
131
330
1F
100
AcDbEntity
  8
외형선
  6
Continuous
 62
     1
370
    15
100
AcDbSpline
210
0.0
220
0.0
230
1.0
 70
     8
 71
     3
 72
    14
 73
    10
 74
     0
 42
0.000000001
 43
0.00000001
 40
0.0
 40
0.0
 40
0.0
 40
0.0
 40
0.25
 40
0.25
 40
0.5
 40
0.5
 40
0.75
 40
0.75
 40
1.0
 40
1.0
 40
1.0
 40
1.0
 10
38.29538371765346
 20
-6.190070139166004
 30
0.0
 10
38.21396836371879
 20
-6.24433908227857
 30
0.0
 10
38.12964288567962
 20
-6.282111709220868
 30
0.0
 10
37.95444843126199
 20
-6.329822582642307
 30
0.0
 10
37.86431275843416
 20
-6.339098123606695
 30
0.0
 10
37.68410488414617
 20
-6.328726554464782
 30
0.0
 10
37.59634305525816
 20
-6.309533207235316
 30
0.0
 10
37.4245676739483
 20
-6.243835436338967
 30
0.0
 10
37.33976705864502
 20
-6.196511483345982
 30
0.0
 10
37.26102858656224
 20
-6.135503402377121
 30
0.0
  0
SPLINE
  5
132
330
1F
100
AcDbEntity
  8
외형선
  6
Continuous
 62
     1
370
    15
100
AcDbSpline
210
0.0
220
0.0
230
1.0
 70
     8
 71
     3
 72
     8
 73
     4
 74
     0
 42
0.000000001
 43
0.00000001
 40
0.0
 40
0.0
 40
0.0
 40
0.0
 40
1.0
 40
1.0
 40
1.0
 40
1.0
 10
37.26102858656225
 20
-6.135503402377121
 30
0.0
 10
37.18118411914588
 20
-6.073638374974339
 30
0.0
 10
37.07917440428137
 20
-6.061641755376151
 30
0.0
 10
36.99704545048389
 20
-6.10822780199649
 30
0.0
  0
SPLINE
  5
133
330
1F
100
AcDbEntity
  8
외형선
  6
Continuous
 62
     1
370
    15
100
AcDbSpline
210
0.0
220
0.0
230
1.0
 70
     8
 71
     3
 72
     8
 73
     4
 74
     0
 42
0.000000001
 43
0.00000001
 40
0.0
 40
0.0
 40
0.0
 40
0.0
 40
1.0
 40
1.0
 40
1.0
 40
1.0
 10
36.99704545048385
 20
-6.108227801996512
 30
0.0
 10
36.86850141457359
 20
-6.181141898338796
 30
0.0
 10
36.72777852731715
 20
-6.212573497503977
 30
0.0
 10
36.58487290929337
 20
-6.207614030080618
 30
0.0
  0
SPLINE
  5
134
330
1F
100
AcDbEntity
  8
외형선
  6
Continuous
 62
     1
370
    15
100
AcDbSpline
210
0.0
220
0.0
230
1.0
 70
     8
 71
     3
 72
     8
 73
     4
 74
     0
 42
0.000000001
 43
0.00000001
 40
0.0
 40
0.0
 40
0.0
 40
0.0
 40
1.0
 40
1.0
 40
1.0
 40
1.0
 10
36.58487291062895
 20
-6.207614030457944
 30
0.0
 10
36.44046620612551
 20
-6.166822070812993
 30
0.0
 10
36.29950884442439
 20
-6.08998448256176
 30
0.0
 10
36.17360213904161
 20
-5.980199863105971
 30
0.0
  0
SPLINE
  5
135
330
1F
100
AcDbEntity
  8
외형선
  6
Continuous
 62
     1
370
    15
100
AcDbSpline
210
0.0
220
0.0
230
1.0
 70
     8
 71
     3
 72
     8
 73
     4
 74
     0
 42
0.000000001
 43
0.00000001
 40
0.0
 40
0.0
 40
0.0
 40
0.0
 40
1.0
 40
1.0
 40
1.0
 40
1.0
 10
36.17360213904161
 20
-5.980199863105975
 30
0.0
 10
36.0941264035636
 20
-5.910900826578128
 30
0.0
 10
35.99222116944828
 20
-5.888675124737885
 30
0.0
 10
35.90957906303718
 20
-5.925391133239936
 30
0.0
  0
SPLINE
  5
136
330
1F
100
AcDbEntity
  8
외형선
  6
Continuous
 62
     1
370
    15
100
AcDbSpline
210
0.0
220
0.0
230
1.0
 70
     8
 71
     3
 72
    14
 73
    10
 74
     0
 42
0.000000001
 43
0.00000001
 40
0.0
 40
0.0
 40
0.0
 40
0.0
 40
0.2500000000000002
 40
0.2500000000000002
 40
0.5000000000000001
 40
0.5000000000000001
 40
0.7500000000000001
 40
0.7500000000000001
 40
1.0
 40
1.0
 40
1.0
 40
1.0
 10
35.90957906303718
 20
-5.925391133239927
 30
0.0
 10
35.82817978726378
 20
-5.961554980353056
 30
0.0
 10
35.74381344530838
 20
-5.980423143465681
 30
0.0
 10
35.56837449708702
 20
-5.989575988052708
 30
0.0
 10
35.47802469869178
 20
-5.979350882929019
 30
0.0
 10
35.29755613174783
 20
-5.931528380369945
 30
0.0
 10
35.20969481365277
 20
-5.894855565611221
 30
0.0
 10
35.03776647795605
 20
-5.796992053399283
 30
0.0
 10
34.95292132130454
 20
-5.734881035851297
 30
0.0
 10
34.8741358505242
 20
-5.661395211526453
 30
0.0
  0
SPLINE
  5
137
330
1F
100
AcDbEntity
  8
외형선
  6
Continuous
 62
     1
370
    15
100
AcDbSpline
210
0.0
220
0.0
230
1.0
 70
     8
 71
     3
 72
     8
 73
     4
 74
     0
 42
0.000000001
 43
0.00000001
 40
0.0
 40
0.0
 40
0.0
 40
0.0
 40
1.0
 40
1.0
 40
1.0
 40
1.0
 10
34.8741358505242
 20
-5.661395211526457
 30
0.0
 10
34.7940952463807
 20
-5.586738682642545
 30
0.0
 10
34.69194147037984
 20
-5.555022283268929
 30
0.0
 10
34.60965147796268
 20
-5.581453612498732
 30
0.0
  0
SPLINE
  5
138
330
1F
100
AcDbEntity
  8
외형선
  6
Continuous
 62
     1
370
    15
100
AcDbSpline
210
0.0
220
0.0
230
1.0
 70
     8
 71
     3
 72
     8
 73
     4
 74
     0
 42
0.000000001
 43
0.00000001
 40
0.0
 40
0.0
 40
0.0
 40
0.0
 40
1.0
 40
1.0
 40
1.0
 40
1.0
 10
34.60965147796263
 20
-5.581453612498754
 30
0.0
 10
34.48077199664797
 20
-5.622849363081937
 30
0.0
 10
34.33980293776457
 20
-5.62124983061556
 30
0.0
 10
34.19676354976454
 20
-5.585858646039537
 30
0.0
  0
SPLINE
  5
139
330
1F
100
AcDbEntity
  8
외형선
  6
Continuous
 62
     1
370
    15
100
AcDbSpline
210
0.0
220
0.0
230
1.0
 70
     8
 71
     3
 72
     8
 73
     4
 74
     0
 42
0.000000001
 43
0.00000001
 40
0.0
 40
0.0
 40
0.0
 40
0.0
 40
1.0
 40
1.0
 40
1.0
 40
1.0
 10
34.19676355110973
 20
-5.585858646674517
 30
0.0
 10
34.05240186472115
 20
-5.517672580398711
 30
0.0
 10
33.9112356907319
 20
-5.417991158847681
 30
0.0
 10
33.7850159176873
 20
-5.292250686116726
 30
0.0
  0
SPLINE
  5
13A
330
1F
100
AcDbEntity
  8
외형선
  6
Continuous
 62
     1
370
    15
100
AcDbSpline
210
0.0
220
0.0
230
1.0
 70
     8
 71
     3
 72
     8
 73
     4
 74
     0
 42
0.000000001
 43
0.00000001
 40
0.0
 40
0.0
 40
0.0
 40
0.0
 40
1.0
 40
1.0
 40
1.0
 40
1.0
 10
33.78501591768686
 20
-5.292250686116291
 30
0.0
 10
33.70551019661659
 20
-5.2130468758808
 30
0.0
 10
33.60347712759503
 20
-5.172203587322917
 30
0.0
 10
33.52080128169995
 20
-5.187719823832489
 30
0.0
  0
SPLINE
  5
13B
330
1F
100
AcDbEntity
  8
외형선
  6
Continuous
 62
     1
370
    15
100
AcDbSpline
210
0.0
220
0.0
230
1.0
 70
     8
 71
     3
 72
    14
 73
    10
 74
     0
 42
0.000000001
 43
0.00000001
 40
0.0
 40
0.0
 40
0.0
 40
0.0
 40
0.25
 40
0.25
 40
0.5
 40
0.5
 40
0.75
 40
0.75
 40
1.0
 40
1.0
 40
1.0
 40
1.0
 10
33.52080128170003
 20
-5.187719823832649
 30
0.0
 10
33.43936521514767
 20
-5.203003384047323
 30
0.0
 10
33.3549739415581
 20
-5.201531477724648
 30
0.0
 10
33.1795260537637
 20
-5.171483613263285
 30
0.0
 10
33.08920064913061
 20
-5.142603394753814
 30
0.0
 10
32.90884228040204
 20
-5.061200497828438
 30
0.0
 10
32.8210698606928
 20
-5.009985744587297
 30
0.0
 10
32.64937676136481
 20
-4.887711443685212
 30
0.0
 10
32.56467661751774
 20
-4.815694421219399
 30
0.0
 10
32.48605270531231
 20
-4.735469641018176
 30
0.0
  0
SPLINE
  5
13C
330
1F
100
AcDbEntity
  8
외형선
  6
Continuous
 62
     1
370
    15
100
AcDbSpline
210
0.0
220
0.0
230
1.0
 70
     8
 71
     3
 72
     8
 73
     4
 74
     0
 42
0.000000001
 43
0.00000001
 40
0.0
 40
0.0
 40
0.0
 40
0.0
 40
1.0
 40
1.0
 40
1.0
 40
1.0
 10
32.4860527053123
 20
-4.735469641018175
 30
0.0
 10
32.4061704455955
 20
-4.653960891987569
 30
0.0
 10
32.30424735135671
 20
-4.604868642526943
 30
0.0
 10
32.22211623953586
 20
-4.60900655743785
 30
0.0
  0
SPLINE
  5
13D
330
1F
100
AcDbEntity
  8
외형선
  6
Continuous
 62
     1
370
    15
100
AcDbSpline
210
0.0
220
0.0
230
1.0
 70
     8
 71
     3
 72
     8
 73
     4
 74
     0
 42
0.000000001
 43
0.00000001
 40
0.0
 40
0.0
 40
0.0
 40
0.0
 40
1.0
 40
1.0
 40
1.0
 40
1.0
 10
32.22211623953581
 20
-4.609006557437872
 30
0.0
 10
32.09367004878389
 20
-4.61547791032933
 30
0.0
 10
31.95301288549701
 20
-4.58134521569687
 30
0.0
 10
31.81001585508853
 20
-4.518891547141278
 30
0.0
  0
SPLINE
  5
13E
330
1F
100
AcDbEntity
  8
외형선
  6
Continuous
 62
     1
370
    15
100
AcDbSpline
210
0.0
220
0.0
230
1.0
 70
     8
 71
     3
 72
     8
 73
     4
 74
     0
 42
0.000000001
 43
0.00000001
 40
0.0
 40
0.0
 40
0.0
 40
0.0
 40
1.0
 40
1.0
 40
1.0
 40
1.0
 10
31.8100158564244
 20
-4.518891547971473
 30
0.0
 10
31.66574002540527
 20
-4.429229217571167
 30
0.0
 10
31.5247516687828
 20
-4.314972564698641
 30
0.0
 10
31.39877819563386
 20
-4.183773311069384
 30
0.0
  0
SPLINE
  5
13F
330
1F
100
AcDbEntity
  8
외형선
  6
Continuous
 62
     1
370
    15
100
AcDbSpline
210
0.0
220
0.0
230
1.0
 70
     8
 71
     3
 72
     8
 73
     4
 74
     0
 42
0.000000001
 43
0.00000001
 40
0.0
 40
0.0
 40
0.0
 40
0.0
 40
1.0
 40
1.0
 40
1.0
 40
1.0
 10
31.39877819563388
 20
-4.183773311069409
 30
0.0
 10
31.31933155396408
 20
-4.101030969925048
 30
0.0
 10
31.21735170630316
 20
-4.044924794172252
 30
0.0
 10
31.13477128532734
 20
-4.038022746204254
 30
0.0
  0
SPLINE
  5
140
330
1F
100
AcDbEntity
  8
외형선
  6
Continuous
 62
     1
370
    15
100
AcDbSpline
210
0.0
220
0.0
230
1.0
 70
     8
 71
     3
 72
    14
 73
    10
 74
     0
 42
0.000000001
 43
0.00000001
 40
0.0
 40
0.0
 40
0.0
 40
0.0
 40
0.25
 40
0.25
 40
0.5
 40
0.5
 40
0.75
 40
0.75
 40
1.0
 40
1.0
 40
1.0
 40
1.0
 10
31.13477128532733
 20
-4.038022746204259
 30
0.0
 10
31.0532765171928
 20
-4.031211436790253
 30
0.0
 10
30.96883585211241
 20
-4.009442640726993
 30
0.0
 10
30.7933274947049
 20
-3.942343993728897
 30
0.0
 10
30.70300929608499
 20
-3.896946013364143
 30
0.0
 10
30.52274591920956
 20
-3.788103091645939
 30
0.0
 10
30.43507097265951
 20
-3.726208334975389
 30
0.0
 10
30.26344635636309
 20
-3.588962375789563
 30
0.0
 10
30.17869379136085
 20
-3.5127253903298
 30
0.0
 10
30.09996335219294
 20
-3.432166547107538
 30
0.0
  0
SPLINE
  5
141
330
1F
100
AcDbEntity
  8
외형선
  6
Continuous
 62
     1
370
    15
100
AcDbSpline
210
0.0
220
0.0
230
1.0
 70
     8
 71
     3
 72
     8
 73
     4
 74
     0
 42
0.000000001
 43
0.00000001
 40
0.0
 40
0.0
 40
0.0
 40
0.0
 40
1.0
 40
1.0
 40
1.0
 40
1.0
 10
30.09996335219294
 20
-3.432166547107538
 30
0.0
 10
30.02002923594937
 20
-3.350376073097324
 30
0.0
 10
29.91794180720766
 20
-3.288105627832188
 30
0.0
 10
29.83568090067574
 20
-3.269810584391449
 30
0.0
  0
SPLINE
  5
142
330
1F
100
AcDbEntity
  8
외형선
  6
Continuous
 62
     1
370
    15
100
AcDbSpline
210
0.0
220
0.0
230
1.0
 70
     8
 71
     3
 72
     8
 73
     4
 74
     0
 42
0.000000001
 43
0.00000001
 40
0.0
 40
0.0
 40
0.0
 40
0.0
 40
1.0
 40
1.0
 40
1.0
 40
1.0
 10
29.83568090067572
 20
-3.269810584391471
 30
0.0
 10
29.70695764987438
 20
-3.241182192552262
 30
0.0
 10
29.56602968739378
 20
-3.177155162151206
 30
0.0
 10
29.42285805706931
 20
-3.092371118766961
 30
0.0
  0
SPLINE
  5
143
330
1F
100
AcDbEntity
  8
외형선
  6
Continuous
 62
     1
370
    15
100
AcDbSpline
210
0.0
220
0.0
230
1.0
 70
     8
 71
     3
 72
     8
 73
     4
 74
     0
 42
0.000000001
 43
0.00000001
 40
0.0
 40
0.0
 40
0.0
 40
0.0
 40
1.0
 40
1.0
 40
1.0
 40
1.0
 10
29.42285805840782
 20
-3.092371119732582
 30
0.0
 10
29.27823639297902
 20
-2.988038393457837
 30
0.0
 10
29.13697742921133
 20
-2.867920041661935
 30
0.0
 10
29.01076452235931
 20
-2.74116941991423
 30
0.0
  0
SPLINE
  5
144
330
1F
100
AcDbEntity
  8
외형선
  6
Continuous
 62
     1
370
    15
100
AcDbSpline
210
0.0
220
0.0
230
1.0
 70
     8
 71
     3
 72
     8
 73
     4
 74
     0
 42
0.000000001
 43
0.00000001
 40
0.0
 40
0.0
 40
0.0
 40
0.0
 40
1.0
 40
1.0
 40
1.0
 40
1.0
 10
29.01076452235931
 20
-2.741169419914229
 30
0.0
 10
28.93115470688891
 20
-2.661220436408728
 30
0.0
 10
28.82908067428544
 20
-2.59398877156816
 30
0.0
 10
28.74638719841923
 20
-2.564925901014223
 30
0.0
  0
SPLINE
  5
145
330
1F
100
AcDbEntity
  8
외형선
  6
Continuous
 62
     1
370
    15
100
AcDbSpline
210
0.0
220
0.0
230
1.0
 70
     8
 71
     3
 72
    14
 73
    10
 74
     0
 42
0.000000001
 43
0.00000001
 40
0.0
 40
0.0
 40
0.0
 40
0.0
 40
0.25
 40
0.25
 40
0.5
 40
0.5
 40
0.75
 40
0.75
 40
1.0
 40
1.0
 40
1.0
 40
1.0
 10
28.74638719841924
 20
-2.564925901014237
 30
0.0
 10
28.66492442114335
 20
-2.536295563177626
 30
0.0
 10
28.58058147221061
 20
-2.495747099633894
 30
0.0
 10
28.40532858451295
 20
-2.396687423109109
 30
0.0
 10
28.31507031836418
 20
-2.338449206317965
 30
0.0
 10
28.13469269979661
 20
-2.211167844926404
 30
0.0
 10
28.04685200894384
 20
-2.143874172988712
 30
0.0
 10
27.87492962489863
 20
-2.003177849339655
 30
0.0
 10
27.79006150530914
 20
-1.928973706892706
 30
0.0
 10
27.71126419491932
 20
-1.854605671313986
 30
0.0
  0
SPLINE
  5
146
330
1F
100
AcDbEntity
  8
외형선
  6
Continuous
 62
     1
370
    15
100
AcDbSpline
210
0.0
220
0.0
230
1.0
 70
     8
 71
     3
 72
     8
 73
     4
 74
     0
 42
0.000000001
 43
0.00000001
 40
0.0
 40
0.0
 40
0.0
 40
0.0
 40
1.0
 40
1.0
 40
1.0
 40
1.0
 10
27.71126419491931
 20
-1.854605671313974
 30
0.0
 10
27.63138671007642
 20
-1.77921817895735
 30
0.0
 10
27.52935280159036
 20
-1.708782343850028
 30
0.0
 10
27.44720217376718
 20
-1.669513325892454
 30
0.0
  0
SPLINE
  5
147
330
1F
100
AcDbEntity
  8
외형선
  6
Continuous
 62
     1
370
    15
100
AcDbSpline
210
0.0
220
0.0
230
1.0
 70
     8
 71
     3
 72
     8
 73
     4
 74
     0
 42
0.000000001
 43
0.00000001
 40
0.0
 40
0.0
 40
0.0
 40
0.0
 40
1.0
 40
1.0
 40
1.0
 40
1.0
 10
27.44720217376713
 20
-1.669513325892441
 30
0.0
 10
27.31863417172761
 20
-1.608056227941508
 30
0.0
 10
27.17790362536333
 20
-1.519290000557684
 30
0.0
 10
27.03500725995222
 20
-1.418910407252391
 30
0.0
  0
SPLINE
  5
148
330
1F
100
AcDbEntity
  8
외형선
  6
Continuous
 62
     1
370
    15
100
AcDbSpline
210
0.0
220
0.0
230
1.0
 70
     8
 71
     3
 72
     8
 73
     4
 74
     0
 42
0.000000001
 43
0.00000001
 40
0.0
 40
0.0
 40
0.0
 40
0.0
 40
1.0
 40
1.0
 40
1.0
 40
1.0
 10
27.03500726131074
 20
-1.418910408293265
 30
0.0
 10
26.89062288722785
 20
-1.30825436139439
 30
0.0
 10
26.74970126181863
 20
-1.191854043215036
 30
0.0
 10
26.62383941546184
 20
-1.07971264658057
 30
0.0
  0
SPLINE
  5
149
330
1F
100
AcDbEntity
  8
외형선
  6
Continuous
 62
     1
370
    15
100
AcDbSpline
210
0.0
220
0.0
230
1.0
 70
     8
 71
     3
 72
     8
 73
     4
 74
     0
 42
0.000000001
 43
0.00000001
 40
0.0
 40
0.0
 40
0.0
 40
0.0
 40
1.0
 40
1.0
 40
1.0
 40
1.0
 10
26.62383941546183
 20
-1.079712646580573
 30
0.0
 10
26.54444627149481
 20
-1.008974306842381
 30
0.0
 10
26.44252991984484
 20
-0.9360804124557143
 30
0.0
 10
26.35992256066659
 20
-0.8874612001742044
 30
0.0
  0
SPLINE
  5
14A
330
1F
100
AcDbEntity
  8
외형선
  6
Continuous
 62
     1
370
    15
100
AcDbSpline
210
0.0
220
0.0
230
1.0
 70
     8
 71
     3
 72
    14
 73
    10
 74
     0
 42
0.000000001
 43
0.00000001
 40
0.0
 40
0.0
 40
0.0
 40
0.0
 40
0.25
 40
0.25
 40
0.5
 40
0.5
 40
0.75
 40
0.75
 40
1.0
 40
1.0
 40
1.0
 40
1.0
 10
26.35992256066658
 20
-0.8874612001741888
 30
0.0
 10
26.27858044607816
 20
-0.8395866575675436
 30
0.0
 10
26.19427162062265
 20
-0.7839263058250999
 30
0.0
 10
26.01895064056367
 20
-0.66171382851875
 30
0.0
 10
25.92866590912851
 20
-0.5955467532346965
 30
0.0
 10
25.74833295744548
 20
-0.4603009291786354
 30
0.0
 10
25.66054999364153
 20
-0.3929736327031048
 30
0.0
 10
25.48879783537175
 20
-0.2600076274897247
 30
0.0
 10
25.40404582860596
 20
-0.1937477702248064
 30
0.0
 10
25.32536045264213
 20
-0.1314864910192878
 30
0.0
  0
SPLINE
  5
14B
330
1F
100
AcDbEntity
  8
외형선
  6
Continuous
 62
     1
370
    15
100
AcDbSpline
210
0.0
220
0.0
230
1.0
 70
     8
 71
     3
 72
     8
 73
     4
 74
     0
 42
0.000000001
 43
0.00000001
 40
0.0
 40
0.0
 40
0.0
 40
0.0
 40
1.0
 40
1.0
 40
1.0
 40
1.0
 10
25.32536045264213
 20
-0.131486491019313
 30
0.0
 10
25.24543441652168
 20
-0.0682435162005323
 30
0.0
 10
25.14339026702831
 20
0.0050134930979829
 30
0.0
 10
25.0612246104655
 20
0.062382564104358
 30
0.0
  0
SPLINE
  5
14C
330
1F
100
AcDbEntity
  8
외형선
  6
Continuous
 62
     1
370
    15
100
AcDbSpline
210
0.0
220
0.0
230
1.0
 70
     8
 71
     3
 72
     8
 73
     4
 74
     0
 42
0.000000001
 43
0.00000001
 40
0.0
 40
0.0
 40
0.0
 40
0.0
 40
1.0
 40
1.0
 40
1.0
 40
1.0
 10
24.23693769358114
 20
0.6678415030808478
 30
0.0
 10
24.15733681844878
 20
0.7234985714949151
 30
0.0
 10
24.05521364843665
 20
0.7960152114955771
 30
0.0
 10
23.97243968647493
 20
0.8603285749779972
 30
0.0
  0
SPLINE
  5
14D
330
1F
100
AcDbEntity
  8
외형선
  6
Continuous
 62
     1
370
    15
100
AcDbSpline
210
0.0
220
0.0
230
1.0
 70
     8
 71
     3
 72
     8
 73
     4
 74
     0
 42
0.000000001
 43
0.00000001
 40
0.0
 40
0.0
 40
0.0
 40
0.0
 40
1.0
 40
1.0
 40
1.0
 40
1.0
 10
22.93659727455703
 20
1.604989464426306
 30
0.0
 10
22.85667640126977
 20
1.6511765555921
 30
0.0
 10
22.75470906709394
 20
1.721597828506576
 30
0.0
 10
22.67249166011162
 20
1.792496813120998
 30
0.0
  0
SPLINE
  5
14E
330
1F
100
AcDbEntity
  8
외형선
  6
Continuous
 62
     1
370
    15
100
AcDbSpline
210
0.0
220
0.0
230
1.0
 70
     8
 71
     3
 72
     8
 73
     4
 74
     0
 42
0.000000001
 43
0.00000001
 40
0.0
 40
0.0
 40
0.0
 40
0.0
 40
1.0
 40
1.0
 40
1.0
 40
1.0
 10
21.8489025686825
 20
2.36184419439169
 30
0.0
 10
21.76945821451421
 20
2.397929906174745
 30
0.0
 10
21.6674871576388
 20
2.464313371563363
 30
0.0
 10
21.5849199482077
 20
2.539128984263698
 30
0.0
  0
SPLINE
  5
14F
330
1F
100
AcDbEntity
  8
외형선
  6
Continuous
 62
     1
370
    15
100
AcDbSpline
210
0.0
220
0.0
230
1.0
 70
     8
 71
     3
 72
     8
 73
     4
 74
     0
 42
0.000000001
 43
0.00000001
 40
0.0
 40
0.0
 40
0.0
 40
0.0
 40
1.0
 40
1.0
 40
1.0
 40
1.0
 10
20.55065800878794
 20
3.212063933080976
 30
0.0
 10
20.47080531681114
 20
3.237098041937986
 30
0.0
 10
20.36878706061384
 20
3.298452320919494
 30
0.0
 10
20.28661941659535
 20
3.376843295417649
 30
0.0
  0
SPLINE
  5
150
330
1F
100
AcDbEntity
  8
외형선
  6
Continuous
 62
     1
370
    15
100
AcDbSpline
210
0.0
220
0.0
230
1.0
 70
     8
 71
     3
 72
     8
 73
     4
 74
     0
 42
0.000000001
 43
0.00000001
 40
0.0
 40
0.0
 40
0.0
 40
0.0
 40
1.0
 40
1.0
 40
1.0
 40
1.0
 10
20.28661941659532
 20
3.376843295417675
 30
0.0
 10
20.15804871590353
 20
3.499504503969192
 30
0.0
 10
20.01727447723805
 20
3.615327181584647
 30
0.0
 10
19.87426440843706
 20
3.712641962903284
 30
0.0
  0
SPLINE
  5
151
330
1F
100
AcDbEntity
  8
외형선
  6
Continuous
 62
     1
370
    15
100
AcDbSpline
210
0.0
220
0.0
230
1.0
 70
     8
 71
     3
 72
     8
 73
     4
 74
     0
 42
0.000000001
 43
0.00000001
 40
0.0
 40
0.0
 40
0.0
 40
0.0
 40
1.0
 40
1.0
 40
1.0
 40
1.0
 10
19.87426440977412
 20
3.71264196218161
 30
0.0
 10
19.7297931055664
 20
3.790620016374305
 30
0.0
 10
19.5887183375169
 20
3.844449124634182
 30
0.0
 10
19.4626773897214
 20
3.866618933769551
 30
0.0
  0
SPLINE
  5
152
330
1F
100
AcDbEntity
  8
외형선
  6
Continuous
 62
     1
370
    15
100
AcDbSpline
210
0.0
220
0.0
230
1.0
 70
     8
 71
     3
 72
     8
 73
     4
 74
     0
 42
0.000000001
 43
0.00000001
 40
0.0
 40
0.0
 40
0.0
 40
0.0
 40
1.0
 40
1.0
 40
1.0
 40
1.0
 10
19.46267738972139
 20
3.866618933769534
 30
0.0
 10
19.38310485728887
 20
3.88061524121804
 30
0.0
 10
19.28106812325279
 20
3.935946146888426
 30
0.0
 10
19.19840676138198
 20
4.015660914207116
 30
0.0
  0
SPLINE
  5
153
330
1F
100
AcDbEntity
  8
외형선
  6
Continuous
 62
     1
370
    15
100
AcDbSpline
210
0.0
220
0.0
230
1.0
 70
     8
 71
     3
 72
    14
 73
    10
 74
     0
 42
0.000000001
 43
0.00000001
 40
0.0
 40
0.0
 40
0.0
 40
0.0
 40
0.25
 40
0.25
 40
0.5
 40
0.5
 40
0.75
 40
0.75
 40
1.0
 40
1.0
 40
1.0
 40
1.0
 10
19.198406761382
 20
4.015660914207086
 30
0.0
 10
19.11690223858782
 20
4.094260079801691
 30
0.0
 10
19.03253677279779
 20
4.166469437874805
 30
0.0
 10
18.85707043885375
 20
4.298142049640701
 30
0.0
 10
18.76670523107667
 20
4.356803848686882
 30
0.0
 10
18.5861411188371
 20
4.454342144021049
 30
0.0
 10
18.49820661942509
 20
4.49221222651239
 30
0.0
 10
18.32609723649731
 20
4.545818916230413
 30
0.0
 10
18.24114147388831
 20
4.561415006482227
 30
0.0
 10
18.16225943237915
 20
4.563454910510867
 30
0.0
  0
SPLINE
  5
154
330
1F
100
AcDbEntity
  8
외형선
  6
Continuous
 62
     1
370
    15
100
AcDbSpline
210
0.0
220
0.0
230
1.0
 70
     8
 71
     3
 72
     8
 73
     4
 74
     0
 42
0.000000001
 43
0.00000001
 40
0.0
 40
0.0
 40
0.0
 40
0.0
 40
1.0
 40
1.0
 40
1.0
 40
1.0
 10
18.16225943237927
 20
4.563454910510626
 30
0.0
 10
18.08228516902419
 20
4.565523059596083
 30
0.0
 10
17.98017331019112
 20
4.613247820268331
 30
0.0
 10
17.89793721882866
 20
4.693170298639008
 30
0.0
  0
SPLINE
  5
155
330
1F
100
AcDbEntity
  8
외형선
  6
Continuous
 62
     1
370
    15
100
AcDbSpline
210
0.0
220
0.0
230
1.0
 70
     8
 71
     3
 72
     8
 73
     4
 74
     0
 42
0.000000001
 43
0.00000001
 40
0.0
 40
0.0
 40
0.0
 40
0.0
 40
1.0
 40
1.0
 40
1.0
 40
1.0
 10
17.89793721882861
 20
4.693170298639053
 30
0.0
 10
17.76924688348619
 20
4.81824008700711
 30
0.0
 10
17.62841706784477
 20
4.924961520384851
 30
0.0
 10
17.48544285639776
 20
5.00513850951076
 30
0.0
  0
SPLINE
  5
156
330
1F
100
AcDbEntity
  8
외형선
  6
Continuous
 62
     1
370
    15
100
AcDbSpline
210
0.0
220
0.0
230
1.0
 70
     8
 71
     3
 72
     8
 73
     4
 74
     0
 42
0.000000001
 43
0.00000001
 40
0.0
 40
0.0
 40
0.0
 40
0.0
 40
1.0
 40
1.0
 40
1.0
 40
1.0
 10
17.48544285773434
 20
5.005138509019886
 30
0.0
 10
17.3409995502607
 20
5.058189596067972
 30
0.0
 10
17.20008341337118
 20
5.080169067556708
 30
0.0
 10
17.07408117977572
 20
5.065329034139602
 30
0.0
  0
SPLINE
  5
157
330
1F
100
AcDbEntity
  8
외형선
  6
Continuous
 62
     1
370
    15
100
AcDbSpline
210
0.0
220
0.0
230
1.0
 70
     8
 71
     3
 72
     8
 73
     4
 74
     0
 42
0.000000001
 43
0.00000001
 40
0.0
 40
0.0
 40
0.0
 40
0.0
 40
1.0
 40
1.0
 40
1.0
 40
1.0
 10
17.07408117977572
 20
5.065329034139586
 30
0.0
 10
16.99465770726674
 20
5.055974858800758
 30
0.0
 10
16.89270805064693
 20
5.095483511234682
 30
0.0
 10
16.81008211723265
 20
5.173404803746657
 30
0.0
  0
SPLINE
  5
158
330
1F
100
AcDbEntity
  8
외형선
  6
Continuous
 62
     1
370
    15
100
AcDbSpline
210
0.0
220
0.0
230
1.0
 70
     8
 71
     3
 72
    14
 73
    10
 74
     0
 42
0.000000001
 43
0.00000001
 40
0.0
 40
0.0
 40
0.0
 40
0.0
 40
0.25
 40
0.25
 40
0.5
 40
0.5
 40
0.75
 40
0.75
 40
1.0
 40
1.0
 40
1.0
 40
1.0
 10
16.81008211723263
 20
5.173404803746681
 30
0.0
 10
16.72873427404527
 20
5.250120779255711
 30
0.0
 10
16.64442312009653
 20
5.316162021032786
 30
0.0
 10
16.4691072317312
 20
5.428908352443877
 30
0.0
 10
16.37883028034877
 20
5.474777898709468
 30
0.0
 10
16.19852171369589
 20
5.541613511860345
 30
0.0
 10
16.11075815487678
 20
5.562020402082939
 30
0.0
 10
15.93905798486544
 20
5.576887784105173
 30
0.0
 10
15.85433721003799
 20
5.570950308610353
 30
0.0
 10
15.77568922022651
 20
5.550247167327821
 30
0.0
  0
SPLINE
  5
159
330
1F
100
AcDbEntity
  8
외형선
  6
Continuous
 62
     1
370
    15
100
AcDbSpline
210
0.0
220
0.0
230
1.0
 70
     8
 71
     3
 72
     8
 73
     4
 74
     0
 42
0.000000001
 43
0.00000001
 40
0.0
 40
0.0
 40
0.0
 40
0.0
 40
1.0
 40
1.0
 40
1.0
 40
1.0
 10
15.77568922022651
 20
5.550247167327815
 30
0.0
 10
15.6958141457936
 20
5.529221010716547
 30
0.0
 10
15.59382619575235
 20
5.559616017090597
 30
0.0
 10
15.51172151130377
 20
5.63468591256417
 30
0.0
  0
SPLINE
  5
15A
330
1F
100
AcDbEntity
  8
외형선
  6
Continuous
 62
     1
370
    15
100
AcDbSpline
210
0.0
220
0.0
230
1.0
 70
     8
 71
     3
 72
     8
 73
     4
 74
     0
 42
0.000000001
 43
0.00000001
 40
0.0
 40
0.0
 40
0.0
 40
0.0
 40
1.0
 40
1.0
 40
1.0
 40
1.0
 10
15.5117215113037
 20
5.634685912564216
 30
0.0
 10
15.38312289811295
 20
5.752266103208801
 30
0.0
 10
15.24254541478027
 20
5.841415856616346
 30
0.0
 10
15.09958942141761
 20
5.897918901701293
 30
0.0
  0
SPLINE
  5
15B
330
1F
100
AcDbEntity
  8
외형선
  6
Continuous
 62
     1
370
    15
100
AcDbSpline
210
0.0
220
0.0
230
1.0
 70
     8
 71
     3
 72
     8
 73
     4
 74
     0
 42
0.000000001
 43
0.00000001
 40
0.0
 40
0.0
 40
0.0
 40
0.0
 40
1.0
 40
1.0
 40
1.0
 40
1.0
 10
15.09958942276101
 20
5.897918901480048
 30
0.0
 10
14.95532835271171
 20
5.92162549693888
 30
0.0
 10
14.81429053475618
 20
5.909462663407154
 30
0.0
 10
14.68822428215262
 20
5.858564471438568
 30
0.0
  0
SPLINE
  5
15C
330
1F
100
AcDbEntity
  8
외형선
  6
Continuous
 62
     1
370
    15
100
AcDbSpline
210
0.0
220
0.0
230
1.0
 70
     8
 71
     3
 72
     8
 73
     4
 74
     0
 42
0.000000001
 43
0.00000001
 40
0.0
 40
0.0
 40
0.0
 40
0.0
 40
1.0
 40
1.0
 40
1.0
 40
1.0
 10
14.68822428215262
 20
5.858564471438561
 30
0.0
 10
14.60874023341145
 20
5.826473453519668
 30
0.0
 10
14.50671898022858
 20
5.847089639413265
 30
0.0
 10
14.42407241306629
 20
5.917047986980348
 30
0.0
  0
SPLINE
  5
15D
330
1F
100
AcDbEntity
  8
외형선
  6
Continuous
 62
     1
370
    15
100
AcDbSpline
210
0.0
220
0.0
230
1.0
 70
     8
 71
     3
 72
    14
 73
    10
 74
     0
 42
0.000000001
 43
0.00000001
 40
0.0
 40
0.0
 40
0.0
 40
0.0
 40
0.25
 40
0.25
 40
0.5
 40
0.5
 40
0.75
 40
0.75
 40
1.0
 40
1.0
 40
1.0
 40
1.0
 10
14.42407241306629
 20
5.91704798698035
 30
0.0
 10
14.34252565197059
 20
5.986075374947979
 30
0.0
 10
14.2580205919181
 20
6.041001900901068
 30
0.0
 10
14.08235019827557
 20
6.126353501535373
 30
0.0
 10
13.99192514308519
 20
6.155978011154539
 30
0.0
 10
13.81142013715408
 20
6.187170336560995
 30
0.0
 10
13.7235761623002
 20
6.188676334782214
 30
0.0
 10
13.55173457424597
 20
6.16395688408044
 30
0.0
 10
13.46697194958319
 20
6.137112764815653
 30
0.0
 10
13.38826572971349
 20
6.095434589605699
 30
0.0
  0
SPLINE
  5
15E
330
1F
100
AcDbEntity
  8
외형선
  6
Continuous
 62
     1
370
    15
100
AcDbSpline
210
0.0
220
0.0
230
1.0
 70
     8
 71
     3
 72
     8
 73
     4
 74
     0
 42
0.000000001
 43
0.00000001
 40
0.0
 40
0.0
 40
0.0
 40
0.0
 40
1.0
 40
1.0
 40
1.0
 40
1.0
 10
13.38826572971348
 20
6.095434589605707
 30
0.0
 10
13.30826417029581
 20
6.053070478916618
 30
0.0
 10
13.20614468194297
 20
6.063546075560009
 30
0.0
 10
13.12379938180154
 20
6.127815403849986
 30
0.0
  0
SPLINE
  5
15F
330
1F
100
AcDbEntity
  8
외형선
  6
Continuous
 62
     1
370
    15
100
AcDbSpline
210
0.0
220
0.0
230
1.0
 70
     8
 71
     3
 72
     8
 73
     4
 74
     0
 42
0.000000001
 43
0.00000001
 40
0.0
 40
0.0
 40
0.0
 40
0.0
 40
1.0
 40
1.0
 40
1.0
 40
1.0
 10
13.12379938180151
 20
6.127815403850009
 30
0.0
 10
12.99511134368111
 20
6.228254575906544
 30
0.0
 10
12.8542352791008
 20
6.292449992841715
 30
0.0
 10
12.71105366842941
 20
6.320655513024753
 30
0.0
  0
SPLINE
  5
160
330
1F
100
AcDbEntity
  8
외형선
  6
Continuous
 62
     1
370
    15
100
AcDbSpline
210
0.0
220
0.0
230
1.0
 70
     8
 71
     3
 72
     8
 73
     4
 74
     0
 42
0.000000001
 43
0.00000001
 40
0.0
 40
0.0
 40
0.0
 40
0.0
 40
1.0
 40
1.0
 40
1.0
 40
1.0
 10
12.71105366976703
 20
6.320655513095051
 30
0.0
 10
12.56661245144349
 20
6.313064153143928
 30
0.0
 10
12.42548453358329
 20
6.267950847664578
 30
0.0
 10
12.29939359782488
 20
6.185233452089205
 30
0.0
  0
SPLINE
  5
161
330
1F
100
AcDbEntity
  8
외형선
  6
Continuous
 62
     1
370
    15
100
AcDbSpline
210
0.0
220
0.0
230
1.0
 70
     8
 71
     3
 72
     8
 73
     4
 74
     0
 42
0.000000001
 43
0.00000001
 40
0.0
 40
0.0
 40
0.0
 40
0.0
 40
1.0
 40
1.0
 40
1.0
 40
1.0
 10
12.29939359782488
 20
6.185233452089206
 30
0.0
 10
12.2198873106037
 20
6.133076229436788
 30
0.0
 10
12.1178710562129
 20
6.133216620109143
 30
0.0
 10
12.03525319714325
 20
6.189716259173807
 30
0.0
  0
SPLINE
  5
162
330
1F
100
AcDbEntity
  8
외형선
  6
Continuous
 62
     1
370
    15
100
AcDbSpline
210
0.0
220
0.0
230
1.0
 70
     8
 71
     3
 72
    14
 73
    10
 74
     0
 42
0.000000001
 43
0.00000001
 40
0.0
 40
0.0
 40
0.0
 40
0.0
 40
0.25
 40
0.25
 40
0.5
 40
0.5
 40
0.75
 40
0.75
 40
1.0
 40
1.0
 40
1.0
 40
1.0
 10
17.87000904432303
 20
0.5666718637987938
 30
0.0
 10
17.95150678441288
 20
0.5156701963192866
 30
0.0
 10
18.03595454871674
 20
0.4576703206622935
 30
0.0
 10
18.21150354539152
 20
0.3321106290879873
 30
0.0
 10
18.30187814710098
 20
0.2649712336744821
 30
0.0
 10
18.48232927330241
 20
0.1292213419915882
 30
0.0
 10
18.57014821236377
 20
0.062345416103182
 30
0.0
 10
18.74193457093504
 20
-0.0683309679687374
 30
0.0
 10
18.82667924865094
 20
-0.1327125139385411
 30
0.0
 10
18.9053450677677
 20
-0.1923612793102566
 30
0.0
  0
SPLINE
  5
163
330
1F
100
AcDbEntity
  8
외형선
  6
Continuous
 62
     1
370
    15
100
AcDbSpline
210
0.0
220
0.0
230
1.0
 70
     8
 71
     3
 72
     8
 73
     4
 74
     0
 42
0.000000001
 43
0.00000001
 40
0.0
 40
0.0
 40
0.0
 40
0.0
 40
1.0
 40
1.0
 40
1.0
 40
1.0
 10
19.58153903429881
 20
-0.698695357673685
 30
0.0
 10
19.72582295662637
 20
-0.8052351404609464
 30
0.0
 10
19.86681368906677
 20
-0.904777471230864
 30
0.0
 10
19.99278146274025
 20
-0.9875250984945029
 30
0.0
  0
SPLINE
  5
164
330
1F
100
AcDbEntity
  8
외형선
  6
Continuous
 62
     1
370
    15
100
AcDbSpline
210
0.0
220
0.0
230
1.0
 70
     8
 71
     3
 72
    12
 73
     8
 74
     0
 42
0.000000001
 43
0.00000001
 40
0.0
 40
0.0
 40
0.0
 40
0.0
 40
0.5000000000000001
 40
0.5000000000000001
 40
0.75
 40
0.75
 40
1.0
 40
1.0
 40
1.0
 40
1.0
 10
19.87426440843707
 20
3.712641962903255
 30
0.0
 10
19.82543496723239
 20
3.081609051199547
 30
0.0
 10
19.7742736836665
 20
2.354715864798767
 30
0.0
 10
19.70159436185649
 20
1.228700295999849
 30
0.0
 10
19.6787110895229
 20
0.8514805593301196
 30
0.0
 10
19.63106808851056
 20
0.0820399506938263
 30
0.0
 10
19.60641784325037
 20
-0.3097142370450467
 30
0.0
 10
19.58153903543053
 20
-0.6986953585093061
 30
0.0
  0
SPLINE
  5
165
330
1F
100
AcDbEntity
  8
외형선
  6
Continuous
 62
     1
370
    15
100
AcDbSpline
210
0.0
220
0.0
230
1.0
 70
     8
 71
     3
 72
    14
 73
    10
 74
     0
 42
0.000000001
 43
0.00000001
 40
0.0
 40
0.0
 40
0.0
 40
0.0
 40
0.25
 40
0.25
 40
0.5
 40
0.5
 40
0.75
 40
0.75
 40
1.0
 40
1.0
 40
1.0
 40
1.0
 10
36.70500191826402
 20
4.094581092901501
 30
0.0
 10
36.62339334895667
 20
4.173169606231953
 30
0.0
 10
36.53885082641557
 20
4.245039578872871
 30
0.0
 10
36.36317226972761
 20
4.375751149754453
 30
0.0
 10
36.27278136797363
 20
4.433768909695966
 30
0.0
 10
36.09236963967779
 20
4.529839134565044
 30
0.0
 10
36.00459925437241
 20
4.566930484830274
 30
0.0
 10
35.83266678729786
 20
4.618576589203897
 30
0.0
 10
35.74776659591875
 20
4.633007246188932
 30
0.0
 10
35.66891537446741
 20
4.633735662962561
 30
0.0
  0
SPLINE
  5
166
330
1F
100
AcDbEntity
  8
외형선
  6
Continuous
 62
     1
370
    15
100
AcDbSpline
210
0.0
220
0.0
230
1.0
 70
     8
 71
     3
 72
    14
 73
    10
 74
     0
 42
0.000000001
 43
0.00000001
 40
0.0
 40
0.0
 40
0.0
 40
0.0
 40
0.5000000000000001
 40
0.5000000000000001
 40
0.625
 40
0.625
 40
0.7499999999999999
 40
0.7499999999999999
 40
1.0
 40
1.0
 40
1.0
 40
1.0
 10
37.38102194188136
 20
3.799563877005211
 30
0.0
 10
37.33240792737051
 20
3.177181100044904
 30
0.0
 10
37.28122953982479
 20
2.456205936369538
 30
0.0
 10
37.22035760737087
 20
1.520460517699296
 30
0.0
 10
37.20833725771076
 20
1.331696594316272
 30
0.0
 10
37.18474491031771
 20
0.9533898454960926
 30
0.0
 10
37.17327349337339
 20
0.764399132605757
 30
0.0
 10
37.13776810195562
 20
0.1892510940155956
 30
0.0
 10
37.11321839437001
 20
-0.2020740419053876
 30
0.0
 10
37.08838122366797
 20
-0.5915585705558185
 30
0.0
  0
SPLINE
  5
167
330
1F
100
AcDbEntity
  8
외형선
  6
Continuous
 62
     1
370
    15
100
AcDbSpline
210
0.0
220
0.0
230
1.0
 70
     8
 71
     3
 72
     8
 73
     4
 74
     0
 42
0.000000001
 43
0.00000001
 40
0.0
 40
0.0
 40
0.0
 40
0.0
 40
1.0
 40
1.0
 40
1.0
 40
1.0
 10
37.79338412577584
 20
3.463908865672951
 30
0.0
 10
37.66484637147717
 20
3.58724501413588
 30
0.0
 10
37.52409280886023
 20
3.702969811874517
 30
0.0
 10
37.38102194188148
 20
3.799563877005117
 30
0.0
  0
SPLINE
  5
168
330
1F
100
AcDbEntity
  8
외형선
  6
Continuous
370
    15
100
AcDbSpline
210
0.0
220
0.0
230
1.0
 70
     8
 71
     3
 72
     8
 73
     4
 74
     0
 42
0.000000001
 43
0.00000001
 40
0.0
 40
0.0
 40
0.0
 40
0.0
 40
1.0
 40
1.0
 40
1.0
 40
1.0
 10
8.057023467137348
 20
5.887876840442144
 30
0.0
 10
8.136488775024347
 20
5.816360629639811
 30
0.0
 10
8.23848613214417
 20
5.790561330939151
 30
0.0
 10
8.32112829270283
 20
5.823584234809721
 30
0.0
  0
SPLINE
  5
169
330
1F
100
AcDbEntity
  8
외형선
  6
Continuous
370
    15
100
AcDbSpline
210
0.0
220
0.0
230
1.0
 70
     8
 71
     3
 72
    14
 73
    10
 74
     0
 42
0.000000001
 43
0.00000001
 40
0.0
 40
0.0
 40
0.0
 40
0.0
 40
0.25
 40
0.25
 40
0.5
 40
0.5
 40
0.75
 40
0.75
 40
1.0
 40
1.0
 40
1.0
 40
1.0
 10
8.321128292702817
 20
5.823584234809699
 30
0.0
 10
8.402531607331571
 20
5.856112109390408
 30
0.0
 10
8.486893483618791
 20
5.871344033146017
 30
0.0
 10
8.66229134519232
 20
5.873312453704993
 30
0.0
 10
8.752594836494268
 20
5.859574065503241
 30
0.0
 10
8.932917742256251
 20
5.805234343658584
 30
0.0
 10
9.020674776838762
 20
5.765636252388557
 30
0.0
 10
9.192340780138114
 20
5.662636609327181
 30
0.0
 10
9.277030425174082
 20
5.598299106489276
 30
0.0
 10
9.355645424743724
 20
5.523107724145751
 30
0.0
  0
SPLINE
  5
16A
330
1F
100
AcDbEntity
  8
외형선
  6
Continuous
370
    15
100
AcDbSpline
210
0.0
220
0.0
230
1.0
 70
     8
 71
     3
 72
     8
 73
     4
 74
     0
 42
0.000000001
 43
0.00000001
 40
0.0
 40
0.0
 40
0.0
 40
0.0
 40
1.0
 40
1.0
 40
1.0
 40
1.0
 10
9.355645424743699
 20
5.523107724145775
 30
0.0
 10
9.435524682280796
 20
5.446707141207807
 30
0.0
 10
9.537471558328683
 20
5.411519746793227
 30
0.0
 10
9.61957065120708
 20
5.433900945531484
 30
0.0
  0
SPLINE
  5
16B
330
1F
100
AcDbEntity
  8
외형선
  6
Continuous
370
    15
100
AcDbSpline
210
0.0
220
0.0
230
1.0
 70
     8
 71
     3
 72
     8
 73
     4
 74
     0
 42
0.000000001
 43
0.00000001
 40
0.0
 40
0.0
 40
0.0
 40
0.0
 40
1.0
 40
1.0
 40
1.0
 40
1.0
 10
9.619570651207074
 20
5.433900945531462
 30
0.0
 10
9.675771618077654
 20
5.449222004080499
 30
0.0
 10
9.734302310875712
 20
5.456297447294999
 30
0.0
 10
9.79441027031583
 20
5.456115437079787
 30
0.0
  0
SPLINE
  5
16C
330
1F
100
AcDbEntity
  8
외형선
  6
Continuous
370
    15
100
AcDbSpline
210
0.0
220
0.0
230
1.0
 70
     8
 71
     3
 72
     8
 73
     4
 74
     0
 42
0.000000001
 43
0.00000001
 40
0.0
 40
0.0
 40
0.0
 40
0.0
 40
1.0
 40
1.0
 40
1.0
 40
1.0
 10
9.79441027031579
 20
5.456115437079973
 30
0.0
 10
9.862874767452897
 20
5.425860800253933
 30
0.0
 10
9.931404549891017
 20
5.395119358937232
 30
0.0
 10
9.999999999999979
 20
5.363894808202953
 30
0.0
  0
SPLINE
  5
16D
330
1F
100
AcDbEntity
  8
외형선
  6
Continuous
370
    15
100
AcDbSpline
210
0.0
220
0.0
230
1.0
 70
    24
 71
     3
 72
     9
 73
     5
 74
     0
 42
0.000000001
 43
0.00000001
 40
0.0
 40
0.0
 40
0.0
 40
0.0
 40
0.5
 40
1.0
 40
1.0
 40
1.0
 40
1.0
 10
9.999999999999979
 20
5.429325646037062
 30
0.0
 10
9.999999999999979
 20
5.418391352114796
 30
0.0
 10
9.999999999999979
 20
5.396551218991175
 30
0.0
 10
9.999999999999979
 20
5.374770103226954
 30
0.0
 10
9.999999999999979
 20
5.363894808203035
 30
0.0
  0
SPLINE
  5
16E
330
1F
100
AcDbEntity
  8
외형선
  6
Continuous
370
    15
100
AcDbSpline
210
0.0
220
0.0
230
1.0
 70
     8
 71
     3
 72
     8
 73
     4
 74
     0
 42
0.000000001
 43
0.00000001
 40
0.0
 40
0.0
 40
0.0
 40
0.0
 40
1.0
 40
1.0
 40
1.0
 40
1.0
 10
9.99999999999995
 20
5.429325646036999
 30
0.0
 10
10.01053537198103
 20
5.426704412578255
 30
0.0
 10
10.02109173290622
 20
5.423897158183692
 30
0.0
 10
10.03167029407119
 20
5.420904873113743
 30
0.0
  0
SPLINE
  5
16F
330
1F
100
AcDbEntity
  8
외형선
  6
Continuous
 62
     1
370
    15
100
AcDbSpline
210
0.0
220
0.0
230
1.0
 70
     8
 71
     3
 72
     8
 73
     4
 74
     0
 42
0.000000001
 43
0.00000001
 40
0.0
 40
0.0
 40
0.0
 40
0.0
 40
1.0
 40
1.0
 40
1.0
 40
1.0
 10
10.03167029293952
 20
5.420904873681737
 30
0.0
 10
10.17595254823404
 20
5.34848915316612
 30
0.0
 10
10.31695849190344
 20
5.24563989581255
 30
0.0
 10
10.44295923290489
 20
5.118327210882055
 30
0.0
  0
SPLINE
  5
170
330
1F
100
AcDbEntity
  8
외형선
  6
Continuous
 62
     1
370
    15
100
AcDbSpline
210
0.0
220
0.0
230
1.0
 70
     8
 71
     3
 72
     8
 73
     4
 74
     0
 42
0.000000001
 43
0.00000001
 40
0.0
 40
0.0
 40
0.0
 40
0.0
 40
1.0
 40
1.0
 40
1.0
 40
1.0
 10
10.44295923290489
 20
5.118327210882057
 30
0.0
 10
10.52242329878823
 20
5.038035749874018
 30
0.0
 10
10.62442127445385
 20
4.994193108595764
 30
0.0
 10
10.70702499256187
 20
5.005653654113076
 30
0.0
  0
SPLINE
  5
171
330
1F
100
AcDbEntity
  8
외형선
  6
Continuous
 62
     1
370
    15
100
AcDbSpline
210
0.0
220
0.0
230
1.0
 70
     8
 71
     3
 72
    14
 73
    10
 74
     0
 42
0.000000001
 43
0.00000001
 40
0.0
 40
0.0
 40
0.0
 40
0.0
 40
0.2499999999999997
 40
0.2499999999999997
 40
0.4999999999999998
 40
0.4999999999999998
 40
0.7499999999999999
 40
0.7499999999999999
 40
1.0
 40
1.0
 40
1.0
 40
1.0
 10
10.70702499256186
 20
5.005653654113107
 30
0.0
 10
10.78855234824912
 20
5.016964863731275
 30
0.0
 10
10.87302861503081
 20
5.011687312278333
 30
0.0
 10
11.04861524607384
 20
4.974436969782743
 30
0.0
 10
11.13897822186672
 20
4.942202671818831
 30
0.0
 10
11.31933170857424
 20
4.854972072945626
 30
0.0
 10
11.40708626167679
 20
4.801335926009436
 30
0.0
 10
11.5787298796436
 20
4.675260165438901
 30
0.0
 10
11.66349275725725
 20
4.601945657242899
 30
0.0
 10
11.74224394801938
 20
4.521132882810884
 30
0.0
  0
SPLINE
  5
172
330
1F
100
AcDbEntity
  8
외형선
  6
Continuous
 62
     1
370
    15
100
AcDbSpline
210
0.0
220
0.0
230
1.0
 70
     8
 71
     3
 72
     8
 73
     4
 74
     0
 42
0.000000001
 43
0.00000001
 40
0.0
 40
0.0
 40
0.0
 40
0.0
 40
1.0
 40
1.0
 40
1.0
 40
1.0
 10
11.74224394801938
 20
4.521132882810886
 30
0.0
 10
11.82222590790093
 20
4.439057119638481
 30
0.0
 10
11.92435304779068
 20
4.387261570339771
 30
0.0
 10
12.00666840390406
 20
4.387301525773906
 30
0.0
  0
SPLINE
  5
173
330
1F
100
AcDbEntity
  8
외형선
  6
Continuous
 62
     1
370
    15
100
AcDbSpline
210
0.0
220
0.0
230
1.0
 70
     8
 71
     3
 72
     8
 73
     4
 74
     0
 42
0.000000001
 43
0.00000001
 40
0.0
 40
0.0
 40
0.0
 40
0.0
 40
1.0
 40
1.0
 40
1.0
 40
1.0
 10
12.00666840390406
 20
4.387301525773913
 30
0.0
 10
12.13544715804087
 20
4.387364034293244
 30
0.0
 10
12.27642295830111
 20
4.34745404137526
 30
0.0
 10
12.41965106075174
 20
4.280442535033338
 30
0.0
  0
SPLINE
  5
174
330
1F
100
AcDbEntity
  8
외형선
  6
Continuous
 62
     1
370
    15
100
AcDbSpline
210
0.0
220
0.0
230
1.0
 70
     8
 71
     3
 72
     8
 73
     4
 74
     0
 42
0.000000001
 43
0.00000001
 40
0.0
 40
0.0
 40
0.0
 40
0.0
 40
1.0
 40
1.0
 40
1.0
 40
1.0
 10
12.41965105961779
 20
4.28044253576253
 30
0.0
 10
12.56419899600084
 20
4.1874874952806
 30
0.0
 10
12.70539130974101
 20
4.071374940467881
 30
0.0
 10
12.83153346516395
 20
3.94008149366851
 30
0.0
  0
SPLINE
  5
175
330
1F
100
AcDbEntity
  8
외형선
  6
Continuous
 62
     1
370
    15
100
AcDbSpline
210
0.0
220
0.0
230
1.0
 70
     8
 71
     3
 72
     8
 73
     4
 74
     0
 42
0.000000001
 43
0.00000001
 40
0.0
 40
0.0
 40
0.0
 40
0.0
 40
1.0
 40
1.0
 40
1.0
 40
1.0
 10
12.83153346516394
 20
3.940081493668541
 30
0.0
 10
12.91109109885424
 20
3.857274949643827
 30
0.0
 10
13.01312745093156
 20
3.798653423237072
 30
0.0
 10
13.09577482566533
 20
3.787455839770546
 30
0.0
  0
SPLINE
  5
176
330
1F
100
AcDbEntity
  8
외형선
  6
Continuous
 62
     1
370
    15
100
AcDbSpline
210
0.0
220
0.0
230
1.0
 70
     8
 71
     3
 72
    14
 73
    10
 74
     0
 42
0.000000001
 43
0.00000001
 40
0.0
 40
0.0
 40
0.0
 40
0.0
 40
0.25
 40
0.25
 40
0.5
 40
0.5
 40
0.75
 40
0.75
 40
1.0
 40
1.0
 40
1.0
 40
1.0
 10
13.09577482566535
 20
3.787455839770518
 30
0.0
 10
13.1772173985503
 20
3.776421490397107
 30
0.0
 10
13.26156255470653
 20
3.750910662475425
 30
0.0
 10
13.43678001619979
 20
3.677212433618286
 30
0.0
 10
13.52696867787022
 20
3.629075215671521
 30
0.0
 10
13.70725875149804
 20
3.516191258182164
 30
0.0
 10
13.79505927957245
 20
3.45304671198391
 30
0.0
 10
13.96690751279322
 20
3.314564645546152
 30
0.0
 10
14.05174227121745
 20
3.238325123706566
 30
0.0
 10
14.13051025041433
 20
3.158483998920734
 30
0.0
  0
SPLINE
  5
177
330
1F
100
AcDbEntity
  8
외형선
  6
Continuous
 62
     1
370
    15
100
AcDbSpline
210
0.0
220
0.0
230
1.0
 70
     8
 71
     3
 72
     8
 73
     4
 74
     0
 42
0.000000001
 43
0.00000001
 40
0.0
 40
0.0
 40
0.0
 40
0.0
 40
1.0
 40
1.0
 40
1.0
 40
1.0
 10
14.13051025041434
 20
3.158483998920745
 30
0.0
 10
14.21036637605001
 20
3.077539902642045
 30
0.0
 10
14.31238427122015
 20
3.013499415335365
 30
0.0
 10
14.39451971809205
 20
2.991281053226654
 30
0.0
  0
SPLINE
  5
178
330
1F
100
AcDbEntity
  8
외형선
  6
Continuous
 62
     1
370
    15
100
AcDbSpline
210
0.0
220
0.0
230
1.0
 70
     8
 71
     3
 72
     8
 73
     4
 74
     0
 42
0.000000001
 43
0.00000001
 40
0.0
 40
0.0
 40
0.0
 40
0.0
 40
1.0
 40
1.0
 40
1.0
 40
1.0
 10
14.39451971809204
 20
2.991281053226635
 30
0.0
 10
14.52306445466865
 20
2.956508569321087
 30
0.0
 10
14.66378098029468
 20
2.887598695789525
 30
0.0
 10
14.80667443157219
 20
2.799432537937164
 30
0.0
  0
SPLINE
  5
179
330
1F
100
AcDbEntity
  8
외형선
  6
Continuous
 62
     1
370
    15
100
AcDbSpline
210
0.0
220
0.0
230
1.0
 70
     8
 71
     3
 72
     8
 73
     4
 74
     0
 42
0.000000001
 43
0.00000001
 40
0.0
 40
0.0
 40
0.0
 40
0.0
 40
1.0
 40
1.0
 40
1.0
 40
1.0
 10
14.80667443044034
 20
2.799432538769153
 30
0.0
 10
14.95105565735992
 20
2.693301062813045
 30
0.0
 10
15.09198215020087
 20
2.573085970602592
 30
0.0
 10
15.21785148073276
 20
2.448226747514871
 30
0.0
  0
SPLINE
  5
17A
330
1F
100
AcDbEntity
  8
외형선
  6
Continuous
 62
     1
370
    15
100
AcDbSpline
210
0.0
220
0.0
230
1.0
 70
     8
 71
     3
 72
     8
 73
     4
 74
     0
 42
0.000000001
 43
0.00000001
 40
0.0
 40
0.0
 40
0.0
 40
0.0
 40
1.0
 40
1.0
 40
1.0
 40
1.0
 10
15.21785148073275
 20
2.448226747514869
 30
0.0
 10
15.29728146054279
 20
2.369434197121174
 30
0.0
 10
15.39917050719106
 20
2.300600498744692
 30
0.0
 10
15.48178487440356
 20
2.267744098816149
 30
0.0
  0
SPLINE
  5
17B
330
1F
100
AcDbEntity
  8
외형선
  6
Continuous
 62
     1
370
    15
100
AcDbSpline
210
0.0
220
0.0
230
1.0
 70
     8
 71
     3
 72
    14
 73
    10
 74
     0
 42
0.000000001
 43
0.00000001
 40
0.0
 40
0.0
 40
0.0
 40
0.0
 40
0.25
 40
0.25
 40
0.5
 40
0.5
 40
0.75
 40
0.75
 40
1.0
 40
1.0
 40
1.0
 40
1.0
 10
15.48178487440356
 20
2.267744098816168
 30
0.0
 10
15.56313850105704
 20
2.235389105572818
 30
0.0
 10
15.64745931685946
 20
2.191919436199896
 30
0.0
 10
15.82280712576932
 20
2.088324162782311
 30
0.0
 10
15.91310862809604
 20
2.028402257344979
 30
0.0
 10
16.09348083885247
 20
1.899120707866031
 30
0.0
 10
16.18128836020494
 20
1.831511102104183
 30
0.0
 10
16.35309840687609
 20
1.691558848642819
 30
0.0
 10
16.43788259138161
 20
1.618445701372984
 30
0.0
 10
16.51660292788631
 20
1.545921271234306
 30
0.0
  0
SPLINE
  5
17C
330
1F
100
AcDbEntity
  8
외형선
  6
Continuous
 62
     1
370
    15
100
AcDbSpline
210
0.0
220
0.0
230
1.0
 70
     8
 71
     3
 72
     8
 73
     4
 74
     0
 42
0.000000001
 43
0.00000001
 40
0.0
 40
0.0
 40
0.0
 40
0.0
 40
1.0
 40
1.0
 40
1.0
 40
1.0
 10
16.5166029278863
 20
1.545921271234298
 30
0.0
 10
16.59656533057977
 20
1.472252535233444
 30
0.0
 10
16.69864724914992
 20
1.400778784112721
 30
0.0
 10
16.78085468927625
 20
1.357773168662926
 30
0.0
  0
SPLINE
  5
17D
330
1F
100
AcDbEntity
  8
외형선
  6
Continuous
 62
     1
370
    15
100
AcDbSpline
210
0.0
220
0.0
230
1.0
 70
     8
 71
     3
 72
     8
 73
     4
 74
     0
 42
0.000000001
 43
0.00000001
 40
0.0
 40
0.0
 40
0.0
 40
0.0
 40
1.0
 40
1.0
 40
1.0
 40
1.0
 10
16.78085468927624
 20
1.35777316866291
 30
0.0
 10
16.90965831154393
 20
1.290391444584492
 30
0.0
 10
17.05053582377518
 20
1.19724810625097
 30
0.0
 10
17.1935402431396
 20
1.094338340194948
 30
0.0
  0
SPLINE
  5
17E
330
1F
100
AcDbEntity
  8
외형선
  6
Continuous
 62
     1
370
    15
100
AcDbSpline
210
0.0
220
0.0
230
1.0
 70
     8
 71
     3
 72
     8
 73
     4
 74
     0
 42
0.000000001
 43
0.00000001
 40
0.0
 40
0.0
 40
0.0
 40
0.0
 40
1.0
 40
1.0
 40
1.0
 40
1.0
 10
17.19354024200619
 20
1.094338341068459
 30
0.0
 10
17.33798278598123
 20
0.9830174606261209
 30
0.0
 10
17.4792514234008
 20
0.8682076733589227
 30
0.0
 10
17.60557112692791
 20
0.7598678359720048
 30
0.0
  0
SPLINE
  5
17F
330
1F
100
AcDbEntity
  8
외형선
  6
Continuous
 62
     1
370
    15
100
AcDbSpline
210
0.0
220
0.0
230
1.0
 70
     8
 71
     3
 72
     8
 73
     4
 74
     0
 42
0.000000001
 43
0.00000001
 40
0.0
 40
0.0
 40
0.0
 40
0.0
 40
1.0
 40
1.0
 40
1.0
 40
1.0
 10
17.60557112692793
 20
0.7598678359719248
 30
0.0
 10
17.68515697401624
 20
0.6916099356515955
 30
0.0
 10
17.7872588064472
 20
0.6184573502593828
 30
0.0
 10
17.87000904432305
 20
0.566671863798759
 30
0.0
  0
SPLINE
  5
180
330
1F
100
AcDbEntity
  8
외형선
  6
Continuous
 62
     1
370
    15
100
AcDbSpline
210
0.0
220
0.0
230
1.0
 70
     8
 71
     3
 72
     8
 73
     4
 74
     0
 42
0.000000001
 43
0.00000001
 40
0.0
 40
0.0
 40
0.0
 40
0.0
 40
1.0
 40
1.0
 40
1.0
 40
1.0
 10
18.90534506776768
 20
-0.1923612793102258
 30
0.0
 10
18.98525045249709
 20
-0.2529499517371515
 30
0.0
 10
19.08718916108479
 20
-0.3263715585167101
 30
0.0
 10
19.169362086431
 20
-0.3867390951906909
 30
0.0
  0
SPLINE
  5
181
330
1F
100
AcDbEntity
  8
외형선
  6
Continuous
 62
     1
370
    15
100
AcDbSpline
210
0.0
220
0.0
230
1.0
 70
     8
 71
     3
 72
     8
 73
     4
 74
     0
 42
0.000000001
 43
0.00000001
 40
0.0
 40
0.0
 40
0.0
 40
0.0
 40
1.0
 40
1.0
 40
1.0
 40
1.0
 10
19.169362086431
 20
-0.3867390951906939
 30
0.0
 10
19.29783861071956
 20
-0.4811231183839411
 30
0.0
 10
19.43852166077735
 20
-0.5902478349083333
 30
0.0
 10
19.58153903543053
 20
-0.6986953585093568
 30
0.0
  0
SPLINE
  5
182
330
1F
100
AcDbEntity
  8
외형선
  6
Continuous
 62
     1
370
    15
100
AcDbSpline
210
0.0
220
0.0
230
1.0
 70
     8
 71
     3
 72
     8
 73
     4
 74
     0
 42
0.000000001
 43
0.00000001
 40
0.0
 40
0.0
 40
0.0
 40
0.0
 40
1.0
 40
1.0
 40
1.0
 40
1.0
 10
19.99278146274025
 20
-0.9875250984945029
 30
0.0
 10
20.0722182407861
 20
-1.039706737568322
 30
0.0
 10
20.17418669695522
 20
-1.11139319507532
 30
0.0
 10
20.25675233069886
 20
-1.177932555676916
 30
0.0
  0
SPLINE
  5
183
330
1F
100
AcDbEntity
  8
외형선
  6
Continuous
 62
     1
370
    15
100
AcDbSpline
210
0.0
220
0.0
230
1.0
 70
     8
 71
     3
 72
     8
 73
     4
 74
     0
 42
0.000000001
 43
0.00000001
 40
0.0
 40
0.0
 40
0.0
 40
0.0
 40
1.0
 40
1.0
 40
1.0
 40
1.0
 10
21.29114263769333
 20
-1.914060986626643
 30
0.0
 10
21.37101842908458
 20
-1.956453887454945
 30
0.0
 10
21.47305578553848
 20
-2.025367587449946
 30
0.0
 10
21.55525309817585
 20
-2.097914539465088
 30
0.0
  0
SPLINE
  5
184
330
1F
100
AcDbEntity
  8
외형선
  6
Continuous
 62
     1
370
    15
100
AcDbSpline
210
0.0
220
0.0
230
1.0
 70
     8
 71
     3
 72
     8
 73
     4
 74
     0
 42
0.000000001
 43
0.00000001
 40
0.0
 40
0.0
 40
0.0
 40
0.0
 40
1.0
 40
1.0
 40
1.0
 40
1.0
 10
22.37955112492756
 20
-2.655924538205914
 30
0.0
 10
22.45917375438258
 20
-2.688284840802448
 30
0.0
 10
22.5612615938149
 20
-2.753218326330317
 30
0.0
 10
22.64397823212768
 20
-2.829632915779851
 30
0.0
  0
SPLINE
  5
185
330
1F
100
AcDbEntity
  8
외형선
  6
Continuous
 62
     1
370
    15
100
AcDbSpline
210
0.0
220
0.0
230
1.0
 70
     8
 71
     3
 72
     8
 73
     4
 74
     0
 42
0.000000001
 43
0.00000001
 40
0.0
 40
0.0
 40
0.0
 40
0.0
 40
1.0
 40
1.0
 40
1.0
 40
1.0
 10
23.67989654206414
 20
-3.483910830811756
 30
0.0
 10
23.75982470100686
 20
-3.504760799509272
 30
0.0
 10
23.86189995029163
 20
-3.563908142817591
 30
0.0
 10
23.94409606042624
 20
-3.643054812274082
 30
0.0
  0
SPLINE
  5
186
330
1F
100
AcDbEntity
  8
외형선
  6
Continuous
 62
     1
370
    15
100
AcDbSpline
210
0.0
220
0.0
230
1.0
 70
     8
 71
     3
 72
     8
 73
     4
 74
     0
 42
0.000000001
 43
0.00000001
 40
0.0
 40
0.0
 40
0.0
 40
0.0
 40
1.0
 40
1.0
 40
1.0
 40
1.0
 10
24.76769622427306
 20
-4.114484593103042
 30
0.0
 10
24.84709875478348
 20
-4.124285523667781
 30
0.0
 10
24.94902692687744
 20
-4.176957198284508
 30
0.0
 10
25.03163892389961
 20
-4.256757646842806
 30
0.0
  0
SPLINE
  5
187
330
1F
100
AcDbEntity
  8
외형선
  6
Continuous
 62
     1
370
    15
100
AcDbSpline
210
0.0
220
0.0
230
1.0
 70
     8
 71
     3
 72
    14
 73
    10
 74
     0
 42
0.000000001
 43
0.00000001
 40
0.0
 40
0.0
 40
0.0
 40
0.0
 40
0.25
 40
0.25
 40
0.5
 40
0.5
 40
0.75
 40
0.75
 40
1.0
 40
1.0
 40
1.0
 40
1.0
 10
25.03163892389962
 20
-4.256757646842803
 30
0.0
 10
25.11297370887795
 20
-4.335324350936893
 30
0.0
 10
25.19727355063839
 20
-4.406611996211788
 30
0.0
 10
25.37257243911106
 20
-4.535189988315528
 30
0.0
 10
25.46284394345663
 20
-4.591659142647757
 30
0.0
 10
25.64314868916032
 20
-4.68376017109919
 30
0.0
 10
25.73091399524555
 20
-4.718464191319475
 30
0.0
 10
25.90262399960618
 20
-4.764968129614823
 30
0.0
 10
25.98735288017187
 20
-4.776580688063994
 30
0.0
 10
26.06601131367534
 20
-4.774391526174602
 30
0.0
  0
SPLINE
  5
188
330
1F
100
AcDbEntity
  8
외형선
  6
Continuous
 62
     1
370
    15
100
AcDbSpline
210
0.0
220
0.0
230
1.0
 70
     8
 71
     3
 72
     8
 73
     4
 74
     0
 42
0.000000001
 43
0.00000001
 40
0.0
 40
0.0
 40
0.0
 40
0.0
 40
1.0
 40
1.0
 40
1.0
 40
1.0
 10
26.06601131367544
 20
-4.77439152617481
 30
0.0
 10
26.14589792376665
 20
-4.772168182605719
 30
0.0
 10
26.24790305969866
 20
-4.817018841521967
 30
0.0
 10
26.33002475673411
 20
-4.896547326103025
 30
0.0
  0
SPLINE
  5
189
330
1F
100
AcDbEntity
  8
외형선
  6
Continuous
 62
     1
370
    15
100
AcDbSpline
210
0.0
220
0.0
230
1.0
 70
     8
 71
     3
 72
     8
 73
     4
 74
     0
 42
0.000000001
 43
0.00000001
 40
0.0
 40
0.0
 40
0.0
 40
0.0
 40
1.0
 40
1.0
 40
1.0
 40
1.0
 10
26.33002475673396
 20
-4.896547326102882
 30
0.0
 10
26.45867014544098
 20
-5.021130392229654
 30
0.0
 10
26.59930822951224
 20
-5.125437212339782
 30
0.0
 10
26.74225669188367
 20
-5.201795945946703
 30
0.0
  0
SPLINE
  5
18A
330
1F
100
AcDbEntity
  8
외형선
  6
Continuous
 62
     1
370
    15
100
AcDbSpline
210
0.0
220
0.0
230
1.0
 70
     8
 71
     3
 72
     8
 73
     4
 74
     0
 42
0.000000001
 43
0.00000001
 40
0.0
 40
0.0
 40
0.0
 40
0.0
 40
1.0
 40
1.0
 40
1.0
 40
1.0
 10
26.74225669075041
 20
-5.201795945569631
 30
0.0
 10
26.88655011498994
 20
-5.249773921763826
 30
0.0
 10
27.02763368440368
 20
-5.265373125089841
 30
0.0
 10
27.15375923867697
 20
-5.243601832589055
 30
0.0
  0
SPLINE
  5
18B
330
1F
100
AcDbEntity
  8
외형선
  6
Continuous
 62
     1
370
    15
100
AcDbSpline
210
0.0
220
0.0
230
1.0
 70
     8
 71
     3
 72
     8
 73
     4
 74
     0
 42
0.000000001
 43
0.00000001
 40
0.0
 40
0.0
 40
0.0
 40
0.0
 40
1.0
 40
1.0
 40
1.0
 40
1.0
 10
27.15375923867697
 20
-5.243601832589046
 30
0.0
 10
27.23328031216152
 20
-5.229875220557219
 30
0.0
 10
27.3353340521708
 20
-5.266068620294569
 30
0.0
 10
27.41802363975726
 20
-5.342929485214833
 30
0.0
  0
SPLINE
  5
18C
330
1F
100
AcDbEntity
  8
외형선
  6
Continuous
 62
     1
370
    15
100
AcDbSpline
210
0.0
220
0.0
230
1.0
 70
     8
 71
     3
 72
    14
 73
    10
 74
     0
 42
0.000000001
 43
0.00000001
 40
0.0
 40
0.0
 40
0.0
 40
0.0
 40
0.25
 40
0.25
 40
0.5
 40
0.5
 40
0.75
 40
0.75
 40
1.0
 40
1.0
 40
1.0
 40
1.0
 10
27.41802363975725
 20
-5.342929485214836
 30
0.0
 10
27.49959429999616
 20
-5.418750295078282
 30
0.0
 10
27.58412260437826
 20
-5.483165418033028
 30
0.0
 10
27.75983819403544
 20
-5.591571911057451
 30
0.0
 10
27.85028847525043
 20
-5.634724430219588
 30
0.0
 10
28.03085867993676
 20
-5.695421261247588
 30
0.0
 10
28.1187410865443
 20
-5.712509705614032
 30
0.0
 10
28.29066207839891
 20
-5.720282549860354
 30
0.0
 10
28.37546903406945
 20
-5.71052517729837
 30
0.0
 10
28.45420040381697
 20
-5.685893652446246
 30
0.0
  0
SPLINE
  5
18D
330
1F
100
AcDbEntity
  8
외형선
  6
Continuous
 62
     1
370
    15
100
AcDbSpline
210
0.0
220
0.0
230
1.0
 70
     8
 71
     3
 72
     8
 73
     4
 74
     0
 42
0.000000001
 43
0.00000001
 40
0.0
 40
0.0
 40
0.0
 40
0.0
 40
1.0
 40
1.0
 40
1.0
 40
1.0
 10
28.45420040381696
 20
-5.685893652446253
 30
0.0
 10
28.53417553260638
 20
-5.660873011008848
 30
0.0
 10
28.63621293660518
 20
-5.687786334953193
 30
0.0
 10
28.71850202762499
 20
-5.761390264536137
 30
0.0
  0
SPLINE
  5
18E
330
1F
100
AcDbEntity
  8
외형선
  6
Continuous
 62
     1
370
    15
100
AcDbSpline
210
0.0
220
0.0
230
1.0
 70
     8
 71
     3
 72
     8
 73
     4
 74
     0
 42
0.000000001
 43
0.00000001
 40
0.0
 40
0.0
 40
0.0
 40
0.0
 40
1.0
 40
1.0
 40
1.0
 40
1.0
 10
28.71850202762499
 20
-5.761390264536137
 30
0.0
 10
28.84711040519639
 20
-5.876424734466822
 30
0.0
 10
28.98791333098676
 20
-5.961378431899038
 30
0.0
 10
29.13103303207609
 20
-6.012868043595442
 30
0.0
  0
SPLINE
  5
18F
330
1F
100
AcDbEntity
  8
외형선
  6
Continuous
 62
     1
370
    15
100
AcDbSpline
210
0.0
220
0.0
230
1.0
 70
     8
 71
     3
 72
     8
 73
     4
 74
     0
 42
0.000000001
 43
0.00000001
 40
0.0
 40
0.0
 40
0.0
 40
0.0
 40
1.0
 40
1.0
 40
1.0
 40
1.0
 10
29.13103303094357
 20
-6.01286804345493
 30
0.0
 10
29.27541010724729
 20
-6.030780598781634
 30
0.0
 10
29.41648147045951
 20
-6.012334288800095
 30
0.0
 10
29.54251942643661
 20
-5.955168660740371
 30
0.0
  0
SPLINE
  5
190
330
1F
100
AcDbEntity
  8
외형선
  6
Continuous
 62
     1
370
    15
100
AcDbSpline
210
0.0
220
0.0
230
1.0
 70
     8
 71
     3
 72
     8
 73
     4
 74
     0
 42
0.000000001
 43
0.00000001
 40
0.0
 40
0.0
 40
0.0
 40
0.0
 40
1.0
 40
1.0
 40
1.0
 40
1.0
 10
29.5425194264366
 20
-5.955168660740364
 30
0.0
 10
29.62199316778222
 20
-5.919122643466781
 30
0.0
 10
29.72398610277743
 20
-5.936041022451505
 30
0.0
 10
29.80657752681395
 20
-6.003910027897001
 30
0.0
  0
SPLINE
  5
191
330
1F
100
AcDbEntity
  8
외형선
  6
Continuous
 62
     1
370
    15
100
AcDbSpline
210
0.0
220
0.0
230
1.0
 70
     8
 71
     3
 72
    14
 73
    10
 74
     0
 42
0.000000001
 43
0.00000001
 40
0.0
 40
0.0
 40
0.0
 40
0.0
 40
0.25
 40
0.25
 40
0.5
 40
0.5
 40
0.75
 40
0.75
 40
1.0
 40
1.0
 40
1.0
 40
1.0
 10
29.80657752681395
 20
-6.003910027897001
 30
0.0
 10
29.88803079080776
 20
-6.070843757179903
 30
0.0
 10
29.97241756917324
 20
-6.123190034782895
 30
0.0
 10
30.1477911024692
 20
-6.202676572244477
 30
0.0
 10
30.23802849673414
 20
-6.229030140094341
 30
0.0
 10
30.41813455665519
 20
-6.253382122140649
 30
0.0
 10
30.50576689974116
 20
-6.251408200625203
 30
0.0
 10
30.67740591940096
 20
-6.219499349698131
 30
0.0
 10
30.76215694910168
 20
-6.188908195084432
 30
0.0
 10
30.8408636464548
 20
-6.143498350456556
 30
0.0
  0
SPLINE
  5
192
330
1F
100
AcDbEntity
  8
외형선
  6
Continuous
 62
     1
370
    15
100
AcDbSpline
210
0.0
220
0.0
230
1.0
 70
     8
 71
     3
 72
     8
 73
     4
 74
     0
 42
0.000000001
 43
0.00000001
 40
0.0
 40
0.0
 40
0.0
 40
0.0
 40
1.0
 40
1.0
 40
1.0
 40
1.0
 10
30.8408636464548
 20
-6.143498350456556
 30
0.0
 10
30.92069703281964
 20
-6.097438462380199
 30
0.0
 10
31.02269839164807
 20
-6.104124243164861
 30
0.0
 10
31.10484139452531
 20
-6.16571625290079
 30
0.0
  0
SPLINE
  5
193
330
1F
100
AcDbEntity
  8
외형선
  6
Continuous
 62
     1
370
    15
100
AcDbSpline
210
0.0
220
0.0
230
1.0
 70
     8
 71
     3
 72
     8
 73
     4
 74
     0
 42
0.000000001
 43
0.00000001
 40
0.0
 40
0.0
 40
0.0
 40
0.0
 40
1.0
 40
1.0
 40
1.0
 40
1.0
 10
31.10484139452532
 20
-6.165716252900792
 30
0.0
 10
31.23336493266769
 20
-6.262085057732416
 30
0.0
 10
31.37408920312777
 20
-6.321069552064064
 30
0.0
 10
31.51704602064293
 20
-6.34377542204505
 30
0.0
  0
SPLINE
  5
194
330
1F
100
AcDbEntity
  8
외형선
  6
Continuous
 62
     1
370
    15
100
AcDbSpline
210
0.0
220
0.0
230
1.0
 70
     8
 71
     3
 72
    10
 73
     6
 74
     0
 42
0.000000001
 43
0.00000001
 40
0.0
 40
0.0
 40
0.0
 40
0.0
 40
0.4393353565020149
 40
0.8816969577226627
 40
1.0
 40
1.0
 40
1.0
 40
1.0
 10
31.51704602064294
 20
-6.343775422045058
 30
0.0
 10
31.54546102480876
 20
-6.340211328736303
 30
0.0
 10
31.60248676233681
 20
-6.333058591810262
 30
0.0
 10
31.66635710676383
 20
-6.31765505524115
 30
0.0
 10
31.70129014947945
 20
-6.305110833221397
 30
0.0
 10
31.70866119610632
 20
-6.302463939672555
 30
0.0
  0
SPLINE
  5
195
330
1F
100
AcDbEntity
  8
외형선
  6
Continuous
 62
     1
370
    15
100
AcDbSpline
210
0.0
220
0.0
230
1.0
 70
     8
 71
     3
 72
    10
 73
     6
 74
     0
 42
0.000000001
 43
0.00000001
 40
0.0
 40
0.0
 40
0.0
 40
0.0
 40
0.0489332411065644
 40
0.5233498124327838
 40
0.9999999999999999
 40
0.9999999999999999
 40
0.9999999999999999
 40
0.9999999999999999
 10
26.38488425445636
 20
-4.947315424600146
 30
0.0
 10
26.38254000988872
 20
-4.949003604510743
 30
0.0
 10
26.35746789271387
 20
-4.967058992210069
 30
0.0
 10
26.30875844179624
 20
-4.998173538465877
 30
0.0
 10
26.26220538086261
 20
-5.025094128994726
 30
0.0
 10
26.23887418458396
 20
-5.038586036271483
 30
0.0
  0
SPLINE
  5
196
330
1F
100
AcDbEntity
  8
외형선
  6
Continuous
 62
     1
370
    15
100
AcDbSpline
210
0.0
220
0.0
230
1.0
 70
     8
 71
     3
 72
     8
 73
     4
 74
     0
 42
0.000000001
 43
0.00000001
 40
0.0
 40
0.0
 40
0.0
 40
0.0
 40
1.0
 40
1.0
 40
1.0
 40
1.0
 10
26.23887418592854
 20
-5.038586035785352
 30
0.0
 10
26.09456086236282
 20
-5.090712136529247
 30
0.0
 10
25.9535078241217
 20
-5.111365567550369
 30
0.0
 10
25.82746686525621
 20
-5.095170050332605
 30
0.0
  0
SPLINE
  5
197
330
1F
100
AcDbEntity
  8
외형선
  6
Continuous
 62
     1
370
    15
100
AcDbSpline
210
0.0
220
0.0
230
1.0
 70
     8
 71
     3
 72
     8
 73
     4
 74
     0
 42
0.000000001
 43
0.00000001
 40
0.0
 40
0.0
 40
0.0
 40
0.0
 40
1.0
 40
1.0
 40
1.0
 40
1.0
 10
25.82746686525621
 20
-5.095170050332603
 30
0.0
 10
25.74801343550225
 20
-5.084960754868867
 30
0.0
 10
25.64602597593843
 20
-5.123847149385092
 30
0.0
 10
25.56343448426655
 20
-5.201510072230013
 30
0.0
  0
SPLINE
  5
198
330
1F
100
AcDbEntity
  8
외형선
  6
Continuous
 62
     1
370
    15
100
AcDbSpline
210
0.0
220
0.0
230
1.0
 70
     8
 71
     3
 72
    14
 73
    10
 74
     0
 42
0.000000001
 43
0.00000001
 40
0.0
 40
0.0
 40
0.0
 40
0.0
 40
0.25
 40
0.25
 40
0.5
 40
0.5
 40
0.75
 40
0.75
 40
1.0
 40
1.0
 40
1.0
 40
1.0
 10
25.56343448426656
 20
-5.201510072230014
 30
0.0
 10
25.4819818629645
 20
-5.278102085712832
 30
0.0
 10
25.39758151892271
 20
-5.343899005721939
 30
0.0
 10
25.22214442924961
 20
-5.45600439004969
 30
0.0
 10
25.1318530678645
 20
-5.501466659098841
 30
0.0
 10
24.95162419501272
 20
-5.567417911922312
 30
0.0
 10
24.86393542861279
 20
-5.58736672259271
 30
0.0
 10
24.69243372102014
 20
-5.601317385893195
 30
0.0
 10
24.6078003731747
 20
-5.594884026558597
 30
0.0
 10
24.52915839578804
 20
-5.573568262252818
 30
0.0
  0
SPLINE
  5
199
330
1F
100
AcDbEntity
  8
외형선
  6
Continuous
 62
     1
370
    15
100
AcDbSpline
210
0.0
220
0.0
230
1.0
 70
     8
 71
     3
 72
     8
 73
     4
 74
     0
 42
0.000000001
 43
0.00000001
 40
0.0
 40
0.0
 40
0.0
 40
0.0
 40
1.0
 40
1.0
 40
1.0
 40
1.0
 10
24.52915839578803
 20
-5.573568262252831
 30
0.0
 10
24.44933348051177
 20
-5.551931864793091
 30
0.0
 10
24.34734666427768
 20
-5.581708566148687
 30
0.0
 10
24.26518884047492
 20
-5.65652835037098
 30
0.0
  0
SPLINE
  5
19A
330
1F
100
AcDbEntity
  8
외형선
  6
Continuous
 62
     1
370
    15
100
AcDbSpline
210
0.0
220
0.0
230
1.0
 70
     8
 71
     3
 72
     8
 73
     4
 74
     0
 42
0.000000001
 43
0.00000001
 40
0.0
 40
0.0
 40
0.0
 40
0.0
 40
1.0
 40
1.0
 40
1.0
 40
1.0
 10
24.26518884047491
 20
-5.656528350370981
 30
0.0
 10
24.13667823342742
 20
-5.773560854939902
 30
0.0
 10
23.99595566917609
 20
-5.861876174611448
 30
0.0
 10
23.85296032221688
 20
-5.917446856877207
 30
0.0
  0
SPLINE
  5
19B
330
1F
100
AcDbEntity
  8
외형선
  6
Continuous
 62
     1
370
    15
100
AcDbSpline
210
0.0
220
0.0
230
1.0
 70
     8
 71
     3
 72
     8
 73
     4
 74
     0
 42
0.000000001
 43
0.00000001
 40
0.0
 40
0.0
 40
0.0
 40
0.0
 40
1.0
 40
1.0
 40
1.0
 40
1.0
 10
23.85296032355294
 20
-5.917446856667545
 30
0.0
 10
23.70856561347232
 20
-5.940105296116767
 30
0.0
 10
23.56753346801563
 20
-5.926850188388704
 30
0.0
 10
23.44153397854062
 20
-5.874980958973992
 30
0.0
  0
SPLINE
  5
19C
330
1F
100
AcDbEntity
  8
외형선
  6
Continuous
 62
     1
370
    15
100
AcDbSpline
210
0.0
220
0.0
230
1.0
 70
     8
 71
     3
 72
     8
 73
     4
 74
     0
 42
0.000000001
 43
0.00000001
 40
0.0
 40
0.0
 40
0.0
 40
0.0
 40
1.0
 40
1.0
 40
1.0
 40
1.0
 10
23.44153397854059
 20
-5.874980958973985
 30
0.0
 10
23.36201500960182
 20
-5.842246003777803
 30
0.0
 10
23.26000150464952
 20
-5.862335200519673
 30
0.0
 10
23.17737896424229
 20
-5.931999450311069
 30
0.0
  0
SPLINE
  5
19D
330
1F
100
AcDbEntity
  8
외형선
  6
Continuous
 62
     1
370
    15
100
AcDbSpline
210
0.0
220
0.0
230
1.0
 70
     8
 71
     3
 72
    14
 73
    10
 74
     0
 42
0.000000001
 43
0.00000001
 40
0.0
 40
0.0
 40
0.0
 40
0.0
 40
0.25
 40
0.25
 40
0.5
 40
0.5
 40
0.75
 40
0.75
 40
1.0
 40
1.0
 40
1.0
 40
1.0
 10
23.17737896424228
 20
-5.931999450311072
 30
0.0
 10
23.09584624312646
 20
-6.000744805053123
 30
0.0
 10
23.01139805221827
 20
-6.05529574799923
 30
0.0
 10
22.83595191145012
 20
-6.139816700915959
 30
0.0
 10
22.74569764263093
 20
-6.168998312061081
 30
0.0
 10
22.56527073828357
 20
-6.199218921927224
 30
0.0
 10
22.47738976252113
 20
-6.200203669856445
 30
0.0
 10
22.30535459378585
 20
-6.174312586866274
 30
0.0
 10
22.2204218958753
 20
-6.146813600642522
 30
0.0
 10
22.14154153020801
 20
-6.104401363927761
 30
0.0
  0
SPLINE
  5
19E
330
1F
100
AcDbEntity
  8
외형선
  6
Continuous
 62
     1
370
    15
100
AcDbSpline
210
0.0
220
0.0
230
1.0
 70
     8
 71
     3
 72
     8
 73
     4
 74
     0
 42
0.000000001
 43
0.00000001
 40
0.0
 40
0.0
 40
0.0
 40
0.0
 40
1.0
 40
1.0
 40
1.0
 40
1.0
 10
22.14154153020803
 20
-6.104401363927775
 30
0.0
 10
22.06151625607896
 20
-6.061373535128887
 30
0.0
 10
21.95935408996331
 20
-6.071228396918793
 30
0.0
 10
21.87705144862131
 20
-6.135029501615847
 30
0.0
  0
SPLINE
  5
19F
330
1F
100
AcDbEntity
  8
외형선
  6
Continuous
 62
     1
370
    15
100
AcDbSpline
210
0.0
220
0.0
230
1.0
 70
     8
 71
     3
 72
     8
 73
     4
 74
     0
 42
0.000000001
 43
0.00000001
 40
0.0
 40
0.0
 40
0.0
 40
0.0
 40
1.0
 40
1.0
 40
1.0
 40
1.0
 10
21.87705144862131
 20
-6.135029501615845
 30
0.0
 10
21.7483046668071
 20
-6.234834158817598
 30
0.0
 10
21.60740390367572
 20
-6.298175202902433
 30
0.0
 10
21.46432176529157
 20
-6.325499310496744
 30
0.0
  0
SPLINE
  5
1A0
330
1F
100
AcDbEntity
  8
외형선
  6
Continuous
 62
     1
370
    15
100
AcDbSpline
210
0.0
220
0.0
230
1.0
 70
     8
 71
     3
 72
     8
 73
     4
 74
     0
 42
0.000000001
 43
0.00000001
 40
0.0
 40
0.0
 40
0.0
 40
0.0
 40
1.0
 40
1.0
 40
1.0
 40
1.0
 10
21.46432176662896
 20
-6.325499310575547
 30
0.0
 10
21.3198176104681
 20
-6.316992732010525
 30
0.0
 10
21.17875079558211
 20
-6.270949732715843
 30
0.0
 10
21.05274691574011
 20
-6.187425077802491
 30
0.0
  0
SPLINE
  5
1A1
330
1F
100
AcDbEntity
  8
외형선
  6
Continuous
 62
     1
370
    15
100
AcDbSpline
210
0.0
220
0.0
230
1.0
 70
     8
 71
     3
 72
     8
 73
     4
 74
     0
 42
0.000000001
 43
0.00000001
 40
0.0
 40
0.0
 40
0.0
 40
0.0
 40
1.0
 40
1.0
 40
1.0
 40
1.0
 10
21.05274691574011
 20
-6.187425077802486
 30
0.0
 10
20.97325010116206
 20
-6.134728732160844
 30
0.0
 10
20.87133385483367
 20
-6.134228825728516
 30
0.0
 10
20.78868164506373
 20
-6.190279961943434
 30
0.0
  0
SPLINE
  5
1A2
330
1F
100
AcDbEntity
  8
외형선
  6
Continuous
 62
     1
370
    15
100
AcDbSpline
210
0.0
220
0.0
230
1.0
 70
     8
 71
     3
 72
    14
 73
    10
 74
     0
 42
0.000000001
 43
0.00000001
 40
0.0
 40
0.0
 40
0.0
 40
0.0
 40
0.25
 40
0.25
 40
0.5
 40
0.5
 40
0.75
 40
0.75
 40
1.0
 40
1.0
 40
1.0
 40
1.0
 10
20.78868164506375
 20
-6.19027996194341
 30
0.0
 10
20.70735071279981
 20
-6.245435065182651
 30
0.0
 10
20.6230584663818
 20
-6.284250325762182
 30
0.0
 10
20.44777519356725
 20
-6.334205229905371
 30
0.0
 10
20.35750355535728
 20
-6.344664890989989
 30
0.0
 10
20.17717280296287
 20
-6.336590222460347
 30
0.0
 10
20.08938602838289
 20
-6.318496852458201
 30
0.0
 10
19.91762079668881
 20
-6.254923864040136
 30
0.0
 10
19.83285582755897
 20
-6.208633791143146
 30
0.0
 10
19.75416481601335
 20
-6.148579327463064
 30
0.0
  0
SPLINE
  5
1A3
330
1F
100
AcDbEntity
  8
외형선
  6
Continuous
 62
     1
370
    15
100
AcDbSpline
210
0.0
220
0.0
230
1.0
 70
     8
 71
     3
 72
     8
 73
     4
 74
     0
 42
0.000000001
 43
0.00000001
 40
0.0
 40
0.0
 40
0.0
 40
0.0
 40
1.0
 40
1.0
 40
1.0
 40
1.0
 10
19.75416481601335
 20
-6.148579327463064
 30
0.0
 10
19.67430029940919
 20
-6.087629282247907
 30
0.0
 10
19.57230128364393
 20
-6.076872747547212
 30
0.0
 10
19.49019324345981
 20
-6.12453230525884
 30
0.0
  0
SPLINE
  5
1A4
330
1F
100
AcDbEntity
  8
외형선
  6
Continuous
 62
     1
370
    15
100
AcDbSpline
210
0.0
220
0.0
230
1.0
 70
     8
 71
     3
 72
     8
 73
     4
 74
     0
 42
0.000000001
 43
0.00000001
 40
0.0
 40
0.0
 40
0.0
 40
0.0
 40
1.0
 40
1.0
 40
1.0
 40
1.0
 10
19.49019324345984
 20
-6.124532305258821
 30
0.0
 10
19.36159789180028
 20
-6.199175392222338
 30
0.0
 10
19.22088734690925
 20
-6.232419552135458
 30
0.0
 10
19.07809493480696
 20
-6.229190124110255
 30
0.0
  0
SPLINE
  5
1A5
330
1F
100
AcDbEntity
  8
외형선
  6
Continuous
 62
     1
370
    15
100
AcDbSpline
210
0.0
220
0.0
230
1.0
 70
     8
 71
     3
 72
     8
 73
     4
 74
     0
 42
0.000000001
 43
0.00000001
 40
0.0
 40
0.0
 40
0.0
 40
0.0
 40
1.0
 40
1.0
 40
1.0
 40
1.0
 10
19.07809493614913
 20
-6.229190124473836
 30
0.0
 10
18.93389186714587
 20
-6.190084672031664
 30
0.0
 10
18.79292078529691
 20
-6.114839759209996
 30
0.0
 10
18.66687439922013
 20
-6.006230940600199
 30
0.0
  0
SPLINE
  5
1A6
330
1F
100
AcDbEntity
  8
외형선
  6
Continuous
 62
     1
370
    15
100
AcDbSpline
210
0.0
220
0.0
230
1.0
 70
     8
 71
     3
 72
     8
 73
     4
 74
     0
 42
0.000000001
 43
0.00000001
 40
0.0
 40
0.0
 40
0.0
 40
0.0
 40
1.0
 40
1.0
 40
1.0
 40
1.0
 10
18.66687439922014
 20
-6.006230940600216
 30
0.0
 10
18.58743224313535
 20
-5.937779008032085
 30
0.0
 10
18.48544979196479
 20
-5.916816061742397
 30
0.0
 10
18.40282824484639
 20
-5.954771600114719
 30
0.0
  0
SPLINE
  5
1A7
330
1F
100
AcDbEntity
  8
외형선
  6
Continuous
 62
     1
370
    15
100
AcDbSpline
210
0.0
220
0.0
230
1.0
 70
     8
 71
     3
 72
    14
 73
    10
 74
     0
 42
0.000000001
 43
0.00000001
 40
0.0
 40
0.0
 40
0.0
 40
0.0
 40
0.2499999999999998
 40
0.2499999999999998
 40
0.4999999999999999
 40
0.4999999999999999
 40
0.75
 40
0.75
 40
1.0
 40
1.0
 40
1.0
 40
1.0
 10
18.40282824484639
 20
-5.954771600114714
 30
0.0
 10
18.32136201198441
 20
-5.992196398309432
 30
0.0
 10
18.23693239239045
 20
-6.012304579985839
 30
0.0
 10
18.06139454621743
 20
-6.023863266449555
 30
0.0
 10
17.97102358848476
 20
-6.014790706381516
 30
0.0
 10
17.7905893615735
 20
-5.969093507465171
 30
0.0
 10
17.70277389872119
 20
-5.933367128758498
 30
0.0
 10
17.53098167539921
 20
-5.837177787038002
 30
0.0
 10
17.44623247981969
 20
-5.775801721100614
 30
0.0
 10
17.36754431847287
 20
-5.702901765280052
 30
0.0
  0
SPLINE
  5
1A8
330
1F
100
AcDbEntity
  8
외형선
  6
Continuous
 62
     1
370
    15
100
AcDbSpline
210
0.0
220
0.0
230
1.0
 70
     8
 71
     3
 72
     8
 73
     4
 74
     0
 42
0.000000001
 43
0.00000001
 40
0.0
 40
0.0
 40
0.0
 40
0.0
 40
1.0
 40
1.0
 40
1.0
 40
1.0
 10
17.36754431847288
 20
-5.702901765280072
 30
0.0
 10
17.28751075327859
 20
-5.628755371884111
 30
0.0
 10
17.18545097807191
 20
-5.598027255870991
 30
0.0
 10
17.1031656876176
 20
-5.625654213592954
 30
0.0
  0
SPLINE
  5
1A9
330
1F
100
AcDbEntity
  8
외형선
  6
Continuous
 62
     1
370
    15
100
AcDbSpline
210
0.0
220
0.0
230
1.0
 70
     8
 71
     3
 72
     8
 73
     4
 74
     0
 42
0.000000001
 43
0.00000001
 40
0.0
 40
0.0
 40
0.0
 40
0.0
 40
1.0
 40
1.0
 40
1.0
 40
1.0
 10
17.10316568761762
 20
-5.625654213592952
 30
0.0
 10
16.97443175887837
 20
-5.668876116159322
 30
0.0
 10
16.83349479157471
 20
-5.669293558962355
 30
0.0
 10
16.6902326671707
 20
-5.635813759512652
 30
0.0
  0
SPLINE
  5
1AA
330
1F
100
AcDbEntity
  8
외형선
  6
Continuous
 62
     1
370
    15
100
AcDbSpline
210
0.0
220
0.0
230
1.0
 70
     8
 71
     3
 72
     8
 73
     4
 74
     0
 42
0.000000001
 43
0.00000001
 40
0.0
 40
0.0
 40
0.0
 40
0.0
 40
1.0
 40
1.0
 40
1.0
 40
1.0
 10
16.69023266850898
 20
-5.63581376012877
 30
0.0
 10
16.54574836112915
 20
-5.569297835030369
 30
0.0
 10
16.40453428281937
 20
-5.470911141824263
 30
0.0
 10
16.27833884070259
 20
-5.345986424034707
 30
0.0
  0
SPLINE
  5
1AB
330
1F
100
AcDbEntity
  8
외형선
  6
Continuous
 62
     1
370
    15
100
AcDbSpline
210
0.0
220
0.0
230
1.0
 70
     8
 71
     3
 72
     8
 73
     4
 74
     0
 42
0.000000001
 43
0.00000001
 40
0.0
 40
0.0
 40
0.0
 40
0.0
 40
1.0
 40
1.0
 40
1.0
 40
1.0
 10
16.2783388407026
 20
-5.345986424034708
 30
0.0
 10
16.19879565614189
 20
-5.267244199144101
 30
0.0
 10
16.09673633613876
 20
-5.227497293944615
 30
0.0
 10
16.01406676173325
 20
-5.244338677659678
 30
0.0
  0
SPLINE
  5
1AC
330
1F
100
AcDbEntity
  8
외형선
  6
Continuous
 62
     1
370
    15
100
AcDbSpline
210
0.0
220
0.0
230
1.0
 70
     8
 71
     3
 72
    14
 73
    10
 74
     0
 42
0.000000001
 43
0.00000001
 40
0.0
 40
0.0
 40
0.0
 40
0.0
 40
0.25
 40
0.25
 40
0.5
 40
0.5
 40
0.75
 40
0.75
 40
1.0
 40
1.0
 40
1.0
 40
1.0
 10
16.01406676173323
 20
-5.244338677659679
 30
0.0
 10
15.93256278802107
 20
-5.260942606075433
 30
0.0
 10
15.84812147390191
 20
-5.260669376613711
 30
0.0
 10
15.67262608758461
 20
-5.232793410457361
 30
0.0
 10
15.58231305042244
 20
-5.204874279739075
 30
0.0
 10
15.40204621294674
 20
-5.125079128046524
 30
0.0
 10
15.31436938794181
 20
-5.074472643109265
 30
0.0
 10
15.14276389283878
 20
-4.95315457904641
 30
0.0
 10
15.05801960842899
 20
-4.881503650478852
 30
0.0
 10
14.97931034473135
 20
-4.801456558210869
 30
0.0
  0
SPLINE
  5
1AD
330
1F
100
AcDbEntity
  8
외형선
  6
Continuous
 62
     1
370
    15
100
AcDbSpline
210
0.0
220
0.0
230
1.0
 70
     8
 71
     3
 72
     8
 73
     4
 74
     0
 42
0.000000001
 43
0.00000001
 40
0.0
 40
0.0
 40
0.0
 40
0.0
 40
1.0
 40
1.0
 40
1.0
 40
1.0
 10
14.97931034473134
 20
-4.801456558210871
 30
0.0
 10
14.89947484107681
 20
-4.720264083182214
 30
0.0
 10
14.79747643848072
 20
-4.672238403318846
 30
0.0
 10
14.71532045584195
 20
-4.677887119044461
 30
0.0
  0
SPLINE
  5
1AE
330
1F
100
AcDbEntity
  8
외형선
  6
Continuous
 62
     1
370
    15
100
AcDbSpline
210
0.0
220
0.0
230
1.0
 70
     8
 71
     3
 72
     8
 73
     4
 74
     0
 42
0.000000001
 43
0.00000001
 40
0.0
 40
0.0
 40
0.0
 40
0.0
 40
1.0
 40
1.0
 40
1.0
 40
1.0
 10
14.71532045584194
 20
-4.677887119044481
 30
0.0
 10
14.58682234203713
 20
-4.686722133767068
 30
0.0
 10
14.44612032336638
 20
-4.654678616302141
 30
0.0
 10
14.303158703796
 20
-4.593864851695882
 30
0.0
  0
SPLINE
  5
1AF
330
1F
100
AcDbEntity
  8
외형선
  6
Continuous
 62
     1
370
    15
100
AcDbSpline
210
0.0
220
0.0
230
1.0
 70
     8
 71
     3
 72
     8
 73
     4
 74
     0
 42
0.000000001
 43
0.00000001
 40
0.0
 40
0.0
 40
0.0
 40
0.0
 40
1.0
 40
1.0
 40
1.0
 40
1.0
 10
14.30315870513179
 20
-4.59386485251469
 30
0.0
 10
14.15881298365826
 20
-4.505385734362078
 30
0.0
 10
14.01784639843332
 20
-4.391754878176249
 30
0.0
 10
13.89192867536529
 20
-4.26056667813702
 30
0.0
  0
SPLINE
  5
1B0
330
1F
100
AcDbEntity
  8
외형선
  6
Continuous
 62
     1
370
    15
100
AcDbSpline
210
0.0
220
0.0
230
1.0
 70
     8
 71
     3
 72
     8
 73
     4
 74
     0
 42
0.000000001
 43
0.00000001
 40
0.0
 40
0.0
 40
0.0
 40
0.0
 40
1.0
 40
1.0
 40
1.0
 40
1.0
 10
13.89192867536528
 20
-4.260566678137024
 30
0.0
 10
13.8124680291487
 20
-4.177780086248966
 30
0.0
 10
13.71051694615839
 20
-4.122390635732164
 30
0.0
 10
13.62796275689517
 20
-4.116696931378068
 30
0.0
  0
SPLINE
  5
1B1
330
1F
100
AcDbEntity
  8
외형선
  6
Continuous
 62
     1
370
    15
100
AcDbSpline
210
0.0
220
0.0
230
1.0
 70
     8
 71
     3
 72
    14
 73
    10
 74
     0
 42
0.000000001
 43
0.00000001
 40
0.0
 40
0.0
 40
0.0
 40
0.0
 40
0.2500000000000002
 40
0.2500000000000002
 40
0.5000000000000003
 40
0.5000000000000003
 40
0.7500000000000004
 40
0.7500000000000004
 40
1.0
 40
1.0
 40
1.0
 40
1.0
 10
13.62796275689519
 20
-4.116696931378089
 30
0.0
 10
13.54654923766488
 20
-4.11108189823367
 30
0.0
 10
13.46223715190859
 20
-4.090330894507763
 30
0.0
 10
13.28704921012175
 20
-4.025012627562856
 30
0.0
 10
13.19682490650712
 20
-3.980478662647688
 30
0.0
 10
13.0165264214241
 20
-3.873138114766027
 30
0.0
 10
12.92872400232014
 20
-3.811909455670024
 30
0.0
 10
12.75687215613478
 20
-3.675555084535099
 30
0.0
 10
12.67203941191439
 20
-3.59951001374284
 30
0.0
 10
12.5932626831636
 20
-3.518867942203984
 30
0.0
  0
SPLINE
  5
1B2
330
1F
100
AcDbEntity
  8
외형선
  6
Continuous
 62
     1
370
    15
100
AcDbSpline
210
0.0
220
0.0
230
1.0
 70
     8
 71
     3
 72
     8
 73
     4
 74
     0
 42
0.000000001
 43
0.00000001
 40
0.0
 40
0.0
 40
0.0
 40
0.0
 40
1.0
 40
1.0
 40
1.0
 40
1.0
 10
12.59326268316364
 20
-3.518867942204045
 30
0.0
 10
12.51332099891783
 20
-3.437033330357171
 30
0.0
 10
12.41122736071014
 20
-3.375552114650615
 30
0.0
 10
12.3290040143118
 20
-3.358644187816969
 30
0.0
  0
SPLINE
  5
1B3
330
1F
100
AcDbEntity
  8
외형선
  6
Continuous
 62
     1
370
    15
100
AcDbSpline
210
0.0
220
0.0
230
1.0
 70
     8
 71
     3
 72
     8
 73
     4
 74
     0
 42
0.000000001
 43
0.00000001
 40
0.0
 40
0.0
 40
0.0
 40
0.0
 40
1.0
 40
1.0
 40
1.0
 40
1.0
 10
12.32900401431181
 20
-3.358644187817001
 30
0.0
 10
12.20025681885726
 20
-3.332169369457793
 30
0.0
 10
12.05934116299368
 20
-3.269782992069683
 30
0.0
 10
11.91627144699816
 20
-3.186046441693776
 30
0.0
  0
SPLINE
  5
1B4
330
1F
100
AcDbEntity
  8
외형선
  6
Continuous
 62
     1
370
    15
100
AcDbSpline
210
0.0
220
0.0
230
1.0
 70
     8
 71
     3
 72
     8
 73
     4
 74
     0
 42
0.000000001
 43
0.00000001
 40
0.0
 40
0.0
 40
0.0
 40
0.0
 40
1.0
 40
1.0
 40
1.0
 40
1.0
 10
11.91627144833618
 20
-3.186046442654738
 30
0.0
 10
11.77161780946403
 20
-3.082156195072332
 30
0.0
 10
11.63041400823466
 20
-2.961803661556403
 30
0.0
 10
11.50425107300737
 20
-2.834143179727222
 30
0.0
  0
SPLINE
  5
1B5
330
1F
100
AcDbEntity
  8
외형선
  6
Continuous
 62
     1
370
    15
100
AcDbSpline
210
0.0
220
0.0
230
1.0
 70
     8
 71
     3
 72
     8
 73
     4
 74
     0
 42
0.000000001
 43
0.00000001
 40
0.0
 40
0.0
 40
0.0
 40
0.0
 40
1.0
 40
1.0
 40
1.0
 40
1.0
 10
11.50425107300735
 20
-2.834143179727198
 30
0.0
 10
11.4246779727747
 20
-2.753625551486855
 30
0.0
 10
11.32262062913545
 20
-2.686698037873982
 30
0.0
 10
11.23984607101355
 20
-2.65886361994632
 30
0.0
  0
SPLINE
  5
1B6
330
1F
100
AcDbEntity
  8
외형선
  6
Continuous
 62
     1
370
    15
100
AcDbSpline
210
0.0
220
0.0
230
1.0
 70
     8
 71
     3
 72
    14
 73
    10
 74
     0
 42
0.000000001
 43
0.00000001
 40
0.0
 40
0.0
 40
0.0
 40
0.0
 40
0.2499999999999997
 40
0.2499999999999997
 40
0.4999999999999998
 40
0.4999999999999998
 40
0.7499999999999999
 40
0.7499999999999999
 40
1.0
 40
1.0
 40
1.0
 40
1.0
 10
11.23984607101377
 20
-2.658863619946972
 30
0.0
 10
11.15841962912651
 20
-2.631482530089459
 30
0.0
 10
11.0740385418033
 20
-2.592115243623751
 30
0.0
 10
10.89859534949469
 20
-2.495182420114375
 30
0.0
 10
10.8082472812508
 20
-2.437757716311467
 30
0.0
 10
10.6277771271676
 20
-2.311587627945079
 30
0.0
 10
10.53992376267139
 20
-2.244577708121027
 30
0.0
 10
10.3680310136623
 20
-2.103927308800049
 30
0.0
 10
10.28320771710309
 20
-2.029476945349779
 30
0.0
 10
10.2044637729581
 20
-1.954581079059872
 30
0.0
  0
SPLINE
  5
1B7
330
1F
100
AcDbEntity
  8
외형선
  6
Continuous
370
    15
100
AcDbSpline
210
0.0
220
0.0
230
1.0
 70
     8
 71
     3
 72
     8
 73
     4
 74
     0
 42
0.000000001
 43
0.00000001
 40
0.0
 40
0.0
 40
0.0
 40
0.0
 40
1.0
 40
1.0
 40
1.0
 40
1.0
 10
10.20446377295809
 20
-1.954581079059849
 30
0.0
 10
10.12455810391066
 20
-1.878580259317283
 30
0.0
 10
10.02253449065847
 20
-1.808393822439502
 30
0.0
 10
9.940395865095418
 20
-1.770173175936524
 30
0.0
  0
SPLINE
  5
1B8
330
1F
100
AcDbEntity
  8
외형선
  6
Continuous
370
    15
100
AcDbSpline
210
0.0
220
0.0
230
1.0
 70
     8
 71
     3
 72
     8
 73
     4
 74
     0
 42
0.000000001
 43
0.00000001
 40
0.0
 40
0.0
 40
0.0
 40
0.0
 40
1.0
 40
1.0
 40
1.0
 40
1.0
 10
9.940395865095443
 20
-1.770173175936536
 30
0.0
 10
9.881984957292314
 20
-1.74299348253702
 30
0.0
 10
9.821062666602195
 20
-1.709953909463342
 30
0.0
 10
9.758562186426285
 20
-1.672662332761935
 30
0.0
  0
SPLINE
  5
1B9
330
1F
100
AcDbEntity
  8
외형선
  6
Continuous
370
    15
100
AcDbSpline
210
0.0
220
0.0
230
1.0
 70
     8
 71
     3
 72
     8
 73
     4
 74
     0
 42
0.000000001
 43
0.00000001
 40
0.0
 40
0.0
 40
0.0
 40
0.0
 40
1.0
 40
1.0
 40
1.0
 40
1.0
 10
9.758562186426285
 20
-1.67266233276194
 30
0.0
 10
9.633290923395517
 20
-1.585371687914076
 30
0.0
 10
9.50829711409316
 20
-1.497012196927796
 30
0.0
 10
9.383251574827945
 20
-1.408013957308129
 30
0.0
  0
SPLINE
  5
1BA
330
1F
100
AcDbEntity
  8
외형선
  6
Continuous
370
    15
100
AcDbSpline
210
0.0
220
0.0
230
1.0
 70
     8
 71
     3
 72
     8
 73
     4
 74
     0
 42
0.000000001
 43
0.00000001
 40
0.0
 40
0.0
 40
0.0
 40
0.0
 40
1.0
 40
1.0
 40
1.0
 40
1.0
 10
9.383251574827948
 20
-1.408013957308167
 30
0.0
 10
9.290321488742187
 20
-1.332841410821478
 30
0.0
 10
9.200300626521347
 20
-1.256482975835286
 30
0.0
 10
9.11705298841931
 20
-1.181850220571062
 30
0.0
  0
SPLINE
  5
1BB
330
1F
100
AcDbEntity
  8
외형선
  6
Continuous
370
    15
100
AcDbSpline
210
0.0
220
0.0
230
1.0
 70
     8
 71
     3
 72
     8
 73
     4
 74
     0
 42
0.000000001
 43
0.00000001
 40
0.0
 40
0.0
 40
0.0
 40
0.0
 40
1.0
 40
1.0
 40
1.0
 40
1.0
 10
9.117052988419314
 20
-1.181850220571057
 30
0.0
 10
9.037635855049775
 20
-1.110651570210669
 30
0.0
 10
8.935674909636596
 20
-1.038190593293639
 30
0.0
 10
8.853089922382924
 20
-0.990839752560986
 30
0.0
  0
SPLINE
  5
1BC
330
1F
100
AcDbEntity
  8
외형선
  6
Continuous
370
    15
100
AcDbSpline
210
0.0
220
0.0
230
1.0
 70
    24
 71
     3
 72
    14
 73
    10
 74
     0
 42
0.000000001
 43
0.00000001
 40
0.0
 40
0.0
 40
0.0
 40
0.0
 40
0.2499999999999999
 40
0.2499999999999999
 40
0.4999999999999998
 40
0.4999999999999998
 40
0.7499999999999999
 40
0.7499999999999999
 40
1.0
 40
1.0
 40
1.0
 40
1.0
 10
7.969776789688589
 20
5.338561091195498
 30
0.0
 10
7.969776789688589
 20
5.143751742263206
 30
0.0
 10
7.969776789693155
 20
4.927011576614198
 30
0.0
 10
7.969776789693155
 20
4.456330570905048
 30
0.0
 10
7.969776789688589
 20
4.201838860846528
 30
0.0
 10
7.969776789688589
 20
3.653400429233508
 30
0.0
 10
7.96977678968348
 20
3.358660955083368
 30
0.0
 10
7.96977678968348
 20
2.746459601513735
 30
0.0
 10
7.969776789688578
 20
2.427099792454635
 30
0.0
 10
7.969776789688578
 20
2.095011613940455
 30
0.0
  0
SPLINE
  5
1BD
330
1F
100
AcDbEntity
  8
외형선
  6
Continuous
 62
     1
370
    15
100
AcDbSpline
210
0.0
220
0.0
230
1.0
 70
     8
 71
     3
 72
     8
 73
     4
 74
     0
 42
0.000000001
 43
0.00000001
 40
0.0
 40
0.0
 40
0.0
 40
0.0
 40
1.0
 40
1.0
 40
1.0
 40
1.0
 10
41.72160044175981
 20
0.7863989258431088
 30
0.0
 10
41.71751235844298
 20
0.5968920277072735
 30
0.0
 10
41.71302228987041
 20
0.4061150484624204
 30
0.0
 10
41.70815352975593
 20
0.2147301539132236
 30
0.0
  0
SPLINE
  5
1BE
330
1F
100
AcDbEntity
  8
외형선
  6
Continuous
 62
     1
370
    15
100
AcDbSpline
210
0.0
220
0.0
230
1.0
 70
     8
 71
     3
 72
     8
 73
     4
 74
     0
 42
0.000000001
 43
0.00000001
 40
0.0
 40
0.0
 40
0.0
 40
0.0
 40
1.0
 40
1.0
 40
1.0
 40
1.0
 10
41.4521997836893
 20
-3.540279468034243
 30
0.0
 10
41.44710804042155
 20
-3.541611098811456
 30
0.0
 10
41.44195758151449
 20
-3.543075810778445
 30
0.0
 10
41.43675178718224
 20
-3.544665942553682
 30
0.0
  0
SPLINE
  5
1BF
330
1F
100
AcDbEntity
  8
외형선
  6
Continuous
 62
     1
370
    15
100
AcDbSpline
210
0.0
220
0.0
230
1.0
 70
     8
 71
     3
 72
     8
 73
     4
 74
     0
 42
0.000000001
 43
0.00000001
 40
0.0
 40
0.0
 40
0.0
 40
0.0
 40
1.0
 40
1.0
 40
1.0
 40
1.0
 10
41.72160044175983
 20
0.7863989258430995
 30
0.0
 10
41.64643190007111
 20
0.8387694031694402
 30
0.0
 10
41.554336447128
 20
0.9045737851613658
 30
0.0
 10
41.47897167897711
 20
0.9640127339416608
 30
0.0
  0
SPLINE
  5
1C0
330
1F
100
AcDbEntity
  8
외형선
  6
Continuous
 62
     1
370
    15
100
AcDbSpline
210
0.0
220
0.0
230
1.0
 70
     8
 71
     3
 72
     8
 73
     4
 74
     0
 42
0.000000001
 43
0.00000001
 40
0.0
 40
0.0
 40
0.0
 40
0.0
 40
1.0
 40
1.0
 40
1.0
 40
1.0
 10
40.44329550155162
 20
1.705442504861128
 30
0.0
 10
40.36337178737394
 20
1.75023722534366
 30
0.0
 10
40.26133471662638
 20
1.819997783221655
 30
0.0
 10
40.17918006875595
 20
1.891377582146846
 30
0.0
  0
SPLINE
  5
1C1
330
1F
100
AcDbEntity
  8
외형선
  6
Continuous
 62
     1
370
    15
100
AcDbSpline
210
0.0
220
0.0
230
1.0
 70
     8
 71
     3
 72
     8
 73
     4
 74
     0
 42
0.000000001
 43
0.00000001
 40
0.0
 40
0.0
 40
0.0
 40
0.0
 40
1.0
 40
1.0
 40
1.0
 40
1.0
 10
37.38102194321825
 20
3.79956387629543
 30
0.0
 10
37.2365948369692
 20
3.876242068670532
 30
0.0
 10
37.09547399894447
 20
3.92820935648232
 30
0.0
 10
36.9693569413306
 20
3.948061584440682
 30
0.0
  0
LINE
  5
1C2
330
1F
100
AcDbEntity
  8
외형선
  6
Continuous
370
    15
100
AcDbLine
 10
8.794790706175803
 20
-4.935077942880335
 30
0.0
 11
8.732124371183055
 21
-4.972389231292532
 31
0.0
  0
SPLINE
  5
1C3
330
1F
100
AcDbEntity
  8
외형선
  6
Continuous
370
    15
100
AcDbSpline
210
0.0
220
0.0
230
1.0
 70
     8
 71
     3
 72
     8
 73
     4
 74
     0
 42
0.000000001
 43
0.00000001
 40
0.0
 40
0.0
 40
0.0
 40
0.0
 40
1.0
 40
1.0
 40
1.0
 40
1.0
 10
8.73212437249234
 20
-4.972389230499197
 30
0.0
 10
8.58771516353184
 20
-5.026056309158802
 30
0.0
 10
8.446659633196507
 20
-5.048663170525314
 30
0.0
 10
8.320654141990598
 20
-5.034724357274322
 30
0.0
  0
SPLINE
  5
1C4
330
1F
100
AcDbEntity
  8
외형선
  6
Continuous
370
    15
100
AcDbSpline
210
0.0
220
0.0
230
1.0
 70
     8
 71
     3
 72
     8
 73
     4
 74
     0
 42
0.000000001
 43
0.00000001
 40
0.0
 40
0.0
 40
0.0
 40
0.0
 40
1.0
 40
1.0
 40
1.0
 40
1.0
 10
8.32065414199058
 20
-5.03472435727433
 30
0.0
 10
8.241173402199612
 20
-5.025932143709711
 30
0.0
 10
8.139196051252625
 20
-5.065941134692991
 30
0.0
 10
8.056618163675239
 20
-5.143964530620946
 30
0.0
  0
SPLINE
  5
1C5
330
1F
100
AcDbEntity
  8
외형선
  6
Continuous
370
    15
100
AcDbSpline
210
0.0
220
0.0
230
1.0
 70
     8
 71
     3
 72
     8
 73
     4
 74
     0
 42
0.000000001
 43
0.00000001
 40
0.0
 40
0.0
 40
0.0
 40
0.0
 40
1.0
 40
1.0
 40
1.0
 40
1.0
 10
8.559174564138008
 20
-4.840548861134337
 30
0.0
 10
8.639049393595071
 20
-4.836897926010603
 30
0.0
 10
8.741082054281218
 20
-4.880672454371235
 30
0.0
 10
8.823231702312462
 20
-4.959932421162367
 30
0.0
  0
SPLINE
  5
1C6
330
1F
100
AcDbEntity
  8
외형선
  6
Continuous
370
    15
100
AcDbSpline
210
0.0
220
0.0
230
1.0
 70
     8
 71
     3
 72
     8
 73
     4
 74
     0
 42
0.000000001
 43
0.00000001
 40
0.0
 40
0.0
 40
0.0
 40
0.0
 40
1.0
 40
1.0
 40
1.0
 40
1.0
 10
8.823231702310004
 20
-4.959932421159986
 30
0.0
 10
8.929145068524715
 20
-5.062120197858926
 30
0.0
 10
9.043569866075288
 20
-5.150218757056447
 30
0.0
 10
9.16021747637696
 20
-5.219811864734758
 30
0.0
  0
SPLINE
  5
1C7
330
1F
100
AcDbEntity
  8
외형선
  6
Continuous
370
    15
100
AcDbSpline
210
0.0
220
0.0
230
1.0
 70
     8
 71
     3
 72
     8
 73
     4
 74
     0
 42
0.000000001
 43
0.00000001
 40
0.0
 40
0.0
 40
0.0
 40
0.0
 40
1.0
 40
1.0
 40
1.0
 40
1.0
 10
9.160217476377266
 20
-5.219811864735766
 30
0.0
 10
9.233394225567853
 20
-5.246344771367238
 30
0.0
 10
9.306567565264231
 20
-5.272226476026574
 30
0.0
 10
9.37973772489276
 20
-5.297457912049524
 30
0.0
  0
SPLINE
  5
1C8
330
1F
100
AcDbEntity
  8
외형선
  6
Continuous
370
    15
100
AcDbSpline
210
0.0
220
0.0
230
1.0
 70
     8
 71
     3
 72
     8
 73
     4
 74
     0
 42
0.000000001
 43
0.00000001
 40
0.0
 40
0.0
 40
0.0
 40
0.0
 40
1.0
 40
1.0
 40
1.0
 40
1.0
 10
9.37973772489276
 20
-5.297457912049429
 30
0.0
 10
9.473145000991359
 20
-5.313245193075386
 30
0.0
 10
9.563532181534924
 20
-5.313970168221751
 30
0.0
 10
9.647113201103053
 20
-5.298243557907345
 30
0.0
  0
SPLINE
  5
1C9
330
1F
100
AcDbEntity
  8
외형선
  6
Continuous
370
    15
100
AcDbSpline
210
0.0
220
0.0
230
1.0
 70
     8
 71
     3
 72
     8
 73
     4
 74
     0
 42
0.000000001
 43
0.00000001
 40
0.0
 40
0.0
 40
0.0
 40
0.0
 40
1.0
 40
1.0
 40
1.0
 40
1.0
 10
9.64711320110191
 20
-5.298243557907573
 30
0.0
 10
9.726625990589557
 20
-5.283282426041223
 30
0.0
 10
9.828653664640587
 20
-5.318496085398054
 30
0.0
 10
9.911381834817401
 20
-5.395101430075999
 30
0.0
  0
SPLINE
  5
1CA
330
1F
100
AcDbEntity
  8
외형선
  6
Continuous
 62
     1
370
    15
100
AcDbSpline
210
0.0
220
0.0
230
1.0
 70
     8
 71
     3
 72
    14
 73
    10
 74
     0
 42
0.000000001
 43
0.00000001
 40
0.0
 40
0.0
 40
0.0
 40
0.0
 40
0.25
 40
0.25
 40
0.5
 40
0.5
 40
0.75
 40
0.75
 40
1.0
 40
1.0
 40
1.0
 40
1.0
 10
9.911381834814208
 20
-5.395101430073038
 30
0.0
 10
9.992875906264352
 20
-5.470564013366049
 30
0.0
 10
10.0773330309566
 20
-5.534407991336002
 30
0.0
 10
10.25293530602473
 20
-5.641329913070786
 30
0.0
 10
10.343357227398
 20
-5.683579299095133
 30
0.0
 10
10.52395648148021
 20
-5.742225537442131
 30
0.0
 10
10.6118783012628
 20
-5.758182061184548
 30
0.0
 10
10.78391322807891
 20
-5.763473932767407
 30
0.0
 10
10.86880461946988
 20
-5.752352767522646
 30
0.0
 10
10.9476166949173
 20
-5.726295369475863
 30
0.0
  0
SPLINE
  5
1CB
330
1F
100
AcDbEntity
  8
외형선
  6
Continuous
 62
     1
370
    15
100
AcDbSpline
210
0.0
220
0.0
230
1.0
 70
     8
 71
     3
 72
     8
 73
     4
 74
     0
 42
0.000000001
 43
0.00000001
 40
0.0
 40
0.0
 40
0.0
 40
0.0
 40
1.0
 40
1.0
 40
1.0
 40
1.0
 10
10.9476166949173
 20
-5.726295369475868
 30
0.0
 10
11.02760506575365
 20
-5.699849056443713
 30
0.0
 10
11.12969284219947
 20
-5.725559977957856
 30
0.0
 10
11.21190720140536
 20
-5.79853817623697
 30
0.0
  0
SPLINE
  5
1CC
330
1F
100
AcDbEntity
  8
외형선
  6
Continuous
 62
     1
370
    15
100
AcDbSpline
210
0.0
220
0.0
230
1.0
 70
     8
 71
     3
 72
     8
 73
     4
 74
     0
 42
0.000000001
 43
0.00000001
 40
0.0
 40
0.0
 40
0.0
 40
0.0
 40
1.0
 40
1.0
 40
1.0
 40
1.0
 10
11.21190720140536
 20
-5.798538176236966
 30
0.0
 10
11.34062469487642
 20
-5.912795233656794
 30
0.0
 10
11.48131085492669
 20
-5.996455709755567
 30
0.0
 10
11.62432419490899
 20
-6.046423520014845
 30
0.0
  0
SPLINE
  5
1CD
330
1F
100
AcDbEntity
  8
외형선
  6
Continuous
 62
     1
370
    15
100
AcDbSpline
210
0.0
220
0.0
230
1.0
 70
     8
 71
     3
 72
     8
 73
     4
 74
     0
 42
0.000000001
 43
0.00000001
 40
0.0
 40
0.0
 40
0.0
 40
0.0
 40
1.0
 40
1.0
 40
1.0
 40
1.0
 10
11.62432419377681
 20
-6.046423519887846
 30
0.0
 10
11.76858525618154
 20
-6.062604458071569
 30
0.0
 10
11.90964054698316
 20
-6.042243453349245
 30
0.0
 10
12.03571360952678
 20
-5.983078198200749
 30
0.0
  0
SPLINE
  5
1CE
330
1F
100
AcDbEntity
  8
외형선
  6
Continuous
 62
     1
370
    15
100
AcDbSpline
210
0.0
220
0.0
230
1.0
 70
     8
 71
     3
 72
     8
 73
     4
 74
     0
 42
0.000000001
 43
0.00000001
 40
0.0
 40
0.0
 40
0.0
 40
0.0
 40
1.0
 40
1.0
 40
1.0
 40
1.0
 10
12.03571360952682
 20
-5.983078198200741
 30
0.0
 10
12.11515802158999
 20
-5.945795460595991
 30
0.0
 10
12.21714146304292
 20
-5.961481587530046
 30
0.0
 10
12.2997461290487
 20
-6.028635286118372
 30
0.0
  0
SPLINE
  5
1CF
330
1F
100
AcDbEntity
  8
외형선
  6
Continuous
 62
     1
370
    15
100
AcDbSpline
210
0.0
220
0.0
230
1.0
 70
     8
 71
     3
 72
    14
 73
    10
 74
     0
 42
0.000000001
 43
0.00000001
 40
0.0
 40
0.0
 40
0.0
 40
0.0
 40
0.2500000000000004
 40
0.2500000000000004
 40
0.5000000000000008
 40
0.5000000000000008
 40
0.7500000000000003
 40
0.7500000000000003
 40
1.0
 40
1.0
 40
1.0
 40
1.0
 10
12.29974612904872
 20
-6.028635286118386
 30
0.0
 10
12.38116800329492
 20
-6.094827430775733
 30
0.0
 10
12.46554637397342
 20
-6.146291499583923
 30
0.0
 10
12.64096568881303
 20
-6.223779719726304
 30
0.0
 10
12.73126703535755
 20
-6.249025672807519
 30
0.0
 10
12.91155182319566
 20
-6.271018041807331
 30
0.0
 10
12.9992798203851
 20
-6.267819614738583
 30
0.0
 10
13.17087420197262
 20
-6.233553752943341
 30
0.0
 10
13.25551704333038
 20
-6.201814576902803
 30
0.0
 10
13.33408885658458
 20
-6.155378572492983
 30
0.0
  0
SPLINE
  5
1D0
330
1F
100
AcDbEntity
  8
외형선
  6
Continuous
 62
     1
370
    15
100
AcDbSpline
210
0.0
220
0.0
230
1.0
 70
     8
 71
     3
 72
     8
 73
     4
 74
     0
 42
0.000000001
 43
0.00000001
 40
0.0
 40
0.0
 40
0.0
 40
0.0
 40
1.0
 40
1.0
 40
1.0
 40
1.0
 10
13.33408885658453
 20
-6.155378572493017
 30
0.0
 10
13.41392865711888
 20
-6.108193186587536
 30
0.0
 10
13.5158593623304
 20
-6.113671754198348
 30
0.0
 10
13.59802473273884
 20
-6.174428747956296
 30
0.0
  0
SPLINE
  5
1D1
330
1F
100
AcDbEntity
  8
외형선
  6
Continuous
 62
     1
370
    15
100
AcDbSpline
210
0.0
220
0.0
230
1.0
 70
     8
 71
     3
 72
     8
 73
     4
 74
     0
 42
0.000000001
 43
0.00000001
 40
0.0
 40
0.0
 40
0.0
 40
0.0
 40
1.0
 40
1.0
 40
1.0
 40
1.0
 10
13.59802473273884
 20
-6.17442874795629
 30
0.0
 10
13.72650687522102
 20
-6.269434572064337
 30
0.0
 10
13.86720479155404
 20
-6.326720863028222
 30
0.0
 10
14.01021773102594
 20
-6.347632281768536
 30
0.0
  0
SPLINE
  5
1D2
330
1F
100
AcDbEntity
  8
외형선
  6
Continuous
 62
     1
370
    15
100
AcDbSpline
210
0.0
220
0.0
230
1.0
 70
     8
 71
     3
 72
    12
 73
     8
 74
     0
 42
0.000000001
 43
0.00000001
 40
0.0
 40
0.0
 40
0.0
 40
0.0
 40
0.1453330775011106
 40
0.3563625861826757
 40
0.5684606783309109
 40
0.7837204858691289
 40
0.9999999999999999
 40
0.9999999999999999
 40
0.9999999999999999
 40
0.9999999999999999
 10
35.1789408489921
 20
4.951000481252442
 30
0.0
 10
35.19368991763024
 20
4.963643007586566
 30
0.0
 10
35.22985523067562
 20
4.994642993672161
 30
0.0
 10
35.28926414811184
 20
5.039889423846502
 30
0.0
 10
35.35677980695026
 20
5.087431687264165
 30
0.0
 10
35.42569609339767
 20
5.131513731918935
 30
0.0
 10
35.47231350947773
 20
5.157447804034248
 30
0.0
 10
35.49567729487006
 20
5.170445480572367
 30
0.0
  0
SPLINE
  5
1D3
330
1F
100
AcDbEntity
  8
외형선
  6
Continuous
 62
     1
370
    15
100
AcDbSpline
210
0.0
220
0.0
230
1.0
 70
     8
 71
     3
 72
     8
 73
     4
 74
     0
 42
0.000000001
 43
0.00000001
 40
0.0
 40
0.0
 40
0.0
 40
0.0
 40
1.0
 40
1.0
 40
1.0
 40
1.0
 10
35.49567729373793
 20
5.170445480191116
 30
0.0
 10
35.64014252619867
 20
5.219093879333662
 30
0.0
 10
35.78117113712084
 20
5.235659068115129
 30
0.0
 10
35.90715833660528
 20
5.215158725154908
 30
0.0
  0
SPLINE
  5
1D4
330
1F
100
AcDbEntity
  8
외형선
  6
Continuous
 62
     1
370
    15
100
AcDbSpline
210
0.0
220
0.0
230
1.0
 70
     8
 71
     3
 72
     8
 73
     4
 74
     0
 42
0.000000001
 43
0.00000001
 40
0.0
 40
0.0
 40
0.0
 40
0.0
 40
1.0
 40
1.0
 40
1.0
 40
1.0
 10
35.9071583366053
 20
5.215158725154908
 30
0.0
 10
35.98670882540672
 20
5.202214455342137
 30
0.0
 10
36.08866442673081
 20
5.239165154816766
 30
0.0
 10
36.17134351583368
 20
5.316360029936128
 30
0.0
  0
SPLINE
  5
1D5
330
1F
100
AcDbEntity
  8
외형선
  6
Continuous
 62
     1
370
    15
100
AcDbSpline
210
0.0
220
0.0
230
1.0
 70
     8
 71
     3
 72
    14
 73
    10
 74
     0
 42
0.000000001
 43
0.00000001
 40
0.0
 40
0.0
 40
0.0
 40
0.0
 40
0.25
 40
0.25
 40
0.5
 40
0.5
 40
0.75
 40
0.75
 40
1.0
 40
1.0
 40
1.0
 40
1.0
 10
36.17134351583221
 20
5.31636002993475
 30
0.0
 10
36.25279398981569
 20
5.392407785610253
 30
0.0
 10
36.33720923520711
 20
5.457163892013223
 30
0.0
 10
36.51274268018388
 20
5.566401681547593
 30
0.0
 10
36.60314333830969
 20
5.610055094655075
 30
0.0
 10
36.78372480783167
 20
5.671816394288468
 30
0.0
 10
36.87165208965569
 20
5.689447294186587
 30
0.0
 10
37.04372540633029
 20
5.698307785082178
 30
0.0
 10
37.12864881791467
 20
5.689096036462624
 30
0.0
 10
37.20749819434334
 20
5.664977741197911
 30
0.0
  0
SPLINE
  5
1D6
330
1F
100
AcDbEntity
  8
외형선
  6
Continuous
 62
     1
370
    15
100
AcDbSpline
210
0.0
220
0.0
230
1.0
 70
     8
 71
     3
 72
     8
 73
     4
 74
     0
 42
0.000000001
 43
0.00000001
 40
0.0
 40
0.0
 40
0.0
 40
0.0
 40
1.0
 40
1.0
 40
1.0
 40
1.0
 10
37.20749819434335
 20
5.664977741197915
 30
0.0
 10
37.28750518731595
 20
5.640505356416272
 30
0.0
 10
37.38962960381014
 20
5.66790869782242
 30
0.0
 10
37.47187860186143
 20
5.741685626388271
 30
0.0
  0
SPLINE
  5
1D7
330
1F
100
AcDbEntity
  8
외형선
  6
Continuous
 62
     1
370
    15
100
AcDbSpline
210
0.0
220
0.0
230
1.0
 70
     8
 71
     3
 72
     8
 73
     4
 74
     0
 42
0.000000001
 43
0.00000001
 40
0.0
 40
0.0
 40
0.0
 40
0.0
 40
1.0
 40
1.0
 40
1.0
 40
1.0
 10
37.47187860186143
 20
5.741685626388277
 30
0.0
 10
37.60062632707625
 20
5.857171674258021
 30
0.0
 10
37.74147846647566
 20
5.942808361986059
 30
0.0
 10
37.88442464131947
 20
5.995211165041715
 30
0.0
  0
SPLINE
  5
1D8
330
1F
100
AcDbEntity
  8
외형선
  6
Continuous
 62
     1
370
    15
100
AcDbSpline
210
0.0
220
0.0
230
1.0
 70
     8
 71
     3
 72
     8
 73
     4
 74
     0
 42
0.000000001
 43
0.00000001
 40
0.0
 40
0.0
 40
0.0
 40
0.0
 40
1.0
 40
1.0
 40
1.0
 40
1.0
 10
37.88442464018711
 20
5.995211164892674
 30
0.0
 10
38.0287613870077
 20
6.014209659617026
 30
0.0
 10
38.16974136050798
 20
5.996986405860718
 30
0.0
 10
38.29585541872479
 20
5.94083677509715
 30
0.0
  0
SPLINE
  5
1D9
330
1F
100
AcDbEntity
  8
외형선
  6
Continuous
 62
     1
370
    15
100
AcDbSpline
210
0.0
220
0.0
230
1.0
 70
     8
 71
     3
 72
     8
 73
     4
 74
     0
 42
0.000000001
 43
0.00000001
 40
0.0
 40
0.0
 40
0.0
 40
0.0
 40
1.0
 40
1.0
 40
1.0
 40
1.0
 10
38.29585541872481
 20
5.940836775097148
 30
0.0
 10
38.37530248169161
 20
5.905464642014513
 30
0.0
 10
38.47728396430931
 20
5.922962934731991
 30
0.0
 10
38.55991021965279
 20
5.991202962514609
 30
0.0
  0
SPLINE
  5
1DA
330
1F
100
AcDbEntity
  8
외형선
  6
Continuous
 62
     1
370
    15
100
AcDbSpline
210
0.0
220
0.0
230
1.0
 70
     8
 71
     3
 72
    14
 73
    10
 74
     0
 42
0.000000001
 43
0.00000001
 40
0.0
 40
0.0
 40
0.0
 40
0.0
 40
0.2499999999999999
 40
0.2499999999999999
 40
0.4999999999999999
 40
0.4999999999999999
 40
0.7499999999999998
 40
0.7499999999999998
 40
1.0
 40
1.0
 40
1.0
 40
1.0
 10
38.55991021965278
 20
5.991202962514611
 30
0.0
 10
38.64130167936502
 20
6.058423187477516
 30
0.0
 10
38.72565314202128
 20
6.111161814621881
 30
0.0
 10
38.90103357383395
 20
6.19155110055108
 30
0.0
 10
38.99132917028692
 20
6.218418763011059
 30
0.0
 10
39.17163817955611
 20
6.243796481593793
 30
0.0
 10
39.25938899216072
 20
6.242315931180968
 30
0.0
 10
39.43104386956547
 20
6.211496820852916
 30
0.0
 10
39.5157287882668
 20
6.181502171119639
 30
0.0
 10
39.5943401378513
 20
6.136734020927467
 30
0.0
  0
SPLINE
  5
1DB
330
1F
100
AcDbEntity
  8
외형선
  6
Continuous
 62
     1
370
    15
100
AcDbSpline
210
0.0
220
0.0
230
1.0
 70
     8
 71
     3
 72
     8
 73
     4
 74
     0
 42
0.000000001
 43
0.00000001
 40
0.0
 40
0.0
 40
0.0
 40
0.0
 40
1.0
 40
1.0
 40
1.0
 40
1.0
 10
39.5943401378513
 20
6.136734020927474
 30
0.0
 10
39.67421990709685
 20
6.091243522089812
 30
0.0
 10
39.77617937690908
 20
6.098635238682052
 30
0.0
 10
39.85827078527243
 20
6.160672177719804
 30
0.0
  0
SPLINE
  5
1DC
330
1F
100
AcDbEntity
  8
외형선
  6
Continuous
 62
     1
370
    15
100
AcDbSpline
210
0.0
220
0.0
230
1.0
 70
     8
 71
     3
 72
     8
 73
     4
 74
     0
 42
0.000000001
 43
0.00000001
 40
0.0
 40
0.0
 40
0.0
 40
0.0
 40
1.0
 40
1.0
 40
1.0
 40
1.0
 10
39.85827078527245
 20
6.160672177719806
 30
0.0
 10
39.98672078192602
 20
6.25774256268051
 30
0.0
 10
40.12738152936682
 20
6.317613921662136
 30
0.0
 10
40.27039252565564
 20
6.341221343155799
 30
0.0
  0
SPLINE
  5
1DD
330
1F
100
AcDbEntity
  8
외형선
  6
Continuous
 62
     1
370
    15
100
AcDbSpline
210
0.0
220
0.0
230
1.0
 70
     8
 71
     3
 72
     8
 73
     4
 74
     0
 42
0.000000001
 43
0.00000001
 40
0.0
 40
0.0
 40
0.0
 40
0.0
 40
1.0
 40
1.0
 40
1.0
 40
1.0
 10
40.27039252452391
 20
6.341221343253038
 30
0.0
 10
40.41468812097072
 20
6.328823292484191
 30
0.0
 10
40.55571081695605
 20
6.278891777836335
 30
0.0
 10
40.68173283587154
 20
6.191824921264028
 30
0.0
  0
SPLINE
  5
1DE
330
1F
100
AcDbEntity
  8
외형선
  6
Continuous
 62
     1
370
    15
100
AcDbSpline
210
0.0
220
0.0
230
1.0
 70
     8
 71
     3
 72
     8
 73
     4
 74
     0
 42
0.000000001
 43
0.00000001
 40
0.0
 40
0.0
 40
0.0
 40
0.0
 40
1.0
 40
1.0
 40
1.0
 40
1.0
 10
40.68173283587155
 20
6.191824921264014
 30
0.0
 10
40.76121220881227
 20
6.13691373015758
 30
0.0
 10
40.86322435985426
 20
6.133870129925278
 30
0.0
 10
40.94584534831237
 20
6.187863037383957
 30
0.0
  0
SPLINE
  5
1DF
330
1F
100
AcDbEntity
  8
외형선
  6
Continuous
 62
     1
370
    15
100
AcDbSpline
210
0.0
220
0.0
230
1.0
 70
     8
 71
     3
 72
    10
 73
     6
 74
     0
 42
0.000000001
 43
0.00000001
 40
0.0
 40
0.0
 40
0.0
 40
0.0
 40
0.5
 40
0.5
 40
1.0
 40
1.0
 40
1.0
 40
1.0
 10
40.94584534831241
 20
6.187863037383953
 30
0.0
 10
41.02201225719251
 20
6.237638196690614
 30
0.0
 10
41.10076018486406
 20
6.272864335526836
 30
0.0
 10
41.26397117255776
 20
6.318762055760018
 30
0.0
 10
41.34827238162153
 20
6.328949488117323
 30
0.0
 10
41.432401470294
 20
6.326460864041635
 30
0.0
  0
SPLINE
  5
1E0
330
1F
100
AcDbEntity
  8
외형선
  6
Continuous
 62
     1
370
    15
100
AcDbSpline
210
0.0
220
0.0
230
1.0
 70
     8
 71
     3
 72
    18
 73
    14
 74
     0
 42
0.000000001
 43
0.00000001
 40
0.0
 40
0.0
 40
0.0
 40
0.0
 40
0.2499999999999977
 40
0.2499999999999977
 40
0.4999999999999954
 40
0.4999999999999954
 40
0.6249999999999952
 40
0.6249999999999952
 40
0.7499999999999949
 40
0.7499999999999949
 40
0.8749999999999974
 40
0.8749999999999974
 40
1.0
 40
1.0
 40
1.0
 40
1.0
 10
41.432401470294
 20
6.326460864041633
 30
0.0
 10
41.44701713305358
 20
5.931339911528037
 30
0.0
 10
41.4319635531492
 20
5.540653508119878
 30
0.0
 10
41.32115035592375
 20
4.771343526434743
 30
0.0
 10
41.2223769539311
 20
4.386613807304048
 30
0.0
 10
40.9952343337552
 20
3.86568480109148
 30
0.0
 10
40.90514944446806
 20
3.698570577655587
 30
0.0
 10
40.69949155532307
 20
3.392793180247386
 30
0.0
 10
40.5851209329827
 20
3.255150517409389
 30
0.0
 10
40.33268457108405
 20
3.011165373060296
 30
0.0
 10
40.19289655958328
 20
2.904184611931318
 30
0.0
 10
39.90232873232303
 20
2.731858573978384
 30
0.0
 10
39.75054344091594
 20
2.665030066009355
 30
0.0
 10
39.59261779387607
 20
2.616462421759604
 30
0.0
  0
SPLINE
  5
1E1
330
1F
100
AcDbEntity
  8
외형선
  6
Continuous
 62
     1
370
    15
100
AcDbSpline
210
0.0
220
0.0
230
1.0
 70
     8
 71
     3
 72
     8
 73
     4
 74
     0
 42
0.000000001
 43
0.00000001
 40
0.0
 40
0.0
 40
0.0
 40
0.0
 40
1.0
 40
1.0
 40
1.0
 40
1.0
 10
41.74999999999998
 20
1.583434226630886
 30
0.0
 10
41.01053176688195
 20
1.984526560166079
 30
0.0
 10
40.29158118835039
 20
2.328375965731156
 30
0.0
 10
39.59261779387608
 20
2.616462421759609
 30
0.0
  0
LINE
  5
1E2
330
1F
100
AcDbEntity
  8
외형선
  6
Continuous
 62
     1
370
    15
100
AcDbLine
 10
41.74999999999998
 20
0.7745349031597409
 30
0.0
 11
41.74999999999998
 21
1.583434226630888
 31
0.0
  0
SPLINE
  5
1E3
330
1F
100
AcDbEntity
  8
외형선
  6
Continuous
 62
     1
370
    15
100
AcDbSpline
210
0.0
220
0.0
230
1.0
 70
     8
 71
     3
 72
     8
 73
     4
 74
     0
 42
0.000000001
 43
0.00000001
 40
0.0002705129898938
 40
0.0002705129898938
 40
0.0002705129898938
 40
0.0002705129898938
 40
0.000314883019918
 40
0.000314883019918
 40
0.000314883019918
 40
0.000314883019918
 10
41.7216004417598
 20
0.7863989258431158
 30
0.0
 10
41.73105526109536
 20
0.7789170485874085
 30
0.0
 10
41.74052182623605
 20
0.7714814133403094
 30
0.0
 10
41.74999999999998
 20
0.7640926306196486
 30
0.0
  0
SPLINE
  5
1E4
330
1F
100
AcDbEntity
  8
외형선
  6
Continuous
 62
     1
370
    15
100
AcDbSpline
210
0.0
220
0.0
230
1.0
 70
     8
 71
     3
 72
     8
 73
     4
 74
     0
 42
0.000000001
 43
0.00000001
 40
0.0
 40
0.0
 40
0.0
 40
0.0
 40
1.0
 40
1.0
 40
1.0
 40
1.0
 10
39.35575139385901
 20
2.458551513636554
 30
0.0
 10
39.27633123378712
 20
2.493429515037031
 30
0.0
 10
39.1743678929688
 20
2.55929762724643
 30
0.0
 10
39.09178208207682
 20
2.634558956053405
 30
0.0
  0
SPLINE
  5
1E5
330
1F
100
AcDbEntity
  8
외형선
  6
Continuous
 62
     1
370
    15
100
AcDbSpline
210
0.0
220
0.0
230
1.0
 70
     8
 71
     3
 72
     8
 73
     4
 74
     0
 42
0.000000001
 43
0.00000001
 40
0.0
 40
0.0
 40
0.0
 40
0.0
 40
1.0
 40
1.0
 40
1.0
 40
1.0
 10
38.05739647128205
 20
3.300208227559533
 30
0.0
 10
37.97751456468167
 20
3.324084525637955
 30
0.0
 10
37.87557351209907
 20
3.385045481067031
 30
0.0
 10
37.79338412577587
 20
3.463908865672942
 30
0.0
  0
SPLINE
  5
1E6
330
1F
100
AcDbEntity
  8
외형선
  6
Continuous
 62
     1
370
    15
100
AcDbSpline
210
0.0
220
0.0
230
1.0
 70
     8
 71
     3
 72
     8
 73
     4
 74
     0
 42
0.000000001
 43
0.00000001
 40
0.0
 40
0.0
 40
0.0
 40
0.0
 40
1.0
 40
1.0
 40
1.0
 40
1.0
 10
36.9693569413306
 20
3.948061584440687
 30
0.0
 10
36.88978560285176
 20
3.960586998372166
 30
0.0
 10
36.78770176230961
 20
4.01494168920452
 30
0.0
 10
36.70500191826403
 20
4.094581092901505
 30
0.0
  0
SPLINE
  5
1E7
330
1F
100
AcDbEntity
  8
외형선
  6
Continuous
 62
     1
370
    15
100
AcDbSpline
210
0.0
220
0.0
230
1.0
 70
     8
 71
     3
 72
     8
 73
     4
 74
     0
 42
0.000000001
 43
0.00000001
 40
0.0
 40
0.0
 40
0.0
 40
0.0
 40
1.0
 40
1.0
 40
1.0
 40
1.0
 10
35.66891537446767
 20
4.633735662961968
 30
0.0
 10
35.58897992840548
 20
4.634474095653926
 30
0.0
 10
35.48689412626542
 20
4.681273549465126
 30
0.0
 10
35.40465280178786
 20
4.761101400585496
 30
0.0
  0
SPLINE
  5
1E8
330
1F
100
AcDbEntity
  8
외형선
  6
Continuous
 62
     1
370
    15
100
AcDbSpline
210
0.0
220
0.0
230
1.0
 70
     8
 71
     3
 72
     8
 73
     4
 74
     0
 42
0.000000001
 43
0.00000001
 40
0.0
 40
0.0
 40
0.0
 40
0.0
 40
1.0
 40
1.0
 40
1.0
 40
1.0
 10
35.40465280178795
 20
4.761101400585259
 30
0.0
 10
35.27603636301174
 20
4.885943430932927
 30
0.0
 10
35.13523476490299
 20
4.991765586224806
 30
0.0
 10
34.99219474721512
 20
5.070553508305987
 30
0.0
  0
SPLINE
  5
1E9
330
1F
100
AcDbEntity
  8
외형선
  6
Continuous
 62
     1
370
    15
100
AcDbSpline
210
0.0
220
0.0
230
1.0
 70
     8
 71
     3
 72
     8
 73
     4
 74
     0
 42
0.000000001
 43
0.00000001
 40
0.0
 40
0.0
 40
0.0
 40
0.0
 40
1.0
 40
1.0
 40
1.0
 40
1.0
 10
34.99219474855161
 20
5.070553507832074
 30
0.0
 10
34.84778432320935
 20
5.121763032483378
 30
0.0
 10
34.7067668757174
 20
5.141410624756618
 30
0.0
 10
34.58080822472527
 20
5.12423723967294
 30
0.0
  0
SPLINE
  5
1EA
330
1F
100
AcDbEntity
  8
외형선
  6
Continuous
 62
     1
370
    15
100
AcDbSpline
210
0.0
220
0.0
230
1.0
 70
     8
 71
     3
 72
     8
 73
     4
 74
     0
 42
0.000000001
 43
0.00000001
 40
0.0
 40
0.0
 40
0.0
 40
0.0
 40
1.0
 40
1.0
 40
1.0
 40
1.0
 10
34.58080822472526
 20
5.124237239672949
 30
0.0
 10
34.50133144122383
 20
5.113401259789619
 30
0.0
 10
34.3993827002221
 20
5.151909760586963
 30
0.0
 10
34.31682497296487
 20
5.229549002027779
 30
0.0
  0
SPLINE
  5
1EB
330
1F
100
AcDbEntity
  8
외형선
  6
Continuous
 62
     1
370
    15
100
AcDbSpline
210
0.0
220
0.0
230
1.0
 70
     8
 71
     3
 72
    14
 73
    10
 74
     0
 42
0.000000001
 43
0.00000001
 40
0.0
 40
0.0
 40
0.0
 40
0.0
 40
0.25
 40
0.25
 40
0.5
 40
0.5
 40
0.75
 40
0.75
 40
1.0
 40
1.0
 40
1.0
 40
1.0
 10
34.31682497296489
 20
5.229549002027753
 30
0.0
 10
34.23548016888576
 20
5.306047581793384
 30
0.0
 10
34.15127197249197
 20
5.371679315736355
 30
0.0
 10
33.97610445482377
 20
5.483232316461462
 30
0.0
 10
33.88588774527854
 20
5.528321929398277
 30
0.0
 10
33.70561473510494
 20
5.593318894282358
 30
0.0
 10
33.61783694793502
 20
5.612687993339189
 30
0.0
 10
33.44605627674335
 20
5.625240652734735
 30
0.0
 10
33.3612659660201
 20
5.618009891718558
 30
0.0
 10
33.28254248150927
 20
5.595929132927955
 30
0.0
  0
SPLINE
  5
1EC
330
1F
100
AcDbEntity
  8
외형선
  6
Continuous
 62
     1
370
    15
100
AcDbSpline
210
0.0
220
0.0
230
1.0
 70
     8
 71
     3
 72
     8
 73
     4
 74
     0
 42
0.000000001
 43
0.00000001
 40
0.0
 40
0.0
 40
0.0
 40
0.0
 40
1.0
 40
1.0
 40
1.0
 40
1.0
 10
33.28254248150926
 20
5.595929132927956
 30
0.0
 10
33.20268216743802
 20
5.573529510465794
 30
0.0
 10
33.10066525166688
 20
5.602712622828502
 30
0.0
 10
33.01853605243035
 20
5.677230256164825
 30
0.0
  0
SPLINE
  5
1ED
330
1F
100
AcDbEntity
  8
외형선
  6
Continuous
 62
     1
370
    15
100
AcDbSpline
210
0.0
220
0.0
230
1.0
 70
     8
 71
     3
 72
     8
 73
     4
 74
     0
 42
0.000000001
 43
0.00000001
 40
0.0
 40
0.0
 40
0.0
 40
0.0
 40
1.0
 40
1.0
 40
1.0
 40
1.0
 10
33.01853605243033
 20
5.677230256164839
 30
0.0
 10
32.88994581185471
 20
5.793903016728891
 30
0.0
 10
32.74919716111107
 20
5.881580700424895
 30
0.0
 10
32.60630695104256
 20
5.936440965406282
 30
0.0
  0
SPLINE
  5
1EE
330
1F
100
AcDbEntity
  8
외형선
  6
Continuous
 62
     1
370
    15
100
AcDbSpline
210
0.0
220
0.0
230
1.0
 70
     8
 71
     3
 72
     8
 73
     4
 74
     0
 42
0.000000001
 43
0.00000001
 40
0.0
 40
0.0
 40
0.0
 40
0.0
 40
1.0
 40
1.0
 40
1.0
 40
1.0
 10
32.60630695237901
 20
5.936440965203946
 30
0.0
 10
32.46186502477639
 20
5.958309676635817
 30
0.0
 10
32.32095939325163
 20
5.944277033497129
 30
0.0
 10
32.19494095673159
 20
5.891481171995949
 30
0.0
  0
SPLINE
  5
1EF
330
1F
100
AcDbEntity
  8
외형선
  6
Continuous
 62
     1
370
    15
100
AcDbSpline
210
0.0
220
0.0
230
1.0
 70
     8
 71
     3
 72
     8
 73
     4
 74
     0
 42
0.000000001
 43
0.00000001
 40
0.0
 40
0.0
 40
0.0
 40
0.0
 40
1.0
 40
1.0
 40
1.0
 40
1.0
 10
32.19494095673158
 20
5.891481171995949
 30
0.0
 10
32.11546823376931
 20
5.858185798791006
 30
0.0
 10
32.01347170845303
 20
5.877649846471105
 30
0.0
 10
31.93079019658101
 20
5.947017964404631
 30
0.0
  0
SPLINE
  5
1F0
330
1F
100
AcDbEntity
  8
외형선
  6
Continuous
 62
     1
370
    15
100
AcDbSpline
210
0.0
220
0.0
230
1.0
 70
     8
 71
     3
 72
    14
 73
    10
 74
     0
 42
0.000000001
 43
0.00000001
 40
0.0
 40
0.0
 40
0.0
 40
0.0
 40
0.25
 40
0.25
 40
0.5
 40
0.5
 40
0.75
 40
0.75
 40
1.0
 40
1.0
 40
1.0
 40
1.0
 10
31.93079019658102
 20
5.947017964404629
 30
0.0
 10
31.84931008390771
 20
6.015378132683955
 30
0.0
 10
31.76486388643319
 20
6.069484638608021
 30
0.0
 10
31.58927741426881
 20
6.152959623812873
 30
0.0
 10
31.49886407523769
 20
6.181539018093035
 30
0.0
 10
31.31830363004175
 20
6.210507532432265
 30
0.0
 10
31.23040527324691
 20
6.210861714522625
 30
0.0
 10
31.05841543751372
 20
6.183759822201885
 30
0.0
 10
30.97354811036084
 20
6.155676581562098
 30
0.0
 10
30.89475070753612
 20
6.112736131339352
 30
0.0
  0
SPLINE
  5
1F1
330
1F
100
AcDbEntity
  8
외형선
  6
Continuous
 62
     1
370
    15
100
AcDbSpline
210
0.0
220
0.0
230
1.0
 70
     8
 71
     3
 72
     8
 73
     4
 74
     0
 42
0.000000001
 43
0.00000001
 40
0.0
 40
0.0
 40
0.0
 40
0.0
 40
1.0
 40
1.0
 40
1.0
 40
1.0
 10
30.89475070753611
 20
6.11273613133935
 30
0.0
 10
30.8147075542602
 20
6.069116812482339
 30
0.0
 10
30.71257979247916
 20
6.078420666654218
 30
0.0
 10
30.63031635471176
 20
6.141824797250504
 30
0.0
  0
SPLINE
  5
1F2
330
1F
100
AcDbEntity
  8
외형선
  6
Continuous
 62
     1
370
    15
100
AcDbSpline
210
0.0
220
0.0
230
1.0
 70
     8
 71
     3
 72
     8
 73
     4
 74
     0
 42
0.000000001
 43
0.00000001
 40
0.0
 40
0.0
 40
0.0
 40
0.0
 40
1.0
 40
1.0
 40
1.0
 40
1.0
 10
30.63031635471173
 20
6.141824797250519
 30
0.0
 10
30.50154485287907
 20
6.241074784132452
 30
0.0
 10
30.3608197293576
 20
6.303598350917337
 30
0.0
 10
30.21770877794785
 20
6.330050973284284
 30
0.0
  0
SPLINE
  5
1F3
330
1F
100
AcDbEntity
  8
외형선
  6
Continuous
 62
     1
370
    15
100
AcDbSpline
210
0.0
220
0.0
230
1.0
 70
     8
 71
     3
 72
    13
 73
     9
 74
     0
 42
0.000000001
 43
0.00000001
 40
0.0
 40
0.0
 40
0.0
 40
0.0
 40
0.2317719503082036
 40
0.4651393648534046
 40
0.6398032987674178
 40
0.8151907557743467
 40
0.9928845548302992
 40
0.9999999999999999
 40
0.9999999999999999
 40
0.9999999999999999
 40
0.9999999999999999
 10
30.2177087779474
 20
6.330050973284362
 30
0.0
 10
30.18926626456931
 20
6.327347978989353
 30
0.0
 10
30.1321854461617
 20
6.321923383614842
 30
0.0
 10
30.05496935805161
 20
6.304067092244781
 30
0.0
 10
29.985763432776
 20
6.281957185752797
 30
0.0
 10
29.92466517002982
 20
6.256200276540039
 30
0.0
 10
29.88343860563087
 20
6.236665065597634
 30
0.0
 10
29.86321982346815
 20
6.224219345110805
 30
0.0
 10
29.86244136870805
 20
6.22374016539178
 30
0.0
  0
SPLINE
  5
1F4
330
1F
100
AcDbEntity
  8
외형선
  6
Continuous
 62
     1
370
    15
100
AcDbSpline
210
0.0
220
0.0
230
1.0
 70
     8
 71
     3
 72
    12
 73
     8
 74
     0
 42
0.000000001
 43
0.00000001
 40
0.0
 40
0.0
 40
0.0
 40
0.0
 40
0.1726332576858797
 40
0.399380773621035
 40
0.6323674610542218
 40
0.8142900979669487
 40
1.0
 40
1.0
 40
1.0
 40
1.0
 10
29.74327373840368
 20
6.160841864709076
 30
0.0
 10
29.73185612658813
 20
6.157376171003828
 30
0.0
 10
29.70544189620795
 20
6.149358414450487
 30
0.0
 10
29.66155281894182
 20
6.148481438783995
 30
0.0
 10
29.61734720850455
 20
6.155386247298466
 30
0.0
 10
29.57683954174322
 20
6.169418032050008
 30
0.0
 10
29.55372183605233
 20
6.183352248178806
 30
0.0
 10
29.54204390658667
 20
6.190391129774018
 30
0.0
  0
LINE
  5
1F5
330
1F
100
AcDbEntity
  8
외형선
  6
Continuous
370
    15
100
AcDbLine
 10
-40.30000000000002
 20
6.349999999999996
 30
0.0
 11
-40.30000000000002
 21
-6.350000000000004
 31
0.0
  0
LINE
  5
1F6
330
1F
100
AcDbEntity
  8
외형선
  6
Continuous
370
    15
100
AcDbLine
 10
-40.80000000000003
 20
5.849999999999995
 30
0.0
 11
-40.80000000000003
 21
-5.850000000000006
 31
0.0
  0
LINE
  5
1F7
330
1F
100
AcDbEntity
  8
외형선
  6
Continuous
 62
     1
370
    15
100
AcDbLine
 10
41.74999999999998
 20
-3.345862516595404
 30
0.0
 11
41.74999999999998
 21
0.7640926306196477
 31
0.0
  0
SPLINE
  5
1F8
330
1F
100
AcDbEntity
  8
외형선
  6
Continuous
 62
     1
370
    15
100
AcDbSpline
210
0.0
220
0.0
230
1.0
 70
     8
 71
     3
 72
     8
 73
     4
 74
     0
 42
0.000000001
 43
0.00000001
 40
0.000111401997221
 40
0.000111401997221
 40
0.000111401997221
 40
0.000111401997221
 40
0.0003107269553786
 40
0.0003107269553786
 40
0.0003107269553786
 40
0.0003107269553786
 10
41.62169560600744
 20
-3.485304656949768
 30
0.0
 10
41.66453584541082
 20
-3.438836262976862
 30
0.0
 10
41.70730537579451
 20
-3.392355534847828
 30
0.0
 10
41.74999999999998
 20
-3.345862516595402
 30
0.0
  0
SPLINE
  5
1F9
330
1F
100
AcDbEntity
  8
외형선
  6
Continuous
 62
     1
370
    15
100
AcDbSpline
210
0.0
220
0.0
230
1.0
 70
     8
 71
     3
 72
    10
 73
     6
 74
     0
 42
0.000000001
 43
0.00000001
 40
0.0
 40
0.0
 40
0.0
 40
0.0
 40
0.5
 40
0.5
 40
1.0
 40
1.0
 40
1.0
 40
1.0
 10
41.70815352975593
 20
0.2147301539132396
 30
0.0
 10
41.69161168359228
 20
-0.4355092107778324
 30
0.0
 10
41.67565414061698
 20
-1.089500250626395
 30
0.0
 10
41.64672761235677
 20
-2.334661908421807
 30
0.0
 10
41.63386331850653
 20
-2.937276743850981
 30
0.0
 10
41.62169560600745
 20
-3.485304656949775
 30
0.0
  0
SPLINE
  5
1FA
330
1F
100
AcDbEntity
  8
외형선
  6
Continuous
 62
     1
370
    15
100
AcDbSpline
210
0.0
220
0.0
230
1.0
 70
     8
 71
     3
 72
     8
 73
     4
 74
     0
 42
0.000000001
 43
0.00000001
 40
0.0
 40
0.0
 40
0.0
 40
0.0
 40
1.0
 40
1.0
 40
1.0
 40
1.0
 10
41.62169560600744
 20
-3.485304656949765
 30
0.0
 10
41.5632092495972
 20
-3.507626009990364
 30
0.0
 10
41.50653096782715
 20
-3.526070370454054
 30
0.0
 10
41.45219978369151
 20
-3.540279468036801
 30
0.0
  0
SPLINE
  5
1FB
330
1F
100
AcDbEntity
  8
외형선
  6
Continuous
 62
     1
370
    15
100
AcDbSpline
210
0.0
220
0.0
230
1.0
 70
     8
 71
     3
 72
    14
 73
    10
 74
     0
 42
0.000000001
 43
0.00000001
 40
0.0
 40
0.0
 40
0.0
 40
0.0
 40
0.1250000000000003
 40
0.1250000000000003
 40
0.2500000000000006
 40
0.2500000000000006
 40
0.5000000000000004
 40
0.5000000000000004
 40
1.0
 40
1.0
 40
1.0
 40
1.0
 10
17.48544285639768
 20
5.005138509510796
 30
0.0
 10
17.47323037723597
 20
4.88534460694503
 30
0.0
 10
17.46116637131649
 20
4.758966574755962
 30
0.0
 10
17.43747728024005
 20
4.495014865425227
 30
0.0
 10
17.42599386842912
 20
4.358053444916995
 30
0.0
 10
17.39054960602476
 20
3.925954360470333
 30
0.0
 10
17.36601770818988
 20
3.610811901749764
 30
0.0
 10
17.2914856334988
 20
2.60455264877197
 30
0.0
 10
17.24062565218351
 20
1.852060172386468
 30
0.0
 10
17.19354024313959
 20
1.094338340194944
 30
0.0
  0
SPLINE
  5
1FC
330
1F
100
AcDbEntity
  8
외형선
  6
Continuous
 62
     1
370
    15
100
AcDbSpline
210
0.0
220
0.0
230
1.0
 70
     8
 71
     3
 72
    12
 73
     8
 74
     0
 42
0.000000001
 43
0.00000001
 40
0.0
 40
0.0
 40
0.0
 40
0.0
 40
0.2500000000000001
 40
0.2500000000000001
 40
0.5000000000000001
 40
0.5000000000000001
 40
1.0
 40
1.0
 40
1.0
 40
1.0
 10
34.992194747215
 20
5.070553508306065
 30
0.0
 10
34.96766925883496
 20
4.83589371863076
 30
0.0
 10
34.94414061882805
 20
4.575950314788429
 30
0.0
 10
34.8972255664283
 20
4.009860847053002
 30
0.0
 10
34.87281697217722
 20
3.699268279911609
 30
0.0
 10
34.79847901714632
 20
2.704433454465714
 30
0.0
 10
34.74750386257725
 20
1.956422370898103
 30
0.0
 10
34.7000939197805
 20
1.199393539664578
 30
0.0
  0
SPLINE
  5
1FD
330
1F
100
AcDbEntity
  8
외형선
  6
Continuous
 62
     1
370
    15
100
AcDbSpline
210
0.0
220
0.0
230
1.0
 70
     8
 71
     3
 72
    12
 73
     8
 74
     0
 42
0.000000001
 43
0.00000001
 40
0.0
 40
0.0
 40
0.0
 40
0.0
 40
0.2500000000000001
 40
0.2500000000000001
 40
0.5000000000000001
 40
0.5000000000000001
 40
1.0
 40
1.0
 40
1.0
 40
1.0
 10
27.03500725995223
 20
-1.418910407252378
 30
0.0
 10
27.01010546958474
 20
-1.80042877161513
 30
0.0
 10
26.98538525832057
 20
-2.172821240591883
 30
0.0
 10
26.9375198657736
 20
-2.881589387253459
 30
0.0
 10
26.91472336666248
 20
-3.216679447191049
 30
0.0
 10
26.84236408771742
 20
-4.181465753097163
 30
0.0
 10
26.79123855815312
 20
-4.755291981392027
 30
0.0
 10
26.74225669188244
 20
-5.201795945946045
 30
0.0
  0
SPLINE
  5
200
330
1F
100
AcDbEntity
  8
외형선
  6
Continuous
 62
     1
370
    15
100
AcDbSpline
210
0.0
220
0.0
230
1.0
 70
     8
 71
     3
 72
    14
 73
    10
 74
     0
 42
0.000000001
 43
0.00000001
 40
0.0
 40
0.0
 40
0.0
 40
0.0
 40
0.4999999999999994
 40
0.4999999999999994
 40
0.6249999999999997
 40
0.6249999999999997
 40
0.7499999999999998
 40
0.7499999999999998
 40
1.0
 40
1.0
 40
1.0
 40
1.0
 10
15.09958942141756
 20
5.897918901700963
 30
0.0
 10
15.05014696982405
 20
5.608584330876957
 30
0.0
 10
14.99923759499648
 20
5.178533365856565
 30
0.0
 10
14.93997256810514
 20
4.523827860907598
 30
0.0
 10
14.92849582334798
 20
4.38791853180333
 30
0.0
 10
14.90497517731662
 20
4.102327215240914
 30
0.0
 10
14.89298695323205
 20
3.952785664719341
 30
0.0
 10
14.85654711687009
 20
3.486144561787361
 30
0.0
 10
14.83161742419762
 20
3.1508865756441
 30
0.0
 10
14.80667443157221
 20
2.79943253793701
 30
0.0
  0
SPLINE
  5
201
330
1F
100
AcDbEntity
  8
외형선
  6
Continuous
 62
     1
370
    15
100
AcDbSpline
210
0.0
220
0.0
230
1.0
 70
     8
 71
     3
 72
    12
 73
     8
 74
     0
 42
0.000000001
 43
0.00000001
 40
0.0
 40
0.0
 40
0.0
 40
0.0
 40
0.4999999999999998
 40
0.4999999999999998
 40
0.7499999999999999
 40
0.7499999999999999
 40
1.0
 40
1.0
 40
1.0
 40
1.0
 10
32.60630695104188
 20
5.936440965403149
 30
0.0
 10
32.55700975072391
 20
5.659541646261376
 30
0.0
 10
32.50600843567406
 20
5.24090227407018
 30
0.0
 10
32.43443860168556
 20
4.467722165280653
 30
0.0
 10
32.41160642826141
 20
4.187959887945989
 30
0.0
 10
32.36325773256199
 20
3.574560460291453
 30
0.0
 10
32.33839349703735
 20
3.243094035610812
 30
0.0
 10
32.31345715622481
 20
2.89461173098734
 30
0.0
  0
SPLINE
  5
202
330
1F
100
AcDbEntity
  8
외형선
  6
Continuous
 62
     1
370
    15
100
AcDbSpline
210
0.0
220
0.0
230
1.0
 70
     8
 71
     3
 72
    14
 73
    10
 74
     0
 42
0.000000001
 43
0.00000001
 40
0.0
 40
0.0
 40
0.0
 40
0.0
 40
0.5000000000000004
 40
0.5000000000000004
 40
0.7500000000000002
 40
0.7500000000000002
 40
0.8750000000000001
 40
0.8750000000000001
 40
1.0
 40
1.0
 40
1.0
 40
1.0
 10
29.42285805706931
 20
-3.092371118767042
 30
0.0
 10
29.37603413572781
 20
-3.763191139901328
 30
0.0
 10
29.32526676988488
 20
-4.382143461080572
 30
0.0
 10
29.25057714091014
 20
-5.133722290631813
 30
0.0
 10
29.22594536352047
 20
-5.355200666926377
 30
0.0
 10
29.19029224059034
 20
-5.63756398789109
 30
0.0
 10
29.17878667649829
 20
-5.723102013416264
 30
0.0
 10
29.15521905631075
 20
-5.879593723612114
 30
0.0
 10
29.14320579797457
 20
-5.950334028717564
 30
0.0
 10
29.13103303207609
 20
-6.01286804359544
 30
0.0
  0
SPLINE
  5
203
330
1F
100
AcDbEntity
  8
외형선
  6
Continuous
 62
     1
370
    15
100
AcDbSpline
210
0.0
220
0.0
230
1.0
 70
     8
 71
     3
 72
    14
 73
    10
 74
     0
 42
0.000000001
 43
0.00000001
 40
0.0
 40
0.0
 40
0.0
 40
0.0
 40
0.5
 40
0.5
 40
0.75
 40
0.75
 40
0.875
 40
0.875
 40
1.0
 40
1.0
 40
1.0
 40
1.0
 10
11.91627144699809
 20
-3.186046441693763
 30
0.0
 10
11.86911951206838
 20
-3.85174920160632
 30
0.0
 10
11.81823407746293
 20
-4.461911724663027
 30
0.0
 10
11.74373706290929
 20
-5.197043933630851
 30
0.0
 10
11.71922855687987
 20
-5.412534553380352
 30
0.0
 10
11.68383410589804
 20
-5.685644634189505
 30
0.0
 10
11.67234527062283
 20
-5.768279931377201
 30
0.0
 10
11.64862458520434
 20
-5.919146289290473
 30
0.0
 10
11.63654725444794
 20
-5.986939114899513
 30
0.0
 10
11.62432419490895
 20
-6.046423520014831
 30
0.0
  0
SPLINE
  5
204
330
1F
100
AcDbEntity
  8
외형선
  6
Continuous
 62
     1
370
    15
100
AcDbSpline
210
0.0
220
0.0
230
1.0
 70
     8
 71
     3
 72
    14
 73
    10
 74
     0
 42
0.000000001
 43
0.00000001
 40
0.0
 40
0.0
 40
0.0
 40
0.0
 40
0.25
 40
0.25
 40
0.5
 40
0.5
 40
0.75
 40
0.75
 40
1.0
 40
1.0
 40
1.0
 40
1.0
 10
12.71105366842941
 20
6.320655513024754
 30
0.0
 10
12.68706140191508
 20
6.283459738621299
 30
0.0
 10
12.66419542594313
 20
6.212257267087613
 30
0.0
 10
12.615794437177
 20
5.998746600060379
 30
0.0
 10
12.59087900355153
 20
5.856379025805762
 30
0.0
 10
12.54086087767785
 20
5.505439069312036
 30
0.0
 10
12.51576545232898
 20
5.296912565537495
 30
0.0
 10
12.46667432239409
 20
4.82550572618576
 30
0.0
 10
12.44316901990297
 20
4.564684601078093
 30
0.0
 10
12.41965106075172
 20
4.280442535033313
 30
0.0
  0
SPLINE
  5
205
330
1F
100
AcDbEntity
  8
외형선
  6
Continuous
 62
     1
370
    15
100
AcDbSpline
210
0.0
220
0.0
230
1.0
 70
     8
 71
     3
 72
    14
 73
    10
 74
     0
 42
0.000000001
 43
0.00000001
 40
0.0
 40
0.0
 40
0.0
 40
0.0
 40
0.2500000000000001
 40
0.2500000000000001
 40
0.5
 40
0.5
 40
0.7499999999999999
 40
0.7499999999999999
 40
1.0
 40
1.0
 40
1.0
 40
1.0
 10
30.2177087779474
 20
6.330050973284362
 30
0.0
 10
30.19358425164016
 20
6.299322365793707
 30
0.0
 10
30.17075022674822
 20
6.234410773827029
 30
0.0
 10
30.12263746921433
 20
6.034044754861058
 30
0.0
 10
30.09781304061763
 20
5.898226218245516
 30
0.0
 10
30.04785587263657
 20
5.559657034295807
 30
0.0
 10
30.02273034374646
 20
5.356946718667078
 30
0.0
 10
29.97346299547064
 20
4.895863412476952
 30
0.0
 10
29.94955601359879
 20
4.638482762684432
 30
0.0
 10
29.92622560520063
 20
4.359485126710713
 30
0.0
  0
SPLINE
  5
206
330
1F
100
AcDbEntity
  8
외형선
  6
Continuous
 62
     1
370
    15
100
AcDbSpline
210
0.0
220
0.0
230
1.0
 70
     8
 71
     3
 72
    14
 73
    10
 74
     0
 42
0.000000001
 43
0.00000001
 40
0.0
 40
0.0
 40
0.0
 40
0.0
 40
0.2499999999999997
 40
0.2499999999999997
 40
0.3749999999999996
 40
0.3749999999999996
 40
0.4999999999999996
 40
0.4999999999999996
 40
1.0
 40
1.0
 40
1.0
 40
1.0
 10
31.81001585508853
 20
-4.518891547141299
 30
0.0
 10
31.78507404506637
 20
-4.793982553177344
 30
0.0
 10
31.76009713252694
 20
-5.04318826411129
 30
0.0
 10
31.72351969087655
 20
-5.369653398819464
 30
0.0
 10
31.71147459542241
 20
-5.470632798232055
 30
0.0
 10
31.68782050167268
 20
-5.656114104178281
 30
0.0
 10
31.67635661839281
 20
-5.740348211336903
 30
0.0
 10
31.61741457395599
 20
-6.125538565636736
 30
0.0
 10
31.56659483826722
 20
-6.309186824986569
 30
0.0
 10
31.51704602064296
 20
-6.343775422045043
 30
0.0
  0
SPLINE
  5
207
330
1F
100
AcDbEntity
  8
외형선
  6
Continuous
 62
     1
370
    15
100
AcDbSpline
210
0.0
220
0.0
230
1.0
 70
     8
 71
     3
 72
    12
 73
     8
 74
     0
 42
0.000000001
 43
0.00000001
 40
0.0
 40
0.0
 40
0.0
 40
0.0
 40
0.2253048303304585
 40
0.4398825450634562
 40
0.6538974340506624
 40
0.8707359523328396
 40
1.0
 40
1.0
 40
1.0
 40
1.0
 10
14.3031587037959
 20
-4.593864851696046
 30
0.0
 10
14.28262292440821
 20
-4.80587239195022
 30
0.0
 10
14.24252910623012
 20
-5.219793461653277
 30
0.0
 10
14.18482595701839
 20
-5.695046042890741
 30
0.0
 10
14.12847876734157
 20
-6.045858540716307
 30
0.0
 10
14.07743408421146
 20
-6.257263907699105
 30
0.0
 10
14.04598995553239
 20
-6.295430487602795
 30
0.0
 10
14.03424605141751
 20
-6.309685125069673
 30
0.0
  0
LINE
  5
208
330
1F
100
AcDbEntity
  8
외형선
  6
Continuous
 62
     1
370
    15
100
AcDbLine
 10
31.96754702987065
 20
-6.148672979500595
 30
0.0
 11
31.94697912711779
 21
-6.171304350856417
 31
0.0
  0
LINE
  5
209
330
1F
100
AcDbEntity
  8
외형선
  6
Continuous
 62
     1
370
    15
100
AcDbLine
 10
14.47157614775983
 20
-6.14661867749109
 30
0.0
 11
14.46398105033917
 21
-6.153255587277195
 31
0.0
  0
LINE
  5
20A
330
1F
100
AcDbEntity
  8
외형선
  6
Continuous
 62
     1
370
    15
100
AcDbLine
 10
12.03525319714325
 20
6.189716259173808
 30
0.0
 11
12.03027622269162
 21
6.182310081057237
 31
0.0
  0
LINE
  5
20B
330
1F
100
AcDbEntity
  8
외형선
  6
Continuous
 62
     1
370
    15
100
AcDbLine
 10
10.93959730250001
 20
6.180120684425437
 30
0.0
 11
10.93133922192382
 21
6.166557926672552
 31
0.0
  0
LINE
  5
20C
330
1F
100
AcDbEntity
  8
외형선
  6
Continuous
 62
     1
370
    15
100
AcDbLine
 10
29.54204390658711
 20
6.190391129774004
 30
0.0
 11
29.53398287107656
 21
6.179488923113585
 31
0.0
  0
LINE
  5
20D
330
1F
100
AcDbEntity
  8
외형선
  6
Continuous
 62
     1
370
    15
100
AcDbLine
 10
28.44187741024742
 20
6.180296770792219
 30
0.0
 11
28.43432279713806
 21
6.168395341265734
 31
0.0
  0
LINE
  5
20E
330
1F
100
AcDbEntity
  8
외형선
  6
Continuous
 62
     1
370
    15
100
AcDbLine
 10
33.30882187290413
 20
-6.174317788953074
 30
0.0
 11
33.30366433749479
 21
-6.183517075973948
 31
0.0
  0
LINE
  5
20F
330
1F
100
AcDbEntity
  8
외형선
  6
Continuous
 62
     1
370
    15
100
AcDbLine
 10
15.80658152126786
 20
-6.17169151275482
 30
0.0
 11
15.80298409783042
 21
-6.177252391921839
 31
0.0
  0
LINE
  5
210
330
1F
100
AcDbEntity
  8
외형선
  6
Continuous
 62
     1
370
    15
100
AcDbLine
 10
10.68950492616925
 20
6.175710049494794
 30
0.0
 11
10.68116201100095
 21
6.183435931221141
 31
0.0
  0
SPLINE
  5
211
330
1F
100
AcDbEntity
  8
외형선
  6
Continuous
 62
     1
370
    15
100
AcDbSpline
210
0.0
220
0.0
230
1.0
 70
     8
 71
     3
 72
    10
 73
     6
 74
     0
 42
0.000000001
 43
0.00000001
 40
0.0
 40
0.0
 40
0.0
 40
0.0
 40
0.3212972016531941
 40
0.6586045891485619
 40
1.0
 40
1.0
 40
1.0
 40
1.0
 10
10.25013908918335
 20
6.348339795534073
 30
0.0
 10
10.2269118151689
 20
6.329983720020419
 30
0.0
 10
10.17929985595912
 20
6.292356888819138
 30
0.0
 10
10.10762979734213
 20
5.981661652245288
 30
0.0
 10
10.05709159722948
 20
5.608572873383864
 30
0.0
 10
10.03167029407119
 20
5.420904873113779
 30
0.0
  0
LINE
  5
212
330
1F
100
AcDbEntity
  8
외형선
  6
Continuous
 62
     1
370
    15
100
AcDbLine
 10
28.19242466744372
 20
6.173812464673294
 30
0.0
 11
28.18451930459277
 21
6.182656944719945
 31
0.0
  0
SPLINE
  5
213
330
1F
100
AcDbEntity
  8
외형선
  6
Continuous
 62
     1
370
    15
100
AcDbSpline
210
0.0
220
0.0
230
1.0
 70
     8
 71
     3
 72
    11
 73
     7
 74
     0
 42
0.000000001
 43
0.00000001
 40
0.0
 40
0.0
 40
0.0
 40
0.0
 40
0.107227902734955
 40
0.339156072892634
 40
0.6675521278894273
 40
1.0
 40
1.0
 40
1.0
 40
1.0
 10
27.75265114287915
 20
6.337190505269393
 30
0.0
 10
27.74489673342473
 20
6.340987230808729
 30
0.0
 10
27.72036995456322
 20
6.352996068908973
 30
0.0
 10
27.67394577829292
 20
6.251024425725813
 30
0.0
 10
27.6109312652866
 20
6.000882740043794
 30
0.0
 10
27.5627520160994
 20
5.65177579667976
 30
0.0
 10
27.53851469134667
 20
5.476152089326627
 30
0.0
  0
LINE
  5
214
330
1F
100
AcDbEntity
  8
외형선
  6
Continuous
 62
     1
370
    15
100
AcDbLine
 10
33.55755028315994
 20
-6.175485034823486
 30
0.0
 11
33.55110341807217
 21
-6.166908481948888
 31
0.0
  0
SPLINE
  5
215
330
1F
100
AcDbEntity
  8
외형선
  6
Continuous
370
    15
100
AcDbSpline
210
0.0
220
0.0
230
1.0
 70
    24
 71
     3
 72
    12
 73
     8
 74
     0
 42
0.000000001
 43
0.00000001
 40
0.0
 40
0.0
 40
0.0
 40
0.0
 40
0.1322936457685367
 40
0.2760939799081614
 40
0.5626242023158661
 40
0.8563041346154512
 40
1.0
 40
1.0
 40
1.0
 40
1.0
 10
9.999999999999943
 20
5.429325646036999
 30
0.0
 10
9.999999999999961
 20
5.501391617419234
 30
0.0
 10
9.999999999999996
 20
5.651791742378232
 30
0.0
 10
9.999999999999972
 20
5.907572362682771
 30
0.0
 10
10.00000000000001
 20
6.146989225199889
 30
0.0
 10
9.999999999999815
 20
6.290244401802605
 30
0.0
 10
10.00000000000018
 20
6.273133817833902
 30
0.0
 10
10.0000000000003
 20
6.26751229011418
 30
0.0
  0
SPLINE
  5
217
330
1F
100
AcDbEntity
  8
외형선
  6
Continuous
370
    15
100
AcDbSpline
210
0.0
220
0.0
230
1.0
 70
     8
 71
     3
 72
     9
 73
     5
 74
     0
 42
0.000000001
 43
0.00000001
 40
0.0
 40
0.0
 40
0.0
 40
0.0
 40
0.546256969663959
 40
1.0
 40
1.0
 40
1.0
 40
1.0
 10
9.804082394864352
 20
6.186448209668741
 30
0.0
 10
9.803521068652646
 20
6.187027222560759
 30
0.0
 10
9.80249348229151
 20
6.188087186870915
 30
0.0
 10
9.801502978534806
 20
6.185927680929789
 30
0.0
 10
9.801053544358684
 20
6.184947820160034
 30
0.0
  0
SPLINE
  5
218
330
1F
100
AcDbEntity
  8
외형선
  6
Continuous
 62
     1
370
    15
100
AcDbSpline
210
0.0
220
0.0
230
1.0
 70
     8
 71
     3
 72
    10
 73
     6
 74
     0
 42
0.000000001
 43
0.00000001
 40
0.0
 40
0.0
 40
0.0
 40
0.0
 40
0.3401768546284579
 40
0.6852534996708602
 40
1.0
 40
1.0
 40
1.0
 40
1.0
 10
34.19676354976455
 20
-5.585858646039513
 30
0.0
 10
34.1753060917013
 20
-5.737398552780212
 30
0.0
 10
34.13208210972888
 20
-6.042661094957802
 30
0.0
 10
34.06613860612804
 20
-6.297953298134761
 30
0.0
 10
34.02287101251883
 20
-6.328092770526361
 30
0.0
 10
34.00223165822868
 20
-6.342469794920802
 30
0.0
  0
LINE
  5
219
330
1F
100
AcDbEntity
  8
외형선
  6
Continuous
 62
     1
370
    15
100
AcDbLine
 10
33.99613660765584
 20
-6.349806891642585
 30
0.0
 11
33.99230334071476
 21
-6.344179323405345
 31
0.0
  0
LINE
  5
21A
330
1F
100
AcDbEntity
  8
외형선
  6
Continuous
 62
     1
370
    15
100
AcDbLine
 10
16.05481985171594
 20
-6.173752037375934
 30
0.0
 11
16.04924645649674
 21
-6.166147381678033
 31
0.0
  0
SPLINE
  5
21B
330
1F
100
AcDbEntity
  8
외형선
  6
Continuous
 62
     1
370
    15
100
AcDbSpline
210
0.0
220
0.0
230
1.0
 70
     8
 71
     3
 72
    10
 73
     6
 74
     0
 42
0.000000001
 43
0.00000001
 40
0.0
 40
0.0
 40
0.0
 40
0.0
 40
0.3437170658062154
 40
0.6922531231801347
 40
1.0
 40
1.0
 40
1.0
 40
1.0
 10
16.69023266717065
 20
-5.635813759512625
 30
0.0
 10
16.66925658417552
 20
-5.778761552248952
 30
0.0
 10
16.62701032872292
 20
-6.066661298341921
 30
0.0
 10
16.56324976192942
 20
-6.303283292501941
 30
0.0
 10
16.52172576205946
 20
-6.3288956700563
 30
0.0
 10
16.50225415826292
 20
-6.340905930859392
 30
0.0
  0
LINE
  5
21C
330
1F
100
AcDbEntity
  8
외형선
  6
Continuous
 62
     1
370
    15
100
AcDbLine
 10
16.49443234774258
 20
-6.349538255813668
 30
0.0
 11
16.49152601042816
 21
-6.345169885726156
 31
0.0
  0
LINE
  5
21D
330
1F
100
AcDbEntity
  8
외형선
  6
Continuous
370
    15
100
AcDbLine
 10
9.561233389936113
 20
6.165891907814263
 30
0.0
 11
9.557234097809769
 21
6.168709732179984
 31
0.0
  0
SPLINE
  5
21E
330
1F
100
AcDbEntity
  8
외형선
  6
Continuous
370
    15
100
AcDbSpline
210
0.0
220
0.0
230
1.0
 70
     8
 71
     3
 72
     9
 73
     5
 74
     0
 42
0.000000001
 43
0.00000001
 40
0.0
 40
0.0
 40
0.0
 40
0.0
 40
0.0400061666549708
 40
1.0
 40
1.0
 40
1.0
 40
1.0
 10
9.155914906922735
 20
6.337179425989778
 30
0.0
 10
9.155710632174706
 20
6.337353258507727
 30
0.0
 10
9.15060455066012
 20
6.341698401581547
 30
0.0
 10
9.073830312380291
 20
6.345787632383518
 30
0.0
 10
9.000127517071892
 20
6.349713268736534
 30
0.0
  0
LINE
  5
21F
330
1F
100
AcDbEntity
  8
외형선
  6
Continuous
 62
     1
370
    15
100
AcDbLine
 10
27.06200373191318
 20
6.163961145191876
 30
0.0
 11
27.05729585470705
 21
6.16788418464902
 31
0.0
  0
LINE
  5
220
330
1F
100
AcDbEntity
  8
외형선
  6
Continuous
 62
     1
370
    15
100
AcDbLine
 10
34.69172154724139
 20
-6.180956371401596
 30
0.0
 11
34.68933319774429
 21
-6.177153108369744
 31
0.0
  0
LINE
  5
221
330
1F
100
AcDbEntity
  8
외형선
  6
Continuous
 62
     1
370
    15
100
AcDbLine
 10
35.8120630138888
 20
-6.163349073443511
 30
0.0
 11
35.80731542115316
 21
-6.167616887898407
 31
0.0
  0
LINE
  5
222
330
1F
100
AcDbEntity
  8
외형선
  6
Continuous
 62
     1
370
    15
100
AcDbLine
 10
18.31171837898223
 20
-6.164817162996674
 30
0.0
 11
18.30726825441344
 21
-6.168242853119279
 31
0.0
  0
SPLINE
  5
223
330
1F
100
AcDbEntity
  8
외형선
  6
Continuous
 62
     1
370
    15
100
AcDbSpline
210
0.0
220
0.0
230
1.0
 70
     8
 71
     3
 72
     8
 73
     4
 74
     0
 42
0.000000001
 43
0.00000001
 40
0.0
 40
0.0
 40
0.0
 40
0.0
 40
1.0
 40
1.0
 40
1.0
 40
1.0
 10
41.55342989740338
 20
6.330229045467431
 30
0.0
 10
41.51312024421374
 20
6.331409916730816
 30
0.0
 10
41.47277742210154
 20
6.330152895196751
 30
0.0
 10
41.432401470294
 20
6.326460864041633
 30
0.0
  0
SPLINE
  5
224
330
1F
100
AcDbEntity
  8
외형선
  6
Continuous
 62
     1
370
    15
100
AcDbSpline
210
0.0
220
0.0
230
1.0
 70
     8
 71
     3
 72
     8
 73
     4
 74
     0
 42
0.000000001
 43
0.00000001
 40
0.0000056196674463
 40
0.0000056196674463
 40
0.0000056196674463
 40
0.0000056196674463
 40
0.0003107269553786
 40
0.0003107269553786
 40
0.0003107269553786
 40
0.0003107269553786
 10
41.55342989740314
 20
6.33022904546704
 30
0.0
 10
41.6191189756841
 20
6.267677480642626
 30
0.0
 10
41.68464726143521
 20
6.204873319545231
 30
0.0
 10
41.74999999999998
 20
6.141798901787655
 30
0.0
  0
LINE
  5
225
330
1F
100
AcDbEntity
  8
외형선
  6
Continuous
 62
     1
370
    15
100
AcDbLine
 10
41.74999999999998
 20
0.7640926306196477
 30
0.0
 11
41.74999999999998
 21
0.7745349031597409
 31
0.0
  0
LINE
  5
226
330
1F
100
AcDbEntity
  8
외형선
  6
Continuous
 62
     1
370
    15
100
AcDbLine
 10
41.74999999999998
 20
1.583434226630886
 30
0.0
 11
41.74999999999998
 21
6.141798901787657
 31
0.0
  0
SPLINE
  5
227
330
1F
100
AcDbEntity
  8
외형선
  6
Continuous
 62
     1
370
    15
100
AcDbSpline
210
0.0
220
0.0
230
1.0
 70
     8
 71
     3
 72
     9
 73
     5
 74
     0
 42
0.000000001
 43
0.00000001
 40
0.0
 40
0.0
 40
0.0
 40
0.0
 40
0.6801758257918274
 40
1.0
 40
1.0
 40
1.0
 40
1.0
 10
25.24181159819912
 20
6.344539088631966
 30
0.0
 10
25.22131081252638
 20
6.32735813992769
 30
0.0
 10
25.19117039163024
 20
6.302098570191768
 30
0.0
 10
25.16156070576123
 20
6.191525944041341
 30
0.0
 10
25.15209081242961
 20
6.156162145192752
 30
0.0
  0
LINE
  5
228
330
1F
100
AcDbEntity
  8
외형선
  6
Continuous
 62
     1
370
    15
100
AcDbLine
 10
18.55313304582796
 20
-6.187198896056501
 30
0.0
 11
18.55115761523762
 21
-6.183927346061771
 31
0.0
  0
SPLINE
  5
229
330
1F
100
AcDbEntity
  8
외형선
  6
Continuous
 62
     1
370
    15
100
AcDbSpline
210
0.0
220
0.0
230
1.0
 70
     8
 71
     3
 72
     9
 73
     5
 74
     0
 42
0.000000001
 43
0.00000001
 40
0.0
 40
0.0
 40
0.0
 40
0.0
 40
0.6442584376094634
 40
1.0
 40
1.0
 40
1.0
 40
1.0
 10
36.58487290929321
 20
-6.207614030081145
 30
0.0
 10
36.56735152580002
 20
-6.259288206487772
 30
0.0
 10
36.54015532242828
 20
-6.339495423638652
 30
0.0
 10
36.5132583297675
 20
-6.337308954962746
 30
0.0
 10
36.50368995157475
 20
-6.336531137179861
 30
0.0
  0
LINE
  5
22A
330
1F
100
AcDbEntity
  8
외형선
  6
Continuous
 62
     1
370
    15
100
AcDbLine
 10
24.80614776518588
 20
6.174606029972497
 30
0.0
 11
24.80010376297539
 21
6.166460803482738
 31
0.0
  0
SPLINE
  5
22B
330
1F
100
AcDbEntity
  8
외형선
  6
Continuous
 62
     1
370
    15
100
AcDbSpline
210
0.0
220
0.0
230
1.0
 70
     8
 71
     3
 72
     9
 73
     5
 74
     0
 42
0.000000001
 43
0.00000001
 40
0.0
 40
0.0
 40
0.0
 40
0.0
 40
0.9736709963082274
 40
1.0
 40
1.0
 40
1.0
 40
1.0
 10
19.07809493480688
 20
-6.229190124110276
 30
0.0
 10
19.05276947184017
 20
-6.3047294149103
 30
0.0
 10
19.02675918390643
 20
-6.382311361056831
 30
0.0
 10
19.00166766638205
 20
-6.347995517771497
 30
0.0
 10
19.00100703172452
 20
-6.347092015806952
 30
0.0
  0
LINE
  5
22C
330
1F
100
AcDbEntity
  8
외형선
  6
Continuous
 62
     1
370
    15
100
AcDbLine
 10
36.94376391584515
 20
-6.172905980523475
 30
0.0
 11
36.93612099718958
 21
-6.182183679835702
 31
0.0
  0
LINE
  5
22D
330
1F
100
AcDbEntity
  8
외형선
  6
Continuous
 62
     1
370
    15
100
AcDbLine
 10
41.74999999999998
 20
-3.345862516595404
 30
0.0
 11
41.74999999999998
 21
-3.441831518963338
 31
0.0
  0
LINE
  5
22E
330
1F
100
AcDbEntity
  8
외형선
  6
Continuous
 62
     1
370
    15
100
AcDbLine
 10
19.44098824507515
 20
-6.174759854069335
 30
0.0
 11
19.43282950687553
 21
-6.18308814254829
 31
0.0
  0
LINE
  5
22F
330
1F
100
AcDbEntity
  8
외형선
  6
Continuous
 62
     1
370
    15
100
AcDbLine
 10
24.55767697911222
 20
6.172615648315197
 30
0.0
 11
24.5531993596215
 21
6.180021139559508
 31
0.0
  0
LINE
  5
230
330
1F
100
AcDbEntity
  8
외형선
  6
Continuous
 62
     1
370
    15
100
AcDbLine
 10
37.19287628271653
 20
-6.180035092118463
 30
0.0
 11
37.18575729261653
 21
-6.169060633719218
 31
0.0
  0
LINE
  5
231
330
1F
100
AcDbEntity
  8
외형선
  6
Continuous
 62
     1
370
    15
100
AcDbLine
 10
19.69075838426124
 20
-6.180300455549888
 30
0.0
 11
19.68284593252361
 21
-6.167567327821874
 31
0.0
  0
LINE
  5
232
330
1F
100
AcDbEntity
  8
외형선
  6
Continuous
 62
     1
370
    15
100
AcDbLine
 10
38.29538371765371
 20
-6.190070139165968
 30
0.0
 11
38.28581931668819
 21
-6.177769698625625
 31
0.0
  0
LINE
  5
233
330
1F
100
AcDbEntity
  8
외형선
  6
Continuous
 62
     1
370
    15
100
AcDbLine
 10
20.78868164506454
 20
-6.19027996194349
 30
0.0
 11
20.78213097562014
 21
-6.180981272034903
 31
0.0
  0
LINE
  5
234
330
1F
100
AcDbEntity
  8
외형선
  6
Continuous
 62
     1
370
    15
100
AcDbLine
 10
40.97013468250421
 20
6.168607292245357
 30
0.0
 11
40.94584534831237
 21
6.187863037383959
 31
0.0
  0
SPLINE
  5
235
330
1F
100
AcDbEntity
  8
외형선
  6
Continuous
 62
     1
370
    15
100
AcDbSpline
210
0.0
220
0.0
230
1.0
 70
     8
 71
     3
 72
     9
 73
     5
 74
     0
 42
0.000000001
 43
0.00000001
 40
0.0
 40
0.0
 40
0.0
 40
0.0
 40
0.3068632731104068
 40
0.9999999999999999
 40
0.9999999999999999
 40
0.9999999999999999
 40
0.9999999999999999
 10
41.5515128963478
 20
6.343118686388387
 30
0.0
 10
41.55162268286372
 20
6.344815993872607
 30
0.0
 10
41.55198045300283
 20
6.350347146124934
 30
0.0
 10
41.55283652350059
 20
6.338464998429476
 30
0.0
 10
41.55342989740339
 20
6.33022904546743
 30
0.0
  0
LINE
  5
236
330
1F
100
AcDbEntity
  8
외형선
  6
Continuous
 62
     1
370
    15
100
AcDbLine
 10
41.74999999999998
 20
6.141798901787657
 30
0.0
 11
41.74999999999998
 21
6.150000000000006
 31
0.0
  0
LINE
  5
237
330
1F
100
AcDbEntity
  8
외형선
  6
Continuous
 62
     1
370
    15
100
AcDbLine
 10
22.78619771805121
 20
6.30768833912695
 30
0.0
 11
22.76364926527501
 21
6.345921662750142
 31
0.0
  0
LINE
  5
238
330
1F
100
AcDbEntity
  8
중심선
100
AcDbLine
 10
-43.80000000000002
 20
-0.0000000000000052
 30
0.0
 11
44.74999999999998
 21
0.0000000000000057
 31
0.0
  0
LINE
  5
239
330
1F
100
AcDbEntity
  8
참조1
100
AcDbLine
 10
0.474999999999981
 20
-0.0000000000000052
 30
0.0
 11
0.4749999999999845
 21
-38.04226164784988
 31
0.0
  0
LINE
  5
23A
330
1F
100
AcDbEntity
  8
참조1
100
AcDbLine
 10
0.4749999999999845
 20
-38.04226164784988
 30
0.0
 11
-20.23959344675247
 21
-38.04226164784988
 31
0.0
  0
CIRCLE
  5
23B
330
1F
100
AcDbEntity
  8
해칭선
100
AcDbCircle
 10
0.0
 20
0.0
 30
0.0
 40
3.000000000000001
  0
INSERT
  5
23C
330
1F
100
AcDbEntity
  8
0
  6
Continuous
 62
     7
100
AcDbBlockReference
 66
     1
  2
블럭10
 10
-13.46527293212523
 20
-50.0894359494938
 30
0.0
  0
ATTRIB
  5
23D
330
23C
100
AcDbEntity
  8
FORMAT
 62
     2
100
AcDbText
 10
-22.64656822086651
 20
-48.01406903666161
 30
0.0
 40
4.233333333333333
  1
E2191032 [ 3 FLUTE ]
 41
0.75
  7
SLDTEXTSTYLE0
 11
-22.64656822086651
 21
-50.13073570332828
 31
0.0
100
AcDbAttribute
  2
AUTOATTR0
 70
     0
 74
     1
  0
SEQEND
  5
23E
330
23C
100
AcDbEntity
  8
0
  6
Continuous
 62
     7
  0
HATCH
  5
23F
330
1F
100
AcDbEntity
  8
중심선
100
AcDbHatch
 10
0.0
 20
0.0
 30
0.0
210
0.0
220
0.0
230
1.0
  2
SOLID
 70
     1
 71
     0
 91
        1
 92
        0
 93
        4
 72
     1
 10
-7.750363627744396
 20
-33.84226164784987
 11
-11.19663887158168
 21
-33.84226164784987
 72
     1
 10
-11.19663887158168
 20
-33.84226164784987
 11
-13.3248687307857
 21
-36.37858722842244
 72
     1
 10
-13.3248687307857
 20
-36.37858722842244
 11
-9.878560401835243
 21
-36.37854779911995
 72
     1
 10
-9.87856040183524
 20
-36.37854779911995
 11
-7.750363627744395
 21
-33.84226164784987
 97
        0
 75
     0
 76
     1
 98
        1
 10
1.07536934298441
 20
0.0000000000000009
  0
HATCH
  5
240
330
1F
100
AcDbEntity
  8
중심선
100
AcDbHatch
 10
0.0
 20
0.0
 30
0.0
210
0.0
220
0.0
230
1.0
  2
SOLID
 70
     1
 71
     0
 91
        1
 92
        0
 93
        4
 72
     1
 10
-2.737599636708445
 20
-33.8422616478499
 11
-6.183874880545727
 21
-33.84226164784987
 72
     1
 10
-6.183874880545727
 20
-33.84226164784987
 11
-10.71501288890311
 21
-39.24226164784989
 72
     1
 10
-10.71501288890311
 20
-39.24226164784989
 11
-7.268737645065832
 21
-39.24226164784989
 72
     1
 10
-7.268737645065833
 20
-39.24226164784989
 11
-2.737599636708445
 21
-33.8422616478499
 97
        0
 75
     0
 76
     1
 98
        1
 10
1.07536934298441
 20
0.0000000000000009
  0
HATCH
  5
241
330
1F
100
AcDbEntity
  8
중심선
100
AcDbHatch
 10
0.0
 20
0.0
 30
0.0
210
0.0
220
0.0
230
1.0
  2
SOLID
 70
     1
 71
     0
 91
        1
 92
        0
 93
        4
 72
     1
 10
2.275164354327479
 20
-33.84226164784987
 11
-1.171110889509665
 21
-33.8422616478499
 72
     1
 10
-1.171110889509665
 20
-33.8422616478499
 11
-8.219547791398913
 21
-42.24226164784989
 72
     1
 10
-8.219547791398913
 20
-42.24226164784989
 11
-4.77327254756163
 21
-42.24226164784989
 72
     1
 10
-4.773272547561631
 20
-42.24226164784989
 11
2.275164354327479
 21
-33.84226164784987
 97
        0
 75
     0
 76
     1
 98
        1
 10
1.07536934298441
 20
0.0000000000000009
  0
HATCH
  5
242
330
1F
100
AcDbEntity
  8
중심선
100
AcDbHatch
 10
0.0
 20
0.0
 30
0.0
210
0.0
220
0.0
230
1.0
  2
SOLID
 70
     1
 71
     0
 91
        1
 92
        0
 93
        6
 72
     3
 10
7.07505478533965
 20
-38.04226164790114
 11
3.960054785062282
 21
1.540882976769353E-10
 40
0.3939339440162629
 50
17.09539180608438
 51
320.0019657685075
 73
     0
 72
     1
 10
8.758054441040246
 20
-36.63015565248814
 11
11.06335631474128
 21
-34.69582894244025
 72
     3
 10
7.075054785286803
 20
-38.04226164785002
 11
6.600054785286829
 21
-1.278976924368180E-13
 40
0.6363583540795981
 50
39.99873849337408
 51
368.4976242363725
 73
     1
 72
     1
 10
13.50038727718741
 20
-37.08226164777989
 11
5.755122092122727
 21
-37.08226164777989
 72
     1
 10
5.755122092122726
 20
-37.08226164777989
 11
5.755097047676792
 21
-39.00226164777978
 72
     1
 10
5.755097047676792
 20
-39.00226164777978
 11
10.19647681714883
 21
-39.00226164777975
 97
        0
 75
     0
 76
     1
 98
        1
 10
1.07536934298441
 20
0.0000000000000009
  0
DIMENSION
  5
243
330
1F
100
AcDbEntity
  8
치수문자_일반주서
100
AcDbDimension
  2
_D
 10
-53.80000000000003
 20
-6.350000000000044
 30
0.0
 11
-53.80000000000005
 21
-0.4840504735251771
 31
0.0
 70
   160
  1
%%c<>
 71
     2
 42
12.69999999999999
 52
-270.0
  3
SLDDIMSTYLE0
100
AcDbAlignedDimension
 13
-40.3
 23
6.349999999999995
 33
0.0
 14
-40.3
 24
-6.349999999999993
 34
0.0
 50
90.0000000000002
100
AcDbRotatedDimension
1001
ACAD
1000
DSTYLE
1002
{
1070
   171
1070
     6
1070
   273
1070
     7
1002
}
  0
DIMENSION
  5
258
330
1F
100
AcDbEntity
  8
치수문자_일반주서
100
AcDbDimension
  2
_D_1
 10
60.75000000000004
 20
6.350000000000076
 30
0.0
 11
60.74999999999998
 21
23.66254890178772
 31
0.0
 70
   160
  1
%%c<>
 71
     2
 42
12.7
 52
-270.0
  3
SLDDIMSTYLE1
100
AcDbAlignedDimension
 13
41.74999999999998
 23
-6.349999999999993
 33
0.0
 14
41.74999999999998
 24
6.350000000000006
 34
0.0
 50
90.0000000000002
100
AcDbRotatedDimension
1001
ACAD
1000
DSTYLE
1002
{
1070
   171
1070
     6
1070
   273
1070
     7
1002
}
  0
DIMENSION
  5
26C
330
1F
100
AcDbEntity
  8
치수문자_일반주서
100
AcDbDimension
  2
_D_2
 10
10.0
 20
25.95898292495662
 30
0.0
 11
27.00265737584871
 21
25.95898292495662
 31
0.0
 70
   160
  1
<>
 71
     2
 42
31.74999999999998
  3
SLDDIMSTYLE1
100
AcDbAlignedDimension
 13
41.74999999999998
 23
6.141798901787657
 33
0.0
 14
10.0
 24
0.1310371616277253
 34
0.0
 50
0.0000000000000128
100
AcDbRotatedDimension
1001
ACAD
1000
DSTYLE
1002
{
1070
   171
1070
     6
1070
   273
1070
     7
1002
}
  0
DIMENSION
  5
280
330
1F
100
AcDbEntity
  8
치수문자_일반주서
100
AcDbDimension
  2
_D_3
 10
-40.80000000000002
 20
40.82698515476594
 30
0.0
 11
2.906239968916368
 21
40.82698515476594
 31
0.0
 70
   160
  1
<>
 71
     2
 42
82.55000000000001
  3
SLDDIMSTYLE1
100
AcDbAlignedDimension
 13
41.74999999999998
 23
6.141798901787657
 33
0.0
 14
-40.80000000000003
 24
5.849999999999995
 34
0.0
 50
-0.0000000000000049
100
AcDbRotatedDimension
1001
ACAD
1000
DSTYLE
1002
{
1070
   171
1070
     6
1070
   273
1070
     7
1002
}
  0
LINE
  5
293
330
1F
100
AcDbEntity
  8
참조1
100
AcDbLine
 10
99.3988273343836
 20
9.397738352150132
 30
0.0
 11
99.3988273343836
 21
-5.482261647849872
 31
0.0
  0
LINE
  5
294
330
1F
100
AcDbEntity
  8
참조1
100
AcDbLine
 10
112.0988273343836
 20
7.397738352150132
 30
0.0
 11
99.3988273343836
 21
7.397738352150132
 31
0.0
  0
SOLID
  5
295
330
1F
100
AcDbEntity
  8
참조1
100
AcDbTrace
 10
99.3988273343836
 20
7.397738352150132
 30
0.0
 11
105.7488273343836
 21
6.381738352150132
 31
0.0
 12
105.7488273343836
 22
8.41373835215013
 32
0.0
 13
105.7488273343836
 23
8.41373835215013
 33
0.0
  0
LINE
  5
296
330
1F
100
AcDbEntity
  8
참조1
100
AcDbLine
 10
112.0988273343836
 20
-3.482261647849872
 30
0.0
 11
99.3988273343836
 21
-3.482261647849872
 31
0.0
  0
SOLID
  5
297
330
1F
100
AcDbEntity
  8
참조1
100
AcDbTrace
 10
99.3988273343836
 20
-3.482261647849872
 30
0.0
 11
105.7488273343836
 21
-4.498261647849872
 31
0.0
 12
105.7488273343836
 22
-2.466261647849872
 32
0.0
 13
105.7488273343836
 23
-2.466261647849872
 33
0.0
  0
MTEXT
  5
298
330
1F
100
AcDbEntity
  8
참조1
100
AcDbMText
 10
108.9989421449462
 20
13.02345591816621
 30
0.0
 40
3.5
 41
0.0
 71
     1
 72
     1
  1
A
  7
SLDTEXTSTYLE0
 73
     1
 44
1.0
  0
MTEXT
  5
299
330
1F
100
AcDbEntity
  8
참조1
100
AcDbMText
 10
108.9989421449462
 20
2.143455918166201
 30
0.0
 40
3.5
 41
0.0
 71
     1
 72
     1
  1
A
  7
SLDTEXTSTYLE0
 73
     1
 44
1.0
  0
INSERT
  5
2A0
330
1F
100
AcDbEntity
  8
해칭선
100
AcDbBlockReference
  2
SW_DOWELSYMBOL_0
 10
0.0
 20
0.0
 30
0.0
  0
LINE
  5
304
330
1F
100
AcDbEntity
  8
외형선
  6
Continuous
370
    15
100
AcDbLine
 10
-23.766125
 20
4.825999999999986
 30
0.0
 11
-12.59012500000013
 21
4.825999999999986
 31
0.0
  0
LINE
  5
305
330
1F
100
AcDbEntity
  8
외형선
  6
Continuous
370
    15
100
AcDbLine
 10
-23.766125
 20
4.825999999999986
 30
0.0
 11
-25.290125
 21
6.349999999999987
 31
0.0
  0
LINE
  5
306
330
1F
100
AcDbEntity
  8
외형선
  6
Continuous
370
    15
100
AcDbLine
 10
-12.59012500000001
 20
4.825999999999986
 30
0.0
 11
-11.06612500000001
 21
6.349999999999987
 31
0.0
  0
LINE
  5
307
330
1F
100
AcDbEntity
  8
외형선
  6
Continuous
370
    15
100
AcDbLine
 10
-25.29012500000001
 20
6.349999999999996
 30
0.0
 11
-40.30000000000002
 21
6.349999999999994
 31
0.0
  0
ENDSEC
  0
SECTION
  2
OBJECTS
  0
DICTIONARY
  5
C
330
0
100
AcDbDictionary
281
     1
  3
ACAD_GROUP
350
D
  3
ACAD_IMAGE_VARS
350
2C4
  3
ACAD_LAYOUT
350
1A
  3
ACAD_MLINESTYLE
350
17
  3
ACAD_PLOTSETTINGS
350
19
  3
ACAD_PLOTSTYLENAME
350
E
  3
ACAD_SCALELIST
350
47
  3
APPDATA
350
2C2
  3
DWGPROPS
350
308
  0
DICTIONARY
  5
2F5
330
2
100
AcDbDictionary
280
     1
281
     1
  3
ACAD_LAYERSTATES
360
2F6
  0
DICTIONARY
  5
D
102
{ACAD_REACTORS
330
C
102
}
330
C
100
AcDbDictionary
281
     1
  0
RASTERVARIABLES
  5
2C4
102
{ACAD_REACTORS
330
C
102
}
330
C
100
AcDbRasterVariables
 90
        0
 70
     1
 71
     1
 72
     1
  0
DICTIONARY
  5
1A
102
{ACAD_REACTORS
330
C
102
}
330
C
100
AcDbDictionary
281
     1
  3
Layout1
350
1E
  3
Layout2
350
26
  3
Model
350
22
  0
DICTIONARY
  5
17
102
{ACAD_REACTORS
330
C
102
}
330
C
100
AcDbDictionary
281
     1
  3
Standard
350
18
  0
DICTIONARY
  5
19
102
{ACAD_REACTORS
330
C
102
}
330
C
100
AcDbDictionary
281
     1
  0
ACDBDICTIONARYWDFLT
  5
E
102
{ACAD_REACTORS
330
C
102
}
330
C
100
AcDbDictionary
281
     1
  3
Normal
350
F
100
AcDbDictionaryWithDefault
340
F
  0
DICTIONARY
  5
47
102
{ACAD_REACTORS
330
C
102
}
330
C
100
AcDbDictionary
281
     1
  3
A0
350
48
  3
A1
350
49
  3
A2
350
4A
  3
A3
350
4B
  3
A4
350
4C
  3
A5
350
4D
  3
A6
350
4E
  3
A7
350
4F
  3
A8
350
50
  3
A9
350
51
  3
B0
350
52
  3
B1
350
53
  3
B2
350
54
  3
B3
350
55
  3
B4
350
56
  3
B5
350
57
  3
B6
350
58
  3
B7
350
59
  3
B8
350
5A
  3
B9
350
5B
  3
C0
350
5C
  3
C1
350
5D
  3
C2
350
5E
  3
C3
350
5F
  3
C4
350
60
  3
C5
350
61
  3
C6
350
62
  3
C7
350
63
  3
C8
350
64
  3
C9
350
65
  3
D0
350
66
  3
D1
350
67
  3
D2
350
68
  0
DICTIONARY
  5
2C2
102
{ACAD_REACTORS
330
C
102
}
330
C
100
AcDbDictionary
281
     1
  0
XRECORD
  5
308
102
{ACAD_REACTORS
330
C
102
}
330
C
100
AcDbXrecord
280
     1
  1
DWGPROPS COOKIE
  2

  3

  4

  6

  7

  8
12016016
  9

300
=
301
=
302
=
303
=
304
=
305
=
306
=
307
=
308
=
309
=
 40
0.0
 41
2458318.990518426
 42
2458331.400817928
  1

 90
        0
  0
DICTIONARY
  5
2F6
102
{ACAD_REACTORS
330
2F5
102
}
330
2F5
100
AcDbDictionary
281
     1
  0
LAYOUT
  5
1E
102
{ACAD_REACTORS
330
1A
102
}
330
1A
100
AcDbPlotSettings
  1

  2
none_device
  4

  6

 40
0.0
 41
0.0
 42
0.0
 43
0.0
 44
0.0
 45
0.0
 46
0.0
 47
0.0
 48
0.0
 49
0.0
140
0.0
141
0.0
142
1.0
143
1.0
 70
   688
 72
     1
 73
     0
 74
     5
  7

 75
    16
147
1.0
148
0.0
149
0.0
100
AcDbLayout
  1
Layout1
 70
     1
 71
     1
 10
0.0
 20
0.0
 11
420.0
 21
297.0
 12
0.0
 22
0.0
 32
0.0
 14
1.000000000000000E+20
 24
1.000000000000000E+20
 34
1.000000000000000E+20
 15
-1.000000000000000E+20
 25
-1.000000000000000E+20
 35
-1.000000000000000E+20
146
0.0
 13
0.0
 23
0.0
 33
0.0
 16
1.0
 26
0.0
 36
0.0
 17
0.0
 27
1.0
 37
0.0
 76
     0
330
1B
  0
LAYOUT
  5
26
102
{ACAD_REACTORS
330
1A
102
}
330
1A
100
AcDbPlotSettings
  1

  2
none_device
  4

  6

 40
0.0
 41
0.0
 42
0.0
 43
0.0
 44
0.0
 45
0.0
 46
0.0
 47
0.0
 48
0.0
 49
0.0
140
0.0
141
0.0
142
1.0
143
1.0
 70
   688
 72
     1
 73
     0
 74
     5
  7

 75
    16
147
1.0
148
0.0
149
0.0
100
AcDbLayout
  1
Layout2
 70
     1
 71
     2
 10
0.0
 20
0.0
 11
0.0
 21
0.0
 12
0.0
 22
0.0
 32
0.0
 14
0.0
 24
0.0
 34
0.0
 15
0.0
 25
0.0
 35
0.0
146
0.0
 13
0.0
 23
0.0
 33
0.0
 16
1.0
 26
0.0
 36
0.0
 17
0.0
 27
1.0
 37
0.0
 76
     0
330
23
  0
LAYOUT
  5
22
102
{ACAD_REACTORS
330
1A
102
}
330
1A
100
AcDbPlotSettings
  1

  2
none_device
  4
ANSI_A_(11.00_x_8.50_Inches)
  6

 40
6.35
 41
19.05
 42
6.35000508
 43
19.05000254
 44
279.4
 45
215.9
 46
87.23545133821135
 47
81.90293445258213
 48
0.0
 49
0.0
140
0.0
141
0.0
142
0.0552697327793326
143
1.0
 70
  1696
 72
     0
 73
     0
 74
     0
  7

 75
     0
147
0.0235690232323232
148
0.0
149
0.0
100
AcDbLayout
  1
Model
 70
     1
 71
     0
 10
0.0
 20
0.0
 11
420.0
 21
297.0
 12
0.0
 22
0.0
 32
0.0
 14
1.000000000000000E+20
 24
1.000000000000000E+20
 34
1.000000000000000E+20
 15
-1.000000000000000E+20
 25
-1.000000000000000E+20
 35
-1.000000000000000E+20
146
0.0
 13
0.0
 23
0.0
 33
0.0
 16
1.0
 26
0.0
 36
0.0
 17
0.0
 27
1.0
 37
0.0
 76
     0
330
1F
331
29
  0
MLINESTYLE
  5
18
102
{ACAD_REACTORS
330
17
102
}
330
17
100
AcDbMlineStyle
  2
Standard
 70
     0
  3

 62
   256
 51
90.0
 52
90.0
 71
     2
 49
0.5
 62
   256
  6
BYLAYER
 49
-0.5
 62
   256
  6
BYLAYER
  0
ACDBPLACEHOLDER
  5
F
102
{ACAD_REACTORS
330
E
102
}
330
E
  0
SCALE
  5
48
102
{ACAD_REACTORS
330
47
102
}
330
47
100
AcDbScale
 70
     0
300
1:1
140
1.0
141
1.0
290
     1
  0
SCALE
  5
49
102
{ACAD_REACTORS
330
47
102
}
330
47
100
AcDbScale
 70
     0
300
1:2
140
1.0
141
2.0
290
     0
  0
SCALE
  5
4A
102
{ACAD_REACTORS
330
47
102
}
330
47
100
AcDbScale
 70
     0
300
1:4
140
1.0
141
4.0
290
     0
  0
SCALE
  5
4B
102
{ACAD_REACTORS
330
47
102
}
330
47
100
AcDbScale
 70
     0
300
1:5
140
1.0
141
5.0
290
     0
  0
SCALE
  5
4C
102
{ACAD_REACTORS
330
47
102
}
330
47
100
AcDbScale
 70
     0
300
1:8
140
1.0
141
8.0
290
     0
  0
SCALE
  5
4D
102
{ACAD_REACTORS
330
47
102
}
330
47
100
AcDbScale
 70
     0
300
1:10
140
1.0
141
10.0
290
     0
  0
SCALE
  5
4E
102
{ACAD_REACTORS
330
47
102
}
330
47
100
AcDbScale
 70
     0
300
1:16
140
1.0
141
16.0
290
     0
  0
SCALE
  5
4F
102
{ACAD_REACTORS
330
47
102
}
330
47
100
AcDbScale
 70
     0
300
1:20
140
1.0
141
20.0
290
     0
  0
SCALE
  5
50
102
{ACAD_REACTORS
330
47
102
}
330
47
100
AcDbScale
 70
     0
300
1:30
140
1.0
141
30.0
290
     0
  0
SCALE
  5
51
102
{ACAD_REACTORS
330
47
102
}
330
47
100
AcDbScale
 70
     0
300
1:40
140
1.0
141
40.0
290
     0
  0
SCALE
  5
52
102
{ACAD_REACTORS
330
47
102
}
330
47
100
AcDbScale
 70
     0
300
1:50
140
1.0
141
50.0
290
     0
  0
SCALE
  5
53
102
{ACAD_REACTORS
330
47
102
}
330
47
100
AcDbScale
 70
     0
300
1:100
140
1.0
141
100.0
290
     0
  0
SCALE
  5
54
102
{ACAD_REACTORS
330
47
102
}
330
47
100
AcDbScale
 70
     0
300
2:1
140
2.0
141
1.0
290
     0
  0
SCALE
  5
55
102
{ACAD_REACTORS
330
47
102
}
330
47
100
AcDbScale
 70
     0
300
4:1
140
4.0
141
1.0
290
     0
  0
SCALE
  5
56
102
{ACAD_REACTORS
330
47
102
}
330
47
100
AcDbScale
 70
     0
300
8:1
140
8.0
141
1.0
290
     0
  0
SCALE
  5
57
102
{ACAD_REACTORS
330
47
102
}
330
47
100
AcDbScale
 70
     0
300
10:1
140
10.0
141
1.0
290
     0
  0
SCALE
  5
58
102
{ACAD_REACTORS
330
47
102
}
330
47
100
AcDbScale
 70
     0
300
100:1
140
100.0
141
1.0
290
     0
  0
SCALE
  5
59
102
{ACAD_REACTORS
330
47
102
}
330
47
100
AcDbScale
 70
     0
300
1/128" = 1'-0"
140
0.0078125
141
12.0
290
     0
  0
SCALE
  5
5A
102
{ACAD_REACTORS
330
47
102
}
330
47
100
AcDbScale
 70
     0
300
1/64" = 1'-0"
140
0.015625
141
12.0
290
     0
  0
SCALE
  5
5B
102
{ACAD_REACTORS
330
47
102
}
330
47
100
AcDbScale
 70
     0
300
1/32" = 1'-0"
140
0.03125
141
12.0
290
     0
  0
SCALE
  5
5C
102
{ACAD_REACTORS
330
47
102
}
330
47
100
AcDbScale
 70
     0
300
1/16" = 1'-0"
140
0.0625
141
12.0
290
     0
  0
SCALE
  5
5D
102
{ACAD_REACTORS
330
47
102
}
330
47
100
AcDbScale
 70
     0
300
3/32" = 1'-0"
140
0.09375
141
12.0
290
     0
  0
SCALE
  5
5E
102
{ACAD_REACTORS
330
47
102
}
330
47
100
AcDbScale
 70
     0
300
1/8" = 1'-0"
140
0.125
141
12.0
290
     0
  0
SCALE
  5
5F
102
{ACAD_REACTORS
330
47
102
}
330
47
100
AcDbScale
 70
     0
300
3/16" = 1'-0"
140
0.1875
141
12.0
290
     0
  0
SCALE
  5
60
102
{ACAD_REACTORS
330
47
102
}
330
47
100
AcDbScale
 70
     0
300
1/4" = 1'-0"
140
0.25
141
12.0
290
     0
  0
SCALE
  5
61
102
{ACAD_REACTORS
330
47
102
}
330
47
100
AcDbScale
 70
     0
300
3/8" = 1'-0"
140
0.375
141
12.0
290
     0
  0
SCALE
  5
62
102
{ACAD_REACTORS
330
47
102
}
330
47
100
AcDbScale
 70
     0
300
1/2" = 1'-0"
140
0.5
141
12.0
290
     0
  0
SCALE
  5
63
102
{ACAD_REACTORS
330
47
102
}
330
47
100
AcDbScale
 70
     0
300
3/4" = 1'-0"
140
0.75
141
12.0
290
     0
  0
SCALE
  5
64
102
{ACAD_REACTORS
330
47
102
}
330
47
100
AcDbScale
 70
     0
300
1" = 1'-0"
140
1.0
141
12.0
290
     0
  0
SCALE
  5
65
102
{ACAD_REACTORS
330
47
102
}
330
47
100
AcDbScale
 70
     0
300
1-1/2" = 1'-0"
140
1.5
141
12.0
290
     0
  0
SCALE
  5
66
102
{ACAD_REACTORS
330
47
102
}
330
47
100
AcDbScale
 70
     0
300
3" = 1'-0"
140
3.0
141
12.0
290
     0
  0
SCALE
  5
67
102
{ACAD_REACTORS
330
47
102
}
330
47
100
AcDbScale
 70
     0
300
6" = 1'-0"
140
6.0
141
12.0
290
     0
  0
SCALE
  5
68
102
{ACAD_REACTORS
330
47
102
}
330
47
100
AcDbScale
 70
     0
300
1'-0" = 1'-0"
140
12.0
141
12.0
290
     0
  0
ENDSEC
  0
EOF
