  0
SECTION
  2
HEADER
  9
$ACADVER
  1
AC1015
  9
$ACADMAINTVER
 70
     6
  9
$DWGCODEPAGE
  3
ANSI_949
  9
$INSBASE
 10
0.0
 20
0.0
 30
0.0
  9
$EXTMIN
 10
1.000000000000000E+20
 20
1.000000000000000E+20
 30
1.000000000000000E+20
  9
$EXTMAX
 10
-1.000000000000000E+20
 20
-1.000000000000000E+20
 30
-1.000000000000000E+20
  9
$LIMMIN
 10
0.0
 20
0.0
  9
$LIMMAX
 10
420.0
 20
297.0
  9
$ORTHOMODE
 70
     1
  9
$REGENMODE
 70
     1
  9
$FILLMODE
 70
     1
  9
$QTEXTMODE
 70
     0
  9
$MIRRTEXT
 70
     1
  9
$LTSCALE
 40
1.0
  9
$ATTMODE
 70
     1
  9
$TEXTSIZE
 40
3.5
  9
$TRACEWID
 40
1.0
  9
$TEXTSTYLE
  7
Standard
  9
$CLAYER
  8
0
  9
$CELTYPE
  6
ByLayer
  9
$CECOLOR
 62
   256
  9
$CELTSCALE
 40
1.0
  9
$DISPSILH
 70
     0
  9
$DIMSCALE
 40
1.0
  9
$DIMASZ
 40
3.302
  9
$DIMEXO
 40
1.0
  9
$DIMDLI
 40
3.75
  9
$DIMRND
 40
0.0
  9
$DIMDLE
 40
0.0
  9
$DIMEXE
 40
1.0
  9
$DIMTP
 40
0.0
  9
$DIMTM
 40
0.0
  9
$DIMTXT
 40
3.5
  9
$DIMCEN
 40
2.5
  9
$DIMTSZ
 40
0.0
  9
$DIMTOL
 70
     0
  9
$DIMLIM
 70
     0
  9
$DIMTIH
 70
     1
  9
$DIMTOH
 70
     1
  9
$DIMSE1
 70
     0
  9
$DIMSE2
 70
     0
  9
$DIMTAD
 70
     1
  9
$DIMZIN
 70
     0
  9
$DIMBLK
  1

  9
$DIMASO
 70
     1
  9
$DIMSHO
 70
     1
  9
$DIMPOST
  1

  9
$DIMAPOST
  1

  9
$DIMALT
 70
     0
  9
$DIMALTD
 70
     3
  9
$DIMALTF
 40
0.0393700787401575
  9
$DIMLFAC
 40
1.0
  9
$DIMTOFL
 70
     1
  9
$DIMTVP
 40
0.0
  9
$DIMTIX
 70
     0
  9
$DIMSOXD
 70
     0
  9
$DIMSAH
 70
     0
  9
$DIMBLK1
  1

  9
$DIMBLK2
  1

  9
$DIMSTYLE
  2
ISO-25
  9
$DIMCLRD
 70
     0
  9
$DIMCLRE
 70
     0
  9
$DIMCLRT
 70
     0
  9
$DIMTFAC
 40
1.0
  9
$DIMGAP
 40
1.524
  9
$DIMJUST
 70
     0
  9
$DIMSD1
 70
     0
  9
$DIMSD2
 70
     0
  9
$DIMTOLJ
 70
     0
  9
$DIMTZIN
 70
     0
  9
$DIMALTZ
 70
     0
  9
$DIMALTTZ
 70
     0
  9
$DIMUPT
 70
     0
  9
$DIMDEC
 70
     2
  9
$DIMTDEC
 70
     2
  9
$DIMALTU
 70
     2
  9
$DIMALTTD
 70
     3
  9
$DIMTXSTY
  7
Standard
  9
$DIMAUNIT
 70
     0
  9
$DIMADEC
 70
     2
  9
$DIMALTRND
 40
0.0
  9
$DIMAZIN
 70
     0
  9
$DIMDSEP
 70
    44
  9
$DIMATFIT
 70
     3
  9
$DIMFRAC
 70
     0
  9
$DIMLDRBLK
  1

  9
$DIMLUNIT
 70
     2
  9
$DIMLWD
 70
    -2
  9
$DIMLWE
 70
    -2
  9
$DIMTMOVE
 70
     0
  9
$LUNITS
 70
     2
  9
$LUPREC
 70
     2
  9
$SKETCHINC
 40
1.0
  9
$FILLETRAD
 40
10.0
  9
$AUNITS
 70
     0
  9
$AUPREC
 70
     2
  9
$MENU
  1
.
  9
$ELEVATION
 40
0.0
  9
$PELEVATION
 40
0.0
  9
$THICKNESS
 40
0.0
  9
$LIMCHECK
 70
     0
  9
$CHAMFERA
 40
0.0
  9
$CHAMFERB
 40
0.0
  9
$CHAMFERC
 40
0.0
  9
$CHAMFERD
 40
0.0
  9
$SKPOLY
 70
     0
  9
$TDCREATE
 40
2458319.365670451
  9
$TDUCREATE
 40
2458318.990670451
  9
$TDUPDATE
 40
2458331.774877824
  9
$TDUUPDATE
 40
2458331.399877824
  9
$TDINDWG
 40
0.0001207755
  9
$TDUSRTIMER
 40
2458331.399757349
  9
$USRTIMER
 70
     1
  9
$ANGBASE
 50
0.0
  9
$ANGDIR
 70
     0
  9
$PDMODE
 70
     0
  9
$PDSIZE
 40
-1.0
  9
$PLINEWID
 40
0.0
  9
$SPLFRAME
 70
     0
  9
$SPLINETYPE
 70
     6
  9
$SPLINESEGS
 70
     8
  9
$HANDSEED
  5
35C
  9
$SURFTAB1
 70
     6
  9
$SURFTAB2
 70
     6
  9
$SURFTYPE
 70
     6
  9
$SURFU
 70
     6
  9
$SURFV
 70
     6
  9
$UCSBASE
  2

  9
$UCSNAME
  2

  9
$UCSORG
 10
0.0
 20
0.0
 30
0.0
  9
$UCSXDIR
 10
1.0
 20
0.0
 30
0.0
  9
$UCSYDIR
 10
0.0
 20
1.0
 30
0.0
  9
$UCSORTHOREF
  2

  9
$UCSORTHOVIEW
 70
     0
  9
$UCSORGTOP
 10
0.0
 20
0.0
 30
0.0
  9
$UCSORGBOTTOM
 10
0.0
 20
0.0
 30
0.0
  9
$UCSORGLEFT
 10
0.0
 20
0.0
 30
0.0
  9
$UCSORGRIGHT
 10
0.0
 20
0.0
 30
0.0
  9
$UCSORGFRONT
 10
0.0
 20
0.0
 30
0.0
  9
$UCSORGBACK
 10
0.0
 20
0.0
 30
0.0
  9
$PUCSBASE
  2

  9
$PUCSNAME
  2

  9
$PUCSORG
 10
0.0
 20
0.0
 30
0.0
  9
$PUCSXDIR
 10
1.0
 20
0.0
 30
0.0
  9
$PUCSYDIR
 10
0.0
 20
1.0
 30
0.0
  9
$PUCSORTHOREF
  2

  9
$PUCSORTHOVIEW
 70
     0
  9
$PUCSORGTOP
 10
0.0
 20
0.0
 30
0.0
  9
$PUCSORGBOTTOM
 10
0.0
 20
0.0
 30
0.0
  9
$PUCSORGLEFT
 10
0.0
 20
0.0
 30
0.0
  9
$PUCSORGRIGHT
 10
0.0
 20
0.0
 30
0.0
  9
$PUCSORGFRONT
 10
0.0
 20
0.0
 30
0.0
  9
$PUCSORGBACK
 10
0.0
 20
0.0
 30
0.0
  9
$USERI1
 70
     0
  9
$USERI2
 70
     0
  9
$USERI3
 70
     0
  9
$USERI4
 70
     0
  9
$USERI5
 70
     0
  9
$USERR1
 40
0.0
  9
$USERR2
 40
0.0
  9
$USERR3
 40
0.0
  9
$USERR4
 40
0.0
  9
$USERR5
 40
0.0
  9
$WORLDVIEW
 70
     1
  9
$SHADEDGE
 70
     3
  9
$SHADEDIF
 70
    70
  9
$TILEMODE
 70
     1
  9
$MAXACTVP
 70
    64
  9
$PINSBASE
 10
0.0
 20
0.0
 30
0.0
  9
$PLIMCHECK
 70
     0
  9
$PEXTMIN
 10
1.000000000000000E+20
 20
1.000000000000000E+20
 30
1.000000000000000E+20
  9
$PEXTMAX
 10
-1.000000000000000E+20
 20
-1.000000000000000E+20
 30
-1.000000000000000E+20
  9
$PLIMMIN
 10
0.0
 20
0.0
  9
$PLIMMAX
 10
0.0
 20
0.0
  9
$UNITMODE
 70
     0
  9
$VISRETAIN
 70
     1
  9
$PLINEGEN
 70
     0
  9
$PSLTSCALE
 70
     1
  9
$TREEDEPTH
 70
  3020
  9
$CMLSTYLE
  2
Standard
  9
$CMLJUST
 70
     0
  9
$CMLSCALE
 40
20.0
  9
$PROXYGRAPHICS
 70
     1
  9
$MEASUREMENT
 70
     1
  9
$CELWEIGHT
370
    -1
  9
$ENDCAPS
280
     0
  9
$JOINSTYLE
280
     0
  9
$LWDISPLAY
290
     1
  9
$INSUNITS
 70
     4
  9
$HYPERLINKBASE
  1

  9
$STYLESHEET
  1

  9
$XEDIT
290
     1
  9
$CEPSNTYPE
380
     0
  9
$PSTYLEMODE
290
     1
  9
$FINGERPRINTGUID
  2
{705F0E52-B02B-4704-BE32-3CC6D333AC4C}
  9
$VERSIONGUID
  2
{FAEB1C32-E019-11D5-929B-00C0DF256EC4}
  9
$EXTNAMES
290
     1
  9
$PSVPSCALE
 40
0.0
  9
$OLESTARTUP
290
     0
  0
ENDSEC
  0
SECTION
  2
CLASSES
  0
CLASS
  1
ACDBDICTIONARYWDFLT
  2
AcDbDictionaryWithDefault
  3
ObjectDBX Classes
 90
        0
280
     0
281
     0
  0
CLASS
  1
VISUALSTYLE
  2
AcDbVisualStyle
  3
ObjectDBX Classes
 90
     4095
280
     0
281
     0
  0
CLASS
  1
MATERIAL
  2
AcDbMaterial
  3
ObjectDBX Classes
 90
     1153
280
     0
281
     0
  0
CLASS
  1
SCALE
  2
AcDbScale
  3
ObjectDBX Classes
 90
     1153
280
     0
281
     0
  0
CLASS
  1
SUN
  2
AcDbSun
  3
SCENEOE
 90
     1153
280
     0
281
     0
  0
CLASS
  1
ACDBPLACEHOLDER
  2
AcDbPlaceHolder
  3
ObjectDBX Classes
 90
        0
280
     0
281
     0
  0
CLASS
  1
LAYOUT
  2
AcDbLayout
  3
ObjectDBX Classes
 90
        0
280
     0
281
     0
  0
CLASS
  1
TABLESTYLE
  2
AcDbTableStyle
  3
ObjectDBX Classes
 90
     4095
280
     0
281
     0
  0
CLASS
  1
MLEADERSTYLE
  2
AcDbMLeaderStyle
  3
ACDB_MLEADERSTYLE_CLASS
 90
     4095
280
     0
281
     0
  0
CLASS
  1
RASTERVARIABLES
  2
AcDbRasterVariables
  3
ISM
 90
        0
280
     0
281
     0
  0
ENDSEC
  0
SECTION
  2
TABLES
  0
TABLE
  2
VPORT
  5
8
330
0
100
AcDbSymbolTable
 70
     1
  0
VPORT
  5
29
330
8
100
AcDbSymbolTableRecord
100
AcDbViewportTableRecord
  2
*Active
 70
     0
 10
0.0
 20
0.0
 11
1.0
 21
1.0
 12
-31.25422930166044
 22
-29.73952826342273
 13
0.0
 23
0.0
 14
10.0
 24
10.0
 15
10.0
 25
10.0
 16
0.0
 26
0.0
 36
1.0
 17
0.0
 27
0.0
 37
0.0
 40
100.9718251307767
 41
1.516441005802708
 42
50.0
 43
0.0
 44
0.0
 50
0.0
 51
0.0
 71
    16
 72
  2000
 73
     1
 74
     3
 75
     0
 76
     0
 77
     0
 78
     0
281
     0
 65
     1
110
0.0
120
0.0
130
0.0
111
1.0
121
0.0
131
0.0
112
0.0
122
1.0
132
0.0
 79
     0
146
0.0
  0
ENDTAB
  0
TABLE
  2
LTYPE
  5
5
330
0
100
AcDbSymbolTable
 70
     6
  0
LTYPE
  5
14
330
5
100
AcDbSymbolTableRecord
100
AcDbLinetypeTableRecord
  2
ByBlock
 70
     0
  3

 72
    65
 73
     0
 40
0.0
  0
LTYPE
  5
15
330
5
100
AcDbSymbolTableRecord
100
AcDbLinetypeTableRecord
  2
ByLayer
 70
     0
  3

 72
    65
 73
     0
 40
0.0
  0
LTYPE
  5
16
330
5
100
AcDbSymbolTableRecord
100
AcDbLinetypeTableRecord
  2
Continuous
 70
     0
  3
Solid line
 72
    65
 73
     0
 40
0.0
  0
LTYPE
  5
6A
330
5
100
AcDbSymbolTableRecord
100
AcDbLinetypeTableRecord
  2
HIDDEN
 70
     0
  3
Hidden __ __ __ __ __ __ __ __ __ __ __ __ __ __
 72
    65
 73
     2
 40
1.905
 49
1.27
 74
     0
 49
-0.635
 74
     0
  0
LTYPE
  5
6B
330
5
100
AcDbSymbolTableRecord
100
AcDbLinetypeTableRecord
  2
PHANTOM
 70
     0
  3
Phantom ______  __  __  ______  __  __  ______
 72
    65
 73
     6
 40
12.7
 49
6.35
 74
     0
 49
-1.27
 74
     0
 49
1.27
 74
     0
 49
-1.27
 74
     0
 49
1.27
 74
     0
 49
-1.27
 74
     0
  0
LTYPE
  5
6C
330
5
100
AcDbSymbolTableRecord
100
AcDbLinetypeTableRecord
  2
CENTER
 70
     0
  3
Center ____ _ ____ _ ____ _ ____ _ ____ _ ____
 72
    65
 73
     4
 40
10.16
 49
6.35
 74
     0
 49
-1.27
 74
     0
 49
1.27
 74
     0
 49
-1.27
 74
     0
  0
LTYPE
  5
6D
330
5
100
AcDbSymbolTableRecord
100
AcDbLinetypeTableRecord
  2
CENTERX2
 70
     0
  3
Center (2x) ________  __  ________  __  _____
 72
    65
 73
     4
 40
20.32
 49
12.7
 74
     0
 49
-2.54
 74
     0
 49
2.54
 74
     0
 49
-2.54
 74
     0
  0
LTYPE
  5
6E
330
5
100
AcDbSymbolTableRecord
100
AcDbLinetypeTableRecord
  2
DOT2
 70
     0
  3
Dot (.5x) ........................................
 72
    65
 73
     2
 40
0.635
 49
0.0
 74
     0
 49
-0.635
 74
     0
  0
ENDTAB
  0
TABLE
  2
LAYER
  5
2
102
{ACAD_XDICTIONARY
360
349
102
}
330
0
100
AcDbSymbolTable
 70
    18
  0
LAYER
  5
10
330
2
100
AcDbSymbolTableRecord
100
AcDbLayerTableRecord
  2
0
 70
     0
 62
     7
  6
Continuous
370
    -3
390
F
  0
LAYER
  5
6F
330
2
100
AcDbSymbolTableRecord
100
AcDbLayerTableRecord
  2
FORMAT
 70
     0
 62
     2
  6
Continuous
370
    -3
390
F
  0
LAYER
  5
70
330
2
100
AcDbSymbolTableRecord
100
AcDbLayerTableRecord
  2
외형선
 70
     0
 62
     4
  6
Continuous
370
    30
390
F
  0
LAYER
  5
71
330
2
100
AcDbSymbolTableRecord
100
AcDbLayerTableRecord
  2
숨은선
 70
     0
 62
     2
  6
HIDDEN
370
    15
390
F
  0
LAYER
  5
72
330
2
100
AcDbSymbolTableRecord
100
AcDbLayerTableRecord
  2
중심선
 70
     0
 62
     1
  6
CENTERX2
370
    -3
390
F
  0
LAYER
  5
73
330
2
100
AcDbSymbolTableRecord
100
AcDbLayerTableRecord
  2
파단선
 70
     0
 62
     4
  6
Continuous
370
    -3
390
F
  0
LAYER
  5
74
330
2
100
AcDbSymbolTableRecord
100
AcDbLayerTableRecord
  2
해칭선
 70
     0
 62
   100
  6
Continuous
370
    -3
390
F
  0
LAYER
  5
75
330
2
100
AcDbSymbolTableRecord
100
AcDbLayerTableRecord
  2
가는실선
 70
     0
 62
     4
  6
Continuous
370
    -3
390
F
  0
LAYER
  5
76
330
2
100
AcDbSymbolTableRecord
100
AcDbLayerTableRecord
  2
치수_보조선
 70
     0
 62
     4
  6
Continuous
370
    -3
390
F
  0
LAYER
  5
77
330
2
100
AcDbSymbolTableRecord
100
AcDbLayerTableRecord
  2
치수문자_일반주서
 70
     0
 62
     7
  6
Continuous
370
    15
390
F
  0
LAYER
  5
78
330
2
100
AcDbSymbolTableRecord
100
AcDbLayerTableRecord
  2
개별주서
 70
     0
 62
   100
  6
Continuous
370
    30
390
F
  0
LAYER
  5
79
330
2
100
AcDbSymbolTableRecord
100
AcDbLayerTableRecord
  2
중간선
 70
     0
 62
     2
  6
Continuous
370
    15
390
F
  0
LAYER
  5
7A
330
2
100
AcDbSymbolTableRecord
100
AcDbLayerTableRecord
  2
윤곽선
 70
     0
 62
     3
  6
Continuous
370
    40
390
F
  0
LAYER
  5
7B
330
2
100
AcDbSymbolTableRecord
100
AcDbLayerTableRecord
  2
중심마크
 70
     0
 62
   100
  6
Continuous
370
    30
390
F
  0
LAYER
  5
7C
330
2
100
AcDbSymbolTableRecord
100
AcDbLayerTableRecord
  2
가상선
 70
     0
 62
     4
  6
PHANTOM
370
    -3
390
F
  0
LAYER
  5
7D
330
2
100
AcDbSymbolTableRecord
100
AcDbLayerTableRecord
  2
특수지정선
 70
     0
 62
     5
  6
CENTERX2
370
    60
390
F
  0
LAYER
  5
7E
330
2
100
AcDbSymbolTableRecord
100
AcDbLayerTableRecord
  2
참조1
 70
     0
 62
    -4
  6
Continuous
370
    -3
390
F
  0
LAYER
  5
31A
330
2
100
AcDbSymbolTableRecord
100
AcDbLayerTableRecord
  2
Defpoints
 70
     0
 62
     7
  6
Continuous
290
     0
370
    -3
390
F
  0
ENDTAB
  0
TABLE
  2
STYLE
  5
3
330
0
100
AcDbSymbolTable
 70
     2
  0
STYLE
  5
11
330
3
100
AcDbSymbolTableRecord
100
AcDbTextStyleTableRecord
  2
Standard
 70
     0
 40
0.0
 41
1.0
 50
0.0
 71
     0
 42
3.5
  3
txt
  4

  0
STYLE
  5
94
330
3
100
AcDbSymbolTableRecord
100
AcDbTextStyleTableRecord
  2
SLDTEXTSTYLE0
 70
     0
 40
0.0
 41
0.75
 50
0.0
 71
     0
 42
3.5
  3
TXT
  4

  0
ENDTAB
  0
TABLE
  2
VIEW
  5
6
330
0
100
AcDbSymbolTable
 70
     0
  0
ENDTAB
  0
TABLE
  2
UCS
  5
7
330
0
100
AcDbSymbolTable
 70
     0
  0
ENDTAB
  0
TABLE
  2
APPID
  5
9
330
0
100
AcDbSymbolTable
 70
     1
  0
APPID
  5
12
330
9
100
AcDbSymbolTableRecord
100
AcDbRegAppTableRecord
  2
ACAD
 70
     0
  0
ENDTAB
  0
TABLE
  2
DIMSTYLE
  5
A
330
0
100
AcDbSymbolTable
 70
     3
100
AcDbDimStyleTable
  0
DIMSTYLE
105
27
330
A
100
AcDbSymbolTableRecord
100
AcDbDimStyleTableRecord
  2
ISO-25
 70
     0
 41
2.5
 42
0.625
 43
3.75
 44
1.25
 73
     0
 74
     0
 77
     1
 78
     8
140
2.5
141
2.5
143
0.03937007874016
147
0.625
171
     3
172
     1
178
     0
271
     2
272
     2
274
     3
278
    44
283
     0
284
     8
340
11
  0
DIMSTYLE
105
299
102
{ACAD_REACTORS
330
298
102
}
330
A
100
AcDbSymbolTableRecord
100
AcDbDimStyleTableRecord
  2
SLDDIMSTYLE0
 70
     0
 41
3.302
 44
0.0
 45
0.000000001
 73
     0
 74
     0
 77
     1
 78
    12
 79
     3
140
3.5
143
0.0393700787401575
147
0.875
148
0.000000001
170
     1
172
     1
173
     1
178
     0
271
     2
272
     2
276
     2
284
    12
289
     0
340
94
  0
DIMSTYLE
105
2AE
102
{ACAD_REACTORS
330
2AD
330
2C1
330
2D5
102
}
330
A
100
AcDbSymbolTableRecord
100
AcDbDimStyleTableRecord
  2
SLDDIMSTYLE1
 70
     0
 41
3.302
 44
0.0
 45
0.000000001
 73
     0
 74
     0
 77
     1
 78
    12
 79
     3
140
3.5
143
0.0393700787401575
147
0.875
148
0.000000001
170
     1
173
     1
178
     0
271
     2
272
     2
276
     2
284
    12
340
94
  0
ENDTAB
  0
TABLE
  2
BLOCK_RECORD
  5
1
330
0
100
AcDbSymbolTable
 70
     8
  0
BLOCK_RECORD
  5
1F
330
1
100
AcDbSymbolTableRecord
100
AcDbBlockTableRecord
  2
*Model_Space
340
22
  0
BLOCK_RECORD
  5
1B
330
1
100
AcDbSymbolTableRecord
100
AcDbBlockTableRecord
  2
*Paper_Space
340
1E
  0
BLOCK_RECORD
  5
23
330
1
100
AcDbSymbolTableRecord
100
AcDbBlockTableRecord
  2
*Paper_Space0
340
26
  0
BLOCK_RECORD
  5
7F
330
1
100
AcDbSymbolTableRecord
100
AcDbBlockTableRecord
  2
블럭10
340
0
102
{BLKREFS
331
291
102
}
  0
BLOCK_RECORD
  5
29A
330
1
100
AcDbSymbolTableRecord
100
AcDbBlockTableRecord
  2
_D
340
0
  0
BLOCK_RECORD
  5
2AF
330
1
100
AcDbSymbolTableRecord
100
AcDbBlockTableRecord
  2
_D_1
340
0
  0
BLOCK_RECORD
  5
2C2
330
1
100
AcDbSymbolTableRecord
100
AcDbBlockTableRecord
  2
_D_2
340
0
  0
BLOCK_RECORD
  5
2D6
330
1
100
AcDbSymbolTableRecord
100
AcDbBlockTableRecord
  2
_D_3
340
0
  0
BLOCK_RECORD
  5
2EF
330
1
100
AcDbSymbolTableRecord
100
AcDbBlockTableRecord
  2
SW_DOWELSYMBOL_0
340
0
102
{BLKREFS
331
2F5
102
}
  0
ENDTAB
  0
ENDSEC
  0
SECTION
  2
BLOCKS
  0
BLOCK
  5
20
330
1F
100
AcDbEntity
  8
0
100
AcDbBlockBegin
  2
*Model_Space
 70
     0
 10
0.0
 20
0.0
 30
0.0
  3
*Model_Space
  1
*Model_Space
  0
ENDBLK
  5
21
330
1F
100
AcDbEntity
  8
0
100
AcDbBlockEnd
  0
BLOCK
  5
1C
330
1B
100
AcDbEntity
 67
     1
  8
0
100
AcDbBlockBegin
  2
*Paper_Space
 70
     0
 10
0.0
 20
0.0
 30
0.0
  3
*Paper_Space
  1
*Paper_Space
  0
ENDBLK
  5
1D
330
1B
100
AcDbEntity
 67
     1
  8
0
100
AcDbBlockEnd
  0
BLOCK
  5
24
330
23
100
AcDbEntity
  8
0
100
AcDbBlockBegin
  2
*Paper_Space0
 70
     0
 10
0.0
 20
0.0
 30
0.0
  3
*Paper_Space0
  1
*Paper_Space0
  0
ENDBLK
  5
25
330
23
100
AcDbEntity
  8
0
100
AcDbBlockEnd
  0
BLOCK
  5
80
330
7F
100
AcDbEntity
  8
0
100
AcDbBlockBegin
  2
블럭10
 70
     2
 10
0.0
 20
0.0
 30
0.0
  3
블럭10
  1
블럭10
  0
ELLIPSE
  5
82
330
7F
100
AcDbEntity
  8
중심선
100
AcDbEllipse
 10
20.54032771741204
 20
12.0471743016438
 30
0.0
 11
6.600054785286829
 21
-1.261213355974178E-13
 31
0.0
210
0.0
220
0.0
230
1.0
 40
0.636358354079598
 41
0.9219305317359503
 42
6.513795318482858
  0
ELLIPSE
  5
83
330
7F
100
AcDbEntity
  8
중심선
100
AcDbEllipse
 10
20.54032771746488
 20
12.04717430159265
 30
0.0
 11
3.960054785062283
 21
1.540847449632565E-10
 31
0.0
210
0.0
220
0.0
230
1.0
 40
0.3939339440162632
 41
1.131841032648279
 42
5.62031148352944
  0
LINE
  5
84
330
7F
100
AcDbEntity
  8
중심선
100
AcDbLine
 10
2.268634060543552
 20
16.24717430164393
 30
0.0
 11
5.714909304380834
 21
16.24717430164393
 31
0.0
  0
LINE
  5
85
330
7F
100
AcDbEntity
  8
중심선
100
AcDbLine
 10
5.245725140726316
 20
7.84717430164391
 30
0.0
 11
8.692000384563599
 21
7.84717430164391
 31
0.0
  0
LINE
  5
86
330
7F
100
AcDbEntity
  8
중심선
100
AcDbLine
 10
15.74043728645272
 20
16.24717430164393
 30
0.0
 11
8.692000384563599
 21
7.84717430164391
 31
0.0
  0
LINE
  5
87
330
7F
100
AcDbEntity
  8
중심선
100
AcDbLine
 10
0.1404042013395286
 20
13.71084872107135
 30
0.0
 11
3.58671253028996
 21
13.71088815037384
 31
0.0
  0
LINE
  5
88
330
7F
100
AcDbEntity
  8
중심선
100
AcDbLine
 10
2.750260043222114
 20
10.84717430164391
 30
0.0
 11
6.196535287059397
 21
10.84717430164391
 31
0.0
  0
LINE
  5
89
330
7F
100
AcDbEntity
  8
중심선
100
AcDbLine
 10
12.29416204261559
 20
16.24717430164393
 30
0.0
 11
5.245725140726316
 21
7.84717430164391
 31
0.0
  0
LINE
  5
8A
330
7F
100
AcDbEntity
  8
중심선
100
AcDbLine
 10
10.72767329541681
 20
16.24717430164393
 30
0.0
 11
6.196535287059397
 21
10.84717430164391
 31
0.0
  0
LINE
  5
8B
330
7F
100
AcDbEntity
  8
중심선
100
AcDbLine
 10
7.28139805157953
 20
16.24717430164393
 30
0.0
 11
2.750260043222114
 21
10.84717430164391
 31
0.0
  0
LINE
  5
8C
330
7F
100
AcDbEntity
  8
중심선
100
AcDbLine
 10
5.714909304380834
 20
16.24717430164393
 30
0.0
 11
3.58671253028996
 21
13.71088815037384
 31
0.0
  0
LINE
  5
8D
330
7F
100
AcDbEntity
  8
중심선
100
AcDbLine
 10
2.268634060543552
 20
16.24717430164393
 30
0.0
 11
0.1404042013395286
 21
13.71084872107135
 31
0.0
  0
LINE
  5
8E
330
7F
100
AcDbEntity
  8
중심선
100
AcDbLine
 10
7.28139805157953
 20
16.24717430164393
 30
0.0
 11
10.72767329541681
 21
16.24717430164393
 31
0.0
  0
LINE
  5
8F
330
7F
100
AcDbEntity
  8
중심선
100
AcDbLine
 10
12.29416204261559
 20
16.24717430164393
 30
0.0
 11
15.74043728645272
 21
16.24717430164393
 31
0.0
  0
LINE
  5
90
330
7F
100
AcDbEntity
  8
중심선
100
AcDbLine
 10
19.22036997980202
 20
11.08717430171403
 30
0.0
 11
23.66174974927406
 21
11.08717430171406
 31
0.0
  0
LINE
  5
91
330
7F
100
AcDbEntity
  8
중심선
100
AcDbLine
 10
19.22039502424796
 20
13.00717430171391
 30
0.0
 11
19.22036997980202
 21
11.08717430171403
 31
0.0
  0
LINE
  5
92
330
7F
100
AcDbEntity
  8
중심선
100
AcDbLine
 10
19.22039502424796
 20
13.00717430171391
 30
0.0
 11
26.96566020931264
 21
13.00717430171391
 31
0.0
  0
LINE
  5
93
330
7F
100
AcDbEntity
  8
중심선
100
AcDbLine
 10
22.22332737316547
 20
13.45928029700563
 30
0.0
 11
24.52862924686651
 21
15.39360700705356
 31
0.0
  0
ATTDEF
  5
95
330
7F
100
AcDbEntity
  8
FORMAT
 62
     2
100
AcDbText
 10
-9.18129528874128
 20
2.075366912832191
 30
0.0
 40
4.233333333333333
  1
E2191040 [ 3 FLUTE ]
 41
0.75
  7
SLDTEXTSTYLE0
 11
-9.18129528874128
 21
-0.0412997538344756
 31
0.0
100
AcDbAttributeDefinition
  3

  2
AUTOATTR0
 70
     0
 74
     1
  0
ENDBLK
  5
81
330
7F
100
AcDbEntity
  8
0
100
AcDbBlockEnd
  0
BLOCK
  5
29B
330
29A
100
AcDbEntity
  8
0
100
AcDbBlockBegin
  2
_D
 70
     0
 10
0.0
 20
0.0
 30
0.0
  3
_D
  1
_D
  0
LINE
  5
29D
330
29A
100
AcDbEntity
  8
치수문자_일반주서
 62
     0
370
    -2
100
AcDbLine
 10
-41.53750000002034
 20
7.937499999999986
 30
0.0
 11
-54.97500000002042
 21
7.937499999999935
 31
0.0
  0
LINE
  5
29E
330
29A
100
AcDbEntity
  8
치수문자_일반주서
 62
     0
370
    -2
100
AcDbLine
 10
-41.53750000002034
 20
-7.937500000000014
 30
0.0
 11
-54.97500000002036
 21
-7.937500000000065
 31
0.0
  0
LINE
  5
29F
330
29A
100
AcDbEntity
  8
치수문자_일반주서
 62
     0
370
    -2
100
AcDbLine
 10
-54.9750000000204
 20
4.635499999999936
 30
0.0
 11
-54.97500000002037
 21
-4.635500000000065
 31
0.0
  0
SOLID
  5
2A0
330
29A
100
AcDbEntity
  8
치수문자_일반주서
 62
     0
100
AcDbTrace
 10
-54.42466666668707
 20
4.635499999999937
 30
0.0
 11
-55.52533333335374
 21
4.635499999999934
 31
0.0
 12
-54.97500000002042
 22
7.937499999999935
 32
0.0
 13
-54.97500000002042
 23
7.937499999999935
 33
0.0
  0
SOLID
  5
2A1
330
29A
100
AcDbEntity
  8
치수문자_일반주서
 62
     0
100
AcDbTrace
 10
-55.52533333335371
 20
-4.635500000000067
 30
0.0
 11
-54.42466666668704
 21
-4.635500000000063
 31
0.0
 12
-54.97500000002036
 22
-7.937500000000065
 32
0.0
 13
-54.97500000002036
 23
-7.937500000000065
 33
0.0
  0
MTEXT
  5
2A2
330
29A
100
AcDbEntity
  8
치수문자_일반주서
 62
     0
100
AcDbMText
 10
-59.35000000002039
 20
-0.6050630919064929
 30
0.0
 40
3.5
 41
0.0
 71
     2
 72
     1
  1
\A1;%%c15.88 [5/8]
  7
SLDTEXTSTYLE0
 11
-3.580687802255623E-15
 21
1.0
 31
0.0
 73
     1
 44
1.0
  0
POINT
  5
2A3
330
29A
100
AcDbEntity
  8
Defpoints
 62
     0
100
AcDbPoint
 10
-41.47500000002034
 20
7.937499999999986
 30
0.0
  0
POINT
  5
2A4
330
29A
100
AcDbEntity
  8
Defpoints
 62
     0
100
AcDbPoint
 10
-41.47500000002034
 20
-7.937500000000014
 30
0.0
  0
POINT
  5
2A5
330
29A
100
AcDbEntity
  8
Defpoints
 62
     0
100
AcDbPoint
 10
-54.97500000002036
 20
-7.937500000000065
 30
0.0
  0
ENDBLK
  5
29C
330
29A
100
AcDbEntity
  8
0
100
AcDbBlockEnd
  0
BLOCK
  5
2B0
330
2AF
100
AcDbEntity
  8
0
100
AcDbBlockBegin
  2
_D_1
 70
     0
 10
0.0
 20
0.0
 30
0.0
  3
_D_1
  1
_D_1
  0
LINE
  5
2B2
330
2AF
100
AcDbEntity
  8
치수문자_일반주서
 62
     0
370
    -2
100
AcDbLine
 10
53.33749999997966
 20
-7.937499999999996
 30
0.0
 11
72.27499999997978
 21
-7.937499999999925
 31
0.0
  0
LINE
  5
2B3
330
2AF
100
AcDbEntity
  8
치수문자_일반주서
 62
     0
370
    -2
100
AcDbLine
 10
53.33749999997966
 20
7.937500000000005
 30
0.0
 11
72.27499999997973
 21
7.937500000000075
 31
0.0
  0
LINE
  5
2B4
330
2AF
100
AcDbEntity
  8
치수문자_일반주서
 62
     0
370
    -2
100
AcDbLine
 10
72.27499999997973
 20
7.937500000000075
 30
0.0
 11
72.2749999999796
 21
41.65431495956881
 31
0.0
  0
LINE
  5
2B5
330
2AF
100
AcDbEntity
  8
치수문자_일반주서
 62
     0
370
    -2
100
AcDbLine
 10
72.27499999997977
 20
-4.635499999999926
 30
0.0
 11
72.27499999997974
 21
4.635500000000075
 31
0.0
  0
SOLID
  5
2B6
330
2AF
100
AcDbEntity
  8
치수문자_일반주서
 62
     0
100
AcDbTrace
 10
71.72466666664644
 20
-4.635499999999928
 30
0.0
 11
72.8253333333131
 21
-4.635499999999924
 31
0.0
 12
72.27499999997978
 22
-7.937499999999925
 32
0.0
 13
72.27499999997978
 23
-7.937499999999925
 33
0.0
  0
SOLID
  5
2B7
330
2AF
100
AcDbEntity
  8
치수문자_일반주서
 62
     0
100
AcDbTrace
 10
72.82533333331307
 20
4.635500000000077
 30
0.0
 11
71.72466666664641
 21
4.635500000000073
 31
0.0
 12
72.27499999997973
 22
7.937500000000075
 32
0.0
 13
72.27499999997973
 23
7.937500000000075
 33
0.0
  0
MTEXT
  5
2B8
330
2AF
100
AcDbEntity
  8
치수문자_일반주서
 62
     0
100
AcDbMText
 10
67.89999999997966
 20
27.65431495956879
 30
0.0
 40
3.5
 41
0.0
 71
     2
 72
     1
  1
\A1;%%c15.88 [5/8]
  7
SLDTEXTSTYLE0
 11
-3.580687802255623E-15
 21
1.0
 31
0.0
 73
     1
 44
1.0
  0
POINT
  5
2B9
330
2AF
100
AcDbEntity
  8
Defpoints
 62
     0
100
AcDbPoint
 10
53.27499999997966
 20
-7.937499999999996
 30
0.0
  0
POINT
  5
2BA
330
2AF
100
AcDbEntity
  8
Defpoints
 62
     0
100
AcDbPoint
 10
53.27499999997966
 20
7.937500000000005
 30
0.0
  0
POINT
  5
2BB
330
2AF
100
AcDbEntity
  8
Defpoints
 62
     0
100
AcDbPoint
 10
72.27499999997973
 20
7.937500000000076
 30
0.0
  0
ENDBLK
  5
2B1
330
2AF
100
AcDbEntity
  8
0
100
AcDbBlockEnd
  0
BLOCK
  5
2C3
330
2C2
100
AcDbEntity
  8
0
100
AcDbBlockBegin
  2
_D_2
 70
     0
 10
0.0
 20
0.0
 30
0.0
  3
_D_2
  1
_D_2
  0
LINE
  5
2C5
330
2C2
100
AcDbEntity
  8
치수문자_일반주서
 62
     0
370
    -2
100
AcDbLine
 10
53.27499999997966
 20
7.789814959568748
 30
0.0
 11
53.27499999997966
 21
32.4025507812364
 31
0.0
  0
LINE
  5
2C6
330
2C2
100
AcDbEntity
  8
치수문자_일반주서
 62
     0
370
    -2
100
AcDbLine
 10
11.99999999999447
 20
-1.092819983655716
 30
0.0
 11
11.99999999999447
 21
32.4025507812364
 31
0.0
  0
LINE
  5
2C7
330
2C2
100
AcDbEntity
  8
치수문자_일반주서
 62
     0
370
    -2
100
AcDbLine
 10
49.97299999997966
 20
32.4025507812364
 30
0.0
 11
15.30199999999447
 21
32.4025507812364
 31
0.0
  0
SOLID
  5
2C8
330
2C2
100
AcDbEntity
  8
치수문자_일반주서
 62
     0
100
AcDbTrace
 10
49.97299999997966
 20
31.85221744790307
 30
0.0
 11
49.97299999997966
 21
32.95288411456973
 31
0.0
 12
53.27499999997966
 22
32.4025507812364
 32
0.0
 13
53.27499999997966
 23
32.4025507812364
 33
0.0
  0
SOLID
  5
2C9
330
2C2
100
AcDbEntity
  8
치수문자_일반주서
 62
     0
100
AcDbTrace
 10
15.30199999999447
 20
32.95288411456973
 30
0.0
 11
15.30199999999447
 21
31.85221744790307
 31
0.0
 12
11.99999999999447
 22
32.4025507812364
 32
0.0
 13
11.99999999999447
 23
32.4025507812364
 33
0.0
  0
MTEXT
  5
2CA
330
2C2
100
AcDbEntity
  8
치수문자_일반주서
 62
     0
100
AcDbMText
 10
32.895008010049
 20
36.7775507812364
 30
0.0
 40
3.5
 41
0.0
 71
     2
 72
     1
  1
\A1;41.28 [1 5/8]
  7
SLDTEXTSTYLE0
 73
     1
 44
1.0
  0
POINT
  5
2CB
330
2C2
100
AcDbEntity
  8
Defpoints
 62
     0
100
AcDbPoint
 10
53.27499999997966
 20
7.727314959568748
 30
0.0
  0
POINT
  5
2CC
330
2C2
100
AcDbEntity
  8
Defpoints
 62
     0
100
AcDbPoint
 10
11.99999999999447
 20
-1.155319983655716
 30
0.0
  0
POINT
  5
2CD
330
2C2
100
AcDbEntity
  8
Defpoints
 62
     0
100
AcDbPoint
 10
11.99999999999447
 20
32.4025507812364
 30
0.0
  0
ENDBLK
  5
2C4
330
2C2
100
AcDbEntity
  8
0
100
AcDbBlockEnd
  0
BLOCK
  5
2D7
330
2D6
100
AcDbEntity
  8
0
100
AcDbBlockBegin
  2
_D_3
 70
     0
 10
0.0
 20
0.0
 30
0.0
  3
_D_3
  1
_D_3
  0
LINE
  5
2D9
330
2D6
100
AcDbEntity
  8
치수문자_일반주서
 62
     0
370
    -2
100
AcDbLine
 10
53.27499999997966
 20
7.789814959568748
 30
0.0
 11
53.27499999997966
 21
46.43997811445606
 31
0.0
  0
LINE
  5
2DA
330
2D6
100
AcDbEntity
  8
치수문자_일반주서
 62
     0
370
    -2
100
AcDbLine
 10
-41.97500000002034
 20
7.499999999999993
 30
0.0
 11
-41.97500000002034
 21
46.43997811445606
 31
0.0
  0
LINE
  5
2DB
330
2D6
100
AcDbEntity
  8
치수문자_일반주서
 62
     0
370
    -2
100
AcDbLine
 10
49.97299999997966
 20
46.43997811445606
 30
0.0
 11
-38.67300000002034
 21
46.43997811445606
 31
0.0
  0
SOLID
  5
2DC
330
2D6
100
AcDbEntity
  8
치수문자_일반주서
 62
     0
100
AcDbTrace
 10
49.97299999997966
 20
45.88964478112273
 30
0.0
 11
49.97299999997966
 21
46.9903114477894
 31
0.0
 12
53.27499999997966
 22
46.43997811445606
 32
0.0
 13
53.27499999997966
 23
46.43997811445606
 33
0.0
  0
SOLID
  5
2DD
330
2D6
100
AcDbEntity
  8
치수문자_일반주서
 62
     0
100
AcDbTrace
 10
-38.67300000002034
 20
46.9903114477894
 30
0.0
 11
-38.67300000002034
 21
45.88964478112273
 31
0.0
 12
-41.97500000002034
 22
46.43997811445606
 32
0.0
 13
-41.97500000002034
 23
46.43997811445606
 33
0.0
  0
MTEXT
  5
2DE
330
2D6
100
AcDbEntity
  8
치수문자_일반주서
 62
     0
100
AcDbMText
 10
9.397575300094342
 20
50.81497811445606
 30
0.0
 40
3.5
 41
0.0
 71
     2
 72
     1
  1
\A1;95.25 [3 3/4]
  7
SLDTEXTSTYLE0
 73
     1
 44
1.0
  0
POINT
  5
2DF
330
2D6
100
AcDbEntity
  8
Defpoints
 62
     0
100
AcDbPoint
 10
53.27499999997966
 20
7.727314959568748
 30
0.0
  0
POINT
  5
2E0
330
2D6
100
AcDbEntity
  8
Defpoints
 62
     0
100
AcDbPoint
 10
-41.97500000002034
 20
7.437499999999993
 30
0.0
  0
POINT
  5
2E1
330
2D6
100
AcDbEntity
  8
Defpoints
 62
     0
100
AcDbPoint
 10
-41.97500000002034
 20
46.43997811445606
 30
0.0
  0
ENDBLK
  5
2D8
330
2D6
100
AcDbEntity
  8
0
100
AcDbBlockEnd
  0
BLOCK
  5
2F0
330
2EF
100
AcDbEntity
  8
0
100
AcDbBlockBegin
  2
SW_DOWELSYMBOL_0
 70
     0
 10
0.0
 20
0.0
 30
0.0
  3
SW_DOWELSYMBOL_0
  1
SW_DOWELSYMBOL_0
  0
CIRCLE
  5
2F2
330
2EF
100
AcDbEntity
  8
해칭선
 62
     0
100
AcDbCircle
 10
0.0
 20
0.0
 30
0.0
 40
3.000000000000001
  0
HATCH
  5
2F3
330
2EF
100
AcDbEntity
  8
0
  6
Continuous
 62
     0
370
     0
100
AcDbHatch
 10
0.0
 20
0.0
 30
0.0
210
0.0
220
0.0
230
1.0
  2
SOLID
 70
     1
 71
     0
 91
        1
 92
        0
 93
        3
 72
     2
 10
0.0
 20
0.0
 40
3.000000000000001
 50
0.0
 51
90.0
 73
     1
 72
     1
 10
0.0
 20
3.000000000000001
 11
0.0
 21
0.0
 72
     1
 10
0.0
 20
0.0
 11
3.000000000000001
 21
0.0
 97
        0
 75
     0
 76
     1
 98
        1
 10
0.0
 20
0.0
  0
HATCH
  5
2F4
330
2EF
100
AcDbEntity
  8
0
  6
Continuous
 62
     0
370
     0
100
AcDbHatch
 10
0.0
 20
0.0
 30
0.0
210
0.0
220
0.0
230
1.0
  2
SOLID
 70
     1
 71
     0
 91
        1
 92
        0
 93
        3
 72
     2
 10
0.0
 20
0.0
 40
3.000000000000001
 50
180.0
 51
270.0000000000008
 73
     1
 72
     1
 10
0.0
 20
-3.000000000000001
 11
0.0
 21
0.0
 72
     1
 10
0.0
 20
0.0
 11
-3.000000000000001
 21
0.0
 97
        0
 75
     0
 76
     1
 98
        1
 10
0.0
 20
0.0
  0
ENDBLK
  5
2F1
330
2EF
100
AcDbEntity
  8
0
100
AcDbBlockEnd
  0
ENDSEC
  0
SECTION
  2
ENTITIES
  0
SPLINE
  5
96
330
1F
100
AcDbEntity
  8
외형선
  6
Continuous
370
    15
100
AcDbSpline
210
0.0
220
0.0
230
1.0
 70
     8
 71
     3
 72
     9
 73
     5
 74
     0
 42
0.000000001
 43
0.00000001
 40
0.0
 40
0.0
 40
0.0
 40
0.0
 40
0.500780703281906
 40
1.0
 40
1.0
 40
1.0
 40
1.0
 10
8.026594184728033
 20
-7.937365216904699
 30
0.0
 10
8.104920343373267
 20
-7.923250600137476
 30
0.0
 10
8.26132844402874
 20
-7.895065375198251
 30
0.0
 10
8.400028065511199
 20
-7.81490468034333
 30
0.0
 10
8.469269593002739
 20
-7.774886914633423
 30
0.0
  0
SPLINE
  5
97
330
1F
100
AcDbEntity
  8
외형선
  6
Continuous
370
    15
100
AcDbSpline
210
0.0
220
0.0
230
1.0
 70
     8
 71
     3
 72
     9
 73
     5
 74
     0
 42
0.000000001
 43
0.00000001
 40
0.0
 40
0.0
 40
0.0
 40
0.0
 40
0.5004676893886097
 40
1.0
 40
1.0
 40
1.0
 40
1.0
 10
8.469371884639084
 20
-7.774819688635713
 30
0.0
 10
8.510836792277019
 20
-7.756248244065209
 30
0.0
 10
8.59368910925394
 20
-7.719140065127235
 30
0.0
 10
8.677298724173568
 20
-7.755483512683902
 30
0.0
 10
8.7190644283037
 20
-7.773638239017468
 30
0.0
  0
LINE
  5
98
330
1F
100
AcDbEntity
  8
외형선
  6
Continuous
370
    15
100
AcDbLine
 10
9.274351020247867
 20
7.9375
 30
0.0
 11
-11.02192500002042
 21
7.937499999999997
 31
0.0
  0
LINE
  5
99
330
1F
100
AcDbEntity
  8
외형선
  6
Continuous
370
    15
100
AcDbLine
 10
-41.47500000002034
 20
-7.937500000000007
 30
0.0
 11
8.024299913951248
 21
-7.9375
 31
0.0
  0
LINE
  5
9A
330
1F
100
AcDbEntity
  8
외형선
  6
Continuous
370
    15
100
AcDbLine
 10
-41.47500000002034
 20
7.937499999999991
 30
0.0
 11
-41.97500000002034
 21
7.437499999999992
 31
0.0
  0
LINE
  5
9B
330
1F
100
AcDbEntity
  8
외형선
  6
Continuous
370
    15
100
AcDbLine
 10
-41.97500000002034
 20
-7.437500000000006
 30
0.0
 11
-41.47500000002034
 21
-7.937500000000009
 31
0.0
  0
SPLINE
  5
9C
330
1F
100
AcDbEntity
  8
외형선
  6
Continuous
 62
     1
370
    15
100
AcDbSpline
210
0.0
220
0.0
230
1.0
 70
     8
 71
     3
 72
    11
 73
     7
 74
     0
 42
0.000000001
 43
0.00000001
 40
0.0
 40
0.0
 40
0.0
 40
0.0
 40
0.2449190901115058
 40
0.5000249044196429
 40
0.7551180382619713
 40
1.0
 40
1.0
 40
1.0
 40
1.0
 10
38.54208991311225
 20
7.763659627337771
 30
0.0
 10
38.4584282645357
 20
7.806678463759107
 30
0.0
 10
38.28762529522027
 20
7.894505384723213
 30
0.0
 10
37.99443100303392
 20
7.927923941500964
 30
0.0
 10
37.70124252579184
 20
7.88613358935622
 30
0.0
 10
37.53044209008745
 20
7.792667291244153
 30
0.0
 10
37.44678603175427
 20
7.74688859018404
 30
0.0
  0
SPLINE
  5
9D
330
1F
100
AcDbEntity
  8
외형선
  6
Continuous
 62
     1
370
    15
100
AcDbSpline
210
0.0
220
0.0
230
1.0
 70
     8
 71
     3
 72
     9
 73
     5
 74
     0
 42
0.000000001
 43
0.00000001
 40
0.0
 40
0.0
 40
0.0
 40
0.0
 40
0.0102589294388091
 40
1.0
 40
1.0
 40
1.0
 40
1.0
 10
40.754074981434
 20
-7.88279739235145
 30
0.0
 10
40.75490486421887
 20
-7.882599276269827
 30
0.0
 10
40.83579856660913
 20
-7.86328770162607
 30
0.0
 10
40.90292673692878
 20
-7.818827498094539
 30
0.0
 10
40.96936624408578
 20
-7.774823408653871
 30
0.0
  0
SPLINE
  5
9E
330
1F
100
AcDbEntity
  8
외형선
  6
Continuous
 62
     1
370
    15
100
AcDbSpline
210
0.0
220
0.0
230
1.0
 70
     8
 71
     3
 72
    11
 73
     7
 74
     0
 42
0.000000001
 43
0.00000001
 40
0.0
 40
0.0
 40
0.0
 40
0.0
 40
0.2449102822781483
 40
0.499988136469018
 40
0.7550720243253543
 40
1.0
 40
1.0
 40
1.0
 40
1.0
 10
18.7483535829469
 20
-7.771689614765978
 30
0.0
 10
18.8321052985609
 20
-7.815079318006116
 30
0.0
 10
19.00308572382685
 20
-7.903660069549824
 30
0.0
 10
19.29658290750528
 20
-7.937996609050614
 30
0.0
 10
19.59008280868276
 20
-7.896946467134623
 30
0.0
 10
19.76106420328452
 20
-7.803853318070736
 30
0.0
 10
19.84481846975751
 20
-7.758252166953281
 30
0.0
  0
SPLINE
  5
9F
330
1F
100
AcDbEntity
  8
외형선
  6
Continuous
 62
     1
370
    15
100
AcDbSpline
210
0.0
220
0.0
230
1.0
 70
     8
 71
     3
 72
    11
 73
     7
 74
     0
 42
0.000000001
 43
0.00000001
 40
0.0
 40
0.0
 40
0.0
 40
0.0
 40
0.24493965844947
 40
0.5000270557302273
 40
0.7551006948580014
 40
1.0
 40
1.0
 40
1.0
 40
1.0
 10
16.05115607214961
 20
7.772374013186692
 30
0.0
 10
15.96741801919048
 20
7.815813972594001
 30
0.0
 10
15.79647268376057
 20
7.904493589202349
 30
0.0
 10
15.50302213548611
 20
7.938980268849375
 30
0.0
 10
15.20957776140536
 20
7.898074764370866
 30
0.0
 10
15.03863454861471
 20
7.805070076106343
 30
0.0
 10
14.95490226967647
 20
7.75951404394105
 30
0.0
  0
SPLINE
  5
A0
330
1F
100
AcDbEntity
  8
외형선
  6
Continuous
 62
     1
370
    15
100
AcDbSpline
210
0.0
220
0.0
230
1.0
 70
     8
 71
     3
 72
    11
 73
     7
 74
     0
 42
0.000000001
 43
0.00000001
 40
0.0
 40
0.0
 40
0.0
 40
0.0
 40
0.2449341535914611
 40
0.4999812355826022
 40
0.7550378450676544
 40
1.0
 40
1.0
 40
1.0
 40
1.0
 10
41.23946749149518
 20
-7.776661763370156
 30
0.0
 10
41.32331722569097
 20
-7.820487043264409
 30
0.0
 10
41.49447871171391
 20
-7.909947076787659
 30
0.0
 10
41.78831453492403
 20
-7.945403704882158
 30
0.0
 10
42.08215452453379
 20
-7.905285139677853
 30
0.0
 10
42.25331697107956
 20
-7.812695664462554
 30
0.0
 10
42.33717046765422
 20
-7.767335532029881
 30
0.0
  0
SPLINE
  5
A1
330
1F
100
AcDbEntity
  8
외형선
  6
Continuous
 62
     1
370
    15
100
AcDbSpline
210
0.0
220
0.0
230
1.0
 70
     8
 71
     3
 72
     9
 73
     5
 74
     0
 42
0.000000001
 43
0.00000001
 40
0.0
 40
0.0
 40
0.0
 40
0.0
 40
0.6095487784877802
 40
1.0
 40
1.0
 40
1.0
 40
1.0
 10
40.97464408058066
 20
-7.770677424781297
 30
0.0
 10
41.00136138587024
 20
-7.757229400738741
 30
0.0
 10
41.04519266932532
 20
-7.735167140067962
 30
0.0
 10
41.09793739382447
 20
-7.740367236184264
 30
0.0
 10
41.11853163593348
 20
-7.742397620064855
 30
0.0
  0
SPLINE
  5
A2
330
1F
100
AcDbEntity
  8
외형선
  6
Continuous
 62
     1
370
    15
100
AcDbSpline
210
0.0
220
0.0
230
1.0
 70
     8
 71
     3
 72
    11
 73
     7
 74
     0
 42
0.000000001
 43
0.00000001
 40
0.0
 40
0.0
 40
0.0
 40
0.0
 40
0.2478290982460733
 40
0.499784522058543
 40
0.7518454400334915
 40
1.0
 40
1.0
 40
1.0
 40
1.0
 10
37.47083177082567
 20
7.774703762481323
 30
0.0
 10
37.4511923596441
 20
7.76410192643103
 30
0.0
 10
37.41158654337653
 20
7.742721734997343
 30
0.0
 10
37.34025999823663
 20
7.733897673157803
 30
0.0
 10
37.26904545871541
 20
7.744850843071164
 30
0.0
 10
37.2297266179101
 20
7.767573781428526
 30
0.0
 10
37.2102207248126
 20
7.778846524911838
 30
0.0
  0
SPLINE
  5
A3
330
1F
100
AcDbEntity
  8
외형선
  6
Continuous
 62
     1
370
    15
100
AcDbSpline
210
0.0
220
0.0
230
1.0
 70
     8
 71
     3
 72
     9
 73
     5
 74
     0
 42
0.000000001
 43
0.00000001
 40
0.0
 40
0.0
 40
0.0
 40
0.0
 40
0.4996728681611116
 40
1.0
 40
1.0
 40
1.0
 40
1.0
 10
37.1988398861794
 20
7.778210874320943
 30
0.0
 10
37.13061800273138
 20
7.816793807654475
 30
0.0
 10
36.99408490719011
 20
7.894010194198586
 30
0.0
 10
36.83942818388672
 20
7.920528310738643
 30
0.0
 10
36.76204922909673
 20
7.933796043928901
 30
0.0
  0
SPLINE
  5
A4
330
1F
100
AcDbEntity
  8
외형선
  6
Continuous
 62
     1
370
    15
100
AcDbSpline
210
0.0
220
0.0
230
1.0
 70
     8
 71
     3
 72
     9
 73
     5
 74
     0
 42
0.000000001
 43
0.00000001
 40
0.0
 40
0.0
 40
0.0
 40
0.0
 40
0.5003334163399547
 40
1.0
 40
1.0
 40
1.0
 40
1.0
 10
19.82956151525273
 20
-7.77360842860799
 30
0.0
 10
19.87164129551743
 20
-7.755313445349757
 30
0.0
 10
19.9557447730995
 20
-7.718747861959248
 30
0.0
 10
20.03966545964117
 20
-7.757103766656547
 30
0.0
 10
20.08159782238385
 20
-7.776268930519834
 30
0.0
  0
SPLINE
  5
A5
330
1F
100
AcDbEntity
  8
외형선
  6
Continuous
 62
     1
370
    15
100
AcDbSpline
210
0.0
220
0.0
230
1.0
 70
     8
 71
     3
 72
     9
 73
     5
 74
     0
 42
0.000000001
 43
0.00000001
 40
0.0
 40
0.0
 40
0.0
 40
0.0
 40
0.4995683561767627
 40
1.0
 40
1.0
 40
1.0
 40
1.0
 10
14.96909011415058
 20
7.77365482539579
 30
0.0
 10
14.92704371424317
 20
7.755401171265367
 30
0.0
 10
14.8428782554275
 20
7.718862319465146
 30
0.0
 10
14.75944317234872
 20
7.756850921322003
 30
0.0
 10
14.71768961657109
 20
7.775861619795775
 30
0.0
  0
SPLINE
  5
A6
330
1F
100
AcDbEntity
  8
외형선
  6
Continuous
 62
     1
370
    15
100
AcDbSpline
210
0.0
220
0.0
230
1.0
 70
     8
 71
     3
 72
     9
 73
     5
 74
     0
 42
0.000000001
 43
0.00000001
 40
0.0
 40
0.0
 40
0.0
 40
0.0
 40
0.499606038925062
 40
1.0
 40
1.0
 40
1.0
 40
1.0
 10
20.09215024011271
 20
-7.77933487091026
 30
0.0
 10
20.16047067648066
 20
-7.818252848536648
 30
0.0
 10
20.29721929648323
 20
-7.896150180822955
 30
0.0
 10
20.45204163040628
 20
-7.923255086449147
 30
0.0
 10
20.52951379134091
 20
-7.93681821754
 30
0.0
  0
SPLINE
  5
A7
330
1F
100
AcDbEntity
  8
외형선
  6
Continuous
 62
     1
370
    15
100
AcDbSpline
210
0.0
220
0.0
230
1.0
 70
     8
 71
     3
 72
     9
 73
     5
 74
     0
 42
0.000000001
 43
0.00000001
 40
0.0
 40
0.0
 40
0.0
 40
0.0
 40
0.4996247485478733
 40
1.0
 40
1.0
 40
1.0
 40
1.0
 10
14.70699104012305
 20
7.77930455758966
 30
0.0
 10
14.63865917696306
 20
7.818252265516992
 30
0.0
 10
14.50189280708529
 20
7.89620618601539
 30
0.0
 10
14.3470457489219
 20
7.923364554739763
 30
0.0
 10
14.26956411325677
 20
7.936953930319249
 30
0.0
  0
SPLINE
  5
A8
330
1F
100
AcDbEntity
  8
외형선
  6
Continuous
 62
     1
370
    15
100
AcDbSpline
210
0.0
220
0.0
230
1.0
 70
     8
 71
     3
 72
     9
 73
     5
 74
     0
 42
0.000000001
 43
0.00000001
 40
0.0
 40
0.0
 40
0.0
 40
0.0
 40
0.5004756508405146
 40
1.0
 40
1.0
 40
1.0
 40
1.0
 10
36.76682713828802
 20
7.936130242737771
 30
0.0
 10
36.68921399786338
 20
7.921882314185745
 30
0.0
 10
36.53413524369363
 20
7.893413539474939
 30
0.0
 10
36.39706081540405
 20
7.814043021499637
 30
0.0
 10
36.32858880082628
 20
7.774395515165573
 30
0.0
  0
SPLINE
  5
A9
330
1F
100
AcDbEntity
  8
외형선
  6
Continuous
 62
     1
370
    15
100
AcDbSpline
210
0.0
220
0.0
230
1.0
 70
     8
 71
     3
 72
     9
 73
     5
 74
     0
 42
0.000000001
 43
0.00000001
 40
0.0
 40
0.0
 40
0.0
 40
0.0
 40
0.5004655204497267
 40
1.0
 40
1.0
 40
1.0
 40
1.0
 10
42.32959810329622
 20
-7.773584884884844
 30
0.0
 10
42.37089784058885
 20
-7.755540900989836
 30
0.0
 10
42.45342048321868
 20
-7.719486501320521
 30
0.0
 10
42.53585918998715
 20
-7.755344907020866
 30
0.0
 10
42.57704016646754
 20
-7.773257417049892
 30
0.0
  0
SPLINE
  5
AA
330
1F
100
AcDbEntity
  8
외형선
  6
Continuous
 62
     1
370
    15
100
AcDbSpline
210
0.0
220
0.0
230
1.0
 70
     8
 71
     3
 72
     9
 73
     5
 74
     0
 42
0.000000001
 43
0.00000001
 40
0.0
 40
0.0
 40
0.0
 40
0.0
 40
0.4995270579338312
 40
0.9999999999999999
 40
0.9999999999999999
 40
0.9999999999999999
 40
0.9999999999999999
 10
42.58473430064645
 20
-7.777748316873792
 30
0.0
 10
42.65320637783003
 20
-7.817066833497173
 30
0.0
 10
42.79028018813929
 20
-7.895778318688809
 30
0.0
 10
42.94535999637539
 20
-7.923556748563589
 30
0.0
 10
43.02297324425837
 20
-7.937459101089003
 30
0.0
  0
SPLINE
  5
AB
330
1F
100
AcDbEntity
  8
외형선
  6
Continuous
 62
     1
370
    15
100
AcDbSpline
210
0.0
220
0.0
230
1.0
 70
     8
 71
     3
 72
     9
 73
     5
 74
     0
 42
0.000000001
 43
0.00000001
 40
0.0
 40
0.0
 40
0.0
 40
0.0
 40
0.5005532615072179
 40
1.0
 40
1.0
 40
1.0
 40
1.0
 10
20.52618893429242
 20
-7.937407923358331
 30
0.0
 10
20.60403952754049
 20
-7.923427252284434
 30
0.0
 10
20.75956861751915
 20
-7.895496815807406
 30
0.0
 10
20.89717842818591
 20
-7.816348111114664
 30
0.0
 10
20.96590719930803
 20
-7.776817548699948
 30
0.0
  0
SPLINE
  5
AC
330
1F
100
AcDbEntity
  8
외형선
  6
Continuous
 62
     1
370
    15
100
AcDbSpline
210
0.0
220
0.0
230
1.0
 70
     8
 71
     3
 72
     9
 73
     5
 74
     0
 42
0.000000001
 43
0.00000001
 40
0.0
 40
0.0
 40
0.0
 40
0.0
 40
0.5006090346107789
 40
1.0
 40
1.0
 40
1.0
 40
1.0
 10
14.27266625226839
 20
7.937437229658279
 30
0.0
 10
14.19481628360304
 20
7.923480686765353
 30
0.0
 10
14.03930576884401
 20
7.895601559686124
 30
0.0
 10
13.9016835384479
 20
7.816480972809605
 30
0.0
 10
13.83295623995138
 20
7.77696886654718
 30
0.0
  0
SPLINE
  5
AD
330
1F
100
AcDbEntity
  8
외형선
  6
Continuous
 62
     1
370
    15
100
AcDbSpline
210
0.0
220
0.0
230
1.0
 70
     8
 71
     3
 72
     9
 73
     5
 74
     0
 42
0.000000001
 43
0.00000001
 40
0.0
 40
0.0
 40
0.0
 40
0.0
 40
0.499602242323038
 40
1.0
 40
1.0
 40
1.0
 40
1.0
 10
36.32932955550952
 20
7.774898069266679
 30
0.0
 10
36.28777014104459
 20
7.756318236092002
 30
0.0
 10
36.20458513716693
 20
7.719128985122497
 30
0.0
 10
36.12126506167553
 20
7.755434543722689
 30
0.0
 10
36.07957188273016
 20
7.773601763837434
 30
0.0
  0
SPLINE
  5
AE
330
1F
100
AcDbEntity
  8
외형선
  6
Continuous
 62
     1
370
    15
100
AcDbSpline
210
0.0
220
0.0
230
1.0
 70
     8
 71
     3
 72
    11
 73
     7
 74
     0
 42
0.000000001
 43
0.00000001
 40
0.0
 40
0.0
 40
0.0
 40
0.0
 40
0.245585914703994
 40
0.5001557721848033
 40
0.7546472651369722
 40
1.0
 40
1.0
 40
1.0
 40
1.0
 10
36.0835113805247
 20
7.77069711343005
 30
0.0
 10
35.99843461223229
 20
7.816767028870269
 30
0.0
 10
35.82516882542377
 20
7.910592174173351
 30
0.0
 10
35.52681481901061
 20
7.950496210258005
 30
0.0
 10
35.2284882717428
 20
7.912421441316196
 30
0.0
 10
35.05520208693187
 20
7.81978044631185
 30
0.0
 10
34.97014310857139
 20
7.774306836295186
 30
0.0
  0
SPLINE
  5
AF
330
1F
100
AcDbEntity
  8
외형선
  6
Continuous
 62
     1
370
    15
100
AcDbSpline
210
0.0
220
0.0
230
1.0
 70
     8
 71
     3
 72
     9
 73
     5
 74
     0
 42
0.000000001
 43
0.00000001
 40
0.0
 40
0.0
 40
0.0
 40
0.0
 40
0.5007552171877698
 40
1.0
 40
1.0
 40
1.0
 40
1.0
 10
43.02238108881856
 20
-7.937412729715352
 30
0.0
 10
43.10065984536153
 20
-7.923688464842018
 30
0.0
 10
43.25698124523147
 20
-7.896281331771274
 30
0.0
 10
43.39557168019017
 20
-7.816954611126156
 30
0.0
 10
43.46476223179098
 20
-7.777351159706479
 30
0.0
  0
SPLINE
  5
B0
330
1F
100
AcDbEntity
  8
외형선
  6
Continuous
370
    15
100
AcDbSpline
210
0.0
220
0.0
230
1.0
 70
     8
 71
     3
 72
     9
 73
     5
 74
     0
 42
0.000000001
 43
0.00000001
 40
0.0
 40
0.0
 40
0.0
 40
0.0
 40
0.6724745658862206
 40
1.0
 40
1.0
 40
1.0
 40
1.0
 10
8.718077402951764
 20
-7.772976258596054
 30
0.0
 10
8.767186330872168
 20
-7.802853421412431
 30
0.0
 10
8.84021352091271
 20
-7.847282109621633
 30
0.0
 10
8.921798637458632
 20
-7.871859615097855
 30
0.0
 10
8.94851983817256
 20
-7.879909373248386
 30
0.0
  0
SPLINE
  5
B1
330
1F
100
AcDbEntity
  8
외형선
  6
Continuous
 62
     1
370
    15
100
AcDbSpline
210
0.0
220
0.0
230
1.0
 70
     8
 71
     3
 72
     9
 73
     5
 74
     0
 42
0.000000001
 43
0.00000001
 40
0.0
 40
0.0
 40
0.0
 40
0.0
 40
0.5004659165962192
 40
1.0
 40
1.0
 40
1.0
 40
1.0
 10
20.96933192755827
 20
-7.774846008026699
 30
0.0
 10
21.01080922299618
 20
-7.75626186121154
 30
0.0
 10
21.09368658599424
 20
-7.719128169987263
 30
0.0
 10
21.17731992008218
 20
-7.755493796704213
 30
0.0
 10
21.2190976209678
 20
-7.773659666713669
 30
0.0
  0
SPLINE
  5
B2
330
1F
100
AcDbEntity
  8
외형선
  6
Continuous
 62
     1
370
    15
100
AcDbSpline
210
0.0
220
0.0
230
1.0
 70
     8
 71
     3
 72
     9
 73
     5
 74
     0
 42
0.000000001
 43
0.00000001
 40
0.0
 40
0.0
 40
0.0
 40
0.0
 40
0.4996019911235376
 40
1.0
 40
1.0
 40
1.0
 40
1.0
 10
13.82934391186595
 20
7.774907542008433
 30
0.0
 10
13.78778739752229
 20
7.756325542575921
 30
0.0
 10
13.7046081566826
 20
7.719131936940526
 30
0.0
 10
13.62129403977164
 20
7.755421816183329
 30
0.0
 10
13.57960382155808
 20
7.773581199498794
 30
0.0
  0
SPLINE
  5
B3
330
1F
100
AcDbEntity
  8
외형선
  6
Continuous
 62
     1
370
    15
100
AcDbSpline
210
0.0
220
0.0
230
1.0
 70
     8
 71
     3
 72
    11
 73
     7
 74
     0
 42
0.000000001
 43
0.00000001
 40
0.0
 40
0.0
 40
0.0
 40
0.0
 40
0.247911989503159
 40
0.5028837378807176
 40
0.7566007972285054
 40
0.9999999999999999
 40
0.9999999999999999
 40
0.9999999999999999
 40
0.9999999999999999
 10
21.21422194074199
 20
-7.769929636345183
 30
0.0
 10
21.29767564546127
 20
-7.815606263401588
 30
0.0
 10
21.46695955566397
 20
-7.908260245138981
 30
0.0
 10
21.76424886023872
 20
-7.950637843163471
 30
0.0
 10
22.06495623405179
 20
-7.914563549892806
 30
0.0
 10
22.24247424367644
 20
-7.820011893574597
 30
0.0
 10
22.32939101810667
 20
-7.773717295062641
 30
0.0
  0
SPLINE
  5
B4
330
1F
100
AcDbEntity
  8
외형선
  6
Continuous
 62
     1
370
    15
100
AcDbSpline
210
0.0
220
0.0
230
1.0
 70
     8
 71
     3
 72
    11
 73
     7
 74
     0
 42
0.000000001
 43
0.00000001
 40
0.0
 40
0.0
 40
0.0
 40
0.0
 40
0.2323190296396765
 40
0.4814660964533788
 40
0.7407429021045026
 40
1.0
 40
1.0
 40
1.0
 40
1.0
 10
13.58446015448062
 20
7.76988679001603
 30
0.0
 10
13.5075279982708
 20
7.812627449907622
 30
0.0
 10
13.34809110238011
 20
7.901204690910061
 30
0.0
 10
13.05899454921444
 20
7.950164799230278
 30
0.0
 10
12.74971156954356
 20
7.921022803384723
 30
0.0
 10
12.56267377847356
 20
7.822805547660916
 30
0.0
 10
12.46915843728193
 20
7.773698786255244
 30
0.0
  0
SPLINE
  5
B5
330
1F
100
AcDbEntity
  8
외형선
  6
Continuous
 62
     1
370
    15
100
AcDbSpline
210
0.0
220
0.0
230
1.0
 70
     8
 71
     3
 72
     9
 73
     5
 74
     0
 42
0.000000001
 43
0.00000001
 40
0.0
 40
0.0
 40
0.0
 40
0.0
 40
0.5004665879926643
 40
1.0
 40
1.0
 40
1.0
 40
1.0
 10
43.46936787091278
 20
-7.774822335896622
 30
0.0
 10
43.51083950375812
 20
-7.756247819949776
 30
0.0
 10
43.59370544094621
 20
-7.719133422320659
 30
0.0
 10
43.67732785587003
 20
-7.755496605293254
 30
0.0
 10
43.71910004611723
 20
-7.773661230154997
 30
0.0
  0
SPLINE
  5
B6
330
1F
100
AcDbEntity
  8
외형선
  6
Continuous
 62
     1
370
    15
100
AcDbSpline
210
0.0
220
0.0
230
1.0
 70
     8
 71
     3
 72
    11
 73
     7
 74
     0
 42
0.000000001
 43
0.00000001
 40
0.0
 40
0.0
 40
0.0
 40
0.0
 40
0.2452659422664137
 40
0.4998711632537362
 40
0.754541244018119
 40
1.0
 40
1.0
 40
1.0
 40
1.0
 10
43.71895448127987
 20
-7.773566874688082
 30
0.0
 10
43.80379783582252
 20
-7.819077165958143
 30
0.0
 10
43.97671522475014
 20
-7.911830697194339
 30
0.0
 10
44.27421288508604
 20
-7.950566411536719
 30
0.0
 10
44.57173388155546
 20
-7.911854623340807
 30
0.0
 10
44.74463653186743
 20
-7.819149515864368
 30
0.0
 10
44.82949560483682
 20
-7.773650678999902
 30
0.0
  0
SPLINE
  5
B7
330
1F
100
AcDbEntity
  8
외형선
  6
Continuous
 62
     1
370
    15
100
AcDbSpline
210
0.0
220
0.0
230
1.0
 70
     8
 71
     3
 72
     9
 73
     5
 74
     0
 42
0.000000001
 43
0.00000001
 40
0.0
 40
0.0
 40
0.0
 40
0.0
 40
0.4995327158304303
 40
1.0
 40
1.0
 40
1.0
 40
1.0
 10
34.96907694281414
 20
7.773646324195176
 30
0.0
 10
34.92730881473729
 20
7.755488070866051
 30
0.0
 10
34.84369441521305
 20
7.719137592201327
 30
0.0
 10
34.76083701166672
 20
7.756248437116136
 30
0.0
 10
34.71936959194054
 20
7.774821200883889
 30
0.0
  0
SPLINE
  5
B8
330
1F
100
AcDbEntity
  8
외형선
  6
Continuous
 62
     1
370
    15
100
AcDbSpline
210
0.0
220
0.0
230
1.0
 70
     8
 71
     3
 72
     9
 73
     5
 74
     0
 42
0.000000001
 43
0.00000001
 40
0.0
 40
0.0
 40
0.0
 40
0.0
 40
0.4992263468520924
 40
1.0
 40
1.0
 40
1.0
 40
1.0
 10
34.71927245537346
 20
7.774885040298205
 30
0.0
 10
34.65004746723599
 20
7.814894585994365
 30
0.0
 10
34.51138293445646
 20
7.895037683305725
 30
0.0
 10
34.35500327855303
 20
7.923233777379203
 30
0.0
 10
34.27669246698825
 20
7.937353638412882
 30
0.0
  0
SPLINE
  5
B9
330
1F
100
AcDbEntity
  8
외형선
  6
Continuous
 62
     1
370
    15
100
AcDbSpline
210
0.0
220
0.0
230
1.0
 70
     8
 71
     3
 72
     9
 73
     5
 74
     0
 42
0.000000001
 43
0.00000001
 40
0.0
 40
0.0
 40
0.0
 40
0.0
 40
0.5003975765597614
 40
1.0
 40
1.0
 40
1.0
 40
1.0
 10
22.32959422718328
 20
-7.773587382126586
 30
0.0
 10
22.37128743710799
 20
-7.755424986864979
 30
0.0
 10
22.45460760466626
 20
-7.719129057163491
 30
0.0
 10
22.53779257052424
 20
-7.75632811993187
 30
0.0
 10
22.57935198106068
 20
-7.774912861840656
 30
0.0
  0
SPLINE
  5
BA
330
1F
100
AcDbEntity
  8
외형선
  6
Continuous
 62
     1
370
    15
100
AcDbSpline
210
0.0
220
0.0
230
1.0
 70
     8
 71
     3
 72
     9
 73
     5
 74
     0
 42
0.000000001
 43
0.00000001
 40
0.0
 40
0.0
 40
0.0
 40
0.0
 40
0.4995340235012117
 40
1.0
 40
1.0
 40
1.0
 40
1.0
 10
12.46910616835807
 20
7.77366517574277
 30
0.0
 10
12.42732949544239
 20
7.75549776732851
 30
0.0
 10
12.3436982091831
 20
7.719129056570983
 30
0.0
 10
12.26082294155283
 20
7.756255680873539
 30
0.0
 10
12.21934668981065
 20
7.77483629315922
 30
0.0
  0
SPLINE
  5
BB
330
1F
100
AcDbEntity
  8
외형선
  6
Continuous
 62
     1
370
    15
100
AcDbSpline
210
0.0
220
0.0
230
1.0
 70
     8
 71
     3
 72
     9
 73
     5
 74
     0
 42
0.000000001
 43
0.00000001
 40
0.0
 40
0.0
 40
0.0
 40
0.0
 40
0.4991100770144351
 40
1.0
 40
1.0
 40
1.0
 40
1.0
 10
22.57921895342725
 20
-7.774824750343225
 30
0.0
 10
22.64844463557239
 20
-7.8148477635332
 30
0.0
 10
22.78714286134099
 20
-7.89503651353678
 30
0.0
 10
22.94348609016997
 20
-7.923228740677168
 30
0.0
 10
23.02179683801743
 20
-7.937349943158308
 30
0.0
  0
SPLINE
  5
BC
330
1F
100
AcDbEntity
  8
외형선
  6
Continuous
 62
     1
370
    15
100
AcDbSpline
210
0.0
220
0.0
230
1.0
 70
     8
 71
     3
 72
     9
 73
     5
 74
     0
 42
0.000000001
 43
0.00000001
 40
0.0
 40
0.0
 40
0.0
 40
0.0
 40
0.5008895289136489
 40
1.0
 40
1.0
 40
1.0
 40
1.0
 10
34.27183987731654
 20
7.937355145912081
 30
0.0
 10
34.1935296727664
 20
7.923238048541013
 30
0.0
 10
34.03718740560029
 20
7.895053994860183
 30
0.0
 10
33.89849047118423
 20
7.814874183132016
 30
0.0
 10
33.8292653789096
 20
7.774855599528755
 30
0.0
  0
SPLINE
  5
BD
330
1F
100
AcDbEntity
  8
외형선
  6
Continuous
 62
     1
370
    15
100
AcDbSpline
210
0.0
220
0.0
230
1.0
 70
     8
 71
     3
 72
     9
 73
     5
 74
     0
 42
0.000000001
 43
0.00000001
 40
0.0
 40
0.0
 40
0.0
 40
0.0
 40
0.8315247403227076
 40
1.0
 40
1.0
 40
1.0
 40
1.0
 10
12.2193942122089
 20
7.774804948365434
 30
0.0
 10
12.16235715311982
 20
7.810988497502334
 30
0.0
 10
12.09376381329094
 20
7.854503196924092
 30
0.0
 10
12.01681977854758
 20
7.876175278716148
 30
0.0
 10
12.00385661231358
 20
7.879826488323811
 30
0.0
  0
SPLINE
  5
BE
330
1F
100
AcDbEntity
  8
외형선
  6
Continuous
 62
     1
370
    15
100
AcDbSpline
210
0.0
220
0.0
230
1.0
 70
     8
 71
     3
 72
     9
 73
     5
 74
     0
 42
0.000000001
 43
0.00000001
 40
0.0
 40
0.0
 40
0.0
 40
0.0
 40
0.5003984785534069
 40
1.0
 40
1.0
 40
1.0
 40
1.0
 10
44.82959611334914
 20
-7.773586167026822
 30
0.0
 10
44.871283923232
 20
-7.755425867060625
 30
0.0
 10
44.9545931491181
 20
-7.719134190038158
 30
0.0
 10
45.03776784838368
 20
-7.756316684940173
 30
0.0
 10
45.07932205468262
 20
-7.774893115964401
 30
0.0
  0
LINE
  5
BF
330
1F
100
AcDbEntity
  8
외형선
  6
Continuous
370
    15
100
AcDbLine
 10
11.99999999997965
 20
7.874255917227988
 30
0.0
 11
11.59910732740211
 21
7.899610006595175
 31
0.0
  0
SPLINE
  5
C0
330
1F
100
AcDbEntity
  8
외형선
  6
Continuous
 62
     1
370
    15
100
AcDbSpline
210
0.0
220
0.0
230
1.0
 70
     8
 71
     3
 72
     9
 73
     5
 74
     0
 42
0.000000001
 43
0.00000001
 40
0.0
 40
0.0
 40
0.0
 40
0.0
 40
0.4991145696143896
 40
1.0
 40
1.0
 40
1.0
 40
1.0
 10
45.07933193800061
 20
-7.774899642006336
 30
0.0
 10
45.1485499295824
 20
-7.81490868051843
 30
0.0
 10
45.28723149849606
 20
-7.895068709793882
 30
0.0
 10
45.44356194850243
 20
-7.923245078258535
 30
0.0
 10
45.52186559323626
 20
-7.93735821070366
 30
0.0
  0
SPLINE
  5
C1
330
1F
100
AcDbEntity
  8
외형선
  6
Continuous
 62
     1
370
    15
100
AcDbSpline
210
0.0
220
0.0
230
1.0
 70
     8
 71
     3
 72
     9
 73
     5
 74
     0
 42
0.000000001
 43
0.00000001
 40
0.0
 40
0.0
 40
0.0
 40
0.0
 40
0.500777786302812
 40
1.0
 40
1.0
 40
1.0
 40
1.0
 10
23.02671825038087
 20
-7.937350521984778
 30
0.0
 10
23.10503789893476
 20
-7.923226115318864
 30
0.0
 10
23.26143391069104
 20
-7.895021176816714
 30
0.0
 10
23.40011866475493
 20
-7.814853504887668
 30
0.0
 10
23.46935317468476
 20
-7.7748320222403
 30
0.0
  0
SPLINE
  5
C2
330
1F
100
AcDbEntity
  8
외형선
  6
Continuous
 62
     1
370
    15
100
AcDbSpline
210
0.0
220
0.0
230
1.0
 70
     8
 71
     3
 72
     9
 73
     5
 74
     0
 42
0.000000001
 43
0.00000001
 40
0.0
 40
0.0
 40
0.0
 40
0.0
 40
0.4996017098339553
 40
1.0
 40
1.0
 40
1.0
 40
1.0
 10
33.82933554223411
 20
7.774902020716024
 30
0.0
 10
33.78778071259122
 20
7.756322422993801
 30
0.0
 10
33.70460479700699
 20
7.719133603667306
 30
0.0
 10
33.62129421620953
 20
7.755421539222541
 30
0.0
 10
33.57960574402575
 20
7.773579960128036
 30
0.0
  0
SPLINE
  5
C3
330
1F
100
AcDbEntity
  8
외형선
  6
Continuous
370
    15
100
AcDbSpline
210
0.0
220
0.0
230
1.0
 70
     8
 71
     3
 72
     9
 73
     5
 74
     0
 42
0.000000001
 43
0.00000001
 40
0.0
 40
0.0
 40
0.0
 40
0.0
 40
0.4382608011299321
 40
1.0
 40
1.0
 40
1.0
 40
1.0
 10
11.58331086566997
 20
7.894088544768092
 30
0.0
 10
11.54423930130233
 20
7.881219926428352
 30
0.0
 10
11.45508790043119
 20
7.851857003012517
 30
0.0
 10
11.37448672418972
 20
7.80252847771294
 30
0.0
 10
11.32920988401986
 20
7.774818711429711
 30
0.0
  0
SPLINE
  5
C4
330
1F
100
AcDbEntity
  8
외형선
  6
Continuous
 62
     1
370
    15
100
AcDbSpline
210
0.0
220
0.0
230
1.0
 70
     8
 71
     3
 72
    11
 73
     7
 74
     0
 42
0.000000001
 43
0.00000001
 40
0.0
 40
0.0
 40
0.0
 40
0.0
 40
0.2868930413660936
 40
0.5560991355520283
 40
0.7954828540876105
 40
0.9999999999999999
 40
0.9999999999999999
 40
0.9999999999999999
 40
0.9999999999999999
 10
33.5794334806928
 20
7.773690311860827
 30
0.0
 10
33.47697674372122
 20
7.826531669658379
 30
0.0
 10
33.2783797244625
 20
7.928956717169783
 30
0.0
 10
32.9582679015352
 20
7.9486176582393
 30
0.0
 10
32.68187775954978
 20
7.89268423571835
 30
0.0
 10
32.53414204673628
 20
7.809713481638586
 30
0.0
 10
32.46607620421642
 20
7.771486608979317
 30
0.0
  0
SPLINE
  5
C5
330
1F
100
AcDbEntity
  8
외형선
  6
Continuous
 62
     1
370
    15
100
AcDbSpline
210
0.0
220
0.0
230
1.0
 70
     8
 71
     3
 72
     9
 73
     5
 74
     0
 42
0.000000001
 43
0.00000001
 40
0.0
 40
0.0
 40
0.0
 40
0.0
 40
0.5508275495373112
 40
1.0
 40
1.0
 40
1.0
 40
1.0
 10
45.5266376404433
 20
-7.937360156234159
 30
0.0
 10
45.61563933700474
 20
-7.920205850108336
 30
0.0
 10
45.77721748725554
 20
-7.889063061153365
 30
0.0
 10
45.91067018973477
 20
-7.809638926360815
 30
0.0
 10
45.97061346712825
 20
-7.77396379311017
 30
0.0
  0
SPLINE
  5
C6
330
1F
100
AcDbEntity
  8
외형선
  6
Continuous
 62
     1
370
    15
100
AcDbSpline
210
0.0
220
0.0
230
1.0
 70
     8
 71
     3
 72
     9
 73
     5
 74
     0
 42
0.000000001
 43
0.00000001
 40
0.0
 40
0.0
 40
0.0
 40
0.0
 40
0.5004663953592668
 40
1.0
 40
1.0
 40
1.0
 40
1.0
 10
23.46936476975401
 20
-7.774824380743759
 30
0.0
 10
23.5108376911197
 20
-7.756248771282635
 30
0.0
 10
23.59370623484265
 20
-7.719132174377481
 30
0.0
 10
23.67733111238457
 20
-7.755498120220743
 30
0.0
 10
23.71910454890073
 20
-7.773664132233997
 30
0.0
  0
SPLINE
  5
C7
330
1F
100
AcDbEntity
  8
외형선
  6
Continuous
370
    15
100
AcDbSpline
210
0.0
220
0.0
230
1.0
 70
     8
 71
     3
 72
     9
 73
     5
 74
     0
 42
0.000000001
 43
0.00000001
 40
0.0
 40
0.0
 40
0.0
 40
0.0
 40
0.4996026808804916
 40
0.9999999999999999
 40
0.9999999999999999
 40
0.9999999999999999
 40
0.9999999999999999
 10
11.32934645375399
 20
7.7749092181621
 30
0.0
 10
11.28778465883041
 20
7.756324882940903
 30
0.0
 10
11.20459496327006
 20
7.719126653362865
 30
0.0
 10
11.12126986870251
 20
7.755432777023612
 30
0.0
 10
11.07957421476553
 20
7.773600263971069
 30
0.0
  0
SPLINE
  5
C8
330
1F
100
AcDbEntity
  8
외형선
  6
Continuous
 62
     1
370
    15
100
AcDbSpline
210
0.0
220
0.0
230
1.0
 70
     8
 71
     3
 72
    11
 73
     7
 74
     0
 42
0.000000001
 43
0.00000001
 40
0.0
 40
0.0
 40
0.0
 40
0.0
 40
0.2010962331504962
 40
0.4393704985868087
 40
0.7096774829151806
 40
1.0
 40
1.0
 40
1.0
 40
1.0
 10
23.71907808050496
 20
-7.773647058834144
 30
0.0
 10
23.78731638272241
 20
-7.811576411371229
 30
0.0
 10
23.93640866753692
 20
-7.89444737456238
 30
0.0
 10
24.21281831068125
 20
-7.948781031313475
 30
0.0
 10
24.53372372460515
 20
-7.927232300148093
 30
0.0
 10
24.73195043809075
 20
-7.823486515041915
 30
0.0
 10
24.83460232898754
 20
-7.769761662188037
 30
0.0
  0
SPLINE
  5
C9
330
1F
100
AcDbEntity
  8
외형선
  6
Continuous
370
    15
100
AcDbSpline
210
0.0
220
0.0
230
1.0
 70
     8
 71
     3
 72
    11
 73
     7
 74
     0
 42
0.000000001
 43
0.00000001
 40
0.0
 40
0.0
 40
0.0
 40
0.0
 40
0.2034314714216733
 40
0.4424675528792417
 40
0.712004898830124
 40
1.0
 40
1.0
 40
1.0
 40
1.0
 10
11.07938154254635
 20
7.773723304602664
 30
0.0
 10
11.01117399975559
 20
7.811647743377687
 30
0.0
 10
10.8628212186661
 20
7.894134162523335
 30
0.0
 10
10.58617548313335
 20
7.948711925212173
 30
0.0
 10
10.2654953007038
 20
7.927358079772778
 30
0.0
 10
10.06687018061274
 20
7.823579220137708
 30
0.0
 10
9.964269763630888
 20
7.769971930850341
 30
0.0
  0
SPLINE
  5
CA
330
1F
100
AcDbEntity
  8
외형선
  6
Continuous
 62
     1
370
    15
100
AcDbSpline
210
0.0
220
0.0
230
1.0
 70
     8
 71
     3
 72
     9
 73
     5
 74
     0
 42
0.000000001
 43
0.00000001
 40
0.0
 40
0.0
 40
0.0
 40
0.0
 40
0.5004667289287005
 40
1.0
 40
1.0
 40
1.0
 40
1.0
 10
45.96934895680315
 20
-7.774834800353513
 30
0.0
 10
46.01082063592099
 20
-7.75625617266224
 30
0.0
 10
46.09368664223199
 20
-7.719133569665152
 30
0.0
 10
46.17730922725151
 20
-7.755488675541124
 30
0.0
 10
46.21908149068175
 20
-7.77364926049949
 30
0.0
  0
SPLINE
  5
CB
330
1F
100
AcDbEntity
  8
외형선
  6
Continuous
 62
     1
370
    15
100
AcDbSpline
210
0.0
220
0.0
230
1.0
 70
     8
 71
     3
 72
    11
 73
     7
 74
     0
 42
0.000000001
 43
0.00000001
 40
0.0
 40
0.0
 40
0.0
 40
0.0
 40
0.2451996791235523
 40
0.4999040526427329
 40
0.7546567701798296
 40
1.0
 40
1.0
 40
1.0
 40
1.0
 10
46.22349308663101
 20
-7.776018870932687
 30
0.0
 10
46.30815155695484
 20
-7.820994929163211
 30
0.0
 10
46.48075012052836
 20
-7.91269045609743
 30
0.0
 10
46.77753862216701
 20
-7.950235239170611
 30
0.0
 10
47.07434499766774
 20
-7.910763250363052
 30
0.0
 10
47.24693437980423
 20
-7.817801420054371
 30
0.0
 10
47.33160540477414
 20
-7.772195060277907
 30
0.0
  0
SPLINE
  5
CC
330
1F
100
AcDbEntity
  8
외형선
  6
Continuous
 62
     1
370
    15
100
AcDbSpline
210
0.0
220
0.0
230
1.0
 70
     8
 71
     3
 72
     9
 73
     5
 74
     0
 42
0.000000001
 43
0.00000001
 40
0.0
 40
0.0
 40
0.0
 40
0.0
 40
0.4995339609248199
 40
1.0
 40
1.0
 40
1.0
 40
1.0
 10
32.46910767387007
 20
7.773666145714283
 30
0.0
 10
32.42733159697067
 20
7.75549859982456
 30
0.0
 10
32.34370149337962
 20
7.719129609303699
 30
0.0
 10
32.26082745599417
 20
7.756253614308876
 30
0.0
 10
32.21935181476171
 20
7.774832918048419
 30
0.0
  0
SPLINE
  5
CD
330
1F
100
AcDbEntity
  8
외형선
  6
Continuous
 62
     1
370
    15
100
AcDbSpline
210
0.0
220
0.0
230
1.0
 70
     8
 71
     3
 72
     9
 73
     5
 74
     0
 42
0.000000001
 43
0.00000001
 40
0.0
 40
0.0
 40
0.0
 40
0.0
 40
0.4993652029329443
 40
1.0
 40
1.0
 40
1.0
 40
1.0
 10
32.21470272000869
 20
7.777377173206422
 30
0.0
 10
32.14578955309486
 20
7.816889490343113
 30
0.0
 10
32.00778801332182
 20
7.896014581367923
 30
0.0
 10
31.85194280018195
 20
7.923657948981258
 30
0.0
 10
31.77392126352781
 20
7.937497180716614
 30
0.0
  0
SPLINE
  5
CE
330
1F
100
AcDbEntity
  8
외형선
  6
Continuous
 62
     1
370
    15
100
AcDbSpline
210
0.0
220
0.0
230
1.0
 70
     8
 71
     3
 72
     9
 73
     5
 74
     0
 42
0.000000001
 43
0.00000001
 40
0.0
 40
0.0
 40
0.0
 40
0.0
 40
0.5003986463436537
 40
1.0
 40
1.0
 40
1.0
 40
1.0
 10
24.82960221592401
 20
-7.773582234478558
 30
0.0
 10
24.87128875443134
 20
-7.75542365374313
 30
0.0
 10
24.95459541165739
 20
-7.719135424611993
 30
0.0
 10
25.03776766924947
 20
-7.756316477988367
 30
0.0
 10
25.07932064172913
 20
-7.774892182585574
 30
0.0
  0
SPLINE
  5
CF
330
1F
100
AcDbEntity
  8
외형선
  6
Continuous
370
    15
100
AcDbSpline
210
0.0
220
0.0
230
1.0
 70
     8
 71
     3
 72
     9
 73
     5
 74
     0
 42
0.000000001
 43
0.00000001
 40
0.0
 40
0.0
 40
0.0
 40
0.0
 40
0.4995333904666431
 40
1.0
 40
1.0
 40
1.0
 40
1.0
 10
9.969082711881821
 20
7.77365004878673
 30
0.0
 10
9.927309575105594
 20
7.755488914397419
 30
0.0
 10
9.843685261749474
 20
7.719132717322492
 30
0.0
 10
9.76081743745807
 20
7.756257689836239
 30
0.0
 10
9.719344858395544
 20
7.77483749895921
 30
0.0
  0
SPLINE
  5
D0
330
1F
100
AcDbEntity
  8
외형선
  6
Continuous
 62
     1
370
    15
100
AcDbSpline
210
0.0
220
0.0
230
1.0
 70
     8
 71
     3
 72
     9
 73
     5
 74
     0
 42
0.000000001
 43
0.00000001
 40
0.0
 40
0.0
 40
0.0
 40
0.0
 40
0.4994671832693068
 40
1.0
 40
1.0
 40
1.0
 40
1.0
 10
25.08107544440704
 20
-7.775975649460927
 30
0.0
 10
25.14965855179501
 20
-7.815543841340628
 30
0.0
 10
25.28697109140784
 20
-7.894764645439721
 30
0.0
 10
25.44223823316021
 20
-7.922938902513027
 30
0.0
 10
25.51995453296725
 20
-7.937041042765226
 30
0.0
  0
SPLINE
  5
D1
330
1F
100
AcDbEntity
  8
외형선
  6
Continuous
370
    15
100
AcDbSpline
210
0.0
220
0.0
230
1.0
 70
     8
 71
     3
 72
     9
 73
     5
 74
     0
 42
0.000000001
 43
0.00000001
 40
0.0
 40
0.0
 40
0.0
 40
0.0
 40
0.4995069651241502
 40
1.0
 40
1.0
 40
1.0
 40
1.0
 10
9.717941176806502
 20
7.775714435642714
 30
0.0
 10
9.649348188331379
 20
7.815309902983645
 30
0.0
 10
9.512026802916711
 20
7.894579002526823
 30
0.0
 10
9.356730631484925
 20
7.92281273724982
 30
0.0
 10
9.279005979340429
 20
7.936943524827213
 30
0.0
  0
SPLINE
  5
D2
330
1F
100
AcDbEntity
  8
외형선
  6
Continuous
 62
     1
370
    15
100
AcDbSpline
210
0.0
220
0.0
230
1.0
 70
     8
 71
     3
 72
     9
 73
     5
 74
     0
 42
0.000000001
 43
0.00000001
 40
0.0
 40
0.0
 40
0.0
 40
0.0
 40
0.5004286062742722
 40
1.0
 40
1.0
 40
1.0
 40
1.0
 10
31.77605513157929
 20
7.937420243614825
 30
0.0
 10
31.69852032839679
 20
7.923689137622833
 30
0.0
 10
31.54358353579463
 20
7.896250446429254
 30
0.0
 10
31.40669077574515
 20
7.817958623758366
 30
0.0
 10
31.33830306881626
 20
7.778846268789343
 30
0.0
  0
SPLINE
  5
D3
330
1F
100
AcDbEntity
  8
외형선
  6
Continuous
 62
     1
370
    15
100
AcDbSpline
210
0.0
220
0.0
230
1.0
 70
     8
 71
     3
 72
     9
 73
     5
 74
     0
 42
0.000000001
 43
0.00000001
 40
0.0
 40
0.0
 40
0.0
 40
0.0
 40
0.5004465944636891
 40
1.0
 40
1.0
 40
1.0
 40
1.0
 10
47.33199944850914
 20
-7.771899604571981
 30
0.0
 10
47.37328479795502
 20
-7.754425690351506
 30
0.0
 10
47.45578181142783
 20
-7.71950904906793
 30
0.0
 10
47.53818131870587
 20
-7.756452535716218
 30
0.0
 10
47.57934427318112
 20
-7.774907780283759
 30
0.0
  0
SPLINE
  5
D4
330
1F
100
AcDbEntity
  8
외형선
  6
Continuous
 62
     1
370
    15
100
AcDbSpline
210
0.0
220
0.0
230
1.0
 70
     8
 71
     3
 72
     9
 73
     5
 74
     0
 42
0.000000001
 43
0.00000001
 40
0.0
 40
0.0
 40
0.0
 40
0.0
 40
0.4995688212143939
 40
1.0
 40
1.0
 40
1.0
 40
1.0
 10
47.5756440881633
 20
-7.772129862990748
 30
0.0
 10
47.64402746054731
 20
-7.811866765324581
 30
0.0
 10
47.78091224894895
 20
-7.891409163981955
 30
0.0
 10
47.93584003590144
 20
-7.920165428352235
 30
0.0
 10
48.01337073095272
 20
-7.934555959628526
 30
0.0
  0
SPLINE
  5
D5
330
1F
100
AcDbEntity
  8
외형선
  6
Continuous
 62
     1
370
    15
100
AcDbSpline
210
0.0
220
0.0
230
1.0
 70
     8
 71
     3
 72
     9
 73
     5
 74
     0
 42
0.000000001
 43
0.00000001
 40
0.0
 40
0.0
 40
0.0
 40
0.0
 40
0.5003489822504109
 40
0.9999999999999999
 40
0.9999999999999999
 40
0.9999999999999999
 40
0.9999999999999999
 10
25.51592474998492
 20
-7.935776818678974
 30
0.0
 10
25.59335066015105
 20
-7.922349958699098
 30
0.0
 10
25.74809447479398
 20
-7.895514968609804
 30
0.0
 10
25.88473413136975
 20
-7.817935975114414
 30
0.0
 10
25.95300627484278
 20
-7.779173552058455
 30
0.0
  0
SPLINE
  5
D6
330
1F
100
AcDbEntity
  8
외형선
  6
Continuous
 62
     1
370
    15
100
AcDbSpline
210
0.0
220
0.0
230
1.0
 70
     8
 71
     3
 72
     9
 73
     5
 74
     0
 42
0.000000001
 43
0.00000001
 40
0.0
 40
0.0
 40
0.0
 40
0.0
 40
0.4995838797676636
 40
1.0
 40
1.0
 40
1.0
 40
1.0
 10
31.32870095009021
 20
7.774473338758017
 30
0.0
 10
31.2872454687567
 20
7.75606912230968
 30
0.0
 10
31.20426544675761
 20
7.719230030430061
 30
0.0
 10
31.12116412021558
 20
7.755464801306837
 30
0.0
 10
31.07957887680125
 20
7.773597264766502
 30
0.0
  0
SPLINE
  5
D7
330
1F
100
AcDbEntity
  8
외형선
  6
Continuous
 62
     1
370
    15
100
AcDbSpline
210
0.0
220
0.0
230
1.0
 70
     8
 71
     3
 72
     9
 73
     5
 74
     0
 42
0.000000001
 43
0.00000001
 40
0.0
 40
0.0
 40
0.0
 40
0.0
 40
0.9082863372065432
 40
1.0
 40
1.0
 40
1.0
 40
1.0
 10
48.00797722533254
 20
-7.930902768881311
 30
0.0
 10
48.08655047307379
 20
-7.921238078702411
 30
0.0
 10
48.17305760691761
 20
-7.91059750228614
 30
0.0
 10
48.2495727732863
 20
-7.872054806490704
 30
0.0
 10
48.25659025945323
 20
-7.868519914685368
 30
0.0
  0
SPLINE
  5
D8
330
1F
100
AcDbEntity
  8
외형선
  6
Continuous
 62
     1
370
    15
100
AcDbSpline
210
0.0
220
0.0
230
1.0
 70
     8
 71
     3
 72
     9
 73
     5
 74
     0
 42
0.000000001
 43
0.00000001
 40
0.0
 40
0.0
 40
0.0
 40
0.0
 40
0.5002914677877692
 40
0.9999999999999999
 40
0.9999999999999999
 40
0.9999999999999999
 40
0.9999999999999999
 10
25.96420626261627
 20
-7.77758754853735
 30
0.0
 10
26.00693333909367
 20
-7.757735990568837
 30
0.0
 10
26.09233770680423
 20
-7.718056005506745
 30
0.0
 10
26.17837167080597
 20
-7.756022270783562
 30
0.0
 10
26.22136357667768
 20
-7.774994337478621
 30
0.0
  0
SPLINE
  5
D9
330
1F
100
AcDbEntity
  8
외형선
  6
Continuous
 62
     1
370
    15
100
AcDbSpline
210
0.0
220
0.0
230
1.0
 70
     8
 71
     3
 72
     9
 73
     5
 74
     0
 42
0.000000001
 43
0.00000001
 40
0.0
 40
0.0
 40
0.0
 40
0.0
 40
0.9073747595115454
 40
1.0
 40
1.0
 40
1.0
 40
1.0
 10
53.12926018156512
 20
7.923945428823257
 30
0.0
 10
53.01307421121876
 20
7.931867373642407
 30
0.0
 10
52.88502792259497
 20
7.940597994299539
 30
0.0
 10
52.77179207711487
 20
7.890711097803264
 30
0.0
 10
52.76130357969537
 20
7.886090312018075
 30
0.0
  0
LINE
  5
DA
330
1F
100
AcDbEntity
  8
외형선
  6
Continuous
 62
     1
370
    15
100
AcDbLine
 10
53.27499999997966
 20
7.737499999999998
 30
0.0
 11
53.07499999997965
 21
7.9375
 31
0.0
  0
SPLINE
  5
DB
330
1F
100
AcDbEntity
  8
외형선
  6
Continuous
 62
     1
370
    15
100
AcDbSpline
210
0.0
220
0.0
230
1.0
 70
     8
 71
     3
 72
    11
 73
     7
 74
     0
 42
0.000000001
 43
0.00000001
 40
0.0
 40
0.0
 40
0.0
 40
0.0
 40
0.2477267271507572
 40
0.5001753302228953
 40
0.7525383206330695
 40
1.0
 40
1.0
 40
1.0
 40
1.0
 10
48.45587235606142
 20
-7.77934553402811
 30
0.0
 10
48.47556926979379
 20
-7.76780292490175
 30
0.0
 10
48.51533853669436
 20
-7.744497694990495
 30
0.0
 10
48.58693751825477
 20
-7.73306314385137
 30
0.0
 10
48.65864623712174
 20
-7.741430450235443
 30
0.0
 10
48.69869427682013
 20
-7.76273334433086
 30
0.0
 10
48.71852193991553
 20
-7.773280342642441
 30
0.0
  0
SPLINE
  5
DC
330
1F
100
AcDbEntity
  8
외형선
  6
Continuous
 62
     1
370
    15
100
AcDbSpline
210
0.0
220
0.0
230
1.0
 70
     8
 71
     3
 72
    11
 73
     7
 74
     0
 42
0.000000001
 43
0.00000001
 40
0.0
 40
0.0
 40
0.0
 40
0.0
 40
0.2473797684975465
 40
0.4998701012897818
 40
0.7524240604082724
 40
1.0
 40
1.0
 40
1.0
 40
1.0
 10
52.48424591447895
 20
7.777812431977992
 30
0.0
 10
52.46437461229307
 20
7.766374412427787
 30
0.0
 10
52.42422149105462
 20
7.743262077794112
 30
0.0
 10
52.35243160383359
 20
7.73236757521948
 30
0.0
 10
52.28075005577934
 20
7.741272081697293
 30
0.0
 10
52.24086500783581
 20
7.762890888979042
 30
0.0
 10
52.22112098084254
 20
7.773592701726957
 30
0.0
  0
SPLINE
  5
DD
330
1F
100
AcDbEntity
  8
외형선
  6
Continuous
 62
     1
370
    15
100
AcDbSpline
210
0.0
220
0.0
230
1.0
 70
     8
 71
     3
 72
    11
 73
     7
 74
     0
 42
0.000000001
 43
0.00000001
 40
0.0
 40
0.0
 40
0.0
 40
0.0
 40
0.2448755452219377
 40
0.4999757260611236
 40
0.7550882728278019
 40
1.0
 40
1.0
 40
1.0
 40
1.0
 10
48.69250173156537
 20
-7.73887331327925
 30
0.0
 10
48.77612771179189
 20
-7.784757654857507
 30
0.0
 10
48.94687142629152
 20
-7.878442211943976
 30
0.0
 10
49.23996005612689
 20
-7.920669054111148
 30
0.0
 10
49.53305440562237
 20
-7.887784470653012
 30
0.0
 10
49.70380081937688
 20
-7.800392536554034
 30
0.0
 10
49.78743235744535
 20
-7.757587995581456
 30
0.0
  0
SPLINE
  5
DE
330
1F
100
AcDbEntity
  8
외형선
  6
Continuous
 62
     1
370
    15
100
AcDbSpline
210
0.0
220
0.0
230
1.0
 70
     8
 71
     3
 72
     9
 73
     5
 74
     0
 42
0.000000001
 43
0.00000001
 40
0.0
 40
0.0
 40
0.0
 40
0.0
 40
0.093941884145796
 40
1.0
 40
1.0
 40
1.0
 40
1.0
 10
29.81104905502436
 20
7.741754289595188
 30
0.0
 10
29.80782848839464
 20
7.741657833726709
 30
0.0
 10
29.77354594595898
 20
7.740631072667397
 30
0.0
 10
29.74512076727731
 20
7.758569959375429
 30
0.0
 10
29.71936590343818
 20
7.774823633266634
 30
0.0
  0
LINE
  5
DF
330
1F
100
AcDbEntity
  8
외형선
  6
Continuous
 62
     1
370
    15
100
AcDbLine
 10
29.71936600387012
 20
7.774823567045419
 30
0.0
 11
29.70915021507314
 21
7.780463597441384
 31
0.0
  0
SPLINE
  5
E0
330
1F
100
AcDbEntity
  8
외형선
  6
Continuous
 62
     1
370
    15
100
AcDbSpline
210
0.0
220
0.0
230
1.0
 70
     8
 71
     3
 72
    14
 73
    10
 74
     0
 42
0.000000001
 43
0.00000001
 40
0.0
 40
0.0
 40
0.0
 40
0.0
 40
0.25
 40
0.25
 40
0.5
 40
0.5
 40
0.75
 40
0.75
 40
1.0
 40
1.0
 40
1.0
 40
1.0
 10
51.661440299624
 20
-3.689885031453118
 30
0.0
 10
51.74353747060044
 20
-3.766435169623739
 30
0.0
 10
51.82871801412703
 20
-3.839738805160239
 30
0.0
 10
52.00561612831359
 20
-3.979259985954384
 30
0.0
 10
52.09686711244572
 20
-4.044923560924178
 30
0.0
 10
52.2789421297723
 20
-4.161829423538532
 30
0.0
 10
52.36768405935726
 20
-4.211894409988355
 30
0.0
 10
52.54134929722356
 20
-4.294789056408263
 30
0.0
 10
52.62699567287532
 20
-4.327695532616477
 30
0.0
 10
52.70663231379358
 20
-4.349109702409824
 30
0.0
  0
SPLINE
  5
E1
330
1F
100
AcDbEntity
  8
외형선
  6
Continuous
 62
     1
370
    15
100
AcDbSpline
210
0.0
220
0.0
230
1.0
 70
     8
 71
     3
 72
    14
 73
    10
 74
     0
 42
0.000000001
 43
0.00000001
 40
0.0
 40
0.0
 40
0.0
 40
0.0
 40
0.25
 40
0.25
 40
0.5
 40
0.5
 40
0.75
 40
0.75
 40
1.0
 40
1.0
 40
1.0
 40
1.0
 10
53.00145054373098
 20
1.161069413965157
 30
0.0
 10
52.91939136234149
 20
1.226127051549049
 30
0.0
 10
52.83424810139316
 20
1.293741163916561
 30
0.0
 10
52.65741375214772
 20
1.431466640829248
 30
0.0
 10
52.56618369409614
 20
1.501193388243419
 30
0.0
 10
52.38411671176038
 20
1.635388272857343
 30
0.0
 10
52.2953663602315
 20
1.698364785224178
 30
0.0
 10
52.121664703557
 20
1.815340564635388
 30
0.0
 10
52.03598788710853
 20
1.869712200271135
 30
0.0
 10
51.9563198505559
 20
1.916444180806301
 30
0.0
  0
SPLINE
  5
E2
330
1F
100
AcDbEntity
  8
외형선
  6
Continuous
 62
     1
370
    15
100
AcDbSpline
210
0.0
220
0.0
230
1.0
 70
     8
 71
     3
 72
    14
 73
    10
 74
     0
 42
0.000000001
 43
0.00000001
 40
0.0
 40
0.0
 40
0.0
 40
0.0
 40
0.2500000000000003
 40
0.2500000000000003
 40
0.5000000000000006
 40
0.5000000000000006
 40
0.7500000000000002
 40
0.7500000000000002
 40
1.0
 40
1.0
 40
1.0
 40
1.0
 10
29.17698427169194
 20
-3.411650543816044
 30
0.0
 10
29.2590527766199
 20
-3.487427985606591
 30
0.0
 10
29.34421095782271
 20
-3.560612910957881
 30
0.0
 10
29.52108346730736
 20
-3.700958085073948
 30
0.0
 10
29.61233354593969
 20
-3.767582692564026
 30
0.0
 10
29.79444826606088
 20
-3.887383643664189
 30
0.0
 10
29.88322953533203
 20
-3.939335263312495
 30
0.0
 10
30.05700420714159
 20
-4.026835938977508
 30
0.0
 10
30.14272148587103
 20
-4.062496367024184
 30
0.0
 10
30.22243128880902
 20
-4.087025911656613
 30
0.0
  0
SPLINE
  5
E3
330
1F
100
AcDbEntity
  8
외형선
  6
Continuous
 62
     1
370
    15
100
AcDbSpline
210
0.0
220
0.0
230
1.0
 70
     8
 71
     3
 72
    14
 73
    10
 74
     0
 42
0.000000001
 43
0.00000001
 40
0.0
 40
0.0
 40
0.0
 40
0.0
 40
0.2500000000000001
 40
0.2500000000000001
 40
0.5000000000000002
 40
0.5000000000000002
 40
0.7500000000000001
 40
0.7500000000000001
 40
1.0
 40
1.0
 40
1.0
 40
1.0
 10
30.51705251166453
 20
1.469069005538246
 30
0.0
 10
30.4349807943258
 20
1.535776357138773
 30
0.0
 10
30.34982417591273
 20
1.60438510408749
 30
0.0
 10
30.17297340623193
 20
1.743019646030442
 30
0.0
 10
30.0817504087998
 20
1.812631883622462
 30
0.0
 10
29.89974224860875
 20
1.945511278745067
 30
0.0
 10
29.8110390086532
 20
2.007317963139216
 30
0.0
 10
29.63745923428572
 20
2.12096005833033
 30
0.0
 10
29.5518592987363
 20
2.173135416784938
 30
0.0
 10
29.47226815981042
 20
2.217188383440192
 30
0.0
  0
SPLINE
  5
E5
330
1F
100
AcDbEntity
  8
외형선
  6
Continuous
370
    15
100
AcDbSpline
210
0.0
220
0.0
230
1.0
 70
     8
 71
     3
 72
     8
 73
     4
 74
     0
 42
0.000000001
 43
0.00000001
 40
0.0
 40
0.0
 40
0.0
 40
0.0
 40
1.0
 40
1.0
 40
1.0
 40
1.0
 10
9.131642816365465
 20
0.9760872129838994
 30
0.0
 10
9.073288447666577
 20
1.021732171801217
 30
0.0
 10
9.012811806757863
 20
1.069337939499073
 30
0.0
 10
8.950180717445535
 20
1.11833830479182
 30
0.0
  0
SPLINE
  5
E6
330
1F
100
AcDbEntity
  8
외형선
  6
Continuous
370
    15
100
AcDbSpline
210
0.0
220
0.0
230
1.0
 70
    24
 71
     3
 72
    14
 73
    10
 74
     0
 42
0.000000001
 43
0.00000001
 40
0.0
 40
0.0
 40
0.0
 40
0.0
 40
0.2499999999999999
 40
0.2499999999999999
 40
0.4999999999999998
 40
0.4999999999999998
 40
0.7499999999999999
 40
0.7499999999999999
 40
1.0
 40
1.0
 40
1.0
 40
1.0
 10
8.950180717445534
 20
5.433723947175809
 30
0.0
 10
8.950180717445534
 20
5.136340946563679
 30
0.0
 10
8.950180717445534
 20
4.817089026989571
 30
0.0
 10
8.950180717445535
 20
4.146999798338316
 30
0.0
 10
8.950180717445534
 20
3.798009076775122
 30
0.0
 10
8.950180717445534
 20
3.07282548704815
 30
0.0
 10
8.950180717445534
 20
2.695916721394459
 30
0.0
 10
8.950180717445534
 20
1.916590510349007
 30
0.0
 10
8.950180717445532
 20
1.520611980669278
 30
0.0
 10
8.950180717445532
 20
1.118328767759655
 30
0.0
  0
SPLINE
  5
E7
330
1F
100
AcDbEntity
  8
외형선
  6
Continuous
 62
     1
370
    15
100
AcDbSpline
210
0.0
220
0.0
230
1.0
 70
     8
 71
     3
 72
    16
 73
    12
 74
     0
 42
0.000000001
 43
0.00000001
 40
0.0
 40
0.0
 40
0.0
 40
0.0
 40
0.2500000000000001
 40
0.2500000000000001
 40
0.5000000000000001
 40
0.5000000000000001
 40
0.75
 40
0.75
 40
0.8750000000000001
 40
0.8750000000000001
 40
1.0
 40
1.0
 40
1.0
 40
1.0
 10
31.19962996593177
 20
0.983788743965978
 30
0.0
 10
31.17605635497535
 20
0.5034994659734724
 30
0.0
 10
31.15148341928984
 20
0.0109628454093001
 30
0.0
 10
31.10152135026504
 20
-0.9739910174165524
 30
0.0
 10
31.07613930709575
 20
-1.466262712363465
 30
0.0
 10
31.02589038085112
 20
-2.424758920341505
 30
0.0
 10
31.00103088062264
 20
-2.890846336833971
 30
0.0
 10
30.9650612627631
 20
-3.553498445566952
 30
0.0
 10
30.9534556937575
 20
-3.767396411529789
 30
0.0
 10
30.92966431422526
 20
-4.187531547487279
 30
0.0
 10
30.91753585483763
 20
-4.393362486468776
 30
0.0
 10
30.90524661027433
 20
-4.593467469426828
 30
0.0
  0
SPLINE
  5
E8
330
1F
100
AcDbEntity
  8
외형선
  6
Continuous
 62
     1
370
    15
100
AcDbSpline
210
0.0
220
0.0
230
1.0
 70
     8
 71
     3
 72
     8
 73
     4
 74
     0
 42
0.000000001
 43
0.00000001
 40
0.0
 40
0.0
 40
0.0
 40
0.0
 40
1.0
 40
1.0
 40
1.0
 40
1.0
 10
30.48911870015086
 20
-4.253709887540251
 30
0.0
 10
30.61883390094847
 20
-4.378037216494547
 30
0.0
 10
30.76096081863789
 20
-4.494757023996216
 30
0.0
 10
30.90524661027414
 20
-4.593467469426709
 30
0.0
  0
SPLINE
  5
E9
330
1F
100
AcDbEntity
  8
외형선
  6
Continuous
 62
     1
370
    15
100
AcDbSpline
210
0.0
220
0.0
230
1.0
 70
     8
 71
     3
 72
     8
 73
     4
 74
     0
 42
0.000000001
 43
0.00000001
 40
0.0
 40
0.0
 40
0.0
 40
0.0
 40
1.0
 40
1.0
 40
1.0
 40
1.0
 10
31.199629967473
 20
0.9837887428272278
 30
0.0
 10
31.05395510952437
 20
1.091414352969051
 30
0.0
 10
30.91150266625908
 20
1.191804887719637
 30
0.0
 10
30.78382085642163
 20
1.275432292202342
 30
0.0
  0
SPLINE
  5
EA
330
1F
100
AcDbEntity
  8
외형선
  6
Continuous
370
    15
100
AcDbSpline
210
0.0
220
0.0
230
1.0
 70
     8
 71
     3
 72
    14
 73
    10
 74
     0
 42
0.000000001
 43
0.00000001
 40
0.0
 40
0.0
 40
0.0
 40
0.0
 40
0.25
 40
0.25
 40
0.5
 40
0.5
 40
0.75
 40
0.75
 40
1.0
 40
1.0
 40
1.0
 40
1.0
 10
10.44328216135615
 20
0.0102399018866853
 30
0.0
 10
10.36119096310096
 20
0.0676810819233858
 30
0.0
 10
10.27600904293648
 20
0.1301763054730528
 30
0.0
 10
10.09910485583234
 20
0.2618708916245459
 30
0.0
 10
10.00786374076876
 20
0.3307590027682727
 30
0.0
 10
9.825856617057514
 20
0.4675439399256481
 30
0.0
 10
9.737158971583316
 20
0.5338802579062448
 30
0.0
 10
9.563593471753807
 20
0.6616129446784735
 30
0.0
 10
9.478009597879032
 20
0.7234938572053503
 30
0.0
 10
9.398420539408955
 20
0.7797516207880703
 30
0.0
  0
SPLINE
  5
EB
330
1F
100
AcDbEntity
  8
외형선
  6
Continuous
370
    15
100
AcDbSpline
210
0.0
220
0.0
230
1.0
 70
     8
 71
     3
 72
    14
 73
    10
 74
     0
 42
0.000000001
 43
0.00000001
 40
0.0
 40
0.0
 40
0.0
 40
0.0
 40
0.25
 40
0.25
 40
0.5
 40
0.5
 40
0.75
 40
0.75
 40
1.0
 40
1.0
 40
1.0
 40
1.0
 10
9.1031101762907
 20
-4.661622059292501
 30
0.0
 10
9.18506769655302
 20
-4.740524504438715
 30
0.0
 10
9.270071947282238
 20
-4.813785304767888
 30
0.0
 10
9.446683585301646
 20
-4.94919889803597
 30
0.0
 10
9.537808034150636
 20
-5.010762164404206
 30
0.0
 10
9.719699623247152
 20
-5.115922869792105
 30
0.0
 10
9.808373283991697
 20
-5.158513806599423
 30
0.0
 10
9.981940196697874
 20
-5.223394968333062
 30
0.0
 10
10.06756284152737
 20
-5.245629869366137
 30
0.0
 10
10.14718268637838
 20
-5.25506761908891
 30
0.0
  0
SPLINE
  5
EC
330
1F
100
AcDbEntity
  8
외형선
  6
Continuous
 62
     1
370
    15
100
AcDbSpline
210
0.0
220
0.0
230
1.0
 70
     8
 71
     3
 72
     8
 73
     4
 74
     0
 42
0.000000001
 43
0.00000001
 40
0.0
 40
0.0
 40
0.0
 40
0.0
 40
1.0
 40
1.0
 40
1.0
 40
1.0
 10
50.97892575875859
 20
-3.298062692799189
 30
0.0
 10
51.12462498620451
 20
-3.391180101689861
 30
0.0
 10
51.26694644440336
 20
-3.466736087055132
 30
0.0
 10
51.3945938399916
 20
-3.51583088188745
 30
0.0
  0
SPLINE
  5
ED
330
1F
100
AcDbEntity
  8
외형선
  6
Continuous
 62
     1
370
    15
100
AcDbSpline
210
0.0
220
0.0
230
1.0
 70
     8
 71
     3
 72
    14
 73
    10
 74
     0
 42
0.000000001
 43
0.00000001
 40
0.0
 40
0.0
 40
0.0
 40
0.0
 40
0.2500000000000001
 40
0.2500000000000001
 40
0.5000000000000001
 40
0.5000000000000001
 40
0.7500000000000001
 40
0.7500000000000001
 40
1.0
 40
1.0
 40
1.0
 40
1.0
 10
51.2737325102925
 20
2.442900002336193
 30
0.0
 10
51.2489018440028
 20
1.974665416316647
 30
0.0
 10
51.22479903940982
 20
1.496975135392937
 30
0.0
 10
51.17778480308215
 20
0.5383504733391762
 30
0.0
 10
51.15326763127548
 20
0.0465424177084467
 30
0.0
 10
51.10338697771904
 20
-0.9375889149903593
 30
0.0
 10
51.07803051681321
 20
-1.429767701438121
 30
0.0
 10
51.02779852069706
 20
-2.388750860468062
 30
0.0
 10
51.00293036347428
 20
-2.85541785755621
 30
0.0
 10
50.97892575924291
 20
-3.298062693107497
 30
0.0
  0
SPLINE
  5
EE
330
1F
100
AcDbEntity
  8
외형선
  6
Continuous
 62
     1
370
    15
100
AcDbSpline
210
0.0
220
0.0
230
1.0
 70
     8
 71
     3
 72
     8
 73
     4
 74
     0
 42
0.000000001
 43
0.00000001
 40
0.0
 40
0.0
 40
0.0
 40
0.0
 40
1.0
 40
1.0
 40
1.0
 40
1.0
 10
51.68972900954734
 20
2.106665828303761
 30
0.0
 10
51.56004905407545
 20
2.217911909513583
 30
0.0
 10
51.41796356139693
 20
2.3343026696263
 30
0.0
 10
51.27373251029283
 20
2.442900002335835
 30
0.0
  0
SPLINE
  5
EF
330
1F
100
AcDbEntity
  8
외형선
  6
Continuous
 62
     1
370
    15
100
AcDbSpline
210
0.0
220
0.0
230
1.0
 70
     8
 71
     3
 72
    14
 73
    10
 74
     0
 42
0.000000001
 43
0.00000001
 40
0.0
 40
0.0
 40
0.0
 40
0.0
 40
0.25
 40
0.25
 40
0.5
 40
0.5
 40
0.75
 40
0.75
 40
1.0
 40
1.0
 40
1.0
 40
1.0
 10
49.2518357627292
 20
-2.04111032271582
 30
0.0
 10
49.33381992457082
 20
-2.110897483839012
 30
0.0
 10
49.41889925635957
 20
-2.181299004310659
 30
0.0
 10
49.59562288416591
 20
-2.321368513491205
 30
0.0
 10
49.68679275913283
 20
-2.390579512864158
 30
0.0
 10
49.86871871186783
 20
-2.52053557335813
 30
0.0
 10
49.95739186555571
 20
-2.57987862712297
 30
0.0
 10
50.13093106859634
 20
-2.686656772825599
 30
0.0
 10
50.21652204609735
 20
-2.734368514920245
 30
0.0
 10
50.29611422229013
 20
-2.773039692078018
 30
0.0
  0
SPLINE
  5
F0
330
1F
100
AcDbEntity
  8
외형선
  6
Continuous
 62
     1
370
    15
100
AcDbSpline
210
0.0
220
0.0
230
1.0
 70
     8
 71
     3
 72
    14
 73
    10
 74
     0
 42
0.000000001
 43
0.00000001
 40
0.0
 40
0.0
 40
0.0
 40
0.0
 40
0.25
 40
0.25
 40
0.5
 40
0.5
 40
0.75
 40
0.75
 40
1.0
 40
1.0
 40
1.0
 40
1.0
 10
50.59212328302308
 20
2.874729811015533
 30
0.0
 10
50.51015703345777
 20
2.948290034360007
 30
0.0
 10
50.42509779020656
 20
3.020551599561149
 30
0.0
 10
50.24841954450677
 20
3.161180831330752
 30
0.0
 10
50.15727577104391
 20
3.229036501988534
 30
0.0
 10
49.97540476306092
 20
3.353265285302606
 30
0.0
 10
49.88676468815662
 20
3.408335872348209
 30
0.0
 10
49.7133023345923
 20
3.503842603852942
 30
0.0
 10
49.62775272751342
 20
3.544459274288122
 30
0.0
 10
49.54820755972233
 20
3.574761639611392
 30
0.0
  0
SPLINE
  5
F1
330
1F
100
AcDbEntity
  8
외형선
  6
Continuous
 62
     1
370
    15
100
AcDbSpline
210
0.0
220
0.0
230
1.0
 70
     8
 71
     3
 72
     8
 73
     4
 74
     0
 42
0.000000001
 43
0.00000001
 40
0.0
 40
0.0
 40
0.0
 40
0.0
 40
1.0
 40
1.0
 40
1.0
 40
1.0
 10
30.90524660978997
 20
-4.593467469162274
 30
0.0
 10
31.0509237526361
 20
-4.673035121875718
 30
0.0
 10
31.19309721740143
 20
-4.729399327946582
 30
0.0
 10
31.32054021380312
 20
-4.754598710374717
 30
0.0
  0
SPLINE
  5
F2
330
1F
100
AcDbEntity
  8
외형선
  6
Continuous
 62
     1
370
    15
100
AcDbSpline
210
0.0
220
0.0
230
1.0
 70
     8
 71
     3
 72
     8
 73
     4
 74
     0
 42
0.000000001
 43
0.00000001
 40
0.0
 40
0.0
 40
0.0
 40
0.0
 40
1.0
 40
1.0
 40
1.0
 40
1.0
 10
31.61599439954856
 20
0.6646760527597511
 30
0.0
 10
31.48616580744905
 20
0.762773597788833
 30
0.0
 10
31.34396369731082
 20
0.8738130140157245
 30
0.0
 10
31.1996299659318
 20
0.9837887439659667
 30
0.0
  0
SPLINE
  5
F3
330
1F
100
AcDbEntity
  8
외형선
  6
Continuous
 62
     1
370
    15
100
AcDbSpline
210
0.0
220
0.0
230
1.0
 70
     8
 71
     3
 72
     8
 73
     4
 74
     0
 42
0.000000001
 43
0.00000001
 40
0.0
 40
0.0
 40
0.0
 40
0.0
 40
1.0
 40
1.0
 40
1.0
 40
1.0
 10
28.49474614816632
 20
-3.005183854932344
 30
0.0
 10
28.64049680073754
 20
-3.100458657448697
 30
0.0
 10
28.78280375392183
 20
-3.17951062520006
 30
0.0
 10
28.91027447608132
 20
-3.233582717418839
 30
0.0
  0
SPLINE
  5
F4
330
1F
100
AcDbEntity
  8
외형선
  6
Continuous
 62
     1
370
    15
100
AcDbSpline
210
0.0
220
0.0
230
1.0
 70
     8
 71
     3
 72
    16
 73
    12
 74
     0
 42
0.000000001
 43
0.00000001
 40
0.0
 40
0.0
 40
0.0
 40
0.0
 40
0.2499999999999999
 40
0.2499999999999999
 40
0.3749999999999998
 40
0.3749999999999998
 40
0.4999999999999998
 40
0.4999999999999998
 40
0.7499999999999999
 40
0.7499999999999999
 40
1.0
 40
1.0
 40
1.0
 40
1.0
 10
28.78988908306442
 20
2.744721669745538
 30
0.0
 10
28.76488862994468
 20
2.282067297640912
 30
0.0
 10
28.74024942614274
 20
1.805691649356848
 30
0.0
 10
28.70472798115741
 20
1.089473263498151
 30
0.0
 10
28.69310175500204
 20
0.8503135536345984
 30
0.0
 10
28.66908352879335
 20
0.3651741891864191
 30
0.0
 10
28.65686240299078
 20
0.1203315022440239
 30
0.0
 10
28.61978484660066
 20
-0.6163997548522652
 30
0.0
 10
28.5945123422491
 20
-1.110475417972423
 30
0.0
 10
28.54415828721378
 20
-2.078779635060071
 30
0.0
 10
28.51908424771811
 20
-2.552865161828509
 30
0.0
 10
28.49474614865211
 20
-3.005183855248233
 30
0.0
  0
SPLINE
  5
F5
330
1F
100
AcDbEntity
  8
외형선
  6
Continuous
 62
     1
370
    15
100
AcDbSpline
210
0.0
220
0.0
230
1.0
 70
     8
 71
     3
 72
     8
 73
     4
 74
     0
 42
0.000000001
 43
0.00000001
 40
0.0
 40
0.0
 40
0.0
 40
0.0
 40
1.0
 40
1.0
 40
1.0
 40
1.0
 10
29.20576580835132
 20
2.405612142347398
 30
0.0
 10
29.07612470195726
 20
2.519422093789097
 30
0.0
 10
28.93419300033642
 20
2.636820214962418
 30
0.0
 10
28.78988908306444
 20
2.744721669745507
 30
0.0
  0
SPLINE
  5
F6
330
1F
100
AcDbEntity
  8
외형선
  6
Continuous
 62
     1
370
    15
100
AcDbSpline
210
0.0
220
0.0
230
1.0
 70
     8
 71
     3
 72
     8
 73
     4
 74
     0
 42
0.000000001
 43
0.00000001
 40
0.0
 40
0.0
 40
0.0
 40
0.0
 40
1.0
 40
1.0
 40
1.0
 40
1.0
 10
50.56272123219954
 20
-2.956377858350622
 30
0.0
 10
50.6924812710561
 20
-3.07400506594225
 30
0.0
 10
50.83464284952386
 20
-3.191932056014602
 30
0.0
 10
50.97892575924283
 20
-3.298062693108667
 30
0.0
  0
SPLINE
  5
F7
330
1F
100
AcDbEntity
  8
외형선
  6
Continuous
 62
     1
370
    15
100
AcDbSpline
210
0.0
220
0.0
230
1.0
 70
     8
 71
     3
 72
     8
 73
     4
 74
     0
 42
0.000000001
 43
0.00000001
 40
0.0
 40
0.0
 40
0.0
 40
0.0
 40
1.0
 40
1.0
 40
1.0
 40
1.0
 10
51.27373251183197
 20
2.442900001283705
 30
0.0
 10
51.1281195083543
 20
2.542440529244361
 30
0.0
 10
50.98599221224858
 20
2.628412055966519
 30
0.0
 10
50.85854248922811
 20
2.691309811405616
 30
0.0
  0
SPLINE
  5
F8
330
1F
100
AcDbEntity
  8
외형선
  6
Continuous
 62
     1
370
    15
100
AcDbSpline
210
0.0
220
0.0
230
1.0
 70
     8
 71
     3
 72
    14
 73
    10
 74
     0
 42
0.000000001
 43
0.00000001
 40
0.0
 40
0.0
 40
0.0
 40
0.0
 40
0.25
 40
0.25
 40
0.5
 40
0.5
 40
0.75
 40
0.75
 40
1.0
 40
1.0
 40
1.0
 40
1.0
 10
26.76805781828665
 20
-1.737777358044872
 30
0.0
 10
26.84999944663097
 20
-1.806124725759256
 30
0.0
 10
26.93500397726203
 20
-1.875796769992869
 30
0.0
 10
27.11161494099476
 20
-2.01545723433147
 30
0.0
 10
27.20273949456153
 20
-2.085033402110562
 30
0.0
 10
27.38462263735848
 20
-2.216786888160847
 30
0.0
 10
27.47329203497471
 20
-2.277523621513364
 30
0.0
 10
27.64685213717638
 20
-2.388045549332626
 30
0.0
 10
27.73247035679994
 20
-2.438141526449713
 30
0.0
 10
27.81209168562521
 20
-2.47964799739459
 30
0.0
  0
SPLINE
  5
F9
330
1F
100
AcDbEntity
  8
외형선
  6
Continuous
 62
     1
370
    15
100
AcDbSpline
210
0.0
220
0.0
230
1.0
 70
     8
 71
     3
 72
    14
 73
    10
 74
     0
 42
0.000000001
 43
0.00000001
 40
0.0
 40
0.0
 40
0.0
 40
0.0
 40
0.25
 40
0.25
 40
0.5
 40
0.5
 40
0.75
 40
0.75
 40
1.0
 40
1.0
 40
1.0
 40
1.0
 10
28.10831308060162
 20
3.162057768374299
 30
0.0
 10
28.02630263739724
 20
3.236702240417056
 30
0.0
 10
27.94120203204143
 20
3.309384841259858
 30
0.0
 10
27.76445827144033
 20
3.449777814638167
 30
0.0
 10
27.673297711168
 20
3.516953141584297
 30
0.0
 10
27.49143963928034
 20
3.638812907033167
 30
0.0
 10
27.40282083062489
 20
3.692240125069779
 30
0.0
 10
27.22942277219962
 20
3.783580621757802
 30
0.0
 10
27.14392110335915
 20
3.821638856673919
 30
0.0
 10
27.06442181119979
 20
3.848983404350571
 30
0.0
  0
SPLINE
  5
FA
330
1F
100
AcDbEntity
  8
외형선
  6
Continuous
 62
     1
370
    15
100
AcDbSpline
210
0.0
220
0.0
230
1.0
 70
     8
 71
     3
 72
     8
 73
     4
 74
     0
 42
0.000000001
 43
0.00000001
 40
0.0
 40
0.0
 40
0.0
 40
0.0
 40
1.0
 40
1.0
 40
1.0
 40
1.0
 10
28.07863628621359
 20
-2.665466613194667
 30
0.0
 10
28.20831752193885
 20
-2.780897638177913
 30
0.0
 10
28.35044078768712
 20
-2.898275261650646
 30
0.0
 10
28.49474614865187
 20
-3.005183855249756
 30
0.0
  0
SPLINE
  5
FB
330
1F
100
AcDbEntity
  8
외형선
  6
Continuous
 62
     1
370
    15
100
AcDbSpline
210
0.0
220
0.0
230
1.0
 70
     8
 71
     3
 72
     8
 73
     4
 74
     0
 42
0.000000001
 43
0.00000001
 40
0.0
 40
0.0
 40
0.0
 40
0.0
 40
1.0
 40
1.0
 40
1.0
 40
1.0
 10
28.78988908460338
 20
2.744721668716116
 30
0.0
 10
28.64439251806535
 20
2.842028803142734
 30
0.0
 10
28.50216016761563
 20
2.924106015055203
 30
0.0
 10
28.37472601487035
 20
2.982047212981731
 30
0.0
  0
SPLINE
  5
FC
330
1F
100
AcDbEntity
  8
외형선
  6
Continuous
 62
     1
370
    15
100
AcDbSpline
210
0.0
220
0.0
230
1.0
 70
     8
 71
     3
 72
    14
 73
    10
 74
     0
 42
0.000000001
 43
0.00000001
 40
0.0
 40
0.0
 40
0.0
 40
0.0
 40
0.25
 40
0.25
 40
0.5
 40
0.5
 40
0.75
 40
0.75
 40
1.0
 40
1.0
 40
1.0
 40
1.0
 10
31.58700058002811
 20
-4.908210981510774
 30
0.0
 10
31.66896445162613
 20
-4.987311453557147
 30
0.0
 10
31.75402025163499
 20
-5.060101016862931
 30
0.0
 10
31.93069271201101
 20
-5.193602956631952
 30
0.0
 10
32.0218372525725
 20
-5.25369248684413
 30
0.0
 10
32.20372173130684
 20
-5.355055743345439
 30
0.0
 10
32.29237276870147
 20
-5.395380387843887
 30
0.0
 10
32.46586339242482
 20
-5.455045775541697
 30
0.0
 10
32.55143115383983
 20
-5.474296096049507
 30
0.0
 10
32.63099359003874
 20
-5.480487477212294
 30
0.0
  0
SPLINE
  5
FD
330
1F
100
AcDbEntity
  8
외형선
  6
Continuous
 62
     1
370
    15
100
AcDbSpline
210
0.0
220
0.0
230
1.0
 70
     8
 71
     3
 72
    14
 73
    10
 74
     0
 42
0.000000001
 43
0.00000001
 40
0.0
 40
0.0
 40
0.0
 40
0.0
 40
0.25
 40
0.25
 40
0.5
 40
0.5
 40
0.75
 40
0.75
 40
1.0
 40
1.0
 40
1.0
 40
1.0
 10
32.92725873706956
 20
-0.301581973492604
 30
0.0
 10
32.84524038908992
 20
-0.246340870581063
 30
0.0
 10
32.76012713557644
 20
-0.1854230920984212
 30
0.0
 10
32.58333993934825
 20
-0.0558397510180936
 30
0.0
 10
32.49214156875107
 20
0.0125424612932132
 30
0.0
 10
32.31017200840449
 20
0.1494277165458157
 30
0.0
 10
32.22147976992503
 20
0.2163475430880396
 30
0.0
 10
32.04790597167458
 20
0.3462949648929997
 30
0.0
 10
31.9623019113147
 20
0.4098391795742805
 30
0.0
 10
31.88269528849302
 20
0.4683000679076613
 30
0.0
  0
SPLINE
  5
FE
330
1F
100
AcDbEntity
  8
외형선
  6
Continuous
 62
     1
370
    15
100
AcDbSpline
210
0.0
220
0.0
230
1.0
 70
     8
 71
     3
 72
    14
 73
    10
 74
     0
 42
0.000000001
 43
0.00000001
 40
0.0
 40
0.0
 40
0.0
 40
0.0
 40
0.25
 40
0.25
 40
0.5
 40
0.5
 40
0.75
 40
0.75
 40
1.0
 40
1.0
 40
1.0
 40
1.0
 10
46.84408210920064
 20
-0.2871625169052819
 30
0.0
 10
46.92603181192131
 20
-0.3466331955213171
 30
0.0
 10
47.01107236405149
 20
-0.4105333341344367
 30
0.0
 10
47.18771794208395
 20
-0.5439733343608393
 30
0.0
 10
47.27885515934261
 20
-0.6131881922941749
 30
0.0
 10
47.46074475263508
 20
-0.7495537743845863
 30
0.0
 10
47.54940628546889
 20
-0.8151443478665429
 30
0.0
 10
47.72293060279287
 20
-0.9403395520492009
 30
0.0
 10
47.80852244848927
 20
-1.000407954637256
 30
0.0
 10
47.88810960006637
 20
-1.054328418202531
 30
0.0
  0
SPLINE
  5
FF
330
1F
100
AcDbEntity
  8
외형선
  6
Continuous
 62
     1
370
    15
100
AcDbSpline
210
0.0
220
0.0
230
1.0
 70
     8
 71
     3
 72
    14
 73
    10
 74
     0
 42
0.000000001
 43
0.00000001
 40
0.0
 40
0.0
 40
0.0
 40
0.0
 40
0.25
 40
0.25
 40
0.5
 40
0.5
 40
0.75
 40
0.75
 40
1.0
 40
1.0
 40
1.0
 40
1.0
 10
48.18431292357396
 20
4.437569396806134
 30
0.0
 10
48.10226355201635
 20
4.51596627593698
 30
0.0
 10
48.01712045696658
 20
4.589260741630016
 30
0.0
 10
47.84028140506322
 20
4.725741887964319
 30
0.0
 10
47.74906374048811
 20
4.78832417597555
 30
0.0
 10
47.56707642737253
 20
4.896374191946983
 30
0.0
 10
47.47838156443677
 20
4.940803974411711
 30
0.0
 10
47.30481175374979
 20
5.010140249990086
 30
0.0
 10
47.21921679371084
 20
5.035022975099116
 30
0.0
 10
47.1396185629349
 20
5.047451009589788
 30
0.0
  0
SPLINE
  5
100
330
1F
100
AcDbEntity
  8
외형선
  6
Continuous
 62
     1
370
    15
100
AcDbSpline
210
0.0
220
0.0
230
1.0
 70
     8
 71
     3
 72
     8
 73
     4
 74
     0
 42
0.000000001
 43
0.00000001
 40
0.0
 40
0.0
 40
0.0
 40
0.0
 40
1.0
 40
1.0
 40
1.0
 40
1.0
 10
48.57033676354364
 20
-1.575365512281467
 30
0.0
 10
48.71594650621876
 20
-1.679980029294737
 30
0.0
 10
48.85804544199839
 20
-1.77498836913726
 30
0.0
 10
48.98543062233873
 20
-1.850646944854991
 30
0.0
  0
SPLINE
  5
101
330
1F
100
AcDbEntity
  8
외형선
  6
Continuous
 62
     1
370
    15
100
AcDbSpline
210
0.0
220
0.0
230
1.0
 70
     8
 71
     3
 72
    16
 73
    12
 74
     0
 42
0.000000001
 43
0.00000001
 40
0.0
 40
0.0
 40
0.0
 40
0.0
 40
0.2500000000000002
 40
0.2500000000000002
 40
0.5000000000000003
 40
0.5000000000000003
 40
0.6250000000000002
 40
0.6250000000000002
 40
0.75
 40
0.75
 40
1.0
 40
1.0
 40
1.0
 40
1.0
 10
48.86598271660991
 20
4.091016967909031
 30
0.0
 10
48.84096198974325
 20
3.668657402957733
 30
0.0
 10
48.81563345477201
 20
3.22072538286054
 30
0.0
 10
48.76566988376365
 20
2.296929998393547
 30
0.0
 10
48.7410419754663
 20
1.821210955651834
 30
0.0
 10
48.70552542243789
 20
1.105771059375485
 30
0.0
 10
48.69392301306488
 20
0.8669990864914972
 30
0.0
 10
48.66994940273401
 20
0.3825732990893028
 30
0.0
 10
48.65774938348615
 20
0.1380573307372512
 30
0.0
 10
48.62073032963529
 20
-0.5978052550724406
 30
0.0
 10
48.59549031968918
 20
-1.091452348363225
 30
0.0
 10
48.57033676402739
 20
-1.575365512628874
 30
0.0
  0
SPLINE
  5
102
330
1F
100
AcDbEntity
  8
외형선
  6
Continuous
 62
     1
370
    15
100
AcDbSpline
210
0.0
220
0.0
230
1.0
 70
     8
 71
     3
 72
     8
 73
     4
 74
     0
 42
0.000000001
 43
0.00000001
 40
0.0
 40
0.0
 40
0.0
 40
0.0
 40
1.0
 40
1.0
 40
1.0
 40
1.0
 10
49.28179946728741
 20
3.748855537128708
 30
0.0
 10
49.15216171218161
 20
3.87104684416645
 30
0.0
 10
49.01013010556763
 20
3.988809652755108
 30
0.0
 10
48.86598271660985
 20
4.091016967902121
 30
0.0
  0
SPLINE
  5
103
330
1F
100
AcDbEntity
  8
외형선
  6
Continuous
370
    15
100
AcDbSpline
210
0.0
220
0.0
230
1.0
 70
     8
 71
     3
 72
     8
 73
     4
 74
     0
 42
0.000000001
 43
0.00000001
 40
0.0
 40
0.0
 40
0.0
 40
0.0
 40
1.0
 40
1.0
 40
1.0
 40
1.0
 10
11.20122557433302
 20
-0.5659463237206485
 30
0.0
 10
11.16322242212534
 20
-0.5376164993315025
 30
0.0
 10
11.12521736635516
 20
-0.5092607949901227
 30
0.0
 10
11.08721041070134
 20
-0.4808791893828968
 30
0.0
  0
SPLINE
  5
104
330
1F
100
AcDbEntity
  8
외형선
  6
Continuous
370
    15
100
AcDbSpline
210
0.0
220
0.0
230
1.0
 70
     8
 71
     3
 72
     8
 73
     4
 74
     0
 42
0.000000001
 43
0.00000001
 40
0.0
 40
0.0
 40
0.0
 40
0.0
 40
1.0
 40
1.0
 40
1.0
 40
1.0
 10
11.08721041070136
 20
-0.4808791893829453
 30
0.0
 10
10.9552009570517
 20
-0.3794856636403973
 30
0.0
 10
10.82619418580821
 20
-0.2787272555265098
 30
0.0
 10
10.70981521847749
 20
-0.1864046598649743
 30
0.0
  0
SPLINE
  5
105
330
1F
100
AcDbEntity
  8
외형선
  6
Continuous
370
    15
100
AcDbSpline
210
0.0
220
0.0
230
1.0
 70
     8
 71
     3
 72
     8
 73
     4
 74
     0
 42
0.000000001
 43
0.00000001
 40
0.0
 40
0.0
 40
0.0
 40
0.0
 40
1.0
 40
1.0
 40
1.0
 40
1.0
 10
10.70981521847753
 20
-0.1864046598650051
 30
0.0
 10
10.62930417266862
 20
-0.1225358277298862
 30
0.0
 10
10.52666730576697
 20
-0.0481066833050976
 30
0.0
 10
10.44328216135618
 20
0.0102399018866209
 30
0.0
  0
SPLINE
  5
106
330
1F
100
AcDbEntity
  8
외형선
  6
Continuous
370
    15
100
AcDbSpline
210
0.0
220
0.0
230
1.0
 70
     8
 71
     3
 72
     8
 73
     4
 74
     0
 42
0.000000001
 43
0.00000001
 40
0.0
 40
0.0
 40
0.0
 40
0.0
 40
1.0
 40
1.0
 40
1.0
 40
1.0
 10
9.39842053940895
 20
0.7797516207880626
 30
0.0
 10
9.317363865585282
 20
0.8370467726648485
 30
0.0
 10
9.214660158042413
 20
0.9111508041689333
 30
0.0
 10
9.131642816365485
 20
0.9760872129838348
 30
0.0
  0
SPLINE
  5
107
330
1F
100
AcDbEntity
  8
외형선
  6
Continuous
370
    15
100
AcDbSpline
210
0.0
220
0.0
230
1.0
 70
     8
 71
     3
 72
     8
 73
     4
 74
     0
 42
0.000000001
 43
0.00000001
 40
0.0
 40
0.0
 40
0.0
 40
0.0
 40
1.0
 40
1.0
 40
1.0
 40
1.0
 10
9.22281733469488
 20
7.870951528110783
 30
0.0
 10
9.13195416707799
 20
7.879825720961945
 30
0.0
 10
9.04120195172357
 20
7.887813290331138
 30
0.0
 10
8.950180717445535
 20
7.89492112278834
 30
0.0
  0
SPLINE
  5
108
330
1F
100
AcDbEntity
  8
외형선
  6
Continuous
370
    15
100
AcDbSpline
210
0.0
220
0.0
230
1.0
 70
     8
 71
     3
 72
     8
 73
     4
 74
     0
 42
0.000000001
 43
0.00000001
 40
0.0
 40
0.0
 40
0.0
 40
0.0
 40
1.0
 40
1.0
 40
1.0
 40
1.0
 10
9.222963481877978
 20
7.870937253886993
 30
0.0
 10
9.368626492151527
 20
7.838636198978845
 30
0.0
 10
9.511049121676546
 20
7.770201591125603
 30
0.0
 10
9.638714953610943
 20
7.667196210562479
 30
0.0
  0
SPLINE
  5
109
330
1F
100
AcDbEntity
  8
외형선
  6
Continuous
370
    15
100
AcDbSpline
210
0.0
220
0.0
230
1.0
 70
     8
 71
     3
 72
     8
 73
     4
 74
     0
 42
0.000000001
 43
0.00000001
 40
0.0
 40
0.0
 40
0.0
 40
0.0
 40
1.0
 40
1.0
 40
1.0
 40
1.0
 10
9.638714953610997
 20
7.667196210562438
 30
0.0
 10
9.719337634857492
 20
7.602146934354511
 30
0.0
 10
9.82206700897436
 20
7.58666234925378
 30
0.0
 10
9.905567231991304
 20
7.629993378395924
 30
0.0
  0
SPLINE
  5
10A
330
1F
100
AcDbEntity
  8
외형선
  6
Continuous
370
    15
100
AcDbSpline
210
0.0
220
0.0
230
1.0
 70
     8
 71
     3
 72
    14
 73
    10
 74
     0
 42
0.000000001
 43
0.00000001
 40
0.0
 40
0.0
 40
0.0
 40
0.0
 40
0.2500000000000001
 40
0.2500000000000001
 40
0.5000000000000001
 40
0.5000000000000001
 40
0.7500000000000002
 40
0.7500000000000002
 40
1.0
 40
1.0
 40
1.0
 40
1.0
 10
9.905567231991338
 20
7.629993378395932
 30
0.0
 10
9.987668684141948
 20
7.672598539043587
 30
0.0
 10
10.07285299645911
 20
7.698315532905545
 30
0.0
 10
10.2497534220161
 20
7.721611256960186
 30
0.0
 10
10.3409993855409
 20
7.718648492462326
 30
0.0
 10
10.52304727156108
 20
7.684854513889397
 30
0.0
 10
10.61176937974303
 20
7.654752069983934
 30
0.0
 10
10.78538552230177
 20
7.568867692783013
 30
0.0
 10
10.87100143539009
 20
7.512260695346874
 30
0.0
 10
10.9506081750322
 20
7.443232695320343
 30
0.0
  0
SPLINE
  5
10B
330
1F
100
AcDbEntity
  8
외형선
  6
Continuous
370
    15
100
AcDbSpline
210
0.0
220
0.0
230
1.0
 70
     8
 71
     3
 72
     8
 73
     4
 74
     0
 42
0.000000001
 43
0.00000001
 40
0.0
 40
0.0
 40
0.0
 40
0.0
 40
1.0
 40
1.0
 40
1.0
 40
1.0
 10
10.95060817503227
 20
7.443232695320281
 30
0.0
 10
11.03157941366788
 20
7.373021521143118
 30
0.0
 10
11.13423268997286
 20
7.349533369296798
 30
0.0
 10
11.217154999189
 20
7.385057922103959
 30
0.0
  0
SPLINE
  5
10C
330
1F
100
AcDbEntity
  8
외형선
  6
Continuous
370
    15
100
AcDbSpline
210
0.0
220
0.0
230
1.0
 70
     8
 71
     3
 72
     8
 73
     4
 74
     0
 42
0.000000001
 43
0.00000001
 40
0.0
 40
0.0
 40
0.0
 40
0.0
 40
1.0
 40
1.0
 40
1.0
 40
1.0
 10
11.21715499918902
 20
7.385057922103974
 30
0.0
 10
11.30219889928172
 20
7.421491380703108
 30
0.0
 10
11.39250044613582
 20
7.439722308177431
 30
0.0
 10
11.48545483776984
 20
7.442140022642513
 30
0.0
  0
SPLINE
  5
10D
330
1F
100
AcDbEntity
  8
외형선
  6
Continuous
370
    15
100
AcDbSpline
210
0.0
220
0.0
230
1.0
 70
     8
 71
     3
 72
     8
 73
     4
 74
     0
 42
0.000000001
 43
0.00000001
 40
0.0
 40
0.0
 40
0.0
 40
0.0
 40
1.0
 40
1.0
 40
1.0
 40
1.0
 10
11.48545483776984
 20
7.442140022642515
 30
0.0
 10
11.60648934633039
 20
7.404079156320353
 30
0.0
 10
11.72764938287519
 20
7.364623060304914
 30
0.0
 10
11.84893583932512
 20
7.323785537809641
 30
0.0
  0
SPLINE
  5
10E
330
1F
100
AcDbEntity
  8
외형선
  6
Continuous
370
    15
100
AcDbSpline
210
0.0
220
0.0
230
1.0
 70
     8
 71
     3
 72
     8
 73
     4
 74
     0
 42
0.000000001
 43
0.00000001
 40
0.0
 40
0.0
 40
0.0
 40
0.0
 40
1.0
 40
1.0
 40
1.0
 40
1.0
 10
11.84893583932512
 20
7.323785537809684
 30
0.0
 10
11.91810268034583
 20
7.279824104040741
 30
0.0
 10
11.98507950506255
 20
7.22808900324075
 30
0.0
 10
12.04830518251127
 20
7.169028532694068
 30
0.0
  0
SPLINE
  5
10F
330
1F
100
AcDbEntity
  8
외형선
  6
Continuous
 62
     1
370
    15
100
AcDbSpline
210
0.0
220
0.0
230
1.0
 70
     8
 71
     3
 72
     8
 73
     4
 74
     0
 42
0.000000001
 43
0.00000001
 40
0.0
 40
0.0
 40
0.0
 40
0.0
 40
1.0
 40
1.0
 40
1.0
 40
1.0
 10
12.04830518251132
 20
7.169028532694006
 30
0.0
 10
12.12878386649645
 20
7.093851656194821
 30
0.0
 10
12.23139102846531
 20
7.062308828609956
 30
0.0
 10
12.31473783747852
 20
7.089112226085843
 30
0.0
  0
SPLINE
  5
110
330
1F
100
AcDbEntity
  8
외형선
  6
Continuous
 62
     1
370
    15
100
AcDbSpline
210
0.0
220
0.0
230
1.0
 70
     8
 71
     3
 72
    14
 73
    10
 74
     0
 42
0.000000001
 43
0.00000001
 40
0.0
 40
0.0
 40
0.0
 40
0.0
 40
0.25
 40
0.25
 40
0.5
 40
0.5
 40
0.75
 40
0.75
 40
1.0
 40
1.0
 40
1.0
 40
1.0
 10
12.31473783747855
 20
7.089112226085824
 30
0.0
 10
12.39675556439079
 20
7.115488205688706
 30
0.0
 10
12.48186197887018
 20
7.124990952453169
 30
0.0
 10
12.65861324029222
 20
7.116267984829676
 30
0.0
 10
12.74977524464122
 20
7.097609339829125
 30
0.0
 10
12.93163091489608
 20
7.034611071072148
 30
0.0
 10
13.02024661202144
 20
6.991311927272437
 30
0.0
 10
13.19363547975511
 20
6.882009749836656
 30
0.0
 10
13.27913054668425
 20
6.815126492910561
 30
0.0
 10
13.35862274913223
 20
6.738019161842085
 30
0.0
  0
SPLINE
  5
111
330
1F
100
AcDbEntity
  8
외형선
  6
Continuous
 62
     1
370
    15
100
AcDbSpline
210
0.0
220
0.0
230
1.0
 70
     8
 71
     3
 72
     8
 73
     4
 74
     0
 42
0.000000001
 43
0.00000001
 40
0.0
 40
0.0
 40
0.0
 40
0.0
 40
1.0
 40
1.0
 40
1.0
 40
1.0
 10
13.35862274913228
 20
6.738019161842044
 30
0.0
 10
13.43954169257298
 20
6.659527893900672
 30
0.0
 10
13.54211055758809
 20
6.620559537216997
 30
0.0
 10
13.62500282468684
 20
6.63860301728871
 30
0.0
  0
SPLINE
  5
112
330
1F
100
AcDbEntity
  8
외형선
  6
Continuous
 62
     1
370
    15
100
AcDbSpline
210
0.0
220
0.0
230
1.0
 70
     8
 71
     3
 72
     8
 73
     4
 74
     0
 42
0.000000001
 43
0.00000001
 40
0.0
 40
0.0
 40
0.0
 40
0.0
 40
1.0
 40
1.0
 40
1.0
 40
1.0
 10
13.62500282468686
 20
6.638603017288709
 30
0.0
 10
13.75452377593865
 20
6.666796343211339
 30
0.0
 10
13.89651866820808
 20
6.653584649076395
 30
0.0
 10
14.04083820751573
 20
6.608646071498318
 30
0.0
  0
SPLINE
  5
113
330
1F
100
AcDbEntity
  8
외형선
  6
Continuous
 62
     1
370
    15
100
AcDbSpline
210
0.0
220
0.0
230
1.0
 70
     8
 71
     3
 72
     8
 73
     4
 74
     0
 42
0.000000001
 43
0.00000001
 40
0.0
 40
0.0
 40
0.0
 40
0.0
 40
1.0
 40
1.0
 40
1.0
 40
1.0
 10
14.04083820703105
 20
6.608646071751981
 30
0.0
 10
14.18639041749079
 20
6.532465375366898
 30
0.0
 10
14.3286401093159
 20
6.42711290889456
 30
0.0
 10
14.45607991760248
 20
6.298232722494856
 30
0.0
  0
SPLINE
  5
114
330
1F
100
AcDbEntity
  8
외형선
  6
Continuous
 62
     1
370
    15
100
AcDbSpline
210
0.0
220
0.0
230
1.0
 70
     8
 71
     3
 72
     8
 73
     4
 74
     0
 42
0.000000001
 43
0.00000001
 40
0.0
 40
0.0
 40
0.0
 40
0.0
 40
1.0
 40
1.0
 40
1.0
 40
1.0
 10
14.45607991759959
 20
6.298232722497776
 30
0.0
 10
14.53659141128261
 20
6.216811254177197
 30
0.0
 10
14.63922736405545
 20
6.170834805559374
 30
0.0
 10
14.72259874972871
 20
6.179709070172644
 30
0.0
  0
SPLINE
  5
115
330
1F
100
AcDbEntity
  8
외형선
  6
Continuous
 62
     1
370
    15
100
AcDbSpline
210
0.0
220
0.0
230
1.0
 70
     8
 71
     3
 72
    14
 73
    10
 74
     0
 42
0.000000001
 43
0.00000001
 40
0.0
 40
0.0
 40
0.0
 40
0.0
 40
0.25
 40
0.25
 40
0.5
 40
0.5
 40
0.75
 40
0.75
 40
1.0
 40
1.0
 40
1.0
 40
1.0
 10
14.72259874972871
 20
6.179709070172735
 30
0.0
 10
14.80470932685124
 20
6.188449131082737
 30
0.0
 10
14.88990621302936
 20
6.18118244355589
 30
0.0
 10
15.06682607254067
 20
6.140760999645434
 30
0.0
 10
15.15806460458218
 20
6.107305470757495
 30
0.0
 10
15.3400405060612
 20
6.018237836542516
 30
0.0
 10
15.42871479962971
 20
5.963917228040477
 30
0.0
 10
15.60222279199794
 20
5.836698671727778
 30
0.0
 10
15.68776919765997
 20
5.762919017853007
 30
0.0
 10
15.76732251718752
 20
5.68162476096829
 30
0.0
  0
SPLINE
  5
116
330
1F
100
AcDbEntity
  8
외형선
  6
Continuous
 62
     1
370
    15
100
AcDbSpline
210
0.0
220
0.0
230
1.0
 70
     8
 71
     3
 72
     8
 73
     4
 74
     0
 42
0.000000001
 43
0.00000001
 40
0.0
 40
0.0
 40
0.0
 40
0.0
 40
1.0
 40
1.0
 40
1.0
 40
1.0
 10
15.76732251718752
 20
5.68162476096829
 30
0.0
 10
15.84831374392657
 20
5.598861129845996
 30
0.0
 10
15.95101709092526
 20
5.546418718955955
 30
0.0
 10
16.03406884251704
 20
5.546047402159126
 30
0.0
  0
SPLINE
  5
117
330
1F
100
AcDbEntity
  8
외형선
  6
Continuous
 62
     1
370
    15
100
AcDbSpline
210
0.0
220
0.0
230
1.0
 70
     8
 71
     3
 72
     8
 73
     4
 74
     0
 42
0.000000001
 43
0.00000001
 40
0.0
 40
0.0
 40
0.0
 40
0.0
 40
1.0
 40
1.0
 40
1.0
 40
1.0
 10
16.03406884251702
 20
5.546047402159139
 30
0.0
 10
16.16382329015541
 20
5.545467281873319
 30
0.0
 10
16.3060476856965
 20
5.505968671923919
 30
0.0
 10
16.45056529010989
 20
5.439480617767953
 30
0.0
  0
SPLINE
  5
118
330
1F
100
AcDbEntity
  8
외형선
  6
Continuous
 62
     1
370
    15
100
AcDbSpline
210
0.0
220
0.0
230
1.0
 70
     8
 71
     3
 72
     8
 73
     4
 74
     0
 42
0.000000001
 43
0.00000001
 40
0.0
 40
0.0
 40
0.0
 40
0.0
 40
1.0
 40
1.0
 40
1.0
 40
1.0
 10
16.45056528962544
 20
5.439480618076307
 30
0.0
 10
16.59630496998346
 20
5.346728161478081
 30
0.0
 10
16.73872767714154
 20
5.23066444239993
 30
0.0
 10
16.86632194546439
 20
5.098524072852665
 30
0.0
  0
SPLINE
  5
119
330
1F
100
AcDbEntity
  8
외형선
  6
Continuous
 62
     1
370
    15
100
AcDbSpline
210
0.0
220
0.0
230
1.0
 70
     8
 71
     3
 72
     8
 73
     4
 74
     0
 42
0.000000001
 43
0.00000001
 40
0.0
 40
0.0
 40
0.0
 40
0.0
 40
1.0
 40
1.0
 40
1.0
 40
1.0
 10
16.86632194546439
 20
5.098524072852661
 30
0.0
 10
16.94690892697534
 20
5.01506582933179
 30
0.0
 10
17.04960128687412
 20
4.956978919522838
 30
0.0
 10
17.13303002809187
 20
4.947414879011128
 30
0.0
  0
SPLINE
  5
11A
330
1F
100
AcDbEntity
  8
외형선
  6
Continuous
 62
     1
370
    15
100
AcDbSpline
210
0.0
220
0.0
230
1.0
 70
     8
 71
     3
 72
    14
 73
    10
 74
     0
 42
0.000000001
 43
0.00000001
 40
0.0
 40
0.0
 40
0.0
 40
0.0
 40
0.25
 40
0.25
 40
0.5
 40
0.5
 40
0.75
 40
0.75
 40
1.0
 40
1.0
 40
1.0
 40
1.0
 10
17.13303002809186
 20
4.947414879011122
 30
0.0
 10
17.21514910045661
 20
4.938000975320181
 30
0.0
 10
17.30034136274357
 20
4.914323992138207
 30
0.0
 10
17.47722428932252
 20
4.844310709379606
 30
0.0
 10
17.5684338785907
 20
4.7978218603278
 30
0.0
 10
17.75034658687925
 20
4.687349524780104
 30
0.0
 10
17.8389814028935
 20
4.624849526850344
 30
0.0
 10
18.01239635476327
 20
4.486352717795266
 30
0.0
 10
18.09792466899763
 20
4.409536368145275
 30
0.0
 10
18.17751014803597
 20
4.328369285723162
 30
0.0
  0
SPLINE
  5
11B
330
1F
100
AcDbEntity
  8
외형선
  6
Continuous
 62
     1
370
    15
100
AcDbSpline
210
0.0
220
0.0
230
1.0
 70
     8
 71
     3
 72
     8
 73
     4
 74
     0
 42
0.000000001
 43
0.00000001
 40
0.0
 40
0.0
 40
0.0
 40
0.0
 40
1.0
 40
1.0
 40
1.0
 40
1.0
 10
18.17751014803599
 20
4.32836928572317
 30
0.0
 10
18.25840514563806
 20
4.24586666065583
 30
0.0
 10
18.36103707116751
 20
4.182876288292547
 30
0.0
 10
18.44397424985232
 20
4.164223533591938
 30
0.0
  0
SPLINE
  5
11C
330
1F
100
AcDbEntity
  8
외형선
  6
Continuous
 62
     1
370
    15
100
AcDbSpline
210
0.0
220
0.0
230
1.0
 70
     8
 71
     3
 72
     8
 73
     4
 74
     0
 42
0.000000001
 43
0.00000001
 40
0.0
 40
0.0
 40
0.0
 40
0.0
 40
1.0
 40
1.0
 40
1.0
 40
1.0
 10
18.44397424985235
 20
4.164223533591966
 30
0.0
 10
18.57352774368936
 20
4.135086666634738
 30
0.0
 10
18.71555231009948
 20
4.071637435369063
 30
0.0
 10
18.85986153599747
 20
3.987286562783244
 30
0.0
  0
SPLINE
  5
11D
330
1F
100
AcDbEntity
  8
외형선
  6
Continuous
 62
     1
370
    15
100
AcDbSpline
210
0.0
220
0.0
230
1.0
 70
     8
 71
     3
 72
     8
 73
     4
 74
     0
 42
0.000000001
 43
0.00000001
 40
0.0
 40
0.0
 40
0.0
 40
0.0
 40
1.0
 40
1.0
 40
1.0
 40
1.0
 10
18.85986153551375
 20
3.987286563129886
 30
0.0
 10
19.00543297021371
 20
3.882974551171175
 30
0.0
 10
19.14765099330001
 20
3.762409580016786
 30
0.0
 10
19.27502689837076
 20
3.634112593863089
 30
0.0
  0
SPLINE
  5
11E
330
1F
100
AcDbEntity
  8
외형선
  6
Continuous
 62
     1
370
    15
100
AcDbSpline
210
0.0
220
0.0
230
1.0
 70
     8
 71
     3
 72
     8
 73
     4
 74
     0
 42
0.000000001
 43
0.00000001
 40
0.0
 40
0.0
 40
0.0
 40
0.0
 40
1.0
 40
1.0
 40
1.0
 40
1.0
 10
19.27502689837081
 20
3.634112593863055
 30
0.0
 10
19.35551243119957
 20
3.553045053772407
 30
0.0
 10
19.45811027178156
 20
3.485959642412762
 30
0.0
 10
19.54143077110798
 20
3.458523860595028
 30
0.0
  0
SPLINE
  5
11F
330
1F
100
AcDbEntity
  8
외형선
  6
Continuous
 62
     1
370
    15
100
AcDbSpline
210
0.0
220
0.0
230
1.0
 70
     8
 71
     3
 72
    14
 73
    10
 74
     0
 42
0.000000001
 43
0.00000001
 40
0.0
 40
0.0
 40
0.0
 40
0.0
 40
0.25
 40
0.25
 40
0.5
 40
0.5
 40
0.75
 40
0.75
 40
1.0
 40
1.0
 40
1.0
 40
1.0
 10
19.54143077110798
 20
3.458523860595028
 30
0.0
 10
19.62348410258137
 20
3.431505331926555
 30
0.0
 10
19.70860904757948
 20
3.392684522352327
 30
0.0
 10
19.88534888425694
 20
3.296752732025587
 30
0.0
 10
19.97647332833617
 20
3.239650956163933
 30
0.0
 10
20.15820338234203
 20
3.11352337814044
 30
0.0
 10
20.24672851636833
 20
3.046083058315836
 30
0.0
 10
20.42011828338227
 20
2.903741178113497
 30
0.0
 10
20.50567794249982
 20
2.828037338743933
 30
0.0
 10
20.58526202661919
 20
2.751300364696849
 30
0.0
  0
SPLINE
  5
120
330
1F
100
AcDbEntity
  8
외형선
  6
Continuous
 62
     1
370
    15
100
AcDbSpline
210
0.0
220
0.0
230
1.0
 70
     8
 71
     3
 72
     8
 73
     4
 74
     0
 42
0.000000001
 43
0.00000001
 40
0.0
 40
0.0
 40
0.0
 40
0.0
 40
1.0
 40
1.0
 40
1.0
 40
1.0
 10
20.58526202661922
 20
2.751300364696807
 30
0.0
 10
20.66615391645467
 20
2.673302371509981
 30
0.0
 10
20.76879235744982
 20
2.603023063631443
 30
0.0
 10
20.85171683942616
 20
2.567028587198946
 30
0.0
  0
SPLINE
  5
121
330
1F
100
AcDbEntity
  8
외형선
  6
Continuous
 62
     1
370
    15
100
AcDbSpline
210
0.0
220
0.0
230
1.0
 70
     8
 71
     3
 72
     8
 73
     4
 74
     0
 42
0.000000001
 43
0.00000001
 40
0.0
 40
0.0
 40
0.0
 40
0.0
 40
1.0
 40
1.0
 40
1.0
 40
1.0
 10
20.85171683942601
 20
2.567028587199018
 30
0.0
 10
20.98130615037695
 20
2.5107786199064
 30
0.0
 10
21.12336882729976
 20
2.426522671715497
 30
0.0
 10
21.2676902240406
 20
2.328559102332127
 30
0.0
  0
SPLINE
  5
122
330
1F
100
AcDbEntity
  8
외형선
  6
Continuous
 62
     1
370
    15
100
AcDbSpline
210
0.0
220
0.0
230
1.0
 70
     8
 71
     3
 72
     8
 73
     4
 74
     0
 42
0.000000001
 43
0.00000001
 40
0.0
 40
0.0
 40
0.0
 40
0.0
 40
1.0
 40
1.0
 40
1.0
 40
1.0
 10
21.26769022355668
 20
2.328559102699612
 30
0.0
 10
21.4133491331174
 20
2.217946364612113
 30
0.0
 10
21.55562973076035
 20
2.098976731320428
 30
0.0
 10
21.68307438229926
 20
1.980969642820174
 30
0.0
  0
SPLINE
  5
123
330
1F
100
AcDbEntity
  8
외형선
  6
Continuous
 62
     1
370
    15
100
AcDbSpline
210
0.0
220
0.0
230
1.0
 70
     8
 71
     3
 72
     8
 73
     4
 74
     0
 42
0.000000001
 43
0.00000001
 40
0.0
 40
0.0
 40
0.0
 40
0.0
 40
1.0
 40
1.0
 40
1.0
 40
1.0
 10
21.68307438229925
 20
1.980969642820155
 30
0.0
 10
21.7636380320073
 20
1.906371912541159
 30
0.0
 10
21.86629212345762
 20
1.833646526600941
 30
0.0
 10
21.94968312460724
 20
1.78963621838746
 30
0.0
  0
SPLINE
  5
124
330
1F
100
AcDbEntity
  8
외형선
  6
Continuous
 62
     1
370
    15
100
AcDbSpline
210
0.0
220
0.0
230
1.0
 70
     8
 71
     3
 72
    14
 73
    10
 74
     0
 42
0.000000001
 43
0.00000001
 40
0.0
 40
0.0
 40
0.0
 40
0.0
 40
0.2499999999999999
 40
0.2499999999999999
 40
0.4999999999999999
 40
0.4999999999999999
 40
0.7499999999999998
 40
0.7499999999999998
 40
1.0
 40
1.0
 40
1.0
 40
1.0
 10
21.94968312460863
 20
1.789636218382942
 30
0.0
 10
22.03182870211291
 20
1.746283193062457
 30
0.0
 10
22.11703450064474
 20
1.694201396112536
 30
0.0
 10
22.29390487014523
 20
1.577081044244568
 30
0.0
 10
22.38505095804555
 20
1.512168769133094
 30
0.0
 10
22.56698599794531
 20
1.376830983969889
 30
0.0
 10
22.65571121572232
 20
1.30803167951231
 30
0.0
 10
22.82943467858611
 20
1.169095257948867
 30
0.0
 10
22.91515268842731
 20
1.098317119711417
 30
0.0
 10
22.99488756931039
 20
1.029893425217944
 30
0.0
  0
SPLINE
  5
125
330
1F
100
AcDbEntity
  8
외형선
  6
Continuous
 62
     1
370
    15
100
AcDbSpline
210
0.0
220
0.0
230
1.0
 70
     8
 71
     3
 72
     8
 73
     4
 74
     0
 42
0.000000001
 43
0.00000001
 40
0.0
 40
0.0
 40
0.0
 40
0.0
 40
1.0
 40
1.0
 40
1.0
 40
1.0
 10
22.99488756931038
 20
1.029893425217925
 30
0.0
 10
23.07591834102659
 20
0.9603576749029469
 30
0.0
 10
23.17867722928753
 20
0.8863363845045102
 30
0.0
 10
23.26172142162138
 20
0.8347608923585741
 30
0.0
  0
SPLINE
  5
126
330
1F
100
AcDbEntity
  8
외형선
  6
Continuous
 62
     1
370
    15
100
AcDbSpline
210
0.0
220
0.0
230
1.0
 70
     8
 71
     3
 72
     8
 73
     4
 74
     0
 42
0.000000001
 43
0.00000001
 40
0.0
 40
0.0
 40
0.0
 40
0.0
 40
1.0
 40
1.0
 40
1.0
 40
1.0
 10
23.2617214216214
 20
0.834760892358557
 30
0.0
 10
23.39146296227408
 20
0.7541835079216922
 30
0.0
 10
23.53365103926715
 20
0.6533985472118004
 30
0.0
 10
23.67807379690465
 20
0.5468089775040113
 30
0.0
  0
SPLINE
  5
127
330
1F
100
AcDbEntity
  8
외형선
  6
Continuous
 62
     1
370
    15
100
AcDbSpline
210
0.0
220
0.0
230
1.0
 70
     8
 71
     3
 72
     8
 73
     4
 74
     0
 42
0.000000001
 43
0.00000001
 40
0.0
 40
0.0
 40
0.0
 40
0.0
 40
1.0
 40
1.0
 40
1.0
 40
1.0
 10
23.6780737964205
 20
0.5468089778734183
 30
0.0
 10
23.82379525925185
 20
0.4356265006965245
 30
0.0
 10
23.96612288535186
 20
0.3244212268562255
 30
0.0
 10
24.09359682238502
 20
0.222836489102173
 30
0.0
  0
SPLINE
  5
128
330
1F
100
AcDbEntity
  8
외형선
  6
Continuous
 62
     1
370
    15
100
AcDbSpline
210
0.0
220
0.0
230
1.0
 70
     8
 71
     3
 72
     8
 73
     4
 74
     0
 42
0.000000001
 43
0.00000001
 40
0.0
 40
0.0
 40
0.0
 40
0.0
 40
1.0
 40
1.0
 40
1.0
 40
1.0
 10
24.09359682238502
 20
0.2228364891021864
 30
0.0
 10
24.17415691857688
 20
0.15863766983325
 30
0.0
 10
24.27678757685121
 20
0.0840669946080984
 30
0.0
 10
24.3601581889743
 20
0.0257900886125515
 30
0.0
  0
SPLINE
  5
129
330
1F
100
AcDbEntity
  8
외형선
  6
Continuous
 62
     1
370
    15
100
AcDbSpline
210
0.0
220
0.0
230
1.0
 70
     8
 71
     3
 72
    14
 73
    10
 74
     0
 42
0.000000001
 43
0.00000001
 40
0.0
 40
0.0
 40
0.0
 40
0.0
 40
0.2500000000000001
 40
0.2500000000000001
 40
0.5000000000000001
 40
0.5000000000000001
 40
0.75
 40
0.75
 40
1.0
 40
1.0
 40
1.0
 40
1.0
 10
24.36015818897431
 20
0.0257900886125794
 30
0.0
 10
24.44217974462382
 20
-0.031543813184106
 30
0.0
 10
24.52723263351785
 20
-0.094065516834855
 30
0.0
 10
24.70380356520449
 20
-0.2259798863494223
 30
0.0
 10
24.79490298263197
 20
-0.2949805999432249
 30
0.0
 10
24.97676665782637
 20
-0.4320286236464026
 30
0.0
 10
25.06543667854398
 20
-0.4984920311537848
 30
0.0
 10
25.23901333885462
 20
-0.6264735396370174
 30
0.0
 10
25.32464861062535
 20
-0.6884846796073576
 30
0.0
 10
25.40428476937341
 20
-0.7448687830413261
 30
0.0
  0
SPLINE
  5
12A
330
1F
100
AcDbEntity
  8
외형선
  6
Continuous
 62
     1
370
    15
100
AcDbSpline
210
0.0
220
0.0
230
1.0
 70
     8
 71
     3
 72
     8
 73
     4
 74
     0
 42
0.000000001
 43
0.00000001
 40
0.0
 40
0.0
 40
0.0
 40
0.0
 40
1.0
 40
1.0
 40
1.0
 40
1.0
 10
25.40428476937341
 20
-0.7448687830413295
 30
0.0
 10
25.48517863925656
 20
-0.8021433728554238
 30
0.0
 10
25.58782105100179
 20
-0.87590566773299
 30
0.0
 10
25.67072003065334
 20
-0.9402053839093615
 30
0.0
  0
SPLINE
  5
12B
330
1F
100
AcDbEntity
  8
외형선
  6
Continuous
 62
     1
370
    15
100
AcDbSpline
210
0.0
220
0.0
230
1.0
 70
     8
 71
     3
 72
     8
 73
     4
 74
     0
 42
0.000000001
 43
0.00000001
 40
0.0
 40
0.0
 40
0.0
 40
0.0
 40
1.0
 40
1.0
 40
1.0
 40
1.0
 10
25.67072003065338
 20
-0.9402053839094197
 30
0.0
 10
25.80029389667044
 20
-1.040707981695201
 30
0.0
 10
25.9423213971855
 20
-1.152592394783481
 30
0.0
 10
26.08656324955096
 20
-1.262085176982127
 30
0.0
  0
SPLINE
  5
12C
330
1F
100
AcDbEntity
  8
외형선
  6
Continuous
 62
     1
370
    15
100
AcDbSpline
210
0.0
220
0.0
230
1.0
 70
     8
 71
     3
 72
     8
 73
     4
 74
     0
 42
0.000000001
 43
0.00000001
 40
0.0
 40
0.0
 40
0.0
 40
0.0
 40
1.0
 40
1.0
 40
1.0
 40
1.0
 10
26.08656324906735
 20
-1.262085176630519
 30
0.0
 10
26.23217084154326
 20
-1.367959946921212
 30
0.0
 10
26.37435423416374
 20
-1.465518032486455
 30
0.0
 10
26.5016828602721
 20
-1.545312841868786
 30
0.0
  0
SPLINE
  5
12D
330
1F
100
AcDbEntity
  8
외형선
  6
Continuous
 62
     1
370
    15
100
AcDbSpline
210
0.0
220
0.0
230
1.0
 70
     8
 71
     3
 72
     8
 73
     4
 74
     0
 42
0.000000001
 43
0.00000001
 40
0.0
 40
0.0
 40
0.0
 40
0.0
 40
1.0
 40
1.0
 40
1.0
 40
1.0
 10
26.5016828602721
 20
-1.545312841868795
 30
0.0
 10
26.58218659046
 20
-1.595763239405032
 30
0.0
 10
26.68474984681599
 20
-1.668290325938028
 30
0.0
 10
26.76805781828667
 20
-1.737777358044845
 30
0.0
  0
SPLINE
  5
12E
330
1F
100
AcDbEntity
  8
외형선
  6
Continuous
 62
     1
370
    15
100
AcDbSpline
210
0.0
220
0.0
230
1.0
 70
     8
 71
     3
 72
     8
 73
     4
 74
     0
 42
0.000000001
 43
0.00000001
 40
0.0
 40
0.0
 40
0.0
 40
0.0
 40
1.0
 40
1.0
 40
1.0
 40
1.0
 10
27.81209168562521
 20
-2.479647997394599
 30
0.0
 10
27.89302725867813
 20
-2.52183958174633
 30
0.0
 10
27.9957035807127
 20
-2.591647088364691
 30
0.0
 10
28.07863628621359
 20
-2.665466613194654
 30
0.0
  0
SPLINE
  5
12F
330
1F
100
AcDbEntity
  8
외형선
  6
Continuous
 62
     1
370
    15
100
AcDbSpline
210
0.0
220
0.0
230
1.0
 70
     8
 71
     3
 72
     8
 73
     4
 74
     0
 42
0.000000001
 43
0.00000001
 40
0.0
 40
0.0
 40
0.0
 40
0.0
 40
1.0
 40
1.0
 40
1.0
 40
1.0
 10
28.91027447608134
 20
-3.233582717418829
 30
0.0
 10
28.9908777869043
 20
-3.267774017053147
 30
0.0
 10
29.09350503614823
 20
-3.334570512716606
 30
0.0
 10
29.17698427169197
 20
-3.411650543816092
 30
0.0
  0
SPLINE
  5
130
330
1F
100
AcDbEntity
  8
외형선
  6
Continuous
 62
     1
370
    15
100
AcDbSpline
210
0.0
220
0.0
230
1.0
 70
     8
 71
     3
 72
     8
 73
     4
 74
     0
 42
0.000000001
 43
0.00000001
 40
0.0
 40
0.0
 40
0.0
 40
0.0
 40
1.0
 40
1.0
 40
1.0
 40
1.0
 10
30.22243128880898
 20
-4.087025911656595
 30
0.0
 10
30.30342664509229
 20
-4.111951066828744
 30
0.0
 10
30.40614373464665
 20
-4.174181383804508
 30
0.0
 10
30.48911870015086
 20
-4.253709887540243
 30
0.0
  0
SPLINE
  5
131
330
1F
100
AcDbEntity
  8
외형선
  6
Continuous
 62
     1
370
    15
100
AcDbSpline
210
0.0
220
0.0
230
1.0
 70
     8
 71
     3
 72
     8
 73
     4
 74
     0
 42
0.000000001
 43
0.00000001
 40
0.0
 40
0.0
 40
0.0
 40
0.0
 40
1.0
 40
1.0
 40
1.0
 40
1.0
 10
31.32054021380311
 20
-4.754598710374728
 30
0.0
 10
31.401022531885
 20
-4.770512528860726
 30
0.0
 10
31.50361500953639
 20
-4.827738477477517
 30
0.0
 10
31.58700058002812
 20
-4.908210981510771
 30
0.0
  0
SPLINE
  5
132
330
1F
100
AcDbEntity
  8
외형선
  6
Continuous
 62
     1
370
    15
100
AcDbSpline
210
0.0
220
0.0
230
1.0
 70
     8
 71
     3
 72
     8
 73
     4
 74
     0
 42
0.000000001
 43
0.00000001
 40
0.0
 40
0.0
 40
0.0
 40
0.0
 40
1.0
 40
1.0
 40
1.0
 40
1.0
 10
32.63099359003876
 20
-5.480487477212331
 30
0.0
 10
32.71189656283197
 20
-5.486783176108643
 30
0.0
 10
32.81452428408325
 20
-5.538161313705364
 30
0.0
 10
32.89740008270682
 20
-5.619167425827619
 30
0.0
  0
SPLINE
  5
133
330
1F
100
AcDbEntity
  8
외형선
  6
Continuous
 62
     1
370
    15
100
AcDbSpline
210
0.0
220
0.0
230
1.0
 70
     8
 71
     3
 72
     8
 73
     4
 74
     0
 42
0.000000001
 43
0.00000001
 40
0.0
 40
0.0
 40
0.0
 40
0.0
 40
1.0
 40
1.0
 40
1.0
 40
1.0
 10
32.89740008270684
 20
-5.619167425827628
 30
0.0
 10
33.02701883823161
 20
-5.745861968958117
 30
0.0
 10
33.16904241174797
 20
-5.855787868084564
 30
0.0
 10
33.31319796242098
 20
-5.941101900601303
 30
0.0
  0
SPLINE
  5
134
330
1F
100
AcDbEntity
  8
외형선
  6
Continuous
 62
     1
370
    15
100
AcDbSpline
210
0.0
220
0.0
230
1.0
 70
     8
 71
     3
 72
     8
 73
     4
 74
     0
 42
0.000000001
 43
0.00000001
 40
0.0
 40
0.0
 40
0.0
 40
0.0
 40
1.0
 40
1.0
 40
1.0
 40
1.0
 10
33.31319796193736
 20
-5.94110190040293
 30
0.0
 10
33.45873179507106
 20
-6.000805281957437
 30
0.0
 10
33.60086258279541
 20
-6.031339567138697
 30
0.0
 10
33.72830778225957
 20
-6.026321022269115
 30
0.0
  0
SPLINE
  5
135
330
1F
100
AcDbEntity
  8
외형선
  6
Continuous
 62
     1
370
    15
100
AcDbSpline
210
0.0
220
0.0
230
1.0
 70
     8
 71
     3
 72
     8
 73
     4
 74
     0
 42
0.000000001
 43
0.00000001
 40
0.0
 40
0.0
 40
0.0
 40
0.0
 40
1.0
 40
1.0
 40
1.0
 40
1.0
 10
33.72830778225962
 20
-6.026321022269177
 30
0.0
 10
33.80877964163637
 20
-6.023152196462326
 30
0.0
 10
33.91137463147892
 20
-6.067985900579987
 30
0.0
 10
33.99474049606087
 20
-6.147745444753956
 30
0.0
  0
SPLINE
  5
136
330
1F
100
AcDbEntity
  8
외형선
  6
Continuous
 62
     1
370
    15
100
AcDbSpline
210
0.0
220
0.0
230
1.0
 70
     8
 71
     3
 72
    14
 73
    10
 74
     0
 42
0.000000001
 43
0.00000001
 40
0.0
 40
0.0
 40
0.0
 40
0.0
 40
0.25
 40
0.25
 40
0.5
 40
0.5
 40
0.75
 40
0.75
 40
1.0
 40
1.0
 40
1.0
 40
1.0
 10
33.99474049606087
 20
-6.147745444753949
 30
0.0
 10
34.07675279498319
 20
-6.226209977107893
 30
0.0
 10
34.16185973637405
 20
-6.294951292416459
 30
0.0
 10
34.33863191918795
 20
-6.414905743946094
 30
0.0
 10
34.42981965641327
 20
-6.465444407169386
 30
0.0
 10
34.61176076261214
 20
-6.543317833589326
 30
0.0
 10
34.70043480833956
 20
-6.570034406827687
 30
0.0
 10
34.87396563690059
 20
-6.598998118248951
 30
0.0
 10
34.95954527603573
 20
-6.600956165839515
 30
0.0
 10
35.0391264066548
 20
-6.588601807667869
 30
0.0
  0
SPLINE
  5
137
330
1F
100
AcDbEntity
  8
외형선
  6
Continuous
 62
     1
370
    15
100
AcDbSpline
210
0.0
220
0.0
230
1.0
 70
     8
 71
     3
 72
     8
 73
     4
 74
     0
 42
0.000000001
 43
0.00000001
 40
0.0
 40
0.0
 40
0.0
 40
0.0
 40
1.0
 40
1.0
 40
1.0
 40
1.0
 10
35.0391264066548
 20
-6.588601807667852
 30
0.0
 10
35.12011613111481
 20
-6.576028776141181
 30
0.0
 10
35.22280519261615
 20
-6.613956847268888
 30
0.0
 10
35.3057609325479
 20
-6.692321136118978
 30
0.0
  0
SPLINE
  5
138
330
1F
100
AcDbEntity
  8
외형선
  6
Continuous
 62
     1
370
    15
100
AcDbSpline
210
0.0
220
0.0
230
1.0
 70
     8
 71
     3
 72
     8
 73
     4
 74
     0
 42
0.000000001
 43
0.00000001
 40
0.0
 40
0.0
 40
0.0
 40
0.0
 40
1.0
 40
1.0
 40
1.0
 40
1.0
 10
35.3057609325479
 20
-6.692321136118971
 30
0.0
 10
35.43555070972123
 20
-6.81492728243949
 30
0.0
 10
35.57765075809824
 20
-6.912444336561652
 30
0.0
 10
35.72201044957066
 20
-6.979929769807127
 30
0.0
  0
SPLINE
  5
139
330
1F
100
AcDbEntity
  8
외형선
  6
Continuous
 62
     1
370
    15
100
AcDbSpline
210
0.0
220
0.0
230
1.0
 70
     8
 71
     3
 72
     8
 73
     4
 74
     0
 42
0.000000001
 43
0.00000001
 40
0.0
 40
0.0
 40
0.0
 40
0.0
 40
1.0
 40
1.0
 40
1.0
 40
1.0
 10
35.72201044905781
 20
-6.979929769675864
 30
0.0
 10
35.86768129935876
 20
-7.016649081022013
 30
0.0
 10
36.0101080386102
 20
-7.019733967333869
 30
0.0
 10
36.13777573567945
 20
-6.984897194885574
 30
0.0
  0
SPLINE
  5
13A
330
1F
100
AcDbEntity
  8
외형선
  6
Continuous
 62
     1
370
    15
100
AcDbSpline
210
0.0
220
0.0
230
1.0
 70
     8
 71
     3
 72
     8
 73
     4
 74
     0
 42
0.000000001
 43
0.00000001
 40
0.0
 40
0.0
 40
0.0
 40
0.0
 40
1.0
 40
1.0
 40
1.0
 40
1.0
 10
36.13777573567945
 20
-6.984897194885563
 30
0.0
 10
36.21839805068765
 20
-6.962897728249365
 30
0.0
 10
36.32112634208141
 20
-6.99306297296946
 30
0.0
 10
36.40462375806287
 20
-7.068062639636243
 30
0.0
  0
SPLINE
  5
13B
330
1F
100
AcDbEntity
  8
외형선
  6
Continuous
 62
     1
370
    15
100
AcDbSpline
210
0.0
220
0.0
230
1.0
 70
     8
 71
     3
 72
    14
 73
    10
 74
     0
 42
0.000000001
 43
0.00000001
 40
0.0
 40
0.0
 40
0.0
 40
0.0
 40
0.25
 40
0.25
 40
0.5
 40
0.5
 40
0.75
 40
0.75
 40
1.0
 40
1.0
 40
1.0
 40
1.0
 10
36.40462375806287
 20
-7.068062639636241
 30
0.0
 10
36.48672600025975
 20
-7.14180912298525
 30
0.0
 10
36.57191094934741
 20
-7.202930553421293
 30
0.0
 10
36.74881169111266
 20
-7.30311359930624
 30
0.0
 10
36.84005679224821
 20
-7.341492639658314
 30
0.0
 10
37.02210019296477
 20
-7.391864473796931
 30
0.0
 10
37.11081909708484
 20
-7.403595503570229
 30
0.0
 10
37.28442740840445
 20
-7.400329562027654
 30
0.0
 10
37.37003846550371
 20
-7.384860183965069
 30
0.0
 10
37.44964048625721
 20
-7.354528929930184
 30
0.0
  0
SPLINE
  5
13C
330
1F
100
AcDbEntity
  8
외형선
  6
Continuous
 62
     1
370
    15
100
AcDbSpline
210
0.0
220
0.0
230
1.0
 70
     8
 71
     3
 72
     8
 73
     4
 74
     0
 42
0.000000001
 43
0.00000001
 40
0.0
 40
0.0
 40
0.0
 40
0.0
 40
1.0
 40
1.0
 40
1.0
 40
1.0
 10
37.44964048625721
 20
-7.354528929930191
 30
0.0
 10
37.53061088758305
 20
-7.323676273318295
 30
0.0
 10
37.63326080824783
 20
-7.346088403116381
 30
0.0
 10
37.71618109398817
 20
-7.417654751592437
 30
0.0
  0
SPLINE
  5
13D
330
1F
100
AcDbEntity
  8
외형선
  6
Continuous
 62
     1
370
    15
100
AcDbSpline
210
0.0
220
0.0
230
1.0
 70
     8
 71
     3
 72
     8
 73
     4
 74
     0
 42
0.000000001
 43
0.00000001
 40
0.0
 40
0.0
 40
0.0
 40
0.0
 40
1.0
 40
1.0
 40
1.0
 40
1.0
 10
37.71618109398817
 20
-7.417654751592444
 30
0.0
 10
37.84580968033617
 20
-7.52953382316355
 30
0.0
 10
37.98776919065163
 20
-7.60935110842665
 30
0.0
 10
38.13211475160843
 20
-7.655336166984432
 30
0.0
  0
SPLINE
  5
13E
330
1F
100
AcDbEntity
  8
외형선
  6
Continuous
 62
     1
370
    15
100
AcDbSpline
210
0.0
220
0.0
230
1.0
 70
     8
 71
     3
 72
     8
 73
     4
 74
     0
 42
0.000000001
 43
0.00000001
 40
0.0
 40
0.0
 40
0.0
 40
0.0
 40
1.0
 40
1.0
 40
1.0
 40
1.0
 10
38.1321147511247
 20
-7.655336166945734
 30
0.0
 10
38.27763670885287
 20
-7.666988693787339
 30
0.0
 10
38.41988366865796
 20
-7.642459996772736
 30
0.0
 10
38.54732503373607
 20
-7.579539723596803
 30
0.0
  0
SPLINE
  5
13F
330
1F
100
AcDbEntity
  8
외형선
  6
Continuous
 62
     1
370
    15
100
AcDbSpline
210
0.0
220
0.0
230
1.0
 70
     8
 71
     3
 72
     8
 73
     4
 74
     0
 42
0.000000001
 43
0.00000001
 40
0.0
 40
0.0
 40
0.0
 40
0.0
 40
1.0
 40
1.0
 40
1.0
 40
1.0
 10
38.54732503373609
 20
-7.579539723596814
 30
0.0
 10
38.6278037848535
 20
-7.539805803593199
 30
0.0
 10
38.73041106044896
 20
-7.553721491570518
 30
0.0
 10
38.81375647404218
 20
-7.619964521857651
 30
0.0
  0
SPLINE
  5
140
330
1F
100
AcDbEntity
  8
외형선
  6
Continuous
 62
     1
370
    15
100
AcDbSpline
210
0.0
220
0.0
230
1.0
 70
     8
 71
     3
 72
    14
 73
    10
 74
     0
 42
0.000000001
 43
0.00000001
 40
0.0
 40
0.0
 40
0.0
 40
0.0
 40
0.2500000000000001
 40
0.2500000000000001
 40
0.5000000000000001
 40
0.5000000000000001
 40
0.7500000000000002
 40
0.7500000000000002
 40
1.0
 40
1.0
 40
1.0
 40
1.0
 10
38.81375647404218
 20
-7.619964521857651
 30
0.0
 10
38.89577691920087
 20
-7.685154465713818
 30
0.0
 10
38.98088567622071
 20
-7.735467250825686
 30
0.0
 10
39.15764024065524
 20
-7.810622483748673
 30
0.0
 10
39.24880282891985
 20
-7.834798993681289
 30
0.0
 10
39.43065678219379
 20
-7.854944116170376
 30
0.0
 10
39.51927083116973
 20
-7.851022929422441
 30
0.0
 10
39.69265532996569
 20
-7.81562443411366
 30
0.0
 10
39.77814727565908
 20
-7.78351609373397
 30
0.0
 10
39.85763662070276
 20
-7.736814550520865
 30
0.0
  0
SPLINE
  5
141
330
1F
100
AcDbEntity
  8
외형선
  6
Continuous
 62
     1
370
    15
100
AcDbSpline
210
0.0
220
0.0
230
1.0
 70
     8
 71
     3
 72
     8
 73
     4
 74
     0
 42
0.000000001
 43
0.00000001
 40
0.0
 40
0.0
 40
0.0
 40
0.0
 40
1.0
 40
1.0
 40
1.0
 40
1.0
 10
39.85763662070278
 20
-7.736814550520858
 30
0.0
 10
39.93855351484383
 20
-7.689274294322722
 30
0.0
 10
40.04111612329902
 20
-7.694990183938623
 30
0.0
 10
40.12401685252253
 20
-7.756006669075017
 30
0.0
  0
SPLINE
  5
142
330
1F
100
AcDbEntity
  8
외형선
  6
Continuous
 62
     1
370
    15
100
AcDbSpline
210
0.0
220
0.0
230
1.0
 70
     8
 71
     3
 72
     8
 73
     4
 74
     0
 42
0.000000001
 43
0.00000001
 40
0.0
 40
0.0
 40
0.0
 40
0.0
 40
1.0
 40
1.0
 40
1.0
 40
1.0
 10
40.12401685252263
 20
-7.756006669075037
 30
0.0
 10
40.25354023102356
 20
-7.851338294901984
 30
0.0
 10
40.3955381398366
 20
-7.909327890137634
 30
0.0
 10
40.53985810328352
 20
-7.931511810763719
 30
0.0
  0
SPLINE
  5
143
330
1F
100
AcDbEntity
  8
외형선
  6
Continuous
 62
     1
370
    15
100
AcDbSpline
210
0.0
220
0.0
230
1.0
 70
     8
 71
     3
 72
    10
 73
     6
 74
     0
 42
0.000000001
 43
0.00000001
 40
0.0
 40
0.0
 40
0.0
 40
0.0
 40
0.4049289528838006
 40
0.8126476067742033
 40
1.0
 40
1.0
 40
1.0
 40
1.0
 10
40.53985810328371
 20
-7.931511810763739
 30
0.0
 10
40.5691869571292
 20
-7.927781790822807
 30
0.0
 10
40.62804672182928
 20
-7.920296053493748
 30
0.0
 10
40.69946117430622
 20
-7.902420204948274
 30
0.0
 10
40.74094181531267
 20
-7.887296603357684
 30
0.0
 10
40.75400159599393
 20
-7.882535082920885
 30
0.0
  0
SPLINE
  5
144
330
1F
100
AcDbEntity
  8
외형선
  6
Continuous
 62
     1
370
    15
100
AcDbSpline
210
0.0
220
0.0
230
1.0
 70
     8
 71
     3
 72
    10
 73
     6
 74
     0
 42
0.000000001
 43
0.00000001
 40
0.0
 40
0.0
 40
0.0
 40
0.0
 40
0.2745277915400862
 40
0.6335117874367114
 40
1.0
 40
1.0
 40
1.0
 40
1.0
 10
41.1190261878119
 20
-7.739445199350267
 30
0.0
 10
41.12879748562098
 20
-7.740449318757678
 30
0.0
 10
41.15134614018845
 20
-7.742766466602787
 30
0.0
 10
41.18612271479645
 20
-7.754745755158134
 30
0.0
 10
41.20971185033662
 20
-7.768291125417504
 30
0.0
 10
41.22162842001251
 20
-7.775133866568685
 30
0.0
  0
LINE
  5
145
330
1F
100
AcDbEntity
  8
외형선
  6
Continuous
 62
     1
370
    15
100
AcDbLine
 10
41.22162842001249
 20
-7.775133866568678
 30
0.0
 11
41.34928838841117
 21
-7.826045014490107
 31
0.0
  0
SPLINE
  5
146
330
1F
100
AcDbEntity
  8
외형선
  6
Continuous
 62
     1
370
    15
100
AcDbSpline
210
0.0
220
0.0
230
1.0
 70
     8
 71
     3
 72
    10
 73
     6
 74
     0
 42
0.000000001
 43
0.00000001
 40
0.0
 40
0.0
 40
0.0
 40
0.0
 40
0.101634531850133
 40
0.7732687278462063
 40
1.0
 40
1.0
 40
1.0
 40
1.0
 10
34.07041579127312
 20
-6.206638190798305
 30
0.0
 10
34.05001531540988
 20
-6.218232305766968
 30
0.0
 10
33.89480182909712
 20
-6.306444120876633
 30
0.0
 10
33.68954140540885
 20
-6.357578888891934
 30
0.0
 10
33.52811723274272
 20
-6.351410914511031
 30
0.0
 10
33.48737667745365
 20
-6.349854228810639
 30
0.0
  0
SPLINE
  5
147
330
1F
100
AcDbEntity
  8
외형선
  6
Continuous
 62
     1
370
    15
100
AcDbSpline
210
0.0
220
0.0
230
1.0
 70
     8
 71
     3
 72
     8
 73
     4
 74
     0
 42
0.000000001
 43
0.00000001
 40
0.0
 40
0.0
 40
0.0
 40
0.0
 40
1.0
 40
1.0
 40
1.0
 40
1.0
 10
33.48737667745361
 20
-6.349854228810627
 30
0.0
 10
33.40646517049829
 20
-6.341948750266922
 30
0.0
 10
33.30388276139821
 20
-6.383430597218894
 30
0.0
 10
33.22094342557522
 20
-6.462892086086108
 30
0.0
  0
SPLINE
  5
148
330
1F
100
AcDbEntity
  8
외형선
  6
Continuous
 62
     1
370
    15
100
AcDbSpline
210
0.0
220
0.0
230
1.0
 70
     8
 71
     3
 72
     8
 73
     4
 74
     0
 42
0.000000001
 43
0.00000001
 40
0.0
 40
0.0
 40
0.0
 40
0.0
 40
1.0
 40
1.0
 40
1.0
 40
1.0
 10
33.22094342557521
 20
-6.462892086086126
 30
0.0
 10
33.0914103971586
 20
-6.586993481320732
 30
0.0
 10
32.94940618555634
 20
-6.687903970302358
 30
0.0
 10
32.80508932489113
 20
-6.759892759225036
 30
0.0
  0
SPLINE
  5
149
330
1F
100
AcDbEntity
  8
외형선
  6
Continuous
 62
     1
370
    15
100
AcDbSpline
210
0.0
220
0.0
230
1.0
 70
     8
 71
     3
 72
     8
 73
     4
 74
     0
 42
0.000000001
 43
0.00000001
 40
0.0
 40
0.0
 40
0.0
 40
0.0
 40
1.0
 40
1.0
 40
1.0
 40
1.0
 10
32.80508932643032
 20
-6.75989275877796
 30
0.0
 10
32.65954932975008
 20
-6.802165435350858
 30
0.0
 10
32.51732907933469
 20
-6.811734039673799
 30
0.0
 10
32.38993647811404
 20
-6.783894545128882
 30
0.0
  0
SPLINE
  5
14A
330
1F
100
AcDbEntity
  8
외형선
  6
Continuous
 62
     1
370
    15
100
AcDbSpline
210
0.0
220
0.0
230
1.0
 70
     8
 71
     3
 72
     8
 73
     4
 74
     0
 42
0.000000001
 43
0.00000001
 40
0.0
 40
0.0
 40
0.0
 40
0.0
 40
1.0
 40
1.0
 40
1.0
 40
1.0
 10
32.38993647811404
 20
-6.78389454512888
 30
0.0
 10
32.30945893451879
 20
-6.766307541531812
 30
0.0
 10
32.20685671670935
 20
-6.800166626843525
 30
0.0
 10
32.12352940627009
 20
-6.87661180328689
 30
0.0
  0
SPLINE
  5
14B
330
1F
100
AcDbEntity
  8
외형선
  6
Continuous
 62
     1
370
    15
100
AcDbSpline
210
0.0
220
0.0
230
1.0
 70
     8
 71
     3
 72
    14
 73
    10
 74
     0
 42
0.000000001
 43
0.00000001
 40
0.0
 40
0.0
 40
0.0
 40
0.0
 40
0.25
 40
0.25
 40
0.5
 40
0.5
 40
0.75
 40
0.75
 40
1.0
 40
1.0
 40
1.0
 40
1.0
 10
32.12352940627007
 20
-6.876611803286896
 30
0.0
 10
32.041473963952
 20
-6.951890157203256
 30
0.0
 10
31.9563362028509
 20
-7.015185258750179
 30
0.0
 10
31.77954330901973
 20
-7.120720066698668
 30
0.0
 10
31.68837581000097
 20
-7.162266458395253
 30
0.0
 10
31.50654720214865
 20
-7.219646337207508
 30
0.0
 10
31.41795420017462
 20
-7.235132406563417
 30
0.0
 10
31.24462177585489
 20
-7.239856865499158
 30
0.0
 10
31.15917386078576
 20
-7.228683859973241
 30
0.0
 10
31.07965452287449
 20
-7.202652863730369
 30
0.0
  0
SPLINE
  5
14C
330
1F
100
AcDbEntity
  8
외형선
  6
Continuous
 62
     1
370
    15
100
AcDbSpline
210
0.0
220
0.0
230
1.0
 70
     8
 71
     3
 72
     8
 73
     4
 74
     0
 42
0.000000001
 43
0.00000001
 40
0.0
 40
0.0
 40
0.0
 40
0.0
 40
1.0
 40
1.0
 40
1.0
 40
1.0
 10
31.0796545228745
 20
-7.202652863730393
 30
0.0
 10
30.99876739673824
 20
-7.176174116147016
 30
0.0
 10
30.89614365214536
 20
-7.202449371127058
 30
0.0
 10
30.81320610956714
 20
-7.276010892851925
 30
0.0
  0
SPLINE
  5
14D
330
1F
100
AcDbEntity
  8
외형선
  6
Continuous
 62
     1
370
    15
100
AcDbSpline
210
0.0
220
0.0
230
1.0
 70
     8
 71
     3
 72
     8
 73
     4
 74
     0
 42
0.000000001
 43
0.00000001
 40
0.0
 40
0.0
 40
0.0
 40
0.0
 40
1.0
 40
1.0
 40
1.0
 40
1.0
 10
30.81320610956714
 20
-7.276010892851934
 30
0.0
 10
30.68362663056375
 20
-7.390941518519027
 30
0.0
 10
30.54157000429013
 20
-7.475361461597874
 30
0.0
 10
30.39722577151984
 20
-7.526732063944022
 30
0.0
  0
SPLINE
  5
14E
330
1F
100
AcDbEntity
  8
외형선
  6
Continuous
 62
     1
370
    15
100
AcDbSpline
210
0.0
220
0.0
230
1.0
 70
     8
 71
     3
 72
     8
 73
     4
 74
     0
 42
0.000000001
 43
0.00000001
 40
0.0
 40
0.0
 40
0.0
 40
0.0
 40
1.0
 40
1.0
 40
1.0
 40
1.0
 10
30.3972257730597
 20
-7.526732063756292
 30
0.0
 10
30.25158276809722
 20
-7.544487917732789
 30
0.0
 10
30.10928552321319
 20
-7.526528615015116
 30
0.0
 10
29.98181269159666
 20
-7.470203556370534
 30
0.0
  0
SPLINE
  5
14F
330
1F
100
AcDbEntity
  8
외형선
  6
Continuous
 62
     1
370
    15
100
AcDbSpline
210
0.0
220
0.0
230
1.0
 70
     8
 71
     3
 72
     8
 73
     4
 74
     0
 42
0.000000001
 43
0.00000001
 40
0.0
 40
0.0
 40
0.0
 40
0.0
 40
1.0
 40
1.0
 40
1.0
 40
1.0
 10
29.98181269159664
 20
-7.47020355637053
 30
0.0
 10
29.90124961445911
 20
-7.434606009922292
 30
0.0
 10
29.79857965761475
 20
-7.452608229803579
 30
0.0
 10
29.71517484208375
 20
-7.521317799481286
 30
0.0
  0
SPLINE
  5
150
330
1F
100
AcDbEntity
  8
외형선
  6
Continuous
 62
     1
370
    15
100
AcDbSpline
210
0.0
220
0.0
230
1.0
 70
     8
 71
     3
 72
    14
 73
    10
 74
     0
 42
0.000000001
 43
0.00000001
 40
0.0
 40
0.0
 40
0.0
 40
0.0
 40
0.25
 40
0.25
 40
0.5
 40
0.5
 40
0.75
 40
0.75
 40
1.0
 40
1.0
 40
1.0
 40
1.0
 10
29.71517484208375
 20
-7.521317799481286
 30
0.0
 10
29.63299801114498
 20
-7.589015745401238
 30
0.0
 10
29.54774721489116
 20
-7.642270687051422
 30
0.0
 10
29.3707534007636
 20
-7.723996052174113
 30
0.0
 10
29.27949632057473
 20
-7.751789349078319
 30
0.0
 10
29.09751134227345
 20
-7.779506615045895
 30
0.0
 10
29.00886464287194
 20
-7.77946840285644
 30
0.0
 10
28.83526123617396
 20
-7.751874330282193
 30
0.0
 10
28.74959091192956
 20
-7.723719523401573
 30
0.0
 10
28.66989143881774
 20
-7.680765014041021
 30
0.0
  0
SPLINE
  5
151
330
1F
100
AcDbEntity
  8
외형선
  6
Continuous
 62
     1
370
    15
100
AcDbSpline
210
0.0
220
0.0
230
1.0
 70
     8
 71
     3
 72
     8
 73
     4
 74
     0
 42
0.000000001
 43
0.00000001
 40
0.0
 40
0.0
 40
0.0
 40
0.0
 40
1.0
 40
1.0
 40
1.0
 40
1.0
 10
28.66989143881767
 20
-7.680765014040983
 30
0.0
 10
28.58887802257176
 20
-7.637102347142511
 30
0.0
 10
28.48613966689307
 20
-7.646857479690165
 30
0.0
 10
28.40309580413343
 20
-7.710754435689908
 30
0.0
  0
SPLINE
  5
152
330
1F
100
AcDbEntity
  8
외형선
  6
Continuous
 62
     1
370
    15
100
AcDbSpline
210
0.0
220
0.0
230
1.0
 70
     8
 71
     3
 72
     8
 73
     4
 74
     0
 42
0.000000001
 43
0.00000001
 40
0.0
 40
0.0
 40
0.0
 40
0.0
 40
1.0
 40
1.0
 40
1.0
 40
1.0
 10
28.40309580413363
 20
-7.710754435689826
 30
0.0
 10
28.27338489482964
 20
-7.810558707662024
 30
0.0
 10
28.13121817881868
 20
-7.874130627827506
 30
0.0
 10
27.98678563159066
 20
-7.902223875464355
 30
0.0
  0
SPLINE
  5
153
330
1F
100
AcDbEntity
  8
외형선
  6
Continuous
 62
     1
370
    15
100
AcDbSpline
210
0.0
220
0.0
230
1.0
 70
     8
 71
     3
 72
     8
 73
     4
 74
     0
 42
0.000000001
 43
0.00000001
 40
0.0
 40
0.0
 40
0.0
 40
0.0
 40
1.0
 40
1.0
 40
1.0
 40
1.0
 10
27.9867856331314
 20
-7.90222387554583
 30
0.0
 10
27.84109431674073
 20
-7.894519930499368
 30
0.0
 10
27.69876649037303
 20
-7.849949513317488
 30
0.0
 10
27.57128568748321
 20
-7.767988009037403
 30
0.0
  0
SPLINE
  5
154
330
1F
100
AcDbEntity
  8
외형선
  6
Continuous
 62
     1
370
    15
100
AcDbSpline
210
0.0
220
0.0
230
1.0
 70
     8
 71
     3
 72
     8
 73
     4
 74
     0
 42
0.000000001
 43
0.00000001
 40
0.0
 40
0.0
 40
0.0
 40
0.0
 40
1.0
 40
1.0
 40
1.0
 40
1.0
 10
27.57128568748317
 20
-7.767988009037379
 30
0.0
 10
27.49073922303948
 20
-7.716202098997635
 30
0.0
 10
27.38809871923369
 20
-7.71734200868203
 30
0.0
 10
27.30472758155191
 20
-7.77469016766209
 30
0.0
  0
SPLINE
  5
155
330
1F
100
AcDbEntity
  8
외형선
  6
Continuous
 62
     1
370
    15
100
AcDbSpline
210
0.0
220
0.0
230
1.0
 70
     8
 71
     3
 72
    14
 73
    10
 74
     0
 42
0.000000001
 43
0.00000001
 40
0.0
 40
0.0
 40
0.0
 40
0.0
 40
0.25
 40
0.25
 40
0.5
 40
0.5
 40
0.75
 40
0.75
 40
1.0
 40
1.0
 40
1.0
 40
1.0
 10
27.30472758155192
 20
-7.77469016766209
 30
0.0
 10
27.22266128867648
 20
-7.83114076845261
 30
0.0
 10
27.1375347468203
 20
-7.871495890126122
 30
0.0
 10
26.96081686630831
 20
-7.925029600489013
 30
0.0
 10
26.86972654326511
 20
-7.937583544222196
 30
0.0
 10
26.68800493404399
 20
-7.93411522532702
 30
0.0
 10
26.59938836365745
 20
-7.918476551565818
 30
0.0
 10
26.42588973992093
 20
-7.859891358329428
 30
0.0
 10
26.34028172877823
 20
-7.816212437865086
 30
0.0
 10
26.260661921983
 20
-7.758574607800926
 30
0.0
  0
SPLINE
  5
156
330
1F
100
AcDbEntity
  8
외형선
  6
Continuous
 62
     1
370
    15
100
AcDbSpline
210
0.0
220
0.0
230
1.0
 70
     8
 71
     3
 72
     8
 73
     4
 74
     0
 42
0.000000001
 43
0.00000001
 40
0.0
 40
0.0
 40
0.0
 40
0.0
 40
1.0
 40
1.0
 40
1.0
 40
1.0
 10
26.26066192198299
 20
-7.758574607800921
 30
0.0
 10
26.17977795117036
 20
-7.700021632702622
 30
0.0
 10
26.07714466894149
 20
-7.692811530150161
 30
0.0
 10
25.9942393678173
 20
-7.743695473175862
 30
0.0
  0
SPLINE
  5
157
330
1F
100
AcDbEntity
  8
외형선
  6
Continuous
 62
     1
370
    15
100
AcDbSpline
210
0.0
220
0.0
230
1.0
 70
     8
 71
     3
 72
     8
 73
     4
 74
     0
 42
0.000000001
 43
0.00000001
 40
0.0
 40
0.0
 40
0.0
 40
0.0
 40
1.0
 40
1.0
 40
1.0
 40
1.0
 10
25.99423936781731
 20
-7.743695473175849
 30
0.0
 10
25.86468573959921
 20
-7.823210285228071
 30
0.0
 10
25.72266546020449
 20
-7.8626558604823
 30
0.0
 10
25.57839864026847
 20
-7.866031486671064
 30
0.0
  0
SPLINE
  5
158
330
1F
100
AcDbEntity
  8
외형선
  6
Continuous
 62
     1
370
    15
100
AcDbSpline
210
0.0
220
0.0
230
1.0
 70
     8
 71
     3
 72
     8
 73
     4
 74
     0
 42
0.000000001
 43
0.00000001
 40
0.0
 40
0.0
 40
0.0
 40
0.0
 40
1.0
 40
1.0
 40
1.0
 40
1.0
 10
25.57839864180742
 20
-7.866031487017159
 30
0.0
 10
25.43280569653335
 20
-7.833290783053007
 30
0.0
 10
25.29060758589918
 20
-7.764418670310119
 30
0.0
 10
25.16326046030217
 20
-7.661144960747754
 30
0.0
  0
SPLINE
  5
159
330
1F
100
AcDbEntity
  8
외형선
  6
Continuous
 62
     1
370
    15
100
AcDbSpline
210
0.0
220
0.0
230
1.0
 70
     8
 71
     3
 72
     8
 73
     4
 74
     0
 42
0.000000001
 43
0.00000001
 40
0.0
 40
0.0
 40
0.0
 40
0.0
 40
1.0
 40
1.0
 40
1.0
 40
1.0
 10
25.16326046030217
 20
-7.661144960747747
 30
0.0
 10
25.08276284999254
 20
-7.595864438799525
 30
0.0
 10
24.98017805688029
 20
-7.580110683816678
 30
0.0
 10
24.89686237528326
 20
-7.623093773183258
 30
0.0
  0
SPLINE
  5
15A
330
1F
100
AcDbEntity
  8
외형선
  6
Continuous
 62
     1
370
    15
100
AcDbSpline
210
0.0
220
0.0
230
1.0
 70
     8
 71
     3
 72
    14
 73
    10
 74
     0
 42
0.000000001
 43
0.00000001
 40
0.0
 40
0.0
 40
0.0
 40
0.0
 40
0.25
 40
0.25
 40
0.5
 40
0.5
 40
0.75
 40
0.75
 40
1.0
 40
1.0
 40
1.0
 40
1.0
 10
24.8968623752832
 20
-7.623093773183252
 30
0.0
 10
24.81484078860964
 20
-7.665409230758591
 30
0.0
 10
24.7297676615848
 20
-7.690775171283634
 30
0.0
 10
24.55318044398764
 20
-7.713314980509849
 30
0.0
 10
24.46212048107759
 20
-7.709973466385514
 30
0.0
 10
24.2802981224308
 20
-7.675512288590734
 30
0.0
 10
24.19164407980593
 20
-7.645115255451609
 30
0.0
 10
24.01808964964982
 20
-7.558696019799128
 30
0.0
 10
23.932463067927
 20
-7.501844914124622
 30
0.0
 10
23.8528266452164
 20
-7.432605745271811
 30
0.0
  0
SPLINE
  5
15B
330
1F
100
AcDbEntity
  8
외형선
  6
Continuous
 62
     1
370
    15
100
AcDbSpline
210
0.0
220
0.0
230
1.0
 70
     8
 71
     3
 72
     8
 73
     4
 74
     0
 42
0.000000001
 43
0.00000001
 40
0.0
 40
0.0
 40
0.0
 40
0.0
 40
1.0
 40
1.0
 40
1.0
 40
1.0
 10
23.85282664521642
 20
-7.432605745271825
 30
0.0
 10
23.77189331728941
 20
-7.362238993885694
 30
0.0
 10
23.66921456287525
 20
-7.338463463083759
 30
0.0
 10
23.58626859377756
 20
-7.373728774197598
 30
0.0
  0
SPLINE
  5
15C
330
1F
100
AcDbEntity
  8
외형선
  6
Continuous
 62
     1
370
    15
100
AcDbSpline
210
0.0
220
0.0
230
1.0
 70
     8
 71
     3
 72
     8
 73
     4
 74
     0
 42
0.000000001
 43
0.00000001
 40
0.0
 40
0.0
 40
0.0
 40
0.0
 40
1.0
 40
1.0
 40
1.0
 40
1.0
 10
23.58626859377756
 20
-7.373728774197615
 30
0.0
 10
23.45659725137063
 20
-7.428859846656895
 30
0.0
 10
23.31446707689202
 20
-7.442098760124732
 30
0.0
 10
23.17012138428693
 20
-7.420553266153814
 30
0.0
  0
SPLINE
  5
15D
330
1F
100
AcDbEntity
  8
외형선
  6
Continuous
 62
     1
370
    15
100
AcDbSpline
210
0.0
220
0.0
230
1.0
 70
     8
 71
     3
 72
     8
 73
     4
 74
     0
 42
0.000000001
 43
0.00000001
 40
0.0
 40
0.0
 40
0.0
 40
0.0
 40
1.0
 40
1.0
 40
1.0
 40
1.0
 10
23.17012138582744
 20
-7.420553266746989
 30
0.0
 10
23.02437033586471
 20
-7.364431788364785
 30
0.0
 10
22.88203439560347
 20
-7.274787400382427
 30
0.0
 10
22.75453378782062
 20
-7.155462180415222
 30
0.0
  0
SPLINE
  5
15E
330
1F
100
AcDbEntity
  8
외형선
  6
Continuous
 62
     1
370
    15
100
AcDbSpline
210
0.0
220
0.0
230
1.0
 70
     8
 71
     3
 72
     8
 73
     4
 74
     0
 42
0.000000001
 43
0.00000001
 40
0.0
 40
0.0
 40
0.0
 40
0.0
 40
1.0
 40
1.0
 40
1.0
 40
1.0
 10
22.7545337878206
 20
-7.155462180415215
 30
0.0
 10
22.67390503870662
 20
-7.080003377582765
 30
0.0
 10
22.5712250459315
 20
-7.048089624410871
 30
0.0
 10
22.48778590856676
 20
-7.074396677812391
 30
0.0
  0
SPLINE
  5
15F
330
1F
100
AcDbEntity
  8
외형선
  6
Continuous
 62
     1
370
    15
100
AcDbSpline
210
0.0
220
0.0
230
1.0
 70
     8
 71
     3
 72
    14
 73
    10
 74
     0
 42
0.000000001
 43
0.00000001
 40
0.0
 40
0.0
 40
0.0
 40
0.0
 40
0.25
 40
0.25
 40
0.5
 40
0.5
 40
0.75
 40
0.75
 40
1.0
 40
1.0
 40
1.0
 40
1.0
 10
22.4877859085668
 20
-7.074396677812374
 30
0.0
 10
22.4056997628629
 20
-7.100277154130318
 30
0.0
 10
22.32059397149138
 20
-7.109232392413376
 30
0.0
 10
22.14378283499723
 20
-7.099589868439726
 30
0.0
 10
22.05256200962777
 20
-7.08054260633564
 30
0.0
 10
21.8704706052477
 20
-7.016876208698279
 30
0.0
 10
21.78168916059171
 20
-6.97330299250901
 30
0.0
 10
21.60789429228884
 20
-6.863508230817793
 30
0.0
 10
21.5221561238
 20
-6.796405487706982
 30
0.0
 10
21.44242278942401
 20
-6.719096594470876
 30
0.0
  0
SPLINE
  5
160
330
1F
100
AcDbEntity
  8
외형선
  6
Continuous
 62
     1
370
    15
100
AcDbSpline
210
0.0
220
0.0
230
1.0
 70
     8
 71
     3
 72
     8
 73
     4
 74
     0
 42
0.000000001
 43
0.00000001
 40
0.0
 40
0.0
 40
0.0
 40
0.0
 40
1.0
 40
1.0
 40
1.0
 40
1.0
 10
21.44242278942361
 20
-6.719096594470682
 30
0.0
 10
21.36144257404541
 20
-6.640578733981023
 30
0.0
 10
21.25872914621196
 20
-6.60143045518901
 30
0.0
 10
21.175754436728
 20
-6.619224754922802
 30
0.0
  0
SPLINE
  5
161
330
1F
100
AcDbEntity
  8
외형선
  6
Continuous
 62
     1
370
    15
100
AcDbSpline
210
0.0
220
0.0
230
1.0
 70
     8
 71
     3
 72
     8
 73
     4
 74
     0
 42
0.000000001
 43
0.00000001
 40
0.0
 40
0.0
 40
0.0
 40
0.0
 40
1.0
 40
1.0
 40
1.0
 40
1.0
 10
21.17575443672797
 20
-6.619224754922777
 30
0.0
 10
21.04607022803616
 20
-6.647036116897462
 30
0.0
 10
20.90395181343467
 20
-6.633375617231735
 30
0.0
 10
20.7596385400678
 20
-6.587996674946476
 30
0.0
  0
SPLINE
  5
162
330
1F
100
AcDbEntity
  8
외형선
  6
Continuous
 62
     1
370
    15
100
AcDbSpline
210
0.0
220
0.0
230
1.0
 70
     8
 71
     3
 72
     8
 73
     4
 74
     0
 42
0.000000001
 43
0.00000001
 40
0.0
 40
0.0
 40
0.0
 40
0.0
 40
1.0
 40
1.0
 40
1.0
 40
1.0
 10
20.75963854160873
 20
-6.587996675756548
 30
0.0
 10
20.61396425376949
 20
-6.511408433872824
 30
0.0
 10
20.47172402577866
 20
-6.405652175239331
 30
0.0
 10
20.3443409814036
 20
-6.276471634426374
 30
0.0
  0
SPLINE
  5
163
330
1F
100
AcDbEntity
  8
외형선
  6
Continuous
 62
     1
370
    15
100
AcDbSpline
210
0.0
220
0.0
230
1.0
 70
     8
 71
     3
 72
     8
 73
     4
 74
     0
 42
0.000000001
 43
0.00000001
 40
0.0
 40
0.0
 40
0.0
 40
0.0
 40
1.0
 40
1.0
 40
1.0
 40
1.0
 10
20.34434098140359
 20
-6.276471634426368
 30
0.0
 10
20.26381746272087
 20
-6.194811851975509
 30
0.0
 10
20.16127421014607
 20
-6.148333240244641
 30
0.0
 10
20.07790665864967
 20
-6.15666838148813
 30
0.0
  0
SPLINE
  5
164
330
1F
100
AcDbEntity
  8
외형선
  6
Continuous
 62
     1
370
    15
100
AcDbSpline
210
0.0
220
0.0
230
1.0
 70
     8
 71
     3
 72
    14
 73
    10
 74
     0
 42
0.000000001
 43
0.00000001
 40
0.0
 40
0.0
 40
0.0
 40
0.0
 40
0.25
 40
0.25
 40
0.5
 40
0.5
 40
0.75
 40
0.75
 40
1.0
 40
1.0
 40
1.0
 40
1.0
 10
20.07790665864967
 20
-6.156668381488135
 30
0.0
 10
19.99597306796943
 20
-6.164860154409951
 30
0.0
 10
19.9109483572765
 20
-6.157163510836495
 30
0.0
 10
19.73433135403443
 20
-6.116072177629984
 30
0.0
 10
19.64320596918191
 20
-6.082379343417692
 30
0.0
 10
19.46133200536384
 20
-5.992977463882331
 30
0.0
 10
19.37267482993675
 20
-5.938574809219156
 30
0.0
 10
19.19915336321061
 20
-5.811322896877205
 30
0.0
 10
19.11355973331613
 20
-5.737580685097529
 30
0.0
 10
19.03396942784014
 20
-5.656380627815597
 30
0.0
  0
SPLINE
  5
165
330
1F
100
AcDbEntity
  8
외형선
  6
Continuous
 62
     1
370
    15
100
AcDbSpline
210
0.0
220
0.0
230
1.0
 70
     8
 71
     3
 72
     8
 73
     4
 74
     0
 42
0.000000001
 43
0.00000001
 40
0.0
 40
0.0
 40
0.0
 40
0.0
 40
1.0
 40
1.0
 40
1.0
 40
1.0
 10
19.03396942784017
 20
-5.656380627815639
 30
0.0
 10
18.95307398988664
 20
-5.573849041130686
 30
0.0
 10
18.85043836154617
 20
-5.521439431099242
 30
0.0
 10
18.76755584516454
 20
-5.520870847922689
 30
0.0
  0
SPLINE
  5
166
330
1F
100
AcDbEntity
  8
외형선
  6
Continuous
 62
     1
370
    15
100
AcDbSpline
210
0.0
220
0.0
230
1.0
 70
     8
 71
     3
 72
     8
 73
     4
 74
     0
 42
0.000000001
 43
0.00000001
 40
0.0
 40
0.0
 40
0.0
 40
0.0
 40
1.0
 40
1.0
 40
1.0
 40
1.0
 10
18.76755584516447
 20
-5.520870847922648
 30
0.0
 10
18.63795769753984
 20
-5.519981790378716
 30
0.0
 10
18.49592833744762
 20
-5.480147349232881
 30
0.0
 10
18.35172962160863
 20
-5.413308614052702
 30
0.0
  0
SPLINE
  5
167
330
1F
100
AcDbEntity
  8
외형선
  6
Continuous
 62
     1
370
    15
100
AcDbSpline
210
0.0
220
0.0
230
1.0
 70
     8
 71
     3
 72
     8
 73
     4
 74
     0
 42
0.000000001
 43
0.00000001
 40
0.0
 40
0.0
 40
0.0
 40
0.0
 40
1.0
 40
1.0
 40
1.0
 40
1.0
 10
18.35172962314767
 20
-5.413308615036724
 30
0.0
 10
18.20610017252871
 20
-5.320197281592923
 30
0.0
 10
18.06395576389042
 20
-5.203745323813457
 30
0.0
 10
17.9366044208927
 20
-5.071418353068022
 30
0.0
  0
SPLINE
  5
168
330
1F
100
AcDbEntity
  8
외형선
  6
Continuous
 62
     1
370
    15
100
AcDbSpline
210
0.0
220
0.0
230
1.0
 70
     8
 71
     3
 72
     8
 73
     4
 74
     0
 42
0.000000001
 43
0.00000001
 40
0.0
 40
0.0
 40
0.0
 40
0.0
 40
1.0
 40
1.0
 40
1.0
 40
1.0
 10
17.93660442089272
 20
-5.071418353068057
 30
0.0
 10
17.85613725590484
 20
-4.987807329134767
 30
0.0
 10
17.75355980743106
 20
-4.929334180905554
 30
0.0
 10
17.67018120464756
 20
-4.919311106607381
 30
0.0
  0
SPLINE
  5
169
330
1F
100
AcDbEntity
  8
외형선
  6
Continuous
 62
     1
370
    15
100
AcDbSpline
210
0.0
220
0.0
230
1.0
 70
     8
 71
     3
 72
    14
 73
    10
 74
     0
 42
0.000000001
 43
0.00000001
 40
0.0
 40
0.0
 40
0.0
 40
0.0
 40
0.25
 40
0.25
 40
0.5
 40
0.5
 40
0.75
 40
0.75
 40
1.0
 40
1.0
 40
1.0
 40
1.0
 10
17.67018120464756
 20
-4.919311106607378
 30
0.0
 10
17.58819242790454
 20
-4.909455105505447
 30
0.0
 10
17.50310858332376
 20
-4.885440027480341
 30
0.0
 10
17.32637408686141
 20
-4.814939179640979
 30
0.0
 10
17.23519585746136
 20
-4.768302804651658
 30
0.0
 10
17.05324602327533
 20
-4.657721891401298
 30
0.0
 10
16.96455678386777
 20
-4.595267407226613
 30
0.0
 10
16.7909783940162
 20
-4.457041480994298
 30
0.0
 10
16.70536480752514
 20
-4.380419974846965
 30
0.0
 10
16.62574867679046
 20
-4.299454671115321
 30
0.0
  0
SPLINE
  5
16A
330
1F
100
AcDbEntity
  8
외형선
  6
Continuous
 62
     1
370
    15
100
AcDbSpline
210
0.0
220
0.0
230
1.0
 70
     8
 71
     3
 72
     8
 73
     4
 74
     0
 42
0.000000001
 43
0.00000001
 40
0.0
 40
0.0
 40
0.0
 40
0.0
 40
1.0
 40
1.0
 40
1.0
 40
1.0
 10
16.62574867679039
 20
-4.299454671115241
 30
0.0
 10
16.5447590515069
 20
-4.217092597629884
 30
0.0
 10
16.44205061472313
 20
-4.154038086944644
 30
0.0
 10
16.35908127484546
 20
-4.135033221826411
 30
0.0
  0
SPLINE
  5
16B
330
1F
100
AcDbEntity
  8
외형선
  6
Continuous
 62
     1
370
    15
100
AcDbSpline
210
0.0
220
0.0
230
1.0
 70
     8
 71
     3
 72
     8
 73
     4
 74
     0
 42
0.000000001
 43
0.00000001
 40
0.0
 40
0.0
 40
0.0
 40
0.0
 40
1.0
 40
1.0
 40
1.0
 40
1.0
 10
16.35908127484544
 20
-4.135033221826347
 30
0.0
 10
16.2292933620426
 20
-4.105304146237319
 30
0.0
 10
16.08709629415868
 20
-4.04114438157163
 30
0.0
 10
15.94276780241045
 20
-3.956106657408974
 30
0.0
  0
SPLINE
  5
16C
330
1F
100
AcDbEntity
  8
외형선
  6
Continuous
 62
     1
370
    15
100
AcDbSpline
210
0.0
220
0.0
230
1.0
 70
     8
 71
     3
 72
     8
 73
     4
 74
     0
 42
0.000000001
 43
0.00000001
 40
0.0
 40
0.0
 40
0.0
 40
0.0
 40
1.0
 40
1.0
 40
1.0
 40
1.0
 10
15.9427678039516
 20
-3.956106658518782
 30
0.0
 10
15.79698354732585
 20
-3.851123350203475
 30
0.0
 10
15.65465856393873
 20
-3.729892305892209
 30
0.0
 10
15.52698838683162
 20
-3.601261278650739
 30
0.0
  0
SPLINE
  5
16D
330
1F
100
AcDbEntity
  8
외형선
  6
Continuous
 62
     1
370
    15
100
AcDbSpline
210
0.0
220
0.0
230
1.0
 70
     8
 71
     3
 72
     8
 73
     4
 74
     0
 42
0.000000001
 43
0.00000001
 40
0.0
 40
0.0
 40
0.0
 40
0.0
 40
1.0
 40
1.0
 40
1.0
 40
1.0
 10
15.52698838683156
 20
-3.601261278650616
 30
0.0
 10
15.44638256391054
 20
-3.520048813540019
 30
0.0
 10
15.34367806490962
 20
-3.452586417548836
 30
0.0
 10
15.26018098716038
 20
-3.42465244044093
 30
0.0
  0
SPLINE
  5
16E
330
1F
100
AcDbEntity
  8
외형선
  6
Continuous
 62
     1
370
    15
100
AcDbSpline
210
0.0
220
0.0
230
1.0
 70
     8
 71
     3
 72
    14
 73
    10
 74
     0
 42
0.000000001
 43
0.00000001
 40
0.0
 40
0.0
 40
0.0
 40
0.0
 40
0.25
 40
0.25
 40
0.5
 40
0.5
 40
0.75
 40
0.75
 40
1.0
 40
1.0
 40
1.0
 40
1.0
 10
15.26018098716064
 20
-3.424652440441616
 30
0.0
 10
15.1781156985614
 20
-3.397197468903941
 30
0.0
 10
15.09296521675404
 20
-3.358078932180446
 30
0.0
 10
14.91612110988796
 20
-3.261803220114087
 30
0.0
 10
14.82489446720126
 20
-3.204647274818846
 30
0.0
 10
14.64285922313062
 20
-3.078621803891209
 30
0.0
 10
14.55413506120104
 20
-3.011353914247248
 30
0.0
 10
14.38050216600662
 20
-2.869305174756609
 30
0.0
 10
14.29486875446488
 20
-2.793756385462028
 30
0.0
 10
14.21524456747219
 20
-2.717195488056
 30
0.0
  0
SPLINE
  5
16F
330
1F
100
AcDbEntity
  8
외형선
  6
Continuous
 62
     1
370
    15
100
AcDbSpline
210
0.0
220
0.0
230
1.0
 70
     8
 71
     3
 72
     8
 73
     4
 74
     0
 42
0.000000001
 43
0.00000001
 40
0.0
 40
0.0
 40
0.0
 40
0.0
 40
1.0
 40
1.0
 40
1.0
 40
1.0
 10
14.21524456747216
 20
-2.717195488055944
 30
0.0
 10
14.13428716690914
 20
-2.639352668268883
 30
0.0
 10
14.03162381410459
 20
-2.568948467311722
 30
0.0
 10
13.94870328041332
 20
-2.532526603611994
 30
0.0
  0
SPLINE
  5
170
330
1F
100
AcDbEntity
  8
외형선
  6
Continuous
 62
     1
370
    15
100
AcDbSpline
210
0.0
220
0.0
230
1.0
 70
     8
 71
     3
 72
     8
 73
     4
 74
     0
 42
0.000000001
 43
0.00000001
 40
0.0
 40
0.0
 40
0.0
 40
0.0
 40
1.0
 40
1.0
 40
1.0
 40
1.0
 10
13.94870328041331
 20
-2.532526603611927
 30
0.0
 10
13.81902212205012
 20
-2.475565688575943
 30
0.0
 10
13.67698973264098
 20
-2.390519627325185
 30
0.0
 10
13.53278316972746
 20
-2.29186256580869
 30
0.0
  0
SPLINE
  5
171
330
1F
100
AcDbEntity
  8
외형선
  6
Continuous
 62
     1
370
    15
100
AcDbSpline
210
0.0
220
0.0
230
1.0
 70
     8
 71
     3
 72
     8
 73
     4
 74
     0
 42
0.000000001
 43
0.00000001
 40
0.0
 40
0.0
 40
0.0
 40
0.0
 40
1.0
 40
1.0
 40
1.0
 40
1.0
 10
13.53278317126689
 20
-2.29186256698427
 30
0.0
 10
13.38730952869085
 20
-2.180774019139025
 30
0.0
 10
13.24507211444265
 20
-2.061651581744903
 30
0.0
 10
13.11761513033705
 20
-1.943797661830122
 30
0.0
  0
SPLINE
  5
172
330
1F
100
AcDbEntity
  8
외형선
  6
Continuous
 62
     1
370
    15
100
AcDbSpline
210
0.0
220
0.0
230
1.0
 70
     8
 71
     3
 72
     8
 73
     4
 74
     0
 42
0.000000001
 43
0.00000001
 40
0.0
 40
0.0
 40
0.0
 40
0.0
 40
1.0
 40
1.0
 40
1.0
 40
1.0
 10
13.11761513033708
 20
-1.94379766183015
 30
0.0
 10
13.03714639133194
 20
-1.86939172488677
 30
0.0
 10
12.93455104934628
 20
-1.796615230332758
 30
0.0
 10
12.85119944634295
 20
-1.752383507926543
 30
0.0
  0
SPLINE
  5
173
330
1F
100
AcDbEntity
  8
외형선
  6
Continuous
 62
     1
370
    15
100
AcDbSpline
210
0.0
220
0.0
230
1.0
 70
     8
 71
     3
 72
    10
 73
     6
 74
     0
 42
0.000000001
 43
0.00000001
 40
0.0
 40
0.0
 40
0.0
 40
0.0
 40
0.5000000000000002
 40
0.5000000000000002
 40
1.0
 40
1.0
 40
1.0
 40
1.0
 10
12.85119944634295
 20
-1.752383507926536
 30
0.0
 10
12.71885949342294
 20
-1.682155415725655
 30
0.0
 10
12.57628425263825
 20
-1.588569255599913
 30
0.0
 10
12.28438569805855
 20
-1.380058581813536
 30
0.0
 10
12.13849484204551
 20
-1.2674786875103
 30
0.0
 10
11.99999999999441
 20
-1.155319983655744
 30
0.0
  0
SPLINE
  5
174
330
1F
100
AcDbEntity
  8
외형선
  6
Continuous
370
    15
100
AcDbSpline
210
0.0
220
0.0
230
1.0
 70
    24
 71
     3
 72
     9
 73
     5
 74
     0
 42
0.000000001
 43
0.00000001
 40
0.0
 40
0.0
 40
0.0
 40
0.0
 40
0.5
 40
1.0
 40
1.0
 40
1.0
 40
1.0
 10
11.99999999997965
 20
-1.15474158648479
 30
0.0
 10
11.99999999997965
 20
-1.154838109856769
 30
0.0
 10
11.99999999997965
 20
-1.155031032758625
 30
0.0
 10
11.99999999997965
 20
-1.155223707966533
 30
0.0
 10
11.99999999997965
 20
-1.155319983644578
 30
0.0
  0
SPLINE
  5
175
330
1F
100
AcDbEntity
  8
외형선
  6
Continuous
370
    15
100
AcDbSpline
210
0.0
220
0.0
230
1.0
 70
     8
 71
     3
 72
     8
 73
     4
 74
     0
 42
0.000000001
 43
0.00000001
 40
0.0
 40
0.0
 40
0.0
 40
0.0
 40
1.0
 40
1.0
 40
1.0
 40
1.0
 10
11.99999999997965
 20
-1.154741586484791
 30
0.0
 10
11.99769164350551
 20
-1.153063521825994
 30
0.0
 10
11.99538333760441
 20
-1.151385287081345
 30
0.0
 10
11.99307508227189
 20
-1.149706882242227
 30
0.0
  0
SPLINE
  5
176
330
1F
100
AcDbEntity
  8
외형선
  6
Continuous
370
    15
100
AcDbSpline
210
0.0
220
0.0
230
1.0
 70
     8
 71
     3
 72
     8
 73
     4
 74
     0
 42
0.000000001
 43
0.00000001
 40
0.0
 40
0.0
 40
0.0
 40
0.0
 40
1.0
 40
1.0
 40
1.0
 40
1.0
 10
11.99307508227184
 20
-1.149706882242239
 30
0.0
 10
11.92924217499315
 20
-1.097919714013447
 30
0.0
 10
11.86652983109895
 20
-1.045764485604555
 30
0.0
 10
11.80729743021596
 20
-0.9950368756475754
 30
0.0
  0
SPLINE
  5
177
330
1F
100
AcDbEntity
  8
외형선
  6
Continuous
370
    15
100
AcDbSpline
210
0.0
220
0.0
230
1.0
 70
     8
 71
     3
 72
     8
 73
     4
 74
     0
 42
0.000000001
 43
0.00000001
 40
0.0
 40
0.0
 40
0.0
 40
0.0
 40
1.0
 40
1.0
 40
1.0
 40
1.0
 10
11.80729743021593
 20
-0.9950368756475212
 30
0.0
 10
11.72638000583154
 20
-0.9257378521113407
 30
0.0
 10
11.6237672301839
 20
-0.8516360792440788
 30
0.0
 10
11.5408928584086
 20
-0.7996779479620099
 30
0.0
  0
SPLINE
  5
178
330
1F
100
AcDbEntity
  8
외형선
  6
Continuous
370
    15
100
AcDbSpline
210
0.0
220
0.0
230
1.0
 70
     8
 71
     3
 72
     8
 73
     4
 74
     0
 42
0.000000001
 43
0.00000001
 40
0.0
 40
0.0
 40
0.0
 40
0.0
 40
1.0
 40
1.0
 40
1.0
 40
1.0
 10
11.54089285840857
 20
-0.799677947961979
 30
0.0
 10
11.43419003276094
 20
-0.7327805549030159
 30
0.0
 10
11.31891343630878
 20
-0.6518700419312192
 30
0.0
 10
11.20122557433303
 20
-0.5659463237206368
 30
0.0
  0
SPLINE
  5
179
330
1F
100
AcDbEntity
  8
외형선
  6
Continuous
 62
     1
370
    15
100
AcDbSpline
210
0.0
220
0.0
230
1.0
 70
     8
 71
     3
 72
    11
 73
     7
 74
     0
 42
0.000000001
 43
0.00000001
 40
0.0
 40
0.0
 40
0.0
 40
0.0
 40
0.1214831620467903
 40
0.3609322802111584
 40
0.8390990065228561
 40
1.0
 40
1.0
 40
1.0
 40
1.0
 10
22.97383727695168
 20
6.224395926683092
 30
0.0
 10
23.00647266483492
 20
6.251324900362325
 30
0.0
 10
23.10343396190533
 20
6.331332168118892
 30
0.0
 10
23.34355629830058
 20
6.448048419602517
 30
0.0
 10
23.59471586009744
 20
6.520815895336795
 30
0.0
 10
23.7563784682698
 20
6.507687714841224
 30
0.0
 10
23.7970810001887
 20
6.504382372983273
 30
0.0
  0
SPLINE
  5
17A
330
1F
100
AcDbEntity
  8
외형선
  6
Continuous
 62
     1
370
    15
100
AcDbSpline
210
0.0
220
0.0
230
1.0
 70
     8
 71
     3
 72
     8
 73
     4
 74
     0
 42
0.000000001
 43
0.00000001
 40
0.0
 40
0.0
 40
0.0
 40
0.0
 40
1.0
 40
1.0
 40
1.0
 40
1.0
 10
23.7970810001887
 20
6.504382372983283
 30
0.0
 10
23.87805066598598
 20
6.493430380402422
 30
0.0
 10
23.98073814550904
 20
6.532590231139246
 30
0.0
 10
24.06368421531524
 20
6.611316193562206
 30
0.0
  0
SPLINE
  5
17B
330
1F
100
AcDbEntity
  8
외형선
  6
Continuous
 62
     1
370
    15
100
AcDbSpline
210
0.0
220
0.0
230
1.0
 70
     8
 71
     3
 72
     8
 73
     4
 74
     0
 42
0.000000001
 43
0.00000001
 40
0.0
 40
0.0
 40
0.0
 40
0.0
 40
1.0
 40
1.0
 40
1.0
 40
1.0
 10
24.06368421531525
 20
6.611316193562208
 30
0.0
 10
24.19343910407097
 20
6.73446944868625
 30
0.0
 10
24.33559844040834
 20
6.833191193777996
 30
0.0
 10
24.47988299056576
 20
6.902370196061254
 30
0.0
  0
SPLINE
  5
17C
330
1F
100
AcDbEntity
  8
외형선
  6
Continuous
 62
     1
370
    15
100
AcDbSpline
210
0.0
220
0.0
230
1.0
 70
     8
 71
     3
 72
     8
 73
     4
 74
     0
 42
0.000000001
 43
0.00000001
 40
0.0
 40
0.0
 40
0.0
 40
0.0
 40
1.0
 40
1.0
 40
1.0
 40
1.0
 10
24.47988299008111
 20
6.90237019593218
 30
0.0
 10
24.62559564029558
 20
6.941214834581429
 30
0.0
 10
24.76789834492702
 20
6.946864541837119
 30
0.0
 10
24.89553912259772
 20
6.914643508357575
 30
0.0
  0
SPLINE
  5
17D
330
1F
100
AcDbEntity
  8
외형선
  6
Continuous
 62
     1
370
    15
100
AcDbSpline
210
0.0
220
0.0
230
1.0
 70
     8
 71
     3
 72
     8
 73
     4
 74
     0
 42
0.000000001
 43
0.00000001
 40
0.0
 40
0.0
 40
0.0
 40
0.0
 40
1.0
 40
1.0
 40
1.0
 40
1.0
 10
24.89553912259771
 20
6.914643508357601
 30
0.0
 10
24.97615199701597
 20
6.894293976077138
 30
0.0
 10
25.0788705771666
 20
6.925864867829651
 30
0.0
 10
25.16237945560951
 20
7.001471035982753
 30
0.0
  0
SPLINE
  5
17E
330
1F
100
AcDbEntity
  8
외형선
  6
Continuous
 62
     1
370
    15
100
AcDbSpline
210
0.0
220
0.0
230
1.0
 70
     8
 71
     3
 72
    14
 73
    10
 74
     0
 42
0.000000001
 43
0.00000001
 40
0.0
 40
0.0
 40
0.0
 40
0.0
 40
0.25
 40
0.25
 40
0.5
 40
0.5
 40
0.75
 40
0.75
 40
1.0
 40
1.0
 40
1.0
 40
1.0
 10
25.1623794556095
 20
7.001471035982726
 30
0.0
 10
25.24447604293399
 20
7.075798562609667
 30
0.0
 10
25.32965601394071
 20
7.137733223574595
 30
0.0
 10
25.50655370171884
 20
7.239897570439562
 30
0.0
 10
25.59780543251316
 20
7.279447175999055
 30
0.0
 10
25.77988466250041
 20
7.332380172419867
 30
0.0
 10
25.86862974284033
 20
7.345468565040445
 30
0.0
 10
26.04230289002836
 20
7.34504231811899
 30
0.0
 10
26.12795417660001
 20
7.331069884407837
 30
0.0
 10
26.2075956856018
 20
7.302239463084516
 30
0.0
  0
SPLINE
  5
17F
330
1F
100
AcDbEntity
  8
외형선
  6
Continuous
 62
     1
370
    15
100
AcDbSpline
210
0.0
220
0.0
230
1.0
 70
     8
 71
     3
 72
     8
 73
     4
 74
     0
 42
0.000000001
 43
0.00000001
 40
0.0
 40
0.0
 40
0.0
 40
0.0
 40
1.0
 40
1.0
 40
1.0
 40
1.0
 10
26.20759568560176
 20
7.302239463084524
 30
0.0
 10
26.28857355469444
 20
7.272925276135178
 30
0.0
 10
26.3912497348943
 20
7.296725607614173
 30
0.0
 10
26.47418742421222
 20
7.36902126991931
 30
0.0
  0
SPLINE
  5
180
330
1F
100
AcDbEntity
  8
외형선
  6
Continuous
 62
     1
370
    15
100
AcDbSpline
210
0.0
220
0.0
230
1.0
 70
     8
 71
     3
 72
     8
 73
     4
 74
     0
 42
0.000000001
 43
0.00000001
 40
0.0
 40
0.0
 40
0.0
 40
0.0
 40
1.0
 40
1.0
 40
1.0
 40
1.0
 10
26.47418742421221
 20
7.369021269919306
 30
0.0
 10
26.60389124505544
 20
7.482082336709144
 30
0.0
 10
26.74590143673884
 20
7.563611473786273
 30
0.0
 10
26.89017027268001
 20
7.611619546346408
 30
0.0
  0
SPLINE
  5
181
330
1F
100
AcDbEntity
  8
외형선
  6
Continuous
 62
     1
370
    15
100
AcDbSpline
210
0.0
220
0.0
230
1.0
 70
     8
 71
     3
 72
     8
 73
     4
 74
     0
 42
0.000000001
 43
0.00000001
 40
0.0
 40
0.0
 40
0.0
 40
0.0
 40
1.0
 40
1.0
 40
1.0
 40
1.0
 10
26.89017027219606
 20
7.611619546300196
 30
0.0
 10
27.03567036220092
 20
7.625558406232646
 30
0.0
 10
27.17792689309892
 20
7.603460184532361
 30
0.0
 10
27.30539719153141
 20
7.542892903811694
 30
0.0
  0
SPLINE
  5
182
330
1F
100
AcDbEntity
  8
외형선
  6
Continuous
 62
     1
370
    15
100
AcDbSpline
210
0.0
220
0.0
230
1.0
 70
     8
 71
     3
 72
     8
 73
     4
 74
     0
 42
0.000000001
 43
0.00000001
 40
0.0
 40
0.0
 40
0.0
 40
0.0
 40
1.0
 40
1.0
 40
1.0
 40
1.0
 10
27.30539719153142
 20
7.54289290381168
 30
0.0
 10
27.38587596299304
 20
7.504653561760145
 30
0.0
 10
27.48848096857745
 20
7.520034296772555
 30
0.0
 10
27.57183864927553
 20
7.587197106646195
 30
0.0
  0
SPLINE
  5
183
330
1F
100
AcDbEntity
  8
외형선
  6
Continuous
 62
     1
370
    15
100
AcDbSpline
210
0.0
220
0.0
230
1.0
 70
     8
 71
     3
 72
    14
 73
    10
 74
     0
 42
0.000000001
 43
0.00000001
 40
0.0
 40
0.0
 40
0.0
 40
0.0
 40
0.2500000000000001
 40
0.2500000000000001
 40
0.5000000000000002
 40
0.5000000000000002
 40
0.7500000000000001
 40
0.7500000000000001
 40
1.0
 40
1.0
 40
1.0
 40
1.0
 10
27.57183864927556
 20
7.58719710664621
 30
0.0
 10
27.65383759911527
 20
7.653265162184714
 30
0.0
 10
27.7389273668057
 20
7.704632324242363
 30
0.0
 10
27.91565433510448
 20
7.782151385117383
 30
0.0
 10
28.00681165637807
 20
7.807635602735799
 30
0.0
 10
28.18867862078433
 20
7.830495574838534
 30
0.0
 10
28.27730600528878
 20
7.827948101953336
 30
0.0
 10
28.45072674246567
 20
7.795304088554147
 30
0.0
 10
28.53624457482914
 20
7.764588024738469
 30
0.0
 10
28.61575802592617
 20
7.719218860309935
 30
0.0
  0
SPLINE
  5
184
330
1F
100
AcDbEntity
  8
외형선
  6
Continuous
 62
     1
370
    15
100
AcDbSpline
210
0.0
220
0.0
230
1.0
 70
     8
 71
     3
 72
     8
 73
     4
 74
     0
 42
0.000000001
 43
0.00000001
 40
0.0
 40
0.0
 40
0.0
 40
0.0
 40
1.0
 40
1.0
 40
1.0
 40
1.0
 10
28.61575802592614
 20
7.719218860309943
 30
0.0
 10
28.69667270479079
 20
7.67305017665398
 30
0.0
 10
28.79927718276025
 20
7.680262307958557
 30
0.0
 10
28.88214564510939
 20
7.742319932454939
 30
0.0
  0
SPLINE
  5
185
330
1F
100
AcDbEntity
  8
외형선
  6
Continuous
 62
     1
370
    15
100
AcDbSpline
210
0.0
220
0.0
230
1.0
 70
     8
 71
     3
 72
     8
 73
     4
 74
     0
 42
0.000000001
 43
0.00000001
 40
0.0
 40
0.0
 40
0.0
 40
0.0
 40
1.0
 40
1.0
 40
1.0
 40
1.0
 10
28.88214564510943
 20
7.742319932454963
 30
0.0
 10
29.01172760972238
 20
7.839359851786089
 30
0.0
 10
29.15364295637085
 20
7.899384135200201
 30
0.0
 10
29.29794424441878
 20
7.923726613562748
 30
0.0
  0
SPLINE
  5
186
330
1F
100
AcDbEntity
  8
외형선
  6
Continuous
 62
     1
370
    15
100
AcDbSpline
210
0.0
220
0.0
230
1.0
 70
     8
 71
     3
 72
     8
 73
     4
 74
     0
 42
0.000000001
 43
0.00000001
 40
0.0
 40
0.0
 40
0.0
 40
0.0
 40
1.0
 40
1.0
 40
1.0
 40
1.0
 10
29.29794424393486
 20
7.923726613601572
 30
0.0
 10
29.44346054786041
 20
7.912101101907005
 30
0.0
 10
29.58569990372088
 20
7.863591413271855
 30
0.0
 10
29.71314260419485
 20
7.777998375406486
 30
0.0
  0
SPLINE
  5
187
330
1F
100
AcDbEntity
  8
외형선
  6
Continuous
 62
     1
370
    15
100
AcDbSpline
210
0.0
220
0.0
230
1.0
 70
     8
 71
     3
 72
     8
 73
     4
 74
     0
 42
0.000000001
 43
0.00000001
 40
0.0
 40
0.0
 40
0.0
 40
0.0
 40
1.0
 40
1.0
 40
1.0
 40
1.0
 10
29.71314260419485
 20
7.77799837540649
 30
0.0
 10
29.79364040686279
 20
7.723934459260558
 30
0.0
 10
29.89626583045548
 20
7.722425491435181
 30
0.0
 10
29.97963403263123
 20
7.777731986430701
 30
0.0
  0
SPLINE
  5
188
330
1F
100
AcDbEntity
  8
외형선
  6
Continuous
 62
     1
370
    15
100
AcDbSpline
210
0.0
220
0.0
230
1.0
 70
     8
 71
     3
 72
    14
 73
    10
 74
     0
 42
0.000000001
 43
0.00000001
 40
0.0
 40
0.0
 40
0.0
 40
0.0
 40
0.25
 40
0.25
 40
0.5
 40
0.5
 40
0.75
 40
0.75
 40
1.0
 40
1.0
 40
1.0
 40
1.0
 10
29.97963403263128
 20
7.777731986430714
 30
0.0
 10
30.06171156090091
 20
7.832182247897556
 30
0.0
 10
30.14687916413392
 20
7.870356235638188
 30
0.0
 10
30.32375261685547
 20
7.919264622853031
 30
0.0
 10
30.41497579237836
 20
7.929384671724186
 30
0.0
 10
30.59694270089382
 20
7.921033053878612
 30
0.0
 10
30.68561735464144
 20
7.903005440860213
 30
0.0
 10
30.85913212993298
 20
7.839866497994081
 30
0.0
 10
30.94468880548008
 20
7.794010694278279
 30
0.0
 10
31.02424991677964
 20
7.73445041020887
 30
0.0
  0
SPLINE
  5
189
330
1F
100
AcDbEntity
  8
외형선
  6
Continuous
 62
     1
370
    15
100
AcDbSpline
210
0.0
220
0.0
230
1.0
 70
     8
 71
     3
 72
     8
 73
     4
 74
     0
 42
0.000000001
 43
0.00000001
 40
0.0
 40
0.0
 40
0.0
 40
0.0
 40
1.0
 40
1.0
 40
1.0
 40
1.0
 10
31.0242499167797
 20
7.734450410208843
 30
0.0
 10
31.10527636951485
 20
7.673793156140691
 30
0.0
 10
31.20793617831018
 20
7.663964274978423
 30
0.0
 10
31.29094576708114
 20
7.712551612740013
 30
0.0
  0
SPLINE
  5
18A
330
1F
100
AcDbEntity
  8
외형선
  6
Continuous
 62
     1
370
    15
100
AcDbSpline
210
0.0
220
0.0
230
1.0
 70
     8
 71
     3
 72
     8
 73
     4
 74
     0
 42
0.000000001
 43
0.00000001
 40
0.0
 40
0.0
 40
0.0
 40
0.0
 40
1.0
 40
1.0
 40
1.0
 40
1.0
 10
31.29094576708117
 20
7.712551612740004
 30
0.0
 10
31.42066854061907
 20
7.788481204809738
 30
0.0
 10
31.56286084362076
 20
7.823880272819817
 30
0.0
 10
31.70736595777323
 20
7.823306533056641
 30
0.0
  0
SPLINE
  5
18B
330
1F
100
AcDbEntity
  8
외형선
  6
Continuous
 62
     1
370
    15
100
AcDbSpline
210
0.0
220
0.0
230
1.0
 70
     8
 71
     3
 72
     8
 73
     4
 74
     0
 42
0.000000001
 43
0.00000001
 40
0.0
 40
0.0
 40
0.0
 40
0.0
 40
1.0
 40
1.0
 40
1.0
 40
1.0
 10
31.70736595728856
 20
7.823306533178289
 30
0.0
 10
31.85310689096886
 20
7.786760693017558
 30
0.0
 10
31.99555699708641
 20
7.714413518395804
 30
0.0
 10
32.12319160912697
 20
7.608188606494337
 30
0.0
  0
SPLINE
  5
18C
330
1F
100
AcDbEntity
  8
외형선
  6
Continuous
 62
     1
370
    15
100
AcDbSpline
210
0.0
220
0.0
230
1.0
 70
     8
 71
     3
 72
     8
 73
     4
 74
     0
 42
0.000000001
 43
0.00000001
 40
0.0
 40
0.0
 40
0.0
 40
0.0
 40
1.0
 40
1.0
 40
1.0
 40
1.0
 10
32.12319160912699
 20
7.608188606494323
 30
0.0
 10
32.20378901851256
 20
7.541110777255114
 30
0.0
 10
32.30649516704187
 20
7.522747216508369
 30
0.0
 10
32.38994439599824
 20
7.563315575346512
 30
0.0
  0
SPLINE
  5
18D
330
1F
100
AcDbEntity
  8
외형선
  6
Continuous
 62
     1
370
    15
100
AcDbSpline
210
0.0
220
0.0
230
1.0
 70
     8
 71
     3
 72
    14
 73
    10
 74
     0
 42
0.000000001
 43
0.00000001
 40
0.0
 40
0.0
 40
0.0
 40
0.0
 40
0.2500000000000002
 40
0.2500000000000002
 40
0.5000000000000001
 40
0.5000000000000001
 40
0.7500000000000001
 40
0.7500000000000001
 40
1.0
 40
1.0
 40
1.0
 40
1.0
 10
32.38994439599824
 20
7.563315575346511
 30
0.0
 10
32.47206261955369
 20
7.603236873625849
 30
0.0
 10
32.55725864601769
 20
7.626184311972772
 30
0.0
 10
32.73416242498133
 20
7.643873636088593
 30
0.0
 10
32.82539211278605
 20
7.638089446803952
 30
0.0
 10
33.00736107708743
 20
7.59892359400595
 30
0.0
 10
33.09602928709859
 20
7.566328399572959
 30
0.0
 10
33.26951734371021
 20
7.475889409934105
 30
0.0
 10
33.35504766822778
 20
7.417210338412431
 30
0.0
 10
33.43458591829609
 20
7.346459978873115
 30
0.0
  0
SPLINE
  5
18E
330
1F
100
AcDbEntity
  8
외형선
  6
Continuous
 62
     1
370
    15
100
AcDbSpline
210
0.0
220
0.0
230
1.0
 70
     8
 71
     3
 72
     8
 73
     4
 74
     0
 42
0.000000001
 43
0.00000001
 40
0.0
 40
0.0
 40
0.0
 40
0.0
 40
1.0
 40
1.0
 40
1.0
 40
1.0
 10
33.43458591829611
 20
7.346459978873107
 30
0.0
 10
33.51548325500289
 20
7.274500693210399
 30
0.0
 10
33.61810690686315
 20
7.248108279330142
 30
0.0
 10
33.70105888178988
 20
7.280711932848941
 30
0.0
  0
SPLINE
  5
18F
330
1F
100
AcDbEntity
  8
외형선
  6
Continuous
 62
     1
370
    15
100
AcDbSpline
210
0.0
220
0.0
230
1.0
 70
     8
 71
     3
 72
     8
 73
     4
 74
     0
 42
0.000000001
 43
0.00000001
 40
0.0
 40
0.0
 40
0.0
 40
0.0
 40
1.0
 40
1.0
 40
1.0
 40
1.0
 10
33.70105888178988
 20
7.280711932848929
 30
0.0
 10
33.83061084813542
 20
7.33163136457
 30
0.0
 10
33.97263310867355
 20
7.340677454105967
 30
0.0
 10
34.11695943429098
 20
7.315319043202662
 30
0.0
  0
SPLINE
  5
190
330
1F
100
AcDbEntity
  8
외형선
  6
Continuous
 62
     1
370
    15
100
AcDbSpline
210
0.0
220
0.0
230
1.0
 70
     8
 71
     3
 72
     8
 73
     4
 74
     0
 42
0.000000001
 43
0.00000001
 40
0.0
 40
0.0
 40
0.0
 40
0.0
 40
1.0
 40
1.0
 40
1.0
 40
1.0
 10
34.11695943380707
 20
7.315319043400564
 30
0.0
 10
34.26251675655958
 20
7.255840893144102
 30
0.0
 10
34.4047444238933
 20
7.163466847790425
 30
0.0
 10
34.53213897459371
 20
7.042290518476653
 30
0.0
  0
SPLINE
  5
191
330
1F
100
AcDbEntity
  8
외형선
  6
Continuous
 62
     1
370
    15
100
AcDbSpline
210
0.0
220
0.0
230
1.0
 70
     8
 71
     3
 72
     8
 73
     4
 74
     0
 42
0.000000001
 43
0.00000001
 40
0.0
 40
0.0
 40
0.0
 40
0.0
 40
1.0
 40
1.0
 40
1.0
 40
1.0
 10
34.53213897459372
 20
7.042290518476633
 30
0.0
 10
34.61262124276266
 20
6.965736648802152
 30
0.0
 10
34.71522458943065
 20
6.9315455855715
 30
0.0
 10
34.79855163310533
 20
6.955275321942568
 30
0.0
  0
SPLINE
  5
192
330
1F
100
AcDbEntity
  8
외형선
  6
Continuous
 62
     1
370
    15
100
AcDbSpline
210
0.0
220
0.0
230
1.0
 70
     8
 71
     3
 72
    14
 73
    10
 74
     0
 42
0.000000001
 43
0.00000001
 40
0.0
 40
0.0
 40
0.0
 40
0.0
 40
0.2500000000000003
 40
0.2500000000000003
 40
0.5000000000000006
 40
0.5000000000000006
 40
0.7500000000000002
 40
0.7500000000000002
 40
1.0
 40
1.0
 40
1.0
 40
1.0
 10
34.79855163310536
 20
6.955275321942567
 30
0.0
 10
34.88060739480055
 20
6.978643024754113
 30
0.0
 10
34.96574230857807
 20
6.985199207395476
 30
0.0
 10
35.14252156837398
 20
6.970765259285881
 30
0.0
 10
35.23367763047442
 20
6.94936384466847
 30
0.0
 10
35.41547867464969
 20
6.881392264720615
 30
0.0
 10
35.50405552958949
 20
6.835910593462734
 30
0.0
 10
35.67735260316061
 20
6.722885550258887
 30
0.0
 10
35.76283589044114
 20
6.654481422194817
 30
0.0
 10
35.8423751559975
 20
6.576313026730097
 30
0.0
  0
SPLINE
  5
193
330
1F
100
AcDbEntity
  8
외형선
  6
Continuous
 62
     1
370
    15
100
AcDbSpline
210
0.0
220
0.0
230
1.0
 70
     8
 71
     3
 72
     8
 73
     4
 74
     0
 42
0.000000001
 43
0.00000001
 40
0.0
 40
0.0
 40
0.0
 40
0.0
 40
1.0
 40
1.0
 40
1.0
 40
1.0
 10
35.84237515599754
 20
6.57631302673006
 30
0.0
 10
35.92325567451508
 20
6.496826494981935
 30
0.0
 10
36.02587747459764
 20
6.455387261144698
 30
0.0
 10
36.10880245298843
 20
6.470338083107925
 30
0.0
  0
SPLINE
  5
194
330
1F
100
AcDbEntity
  8
외형선
  6
Continuous
 62
     1
370
    15
100
AcDbSpline
210
0.0
220
0.0
230
1.0
 70
     8
 71
     3
 72
     8
 73
     4
 74
     0
 42
0.000000001
 43
0.00000001
 40
0.0
 40
0.0
 40
0.0
 40
0.0
 40
1.0
 40
1.0
 40
1.0
 40
1.0
 10
36.1088024529879
 20
6.470338083107825
 30
0.0
 10
36.23836847763826
 20
6.493697975442112
 30
0.0
 10
36.38041127254284
 20
6.475917006931701
 30
0.0
 10
36.52473394245938
 20
6.427100806299469
 30
0.0
  0
SPLINE
  5
195
330
1F
100
AcDbEntity
  8
외형선
  6
Continuous
 62
     1
370
    15
100
AcDbSpline
210
0.0
220
0.0
230
1.0
 70
     8
 71
     3
 72
     8
 73
     4
 74
     0
 42
0.000000001
 43
0.00000001
 40
0.0
 40
0.0
 40
0.0
 40
0.0
 40
1.0
 40
1.0
 40
1.0
 40
1.0
 10
36.5247339419723
 20
6.427100806564812
 30
0.0
 10
36.67036197359523
 20
6.347769188980426
 30
0.0
 10
36.81263361755533
 20
6.240154027880052
 30
0.0
 10
36.9400745043386
 20
6.11024033929441
 30
0.0
  0
SPLINE
  5
196
330
1F
100
AcDbEntity
  8
외형선
  6
Continuous
 62
     1
370
    15
100
AcDbSpline
210
0.0
220
0.0
230
1.0
 70
     8
 71
     3
 72
     8
 73
     4
 74
     0
 42
0.000000001
 43
0.00000001
 40
0.0
 40
0.0
 40
0.0
 40
0.0
 40
1.0
 40
1.0
 40
1.0
 40
1.0
 10
36.94007450433861
 20
6.110240339294378
 30
0.0
 10
37.02062101459791
 20
6.028130943208001
 30
0.0
 10
37.12327222295978
 20
5.979829833204893
 30
0.0
 10
37.20665575121582
 20
5.985437554439257
 30
0.0
  0
SPLINE
  5
197
330
1F
100
AcDbEntity
  8
외형선
  6
Continuous
 62
     1
370
    15
100
AcDbSpline
210
0.0
220
0.0
230
1.0
 70
     8
 71
     3
 72
    14
 73
    10
 74
     0
 42
0.000000001
 43
0.00000001
 40
0.0
 40
0.0
 40
0.0
 40
0.0
 40
0.25
 40
0.25
 40
0.5
 40
0.5
 40
0.75
 40
0.75
 40
1.0
 40
1.0
 40
1.0
 40
1.0
 10
37.20665575121585
 20
5.985437554439234
 30
0.0
 10
37.28880710449297
 20
5.990962409261765
 30
0.0
 10
37.37402922945347
 20
5.980695248747104
 30
0.0
 10
37.55095807949205
 20
5.93470802623879
 30
0.0
 10
37.64217702050826
 20
5.898713593786476
 30
0.0
 10
37.82408457670888
 20
5.80529807340653
 30
0.0
 10
37.91271248319967
 20
5.749209231980103
 30
0.0
 10
38.08632226305936
 20
5.61942981984481
 30
0.0
 10
38.17199016192153
 20
5.544833073927868
 30
0.0
 10
38.25168914250733
 20
5.463260305443006
 30
0.0
  0
SPLINE
  5
198
330
1F
100
AcDbEntity
  8
외형선
  6
Continuous
 62
     1
370
    15
100
AcDbSpline
210
0.0
220
0.0
230
1.0
 70
     8
 71
     3
 72
     8
 73
     4
 74
     0
 42
0.000000001
 43
0.00000001
 40
0.0
 40
0.0
 40
0.0
 40
0.0
 40
1.0
 40
1.0
 40
1.0
 40
1.0
 10
38.25168914250732
 20
5.463260305443029
 30
0.0
 10
38.33272459192577
 20
5.380319646655518
 30
0.0
 10
38.43548921355445
 20
5.325911435731028
 30
0.0
 10
38.51855369381612
 20
5.322374613861746
 30
0.0
  0
SPLINE
  5
199
330
1F
100
AcDbEntity
  8
외형선
  6
Continuous
 62
     1
370
    15
100
AcDbSpline
210
0.0
220
0.0
230
1.0
 70
     8
 71
     3
 72
     8
 73
     4
 74
     0
 42
0.000000001
 43
0.00000001
 40
0.0
 40
0.0
 40
0.0
 40
0.0
 40
1.0
 40
1.0
 40
1.0
 40
1.0
 10
38.5185536938161
 20
5.322374613861731
 30
0.0
 10
38.64830812054745
 20
5.316849769877235
 30
0.0
 10
38.79051348360753
 20
5.2730774416943
 30
0.0
 10
38.93497434363094
 20
5.203240689351122
 30
0.0
  0
SPLINE
  5
19A
330
1F
100
AcDbEntity
  8
외형선
  6
Continuous
 62
     1
370
    15
100
AcDbSpline
210
0.0
220
0.0
230
1.0
 70
     8
 71
     3
 72
     8
 73
     4
 74
     0
 42
0.000000001
 43
0.00000001
 40
0.0
 40
0.0
 40
0.0
 40
0.0
 40
1.0
 40
1.0
 40
1.0
 40
1.0
 10
38.93497434314652
 20
5.203240689667378
 30
0.0
 10
39.08070301960581
 20
5.108131123780443
 30
0.0
 10
39.22306015813133
 20
4.990825423763861
 30
0.0
 10
39.35056857052319
 20
4.85884540701708
 30
0.0
  0
SPLINE
  5
19B
330
1F
100
AcDbEntity
  8
외형선
  6
Continuous
 62
     1
370
    15
100
AcDbSpline
210
0.0
220
0.0
230
1.0
 70
     8
 71
     3
 72
     8
 73
     4
 74
     0
 42
0.000000001
 43
0.00000001
 40
0.0
 40
0.0
 40
0.0
 40
0.0
 40
1.0
 40
1.0
 40
1.0
 40
1.0
 10
39.35056857052321
 20
4.858845407017069
 30
0.0
 10
39.43113568140474
 20
4.775452880642359
 30
0.0
 10
39.53378788509593
 20
4.715504719341785
 30
0.0
 10
39.61717481154119
 20
4.7026679003286
 30
0.0
  0
SPLINE
  5
19C
330
1F
100
AcDbEntity
  8
외형선
  6
Continuous
 62
     1
370
    15
100
AcDbSpline
210
0.0
220
0.0
230
1.0
 70
     8
 71
     3
 72
    14
 73
    10
 74
     0
 42
0.000000001
 43
0.00000001
 40
0.0
 40
0.0
 40
0.0
 40
0.0
 40
0.25
 40
0.25
 40
0.5
 40
0.5
 40
0.75
 40
0.75
 40
1.0
 40
1.0
 40
1.0
 40
1.0
 10
39.61717481154118
 20
4.702667900328597
 30
0.0
 10
39.69924230044882
 20
4.690034199257179
 30
0.0
 10
39.78436410761311
 20
4.663504228840462
 30
0.0
 10
39.96105872176659
 20
4.58845080371941
 30
0.0
 10
40.052115451049
 20
4.539775608473619
 30
0.0
 10
40.23391057634058
 20
4.426036097757538
 30
0.0
 10
40.32255852079584
 20
4.362474614170607
 30
0.0
 10
40.49611098872971
 20
4.222943468255004
 30
0.0
 10
40.58174222255295
 20
4.146132471899399
 30
0.0
 10
40.66138072688089
 20
4.065503415378147
 30
0.0
  0
SPLINE
  5
19D
330
1F
100
AcDbEntity
  8
외형선
  6
Continuous
 62
     1
370
    15
100
AcDbSpline
210
0.0
220
0.0
230
1.0
 70
     8
 71
     3
 72
     8
 73
     4
 74
     0
 42
0.000000001
 43
0.00000001
 40
0.0
 40
0.0
 40
0.0
 40
0.0
 40
1.0
 40
1.0
 40
1.0
 40
1.0
 10
40.66138072688089
 20
4.065503415378123
 30
0.0
 10
40.74227387273314
 20
3.983604111967757
 30
0.0
 10
40.84491576225611
 20
3.91920940235013
 30
0.0
 10
40.92782477007218
 20
3.897502609987737
 30
0.0
  0
SPLINE
  5
19E
330
1F
100
AcDbEntity
  8
외형선
  6
Continuous
 62
     1
370
    15
100
AcDbSpline
210
0.0
220
0.0
230
1.0
 70
     8
 71
     3
 72
     8
 73
     4
 74
     0
 42
0.000000001
 43
0.00000001
 40
0.0
 40
0.0
 40
0.0
 40
0.0
 40
1.0
 40
1.0
 40
1.0
 40
1.0
 10
40.92782477007219
 20
3.897502609987752
 30
0.0
 10
41.05738988416749
 20
3.863580565771342
 30
0.0
 10
41.19941722726622
 20
3.796285094580445
 30
0.0
 10
41.34368155325005
 20
3.709237059840394
 30
0.0
  0
SPLINE
  5
19F
330
1F
100
AcDbEntity
  8
외형선
  6
Continuous
 62
     1
370
    15
100
AcDbSpline
210
0.0
220
0.0
230
1.0
 70
     8
 71
     3
 72
     8
 73
     4
 74
     0
 42
0.000000001
 43
0.00000001
 40
0.0
 40
0.0
 40
0.0
 40
0.0
 40
1.0
 40
1.0
 40
1.0
 40
1.0
 10
41.34368155276553
 20
3.709237060192653
 30
0.0
 10
41.48927968929712
 20
3.603406196486124
 30
0.0
 10
41.63147416872086
 20
3.482605931380799
 30
0.0
 10
41.75881503082157
 20
3.355558848180392
 30
0.0
  0
SPLINE
  5
1A0
330
1F
100
AcDbEntity
  8
외형선
  6
Continuous
 62
     1
370
    15
100
AcDbSpline
210
0.0
220
0.0
230
1.0
 70
     8
 71
     3
 72
     8
 73
     4
 74
     0
 42
0.000000001
 43
0.00000001
 40
0.0
 40
0.0
 40
0.0
 40
0.0
 40
1.0
 40
1.0
 40
1.0
 40
1.0
 10
41.75881503082159
 20
3.355558848180358
 30
0.0
 10
41.8393119599303
 20
3.275247627719462
 30
0.0
 10
41.94188848493673
 20
3.20680935487171
 30
0.0
 10
42.02519884580346
 20
3.176216366720309
 30
0.0
  0
SPLINE
  5
1A1
330
1F
100
AcDbEntity
  8
외형선
  6
Continuous
 62
     1
370
    15
100
AcDbSpline
210
0.0
220
0.0
230
1.0
 70
     8
 71
     3
 72
    14
 73
    10
 74
     0
 42
0.000000001
 43
0.00000001
 40
0.0
 40
0.0
 40
0.0
 40
0.0
 40
0.2499999999999955
 40
0.2499999999999955
 40
0.499999999999997
 40
0.499999999999997
 40
0.7499999999999984
 40
0.7499999999999984
 40
1.0
 40
1.0
 40
1.0
 40
1.0
 10
42.02519884580346
 20
3.176216366720298
 30
0.0
 10
42.10719385729739
 20
3.146106397335817
 30
0.0
 10
42.19221754857713
 20
3.104658447984547
 30
0.0
 10
42.3687676768472
 20
3.004444419686742
 30
0.0
 10
42.4598568045303
 20
2.945771871288787
 30
0.0
 10
42.64169274060443
 20
2.817711182767849
 30
0.0
 10
42.7303481400532
 20
2.749941239630035
 30
0.0
 10
42.90389600623925
 20
2.607899898558813
 30
0.0
 10
42.9895158595243
 20
2.532876197546325
 30
0.0
 10
43.06914209432166
 20
2.457394606737662
 30
0.0
  0
SPLINE
  5
1A2
330
1F
100
AcDbEntity
  8
외형선
  6
Continuous
 62
     1
370
    15
100
AcDbSpline
210
0.0
220
0.0
230
1.0
 70
     8
 71
     3
 72
     8
 73
     4
 74
     0
 42
0.000000001
 43
0.00000001
 40
0.0
 40
0.0
 40
0.0
 40
0.0
 40
1.0
 40
1.0
 40
1.0
 40
1.0
 10
43.06914209432095
 20
2.457394606738338
 30
0.0
 10
43.1500632650916
 20
2.380685482975141
 30
0.0
 10
43.25273070345933
 20
2.309564701495125
 30
0.0
 10
43.33565931630066
 20
2.270732433347435
 30
0.0
  0
SPLINE
  5
1A3
330
1F
100
AcDbEntity
  8
외형선
  6
Continuous
 62
     1
370
    15
100
AcDbSpline
210
0.0
220
0.0
230
1.0
 70
     8
 71
     3
 72
     8
 73
     4
 74
     0
 42
0.000000001
 43
0.00000001
 40
0.0
 40
0.0
 40
0.0
 40
0.0
 40
1.0
 40
1.0
 40
1.0
 40
1.0
 10
43.33565931630066
 20
2.270732433347434
 30
0.0
 10
43.46530988570861
 20
2.210022076520619
 30
0.0
 10
43.60741536675569
 20
2.122515917154804
 30
0.0
 10
43.75172760008428
 20
2.022600444370091
 30
0.0
  0
SPLINE
  5
1A4
330
1F
100
AcDbEntity
  8
외형선
  6
Continuous
 62
     1
370
    15
100
AcDbSpline
210
0.0
220
0.0
230
1.0
 70
     8
 71
     3
 72
     8
 73
     4
 74
     0
 42
0.000000001
 43
0.00000001
 40
0.0
 40
0.0
 40
0.0
 40
0.0
 40
1.0
 40
1.0
 40
1.0
 40
1.0
 10
43.75172759959892
 20
2.022600444740671
 30
0.0
 10
43.8974517069491
 20
1.911351552806365
 30
0.0
 10
44.03975110450854
 20
1.793133519644433
 30
0.0
 10
44.16721165616472
 20
1.677381146544361
 30
0.0
  0
SPLINE
  5
1A5
330
1F
100
AcDbEntity
  8
외형선
  6
Continuous
 62
     1
370
    15
100
AcDbSpline
210
0.0
220
0.0
230
1.0
 70
     8
 71
     3
 72
     8
 73
     4
 74
     0
 42
0.000000001
 43
0.00000001
 40
0.0
 40
0.0
 40
0.0
 40
0.0
 40
1.0
 40
1.0
 40
1.0
 40
1.0
 10
44.16721165616472
 20
1.677381146544356
 30
0.0
 10
44.24781854477575
 20
1.604178586821343
 30
0.0
 10
44.35047045906755
 20
1.530661875651862
 30
0.0
 10
44.43388333705589
 20
1.483749061658793
 30
0.0
  0
SPLINE
  5
1A6
330
1F
100
AcDbEntity
  8
외형선
  6
Continuous
 62
     1
370
    15
100
AcDbSpline
210
0.0
220
0.0
230
1.0
 70
     8
 71
     3
 72
    14
 73
    10
 74
     0
 42
0.000000001
 43
0.00000001
 40
0.0
 40
0.0
 40
0.0
 40
0.0
 40
0.2499999999999995
 40
0.2499999999999995
 40
0.4999999999999997
 40
0.4999999999999997
 40
0.7499999999999998
 40
0.7499999999999998
 40
1.0
 40
1.0
 40
1.0
 40
1.0
 10
44.43388333705586
 20
1.483749061658804
 30
0.0
 10
44.51593939863494
 20
1.437599344172719
 30
0.0
 10
44.60106953454638
 20
1.383392762740923
 30
0.0
 10
44.77790880538146
 20
1.263284164452391
 30
0.0
 10
44.869147868379
 20
1.197546256725851
 30
0.0
 10
45.05125479733664
 20
1.06163684982892
 30
0.0
 10
45.14004240969535
 20
0.9930889201215936
 30
0.0
 10
45.31384640177748
 20
0.8557221665595578
 30
0.0
 10
45.39958578682412
 20
0.7862835831524675
 30
0.0
 10
45.47932098225645
 20
0.7197697917638642
 30
0.0
  0
SPLINE
  5
1A7
330
1F
100
AcDbEntity
  8
외형선
  6
Continuous
 62
     1
370
    15
100
AcDbSpline
210
0.0
220
0.0
230
1.0
 70
     8
 71
     3
 72
     8
 73
     4
 74
     0
 42
0.000000001
 43
0.00000001
 40
0.0
 40
0.0
 40
0.0
 40
0.0
 40
1.0
 40
1.0
 40
1.0
 40
1.0
 10
45.47932098225645
 20
0.7197697917638513
 30
0.0
 10
45.56032604671861
 20
0.6521966964720793
 30
0.0
 10
45.6630585555621
 20
0.5779840573082995
 30
0.0
 10
45.74605306174026
 20
0.5239796498611488
 30
0.0
  0
SPLINE
  5
1A8
330
1F
100
AcDbEntity
  8
외형선
  6
Continuous
 62
     1
370
    15
100
AcDbSpline
210
0.0
220
0.0
230
1.0
 70
     8
 71
     3
 72
     8
 73
     4
 74
     0
 42
0.000000001
 43
0.00000001
 40
0.0
 40
0.0
 40
0.0
 40
0.0
 40
1.0
 40
1.0
 40
1.0
 40
1.0
 10
45.74605306174026
 20
0.5239796498611371
 30
0.0
 10
45.87577369359323
 20
0.4395706187157304
 30
0.0
 10
46.01792002700864
 20
0.3363821605250766
 30
0.0
 10
46.16224969185896
 20
0.228765347166823
 30
0.0
  0
SPLINE
  5
1A9
330
1F
100
AcDbEntity
  8
외형선
  6
Continuous
 62
     1
370
    15
100
AcDbSpline
210
0.0
220
0.0
230
1.0
 70
     8
 71
     3
 72
     8
 73
     4
 74
     0
 42
0.000000001
 43
0.00000001
 40
0.0
 40
0.0
 40
0.0
 40
0.0
 40
1.0
 40
1.0
 40
1.0
 40
1.0
 10
46.16224969137473
 20
0.2287653475351384
 30
0.0
 10
46.30794950785699
 20
0.1179448404023335
 30
0.0
 10
46.450208090172
 20
0.0085245291056451
 30
0.0
 10
46.57761054780568
 20
-0.0898195298996614
 30
0.0
  0
SPLINE
  5
1AA
330
1F
100
AcDbEntity
  8
외형선
  6
Continuous
 62
     1
370
    15
100
AcDbSpline
210
0.0
220
0.0
230
1.0
 70
     8
 71
     3
 72
     8
 73
     4
 74
     0
 42
0.000000001
 43
0.00000001
 40
0.0
 40
0.0
 40
0.0
 40
0.0
 40
1.0
 40
1.0
 40
1.0
 40
1.0
 10
46.57761054780568
 20
-0.0898195298996562
 30
0.0
 10
46.65812863890811
 20
-0.1519727728546713
 30
0.0
 10
46.76068689090407
 20
-0.2266428315278351
 30
0.0
 10
46.84408210920066
 20
-0.2871625169052897
 30
0.0
  0
SPLINE
  5
1AB
330
1F
100
AcDbEntity
  8
외형선
  6
Continuous
 62
     1
370
    15
100
AcDbSpline
210
0.0
220
0.0
230
1.0
 70
     8
 71
     3
 72
     8
 73
     4
 74
     0
 42
0.000000001
 43
0.00000001
 40
0.0
 40
0.0
 40
0.0
 40
0.0
 40
1.0
 40
1.0
 40
1.0
 40
1.0
 10
47.88810960006637
 20
-1.054328418202531
 30
0.0
 10
47.9690086833491
 20
-1.109137718273851
 30
0.0
 10
48.07164355744207
 20
-1.18248690511874
 30
0.0
 10
48.15452488324128
 20
-1.248736485464288
 30
0.0
  0
SPLINE
  5
1AC
330
1F
100
AcDbEntity
  8
외형선
  6
Continuous
 62
     1
370
    15
100
AcDbSpline
210
0.0
220
0.0
230
1.0
 70
     8
 71
     3
 72
     8
 73
     4
 74
     0
 42
0.000000001
 43
0.00000001
 40
0.0
 40
0.0
 40
0.0
 40
0.0
 40
1.0
 40
1.0
 40
1.0
 40
1.0
 10
48.15452488324129
 20
-1.248736485464295
 30
0.0
 10
48.28412724175712
 20
-1.352331617186344
 30
0.0
 10
48.42615273068169
 20
-1.465737815054717
 30
0.0
 10
48.57033676402739
 20
-1.575365512628994
 30
0.0
  0
SPLINE
  5
1AD
330
1F
100
AcDbEntity
  8
외형선
  6
Continuous
 62
     1
370
    15
100
AcDbSpline
210
0.0
220
0.0
230
1.0
 70
     8
 71
     3
 72
     8
 73
     4
 74
     0
 42
0.000000001
 43
0.00000001
 40
0.0
 40
0.0
 40
0.0
 40
0.0
 40
1.0
 40
1.0
 40
1.0
 40
1.0
 10
48.98543062233874
 20
-1.850646944854991
 30
0.0
 10
49.06589186686553
 20
-1.898435731157361
 30
0.0
 10
49.16846886632359
 20
-1.970146140108979
 30
0.0
 10
49.25183576272923
 20
-2.041110322715845
 30
0.0
  0
SPLINE
  5
1AE
330
1F
100
AcDbEntity
  8
외형선
  6
Continuous
 62
     1
370
    15
100
AcDbSpline
210
0.0
220
0.0
230
1.0
 70
     8
 71
     3
 72
     8
 73
     4
 74
     0
 42
0.000000001
 43
0.00000001
 40
0.0
 40
0.0
 40
0.0
 40
0.0
 40
1.0
 40
1.0
 40
1.0
 40
1.0
 10
50.29611422229007
 20
-2.773039692077989
 30
0.0
 10
50.37708625015891
 20
-2.812381293028264
 30
0.0
 10
50.47977408341116
 20
-2.881186439053593
 30
0.0
 10
50.56272123219954
 20
-2.956377858350633
 30
0.0
  0
SPLINE
  5
1AF
330
1F
100
AcDbEntity
  8
외형선
  6
Continuous
 62
     1
370
    15
100
AcDbSpline
210
0.0
220
0.0
230
1.0
 70
     8
 71
     3
 72
     8
 73
     4
 74
     0
 42
0.000000001
 43
0.00000001
 40
0.0
 40
0.0
 40
0.0
 40
0.0
 40
1.0
 40
1.0
 40
1.0
 40
1.0
 10
51.39459383999161
 20
-3.515830881887444
 30
0.0
 10
51.47520930359119
 20
-3.546836603762884
 30
0.0
 10
51.57793140467089
 20
-3.612018554799842
 30
0.0
 10
51.66144029962399
 20
-3.68988503145311
 30
0.0
  0
SPLINE
  5
1B0
330
1F
100
AcDbEntity
  8
외형선
  6
Continuous
 62
     1
370
    15
100
AcDbSpline
210
0.0
220
0.0
230
1.0
 70
     8
 71
     3
 72
     8
 73
     4
 74
     0
 42
0.000000001
 43
0.00000001
 40
0.0
 40
0.0
 40
0.0
 40
0.0
 40
1.0
 40
1.0
 40
1.0
 40
1.0
 10
52.70663231379358
 20
-4.349109702409818
 30
0.0
 10
52.76010393156577
 20
-4.363488137874892
 30
0.0
 10
52.82236582686625
 20
-4.394899699054737
 30
0.0
 10
52.88315201100339
 20
-4.437605048689144
 30
0.0
  0
SPLINE
  5
1B1
330
1F
100
AcDbEntity
  8
외형선
  6
Continuous
 62
     1
370
    15
100
AcDbSpline
210
0.0
220
0.0
230
1.0
 70
     8
 71
     3
 72
     9
 73
     5
 74
     0
 42
0.000000001
 43
0.00000001
 40
0.0
 40
0.0
 40
0.0
 40
0.0
 40
0.2587893853788945
 40
1.0
 40
1.0
 40
1.0
 40
1.0
 10
51.1498007487059
 20
-3.399906157260776
 30
0.0
 10
51.10327092407678
 20
-3.412712593868619
 30
0.0
 10
50.92347288266561
 20
-3.462198536227085
 30
0.0
 10
50.72522152607495
 20
-3.549539694886676
 30
0.0
 10
50.5782755162069
 20
-3.61427788877847
 30
0.0
  0
LINE
  5
1B2
330
1F
100
AcDbEntity
  8
외형선
  6
Continuous
 62
     1
370
    15
100
AcDbLine
 10
53.27499999997966
 20
-4.302289398704175
 30
0.0
 11
53.20072358585027
 21
-4.288126140166775
 31
0.0
  0
SPLINE
  5
1B3
330
1F
100
AcDbEntity
  8
외형선
  6
Continuous
 62
     1
370
    15
100
AcDbSpline
210
0.0
220
0.0
230
1.0
 70
     8
 71
     3
 72
     9
 73
     5
 74
     0
 42
0.000000001
 43
0.00000001
 40
0.0
 40
0.0
 40
0.0
 40
0.0
 40
0.1552680877998937
 40
1.0
 40
1.0
 40
1.0
 40
1.0
 10
52.17106601919019
 20
-4.091787820761739
 30
0.0
 10
52.08700336009024
 20
-4.076585143400929
 30
0.0
 10
51.54560003445451
 20
-3.978672703206508
 30
0.0
 10
51.02122870881622
 20
-3.781140036254673
 30
0.0
 10
50.5782755162069
 20
-3.614277888778464
 30
0.0
  0
LINE
  5
1B4
330
1F
100
AcDbEntity
  8
외형선
  6
Continuous
 62
     1
370
    15
100
AcDbLine
 10
53.27499999997966
 20
-7.12828482842112
 30
0.0
 11
53.27499999997966
 21
-4.302289398704176
 31
0.0
  0
SPLINE
  5
1B5
330
1F
100
AcDbEntity
  8
외형선
  6
Continuous
 62
     1
370
    15
100
AcDbSpline
210
0.0
220
0.0
230
1.0
 70
     8
 71
     3
 72
     8
 73
     4
 74
     0
 42
0.000000001
 43
0.00000001
 40
0.0001204757681304
 40
0.0001204757681304
 40
0.0001204757681304
 40
0.0001204757681304
 40
0.0003154492149641
 40
0.0003154492149641
 40
0.0003154492149641
 40
0.0003154492149641
 10
53.15105052025845
 20
-7.275513732177226
 30
0.0
 10
53.19218530287381
 20
-7.226465527085405
 30
0.0
 10
53.23350411867789
 20
-7.177378008058381
 30
0.0
 10
53.27499999997967
 20
-7.128284828421784
 30
0.0
  0
SPLINE
  5
1B6
330
1F
100
AcDbEntity
  8
외형선
  6
Continuous
 62
     1
370
    15
100
AcDbSpline
210
0.0
220
0.0
230
1.0
 70
     8
 71
     3
 72
     8
 73
     4
 74
     0
 42
0.000000001
 43
0.00000001
 40
0.0
 40
0.0
 40
0.0
 40
0.0
 40
1.0
 40
1.0
 40
1.0
 40
1.0
 10
53.15105052025847
 20
-7.275513732177236
 30
0.0
 10
53.06370785776294
 20
-7.336138081751504
 30
0.0
 10
52.97290838274255
 20
-7.384466715285709
 30
0.0
 10
52.88117205821503
 20
-7.419603695919923
 30
0.0
  0
SPLINE
  5
1B7
330
1F
100
AcDbEntity
  8
외형선
  6
Continuous
 62
     1
370
    15
100
AcDbSpline
210
0.0
220
0.0
230
1.0
 70
     8
 71
     3
 72
     8
 73
     4
 74
     0
 42
0.000000001
 43
0.00000001
 40
0.0
 40
0.0
 40
0.0
 40
0.0
 40
1.0
 40
1.0
 40
1.0
 40
1.0
 10
52.88117205975439
 20
-7.419603695684947
 30
0.0
 10
52.73561335606362
 20
-7.441821754050042
 30
0.0
 10
52.59334565874806
 20
-7.428706428133616
 30
0.0
 10
52.46587946213998
 20
-7.377200373904896
 30
0.0
  0
SPLINE
  5
1B8
330
1F
100
AcDbEntity
  8
외형선
  6
Continuous
 62
     1
370
    15
100
AcDbSpline
210
0.0
220
0.0
230
1.0
 70
     8
 71
     3
 72
     8
 73
     4
 74
     0
 42
0.000000001
 43
0.00000001
 40
0.0
 40
0.0
 40
0.0
 40
0.0
 40
1.0
 40
1.0
 40
1.0
 40
1.0
 10
52.46587946213997
 20
-7.377200373904896
 30
0.0
 10
52.38535513152407
 20
-7.344662409724586
 30
0.0
 10
52.28270688123453
 20
-7.365522234568895
 30
0.0
 10
52.19931762621374
 20
-7.435856872722246
 30
0.0
  0
SPLINE
  5
1B9
330
1F
100
AcDbEntity
  8
외형선
  6
Continuous
 62
     1
370
    15
100
AcDbSpline
210
0.0
220
0.0
230
1.0
 70
     8
 71
     3
 72
    14
 73
    10
 74
     0
 42
0.000000001
 43
0.00000001
 40
0.0
 40
0.0
 40
0.0
 40
0.0
 40
0.2500000000000002
 40
0.2500000000000002
 40
0.5000000000000003
 40
0.5000000000000003
 40
0.7500000000000001
 40
0.7500000000000001
 40
1.0
 40
1.0
 40
1.0
 40
1.0
 10
52.19931762621374
 20
-7.435856872722243
 30
0.0
 10
52.11719668813642
 20
-7.505121749390606
 30
0.0
 10
52.0319880118811
 20
-7.560337259824538
 30
0.0
 10
51.85504039521025
 20
-7.646549543690466
 30
0.0
 10
51.76378415599397
 20
-7.676865244512419
 30
0.0
 10
51.58176545198981
 20
-7.709879582377757
 30
0.0
 10
51.49306630191617
 20
-7.712535866677675
 30
0.0
 10
51.3195032787883
 20
-7.690492044771822
 30
0.0
 10
51.23392661198083
 20
-7.665227248734793
 30
0.0
 10
51.15434281930317
 20
-7.625184078342394
 30
0.0
  0
SPLINE
  5
1BA
330
1F
100
AcDbEntity
  8
외형선
  6
Continuous
 62
     1
370
    15
100
AcDbSpline
210
0.0
220
0.0
230
1.0
 70
     8
 71
     3
 72
     8
 73
     4
 74
     0
 42
0.000000001
 43
0.00000001
 40
0.0
 40
0.0
 40
0.0
 40
0.0
 40
1.0
 40
1.0
 40
1.0
 40
1.0
 10
51.15434281930317
 20
-7.62518407834239
 30
0.0
 10
51.07329440681865
 20
-7.58440397372616
 30
0.0
 10
50.97059948587267
 20
-7.597199008061405
 30
0.0
 10
50.88752460261348
 20
-7.663091048694271
 30
0.0
  0
SPLINE
  5
1BB
330
1F
100
AcDbEntity
  8
외형선
  6
Continuous
 62
     1
370
    15
100
AcDbSpline
210
0.0
220
0.0
230
1.0
 70
     8
 71
     3
 72
     8
 73
     4
 74
     0
 42
0.000000001
 43
0.00000001
 40
0.0
 40
0.0
 40
0.0
 40
0.0
 40
1.0
 40
1.0
 40
1.0
 40
1.0
 10
50.88752460261348
 20
-7.663091048694278
 30
0.0
 10
50.75778104017816
 20
-7.765999024636514
 30
0.0
 10
50.61558478667708
 20
-7.833541062761504
 30
0.0
 10
50.47107951154828
 20
-7.865885865969813
 30
0.0
  0
SPLINE
  5
1BC
330
1F
100
AcDbEntity
  8
외형선
  6
Continuous
 62
     1
370
    15
100
AcDbSpline
210
0.0
220
0.0
230
1.0
 70
     8
 71
     3
 72
     8
 73
     4
 74
     0
 42
0.000000001
 43
0.00000001
 40
0.0
 40
0.0
 40
0.0
 40
0.0
 40
1.0
 40
1.0
 40
1.0
 40
1.0
 10
50.47107951308901
 20
-7.865885866003702
 30
0.0
 10
50.3253854775777
 20
-7.862677443497867
 30
0.0
 10
50.18299959458172
 20
-7.822669380058699
 30
0.0
 10
50.05543848120627
 20
-7.744903079996578
 30
0.0
  0
SPLINE
  5
1BD
330
1F
100
AcDbEntity
  8
외형선
  6
Continuous
 62
     1
370
    15
100
AcDbSpline
210
0.0
220
0.0
230
1.0
 70
     8
 71
     3
 72
     8
 73
     4
 74
     0
 42
0.000000001
 43
0.00000001
 40
0.0
 40
0.0
 40
0.0
 40
0.0
 40
1.0
 40
1.0
 40
1.0
 40
1.0
 10
50.05543848120629
 20
-7.74490307999658
 30
0.0
 10
49.97487581499405
 20
-7.695788892226639
 30
0.0
 10
49.872201591303
 20
-7.699892834643375
 30
0.0
 10
49.78879206054367
 20
-7.759473102817894
 30
0.0
  0
SPLINE
  5
1BE
330
1F
100
AcDbEntity
  8
외형선
  6
Continuous
 62
     1
370
    15
100
AcDbSpline
210
0.0
220
0.0
230
1.0
 70
     8
 71
     3
 72
    14
 73
    10
 74
     0
 42
0.000000001
 43
0.00000001
 40
0.0
 40
0.0
 40
0.0
 40
0.0
 40
0.25
 40
0.25
 40
0.5
 40
0.5
 40
0.75
 40
0.75
 40
1.0
 40
1.0
 40
1.0
 40
1.0
 10
49.78879206054359
 20
-7.759473102817962
 30
0.0
 10
49.70669321773492
 20
-7.818117133384164
 30
0.0
 10
49.62151733632106
 20
-7.860909285644022
 30
0.0
 10
49.44465754877996
 20
-7.919634500396282
 30
0.0
 10
49.35345523185821
 20
-7.934931817975393
 30
0.0
 10
49.17155115171593
 20
-7.936930689885584
 30
0.0
 10
49.0829192120928
 20
-7.923956904041463
 30
0.0
 10
48.90950864589898
 20
-7.870609375469531
 30
0.0
 10
48.82402635241503
 20
-7.829540228956031
 30
0.0
 10
48.74448055203216
 20
-7.774322143261406
 30
0.0
  0
SPLINE
  5
1BF
330
1F
100
AcDbEntity
  8
외형선
  6
Continuous
 62
     1
370
    15
100
AcDbSpline
210
0.0
220
0.0
230
1.0
 70
     8
 71
     3
 72
     8
 73
     4
 74
     0
 42
0.000000001
 43
0.00000001
 40
0.0
 40
0.0
 40
0.0
 40
0.0
 40
1.0
 40
1.0
 40
1.0
 40
1.0
 10
48.74448055203216
 20
-7.77432214326141
 30
0.0
 10
48.66359861891922
 20
-7.718176558047855
 30
0.0
 10
48.56098185105724
 20
-7.713915041867846
 30
0.0
 10
48.47805174030194
 20
-7.767294502576218
 30
0.0
  0
SPLINE
  5
1C0
330
1F
100
AcDbEntity
  8
외형선
  6
Continuous
 62
     1
370
    15
100
AcDbSpline
210
0.0
220
0.0
230
1.0
 70
     8
 71
     3
 72
     8
 73
     4
 74
     0
 42
0.000000001
 43
0.00000001
 40
0.0
 40
0.0
 40
0.0
 40
0.0
 40
1.0
 40
1.0
 40
1.0
 40
1.0
 10
48.47805174030189
 20
-7.767294502576232
 30
0.0
 10
48.34851488936546
 20
-7.850673231747962
 30
0.0
 10
48.20650500591732
 20
-7.894529161273473
 30
0.0
 10
48.06220160994781
 20
-7.902280940874665
 30
0.0
  0
SPLINE
  5
1C1
330
1F
100
AcDbEntity
  8
외형선
  6
Continuous
 62
     1
370
    15
100
AcDbSpline
210
0.0
220
0.0
230
1.0
 70
     8
 71
     3
 72
     8
 73
     4
 74
     0
 42
0.000000001
 43
0.00000001
 40
0.0
 40
0.0
 40
0.0
 40
0.0
 40
1.0
 40
1.0
 40
1.0
 40
1.0
 10
48.06220161148671
 20
-7.902280941175347
 30
0.0
 10
47.91664377584388
 20
-7.873841701529239
 30
0.0
 10
47.77442980506812
 20
-7.809015999703985
 30
0.0
 10
47.64705336258547
 20
-7.709117236732125
 30
0.0
  0
SPLINE
  5
1C2
330
1F
100
AcDbEntity
  8
외형선
  6
Continuous
 62
     1
370
    15
100
AcDbSpline
210
0.0
220
0.0
230
1.0
 70
     8
 71
     3
 72
     8
 73
     4
 74
     0
 42
0.000000001
 43
0.00000001
 40
0.0
 40
0.0
 40
0.0
 40
0.0
 40
1.0
 40
1.0
 40
1.0
 40
1.0
 10
47.64705336258547
 20
-7.70911723673213
 30
0.0
 10
47.56657089872665
 20
-7.645996471041739
 30
0.0
 10
47.46397132888072
 20
-7.633176646730588
 30
0.0
 10
47.38064903021618
 20
-7.678887879421485
 30
0.0
  0
SPLINE
  5
1C3
330
1F
100
AcDbEntity
  8
외형선
  6
Continuous
 62
     1
370
    15
100
AcDbSpline
210
0.0
220
0.0
230
1.0
 70
     8
 71
     3
 72
    14
 73
    10
 74
     0
 42
0.000000001
 43
0.00000001
 40
0.0
 40
0.0
 40
0.0
 40
0.0
 40
0.25
 40
0.25
 40
0.5
 40
0.5
 40
0.75
 40
0.75
 40
1.0
 40
1.0
 40
1.0
 40
1.0
 10
47.38064903021618
 20
-7.678887879421485
 30
0.0
 10
47.29858777171847
 20
-7.723907296098871
 30
0.0
 10
47.213450835394
 20
-7.752067546043708
 30
0.0
 10
47.03667728054867
 20
-7.780248774401969
 30
0.0
 10
46.94553038143123
 20
-7.779710003325856
 30
0.0
 10
46.76375430160223
 20
-7.750548229828323
 30
0.0
 10
46.67521713157591
 20
-7.722601816840738
 30
0.0
 10
46.50186967129051
 20
-7.640736463629446
 30
0.0
 10
46.4163274468482
 20
-7.585998481982558
 30
0.0
 10
46.33675384425939
 20
-7.518557589239712
 30
0.0
  0
SPLINE
  5
1C4
330
1F
100
AcDbEntity
  8
외형선
  6
Continuous
 62
     1
370
    15
100
AcDbSpline
210
0.0
220
0.0
230
1.0
 70
     8
 71
     3
 72
     8
 73
     4
 74
     0
 42
0.000000001
 43
0.00000001
 40
0.0
 40
0.0
 40
0.0
 40
0.0
 40
1.0
 40
1.0
 40
1.0
 40
1.0
 10
46.33675384425939
 20
-7.518557589239721
 30
0.0
 10
46.25585363967271
 20
-7.449992363550535
 30
0.0
 10
46.15321037553539
 20
-7.429017577439828
 30
0.0
 10
46.07027187029078
 20
-7.467170271961945
 30
0.0
  0
SPLINE
  5
1C5
330
1F
100
AcDbEntity
  8
외형선
  6
Continuous
 62
     1
370
    15
100
AcDbSpline
210
0.0
220
0.0
230
1.0
 70
     8
 71
     3
 72
     8
 73
     4
 74
     0
 42
0.000000001
 43
0.00000001
 40
0.0
 40
0.0
 40
0.0
 40
0.0
 40
1.0
 40
1.0
 40
1.0
 40
1.0
 10
46.07027187029077
 20
-7.467170271961947
 30
0.0
 10
45.9406668467042
 20
-7.526790117519158
 30
0.0
 10
45.79858700849985
 20
-7.544719233710091
 30
0.0
 10
45.6542404323533
 20
-7.527514921523242
 30
0.0
  0
SPLINE
  5
1C6
330
1F
100
AcDbEntity
  8
외형선
  6
Continuous
 62
     1
370
    15
100
AcDbSpline
210
0.0
220
0.0
230
1.0
 70
     8
 71
     3
 72
     8
 73
     4
 74
     0
 42
0.000000001
 43
0.00000001
 40
0.0
 40
0.0
 40
0.0
 40
0.0
 40
1.0
 40
1.0
 40
1.0
 40
1.0
 10
45.65424043390044
 20
-7.527514922076882
 30
0.0
 10
45.50856287362441
 20
-7.475346764809163
 30
0.0
 10
45.36625334079456
 20
-7.389092011071972
 30
0.0
 10
45.2387742838563
 20
-7.27221058631799
 30
0.0
  0
SPLINE
  5
1C7
330
1F
100
AcDbEntity
  8
외형선
  6
Continuous
 62
     1
370
    15
100
AcDbSpline
210
0.0
220
0.0
230
1.0
 70
     8
 71
     3
 72
     8
 73
     4
 74
     0
 42
0.000000001
 43
0.00000001
 40
0.0
 40
0.0
 40
0.0
 40
0.0
 40
1.0
 40
1.0
 40
1.0
 40
1.0
 10
45.23877428385632
 20
-7.272210586317997
 30
0.0
 10
45.15819244276028
 20
-7.198327702157941
 30
0.0
 10
45.05551676612892
 20
-7.169208289062048
 30
0.0
 10
44.97210296754101
 20
-7.198643098134845
 30
0.0
  0
SPLINE
  5
1C8
330
1F
100
AcDbEntity
  8
외형선
  6
Continuous
 62
     1
370
    15
100
AcDbSpline
210
0.0
220
0.0
230
1.0
 70
     8
 71
     3
 72
    14
 73
    10
 74
     0
 42
0.000000001
 43
0.00000001
 40
0.0
 40
0.0
 40
0.0
 40
0.0
 40
0.25
 40
0.25
 40
0.5
 40
0.5
 40
0.75
 40
0.75
 40
1.0
 40
1.0
 40
1.0
 40
1.0
 10
44.97210296754102
 20
-7.198643098134854
 30
0.0
 10
44.88993077144521
 20
-7.227639774273799
 30
0.0
 10
44.80469477583215
 20
-7.239628230297262
 30
0.0
 10
44.6277557828728
 20
-7.235651000402108
 30
0.0
 10
44.53654329234652
 20
-7.219231885346629
 30
0.0
 10
44.35463380895968
 20
-7.160298676775652
 30
0.0
 10
44.26591384069118
 20
-7.118824741817006
 30
0.0
 10
44.09219177191127
 20
-7.012645125186925
 30
0.0
 10
44.00647164330985
 20
-6.947066964877246
 30
0.0
 10
43.92673767244264
 20
-6.870861606273822
 30
0.0
  0
SPLINE
  5
1C9
330
1F
100
AcDbEntity
  8
외형선
  6
Continuous
 62
     1
370
    15
100
AcDbSpline
210
0.0
220
0.0
230
1.0
 70
     8
 71
     3
 72
     8
 73
     4
 74
     0
 42
0.000000001
 43
0.00000001
 40
0.0
 40
0.0
 40
0.0
 40
0.0
 40
1.0
 40
1.0
 40
1.0
 40
1.0
 10
43.92673767244264
 20
-6.870861606273809
 30
0.0
 10
43.84573548790767
 20
-6.793444158566003
 30
0.0
 10
43.74300208489474
 20
-6.756806636005511
 30
0.0
 10
43.65998098678483
 20
-6.777740648550423
 30
0.0
  0
SPLINE
  5
1CA
330
1F
100
AcDbEntity
  8
외형선
  6
Continuous
 62
     1
370
    15
100
AcDbSpline
210
0.0
220
0.0
230
1.0
 70
     8
 71
     3
 72
     8
 73
     4
 74
     0
 42
0.000000001
 43
0.00000001
 40
0.0
 40
0.0
 40
0.0
 40
0.0
 40
1.0
 40
1.0
 40
1.0
 40
1.0
 10
43.65998098678473
 20
-6.777740648550459
 30
0.0
 10
43.53028078484016
 20
-6.810444933562421
 30
0.0
 10
43.38812808249848
 20
-6.801499402032694
 30
0.0
 10
43.24373003090342
 20
-6.760195669183178
 30
0.0
  0
SPLINE
  5
1CB
330
1F
100
AcDbEntity
  8
외형선
  6
Continuous
 62
     1
370
    15
100
AcDbSpline
210
0.0
220
0.0
230
1.0
 70
     8
 71
     3
 72
     8
 73
     4
 74
     0
 42
0.000000001
 43
0.00000001
 40
0.0
 40
0.0
 40
0.0
 40
0.0
 40
1.0
 40
1.0
 40
1.0
 40
1.0
 10
43.24373003244381
 20
-6.760195669957102
 30
0.0
 10
43.09804231208085
 20
-6.68699956712901
 30
0.0
 10
42.95574067611538
 20
-6.583793028210053
 30
0.0
 10
42.82829187496081
 20
-6.455965707232268
 30
0.0
  0
SPLINE
  5
1CC
330
1F
100
AcDbEntity
  8
외형선
  6
Continuous
 62
     1
370
    15
100
AcDbSpline
210
0.0
220
0.0
230
1.0
 70
     8
 71
     3
 72
     8
 73
     4
 74
     0
 42
0.000000001
 43
0.00000001
 40
0.0
 40
0.0
 40
0.0
 40
0.0
 40
1.0
 40
1.0
 40
1.0
 40
1.0
 10
42.82829187496083
 20
-6.455965707232284
 30
0.0
 10
42.74775081609548
 20
-6.375185443391397
 30
0.0
 10
42.64512900702923
 20
-6.331244403532113
 30
0.0
 10
42.56177266080016
 20
-6.342853176943797
 30
0.0
  0
SPLINE
  5
1CD
330
1F
100
AcDbEntity
  8
외형선
  6
Continuous
 62
     1
370
    15
100
AcDbSpline
210
0.0
220
0.0
230
1.0
 70
     8
 71
     3
 72
    14
 73
    10
 74
     0
 42
0.000000001
 43
0.00000001
 40
0.0
 40
0.0
 40
0.0
 40
0.0
 40
0.2499999999999955
 40
0.2499999999999955
 40
0.499999999999997
 40
0.499999999999997
 40
0.7499999999999984
 40
0.7499999999999984
 40
1.0
 40
1.0
 40
1.0
 40
1.0
 10
42.56177266080017
 20
-6.342853176943794
 30
0.0
 10
42.47974476007259
 20
-6.354276941972627
 30
0.0
 10
42.3946682730855
 20
-6.349491126327194
 30
0.0
 10
42.21807828760292
 20
-6.313642800685198
 30
0.0
 10
42.12702990634226
 20
-6.28228697912504
 30
0.0
 10
41.94521612323625
 20
-6.196934397520296
 30
0.0
 10
41.85656641679475
 20
-6.144176214379675
 30
0.0
 10
41.68302259888779
 20
-6.019414951328187
 30
0.0
 10
41.59740024687785
 20
-5.946518088212715
 30
0.0
 10
41.51777377723423
 20
-5.865653369055132
 30
0.0
  0
SPLINE
  5
1CE
330
1F
100
AcDbEntity
  8
외형선
  6
Continuous
 62
     1
370
    15
100
AcDbSpline
210
0.0
220
0.0
230
1.0
 70
     8
 71
     3
 72
     8
 73
     4
 74
     0
 42
0.000000001
 43
0.00000001
 40
0.0
 40
0.0
 40
0.0
 40
0.0
 40
1.0
 40
1.0
 40
1.0
 40
1.0
 10
41.51777377723421
 20
-5.865653369055116
 30
0.0
 10
41.43688738700423
 20
-5.783509136629736
 30
0.0
 10
41.3342507223209
 20
-5.733231657013683
 30
0.0
 10
41.25135396259309
 20
-5.735922842747733
 30
0.0
  0
SPLINE
  5
1CF
330
1F
100
AcDbEntity
  8
외형선
  6
Continuous
 62
     1
370
    15
100
AcDbSpline
210
0.0
220
0.0
230
1.0
 70
     8
 71
     3
 72
     8
 73
     4
 74
     0
 42
0.000000001
 43
0.00000001
 40
0.0
 40
0.0
 40
0.0
 40
0.0
 40
1.0
 40
1.0
 40
1.0
 40
1.0
 10
41.25135396259307
 20
-5.735922842747736
 30
0.0
 10
41.12178934430962
 20
-5.740129068099686
 30
0.0
 10
40.97976557042568
 20
-5.704865473822712
 30
0.0
 10
40.83551753551588
 20
-5.641693577056428
 30
0.0
  0
SPLINE
  5
1D0
330
1F
100
AcDbEntity
  8
외형선
  6
Continuous
 62
     1
370
    15
100
AcDbSpline
210
0.0
220
0.0
230
1.0
 70
     8
 71
     3
 72
     8
 73
     4
 74
     0
 42
0.000000001
 43
0.00000001
 40
0.0
 40
0.0
 40
0.0
 40
0.0
 40
1.0
 40
1.0
 40
1.0
 40
1.0
 10
40.83551753705494
 20
-5.641693578011812
 30
0.0
 10
40.68991146533124
 20
-5.551308779361563
 30
0.0
 10
40.54772104700952
 20
-5.436527065746882
 30
0.0
 10
40.42038361105942
 20
-5.304449749047474
 30
0.0
  0
SPLINE
  5
1D1
330
1F
100
AcDbEntity
  8
외형선
  6
Continuous
 62
     1
370
    15
100
AcDbSpline
210
0.0
220
0.0
230
1.0
 70
     8
 71
     3
 72
     8
 73
     4
 74
     0
 42
0.000000001
 43
0.00000001
 40
0.0
 40
0.0
 40
0.0
 40
0.0
 40
1.0
 40
1.0
 40
1.0
 40
1.0
 10
40.42038361105941
 20
-5.304449749047476
 30
0.0
 10
40.3398775590783
 20
-5.220947020691198
 30
0.0
 10
40.23730313715797
 20
-5.164469232080931
 30
0.0
 10
40.15398828169442
 20
-5.157617789782472
 30
0.0
  0
SPLINE
  5
1D2
330
1F
100
AcDbEntity
  8
외형선
  6
Continuous
 62
     1
370
    15
100
AcDbSpline
210
0.0
220
0.0
230
1.0
 70
     8
 71
     3
 72
    14
 73
    10
 74
     0
 42
0.000000001
 43
0.00000001
 40
0.0
 40
0.0
 40
0.0
 40
0.0
 40
0.25
 40
0.25
 40
0.5
 40
0.5
 40
0.75
 40
0.75
 40
1.0
 40
1.0
 40
1.0
 40
1.0
 10
40.15398828169441
 20
-5.157617789782463
 30
0.0
 10
40.07200845520646
 20
-5.150876134315442
 30
0.0
 10
39.98700828858263
 20
-5.129502798502682
 30
0.0
 10
39.81039639768899
 20
-5.063730207808718
 30
0.0
 10
39.71927367075429
 20
-5.019124242957324
 30
0.0
 10
39.53738402397293
 20
-4.911731057895768
 30
0.0
 10
39.44870661769137
 20
-4.850410877368635
 30
0.0
 10
39.27512226122001
 20
-4.713515118841554
 30
0.0
 10
39.18948861781641
 20
-4.637077928025155
 30
0.0
 10
39.10984949088441
 20
-4.5557366902653
 30
0.0
  0
SPLINE
  5
1D3
330
1F
100
AcDbEntity
  8
외형선
  6
Continuous
 62
     1
370
    15
100
AcDbSpline
210
0.0
220
0.0
230
1.0
 70
     8
 71
     3
 72
     8
 73
     4
 74
     0
 42
0.000000001
 43
0.00000001
 40
0.0
 40
0.0
 40
0.0
 40
0.0
 40
1.0
 40
1.0
 40
1.0
 40
1.0
 10
39.10984949088443
 20
-4.555736690265332
 30
0.0
 10
39.02890008979837
 20
-4.473057174128968
 30
0.0
 10
38.92620961512854
 20
-4.41167680212244
 30
0.0
 10
38.84325808298701
 20
-4.395919025834638
 30
0.0
  0
SPLINE
  5
1D4
330
1F
100
AcDbEntity
  8
외형선
  6
Continuous
 62
     1
370
    15
100
AcDbSpline
210
0.0
220
0.0
230
1.0
 70
     8
 71
     3
 72
     8
 73
     4
 74
     0
 42
0.000000001
 43
0.00000001
 40
0.0
 40
0.0
 40
0.0
 40
0.0
 40
1.0
 40
1.0
 40
1.0
 40
1.0
 10
38.84325808298698
 20
-4.395919025834639
 30
0.0
 10
38.71355388464247
 20
-4.371279942163302
 30
0.0
 10
38.57140262900381
 20
-4.31135868628097
 30
0.0
 10
38.42706014009349
 20
-4.229435539820884
 30
0.0
  0
SPLINE
  5
1D5
330
1F
100
AcDbEntity
  8
외형선
  6
Continuous
 62
     1
370
    15
100
AcDbSpline
210
0.0
220
0.0
230
1.0
 70
     8
 71
     3
 72
     8
 73
     4
 74
     0
 42
0.000000001
 43
0.00000001
 40
0.0
 40
0.0
 40
0.0
 40
0.0
 40
1.0
 40
1.0
 40
1.0
 40
1.0
 10
38.4270601416342
 20
-4.229435540910083
 30
0.0
 10
38.28127892859563
 20
-4.126375366438565
 30
0.0
 10
38.13893207466013
 20
-4.005796509677732
 30
0.0
 10
38.01141878979674
 20
-3.876102447230715
 30
0.0
  0
SPLINE
  5
1D6
330
1F
100
AcDbEntity
  8
외형선
  6
Continuous
 62
     1
370
    15
100
AcDbSpline
210
0.0
220
0.0
230
1.0
 70
     8
 71
     3
 72
     8
 73
     4
 74
     0
 42
0.000000001
 43
0.00000001
 40
0.0
 40
0.0
 40
0.0
 40
0.0
 40
1.0
 40
1.0
 40
1.0
 40
1.0
 10
38.01141878979675
 20
-3.876102447230744
 30
0.0
 10
37.93077376743489
 20
-3.794078204992398
 30
0.0
 10
37.82812159290049
 20
-3.727805887209502
 30
0.0
 10
37.74463430977089
 20
-3.702773787566506
 30
0.0
  0
SPLINE
  5
1D7
330
1F
100
AcDbEntity
  8
외형선
  6
Continuous
 62
     1
370
    15
100
AcDbSpline
210
0.0
220
0.0
230
1.0
 70
     8
 71
     3
 72
    14
 73
    10
 74
     0
 42
0.000000001
 43
0.00000001
 40
0.0
 40
0.0
 40
0.0
 40
0.0
 40
0.25
 40
0.25
 40
0.5
 40
0.5
 40
0.75
 40
0.75
 40
1.0
 40
1.0
 40
1.0
 40
1.0
 10
37.74463430977086
 20
-3.702773787566456
 30
0.0
 10
37.66258095649702
 20
-3.678171624959196
 30
0.0
 10
37.5774421024468
 20
-3.641434191200951
 30
0.0
 10
37.4006161771791
 20
-3.549126054630534
 30
0.0
 10
37.30938551527653
 20
-3.493522614731474
 30
0.0
 10
37.12729714022659
 20
-3.369598173320092
 30
0.0
 10
37.03852723310906
 20
-3.302867859540924
 30
0.0
 10
36.8647719755988
 20
-3.160860951824844
 30
0.0
 10
36.779061102507
 20
-3.084799286493985
 30
0.0
 10
36.69935781198259
 20
-3.007140986508566
 30
0.0
  0
SPLINE
  5
1D8
330
1F
100
AcDbEntity
  8
외형선
  6
Continuous
 62
     1
370
    15
100
AcDbSpline
210
0.0
220
0.0
230
1.0
 70
     8
 71
     3
 72
     8
 73
     4
 74
     0
 42
0.000000001
 43
0.00000001
 40
0.0
 40
0.0
 40
0.0
 40
0.0
 40
1.0
 40
1.0
 40
1.0
 40
1.0
 10
36.69935781198278
 20
-3.007140986509112
 30
0.0
 10
36.61838566781107
 20
-2.928246388542385
 30
0.0
 10
36.51568484123831
 20
-2.858933250433084
 30
0.0
 10
36.43272820711869
 20
-2.825536185828308
 30
0.0
  0
SPLINE
  5
1D9
330
1F
100
AcDbEntity
  8
외형선
  6
Continuous
 62
     1
370
    15
100
AcDbSpline
210
0.0
220
0.0
230
1.0
 70
     8
 71
     3
 72
     8
 73
     4
 74
     0
 42
0.000000001
 43
0.00000001
 40
0.0
 40
0.0
 40
0.0
 40
0.0
 40
1.0
 40
1.0
 40
1.0
 40
1.0
 10
36.43272820711869
 20
-2.825536185828332
 30
0.0
 10
36.30304728801211
 20
-2.773328642943167
 30
0.0
 10
36.16094500230646
 20
-2.69192758657913
 30
0.0
 10
36.01667189269256
 20
-2.595552831399432
 30
0.0
  0
SPLINE
  5
1DA
330
1F
100
AcDbEntity
  8
외형선
  6
Continuous
 62
     1
370
    15
100
AcDbSpline
210
0.0
220
0.0
230
1.0
 70
     8
 71
     3
 72
     8
 73
     4
 74
     0
 42
0.000000001
 43
0.00000001
 40
0.0
 40
0.0
 40
0.0
 40
0.0
 40
1.0
 40
1.0
 40
1.0
 40
1.0
 10
36.01667189423223
 20
-2.595552832564834
 30
0.0
 10
35.87100633436057
 20
-2.485295843445449
 30
0.0
 10
35.72881111215194
 20
-2.365291491991163
 30
0.0
 10
35.60143598742249
 20
-2.244903545707087
 30
0.0
  0
SPLINE
  5
1DB
330
1F
100
AcDbEntity
  8
외형선
  6
Continuous
 62
     1
370
    15
100
AcDbSpline
210
0.0
220
0.0
230
1.0
 70
     8
 71
     3
 72
     8
 73
     4
 74
     0
 42
0.000000001
 43
0.00000001
 40
0.0
 40
0.0
 40
0.0
 40
0.0
 40
1.0
 40
1.0
 40
1.0
 40
1.0
 10
35.60143598742248
 20
-2.244903545707069
 30
0.0
 10
35.52096747554143
 20
-2.168849144139484
 30
0.0
 10
35.41839166808275
 20
-2.096571137737271
 30
0.0
 10
35.33501400815773
 20
-2.054929408451973
 30
0.0
  0
SPLINE
  5
1DC
330
1F
100
AcDbEntity
  8
외형선
  6
Continuous
 62
     1
370
    15
100
AcDbSpline
210
0.0
220
0.0
230
1.0
 70
     8
 71
     3
 72
    14
 73
    10
 74
     0
 42
0.000000001
 43
0.00000001
 40
0.0
 40
0.0
 40
0.0
 40
0.0
 40
0.2500000000000002
 40
0.2500000000000002
 40
0.5000000000000001
 40
0.5000000000000001
 40
0.75
 40
0.75
 40
1.0
 40
1.0
 40
1.0
 40
1.0
 10
35.33501400815773
 20
-2.054929408451956
 30
0.0
 10
35.25306477589673
 20
-2.01400108606898
 30
0.0
 10
35.16802297910208
 20
-1.963936053613439
 30
0.0
 10
34.99137487401677
 20
-1.850151847849405
 30
0.0
 10
34.90023985465584
 20
-1.78656520652956
 30
0.0
 10
34.71836638848104
 20
-1.652799928216112
 30
0.0
 10
34.62971759141074
 20
-1.584255523760332
 30
0.0
 10
34.45622603466846
 20
-1.444791361086982
 30
0.0
 10
34.3706546746066
 20
-1.373199705053339
 30
0.0
 10
34.29108753911594
 20
-1.303404739168059
 30
0.0
  0
SPLINE
  5
1DD
330
1F
100
AcDbEntity
  8
외형선
  6
Continuous
 62
     1
370
    15
100
AcDbSpline
210
0.0
220
0.0
230
1.0
 70
     8
 71
     3
 72
     8
 73
     4
 74
     0
 42
0.000000001
 43
0.00000001
 40
0.0
 40
0.0
 40
0.0
 40
0.0
 40
1.0
 40
1.0
 40
1.0
 40
1.0
 10
34.29108753911592
 20
-1.303404739168058
 30
0.0
 10
34.21018653643922
 20
-1.232439727205696
 30
0.0
 10
34.10755519874863
 20
-1.158846590041129
 30
0.0
 10
34.02467669845145
 20
-1.109593363558281
 30
0.0
  0
SPLINE
  5
1DE
330
1F
100
AcDbEntity
  8
외형선
  6
Continuous
 62
     1
370
    15
100
AcDbSpline
210
0.0
220
0.0
230
1.0
 70
     8
 71
     3
 72
     8
 73
     4
 74
     0
 42
0.000000001
 43
0.00000001
 40
0.0
 40
0.0
 40
0.0
 40
0.0
 40
1.0
 40
1.0
 40
1.0
 40
1.0
 10
34.02467669845144
 20
-1.109593363558295
 30
0.0
 10
33.89505996538898
 20
-1.0325644322118
 30
0.0
 10
33.75302917373412
 20
-0.9339054525727174
 30
0.0
 10
33.60885514952409
 20
-0.8280808157432845
 30
0.0
  0
SPLINE
  5
1DF
330
1F
100
AcDbEntity
  8
외형선
  6
Continuous
 62
     1
370
    15
100
AcDbSpline
210
0.0
220
0.0
230
1.0
 70
     8
 71
     3
 72
     8
 73
     4
 74
     0
 42
0.000000001
 43
0.00000001
 40
0.0
 40
0.0
 40
0.0
 40
0.0
 40
1.0
 40
1.0
 40
1.0
 40
1.0
 10
33.6088551510674
 20
-0.8280808169281951
 30
0.0
 10
33.46326578912804
 20
-0.7162984391129261
 30
0.0
 10
33.32115662854997
 20
-0.6030499183880438
 30
0.0
 10
33.19371559116288
 20
-0.4983788254434112
 30
0.0
  0
SPLINE
  5
1E0
330
1F
100
AcDbEntity
  8
외형선
  6
Continuous
 62
     1
370
    15
100
AcDbSpline
210
0.0
220
0.0
230
1.0
 70
     8
 71
     3
 72
     8
 73
     4
 74
     0
 42
0.000000001
 43
0.00000001
 40
0.0
 40
0.0
 40
0.0
 40
0.0
 40
1.0
 40
1.0
 40
1.0
 40
1.0
 10
33.19371559116287
 20
-0.4983788254434181
 30
0.0
 10
33.1132361217561
 20
-0.4322786571214629
 30
0.0
 10
33.01063779281726
 20
-0.3577395420450802
 30
0.0
 10
32.92725873706958
 20
-0.3015819734926387
 30
0.0
  0
SPLINE
  5
1E1
330
1F
100
AcDbEntity
  8
외형선
  6
Continuous
 62
     1
370
    15
100
AcDbSpline
210
0.0
220
0.0
230
1.0
 70
     8
 71
     3
 72
     8
 73
     4
 74
     0
 42
0.000000001
 43
0.00000001
 40
0.0
 40
0.0
 40
0.0
 40
0.0
 40
1.0
 40
1.0
 40
1.0
 40
1.0
 10
31.88269528849304
 20
0.468300067907652
 30
0.0
 10
31.80168632414393
 20
0.5277907968313557
 30
0.0
 10
31.69897381761992
 20
0.6019774047261756
 30
0.0
 10
31.61599439954857
 20
0.6646760527597481
 30
0.0
  0
SPLINE
  5
1E2
330
1F
100
AcDbEntity
  8
외형선
  6
Continuous
 62
     1
370
    15
100
AcDbSpline
210
0.0
220
0.0
230
1.0
 70
     8
 71
     3
 72
     8
 73
     4
 74
     0
 42
0.000000001
 43
0.00000001
 40
0.0
 40
0.0
 40
0.0
 40
0.0
 40
1.0
 40
1.0
 40
1.0
 40
1.0
 10
30.78382085642162
 20
1.275432292202323
 30
0.0
 10
30.70322708186329
 20
1.328218575482284
 30
0.0
 10
30.60052623835665
 20
1.401222109964271
 30
0.0
 10
30.51705251166453
 20
1.469069005538246
 30
0.0
  0
SPLINE
  5
1E3
330
1F
100
AcDbEntity
  8
외형선
  6
Continuous
 62
     1
370
    15
100
AcDbSpline
210
0.0
220
0.0
230
1.0
 70
     8
 71
     3
 72
     8
 73
     4
 74
     0
 42
0.000000001
 43
0.00000001
 40
0.0
 40
0.0
 40
0.0
 40
0.0
 40
1.0
 40
1.0
 40
1.0
 40
1.0
 10
29.47226815981039
 20
2.217188383440234
 30
0.0
 10
29.39131562007459
 20
2.261994872978724
 30
0.0
 10
29.28867264358425
 20
2.33282949528044
 30
0.0
 10
29.20576580835136
 20
2.405612142347329
 30
0.0
  0
SPLINE
  5
1E4
330
1F
100
AcDbEntity
  8
외형선
  6
Continuous
 62
     1
370
    15
100
AcDbSpline
210
0.0
220
0.0
230
1.0
 70
     8
 71
     3
 72
     8
 73
     4
 74
     0
 42
0.000000001
 43
0.00000001
 40
0.0
 40
0.0
 40
0.0
 40
0.0
 40
1.0
 40
1.0
 40
1.0
 40
1.0
 10
28.37472601487079
 20
2.982047212980349
 30
0.0
 10
28.29425554838648
 20
3.0186351693905
 30
0.0
 10
28.19165550947834
 20
3.086200946252754
 30
0.0
 10
28.10831308060162
 20
3.162057768374305
 30
0.0
  0
SPLINE
  5
1E5
330
1F
100
AcDbEntity
  8
외형선
  6
Continuous
 62
     1
370
    15
100
AcDbSpline
210
0.0
220
0.0
230
1.0
 70
     8
 71
     3
 72
     8
 73
     4
 74
     0
 42
0.000000001
 43
0.00000001
 40
0.0
 40
0.0
 40
0.0
 40
0.0
 40
1.0
 40
1.0
 40
1.0
 40
1.0
 10
27.06442181119979
 20
3.848983404350583
 30
0.0
 10
26.98349547501035
 20
3.876818797573871
 30
0.0
 10
26.88089650722631
 20
3.940660680579073
 30
0.0
 10
26.79802000663975
 20
4.019762642288758
 30
0.0
  0
SPLINE
  5
1E6
330
1F
100
AcDbEntity
  8
외형선
  6
Continuous
 62
     1
370
    15
100
AcDbSpline
210
0.0
220
0.0
230
1.0
 70
     8
 71
     3
 72
     8
 73
     4
 74
     0
 42
0.000000001
 43
0.00000001
 40
0.0
 40
0.0
 40
0.0
 40
0.0
 40
1.0
 40
1.0
 40
1.0
 40
1.0
 10
26.7980200066397
 20
4.019762642288804
 30
0.0
 10
26.66848808034558
 20
4.143395148504467
 30
0.0
 10
26.52648352529446
 20
4.260780957023444
 30
0.0
 10
26.38214971438423
 20
4.361099708724051
 30
0.0
  0
SPLINE
  5
1E7
330
1F
100
AcDbEntity
  8
외형선
  6
Continuous
 62
     1
370
    15
100
AcDbSpline
210
0.0
220
0.0
230
1.0
 70
     8
 71
     3
 72
     8
 73
     4
 74
     0
 42
0.000000001
 43
0.00000001
 40
0.0
 40
0.0
 40
0.0
 40
0.0
 40
1.0
 40
1.0
 40
1.0
 40
1.0
 10
26.38214971592368
 20
4.361099707854994
 30
0.0
 10
26.23658566135358
 20
4.443273886260397
 30
0.0
 10
26.09431610789068
 20
4.503021919271628
 30
0.0
 10
25.96684981168644
 20
4.532529697289876
 30
0.0
  0
SPLINE
  5
1E8
330
1F
100
AcDbEntity
  8
외형선
  6
Continuous
 62
     1
370
    15
100
AcDbSpline
210
0.0
220
0.0
230
1.0
 70
     8
 71
     3
 72
     8
 73
     4
 74
     0
 42
0.000000001
 43
0.00000001
 40
0.0
 40
0.0
 40
0.0
 40
0.0
 40
1.0
 40
1.0
 40
1.0
 40
1.0
 10
25.96684981168641
 20
4.532529697289882
 30
0.0
 10
25.88632328230988
 20
4.551171165852016
 30
0.0
 10
25.78367336977984
 20
4.609924482908833
 30
0.0
 10
25.70028336460668
 20
4.689990311382208
 30
0.0
  0
SPLINE
  5
1E9
330
1F
100
AcDbEntity
  8
외형선
  6
Continuous
 62
     1
370
    15
100
AcDbSpline
210
0.0
220
0.0
230
1.0
 70
     8
 71
     3
 72
    14
 73
    10
 74
     0
 42
0.000000001
 43
0.00000001
 40
0.0
 40
0.0
 40
0.0
 40
0.0
 40
0.25
 40
0.25
 40
0.5
 40
0.5
 40
0.75
 40
0.75
 40
1.0
 40
1.0
 40
1.0
 40
1.0
 10
25.70028336460667
 20
4.689990311382194
 30
0.0
 10
25.61815754344052
 20
4.768842350029651
 30
0.0
 10
25.53294453468699
 20
4.841949094782297
 30
0.0
 10
25.35598999308835
 20
4.97703013820825
 30
0.0
 10
25.26473138147273
 20
5.038383936825051
 30
0.0
 10
25.08271095590998
 20
5.143097300389992
 30
0.0
 10
24.99401159360165
 20
5.185475546654479
 30
0.0
 10
24.82044893807694
 20
5.249984143969031
 30
0.0
 10
24.73487340854188
 20
5.272054983131527
 30
0.0
 10
24.65529039274838
 20
5.281373172431135
 30
0.0
  0
SPLINE
  5
1EA
330
1F
100
AcDbEntity
  8
외형선
  6
Continuous
 62
     1
370
    15
100
AcDbSpline
210
0.0
220
0.0
230
1.0
 70
     8
 71
     3
 72
     8
 73
     4
 74
     0
 42
0.000000001
 43
0.00000001
 40
0.0
 40
0.0
 40
0.0
 40
0.0
 40
1.0
 40
1.0
 40
1.0
 40
1.0
 10
24.65529039274834
 20
5.281373172431136
 30
0.0
 10
24.57424798995728
 20
5.290862237943077
 30
0.0
 10
24.47154398171964
 20
5.344370259896251
 30
0.0
 10
24.38846551792147
 20
5.425651316338258
 30
0.0
  0
SPLINE
  5
1EB
330
1F
100
AcDbEntity
  8
외형선
  6
Continuous
 62
     1
370
    15
100
AcDbSpline
210
0.0
220
0.0
230
1.0
 70
     8
 71
     3
 72
     8
 73
     4
 74
     0
 42
0.000000001
 43
0.00000001
 40
0.0
 40
0.0
 40
0.0
 40
0.0
 40
1.0
 40
1.0
 40
1.0
 40
1.0
 10
24.38846551792142
 20
5.425651316338302
 30
0.0
 10
24.25872426388607
 20
5.552585610859263
 30
0.0
 10
24.11652970958103
 20
5.664038233537574
 30
0.0
 10
23.97202862825319
 20
5.751673404986025
 30
0.0
  0
SPLINE
  5
1EC
330
1F
100
AcDbEntity
  8
외형선
  6
Continuous
 62
     1
370
    15
100
AcDbSpline
210
0.0
220
0.0
230
1.0
 70
     8
 71
     3
 72
     8
 73
     4
 74
     0
 42
0.000000001
 43
0.00000001
 40
0.0
 40
0.0
 40
0.0
 40
0.0
 40
1.0
 40
1.0
 40
1.0
 40
1.0
 10
23.97202862979417
 20
5.751673404321333
 30
0.0
 10
23.82633453709544
 20
5.814510755609318
 30
0.0
 10
23.68395212039933
 20
5.848896690322922
 30
0.0
 10
23.55639618593724
 20
5.848446015666161
 30
0.0
  0
SPLINE
  5
1ED
330
1F
100
AcDbEntity
  8
외형선
  6
Continuous
 62
     1
370
    15
100
AcDbSpline
210
0.0
220
0.0
230
1.0
 70
     8
 71
     3
 72
     8
 73
     4
 74
     0
 42
0.000000001
 43
0.00000001
 40
0.0
 40
0.0
 40
0.0
 40
0.0
 40
1.0
 40
1.0
 40
1.0
 40
1.0
 10
23.55639618593698
 20
5.848446015665989
 30
0.0
 10
23.47583465597755
 20
5.848161379439415
 30
0.0
 10
23.37316213173279
 20
5.895023919630447
 30
0.0
 10
23.28975512183068
 20
5.975131677588673
 30
0.0
  0
SPLINE
  5
1EE
330
1F
100
AcDbEntity
  8
외형선
  6
Continuous
 62
     1
370
    15
100
AcDbSpline
210
0.0
220
0.0
230
1.0
 70
     8
 71
     3
 72
    14
 73
    10
 74
     0
 42
0.000000001
 43
0.00000001
 40
0.0
 40
0.0
 40
0.0
 40
0.0
 40
0.25
 40
0.25
 40
0.5
 40
0.5
 40
0.75
 40
0.75
 40
1.0
 40
1.0
 40
1.0
 40
1.0
 10
23.28975512183067
 20
5.975131677588674
 30
0.0
 10
23.20765616501579
 20
6.053983123874405
 30
0.0
 10
23.12248085912629
 20
6.123616442721395
 30
0.0
 10
22.94562417464271
 20
6.246181854080725
 30
0.0
 10
22.85442478433183
 20
6.298441941948746
 30
0.0
 10
22.67252862255709
 20
6.380409575269426
 30
0.0
 10
22.58390132421182
 20
6.409447715701577
 30
0.0
 10
22.41050081425362
 20
6.443563640894849
 30
0.0
 10
22.32501480744461
 20
6.448398240582756
 30
0.0
 10
22.24546224103651
 20
6.438962916968364
 30
0.0
  0
SPLINE
  5
1EF
330
1F
100
AcDbEntity
  8
외형선
  6
Continuous
 62
     1
370
    15
100
AcDbSpline
210
0.0
220
0.0
230
1.0
 70
     8
 71
     3
 72
     8
 73
     4
 74
     0
 42
0.000000001
 43
0.00000001
 40
0.0
 40
0.0
 40
0.0
 40
0.0
 40
1.0
 40
1.0
 40
1.0
 40
1.0
 10
22.24546224103648
 20
6.438962916968384
 30
0.0
 10
22.16458032063745
 20
6.429369925466345
 30
0.0
 10
22.06196219835487
 20
6.4695026027515
 30
0.0
 10
21.97903381030927
 20
6.548551556849297
 30
0.0
  0
SPLINE
  5
1F0
330
1F
100
AcDbEntity
  8
외형선
  6
Continuous
 62
     1
370
    15
100
AcDbSpline
210
0.0
220
0.0
230
1.0
 70
     8
 71
     3
 72
     8
 73
     4
 74
     0
 42
0.000000001
 43
0.00000001
 40
0.0
 40
0.0
 40
0.0
 40
0.0
 40
1.0
 40
1.0
 40
1.0
 40
1.0
 10
21.97903381030927
 20
6.548551556849301
 30
0.0
 10
21.84949626257518
 20
6.672029269440824
 30
0.0
 10
21.7074856495108
 20
6.77163102608248
 30
0.0
 10
21.56318423588475
 20
6.841902106213407
 30
0.0
  0
SPLINE
  5
1F1
330
1F
100
AcDbEntity
  8
외형선
  6
Continuous
 62
     1
370
    15
100
AcDbSpline
210
0.0
220
0.0
230
1.0
 70
     8
 71
     3
 72
     8
 73
     4
 74
     0
 42
0.000000001
 43
0.00000001
 40
0.0
 40
0.0
 40
0.0
 40
0.0
 40
1.0
 40
1.0
 40
1.0
 40
1.0
 10
21.56318423742395
 20
6.841902105788756
 30
0.0
 10
21.41762405641857
 20
6.882060668822048
 30
0.0
 10
21.27541098528325
 20
6.889192229894375
 30
0.0
 10
21.14803661516262
 20
6.85878024680916
 30
0.0
  0
SPLINE
  5
1F2
330
1F
100
AcDbEntity
  8
외형선
  6
Continuous
 62
     1
370
    15
100
AcDbSpline
210
0.0
220
0.0
230
1.0
 70
     8
 71
     3
 72
     8
 73
     4
 74
     0
 42
0.000000001
 43
0.00000001
 40
0.0
 40
0.0
 40
0.0
 40
0.0
 40
1.0
 40
1.0
 40
1.0
 40
1.0
 10
21.14803661516265
 20
6.858780246809164
 30
0.0
 10
21.0675533895782
 20
6.839564022282991
 30
0.0
 10
20.96495436937988
 20
6.872106158842566
 30
0.0
 10
20.88163266131541
 20
6.948037070135308
 30
0.0
  0
SPLINE
  5
1F3
330
1F
100
AcDbEntity
  8
외형선
  6
Continuous
 62
     1
370
    15
100
AcDbSpline
210
0.0
220
0.0
230
1.0
 70
     8
 71
     3
 72
    14
 73
    10
 74
     0
 42
0.000000001
 43
0.00000001
 40
0.0
 40
0.0
 40
0.0
 40
0.0
 40
0.25
 40
0.25
 40
0.5
 40
0.5
 40
0.75
 40
0.75
 40
1.0
 40
1.0
 40
1.0
 40
1.0
 10
20.8816326613154
 20
6.948037070135312
 30
0.0
 10
20.79957169481553
 20
7.022819070080373
 30
0.0
 10
20.71443614249483
 20
7.085375236350416
 30
0.0
 10
20.53766815512502
 20
7.18906811794294
 30
0.0
 10
20.44652571894999
 20
7.229510588156194
 30
0.0
 10
20.2647595124173
 20
7.284459775546819
 30
0.0
 10
20.17622881622344
 20
7.298671878499708
 30
0.0
 10
20.00286278851918
 20
7.30057680037226
 30
0.0
 10
19.91731246857745
 20
7.287818767377359
 30
0.0
 10
19.83773267823014
 20
7.260187636351667
 30
0.0
  0
SPLINE
  5
1F4
330
1F
100
AcDbEntity
  8
외형선
  6
Continuous
 62
     1
370
    15
100
AcDbSpline
210
0.0
220
0.0
230
1.0
 70
     8
 71
     3
 72
     8
 73
     4
 74
     0
 42
0.000000001
 43
0.00000001
 40
0.0
 40
0.0
 40
0.0
 40
0.0
 40
1.0
 40
1.0
 40
1.0
 40
1.0
 10
19.83773267823018
 20
7.260187636351679
 30
0.0
 10
19.75683059739188
 20
7.232097388989402
 30
0.0
 10
19.65418482704827
 20
7.256944979279738
 30
0.0
 10
19.57124607673261
 20
7.329775658129274
 30
0.0
  0
SPLINE
  5
1F5
330
1F
100
AcDbEntity
  8
외형선
  6
Continuous
 62
     1
370
    15
100
AcDbSpline
210
0.0
220
0.0
230
1.0
 70
     8
 71
     3
 72
     8
 73
     4
 74
     0
 42
0.000000001
 43
0.00000001
 40
0.0
 40
0.0
 40
0.0
 40
0.0
 40
1.0
 40
1.0
 40
1.0
 40
1.0
 10
19.57124607673259
 20
7.329775658129288
 30
0.0
 10
19.44163735511347
 20
7.443588455457613
 30
0.0
 10
19.29955436487602
 20
7.526317982100612
 30
0.0
 10
19.15520759425311
 20
7.575726908248202
 30
0.0
  0
SPLINE
  5
1F6
330
1F
100
AcDbEntity
  8
외형선
  6
Continuous
 62
     1
370
    15
100
AcDbSpline
210
0.0
220
0.0
230
1.0
 70
     8
 71
     3
 72
     8
 73
     4
 74
     0
 42
0.000000001
 43
0.00000001
 40
0.0
 40
0.0
 40
0.0
 40
0.0
 40
1.0
 40
1.0
 40
1.0
 40
1.0
 10
19.15520759579359
 20
7.575726908083858
 30
0.0
 10
19.00952537479459
 20
7.591265791495032
 30
0.0
 10
18.86721417755682
 20
7.570917398675418
 30
0.0
 10
18.73973410407972
 20
7.512229334841355
 30
0.0
  0
SPLINE
  5
1F7
330
1F
100
AcDbEntity
  8
외형선
  6
Continuous
 62
     1
370
    15
100
AcDbSpline
210
0.0
220
0.0
230
1.0
 70
     8
 71
     3
 72
     8
 73
     4
 74
     0
 42
0.000000001
 43
0.00000001
 40
0.0
 40
0.0
 40
0.0
 40
0.0
 40
1.0
 40
1.0
 40
1.0
 40
1.0
 10
18.73973410407979
 20
7.512229334841364
 30
0.0
 10
18.65914958457593
 20
7.475130600147518
 30
0.0
 10
18.55647330087853
 20
7.491700968949573
 30
0.0
 10
18.47305815847293
 20
7.559564667975428
 30
0.0
  0
SPLINE
  5
1F8
330
1F
100
AcDbEntity
  8
외형선
  6
Continuous
 62
     1
370
    15
100
AcDbSpline
210
0.0
220
0.0
230
1.0
 70
     8
 71
     3
 72
    14
 73
    10
 74
     0
 42
0.000000001
 43
0.00000001
 40
0.0
 40
0.0
 40
0.0
 40
0.0
 40
0.25
 40
0.25
 40
0.5
 40
0.5
 40
0.75
 40
0.75
 40
1.0
 40
1.0
 40
1.0
 40
1.0
 10
18.47305815847293
 20
7.559564667975419
 30
0.0
 10
18.3908881013198
 20
7.62641540834175
 30
0.0
 10
18.30565585469123
 20
7.678643831745971
 30
0.0
 10
18.12872827029532
 20
7.758066796683346
 30
0.0
 10
18.03753716703832
 20
7.78459277374156
 30
0.0
 10
17.85560868609895
 20
7.809672546430532
 30
0.0
 10
17.76688104554152
 20
7.80826278187383
 30
0.0
 10
17.59314727681651
 20
7.777842476358068
 30
0.0
 10
17.50742246930148
 20
7.74822177615571
 30
0.0
 10
17.42768552654592
 20
7.703837117362427
 30
0.0
  0
SPLINE
  5
1F9
330
1F
100
AcDbEntity
  8
외형선
  6
Continuous
 62
     1
370
    15
100
AcDbSpline
210
0.0
220
0.0
230
1.0
 70
     8
 71
     3
 72
     8
 73
     4
 74
     0
 42
0.000000001
 43
0.00000001
 40
0.0
 40
0.0
 40
0.0
 40
0.0
 40
1.0
 40
1.0
 40
1.0
 40
1.0
 10
17.42768552654609
 20
7.703837117362384
 30
0.0
 10
17.34668481755902
 20
7.658748997525316
 30
0.0
 10
17.24395228233456
 20
7.667019098615295
 30
0.0
 10
17.1609342122577
 20
7.729883588563846
 30
0.0
  0
SPLINE
  5
1FA
330
1F
100
AcDbEntity
  8
외형선
  6
Continuous
 62
     1
370
    15
100
AcDbSpline
210
0.0
220
0.0
230
1.0
 70
     8
 71
     3
 72
     8
 73
     4
 74
     0
 42
0.000000001
 43
0.00000001
 40
0.0
 40
0.0
 40
0.0
 40
0.0
 40
1.0
 40
1.0
 40
1.0
 40
1.0
 10
17.16093421225763
 20
7.729883588563895
 30
0.0
 10
17.03123531380733
 20
7.82809660520498
 30
0.0
 10
16.88908459731523
 20
7.889657954051277
 30
0.0
 10
16.74469143881051
 20
7.915619084792944
 30
0.0
  0
SPLINE
  5
1FB
330
1F
100
AcDbEntity
  8
외형선
  6
Continuous
 62
     1
370
    15
100
AcDbSpline
210
0.0
220
0.0
230
1.0
 70
     8
 71
     3
 72
     8
 73
     4
 74
     0
 42
0.000000001
 43
0.00000001
 40
0.0
 40
0.0
 40
0.0
 40
0.0
 40
1.0
 40
1.0
 40
1.0
 40
1.0
 10
16.74469144035231
 20
7.915619084898011
 30
0.0
 10
16.59900432895575
 20
7.905681918903418
 30
0.0
 10
16.4567063466558
 20
7.858864372867925
 30
0.0
 10
16.32926181386254
 20
7.774853234361224
 30
0.0
  0
SPLINE
  5
1FC
330
1F
100
AcDbEntity
  8
외형선
  6
Continuous
 62
     1
370
    15
100
AcDbSpline
210
0.0
220
0.0
230
1.0
 70
     8
 71
     3
 72
     8
 73
     4
 74
     0
 42
0.000000001
 43
0.00000001
 40
0.0
 40
0.0
 40
0.0
 40
0.0
 40
1.0
 40
1.0
 40
1.0
 40
1.0
 10
16.32926181386248
 20
7.774853234361205
 30
0.0
 10
16.24872141855557
 20
7.721761193790987
 30
0.0
 10
16.14610238038406
 20
7.721415916547577
 30
0.0
 10
16.06274797984347
 20
7.777611908198184
 30
0.0
  0
SPLINE
  5
1FD
330
1F
100
AcDbEntity
  8
외형선
  6
Continuous
 62
     1
370
    15
100
AcDbSpline
210
0.0
220
0.0
230
1.0
 70
     8
 71
     3
 72
    10
 73
     6
 74
     0
 42
0.000000001
 43
0.00000001
 40
0.0
 40
0.0
 40
0.0
 40
0.0
 40
0.5938689281824464
 40
0.9556365755680449
 40
0.9999999999999999
 40
0.9999999999999999
 40
0.9999999999999999
 40
0.9999999999999999
 10
16.06274797984346
 20
7.777611908198191
 30
0.0
 10
15.95805201836298
 20
7.828985796000564
 30
0.0
 10
15.78957832769318
 20
7.91165515936216
 30
0.0
 10
15.5986901785067
 20
7.948307977260082
 30
0.0
 10
15.52403612947393
 20
7.92685154184236
 30
0.0
 10
15.51588135016098
 20
7.924507764137851
 30
0.0
  0
SPLINE
  5
1FE
330
1F
100
AcDbEntity
  8
외형선
  6
Continuous
 62
     1
370
    15
100
AcDbSpline
210
0.0
220
0.0
230
1.0
 70
     8
 71
     3
 72
     8
 73
     4
 74
     0
 42
0.000000001
 43
0.00000001
 40
0.0
 40
0.0
 40
0.0
 40
0.0
 40
1.0
 40
1.0
 40
1.0
 40
1.0
 10
53.24646648163763
 20
0.9806571515740259
 30
0.0
 10
53.24241498324055
 20
0.7449299693461111
 30
0.0
 10
53.23796983587397
 20
0.507689386116576
 30
0.0
 10
53.2331535297356
 20
0.2697838747450262
 30
0.0
  0
SPLINE
  5
1FF
330
1F
100
AcDbEntity
  8
외형선
  6
Continuous
 62
     1
370
    15
100
AcDbSpline
210
0.0
220
0.0
230
1.0
 70
     8
 71
     3
 72
     8
 73
     4
 74
     0
 42
0.000000001
 43
0.00000001
 40
0.0
 40
0.0
 40
0.0
 40
0.0
 40
1.0
 40
1.0
 40
1.0
 40
1.0
 10
52.98014361116293
 20
-4.400461516813448
 30
0.0
 10
52.94976028013036
 20
-4.408390483380803
 30
0.0
 10
52.917341845514
 20
-4.420972643789526
 30
0.0
 10
52.8831520110034
 20
-4.437605048689153
 30
0.0
  0
SPLINE
  5
200
330
1F
100
AcDbEntity
  8
외형선
  6
Continuous
 62
     1
370
    15
100
AcDbSpline
210
0.0
220
0.0
230
1.0
 70
     8
 71
     3
 72
     8
 73
     4
 74
     0
 42
0.000000001
 43
0.00000001
 40
0.0
 40
0.0
 40
0.0
 40
0.0
 40
1.0
 40
1.0
 40
1.0
 40
1.0
 10
53.24646648163812
 20
0.9806571515737796
 30
0.0
 10
53.17033282896438
 20
1.033758138364751
 30
0.0
 10
53.07757359150106
 20
1.100718024032322
 30
0.0
 10
53.00145054373098
 20
1.161069413965156
 30
0.0
  0
SPLINE
  5
201
330
1F
100
AcDbEntity
  8
외형선
  6
Continuous
 62
     1
370
    15
100
AcDbSpline
210
0.0
220
0.0
230
1.0
 70
     8
 71
     3
 72
     8
 73
     4
 74
     0
 42
0.000000001
 43
0.00000001
 40
0.0
 40
0.0
 40
0.0
 40
0.0
 40
1.0
 40
1.0
 40
1.0
 40
1.0
 10
51.95631985055584
 20
1.916444180806353
 30
0.0
 10
51.87535480774964
 20
1.96393696421327
 30
0.0
 10
51.77266893179061
 20
2.035515731962161
 30
0.0
 10
51.68972900954728
 20
2.106665828303882
 30
0.0
  0
SPLINE
  5
202
330
1F
100
AcDbEntity
  8
외형선
  6
Continuous
 62
     1
370
    15
100
AcDbSpline
210
0.0
220
0.0
230
1.0
 70
     8
 71
     3
 72
    14
 73
    10
 74
     0
 42
0.000000001
 43
0.00000001
 40
0.0
 40
0.0
 40
0.0
 40
0.0
 40
0.25
 40
0.25
 40
0.5
 40
0.5
 40
0.75
 40
0.75
 40
1.0
 40
1.0
 40
1.0
 40
1.0
 10
26.38214971438418
 20
4.361099708723107
 30
0.0
 10
26.35728485535243
 20
3.950072033165387
 30
0.0
 10
26.33197201166547
 20
3.511250275817733
 30
0.0
 10
26.28175670605994
 20
2.600278315273684
 30
0.0
 10
26.256861623812
 20
2.128269474690357
 30
0.0
 10
26.20873308879952
 20
1.176335095542896
 30
0.0
 10
26.18567963354686
 20
0.6977876379401183
 30
0.0
 10
26.13684293888986
 20
-0.2798380169673779
 30
0.0
 10
26.11173151020019
 20
-0.7744480961268463
 30
0.0
 10
26.08656324955112
 20
-1.262085176982304
 30
0.0
  0
SPLINE
  5
203
330
1F
100
AcDbEntity
  8
외형선
  6
Continuous
 62
     1
370
    15
100
AcDbSpline
210
0.0
220
0.0
230
1.0
 70
     8
 71
     3
 72
     8
 73
     4
 74
     0
 42
0.000000001
 43
0.00000001
 40
0.0
 40
0.0
 40
0.0
 40
0.0
 40
1.0
 40
1.0
 40
1.0
 40
1.0
 10
48.86598271814853
 20
4.091016966998738
 30
0.0
 10
48.72050765551424
 20
4.176431511390501
 30
0.0
 10
48.57827308028375
 20
4.240570297658582
 30
0.0
 10
48.45080330388839
 20
4.275348478973989
 30
0.0
  0
SPLINE
  5
204
330
1F
100
AcDbEntity
  8
외형선
  6
Continuous
370
    15
100
AcDbSpline
210
0.0
220
0.0
230
1.0
 70
    24
 71
     3
 72
     8
 73
     4
 74
     0
 42
0.000000001
 43
0.00000001
 40
0.0
 40
0.0
 40
0.0
 40
0.0
 40
1.0
 40
1.0
 40
1.0
 40
1.0
 10
8.950180717445534
 20
-4.549217044733222
 30
0.0
 10
8.950180717445534
 20
-5.372205345101758
 30
0.0
 10
8.950180717445535
 20
-6.08089797491251
 30
0.0
 10
8.950180717445535
 20
-6.640621905016171
 30
0.0
  0
SPLINE
  5
205
330
1F
100
AcDbEntity
  8
외형선
  6
Continuous
370
    15
100
AcDbSpline
210
0.0
220
0.0
230
1.0
 70
     8
 71
     3
 72
     8
 73
     4
 74
     0
 42
0.000000001
 43
0.00000001
 40
0.0
 40
0.0
 40
0.0
 40
0.0
 40
1.0
 40
1.0
 40
1.0
 40
1.0
 10
8.950180717445535
 20
-4.549235562899027
 30
0.0
 10
9.002747476025352
 20
-4.578050104289484
 30
0.0
 10
9.055945372482405
 20
-4.616215386013415
 30
0.0
 10
9.103110176290667
 20
-4.661622059292466
 30
0.0
  0
SPLINE
  5
206
330
1F
100
AcDbEntity
  8
외형선
  6
Continuous
 62
     1
370
    15
100
AcDbSpline
210
0.0
220
0.0
230
1.0
 70
     8
 71
     3
 72
     8
 73
     4
 74
     0
 42
0.000000001
 43
0.00000001
 40
0.0
 40
0.0
 40
0.0
 40
0.0
 40
1.0
 40
1.0
 40
1.0
 40
1.0
 10
50.85854248922813
 20
2.691309811405607
 30
0.0
 10
50.77807450912674
 20
2.731021591181566
 30
0.0
 10
50.67548859564475
 20
2.799914005142331
 30
0.0
 10
50.59212328302307
 20
2.874729811015531
 30
0.0
  0
SPLINE
  5
207
330
1F
100
AcDbEntity
  8
외형선
  6
Continuous
 62
     1
370
    15
100
AcDbSpline
210
0.0
220
0.0
230
1.0
 70
     8
 71
     3
 72
    14
 73
    10
 74
     0
 42
0.000000001
 43
0.00000001
 40
0.0
 40
0.0
 40
0.0
 40
0.0
 40
0.25
 40
0.25
 40
0.5
 40
0.5
 40
0.75
 40
0.75
 40
1.0
 40
1.0
 40
1.0
 40
1.0
 10
45.77395113979435
 20
5.770749834573036
 30
0.0
 10
45.69187149275335
 20
5.849868417314037
 30
0.0
 10
45.6067082657996
 20
5.92034952379843
 30
0.0
 10
45.42985162110539
 20
6.045519115682859
 30
0.0
 10
45.33863310427289
 20
6.099547500019378
 30
0.0
 10
45.15665400797373
 20
6.185752060483549
 30
0.0
 10
45.06797208210425
 20
6.217197513574146
 30
0.0
 10
44.89444488145421
 20
6.256655687673428
 30
0.0
 10
44.80887803616415
 20
6.264444146837868
 30
0.0
 10
44.72931887809041
 20
6.258254509486499
 30
0.0
  0
SPLINE
  5
208
330
1F
100
AcDbEntity
  8
외형선
  6
Continuous
370
    15
100
AcDbSpline
210
0.0
220
0.0
230
1.0
 70
     8
 71
     3
 72
     8
 73
     4
 74
     0
 42
0.000000001
 43
0.00000001
 40
0.0
 40
0.0
 40
0.0
 40
0.0
 40
1.0
 40
1.0
 40
1.0
 40
1.0
 10
10.32147964285159
 20
-6.921049000791614
 30
0.0
 10
9.862921838762734
 20
-7.089926017513648
 30
0.0
 10
9.406245805232713
 20
-7.238950584477731
 30
0.0
 10
8.950180717445537
 20
-7.367109224434755
 30
0.0
  0
SPLINE
  5
209
330
1F
100
AcDbEntity
  8
외형선
  6
Continuous
370
    15
100
AcDbSpline
210
0.0
220
0.0
230
1.0
 70
     8
 71
     3
 72
     8
 73
     4
 74
     0
 42
0.000000001
 43
0.00000001
 40
0.0
 40
0.0
 40
0.0
 40
0.0
 40
1.0
 40
1.0
 40
1.0
 40
1.0
 10
10.14718268637838
 20
-5.255067619088911
 30
0.0
 10
10.22807823114338
 20
-5.26465658408386
 30
0.0
 10
10.33071882476667
 20
-5.318095886644898
 30
0.0
 10
10.41360917242112
 20
-5.39909368881607
 30
0.0
  0
SPLINE
  5
20A
330
1F
100
AcDbEntity
  8
외형선
  6
Continuous
370
    15
100
AcDbSpline
210
0.0
220
0.0
230
1.0
 70
     8
 71
     3
 72
     8
 73
     4
 74
     0
 42
0.000000001
 43
0.00000001
 40
0.0
 40
0.0
 40
0.0
 40
0.0
 40
1.0
 40
1.0
 40
1.0
 40
1.0
 10
10.41360917241849
 20
-5.399093688813519
 30
0.0
 10
10.54319406953791
 20
-5.52571991440257
 30
0.0
 10
10.68522108975401
 20
-5.637127896565386
 30
0.0
 10
10.82943870866313
 20
-5.724961827484853
 30
0.0
  0
SPLINE
  5
20B
330
1F
100
AcDbEntity
  8
외형선
  6
Continuous
370
    15
100
AcDbSpline
210
0.0
220
0.0
230
1.0
 70
     8
 71
     3
 72
     8
 73
     4
 74
     0
 42
0.000000001
 43
0.00000001
 40
0.0
 40
0.0
 40
0.0
 40
0.0
 40
1.0
 40
1.0
 40
1.0
 40
1.0
 10
10.82943870817889
 20
-5.724961827274443
 30
0.0
 10
10.97505442714733
 20
-5.788230875935174
 30
0.0
 10
11.11722624860987
 20
-5.823236813942405
 30
0.0
 10
11.24454452014563
 20
-5.823625021594193
 30
0.0
  0
SPLINE
  5
20C
330
1F
100
AcDbEntity
  8
외형선
  6
Continuous
370
    15
100
AcDbSpline
210
0.0
220
0.0
230
1.0
 70
     8
 71
     3
 72
     8
 73
     4
 74
     0
 42
0.000000001
 43
0.00000001
 40
0.0
 40
0.0
 40
0.0
 40
0.0
 40
1.0
 40
1.0
 40
1.0
 40
1.0
 10
11.24454452014551
 20
-5.823625021594184
 30
0.0
 10
11.32503655035165
 20
-5.823870450798156
 30
0.0
 10
11.42756074875705
 20
-5.871225780705605
 30
0.0
 10
11.5109191597054
 20
-5.951515919918509
 30
0.0
  0
SPLINE
  5
20D
330
1F
100
AcDbEntity
  8
외형선
  6
Continuous
370
    15
100
AcDbSpline
210
0.0
220
0.0
230
1.0
 70
     8
 71
     3
 72
     8
 73
     4
 74
     0
 42
0.000000001
 43
0.00000001
 40
0.0
 40
0.0
 40
0.0
 40
0.0
 40
1.0
 40
1.0
 40
1.0
 40
1.0
 10
11.51091915970528
 20
-5.951515919918384
 30
0.0
 10
11.58523471833916
 20
-6.023096057789494
 30
0.0
 10
11.66210583076974
 20
-6.087111141216352
 30
0.0
 10
11.74164395825882
 20
-6.144281841219734
 30
0.0
  0
SPLINE
  5
20E
330
1F
100
AcDbEntity
  8
외형선
  6
Continuous
370
    15
100
AcDbSpline
210
0.0
220
0.0
230
1.0
 70
     8
 71
     3
 72
     8
 73
     4
 74
     0
 42
0.000000001
 43
0.00000001
 40
0.0
 40
0.0
 40
0.0
 40
0.0
 40
1.0
 40
1.0
 40
1.0
 40
1.0
 10
11.74164395825873
 20
-6.144281841219938
 30
0.0
 10
11.82769894216953
 20
-6.180642778189065
 30
0.0
 10
11.91381751111318
 20
-6.216297593871017
 30
0.0
 10
11.99999999997965
 20
-6.251249370361509
 30
0.0
  0
SPLINE
  5
20F
330
1F
100
AcDbEntity
  8
외형선
  6
Continuous
 62
     1
370
    15
100
AcDbSpline
210
0.0
220
0.0
230
1.0
 70
     8
 71
     3
 72
    10
 73
     6
 74
     0
 42
0.000000001
 43
0.00000001
 40
0.0
 40
0.0
 40
0.0
 40
0.0
 40
0.5
 40
0.5
 40
1.0
 40
1.0
 40
1.0
 40
1.0
 10
11.99999999997965
 20
-6.299590239628111
 30
0.0
 10
12.09690626426313
 20
-6.346660960726568
 30
0.0
 10
12.19265123556471
 20
-6.380698540450057
 30
0.0
 10
12.37843373459718
 20
-6.421024536983879
 30
0.0
 10
12.4701003830104
 20
-6.427385971662928
 30
0.0
 10
12.55506036653875
 20
-6.417608160413272
 30
0.0
  0
SPLINE
  5
210
330
1F
100
AcDbEntity
  8
외형선
  6
Continuous
 62
     1
370
    15
100
AcDbSpline
210
0.0
220
0.0
230
1.0
 70
     8
 71
     3
 72
     8
 73
     4
 74
     0
 42
0.000000001
 43
0.00000001
 40
0.0
 40
0.0
 40
0.0
 40
0.0
 40
1.0
 40
1.0
 40
1.0
 40
1.0
 10
12.55506036653874
 20
-6.417608160413296
 30
0.0
 10
12.63601131470613
 20
-6.40829173803667
 30
0.0
 10
12.73869418331122
 20
-6.44867903470062
 30
0.0
 10
12.82163235849551
 20
-6.527746812310008
 30
0.0
  0
SPLINE
  5
211
330
1F
100
AcDbEntity
  8
외형선
  6
Continuous
 62
     1
370
    15
100
AcDbSpline
210
0.0
220
0.0
230
1.0
 70
     8
 71
     3
 72
     8
 73
     4
 74
     0
 42
0.000000001
 43
0.00000001
 40
0.0
 40
0.0
 40
0.0
 40
0.0
 40
1.0
 40
1.0
 40
1.0
 40
1.0
 10
12.82163235849552
 20
-6.527746812310012
 30
0.0
 10
12.95134664278858
 20
-6.651407842474439
 30
0.0
 10
13.09348710267174
 20
-6.751341649984253
 30
0.0
 10
13.23778378792029
 20
-6.82213875445141
 30
0.0
  0
SPLINE
  5
212
330
1F
100
AcDbEntity
  8
외형선
  6
Continuous
 62
     1
370
    15
100
AcDbSpline
210
0.0
220
0.0
230
1.0
 70
     8
 71
     3
 72
     8
 73
     4
 74
     0
 42
0.000000001
 43
0.00000001
 40
0.0
 40
0.0
 40
0.0
 40
0.0
 40
1.0
 40
1.0
 40
1.0
 40
1.0
 10
13.2377837874361
 20
-6.822138754315652
 30
0.0
 10
13.38355226125332
 20
-6.863010367701056
 30
0.0
 10
13.52581786509913
 20
-6.871051291486588
 30
0.0
 10
13.653359483036
 20
-6.841501368689016
 30
0.0
  0
SPLINE
  5
213
330
1F
100
AcDbEntity
  8
외형선
  6
Continuous
 62
     1
370
    15
100
AcDbSpline
210
0.0
220
0.0
230
1.0
 70
     8
 71
     3
 72
     8
 73
     4
 74
     0
 42
0.000000001
 43
0.00000001
 40
0.0
 40
0.0
 40
0.0
 40
0.0
 40
1.0
 40
1.0
 40
1.0
 40
1.0
 10
13.65335948303599
 20
-6.841501368689022
 30
0.0
 10
13.73394652935429
 20
-6.82283027892467
 30
0.0
 10
13.83663168358685
 20
-6.855790003029425
 30
0.0
 10
13.92012920337765
 20
-6.931983244479838
 30
0.0
  0
SPLINE
  5
214
330
1F
100
AcDbEntity
  8
외형선
  6
Continuous
 62
     1
370
    15
100
AcDbSpline
210
0.0
220
0.0
230
1.0
 70
     8
 71
     3
 72
    14
 73
    10
 74
     0
 42
0.000000001
 43
0.00000001
 40
0.0
 40
0.0
 40
0.0
 40
0.0
 40
0.25
 40
0.25
 40
0.5
 40
0.5
 40
0.75
 40
0.75
 40
1.0
 40
1.0
 40
1.0
 40
1.0
 10
13.92012920337761
 20
-6.931983244479801
 30
0.0
 10
14.00221425779938
 20
-7.006887581599019
 30
0.0
 10
14.08738808829068
 20
-7.069619254323242
 30
0.0
 10
14.26427981195088
 20
-7.173742942805723
 30
0.0
 10
14.35553346238411
 20
-7.21445524312863
 30
0.0
 10
14.53763988142495
 20
-7.269945412047896
 30
0.0
 10
14.62640779587459
 20
-7.284394735916697
 30
0.0
 10
14.80014107284078
 20
-7.286824920785945
 30
0.0
 10
14.885830422025
 20
-7.274362974376287
 30
0.0
 10
14.96551045410935
 20
-7.247051539341301
 30
0.0
  0
SPLINE
  5
215
330
1F
100
AcDbEntity
  8
외형선
  6
Continuous
 62
     1
370
    15
100
AcDbSpline
210
0.0
220
0.0
230
1.0
 70
     8
 71
     3
 72
     8
 73
     4
 74
     0
 42
0.000000001
 43
0.00000001
 40
0.0
 40
0.0
 40
0.0
 40
0.0
 40
1.0
 40
1.0
 40
1.0
 40
1.0
 10
14.96551045410932
 20
-7.247051539341307
 30
0.0
 10
15.04649707431371
 20
-7.219292253124234
 30
0.0
 10
15.14919638626693
 20
-7.244476002004462
 30
0.0
 10
15.2321531636487
 20
-7.317477453638123
 30
0.0
  0
SPLINE
  5
216
330
1F
100
AcDbEntity
  8
외형선
  6
Continuous
 62
     1
370
    15
100
AcDbSpline
210
0.0
220
0.0
230
1.0
 70
     8
 71
     3
 72
     8
 73
     4
 74
     0
 42
0.000000001
 43
0.00000001
 40
0.0
 40
0.0
 40
0.0
 40
0.0
 40
1.0
 40
1.0
 40
1.0
 40
1.0
 10
15.23215316364867
 20
-7.317477453638099
 30
0.0
 10
15.3618652697769
 20
-7.431623305739412
 30
0.0
 10
15.50397209554467
 20
-7.514796735880013
 30
0.0
 10
15.64821207754503
 20
-7.564763623248039
 30
0.0
  0
SPLINE
  5
217
330
1F
100
AcDbEntity
  8
외형선
  6
Continuous
 62
     1
370
    15
100
AcDbSpline
210
0.0
220
0.0
230
1.0
 70
     8
 71
     3
 72
     8
 73
     4
 74
     0
 42
0.000000001
 43
0.00000001
 40
0.0
 40
0.0
 40
0.0
 40
0.0
 40
1.0
 40
1.0
 40
1.0
 40
1.0
 10
15.64821207706054
 20
-7.564763623194172
 30
0.0
 10
15.79380125002383
 20
-7.580938469851213
 30
0.0
 10
15.93597360292895
 20
-7.561332236696271
 30
0.0
 10
16.06346138224578
 20
-7.503164990594041
 30
0.0
  0
SPLINE
  5
218
330
1F
100
AcDbEntity
  8
외형선
  6
Continuous
 62
     1
370
    15
100
AcDbSpline
210
0.0
220
0.0
230
1.0
 70
     8
 71
     3
 72
     8
 73
     4
 74
     0
 42
0.000000001
 43
0.00000001
 40
0.0
 40
0.0
 40
0.0
 40
0.0
 40
1.0
 40
1.0
 40
1.0
 40
1.0
 10
16.0634613822458
 20
-7.503164990594049
 30
0.0
 10
16.14394147341862
 20
-7.466445351310458
 30
0.0
 10
16.2465411607711
 20
-7.483294951898844
 30
0.0
 10
16.32991288689389
 20
-7.551359914660958
 30
0.0
  0
SPLINE
  5
219
330
1F
100
AcDbEntity
  8
외형선
  6
Continuous
 62
     1
370
    15
100
AcDbSpline
210
0.0
220
0.0
230
1.0
 70
     8
 71
     3
 72
    14
 73
    10
 74
     0
 42
0.000000001
 43
0.00000001
 40
0.0
 40
0.0
 40
0.0
 40
0.0
 40
0.25
 40
0.25
 40
0.5
 40
0.5
 40
0.75
 40
0.75
 40
1.0
 40
1.0
 40
1.0
 40
1.0
 10
16.32991288689389
 20
-7.551359914660958
 30
0.0
 10
16.41189233034578
 20
-7.618288213081866
 30
0.0
 10
16.49696376418085
 20
-7.670695255089458
 30
0.0
 10
16.67366218805711
 20
-7.75055691641564
 30
0.0
 10
16.76481318479961
 20
-7.777342598346553
 30
0.0
 10
16.94669059177045
 20
-7.802914826579074
 30
0.0
 10
17.03533078241627
 20
-7.801744612619007
 30
0.0
 10
17.20878838875591
 20
-7.771870506154448
 30
0.0
 10
17.29433255837958
 20
-7.742559128096339
 30
0.0
 10
17.37387145551394
 20
-7.698538689320661
 30
0.0
  0
SPLINE
  5
21A
330
1F
100
AcDbEntity
  8
외형선
  6
Continuous
 62
     1
370
    15
100
AcDbSpline
210
0.0
220
0.0
230
1.0
 70
     8
 71
     3
 72
     8
 73
     4
 74
     0
 42
0.000000001
 43
0.00000001
 40
0.0
 40
0.0
 40
0.0
 40
0.0
 40
1.0
 40
1.0
 40
1.0
 40
1.0
 10
17.37387145551394
 20
-7.69853868932067
 30
0.0
 10
17.4547793197419
 20
-7.653760601969251
 30
0.0
 10
17.5573975263874
 20
-7.66244119051095
 30
0.0
 10
17.64026913752781
 20
-7.725525649611199
 30
0.0
  0
SPLINE
  5
21B
330
1F
100
AcDbEntity
  8
외형선
  6
Continuous
 62
     1
370
    15
100
AcDbSpline
210
0.0
220
0.0
230
1.0
 70
     8
 71
     3
 72
     8
 73
     4
 74
     0
 42
0.000000001
 43
0.00000001
 40
0.0
 40
0.0
 40
0.0
 40
0.0
 40
1.0
 40
1.0
 40
1.0
 40
1.0
 10
17.6402691375278
 20
-7.725525649611188
 30
0.0
 10
17.76990067053086
 20
-7.824205221895352
 30
0.0
 10
17.91185500959987
 20
-7.886242802414962
 30
0.0
 10
18.05605516264415
 20
-7.912730809279197
 30
0.0
  0
SPLINE
  5
21C
330
1F
100
AcDbEntity
  8
외형선
  6
Continuous
 62
     1
370
    15
100
AcDbSpline
210
0.0
220
0.0
230
1.0
 70
     8
 71
     3
 72
     8
 73
     4
 74
     0
 42
0.000000001
 43
0.00000001
 40
0.0
 40
0.0
 40
0.0
 40
0.0
 40
1.0
 40
1.0
 40
1.0
 40
1.0
 10
18.05605516216044
 20
-7.912730809310362
 30
0.0
 10
18.2015285319658
 20
-7.903359200061615
 30
0.0
 10
18.34375560537089
 20
-7.857099823740739
 30
0.0
 10
18.47120416941085
 20
-7.773530699869482
 30
0.0
  0
SPLINE
  5
21D
330
1F
100
AcDbEntity
  8
외형선
  6
Continuous
 62
     1
370
    15
100
AcDbSpline
210
0.0
220
0.0
230
1.0
 70
     8
 71
     3
 72
     8
 73
     4
 74
     0
 42
0.000000001
 43
0.00000001
 40
0.0
 40
0.0
 40
0.0
 40
0.0
 40
1.0
 40
1.0
 40
1.0
 40
1.0
 10
18.47120416941046
 20
-7.773530699869728
 30
0.0
 10
18.55168760534132
 20
-7.720757016011031
 30
0.0
 10
18.65429818095387
 20
-7.720732493139017
 30
0.0
 10
18.73766437492971
 20
-7.777207782307745
 30
0.0
  0
SPLINE
  5
21E
330
1F
100
AcDbEntity
  8
외형선
  6
Continuous
 62
     1
370
    15
100
AcDbSpline
210
0.0
220
0.0
230
1.0
 70
     8
 71
     3
 72
    10
 73
     6
 74
     0
 42
0.000000001
 43
0.00000001
 40
0.0
 40
0.0
 40
0.0
 40
0.0
 40
0.587481779370257
 40
0.9453004733096043
 40
1.0
 40
1.0
 40
1.0
 40
1.0
 10
18.73766437492974
 20
-7.777207782307769
 30
0.0
 10
18.84237456710954
 20
-7.829084210962721
 30
0.0
 10
19.01086080396612
 20
-7.912557119030961
 30
0.0
 10
19.20396170221844
 20
-7.949397271268785
 30
0.0
 10
19.28054473784711
 20
-7.927390063845852
 30
0.0
 10
19.29069957608675
 20
-7.924471928913596
 30
0.0
  0
SPLINE
  5
21F
330
1F
100
AcDbEntity
  8
외형선
  6
Continuous
 62
     1
370
    15
100
AcDbSpline
210
0.0
220
0.0
230
1.0
 70
     8
 71
     3
 72
    10
 73
     6
 74
     0
 42
0.000000001
 43
0.00000001
 40
0.0
 40
0.0
 40
0.0
 40
0.0
 40
0.2143532165955385
 40
0.6031138237399802
 40
1.0
 40
1.0
 40
1.0
 40
1.0
 10
45.14227682050442
 20
6.172783003483742
 30
0.0
 10
45.14931461183772
 20
6.17655063391852
 30
0.0
 10
45.16911645717096
 20
6.187151407884256
 30
0.0
 10
45.20118951177585
 20
6.210312474014719
 30
0.0
 10
45.22477413319756
 20
6.231377877469638
 30
0.0
 10
45.23668840614098
 20
6.242019513896087
 30
0.0
  0
SPLINE
  5
220
330
1F
100
AcDbEntity
  8
외형선
  6
Continuous
 62
     1
370
    15
100
AcDbSpline
210
0.0
220
0.0
230
1.0
 70
     8
 71
     3
 72
    14
 73
    10
 74
     0
 42
0.000000001
 43
0.00000001
 40
0.0
 40
0.0
 40
0.0
 40
0.0
 40
0.25
 40
0.25
 40
0.5
 40
0.5
 40
0.75
 40
0.75
 40
1.0
 40
1.0
 40
1.0
 40
1.0
 10
45.23668840614097
 20
6.242019513896094
 30
0.0
 10
45.31873453598608
 20
6.320230581166041
 30
0.0
 10
45.40387346384365
 20
6.388439023536334
 30
0.0
 10
45.58069994093894
 20
6.506893218449616
 30
0.0
 10
45.67190699570544
 20
6.556459975323696
 30
0.0
 10
45.85386295282562
 20
6.632068889799611
 30
0.0
 10
45.94253754930278
 20
6.657525241222566
 30
0.0
 10
46.11605954502733
 20
6.683737485128193
 30
0.0
 10
46.20162676735924
 20
6.684188044351719
 30
0.0
 10
46.2811966527786
 20
6.670259571216994
 30
0.0
  0
SPLINE
  5
221
330
1F
100
AcDbEntity
  8
외형선
  6
Continuous
 62
     1
370
    15
100
AcDbSpline
210
0.0
220
0.0
230
1.0
 70
     8
 71
     3
 72
     8
 73
     4
 74
     0
 42
0.000000001
 43
0.00000001
 40
0.0
 40
0.0
 40
0.0
 40
0.0
 40
1.0
 40
1.0
 40
1.0
 40
1.0
 10
46.28119665278017
 20
6.670259571219567
 30
0.0
 10
46.36220782797115
 20
6.656078804572511
 30
0.0
 10
46.46489542642617
 20
6.692769372262765
 30
0.0
 10
46.54786261554392
 20
6.770750772710292
 30
0.0
  0
SPLINE
  5
222
330
1F
100
AcDbEntity
  8
외형선
  6
Continuous
 62
     1
370
    15
100
AcDbSpline
210
0.0
220
0.0
230
1.0
 70
     8
 71
     3
 72
     8
 73
     4
 74
     0
 42
0.000000001
 43
0.00000001
 40
0.0
 40
0.0
 40
0.0
 40
0.0
 40
1.0
 40
1.0
 40
1.0
 40
1.0
 10
46.54786261554392
 20
6.770750772710293
 30
0.0
 10
46.67761874146274
 20
6.892709399046707
 30
0.0
 10
46.81971687036602
 20
6.988894220022015
 30
0.0
 10
46.9641901709939
 20
7.054579033837121
 30
0.0
  0
SPLINE
  5
223
330
1F
100
AcDbEntity
  8
외형선
  6
Continuous
 62
     1
370
    15
100
AcDbSpline
210
0.0
220
0.0
230
1.0
 70
     8
 71
     3
 72
     8
 73
     4
 74
     0
 42
0.000000001
 43
0.00000001
 40
0.0
 40
0.0
 40
0.0
 40
0.0
 40
1.0
 40
1.0
 40
1.0
 40
1.0
 10
46.96419017045095
 20
7.054579033705251
 30
0.0
 10
47.10991268341334
 20
7.089088457493229
 30
0.0
 10
47.25236873270454
 20
7.089698810297519
 30
0.0
 10
47.38003009402487
 20
7.052259465292845
 30
0.0
  0
SPLINE
  5
224
330
1F
100
AcDbEntity
  8
외형선
  6
Continuous
 62
     1
370
    15
100
AcDbSpline
210
0.0
220
0.0
230
1.0
 70
     8
 71
     3
 72
     8
 73
     4
 74
     0
 42
0.000000001
 43
0.00000001
 40
0.0
 40
0.0
 40
0.0
 40
0.0
 40
1.0
 40
1.0
 40
1.0
 40
1.0
 10
47.38003009402487
 20
7.052259465292837
 30
0.0
 10
47.46063896400896
 20
7.028619240384078
 30
0.0
 10
47.56335656884721
 20
7.057392950847687
 30
0.0
 10
47.64682762239299
 20
7.131755264047543
 30
0.0
  0
SPLINE
  5
225
330
1F
100
AcDbEntity
  8
외형선
  6
Continuous
 62
     1
370
    15
100
AcDbSpline
210
0.0
220
0.0
230
1.0
 70
     8
 71
     3
 72
    14
 73
    10
 74
     0
 42
0.000000001
 43
0.00000001
 40
0.0
 40
0.0
 40
0.0
 40
0.0
 40
0.25
 40
0.25
 40
0.5
 40
0.5
 40
0.75
 40
0.75
 40
1.0
 40
1.0
 40
1.0
 40
1.0
 10
47.64682762239298
 20
7.131755264047542
 30
0.0
 10
47.7289374940832
 20
7.204904933736093
 30
0.0
 10
47.81412805762949
 20
7.265200228038438
 30
0.0
 10
47.99103086738957
 20
7.363382918252459
 30
0.0
 10
48.08226826213816
 20
7.400585797578893
 30
0.0
 10
48.26427324954695
 20
7.448394458049803
 30
0.0
 10
48.35296544923304
 20
7.458771796038796
 30
0.0
 10
48.52650957587062
 20
7.452681644539729
 30
0.0
 10
48.61208086125625
 20
7.435727505283444
 30
0.0
 10
48.69164473697229
 20
7.40391140144762
 30
0.0
  0
SPLINE
  5
226
330
1F
100
AcDbEntity
  8
외형선
  6
Continuous
 62
     1
370
    15
100
AcDbSpline
210
0.0
220
0.0
230
1.0
 70
     8
 71
     3
 72
     8
 73
     4
 74
     0
 42
0.000000001
 43
0.00000001
 40
0.0
 40
0.0
 40
0.0
 40
0.0
 40
1.0
 40
1.0
 40
1.0
 40
1.0
 10
48.69164473697228
 20
7.403911401447621
 30
0.0
 10
48.77260147892029
 20
7.371538316491065
 30
0.0
 10
48.87519606446958
 20
7.392539721485251
 30
0.0
 10
48.95813733622684
 20
7.463346483092509
 30
0.0
  0
SPLINE
  5
227
330
1F
100
AcDbEntity
  8
외형선
  6
Continuous
 62
     1
370
    15
100
AcDbSpline
210
0.0
220
0.0
230
1.0
 70
     8
 71
     3
 72
     8
 73
     4
 74
     0
 42
0.000000001
 43
0.00000001
 40
0.0
 40
0.0
 40
0.0
 40
0.0
 40
1.0
 40
1.0
 40
1.0
 40
1.0
 10
48.95813733622684
 20
7.463346483092504
 30
0.0
 10
49.08768992629996
 20
7.573945213574428
 30
0.0
 10
49.22970919985153
 20
7.65195871903089
 30
0.0
 10
49.37405109150021
 20
7.69589700365096
 30
0.0
  0
SPLINE
  5
228
330
1F
100
AcDbEntity
  8
외형선
  6
Continuous
 62
     1
370
    15
100
AcDbSpline
210
0.0
220
0.0
230
1.0
 70
     8
 71
     3
 72
     8
 73
     4
 74
     0
 42
0.000000001
 43
0.00000001
 40
0.0
 40
0.0
 40
0.0
 40
0.0
 40
1.0
 40
1.0
 40
1.0
 40
1.0
 10
49.37405109101574
 20
7.695897003619692
 30
0.0
 10
49.51959277574554
 20
7.705279620716889
 30
0.0
 10
49.66182968548115
 20
7.678349746563499
 30
0.0
 10
49.78924493217809
 20
7.613114467819385
 30
0.0
  0
SPLINE
  5
229
330
1F
100
AcDbEntity
  8
외형선
  6
Continuous
 62
     1
370
    15
100
AcDbSpline
210
0.0
220
0.0
230
1.0
 70
     8
 71
     3
 72
     8
 73
     4
 74
     0
 42
0.000000001
 43
0.00000001
 40
0.0
 40
0.0
 40
0.0
 40
0.0
 40
1.0
 40
1.0
 40
1.0
 40
1.0
 10
49.78924493217809
 20
7.613114467819385
 30
0.0
 10
49.86972497322439
 20
7.571909525341186
 30
0.0
 10
49.9723314869054
 20
7.584362362642743
 30
0.0
 10
50.05566637235682
 20
7.649666477461151
 30
0.0
  0
SPLINE
  5
22A
330
1F
100
AcDbEntity
  8
외형선
  6
Continuous
 62
     1
370
    15
100
AcDbSpline
210
0.0
220
0.0
230
1.0
 70
     8
 71
     3
 72
    14
 73
    10
 74
     0
 42
0.000000001
 43
0.00000001
 40
0.0
 40
0.0
 40
0.0
 40
0.0
 40
0.2499999999999995
 40
0.2499999999999995
 40
0.4999999999999997
 40
0.4999999999999997
 40
0.7499999999999998
 40
0.7499999999999998
 40
1.0
 40
1.0
 40
1.0
 40
1.0
 10
50.05566637235682
 20
7.64966647746115
 30
0.0
 10
50.13771019750972
 20
7.713958872523592
 30
0.0
 10
50.22283846523746
 20
7.763201186345165
 30
0.0
 10
50.39961932843021
 20
7.83596820861609
 30
0.0
 10
50.49078589706809
 20
7.858829196683629
 30
0.0
 10
50.67262383682433
 20
7.876253919309982
 30
0.0
 10
50.76122378305394
 20
7.8709611558815
 30
0.0
 10
50.93457217282041
 20
7.832820999032373
 30
0.0
 10
51.0200268331614
 20
7.799340370453168
 30
0.0
 10
51.09950755131204
 20
7.751311089763766
 30
0.0
  0
SPLINE
  5
22B
330
1F
100
AcDbEntity
  8
외형선
  6
Continuous
 62
     1
370
    15
100
AcDbSpline
210
0.0
220
0.0
230
1.0
 70
     8
 71
     3
 72
     8
 73
     4
 74
     0
 42
0.000000001
 43
0.00000001
 40
0.0
 40
0.0
 40
0.0
 40
0.0
 40
1.0
 40
1.0
 40
1.0
 40
1.0
 10
51.09950755131203
 20
7.751311089763767
 30
0.0
 10
51.1803775858272
 20
7.70244226122942
 30
0.0
 10
51.28298032219365
 20
7.706609694550957
 30
0.0
 10
51.36590723524886
 20
7.766542837938892
 30
0.0
  0
SPLINE
  5
22C
330
1F
100
AcDbEntity
  8
외형선
  6
Continuous
 62
     1
370
    15
100
AcDbSpline
210
0.0
220
0.0
230
1.0
 70
     8
 71
     3
 72
     8
 73
     4
 74
     0
 42
0.000000001
 43
0.00000001
 40
0.0
 40
0.0
 40
0.0
 40
0.0
 40
1.0
 40
1.0
 40
1.0
 40
1.0
 10
51.36590723524886
 20
7.766542837938893
 30
0.0
 10
51.49545211836086
 20
7.860167835767474
 30
0.0
 10
51.63747433457544
 20
7.916075703542651
 30
0.0
 10
51.78179664784432
 20
7.936098243796839
 30
0.0
  0
SPLINE
  5
22D
330
1F
100
AcDbEntity
  8
외형선
  6
Continuous
 62
     1
370
    15
100
AcDbSpline
210
0.0
220
0.0
230
1.0
 70
     8
 71
     3
 72
     8
 73
     4
 74
     0
 42
0.000000001
 43
0.00000001
 40
0.0
 40
0.0
 40
0.0
 40
0.0
 40
1.0
 40
1.0
 40
1.0
 40
1.0
 10
51.78179664736017
 20
7.936098243850276
 30
0.0
 10
51.92739234595298
 20
7.920011091676004
 30
0.0
 10
52.06965461489871
 20
7.867085861430215
 30
0.0
 10
52.19709373358573
 20
7.777555455214777
 30
0.0
  0
SPLINE
  5
22E
330
1F
100
AcDbEntity
  8
외형선
  6
Continuous
 62
     1
370
    15
100
AcDbSpline
210
0.0
220
0.0
230
1.0
 70
     8
 71
     3
 72
     8
 73
     4
 74
     0
 42
0.000000001
 43
0.00000001
 40
0.0
 40
0.0
 40
0.0
 40
0.0
 40
1.0
 40
1.0
 40
1.0
 40
1.0
 10
52.19709373358573
 20
7.777555455214778
 30
0.0
 10
52.27762418886175
 20
7.720980013954213
 30
0.0
 10
52.38027018286145
 20
7.716506966691703
 30
0.0
 10
52.46364754216675
 20
7.769412779653475
 30
0.0
  0
SPLINE
  5
22F
330
1F
100
AcDbEntity
  8
외형선
  6
Continuous
 62
     1
370
    15
100
AcDbSpline
210
0.0
220
0.0
230
1.0
 70
     8
 71
     3
 72
     8
 73
     4
 74
     0
 42
0.000000001
 43
0.00000001
 40
0.0
 40
0.0
 40
0.0
 40
0.0
 40
1.0
 40
1.0
 40
1.0
 40
1.0
 10
52.46364754216674
 20
7.769412779653466
 30
0.0
 10
52.59412417675033
 20
7.852204708813556
 30
0.0
 10
52.73443092846671
 20
7.8948086271041
 30
0.0
 10
52.87812672962995
 20
7.902423170362552
 30
0.0
  0
SPLINE
  5
230
330
1F
100
AcDbEntity
  8
외형선
  6
Continuous
 62
     1
370
    15
100
AcDbSpline
210
0.0
220
0.0
230
1.0
 70
     8
 71
     3
 72
    20
 73
    16
 74
     0
 42
0.000000001
 43
0.00000001
 40
0.0
 40
0.0
 40
0.0
 40
0.0
 40
0.2499999999999997
 40
0.2499999999999997
 40
0.3749999999999997
 40
0.3749999999999997
 40
0.4999999999999998
 40
0.4999999999999998
 40
0.6249999999999998
 40
0.6249999999999998
 40
0.7499999999999999
 40
0.7499999999999999
 40
0.8749999999999999
 40
0.8749999999999999
 40
1.0
 40
1.0
 40
1.0
 40
1.0
 10
52.87812672962995
 20
7.902423170362558
 30
0.0
 10
52.89609383541611
 20
7.409040142595576
 30
0.0
 10
52.87700986899125
 20
6.921193882309647
 30
0.0
 10
52.77277613876377
 20
6.200723023229664
 30
0.0
 10
52.72528647438986
 20
5.962470646306476
 30
0.0
 10
52.59798708956326
 20
5.490795675373353
 30
0.0
 10
52.51970411364408
 20
5.263461463955799
 30
0.0
 10
52.33035866613683
 20
4.829923861968614
 30
0.0
 10
52.21773812802164
 20
4.621292039692365
 30
0.0
 10
51.96076843480883
 20
4.239640750832367
 30
0.0
 10
51.81788537142968
 20
4.067832575959481
 30
0.0
 10
51.50254758335606
 20
3.763275102579111
 30
0.0
 10
51.32794895300077
 20
3.629735668569135
 30
0.0
 10
50.96505203708647
 20
3.414642801063327
 30
0.0
 10
50.77548576007327
 20
3.331240861355886
 30
0.0
 10
50.57827551620693
 20
3.270574056651511
 30
0.0
  0
SPLINE
  5
231
330
1F
100
AcDbEntity
  8
외형선
  6
Continuous
 62
     1
370
    15
100
AcDbSpline
210
0.0
220
0.0
230
1.0
 70
     8
 71
     3
 72
     8
 73
     4
 74
     0
 42
0.000000001
 43
0.00000001
 40
0.0
 40
0.0
 40
0.0
 40
0.0
 40
1.0
 40
1.0
 40
1.0
 40
1.0
 10
53.27499999997966
 20
1.979292783288609
 30
0.0
 10
52.3506889072589
 20
2.480588122468139
 30
0.0
 10
51.45196466822331
 20
2.910502113529343
 30
0.0
 10
50.57827551620692
 20
3.270574056651519
 30
0.0
  0
LINE
  5
232
330
1F
100
AcDbEntity
  8
외형선
  6
Continuous
 62
     1
370
    15
100
AcDbLine
 10
53.27499999997966
 20
0.9679974228443058
 30
0.0
 11
53.27499999997966
 21
1.97929278328861
 31
0.0
  0
SPLINE
  5
233
330
1F
100
AcDbEntity
  8
외형선
  6
Continuous
 62
     1
370
    15
100
AcDbSpline
210
0.0
220
0.0
230
1.0
 70
     8
 71
     3
 72
     8
 73
     4
 74
     0
 42
0.000000001
 43
0.00000001
 40
0.0002707210228216
 40
0.0002707210228216
 40
0.0002707210228216
 40
0.0002707210228216
 40
0.0003154492149641
 40
0.0003154492149641
 40
0.0003154492149641
 40
0.0003154492149641
 10
53.24646648163778
 20
0.980657151574032
 30
0.0
 10
53.25596813712943
 20
0.9730438777209398
 30
0.0
 10
53.26547933893629
 20
0.9654678310364736
 30
0.0
 10
53.27499999997967
 20
0.9579294065753571
 30
0.0
  0
SPLINE
  5
234
330
1F
100
AcDbEntity
  8
외형선
  6
Continuous
 62
     1
370
    15
100
AcDbSpline
210
0.0
220
0.0
230
1.0
 70
     8
 71
     3
 72
     8
 73
     4
 74
     0
 42
0.000000001
 43
0.00000001
 40
0.0
 40
0.0
 40
0.0
 40
0.0
 40
1.0
 40
1.0
 40
1.0
 40
1.0
 10
49.54820755972233
 20
3.574761639611404
 30
0.0
 10
49.46729999513701
 20
3.605583003718889
 30
0.0
 10
49.36467529990618
 20
3.670740127761561
 30
0.0
 10
49.28179946728741
 20
3.748855537128715
 30
0.0
  0
SPLINE
  5
235
330
1F
100
AcDbEntity
  8
외형선
  6
Continuous
 62
     1
370
    15
100
AcDbSpline
210
0.0
220
0.0
230
1.0
 70
     8
 71
     3
 72
     8
 73
     4
 74
     0
 42
0.000000001
 43
0.00000001
 40
0.0
 40
0.0
 40
0.0
 40
0.0
 40
1.0
 40
1.0
 40
1.0
 40
1.0
 10
48.45080330388838
 20
4.275348478973975
 30
0.0
 10
48.37031058052865
 20
4.297309688970085
 30
0.0
 10
48.26769379605096
 20
4.357900289568462
 30
0.0
 10
48.18431292357396
 20
4.437569396806122
 30
0.0
  0
SPLINE
  5
236
330
1F
100
AcDbEntity
  8
외형선
  6
Continuous
 62
     1
370
    15
100
AcDbSpline
210
0.0
220
0.0
230
1.0
 70
     8
 71
     3
 72
     8
 73
     4
 74
     0
 42
0.000000001
 43
0.00000001
 40
0.0
 40
0.0
 40
0.0
 40
0.0
 40
1.0
 40
1.0
 40
1.0
 40
1.0
 10
47.13961856293488
 20
5.04745100958981
 30
0.0
 10
47.05858919240114
 20
5.0601024944524
 30
0.0
 10
46.95587495587522
 20
5.115544715726333
 30
0.0
 10
46.87288407988515
 20
5.196681119660727
 30
0.0
  0
SPLINE
  5
237
330
1F
100
AcDbEntity
  8
외형선
  6
Continuous
 62
     1
370
    15
100
AcDbSpline
210
0.0
220
0.0
230
1.0
 70
     8
 71
     3
 72
     8
 73
     4
 74
     0
 42
0.000000001
 43
0.00000001
 40
0.0
 40
0.0
 40
0.0
 40
0.0
 40
1.0
 40
1.0
 40
1.0
 40
1.0
 10
46.87288407988515
 20
5.196681119660728
 30
0.0
 10
46.743050675394
 20
5.323613332693783
 30
0.0
 10
46.60092847294749
 20
5.43677949260381
 30
0.0
 10
46.4564551487411
 20
5.527182602575978
 30
0.0
  0
SPLINE
  5
238
330
1F
100
AcDbEntity
  8
외형선
  6
Continuous
 62
     1
370
    15
100
AcDbSpline
210
0.0
220
0.0
230
1.0
 70
     8
 71
     3
 72
     8
 73
     4
 74
     0
 42
0.000000001
 43
0.00000001
 40
0.0
 40
0.0
 40
0.0
 40
0.0
 40
1.0
 40
1.0
 40
1.0
 40
1.0
 10
46.45645515028208
 20
5.527182601870605
 30
0.0
 10
46.31076581463687
 20
5.593893323505538
 30
0.0
 10
46.16832710866136
 20
5.633079022082974
 30
0.0
 10
46.04068055366908
 20
5.638019854472565
 30
0.0
  0
SPLINE
  5
239
330
1F
100
AcDbEntity
  8
외형선
  6
Continuous
 62
     1
370
    15
100
AcDbSpline
210
0.0
220
0.0
230
1.0
 70
     8
 71
     3
 72
     8
 73
     4
 74
     0
 42
0.000000001
 43
0.00000001
 40
0.0
 40
0.0
 40
0.0
 40
0.0
 40
1.0
 40
1.0
 40
1.0
 40
1.0
 10
46.04068055366892
 20
5.638019854472492
 30
0.0
 10
45.96009779325433
 20
5.641138982229007
 30
0.0
 10
45.85740294139788
 20
5.690308598431571
 30
0.0
 10
45.77395113979502
 20
5.770749834572379
 30
0.0
  0
SPLINE
  5
23A
330
1F
100
AcDbEntity
  8
외형선
  6
Continuous
 62
     1
370
    15
100
AcDbSpline
210
0.0
220
0.0
230
1.0
 70
     8
 71
     3
 72
     8
 73
     4
 74
     0
 42
0.000000001
 43
0.00000001
 40
0.0
 40
0.0
 40
0.0
 40
0.0
 40
1.0
 40
1.0
 40
1.0
 40
1.0
 10
44.7293188780904
 20
6.258254509486512
 30
0.0
 10
44.64837019312644
 20
6.251956768080894
 30
0.0
 10
44.54575002613345
 20
6.294672686281706
 30
0.0
 10
44.46285559792159
 20
6.374470121187988
 30
0.0
  0
SPLINE
  5
23B
330
1F
100
AcDbEntity
  8
외형선
  6
Continuous
 62
     1
370
    15
100
AcDbSpline
210
0.0
220
0.0
230
1.0
 70
     8
 71
     3
 72
     8
 73
     4
 74
     0
 42
0.000000001
 43
0.00000001
 40
0.0
 40
0.0
 40
0.0
 40
0.0
 40
1.0
 40
1.0
 40
1.0
 40
1.0
 10
44.46285559792157
 20
6.374470121187997
 30
0.0
 10
44.33331526704866
 20
6.499170735494068
 30
0.0
 10
44.19132720444912
 20
6.601382748292619
 30
0.0
 10
44.04699703477509
 20
6.675087637354878
 30
0.0
  0
SPLINE
  5
23C
330
1F
100
AcDbEntity
  8
외형선
  6
Continuous
 62
     1
370
    15
100
AcDbSpline
210
0.0
220
0.0
230
1.0
 70
     8
 71
     3
 72
     8
 73
     4
 74
     0
 42
0.000000001
 43
0.00000001
 40
0.0
 40
0.0
 40
0.0
 40
0.0
 40
1.0
 40
1.0
 40
1.0
 40
1.0
 10
44.04699703631394
 20
6.67508763688544
 30
0.0
 10
43.90147923570977
 20
6.719484892004592
 30
0.0
 10
43.75925232431567
 20
6.731512594367799
 30
0.0
 10
43.63183881455194
 20
6.706276284681631
 30
0.0
  0
SPLINE
  5
23D
330
1F
100
AcDbEntity
  8
외형선
  6
Continuous
 62
     1
370
    15
100
AcDbSpline
210
0.0
220
0.0
230
1.0
 70
     8
 71
     3
 72
     8
 73
     4
 74
     0
 42
0.000000001
 43
0.00000001
 40
0.0
 40
0.0
 40
0.0
 40
0.0
 40
1.0
 40
1.0
 40
1.0
 40
1.0
 10
43.63183881455187
 20
6.706276284681778
 30
0.0
 10
43.55136561633449
 20
6.690337264122528
 30
0.0
 10
43.44876322766248
 20
6.72551241219786
 30
0.0
 10
43.36542862401159
 20
6.802453408811231
 30
0.0
  0
SPLINE
  5
23E
330
1F
100
AcDbEntity
  8
외형선
  6
Continuous
 62
     1
370
    15
100
AcDbSpline
210
0.0
220
0.0
230
1.0
 70
     8
 71
     3
 72
    14
 73
    10
 74
     0
 42
0.000000001
 43
0.00000001
 40
0.0
 40
0.0
 40
0.0
 40
0.0
 40
0.25
 40
0.25
 40
0.5
 40
0.5
 40
0.75
 40
0.75
 40
1.0
 40
1.0
 40
1.0
 40
1.0
 10
43.3654286240116
 20
6.802453408811219
 30
0.0
 10
43.28339621351735
 20
6.878192119280967
 30
0.0
 10
43.19827657553455
 20
6.942198053205831
 30
0.0
 10
43.02150518196611
 20
7.04953466140303
 30
0.0
 10
42.93033856976255
 20
7.092174052010401
 30
0.0
 10
42.74848943127127
 20
7.15198730728362
 30
0.0
 10
42.6598806452443
 20
7.168780909776366
 30
0.0
 10
42.48651007136205
 20
7.17627744357259
 30
0.0
 10
42.40102892446032
 20
7.166567423567249
 30
0.0
 10
42.32154811823104
 20
7.142120288928974
 30
0.0
  0
SPLINE
  5
23F
330
1F
100
AcDbEntity
  8
외형선
  6
Continuous
 62
     1
370
    15
100
AcDbSpline
210
0.0
220
0.0
230
1.0
 70
     8
 71
     3
 72
     8
 73
     4
 74
     0
 42
0.000000001
 43
0.00000001
 40
0.0
 40
0.0
 40
0.0
 40
0.0
 40
1.0
 40
1.0
 40
1.0
 40
1.0
 10
42.32154811823104
 20
7.142120288928976
 30
0.0
 10
42.24064246814083
 20
7.117234893138623
 30
0.0
 10
42.13806869888074
 20
7.144975205952912
 30
0.0
 10
42.05513585827616
 20
7.219247469544212
 30
0.0
  0
SPLINE
  5
240
330
1F
100
AcDbEntity
  8
외형선
  6
Continuous
 62
     1
370
    15
100
AcDbSpline
210
0.0
220
0.0
230
1.0
 70
     8
 71
     3
 72
     8
 73
     4
 74
     0
 42
0.000000001
 43
0.00000001
 40
0.0
 40
0.0
 40
0.0
 40
0.0
 40
1.0
 40
1.0
 40
1.0
 40
1.0
 10
42.05513585827612
 20
7.219247469544226
 30
0.0
 10
41.92558287307206
 20
7.33527139198518
 30
0.0
 10
41.7835535366203
 20
7.42136515763865
 30
0.0
 10
41.63921394430726
 20
7.47469283303
 30
0.0
  0
SPLINE
  5
241
330
1F
100
AcDbEntity
  8
외형선
  6
Continuous
 62
     1
370
    15
100
AcDbSpline
210
0.0
220
0.0
230
1.0
 70
     8
 71
     3
 72
     8
 73
     4
 74
     0
 42
0.000000001
 43
0.00000001
 40
0.0
 40
0.0
 40
0.0
 40
0.0
 40
1.0
 40
1.0
 40
1.0
 40
1.0
 10
41.63921394584658
 20
7.474692832818826
 30
0.0
 10
41.49361207735903
 20
7.494674261285926
 30
0.0
 10
41.35132933076494
 20
7.47912516106266
 30
0.0
 10
41.22386113865808
 20
7.42519334571906
 30
0.0
  0
SPLINE
  5
242
330
1F
100
AcDbEntity
  8
외형선
  6
Continuous
 62
     1
370
    15
100
AcDbSpline
210
0.0
220
0.0
230
1.0
 70
     8
 71
     3
 72
     8
 73
     4
 74
     0
 42
0.000000001
 43
0.00000001
 40
0.0
 40
0.0
 40
0.0
 40
0.0
 40
1.0
 40
1.0
 40
1.0
 40
1.0
 10
41.22386113865804
 20
7.425193345719058
 30
0.0
 10
41.14331810985773
 20
7.391115575534404
 30
0.0
 10
41.0406574953781
 20
7.410547090122151
 30
0.0
 10
40.95726131038289
 20
7.480079794024565
 30
0.0
  0
SPLINE
  5
243
330
1F
100
AcDbEntity
  8
외형선
  6
Continuous
 62
     1
370
    15
100
AcDbSpline
210
0.0
220
0.0
230
1.0
 70
     8
 71
     3
 72
    14
 73
    10
 74
     0
 42
0.000000001
 43
0.00000001
 40
0.0
 40
0.0
 40
0.0
 40
0.0
 40
0.2499999999999998
 40
0.2499999999999998
 40
0.4999999999999999
 40
0.4999999999999999
 40
0.7499999999999999
 40
0.7499999999999999
 40
1.0
 40
1.0
 40
1.0
 40
1.0
 10
40.95726131038292
 20
7.480079794024555
 30
0.0
 10
40.87510265385717
 20
7.548580691728131
 30
0.0
 10
40.78986165426613
 20
7.602830267353122
 30
0.0
 10
40.61286536077853
 20
7.686817803917057
 30
0.0
 10
40.52159442726659
 20
7.715876046432705
 30
0.0
 10
40.33956960279099
 20
7.746236237780494
 30
0.0
 10
40.25087230557959
 20
7.747529197137905
 30
0.0
 10
40.0773184844579
 20
7.722709340577894
 30
0.0
 10
39.99176387429679
 20
7.696034984249922
 30
0.0
 10
39.91213094738438
 20
7.654546541005669
 30
0.0
  0
SPLINE
  5
244
330
1F
100
AcDbEntity
  8
외형선
  6
Continuous
 62
     1
370
    15
100
AcDbSpline
210
0.0
220
0.0
230
1.0
 70
     8
 71
     3
 72
     8
 73
     4
 74
     0
 42
0.000000001
 43
0.00000001
 40
0.0
 40
0.0
 40
0.0
 40
0.0
 40
1.0
 40
1.0
 40
1.0
 40
1.0
 10
39.9121309473844
 20
7.654546541005685
 30
0.0
 10
39.83110535705349
 20
7.612332525571161
 30
0.0
 10
39.72836368592664
 20
7.623582133528585
 30
0.0
 10
39.64529255444911
 20
7.688494393921696
 30
0.0
  0
SPLINE
  5
245
330
1F
100
AcDbEntity
  8
외형선
  6
Continuous
 62
     1
370
    15
100
AcDbSpline
210
0.0
220
0.0
230
1.0
 70
     8
 71
     3
 72
     8
 73
     4
 74
     0
 42
0.000000001
 43
0.00000001
 40
0.0
 40
0.0
 40
0.0
 40
0.0
 40
1.0
 40
1.0
 40
1.0
 40
1.0
 10
39.64529255444876
 20
7.688494393921969
 30
0.0
 10
39.51556675291579
 20
7.789862882096704
 30
0.0
 10
39.37338485887501
 20
7.855427511470119
 30
0.0
 10
39.22891497075624
 20
7.885647802385098
 30
0.0
  0
SPLINE
  5
246
330
1F
100
AcDbEntity
  8
외형선
  6
Continuous
 62
     1
370
    15
100
AcDbSpline
210
0.0
220
0.0
230
1.0
 70
     8
 71
     3
 72
     8
 73
     4
 74
     0
 42
0.000000001
 43
0.00000001
 40
0.0
 40
0.0
 40
0.0
 40
0.0
 40
1.0
 40
1.0
 40
1.0
 40
1.0
 10
39.22891497229683
 20
7.885647802442934
 30
0.0
 10
39.08322133028365
 20
7.880185913452603
 30
0.0
 10
38.94086421940497
 20
7.837884463659217
 30
0.0
 10
38.81334458595272
 20
7.758003791181848
 30
0.0
  0
SPLINE
  5
247
330
1F
100
AcDbEntity
  8
외형선
  6
Continuous
 62
     1
370
    15
100
AcDbSpline
210
0.0
220
0.0
230
1.0
 70
     8
 71
     3
 72
     8
 73
     4
 74
     0
 42
0.000000001
 43
0.00000001
 40
0.0
 40
0.0
 40
0.0
 40
0.0
 40
1.0
 40
1.0
 40
1.0
 40
1.0
 10
38.81334458595283
 20
7.75800379118184
 30
0.0
 10
38.73279069328149
 20
7.707543333109212
 30
0.0
 10
38.63013180481143
 20
7.710165769270964
 30
0.0
 10
38.546742302306
 20
7.768641478478376
 30
0.0
  0
SPLINE
  5
248
330
1F
100
AcDbEntity
  8
외형선
  6
Continuous
 62
     1
370
    15
100
AcDbSpline
210
0.0
220
0.0
230
1.0
 70
     8
 71
     3
 72
    10
 73
     6
 74
     0
 42
0.000000001
 43
0.00000001
 40
0.0
 40
0.0
 40
0.0
 40
0.0
 40
0.4363013898257674
 40
0.702281425093225
 40
0.9999999999999999
 40
0.9999999999999999
 40
0.9999999999999999
 40
0.9999999999999999
 10
38.546742302306
 20
7.768641478478377
 30
0.0
 10
38.44183032351712
 20
7.825409384545156
 30
0.0
 10
38.2729614276316
 20
7.916784399389958
 30
0.0
 10
38.01481026505756
 20
7.953333762380517
 30
0.0
 10
37.87475962226748
 20
7.908028656561844
 30
0.0
 10
37.80079158858125
 20
7.884100672179964
 30
0.0
  0
SPLINE
  5
249
330
1F
100
AcDbEntity
  8
외형선
  6
Continuous
370
    15
100
AcDbSpline
210
0.0
220
0.0
230
1.0
 70
     8
 71
     3
 72
     8
 73
     4
 74
     0
 42
0.000000001
 43
0.00000001
 40
0.0
 40
0.0
 40
0.0
 40
0.0
 40
1.0
 40
1.0
 40
1.0
 40
1.0
 10
11.89394529845653
 20
-6.207341142197643
 30
0.0
 10
11.87414873984656
 20
-6.222888115143644
 30
0.0
 10
11.85418537455737
 20
-6.237966611599697
 30
0.0
 10
11.834050567159
 20
-6.252579793747356
 30
0.0
  0
SPLINE
  5
24A
330
1F
100
AcDbEntity
  8
외형선
  6
Continuous
370
    15
100
AcDbSpline
210
0.0
220
0.0
230
1.0
 70
     8
 71
     3
 72
     8
 73
     4
 74
     0
 42
0.000000001
 43
0.00000001
 40
0.0
 40
0.0
 40
0.0
 40
0.0
 40
1.0
 40
1.0
 40
1.0
 40
1.0
 10
11.834050567159
 20
-6.25257979374735
 30
0.0
 10
11.66563035626619
 20
-6.337569124505269
 30
0.0
 10
11.4975116713905
 20
-6.420503033624774
 30
0.0
 10
11.32959268081039
 20
-6.501272169395748
 30
0.0
  0
SPLINE
  5
24B
330
1F
100
AcDbEntity
  8
외형선
  6
Continuous
370
    15
100
AcDbSpline
210
0.0
220
0.0
230
1.0
 70
     8
 71
     3
 72
     8
 73
     4
 74
     0
 42
0.000000001
 43
0.00000001
 40
0.0
 40
0.0
 40
0.0
 40
0.0
 40
1.0
 40
1.0
 40
1.0
 40
1.0
 10
11.32959268081039
 20
-6.50127216939575
 30
0.0
 10
11.21691559887933
 20
-6.53030222542266
 30
0.0
 10
11.10570095410346
 20
-6.539599901949567
 30
0.0
 10
11.00355198308259
 20
-6.525323863154294
 30
0.0
  0
SPLINE
  5
24C
330
1F
100
AcDbEntity
  8
외형선
  6
Continuous
370
    15
100
AcDbSpline
210
0.0
220
0.0
230
1.0
 70
     8
 71
     3
 72
     8
 73
     4
 74
     0
 42
0.000000001
 43
0.00000001
 40
0.0
 40
0.0
 40
0.0
 40
0.0
 40
1.0
 40
1.0
 40
1.0
 40
1.0
 10
11.00355198308256
 20
-6.525323863154298
 30
0.0
 10
10.92266949806014
 20
-6.514019965694558
 30
0.0
 10
10.82004195445791
 20
-6.552841229688879
 30
0.0
 10
10.73712668468729
 20
-6.631460619071619
 30
0.0
  0
SPLINE
  5
24D
330
1F
100
AcDbEntity
  8
외형선
  6
Continuous
370
    15
100
AcDbSpline
210
0.0
220
0.0
230
1.0
 70
     8
 71
     3
 72
     8
 73
     4
 74
     0
 42
0.000000001
 43
0.00000001
 40
0.0
 40
0.0
 40
0.0
 40
0.0
 40
1.0
 40
1.0
 40
1.0
 40
1.0
 10
10.73712668468731
 20
-6.631460619071616
 30
0.0
 10
10.60758182266283
 20
-6.754293698891673
 30
0.0
 10
10.46556568714929
 20
-6.852572288874063
 30
0.0
 10
10.32128176194696
 20
-6.92112187486894
 30
0.0
  0
SPLINE
  5
24E
330
1F
100
AcDbEntity
  8
외형선
  6
Continuous
 62
     1
370
    15
100
AcDbSpline
210
0.0
220
0.0
230
1.0
 70
     8
 71
     3
 72
    14
 73
    10
 74
     0
 42
0.000000001
 43
0.00000001
 40
0.0
 40
0.0
 40
0.0
 40
0.0
 40
0.2500000000000001
 40
0.2500000000000001
 40
0.5000000000000001
 40
0.5000000000000001
 40
0.7499999999999999
 40
0.7499999999999999
 40
1.0
 40
1.0
 40
1.0
 40
1.0
 10
46.45645514873944
 20
5.527182602577042
 30
0.0
 10
46.43301527075889
 20
5.180343783444383
 30
0.0
 10
46.4086294071018
 20
4.797940821670935
 30
0.0
 10
46.35881234261214
 20
3.976148792484394
 30
0.0
 10
46.3334400043526
 20
3.537109019404601
 30
0.0
 10
46.28308306936816
 20
2.625071161825822
 30
0.0
 10
46.25810596067369
 20
2.15221583114451
 30
0.0
 10
46.20980337530942
 20
1.198138529107134
 30
0.0
 10
46.18671098227922
 20
0.7186544479781847
 30
0.0
 10
46.16224969185888
 20
0.2287653471651566
 30
0.0
  0
SPLINE
  5
24F
330
1F
100
AcDbEntity
  8
외형선
  6
Continuous
 62
     1
370
    15
100
AcDbSpline
210
0.0
220
0.0
230
1.0
 70
     8
 71
     3
 72
    14
 73
    10
 74
     0
 42
0.000000001
 43
0.00000001
 40
0.0
 40
0.0
 40
0.0
 40
0.0
 40
0.2500000000000001
 40
0.2500000000000001
 40
0.5000000000000001
 40
0.5000000000000001
 40
0.7500000000000001
 40
0.7500000000000001
 40
1.0
 40
1.0
 40
1.0
 40
1.0
 10
53.2331535297356
 20
0.2697838747451032
 30
0.0
 10
53.22492807445643
 20
-0.1365194390877224
 30
0.0
 10
53.21681874759433
 20
-0.5447737488732064
 30
0.0
 10
53.20116586343904
 20
-1.350126039293949
 30
0.0
 10
53.19365668784104
 20
-1.745345290565969
 30
0.0
 10
53.17926033350591
 20
-2.521256428171467
 30
0.0
 10
53.17235931175645
 20
-2.902739744168671
 30
0.0
 10
53.15923512606351
 20
-3.647182789110215
 30
0.0
 10
53.15312702535169
 20
-4.004291908206912
 30
0.0
 10
53.14705247524653
 20
-4.346485689170295
 30
0.0
  0
SPLINE
  5
250
330
1F
100
AcDbEntity
  8
외형선
  6
Continuous
 62
     1
370
    15
100
AcDbSpline
210
0.0
220
0.0
230
1.0
 70
     8
 71
     3
 72
     8
 73
     4
 74
     0
 42
0.000000001
 43
0.00000001
 40
0.0
 40
0.0
 40
0.0
 40
0.0
 40
1.0
 40
1.0
 40
1.0
 40
1.0
 10
53.14705247524654
 20
-4.346485689170298
 30
0.0
 10
53.08946555323243
 20
-4.368383858947427
 30
0.0
 10
53.03365531921004
 20
-4.38649686812063
 30
0.0
 10
52.98014361116492
 20
-4.40046151681562
 30
0.0
  0
LINE
  5
251
330
1F
100
AcDbEntity
  8
외형선
  6
Continuous
370
    15
100
AcDbLine
 10
-41.47500000002034
 20
7.937499999999993
 30
0.0
 11
-41.47500000002034
 21
-7.937499999999996
 31
0.0
  0
LINE
  5
252
330
1F
100
AcDbEntity
  8
외형선
  6
Continuous
370
    15
100
AcDbLine
 10
9.274351020247863
 20
7.928198007978544
 30
0.0
 11
9.222968550357171
 21
7.870950585273889
 31
0.0
  0
LINE
  5
253
330
1F
100
AcDbEntity
  8
외형선
  6
Continuous
370
    15
100
AcDbLine
 10
8.950180717445535
 20
7.894920909875754
 30
0.0
 11
8.950180717445535
 21
5.433736000533496
 31
0.0
  0
LINE
  5
254
330
1F
100
AcDbEntity
  8
외형선
  6
Continuous
370
    15
100
AcDbLine
 10
-41.97500000002034
 20
7.437499999999993
 30
0.0
 11
-41.97500000002034
 21
-7.437500000000006
 31
0.0
  0
LINE
  5
255
330
1F
100
AcDbEntity
  8
외형선
  6
Continuous
 62
     1
370
    15
100
AcDbLine
 10
53.27499999997966
 20
-4.207361311911346
 30
0.0
 11
53.27499999997966
 21
0.9579294065753133
 31
0.0
  0
SPLINE
  5
256
330
1F
100
AcDbEntity
  8
외형선
  6
Continuous
 62
     1
370
    15
100
AcDbSpline
210
0.0
220
0.0
230
1.0
 70
     8
 71
     3
 72
     8
 73
     4
 74
     0
 42
0.000000001
 43
0.00000001
 40
0.00011206092176
 40
0.00011206092176
 40
0.00011206092176
 40
0.00011206092176
 40
0.000310918242736
 40
0.000310918242736
 40
0.000310918242736
 40
0.000310918242736
 10
53.14705247524653
 20
-4.346485689170288
 30
0.0
 10
53.18975918039889
 20
-4.300120654872496
 30
0.0
 10
53.23240924067706
 20
-4.253745852049642
 30
0.0
 10
53.27499999997966
 20
-4.207361311911345
 30
0.0
  0
SPLINE
  5
259
330
1F
100
AcDbEntity
  8
외형선
  6
Continuous
 62
     1
370
    15
100
AcDbSpline
210
0.0
220
0.0
230
1.0
 70
     8
 71
     3
 72
    16
 73
    12
 74
     0
 42
0.000000001
 43
0.00000001
 40
0.0
 40
0.0
 40
0.0
 40
0.0
 40
0.1249999999999999
 40
0.1249999999999999
 40
0.2499999999999998
 40
0.2499999999999998
 40
0.4999999999999999
 40
0.4999999999999999
 40
0.75
 40
0.75
 40
1.0
 40
1.0
 40
1.0
 40
1.0
 10
23.97202862825319
 20
5.751673404986134
 30
0.0
 10
23.96008898275089
 20
5.584070472031493
 30
0.0
 10
23.94848615888027
 20
5.410025226565562
 30
0.0
 10
23.92454236812127
 20
5.043639609329571
 30
0.0
 10
23.91234690987254
 20
4.851929027468715
 30
0.0
 10
23.87530986104169
 20
4.254238912285962
 30
0.0
 10
23.85001515306206
 20
3.825524339824498
 30
0.0
 10
23.79952100156982
 20
2.928761246949565
 30
0.0
 10
23.7743291798985
 20
2.460849949646702
 30
0.0
 10
23.72534063511094
 20
1.51103916568635
 30
0.0
 10
23.70221857101555
 20
1.033830808243215
 30
0.0
 10
23.67807379690475
 20
0.546808977502473
 30
0.0
  0
SPLINE
  5
25C
330
1F
100
AcDbEntity
  8
외형선
  6
Continuous
 62
     1
370
    15
100
AcDbSpline
210
0.0
220
0.0
230
1.0
 70
     8
 71
     3
 72
    14
 73
    10
 74
     0
 42
0.000000001
 43
0.00000001
 40
0.0
 40
0.0
 40
0.0
 40
0.0
 40
0.25
 40
0.25
 40
0.5
 40
0.5
 40
0.75
 40
0.75
 40
1.0
 40
1.0
 40
1.0
 40
1.0
 10
33.60885514952409
 20
-0.8280808157433772
 30
0.0
 10
33.58378329164528
 20
-1.3185726405648
 30
0.0
 10
33.55846594218883
 20
-1.805796497136089
 30
0.0
 10
33.50864750810867
 20
-2.748653371752842
 30
0.0
 10
33.48415340611882
 20
-3.204160067824805
 30
0.0
 10
33.43716631143558
 20
-4.062472481579031
 30
0.0
 10
33.41316212545099
 20
-4.474583180677161
 30
0.0
 10
33.36360637410242
 20
-5.251115126959857
 30
0.0
 10
33.3383274850231
 20
-5.613796491263851
 30
0.0
 10
33.31319796242111
 20
-5.941101900601272
 30
0.0
  0
SPLINE
  5
25D
330
1F
100
AcDbEntity
  8
외형선
  6
Continuous
370
    15
100
AcDbSpline
210
0.0
220
0.0
230
1.0
 70
    24
 71
     3
 72
    16
 73
    12
 74
     0
 42
0.000000001
 43
0.00000001
 40
0.0
 40
0.0
 40
0.0
 40
0.0
 40
0.2500000000000001
 40
0.2500000000000001
 40
0.3750000000000003
 40
0.3750000000000003
 40
0.5000000000000006
 40
0.5000000000000006
 40
0.7500000000000003
 40
0.7500000000000003
 40
1.0
 40
1.0
 40
1.0
 40
1.0
 10
11.99999999997965
 20
-6.299590239628108
 30
0.0
 10
11.99999999997965
 20
-5.98819048120525
 30
0.0
 10
11.99999999997965
 20
-5.641043122908071
 30
0.0
 10
11.99999999997965
 20
-5.0674564012775
 30
0.0
 10
11.99999999997966
 20
-4.866394463844791
 30
0.0
 10
11.99999999997966
 20
-4.453152840448642
 30
0.0
 10
11.99999999997965
 20
-4.240599311527289
 30
0.0
 10
11.99999999997965
 20
-3.585560001570675
 30
0.0
 10
11.99999999997966
 20
-3.125854446670043
 30
0.0
 10
11.99999999997966
 20
-2.158019869970737
 30
0.0
 10
11.99999999997965
 20
-1.662143042970907
 30
0.0
 10
11.99999999997965
 20
-1.155319983654508
 30
0.0
  0
SPLINE
  5
25E
330
1F
100
AcDbEntity
  8
외형선
  6
Continuous
 62
     1
370
    15
100
AcDbSpline
210
0.0
220
0.0
230
1.0
 70
     8
 71
     3
 72
    16
 73
    12
 74
     0
 42
0.000000001
 43
0.00000001
 40
0.0
 40
0.0
 40
0.0
 40
0.0
 40
0.2500000000000002
 40
0.2500000000000002
 40
0.3750000000000002
 40
0.3750000000000002
 40
0.5000000000000003
 40
0.5000000000000003
 40
0.7500000000000001
 40
0.7500000000000001
 40
1.0
 40
1.0
 40
1.0
 40
1.0
 10
44.04699703477476
 20
6.675087637355263
 30
0.0
 10
44.02193996513562
 20
6.408115195883104
 30
0.0
 10
43.99718215168244
 20
6.103240287247055
 30
0.0
 10
43.96140447152342
 20
5.603238850392393
 30
0.0
 10
43.94983261932164
 20
5.430211774981525
 30
0.0
 10
43.92598407665481
 20
5.066071335233152
 30
0.0
 10
43.91383469971204
 20
4.875492877438073
 30
0.0
 10
43.87692866204448
 20
4.281175320074308
 30
0.0
 10
43.85171151705758
 20
3.85467662507727
 30
0.0
 10
43.80134096048145
 20
2.96199219882974
 30
0.0
 10
43.77619507971042
 20
2.495941211013966
 30
0.0
 10
43.75172760008428
 20
2.022600444370146
 30
0.0
  0
SPLINE
  5
25F
330
1F
100
AcDbEntity
  8
외형선
  6
Continuous
 62
     1
370
    15
100
AcDbSpline
210
0.0
220
0.0
230
1.0
 70
     8
 71
     3
 72
    14
 73
    10
 74
     0
 42
0.000000001
 43
0.00000001
 40
0.0
 40
0.0
 40
0.0
 40
0.0
 40
0.25
 40
0.25
 40
0.5
 40
0.5
 40
0.75
 40
0.75
 40
1.0
 40
1.0
 40
1.0
 40
1.0
 10
13.53278316972744
 20
-2.291862565808708
 30
0.0
 10
13.50785069649925
 20
-2.763565278720956
 30
0.0
 10
13.48334109498436
 20
-3.219181615449486
 30
0.0
 10
13.43634036664492
 20
-4.077370433235862
 30
0.0
 10
13.41224714756432
 20
-4.489760824627934
 30
0.0
 10
13.36260274488677
 20
-5.265968686332292
 30
0.0
 10
13.33728644704282
 20
-5.628276632098459
 30
0.0
 10
13.286972191021
 20
-6.281724801157647
 30
0.0
 10
13.26198170015352
 20
-6.572777652040764
 30
0.0
 10
13.23778378792073
 20
-6.822138754447137
 30
0.0
  0
SPLINE
  5
260
330
1F
100
AcDbEntity
  8
외형선
  6
Continuous
 62
     1
370
    15
100
AcDbSpline
210
0.0
220
0.0
230
1.0
 70
     8
 71
     3
 72
    14
 73
    10
 74
     0
 42
0.000000001
 43
0.00000001
 40
0.0
 40
0.0
 40
0.0
 40
0.0
 40
0.25
 40
0.25
 40
0.5
 40
0.5
 40
0.75
 40
0.75
 40
1.0
 40
1.0
 40
1.0
 40
1.0
 10
21.56318423588477
 20
6.841902106213431
 30
0.0
 10
21.53804059386787
 20
6.591547632095897
 30
0.0
 10
21.51305405395254
 20
6.301687958616812
 30
0.0
 10
21.4646467339838
 20
5.660527650850503
 30
0.0
 10
21.44165952604041
 20
5.312091300533708
 30
0.0
 10
21.39304840965965
 20
4.54661905780406
 30
0.0
 10
21.3679996222058
 20
4.131779269499082
 30
0.0
 10
21.31767751427562
 20
3.257415686380857
 30
0.0
 10
21.29241167966833
 20
2.798018067946907
 30
0.0
 10
21.26769022404077
 20
2.328559102331978
 30
0.0
  0
SPLINE
  5
261
330
1F
100
AcDbEntity
  8
외형선
  6
Continuous
 62
     1
370
    15
100
AcDbSpline
210
0.0
220
0.0
230
1.0
 70
     8
 71
     3
 72
    16
 73
    12
 74
     0
 42
0.000000001
 43
0.00000001
 40
0.0
 40
0.0
 40
0.0
 40
0.0
 40
0.1249999999999999
 40
0.1249999999999999
 40
0.2499999999999998
 40
0.2499999999999998
 40
0.4999999999999999
 40
0.4999999999999999
 40
0.7499999999999999
 40
0.7499999999999999
 40
1.0
 40
1.0
 40
1.0
 40
1.0
 10
36.01667189269251
 20
-2.595552831399461
 30
0.0
 10
36.00430165843363
 20
-2.827859530806987
 30
0.0
 10
35.99206958315837
 20
-3.055559385828167
 30
0.0
 10
35.96803005570537
 20
-3.49909893852037
 30
0.0
 10
35.95639374866096
 20
-3.713945944889448
 30
0.0
 10
35.92084204172814
 20
-4.345934141691891
 30
0.0
 10
35.89618099303824
 20
-4.750750574211829
 30
0.0
 10
35.8461361999167
 20
-5.504176173967982
 30
0.0
 10
35.82075963699981
 20
-5.852656103267971
 30
0.0
 10
35.77061463194956
 20
-6.474941008751841
 30
0.0
 10
35.74585347345922
 20
-6.74867376825088
 30
0.0
 10
35.7220104495682
 20
-6.979929769805916
 30
0.0
  0
SPLINE
  5
262
330
1F
100
AcDbEntity
  8
외형선
  6
Continuous
 62
     1
370
    15
100
AcDbSpline
210
0.0
220
0.0
230
1.0
 70
     8
 71
     3
 72
    14
 73
    10
 74
     0
 42
0.000000001
 43
0.00000001
 40
0.0
 40
0.0
 40
0.0
 40
0.0
 40
0.25
 40
0.25
 40
0.5
 40
0.5
 40
0.75
 40
0.75
 40
1.0
 40
1.0
 40
1.0
 40
1.0
 10
41.63921394430615
 20
7.474692833025088
 30
0.0
 10
41.61443571545719
 20
7.309348260017125
 30
0.0
 10
41.58914893348252
 20
7.099531572212016
 30
0.0
 10
41.53886015600825
 20
6.600579321673961
 30
0.0
 10
41.5138656135
 20
6.311528259446021
 30
0.0
 10
41.46542915342955
 20
5.671770344998409
 30
0.0
 10
41.44244771427873
 20
5.324047761147453
 30
0.0
 10
41.39387410530146
 20
4.560061325898535
 30
0.0
 10
41.36883766803338
 20
4.14588140944535
 30
0.0
 10
41.34368155325004
 20
3.709237059840386
 30
0.0
  0
SPLINE
  5
263
330
1F
100
AcDbEntity
  8
외형선
  6
Continuous
 62
     1
370
    15
100
AcDbSpline
210
0.0
220
0.0
230
1.0
 70
     8
 71
     3
 72
    16
 73
    12
 74
     0
 42
0.000000001
 43
0.00000001
 40
0.0
 40
0.0
 40
0.0
 40
0.0
 40
0.2499999999999999
 40
0.2499999999999999
 40
0.4999999999999998
 40
0.4999999999999998
 40
0.7499999999999997
 40
0.7499999999999997
 40
0.8749999999999998
 40
0.8749999999999998
 40
1.0
 40
1.0
 40
1.0
 40
1.0
 10
15.94276780241046
 20
-3.956106657409003
 30
0.0
 10
15.91901676620575
 20
-4.376656623789099
 30
0.0
 10
15.89431914198299
 20
-4.780386806327729
 30
0.0
 10
15.84423378553734
 20
-5.531085604678344
 30
0.0
 10
15.81885327428347
 20
-5.877925823411355
 30
0.0
 10
15.76873365841321
 20
-6.496544435613306
 30
0.0
 10
15.74400180970001
 20
-6.768252428507241
 30
0.0
 10
15.70830249679981
 20
-7.111979217621175
 30
0.0
 10
15.6967064040372
 20
-7.215896153925129
 30
0.0
 10
15.67275178052382
 20
-7.405374152790694
 30
0.0
 10
15.66055497097245
 20
-7.4903677002686
 30
0.0
 10
15.64821207754508
 20
-7.564763623247768
 30
0.0
  0
SPLINE
  5
264
330
1F
100
AcDbEntity
  8
외형선
  6
Continuous
 62
     1
370
    15
100
AcDbSpline
210
0.0
220
0.0
230
1.0
 70
     8
 71
     3
 72
    16
 73
    12
 74
     0
 42
0.000000001
 43
0.00000001
 40
0.0
 40
0.0
 40
0.0
 40
0.0
 40
0.2500000000000002
 40
0.2500000000000002
 40
0.5000000000000006
 40
0.5000000000000006
 40
0.6250000000000004
 40
0.6250000000000004
 40
0.7500000000000002
 40
0.7500000000000002
 40
1.0
 40
1.0
 40
1.0
 40
1.0
 10
19.15520759425312
 20
7.575726908248203
 30
0.0
 10
19.13066733640487
 20
7.429493875298728
 30
0.0
 10
19.1054833701393
 20
7.238313992300952
 30
0.0
 10
19.05511244742445
 20
6.773728923203207
 30
0.0
 10
19.02993302315284
 20
6.50039337272198
 30
0.0
 10
18.99313569040576
 20
6.040859517834836
 30
0.0
 10
18.98103113504543
 20
5.879485654996669
 30
0.0
 10
18.95728756407007
 20
5.542910830515472
 30
0.0
 10
18.94569687960559
 20
5.368040681618955
 30
0.0
 10
18.90977202914314
 20
4.815955634954664
 30
0.0
 10
18.88494781107743
 20
4.414049744868307
 30
0.0
 10
18.85986153599759
 20
3.987286562783135
 30
0.0
  0
SPLINE
  5
265
330
1F
100
AcDbEntity
  8
외형선
  6
Continuous
 62
     1
370
    15
100
AcDbSpline
210
0.0
220
0.0
230
1.0
 70
     8
 71
     3
 72
    14
 73
    10
 74
     0
 42
0.000000001
 43
0.00000001
 40
0.0
 40
0.0
 40
0.0
 40
0.0
 40
0.25
 40
0.25
 40
0.5
 40
0.5
 40
0.75
 40
0.75
 40
1.0
 40
1.0
 40
1.0
 40
1.0
 10
38.42706014009352
 20
-4.229435539820908
 30
0.0
 10
38.40293959287976
 20
-4.641864341040692
 30
0.0
 10
38.37799624722466
 20
-5.03482308614974
 30
0.0
 10
38.32770790347553
 20
-5.759488711081953
 30
0.0
 10
38.30237034288807
 20
-6.091076783764544
 30
0.0
 10
38.25261848369503
 20
-6.676321895664326
 30
0.0
 10
38.22825185850574
 20
-6.929805052407493
 30
0.0
 10
38.18144731837073
 20
-7.351292553888788
 30
0.0
 10
38.15700886239304
 20
-7.525187671133914
 30
0.0
 10
38.13211475160858
 20
-7.655336166984481
 30
0.0
  0
SPLINE
  5
266
330
1F
100
AcDbEntity
  8
외형선
  6
Continuous
 62
     1
370
    15
100
AcDbSpline
210
0.0
220
0.0
230
1.0
 70
     8
 71
     3
 72
    18
 73
    14
 74
     0
 42
0.000000001
 43
0.00000001
 40
0.0
 40
0.0
 40
0.0
 40
0.0
 40
0.1250000000000001
 40
0.1250000000000001
 40
0.2500000000000001
 40
0.2500000000000001
 40
0.5
 40
0.5
 40
0.7499999999999999
 40
0.7499999999999999
 40
0.875
 40
0.875
 40
1.0
 40
1.0
 40
1.0
 40
1.0
 10
39.22891497075594
 20
7.885647802385293
 30
0.0
 10
39.21688998196137
 20
7.857828348808245
 30
0.0
 10
39.20525235172302
 20
7.819270012736403
 30
0.0
 10
39.18148316001074
 20
7.719898256887745
 30
0.0
 10
39.1693618629497
 20
7.658955162296417
 30
0.0
 10
39.13250326391092
 20
7.442428955916252
 30
0.0
 10
39.10726811978046
 20
7.25285356990037
 30
0.0
 10
39.05676420930986
 20
6.790758793862144
 30
0.0
 10
39.03150307426607
 20
6.518308280631427
 30
0.0
 10
38.99456979210359
 20
6.059540993238307
 30
0.0
 10
38.98241772051519
 20
5.898330300849752
 30
0.0
 10
38.95857649299694
 20
5.561906502746856
 30
0.0
 10
38.94696580378756
 20
5.387169042555273
 30
0.0
 10
38.93497434363091
 20
5.203240689350876
 30
0.0
  0
SPLINE
  5
267
330
1F
100
AcDbEntity
  8
외형선
  6
Continuous
 62
     1
370
    15
100
AcDbSpline
210
0.0
220
0.0
230
1.0
 70
     8
 71
     3
 72
    14
 73
    10
 74
     0
 42
0.000000001
 43
0.00000001
 40
0.0
 40
0.0
 40
0.0
 40
0.0
 40
0.25
 40
0.25
 40
0.5
 40
0.5
 40
0.75
 40
0.75
 40
1.0
 40
1.0
 40
1.0
 40
1.0
 10
18.35172962160861
 20
-5.413308614052669
 30
0.0
 10
18.32661611079902
 20
-5.774211670261684
 30
0.0
 10
18.30131962678968
 20
-6.104310433029527
 30
0.0
 10
18.25166442275256
 20
-6.686635003896366
 30
0.0
 10
18.22740020816754
 20
-6.938551886136952
 30
0.0
 10
18.18061427059111
 20
-7.357677356302186
 30
0.0
 10
18.15619432511295
 20
-7.530395155312151
 30
0.0
 10
18.10645931486054
 20
-7.788485365999853
 30
0.0
 10
18.08115114881864
 20
-7.873786111504868
 30
0.0
 10
18.05605516264417
 20
-7.91273080927921
 30
0.0
  0
SPLINE
  5
268
330
1F
100
AcDbEntity
  8
외형선
  6
Continuous
 62
     1
370
    15
100
AcDbSpline
210
0.0
220
0.0
230
1.0
 70
     8
 71
     3
 72
    14
 73
    10
 74
     0
 42
0.000000001
 43
0.00000001
 40
0.0
 40
0.0
 40
0.0
 40
0.0
 40
0.2500000000000001
 40
0.2500000000000001
 40
0.5000000000000002
 40
0.5000000000000002
 40
0.7500000000000001
 40
0.7500000000000001
 40
1.0
 40
1.0
 40
1.0
 40
1.0
 10
16.74469143881054
 20
7.915619084792937
 30
0.0
 10
16.72030478276802
 20
7.879284022382157
 30
0.0
 10
16.69725413346834
 20
7.799328786319382
 30
0.0
 10
16.64875489048653
 20
7.549806696359752
 30
0.0
 10
16.62371232265416
 20
7.379663537249513
 30
0.0
 10
16.57330099895387
 20
6.95406023133209
 30
0.0
 10
16.54793978338627
 20
6.69865214760811
 30
0.0
 10
16.49821959374128
 20
6.116963183625965
 30
0.0
 10
16.47412902961675
 20
5.792095781571986
 30
0.0
 10
16.45056529011003
 20
5.439480617767787
 30
0.0
  0
SPLINE
  5
269
330
1F
100
AcDbEntity
  8
외형선
  6
Continuous
 62
     1
370
    15
100
AcDbSpline
210
0.0
220
0.0
230
1.0
 70
     8
 71
     3
 72
    16
 73
    12
 74
     0
 42
0.000000001
 43
0.00000001
 40
0.0
 40
0.0
 40
0.0
 40
0.0
 40
0.2499999999999998
 40
0.2499999999999998
 40
0.3749999999999998
 40
0.3749999999999998
 40
0.4999999999999999
 40
0.4999999999999999
 40
0.7499999999999999
 40
0.7499999999999999
 40
1.0
 40
1.0
 40
1.0
 40
1.0
 10
40.83551753551589
 20
-5.641693577056453
 30
0.0
 10
40.81035083265456
 20
-5.989098512565619
 30
0.0
 10
40.78514404751789
 20
-6.303614789465237
 30
0.0
 10
40.74824014842739
 20
-6.715108270543356
 30
0.0
 10
40.73608927521339
 20
-6.842288436703741
 30
0.0
 10
40.71223343196944
 20
-7.075667102027878
 30
0.0
 10
40.70066865301384
 20
-7.181552592435657
 30
0.0
 10
40.66495314461588
 20
-7.47176212787953
 30
0.0
 10
40.64023045267984
 20
-7.626593697614582
 30
0.0
 10
40.59016847469822
 20
-7.846930610008457
 30
0.0
 10
40.56483641366688
 20
-7.912379508098581
 30
0.0
 10
40.53985810328373
 20
-7.931511810763722
 30
0.0
  0
SPLINE
  5
26A
330
1F
100
AcDbEntity
  8
외형선
  6
Continuous
 62
     1
370
    15
100
AcDbSpline
210
0.0
220
0.0
230
1.0
 70
     8
 71
     3
 72
     9
 73
     5
 74
     0
 42
0.000000001
 43
0.00000001
 40
0.0
 40
0.0
 40
0.0
 40
0.0
 40
0.5746639542652889
 40
1.0
 40
1.0
 40
1.0
 40
1.0
 10
37.47113550967512
 20
7.764271186766654
 30
0.0
 10
37.4664988998819
 20
7.766610094618772
 30
0.0
 10
37.45843051529152
 20
7.770680139093911
 30
0.0
 10
37.45063555011022
 20
7.748526922707501
 30
0.0
 10
37.44732007044337
 20
7.739104361249401
 30
0.0
  0
LINE
  5
26B
330
1F
100
AcDbEntity
  8
외형선
  6
Continuous
 62
     1
370
    15
100
AcDbLine
 10
19.84451915350365
 20
-7.747516842607039
 30
0.0
 11
19.82918362616121
 21
-7.747977943147522
 31
0.0
  0
SPLINE
  5
26C
330
1F
100
AcDbEntity
  8
외형선
  6
Continuous
 62
     1
370
    15
100
AcDbSpline
210
0.0
220
0.0
230
1.0
 70
     8
 71
     3
 72
     9
 73
     5
 74
     0
 42
0.000000001
 43
0.00000001
 40
0.0
 40
0.0
 40
0.0
 40
0.0
 40
0.2856219922829011
 40
1.0
 40
1.0
 40
1.0
 40
1.0
 10
14.96920259618979
 20
7.768941665132296
 30
0.0
 10
14.96786898772374
 20
7.770042351555452
 30
0.0
 10
14.96319984983491
 20
7.773895998868665
 30
0.0
 10
14.95869874415675
 20
7.759869292589822
 30
0.0
 10
14.95548325324987
 20
7.749848922103507
 30
0.0
  0
LINE
  5
26D
330
1F
100
AcDbEntity
  8
외형선
  6
Continuous
 62
     1
370
    15
100
AcDbLine
 10
42.33671895355863
 20
-7.754147115910822
 30
0.0
 11
42.3293628078912
 21
-7.767616065589315
 31
0.0
  0
SPLINE
  5
26E
330
1F
100
AcDbEntity
  8
외형선
  6
Continuous
 62
     1
370
    15
100
AcDbSpline
210
0.0
220
0.0
230
1.0
 70
     8
 71
     3
 72
    12
 73
     8
 74
     0
 42
0.000000001
 43
0.00000001
 40
0.0
 40
0.0
 40
0.0
 40
0.0
 40
0.0203196467404043
 40
0.2561824639723146
 40
0.5019893706453689
 40
0.7508704941953683
 40
1.0
 40
1.0
 40
1.0
 40
1.0
 10
36.76683319097258
 20
7.929600802154388
 30
0.0
 10
36.76517394580578
 20
7.931128665676635
 30
0.0
 10
36.74425480677773
 20
7.950391394342296
 30
0.0
 10
36.70487114339974
 20
7.831172541666905
 30
0.0
 10
36.64694444072269
 20
7.552509602300558
 30
0.0
 10
36.5857920684759
 20
7.089464420685275
 30
0.0
 10
36.54509341726742
 20
6.647962077364403
 30
0.0
 10
36.52473394245936
 20
6.427100806299459
 30
0.0
  0
LINE
  5
26F
330
1F
100
AcDbEntity
  8
외형선
  6
Continuous
 62
     1
370
    15
100
AcDbLine
 10
14.71722170441482
 20
7.756253837275277
 30
0.0
 11
14.70674081291259
 21
7.764912904479663
 31
0.0
  0
SPLINE
  5
270
330
1F
100
AcDbEntity
  8
외형선
  6
Continuous
 62
     1
370
    15
100
AcDbSpline
210
0.0
220
0.0
230
1.0
 70
     8
 71
     3
 72
    11
 73
     7
 74
     0
 42
0.000000001
 43
0.00000001
 40
0.0
 40
0.0
 40
0.0
 40
0.0
 40
0.2544756621230246
 40
0.5095087859048443
 40
0.7675462297652375
 40
0.9999999999999999
 40
0.9999999999999999
 40
0.9999999999999999
 40
0.9999999999999999
 10
20.75963854006785
 20
-6.587996674946525
 30
0.0
 10
20.74040229527429
 20
-6.791778753327484
 30
0.0
 10
20.70188766621953
 20
-7.19978932093474
 30
0.0
 10
20.64403831268241
 20
-7.615221605723979
 30
0.0
 10
20.58567630543995
 20
-7.881830853054409
 30
0.0
 10
20.54757116916626
 20
-7.913760178632743
 30
0.0
 10
20.52951236946182
 20
-7.928892135940949
 30
0.0
  0
SPLINE
  5
271
330
1F
100
AcDbEntity
  8
외형선
  6
Continuous
 62
     1
370
    15
100
AcDbSpline
210
0.0
220
0.0
230
1.0
 70
     8
 71
     3
 72
    12
 73
     8
 74
     0
 42
0.000000001
 43
0.00000001
 40
0.0
 40
0.0
 40
0.0
 40
0.0
 40
0.0121364202338288
 40
0.2923629893760268
 40
0.5261029170295778
 40
0.762723743328568
 40
1.0
 40
1.0
 40
1.0
 40
1.0
 10
14.27265944712263
 20
7.932994879219993
 30
0.0
 10
14.27170800295904
 20
7.934391088873475
 30
0.0
 10
14.24878797756981
 20
7.968025391264398
 30
0.0
 10
14.2091159423901
 20
7.846244792054268
 30
0.0
 10
14.15224186583178
 20
7.581244970988891
 30
0.0
 10
14.09666088059708
 20
7.178874679601692
 30
0.0
 10
14.05946291427554
 20
6.798897451908431
 30
0.0
 10
14.04083820751591
 20
6.608646071498322
 30
0.0
  0
LINE
  5
272
330
1F
100
AcDbEntity
  8
외형선
  6
Continuous
 62
     1
370
    15
100
AcDbLine
 10
42.58522943529981
 20
-7.769632159414522
 30
0.0
 11
42.57776889401073
 21
-7.758304258351098
 31
0.0
  0
SPLINE
  5
273
330
1F
100
AcDbEntity
  8
외형선
  6
Continuous
 62
     1
370
    15
100
AcDbSpline
210
0.0
220
0.0
230
1.0
 70
     8
 71
     3
 72
    11
 73
     7
 74
     0
 42
0.000000001
 43
0.00000001
 40
0.0
 40
0.0
 40
0.0
 40
0.0
 40
0.2592308905391842
 40
0.5207956109619141
 40
0.78472231228136
 40
1.0
 40
1.0
 40
1.0
 40
1.0
 10
43.24373003090341
 20
-6.760195669183167
 30
0.0
 10
43.22512408101436
 20
-6.946440208767939
 30
0.0
 10
43.18774467372289
 20
-7.320606028974112
 30
0.0
 10
43.13023349706927
 20
-7.688785791095301
 30
0.0
 10
43.07457586823823
 20
-7.909760242539348
 30
0.0
 10
43.03897685430053
 20
-7.920127088082681
 30
0.0
 10
43.02298436011458
 20
-7.924784287784012
 30
0.0
  0
LINE
  5
274
330
1F
100
AcDbEntity
  8
외형선
  6
Continuous
 62
     1
370
    15
100
AcDbLine
 10
20.96877719592587
 20
-7.759480611522431
 30
0.0
 11
20.96546743334672
 21
-7.765742729236604
 31
0.0
  0
LINE
  5
275
330
1F
100
AcDbEntity
  8
외형선
  6
Continuous
 62
     1
370
    15
100
AcDbLine
 10
13.83343844063814
 20
7.766541213374555
 30
0.0
 11
13.82956436145795
 21
7.767221193520988
 31
0.0
  0
LINE
  5
276
330
1F
100
AcDbEntity
  8
외형선
  6
Continuous
 62
     1
370
    15
100
AcDbLine
 10
34.97118839454557
 20
7.773066335952301
 30
0.0
 11
34.96928816049729
 21
7.769327190637379
 31
0.0
  0
LINE
  5
277
330
1F
100
AcDbEntity
  8
외형선
  6
Continuous
 62
     1
370
    15
100
AcDbLine
 10
43.46874651716867
 20
-7.756193163294633
 30
0.0
 11
43.46424801492837
 21
-7.763397524208539
 31
0.0
  0
SPLINE
  5
278
330
1F
100
AcDbEntity
  8
외형선
  6
Continuous
370
    15
100
AcDbSpline
210
0.0
220
0.0
230
1.0
 70
    24
 71
     3
 72
    11
 73
     7
 74
     0
 42
0.000000001
 43
0.00000001
 40
0.0
 40
0.0
 40
0.0
 40
0.0
 40
0.2231884674903304
 40
0.4503837746842541
 40
0.7344279481959447
 40
1.0
 40
1.0
 40
1.0
 40
1.0
 10
8.950180717445537
 20
-6.640621905016169
 30
0.0
 10
8.950180717447234
 20
-6.812685058327534
 30
0.0
 10
8.950180717450662
 20
-7.159900366286068
 30
0.0
 10
8.950180717443757
 20
-7.558604885532701
 30
0.0
 10
8.950180717446061
 20
-7.841725158760896
 30
0.0
 10
8.950180717445711
 20
-7.864307179210959
 30
0.0
 10
8.95018071744554
 20
-7.875218708435484
 30
0.0
  0
SPLINE
  5
279
330
1F
100
AcDbEntity
  8
외형선
  6
Continuous
 62
     1
370
    15
100
AcDbSpline
210
0.0
220
0.0
230
1.0
 70
     8
 71
     3
 72
    10
 73
     6
 74
     0
 42
0.000000001
 43
0.00000001
 40
0.0
 40
0.0
 40
0.0
 40
0.0
 40
0.4290479702479939
 40
0.7128925666376628
 40
1.0
 40
1.0
 40
1.0
 40
1.0
 10
34.27185150870099
 20
7.935538512935226
 30
0.0
 10
34.24966079689307
 20
7.911878807110617
 30
0.0
 10
34.21278941049046
 20
7.872566586611241
 30
0.0
 10
34.1621347671807
 20
7.632884943186504
 30
0.0
 10
34.13207513947786
 20
7.421576866100838
 30
0.0
 10
34.11695943429098
 20
7.315319043202567
 30
0.0
  0
SPLINE
  5
27A
330
1F
100
AcDbEntity
  8
외형선
  6
Continuous
 62
     1
370
    15
100
AcDbSpline
210
0.0
220
0.0
230
1.0
 70
     8
 71
     3
 72
    10
 73
     6
 74
     0
 42
0.000000001
 43
0.00000001
 40
0.0
 40
0.0
 40
0.0
 40
0.0
 40
0.4860337318521237
 40
0.9739875413310524
 40
0.9999999999999999
 40
0.9999999999999999
 40
0.9999999999999999
 40
0.9999999999999999
 10
23.17012138428692
 20
-7.420553266153835
 30
0.0
 10
23.14631134390775
 20
-7.560750972138368
 30
0.0
 10
23.09859720151782
 20
-7.841700235539852
 30
0.0
 10
23.04797803725627
 20
-7.977996879229463
 30
0.0
 10
23.02309578084389
 20
-7.933215656759758
 30
0.0
 10
23.02183645954864
 20
-7.930949224562107
 30
0.0
  0
LINE
  5
27C
330
1F
100
AcDbEntity
  8
외형선
  6
Continuous
370
    15
100
AcDbLine
 10
11.99999999997965
 20
7.860569506159026
 30
0.0
 11
11.99999999997966
 21
7.86716907160702
 31
0.0
  0
SPLINE
  5
27E
330
1F
100
AcDbEntity
  8
외형선
  6
Continuous
 62
     1
370
    15
100
AcDbSpline
210
0.0
220
0.0
230
1.0
 70
     8
 71
     3
 72
     9
 73
     5
 74
     0
 42
0.000000001
 43
0.00000001
 40
0.0
 40
0.0
 40
0.0
 40
0.0
 40
0.5250442486575314
 40
1.0
 40
1.0
 40
1.0
 40
1.0
 10
45.65424043235323
 20
-7.527514921523665
 30
0.0
 10
45.63197019914442
 20
-7.650788093759303
 30
0.0
 10
45.58955428226547
 20
-7.885574347586155
 30
0.0
 10
45.54695994608983
 20
-7.914176412710021
 30
0.0
 10
45.52672952114858
 20
-7.927761128040873
 30
0.0
  0
SPLINE
  5
27F
330
1F
100
AcDbEntity
  8
외형선
  6
Continuous
 62
     1
370
    15
100
AcDbSpline
210
0.0
220
0.0
230
1.0
 70
     8
 71
     3
 72
     8
 73
     4
 74
     0
 42
0.000000001
 43
0.00000001
 40
0.0
 40
0.0
 40
0.0
 40
0.0
 40
1.0
 40
1.0
 40
1.0
 40
1.0
 10
53.07827620846197
 20
7.916191380701179
 30
0.0
 10
53.01165809550344
 20
7.918270947456495
 30
0.0
 10
52.94494225026858
 20
7.913725450836115
 30
0.0
 10
52.87812672962997
 20
7.902423170362554
 30
0.0
  0
SPLINE
  5
280
330
1F
100
AcDbEntity
  8
외형선
  6
Continuous
 62
     1
370
    15
100
AcDbSpline
210
0.0
220
0.0
230
1.0
 70
     8
 71
     3
 72
     8
 73
     4
 74
     0
 42
0.000000001
 43
0.00000001
 40
0.000005387685887
 40
0.000005387685887
 40
0.000005387685887
 40
0.000005387685887
 40
0.000310918242736
 40
0.000310918242736
 40
0.000310918242736
 40
0.000310918242736
 10
53.07827620846169
 20
7.916191380700703
 30
0.0
 10
53.14398450905331
 20
7.853440664729747
 30
0.0
 10
53.20956226599247
 20
7.790485628671099
 30
0.0
 10
53.27499999997966
 20
7.727314959568747
 30
0.0
  0
LINE
  5
281
330
1F
100
AcDbEntity
  8
외형선
  6
Continuous
 62
     1
370
    15
100
AcDbLine
 10
53.27499999997966
 20
0.9579294065753133
 30
0.0
 11
53.27499999997966
 21
0.9679974228443058
 31
0.0
  0
LINE
  5
282
330
1F
100
AcDbEntity
  8
외형선
  6
Continuous
 62
     1
370
    15
100
AcDbLine
 10
53.27499999997966
 20
1.979292783288609
 30
0.0
 11
53.27499999997966
 21
7.727314959568748
 31
0.0
  0
LINE
  5
283
330
1F
100
AcDbEntity
  8
외형선
  6
Continuous
 62
     1
370
    15
100
AcDbLine
 10
32.46979389756048
 20
7.759053593972397
 30
0.0
 11
32.46726525883902
 21
7.754584946648946
 31
0.0
  0
LINE
  5
284
330
1F
100
AcDbEntity
  8
외형선
  6
Continuous
 62
     1
370
    15
100
AcDbLine
 10
24.83375876651381
 20
-7.759275916501727
 30
0.0
 11
24.82935094165215
 21
-7.760272544121134
 31
0.0
  0
LINE
  5
285
330
1F
100
AcDbEntity
  8
외형선
  6
Continuous
370
    15
100
AcDbLine
 10
9.970001419124776
 20
7.753695178483156
 30
0.0
 11
9.965357407300733
 21
7.745959568738262
 31
0.0
  0
SPLINE
  5
286
330
1F
100
AcDbEntity
  8
외형선
  6
Continuous
 62
     1
370
    15
100
AcDbSpline
210
0.0
220
0.0
230
1.0
 70
     8
 71
     3
 72
     9
 73
     5
 74
     0
 42
0.000000001
 43
0.00000001
 40
0.0
 40
0.0
 40
0.0
 40
0.0
 40
0.1273020501574514
 40
1.0
 40
1.0
 40
1.0
 40
1.0
 10
31.7740253239848
 20
7.926589201016337
 30
0.0
 10
31.77113212352696
 20
7.93010808569951
 30
0.0
 10
31.74840507039421
 20
7.957750096796898
 30
0.0
 10
31.7264906379974
 20
7.88595872021556
 30
0.0
 10
31.70736595777274
 20
7.823306533056649
 30
0.0
  0
LINE
  5
287
330
1F
100
AcDbEntity
  8
외형선
  6
Continuous
 62
     1
370
    15
100
AcDbLine
 10
53.27499999997966
 20
-4.207361311911346
 30
0.0
 11
53.27499999997966
 21
-4.302289398704175
 31
0.0
  0
LINE
  5
288
330
1F
100
AcDbEntity
  8
외형선
  6
Continuous
 62
     1
370
    15
100
AcDbLine
 10
25.57839864026845
 20
-7.866031486671072
 30
0.0
 11
25.51995317137466
 21
-7.931141700246168
 31
0.0
  0
LINE
  5
289
330
1F
100
AcDbEntity
  8
외형선
  6
Continuous
 62
     1
370
    15
100
AcDbLine
 10
31.33878218362939
 20
7.766119289784875
 30
0.0
 11
31.32949559049764
 21
7.755720073923315
 31
0.0
  0
LINE
  5
28A
330
1F
100
AcDbEntity
  8
외형선
  6
Continuous
 62
     1
370
    15
100
AcDbLine
 10
48.06220160994782
 20
-7.902280940874667
 30
0.0
 11
48.01338387405178
 21
-7.927957083702849
 31
0.0
  0
SPLINE
  5
28B
330
1F
100
AcDbEntity
  8
외형선
  6
Continuous
 62
     1
370
    15
100
AcDbSpline
210
0.0
220
0.0
230
1.0
 70
     8
 71
     3
 72
     9
 73
     5
 74
     0
 42
0.000000001
 43
0.00000001
 40
0.0
 40
0.0
 40
0.0
 40
0.0
 40
0.2787283462032456
 40
1.0
 40
1.0
 40
1.0
 40
1.0
 10
53.07649182097016
 20
7.930202468158428
 30
0.0
 10
53.07658457969386
 20
7.932080799464291
 30
0.0
 10
53.07691737226756
 20
7.938819731228671
 30
0.0
 10
53.07770680965324
 20
7.925673432980177
 30
0.0
 10
53.07827620846199
 20
7.91619138070118
 30
0.0
  0
LINE
  5
28C
330
1F
100
AcDbEntity
  8
외형선
  6
Continuous
 62
     1
370
    15
100
AcDbLine
 10
53.27499999997966
 20
7.727314959568748
 30
0.0
 11
53.27499999997966
 21
7.737499999999998
 31
0.0
  0
LINE
  5
28D
330
1F
100
AcDbEntity
  8
중심선
100
AcDbLine
 10
-44.97500000002034
 20
-0.0000000000000058
 30
0.0
 11
56.27499999997966
 21
0.0000000000000067
 31
0.0
  0
LINE
  5
28E
330
1F
100
AcDbEntity
  8
참조1
100
AcDbLine
 10
5.649999999979659
 20
-0.0000000000000058
 30
0.0
 11
5.649999999979665
 21
-38.04226164784988
 31
0.0
  0
LINE
  5
28F
330
1F
100
AcDbEntity
  8
참조1
100
AcDbLine
 10
5.649999999979665
 20
-38.04226164784988
 30
0.0
 11
-18.2395934467728
 21
-38.04226164784988
 31
0.0
  0
CIRCLE
  5
290
330
1F
100
AcDbEntity
  8
해칭선
100
AcDbCircle
 10
0.0
 20
0.0
 30
0.0
 40
3.000000000000001
  0
INSERT
  5
291
330
1F
100
AcDbEntity
  8
0
  6
Continuous
 62
     7
100
AcDbBlockReference
 66
     1
  2
블럭10
 10
-8.290272932145548
 20
-50.0894359494938
 30
0.0
  0
ATTRIB
  5
292
330
291
100
AcDbEntity
  8
FORMAT
 62
     2
100
AcDbText
 10
-17.47156822088683
 20
-48.01406903666161
 30
0.0
 40
4.233333333333333
  1
E2191040 [ 3 FLUTE ]
 41
0.75
  7
SLDTEXTSTYLE0
 11
-17.47156822088683
 21
-50.13073570332828
 31
0.0
100
AcDbAttribute
  2
AUTOATTR0
 70
     0
 74
     1
  0
SEQEND
  5
293
330
291
100
AcDbEntity
  8
0
  6
Continuous
 62
     7
  0
HATCH
  5
294
330
1F
100
AcDbEntity
  8
중심선
100
AcDbHatch
 10
0.0
 20
0.0
 30
0.0
210
0.0
220
0.0
230
1.0
  2
SOLID
 70
     1
 71
     0
 91
        1
 92
        0
 93
        4
 72
     1
 10
-2.575363627764711
 20
-33.84226164784987
 11
-6.021638871601994
 21
-33.84226164784987
 72
     1
 10
-6.021638871601994
 20
-33.84226164784987
 11
-8.149868730806016
 21
-36.37858722842247
 72
     1
 10
-8.149868730806016
 20
-36.37858722842247
 11
-4.703560401855584
 21
-36.37854779911998
 72
     1
 10
-4.703560401855584
 20
-36.37854779911998
 11
-2.575363627764711
 21
-33.84226164784987
 97
        0
 75
     0
 76
     1
 98
        1
 10
3.075369342964084
 20
0.0000000000000002
  0
HATCH
  5
295
330
1F
100
AcDbEntity
  8
중심선
100
AcDbHatch
 10
0.0
 20
0.0
 30
0.0
210
0.0
220
0.0
230
1.0
  2
SOLID
 70
     1
 71
     0
 91
        1
 92
        0
 93
        4
 72
     1
 10
2.437400363271268
 20
-33.84226164784984
 11
-1.008874880566013
 21
-33.8422616478499
 72
     1
 10
-1.008874880566013
 20
-33.8422616478499
 11
-5.54001288892343
 21
-39.24226164784989
 72
     1
 10
-5.54001288892343
 20
-39.24226164784989
 11
-2.093737645086147
 21
-39.24226164784989
 72
     1
 10
-2.093737645086147
 20
-39.24226164784989
 11
2.437400363271268
 21
-33.84226164784984
 97
        0
 75
     0
 76
     1
 98
        1
 10
3.075369342964084
 20
0.0000000000000002
  0
HATCH
  5
296
330
1F
100
AcDbEntity
  8
중심선
100
AcDbHatch
 10
0.0
 20
0.0
 30
0.0
210
0.0
220
0.0
230
1.0
  2
SOLID
 70
     1
 71
     0
 91
        1
 92
        0
 93
        4
 72
     1
 10
7.450164354307164
 20
-33.84226164784984
 11
4.003889110470021
 21
-33.84226164784987
 72
     1
 10
4.003889110470021
 20
-33.84226164784987
 11
-3.044547791419228
 21
-42.24226164784989
 72
     1
 10
-3.044547791419228
 20
-42.24226164784989
 11
0.4017274524180539
 21
-42.24226164784989
 72
     1
 10
0.4017274524180539
 20
-42.24226164784989
 11
7.450164354307164
 21
-33.84226164784984
 97
        0
 75
     0
 76
     1
 98
        1
 10
3.075369342964084
 20
0.0000000000000002
  0
HATCH
  5
297
330
1F
100
AcDbEntity
  8
중심선
100
AcDbHatch
 10
0.0
 20
0.0
 30
0.0
210
0.0
220
0.0
230
1.0
  2
SOLID
 70
     1
 71
     0
 91
        1
 92
        0
 93
        6
 72
     3
 10
12.25005478531934
 20
-38.04226164790114
 11
3.960054785062283
 21
1.540882976769353E-10
 40
0.3939339440162628
 50
17.09539180608437
 51
320.0019657685086
 73
     0
 72
     1
 10
13.93305444101993
 20
-36.6301556524882
 11
16.238356314721
 21
-34.69582894244025
 72
     3
 10
12.25005478526649
 20
-38.04226164785002
 11
6.600054785286829
 21
-1.278976924368180E-13
 40
0.636358354079598
 50
39.99873849337384
 51
368.4976242363725
 73
     1
 72
     1
 10
18.6753872771671
 20
-37.08226164777989
 11
10.93012209210244
 21
-37.08226164777989
 72
     1
 10
10.93012209210244
 20
-37.08226164777989
 11
10.93009704765648
 21
-39.00226164777978
 72
     1
 10
10.93009704765648
 20
-39.00226164777978
 11
15.37147681712851
 21
-39.00226164777975
 97
        0
 75
     0
 76
     1
 98
        1
 10
3.075369342964084
 20
0.0000000000000002
  0
DIMENSION
  5
298
330
1F
100
AcDbEntity
  8
치수문자_일반주서
100
AcDbDimension
  2
_D
 10
-54.97500000002036
 20
-7.937500000000065
 30
0.0
 11
-54.97500000002039
 21
-0.6050630919064773
 31
0.0
 70
   160
  1
%%c<>
 71
     2
 42
15.875
 52
-270.0
  3
SLDDIMSTYLE0
100
AcDbAlignedDimension
 13
-41.47500000002034
 23
7.937499999999986
 33
0.0
 14
-41.47500000002034
 24
-7.937500000000014
 34
0.0
 50
90.0000000000002
100
AcDbRotatedDimension
1001
ACAD
1000
DSTYLE
1002
{
1070
   171
1070
     6
1070
   273
1070
     7
1002
}
  0
DIMENSION
  5
2AD
330
1F
100
AcDbEntity
  8
치수문자_일반주서
100
AcDbDimension
  2
_D_1
 10
72.27499999997973
 20
7.937500000000075
 30
0.0
 11
72.27499999997966
 21
27.65431495956881
 31
0.0
 70
   160
  1
%%c<>
 71
     2
 42
15.875
 52
-270.0
  3
SLDDIMSTYLE1
100
AcDbAlignedDimension
 13
53.27499999997966
 23
-7.937499999999996
 33
0.0
 14
53.27499999997966
 24
7.937500000000005
 34
0.0
 50
90.0000000000002
100
AcDbRotatedDimension
1001
ACAD
1000
DSTYLE
1002
{
1070
   171
1070
     6
1070
   273
1070
     7
1002
}
  0
DIMENSION
  5
2C1
330
1F
100
AcDbEntity
  8
치수문자_일반주서
100
AcDbDimension
  2
_D_2
 10
11.99999999999447
 20
32.4025507812364
 30
0.0
 11
32.895008010049
 21
32.4025507812364
 31
0.0
 70
   160
  1
<>
 71
     2
 42
41.27499999998518
  3
SLDDIMSTYLE1
100
AcDbAlignedDimension
 13
53.27499999997966
 23
7.727314959568748
 33
0.0
 14
11.99999999999447
 24
-1.155319983655716
 34
0.0
100
AcDbRotatedDimension
1001
ACAD
1000
DSTYLE
1002
{
1070
   171
1070
     6
1070
   273
1070
     7
1002
}
  0
DIMENSION
  5
2D5
330
1F
100
AcDbEntity
  8
치수문자_일반주서
100
AcDbDimension
  2
_D_3
 10
-41.97500000002034
 20
46.43997811445606
 30
0.0
 11
9.397575300094342
 21
46.43997811445606
 31
0.0
 70
   160
  1
<>
 71
     2
 42
95.25
  3
SLDDIMSTYLE1
100
AcDbAlignedDimension
 13
53.27499999997966
 23
7.727314959568748
 33
0.0
 14
-41.97500000002034
 24
7.437499999999993
 34
0.0
100
AcDbRotatedDimension
1001
ACAD
1000
DSTYLE
1002
{
1070
   171
1070
     6
1070
   273
1070
     7
1002
}
  0
LINE
  5
2E8
330
1F
100
AcDbEntity
  8
참조1
100
AcDbLine
 10
101.3988273343633
 20
9.397738352150132
 30
0.0
 11
101.3988273343633
 21
-5.482261647849873
 31
0.0
  0
LINE
  5
2E9
330
1F
100
AcDbEntity
  8
참조1
100
AcDbLine
 10
114.0988273343633
 20
7.397738352150131
 30
0.0
 11
101.3988273343633
 21
7.397738352150131
 31
0.0
  0
SOLID
  5
2EA
330
1F
100
AcDbEntity
  8
참조1
100
AcDbTrace
 10
101.3988273343633
 20
7.397738352150131
 30
0.0
 11
107.7488273343633
 21
6.381738352150131
 31
0.0
 12
107.7488273343633
 22
8.41373835215013
 32
0.0
 13
107.7488273343633
 23
8.41373835215013
 33
0.0
  0
LINE
  5
2EB
330
1F
100
AcDbEntity
  8
참조1
100
AcDbLine
 10
114.0988273343633
 20
-3.482261647849873
 30
0.0
 11
101.3988273343633
 21
-3.482261647849873
 31
0.0
  0
SOLID
  5
2EC
330
1F
100
AcDbEntity
  8
참조1
100
AcDbTrace
 10
101.3988273343633
 20
-3.482261647849873
 30
0.0
 11
107.7488273343633
 21
-4.498261647849873
 31
0.0
 12
107.7488273343633
 22
-2.466261647849873
 32
0.0
 13
107.7488273343633
 23
-2.466261647849873
 33
0.0
  0
MTEXT
  5
2ED
330
1F
100
AcDbEntity
  8
참조1
100
AcDbMText
 10
110.9989421449258
 20
13.0234559181662
 30
0.0
 40
3.5
 41
0.0
 71
     1
 72
     1
  1
A
  7
SLDTEXTSTYLE0
 73
     1
 44
1.0
  0
MTEXT
  5
2EE
330
1F
100
AcDbEntity
  8
참조1
100
AcDbMText
 10
110.9989421449258
 20
2.1434559181662
 30
0.0
 40
3.5
 41
0.0
 71
     1
 72
     1
  1
A
  7
SLDTEXTSTYLE0
 73
     1
 44
1.0
  0
INSERT
  5
2F5
330
1F
100
AcDbEntity
  8
해칭선
100
AcDbBlockReference
  2
SW_DOWELSYMBOL_0
 10
0.0
 20
0.0
 30
0.0
  0
LINE
  5
357
330
1F
100
AcDbEntity
  8
외형선
  6
Continuous
370
    15
100
AcDbLine
 10
-22.85832500002036
 20
6.286499999999954
 30
0.0
 11
-12.67292500002034
 21
6.286499999999954
 31
0.0
  0
LINE
  5
358
330
1F
100
AcDbEntity
  8
외형선
  6
Continuous
370
    15
100
AcDbLine
 10
-22.85832500002036
 20
6.286500000000053
 30
0.0
 11
-24.50932500002031
 21
7.937499999999964
 31
0.0
  0
LINE
  5
359
330
1F
100
AcDbEntity
  8
외형선
  6
Continuous
370
    15
100
AcDbLine
 10
-12.67292500002046
 20
6.286500000000053
 30
0.0
 11
-11.02192500002045
 21
7.937499999999964
 31
0.0
  0
LINE
  5
35A
330
1F
100
AcDbEntity
  8
외형선
  6
Continuous
370
    15
100
AcDbLine
 10
-24.50932500002033
 20
7.937499999999996
 30
0.0
 11
-41.47500000002034
 21
7.937499999999993
 31
0.0
  0
ENDSEC
  0
SECTION
  2
OBJECTS
  0
DICTIONARY
  5
C
330
0
100
AcDbDictionary
281
     1
  3
ACAD_GROUP
350
D
  3
ACAD_IMAGE_VARS
350
319
  3
ACAD_LAYOUT
350
1A
  3
ACAD_MLINESTYLE
350
17
  3
ACAD_PLOTSETTINGS
350
19
  3
ACAD_PLOTSTYLENAME
350
E
  3
ACAD_SCALELIST
350
47
  3
APPDATA
350
317
  3
DWGPROPS
350
35B
  0
DICTIONARY
  5
349
330
2
100
AcDbDictionary
280
     1
281
     1
  3
ACAD_LAYERSTATES
360
34A
  0
DICTIONARY
  5
D
102
{ACAD_REACTORS
330
C
102
}
330
C
100
AcDbDictionary
281
     1
  0
RASTERVARIABLES
  5
319
102
{ACAD_REACTORS
330
C
102
}
330
C
100
AcDbRasterVariables
 90
        0
 70
     1
 71
     1
 72
     1
  0
DICTIONARY
  5
1A
102
{ACAD_REACTORS
330
C
102
}
330
C
100
AcDbDictionary
281
     1
  3
Layout1
350
1E
  3
Layout2
350
26
  3
Model
350
22
  0
DICTIONARY
  5
17
102
{ACAD_REACTORS
330
C
102
}
330
C
100
AcDbDictionary
281
     1
  3
Standard
350
18
  0
DICTIONARY
  5
19
102
{ACAD_REACTORS
330
C
102
}
330
C
100
AcDbDictionary
281
     1
  0
ACDBDICTIONARYWDFLT
  5
E
102
{ACAD_REACTORS
330
C
102
}
330
C
100
AcDbDictionary
281
     1
  3
Normal
350
F
100
AcDbDictionaryWithDefault
340
F
  0
DICTIONARY
  5
47
102
{ACAD_REACTORS
330
C
102
}
330
C
100
AcDbDictionary
281
     1
  3
A0
350
48
  3
A1
350
49
  3
A2
350
4A
  3
A3
350
4B
  3
A4
350
4C
  3
A5
350
4D
  3
A6
350
4E
  3
A7
350
4F
  3
A8
350
50
  3
A9
350
51
  3
B0
350
52
  3
B1
350
53
  3
B2
350
54
  3
B3
350
55
  3
B4
350
56
  3
B5
350
57
  3
B6
350
58
  3
B7
350
59
  3
B8
350
5A
  3
B9
350
5B
  3
C0
350
5C
  3
C1
350
5D
  3
C2
350
5E
  3
C3
350
5F
  3
C4
350
60
  3
C5
350
61
  3
C6
350
62
  3
C7
350
63
  3
C8
350
64
  3
C9
350
65
  3
D0
350
66
  3
D1
350
67
  3
D2
350
68
  0
DICTIONARY
  5
317
102
{ACAD_REACTORS
330
C
102
}
330
C
100
AcDbDictionary
281
     1
  0
XRECORD
  5
35B
102
{ACAD_REACTORS
330
C
102
}
330
C
100
AcDbXrecord
280
     1
  1
DWGPROPS COOKIE
  2

  3

  4

  6

  7

  8
12016016
  9

300
=
301
=
302
=
303
=
304
=
305
=
306
=
307
=
308
=
309
=
 40
0.0
 41
2458318.990670451
 42
2458331.399877824
  1

 90
        0
  0
DICTIONARY
  5
34A
102
{ACAD_REACTORS
330
349
102
}
330
349
100
AcDbDictionary
281
     1
  0
LAYOUT
  5
1E
102
{ACAD_REACTORS
330
1A
102
}
330
1A
100
AcDbPlotSettings
  1

  2
none_device
  4

  6

 40
0.0
 41
0.0
 42
0.0
 43
0.0
 44
0.0
 45
0.0
 46
0.0
 47
0.0
 48
0.0
 49
0.0
140
0.0
141
0.0
142
1.0
143
1.0
 70
   688
 72
     1
 73
     0
 74
     5
  7

 75
    16
147
1.0
148
0.0
149
0.0
100
AcDbLayout
  1
Layout1
 70
     1
 71
     1
 10
0.0
 20
0.0
 11
420.0
 21
297.0
 12
0.0
 22
0.0
 32
0.0
 14
1.000000000000000E+20
 24
1.000000000000000E+20
 34
1.000000000000000E+20
 15
-1.000000000000000E+20
 25
-1.000000000000000E+20
 35
-1.000000000000000E+20
146
0.0
 13
0.0
 23
0.0
 33
0.0
 16
1.0
 26
0.0
 36
0.0
 17
0.0
 27
1.0
 37
0.0
 76
     0
330
1B
  0
LAYOUT
  5
26
102
{ACAD_REACTORS
330
1A
102
}
330
1A
100
AcDbPlotSettings
  1

  2
none_device
  4

  6

 40
0.0
 41
0.0
 42
0.0
 43
0.0
 44
0.0
 45
0.0
 46
0.0
 47
0.0
 48
0.0
 49
0.0
140
0.0
141
0.0
142
1.0
143
1.0
 70
   688
 72
     1
 73
     0
 74
     5
  7

 75
    16
147
1.0
148
0.0
149
0.0
100
AcDbLayout
  1
Layout2
 70
     1
 71
     2
 10
0.0
 20
0.0
 11
0.0
 21
0.0
 12
0.0
 22
0.0
 32
0.0
 14
0.0
 24
0.0
 34
0.0
 15
0.0
 25
0.0
 35
0.0
146
0.0
 13
0.0
 23
0.0
 33
0.0
 16
1.0
 26
0.0
 36
0.0
 17
0.0
 27
1.0
 37
0.0
 76
     0
330
23
  0
LAYOUT
  5
22
102
{ACAD_REACTORS
330
1A
102
}
330
1A
100
AcDbPlotSettings
  1

  2
none_device
  4
ANSI_A_(11.00_x_8.50_Inches)
  6

 40
6.35
 41
19.05
 42
6.35000508
 43
19.05000254
 44
279.4
 45
215.9
 46
76.23229512277788
 47
82.08737123943783
 48
0.0
 49
0.0
140
0.0
141
0.0
142
0.0464282484100897
143
1.0
 70
  1696
 72
     0
 73
     0
 74
     0
  7

 75
     0
147
0.0235690232323232
148
0.0
149
0.0
100
AcDbLayout
  1
Model
 70
     1
 71
     0
 10
0.0
 20
0.0
 11
420.0
 21
297.0
 12
0.0
 22
0.0
 32
0.0
 14
1.000000000000000E+20
 24
1.000000000000000E+20
 34
1.000000000000000E+20
 15
-1.000000000000000E+20
 25
-1.000000000000000E+20
 35
-1.000000000000000E+20
146
0.0
 13
0.0
 23
0.0
 33
0.0
 16
1.0
 26
0.0
 36
0.0
 17
0.0
 27
1.0
 37
0.0
 76
     0
330
1F
331
29
  0
MLINESTYLE
  5
18
102
{ACAD_REACTORS
330
17
102
}
330
17
100
AcDbMlineStyle
  2
Standard
 70
     0
  3

 62
   256
 51
90.0
 52
90.0
 71
     2
 49
0.5
 62
   256
  6
BYLAYER
 49
-0.5
 62
   256
  6
BYLAYER
  0
ACDBPLACEHOLDER
  5
F
102
{ACAD_REACTORS
330
E
102
}
330
E
  0
SCALE
  5
48
102
{ACAD_REACTORS
330
47
102
}
330
47
100
AcDbScale
 70
     0
300
1:1
140
1.0
141
1.0
290
     1
  0
SCALE
  5
49
102
{ACAD_REACTORS
330
47
102
}
330
47
100
AcDbScale
 70
     0
300
1:2
140
1.0
141
2.0
290
     0
  0
SCALE
  5
4A
102
{ACAD_REACTORS
330
47
102
}
330
47
100
AcDbScale
 70
     0
300
1:4
140
1.0
141
4.0
290
     0
  0
SCALE
  5
4B
102
{ACAD_REACTORS
330
47
102
}
330
47
100
AcDbScale
 70
     0
300
1:5
140
1.0
141
5.0
290
     0
  0
SCALE
  5
4C
102
{ACAD_REACTORS
330
47
102
}
330
47
100
AcDbScale
 70
     0
300
1:8
140
1.0
141
8.0
290
     0
  0
SCALE
  5
4D
102
{ACAD_REACTORS
330
47
102
}
330
47
100
AcDbScale
 70
     0
300
1:10
140
1.0
141
10.0
290
     0
  0
SCALE
  5
4E
102
{ACAD_REACTORS
330
47
102
}
330
47
100
AcDbScale
 70
     0
300
1:16
140
1.0
141
16.0
290
     0
  0
SCALE
  5
4F
102
{ACAD_REACTORS
330
47
102
}
330
47
100
AcDbScale
 70
     0
300
1:20
140
1.0
141
20.0
290
     0
  0
SCALE
  5
50
102
{ACAD_REACTORS
330
47
102
}
330
47
100
AcDbScale
 70
     0
300
1:30
140
1.0
141
30.0
290
     0
  0
SCALE
  5
51
102
{ACAD_REACTORS
330
47
102
}
330
47
100
AcDbScale
 70
     0
300
1:40
140
1.0
141
40.0
290
     0
  0
SCALE
  5
52
102
{ACAD_REACTORS
330
47
102
}
330
47
100
AcDbScale
 70
     0
300
1:50
140
1.0
141
50.0
290
     0
  0
SCALE
  5
53
102
{ACAD_REACTORS
330
47
102
}
330
47
100
AcDbScale
 70
     0
300
1:100
140
1.0
141
100.0
290
     0
  0
SCALE
  5
54
102
{ACAD_REACTORS
330
47
102
}
330
47
100
AcDbScale
 70
     0
300
2:1
140
2.0
141
1.0
290
     0
  0
SCALE
  5
55
102
{ACAD_REACTORS
330
47
102
}
330
47
100
AcDbScale
 70
     0
300
4:1
140
4.0
141
1.0
290
     0
  0
SCALE
  5
56
102
{ACAD_REACTORS
330
47
102
}
330
47
100
AcDbScale
 70
     0
300
8:1
140
8.0
141
1.0
290
     0
  0
SCALE
  5
57
102
{ACAD_REACTORS
330
47
102
}
330
47
100
AcDbScale
 70
     0
300
10:1
140
10.0
141
1.0
290
     0
  0
SCALE
  5
58
102
{ACAD_REACTORS
330
47
102
}
330
47
100
AcDbScale
 70
     0
300
100:1
140
100.0
141
1.0
290
     0
  0
SCALE
  5
59
102
{ACAD_REACTORS
330
47
102
}
330
47
100
AcDbScale
 70
     0
300
1/128" = 1'-0"
140
0.0078125
141
12.0
290
     0
  0
SCALE
  5
5A
102
{ACAD_REACTORS
330
47
102
}
330
47
100
AcDbScale
 70
     0
300
1/64" = 1'-0"
140
0.015625
141
12.0
290
     0
  0
SCALE
  5
5B
102
{ACAD_REACTORS
330
47
102
}
330
47
100
AcDbScale
 70
     0
300
1/32" = 1'-0"
140
0.03125
141
12.0
290
     0
  0
SCALE
  5
5C
102
{ACAD_REACTORS
330
47
102
}
330
47
100
AcDbScale
 70
     0
300
1/16" = 1'-0"
140
0.0625
141
12.0
290
     0
  0
SCALE
  5
5D
102
{ACAD_REACTORS
330
47
102
}
330
47
100
AcDbScale
 70
     0
300
3/32" = 1'-0"
140
0.09375
141
12.0
290
     0
  0
SCALE
  5
5E
102
{ACAD_REACTORS
330
47
102
}
330
47
100
AcDbScale
 70
     0
300
1/8" = 1'-0"
140
0.125
141
12.0
290
     0
  0
SCALE
  5
5F
102
{ACAD_REACTORS
330
47
102
}
330
47
100
AcDbScale
 70
     0
300
3/16" = 1'-0"
140
0.1875
141
12.0
290
     0
  0
SCALE
  5
60
102
{ACAD_REACTORS
330
47
102
}
330
47
100
AcDbScale
 70
     0
300
1/4" = 1'-0"
140
0.25
141
12.0
290
     0
  0
SCALE
  5
61
102
{ACAD_REACTORS
330
47
102
}
330
47
100
AcDbScale
 70
     0
300
3/8" = 1'-0"
140
0.375
141
12.0
290
     0
  0
SCALE
  5
62
102
{ACAD_REACTORS
330
47
102
}
330
47
100
AcDbScale
 70
     0
300
1/2" = 1'-0"
140
0.5
141
12.0
290
     0
  0
SCALE
  5
63
102
{ACAD_REACTORS
330
47
102
}
330
47
100
AcDbScale
 70
     0
300
3/4" = 1'-0"
140
0.75
141
12.0
290
     0
  0
SCALE
  5
64
102
{ACAD_REACTORS
330
47
102
}
330
47
100
AcDbScale
 70
     0
300
1" = 1'-0"
140
1.0
141
12.0
290
     0
  0
SCALE
  5
65
102
{ACAD_REACTORS
330
47
102
}
330
47
100
AcDbScale
 70
     0
300
1-1/2" = 1'-0"
140
1.5
141
12.0
290
     0
  0
SCALE
  5
66
102
{ACAD_REACTORS
330
47
102
}
330
47
100
AcDbScale
 70
     0
300
3" = 1'-0"
140
3.0
141
12.0
290
     0
  0
SCALE
  5
67
102
{ACAD_REACTORS
330
47
102
}
330
47
100
AcDbScale
 70
     0
300
6" = 1'-0"
140
6.0
141
12.0
290
     0
  0
SCALE
  5
68
102
{ACAD_REACTORS
330
47
102
}
330
47
100
AcDbScale
 70
     0
300
1'-0" = 1'-0"
140
12.0
141
12.0
290
     0
  0
ENDSEC
  0
EOF
