  0
SECTION
  2
HEADER
  9
$ACADVER
  1
AC1015
  9
$ACADMAINTVER
 70
     6
  9
$DWGCODEPAGE
  3
ANSI_949
  9
$INSBASE
 10
0.0
 20
0.0
 30
0.0
  9
$EXTMIN
 10
1.000000000000000E+20
 20
1.000000000000000E+20
 30
1.000000000000000E+20
  9
$EXTMAX
 10
-1.000000000000000E+20
 20
-1.000000000000000E+20
 30
-1.000000000000000E+20
  9
$LIMMIN
 10
0.0
 20
0.0
  9
$LIMMAX
 10
420.0
 20
297.0
  9
$ORTHOMODE
 70
     1
  9
$REGENMODE
 70
     1
  9
$FILLMODE
 70
     1
  9
$QTEXTMODE
 70
     0
  9
$MIRRTEXT
 70
     1
  9
$LTSCALE
 40
1.0
  9
$ATTMODE
 70
     1
  9
$TEXTSIZE
 40
3.5
  9
$TRACEWID
 40
1.0
  9
$TEXTSTYLE
  7
Standard
  9
$CLAYER
  8
0
  9
$CELTYPE
  6
ByLayer
  9
$CECOLOR
 62
   256
  9
$CELTSCALE
 40
1.0
  9
$DISPSILH
 70
     0
  9
$DIMSCALE
 40
1.0
  9
$DIMASZ
 40
3.302
  9
$DIMEXO
 40
1.0
  9
$DIMDLI
 40
3.75
  9
$DIMRND
 40
0.0
  9
$DIMDLE
 40
0.0
  9
$DIMEXE
 40
1.0
  9
$DIMTP
 40
0.0
  9
$DIMTM
 40
0.0
  9
$DIMTXT
 40
3.5
  9
$DIMCEN
 40
2.5
  9
$DIMTSZ
 40
0.0
  9
$DIMTOL
 70
     0
  9
$DIMLIM
 70
     0
  9
$DIMTIH
 70
     1
  9
$DIMTOH
 70
     1
  9
$DIMSE1
 70
     0
  9
$DIMSE2
 70
     0
  9
$DIMTAD
 70
     1
  9
$DIMZIN
 70
     0
  9
$DIMBLK
  1

  9
$DIMASO
 70
     1
  9
$DIMSHO
 70
     1
  9
$DIMPOST
  1

  9
$DIMAPOST
  1

  9
$DIMALT
 70
     0
  9
$DIMALTD
 70
     3
  9
$DIMALTF
 40
0.0393700787401575
  9
$DIMLFAC
 40
1.0
  9
$DIMTOFL
 70
     1
  9
$DIMTVP
 40
0.0
  9
$DIMTIX
 70
     0
  9
$DIMSOXD
 70
     0
  9
$DIMSAH
 70
     0
  9
$DIMBLK1
  1

  9
$DIMBLK2
  1

  9
$DIMSTYLE
  2
ISO-25
  9
$DIMCLRD
 70
     0
  9
$DIMCLRE
 70
     0
  9
$DIMCLRT
 70
     0
  9
$DIMTFAC
 40
1.0
  9
$DIMGAP
 40
1.524
  9
$DIMJUST
 70
     0
  9
$DIMSD1
 70
     0
  9
$DIMSD2
 70
     0
  9
$DIMTOLJ
 70
     0
  9
$DIMTZIN
 70
     0
  9
$DIMALTZ
 70
     0
  9
$DIMALTTZ
 70
     0
  9
$DIMUPT
 70
     0
  9
$DIMDEC
 70
     2
  9
$DIMTDEC
 70
     2
  9
$DIMALTU
 70
     2
  9
$DIMALTTD
 70
     3
  9
$DIMTXSTY
  7
Standard
  9
$DIMAUNIT
 70
     0
  9
$DIMADEC
 70
     2
  9
$DIMALTRND
 40
0.0
  9
$DIMAZIN
 70
     0
  9
$DIMDSEP
 70
    44
  9
$DIMATFIT
 70
     3
  9
$DIMFRAC
 70
     0
  9
$DIMLDRBLK
  1

  9
$DIMLUNIT
 70
     2
  9
$DIMLWD
 70
    -2
  9
$DIMLWE
 70
    -2
  9
$DIMTMOVE
 70
     0
  9
$LUNITS
 70
     2
  9
$LUPREC
 70
     2
  9
$SKETCHINC
 40
1.0
  9
$FILLETRAD
 40
10.0
  9
$AUNITS
 70
     0
  9
$AUPREC
 70
     2
  9
$MENU
  1
.
  9
$ELEVATION
 40
0.0
  9
$PELEVATION
 40
0.0
  9
$THICKNESS
 40
0.0
  9
$LIMCHECK
 70
     0
  9
$CHAMFERA
 40
0.0
  9
$CHAMFERB
 40
0.0
  9
$CHAMFERC
 40
0.0
  9
$CHAMFERD
 40
0.0
  9
$SKPOLY
 70
     0
  9
$TDCREATE
 40
2458319.365839097
  9
$TDUCREATE
 40
2458318.990839097
  9
$TDUPDATE
 40
2458331.773873773
  9
$TDUUPDATE
 40
2458331.398873773
  9
$TDINDWG
 40
0.0007550926
  9
$TDUSRTIMER
 40
2458331.39811897
  9
$USRTIMER
 70
     1
  9
$ANGBASE
 50
0.0
  9
$ANGDIR
 70
     0
  9
$PDMODE
 70
     0
  9
$PDSIZE
 40
-1.0
  9
$PLINEWID
 40
0.0
  9
$SPLFRAME
 70
     0
  9
$SPLINETYPE
 70
     6
  9
$SPLINESEGS
 70
     8
  9
$HANDSEED
  5
357
  9
$SURFTAB1
 70
     6
  9
$SURFTAB2
 70
     6
  9
$SURFTYPE
 70
     6
  9
$SURFU
 70
     6
  9
$SURFV
 70
     6
  9
$UCSBASE
  2

  9
$UCSNAME
  2

  9
$UCSORG
 10
0.0
 20
0.0
 30
0.0
  9
$UCSXDIR
 10
1.0
 20
0.0
 30
0.0
  9
$UCSYDIR
 10
0.0
 20
1.0
 30
0.0
  9
$UCSORTHOREF
  2

  9
$UCSORTHOVIEW
 70
     0
  9
$UCSORGTOP
 10
0.0
 20
0.0
 30
0.0
  9
$UCSORGBOTTOM
 10
0.0
 20
0.0
 30
0.0
  9
$UCSORGLEFT
 10
0.0
 20
0.0
 30
0.0
  9
$UCSORGRIGHT
 10
0.0
 20
0.0
 30
0.0
  9
$UCSORGFRONT
 10
0.0
 20
0.0
 30
0.0
  9
$UCSORGBACK
 10
0.0
 20
0.0
 30
0.0
  9
$PUCSBASE
  2

  9
$PUCSNAME
  2

  9
$PUCSORG
 10
0.0
 20
0.0
 30
0.0
  9
$PUCSXDIR
 10
1.0
 20
0.0
 30
0.0
  9
$PUCSYDIR
 10
0.0
 20
1.0
 30
0.0
  9
$PUCSORTHOREF
  2

  9
$PUCSORTHOVIEW
 70
     0
  9
$PUCSORGTOP
 10
0.0
 20
0.0
 30
0.0
  9
$PUCSORGBOTTOM
 10
0.0
 20
0.0
 30
0.0
  9
$PUCSORGLEFT
 10
0.0
 20
0.0
 30
0.0
  9
$PUCSORGRIGHT
 10
0.0
 20
0.0
 30
0.0
  9
$PUCSORGFRONT
 10
0.0
 20
0.0
 30
0.0
  9
$PUCSORGBACK
 10
0.0
 20
0.0
 30
0.0
  9
$USERI1
 70
     0
  9
$USERI2
 70
     0
  9
$USERI3
 70
     0
  9
$USERI4
 70
     0
  9
$USERI5
 70
     0
  9
$USERR1
 40
0.0
  9
$USERR2
 40
0.0
  9
$USERR3
 40
0.0
  9
$USERR4
 40
0.0
  9
$USERR5
 40
0.0
  9
$WORLDVIEW
 70
     1
  9
$SHADEDGE
 70
     3
  9
$SHADEDIF
 70
    70
  9
$TILEMODE
 70
     1
  9
$MAXACTVP
 70
    64
  9
$PINSBASE
 10
0.0
 20
0.0
 30
0.0
  9
$PLIMCHECK
 70
     0
  9
$PEXTMIN
 10
1.000000000000000E+20
 20
1.000000000000000E+20
 30
1.000000000000000E+20
  9
$PEXTMAX
 10
-1.000000000000000E+20
 20
-1.000000000000000E+20
 30
-1.000000000000000E+20
  9
$PLIMMIN
 10
0.0
 20
0.0
  9
$PLIMMAX
 10
0.0
 20
0.0
  9
$UNITMODE
 70
     0
  9
$VISRETAIN
 70
     1
  9
$PLINEGEN
 70
     0
  9
$PSLTSCALE
 70
     1
  9
$TREEDEPTH
 70
  3020
  9
$CMLSTYLE
  2
Standard
  9
$CMLJUST
 70
     0
  9
$CMLSCALE
 40
20.0
  9
$PROXYGRAPHICS
 70
     1
  9
$MEASUREMENT
 70
     1
  9
$CELWEIGHT
370
    -1
  9
$ENDCAPS
280
     0
  9
$JOINSTYLE
280
     0
  9
$LWDISPLAY
290
     1
  9
$INSUNITS
 70
     4
  9
$HYPERLINKBASE
  1

  9
$STYLESHEET
  1

  9
$XEDIT
290
     1
  9
$CEPSNTYPE
380
     0
  9
$PSTYLEMODE
290
     1
  9
$FINGERPRINTGUID
  2
{D3FCD3C1-4A11-485E-81CB-6AFBE7E52788}
  9
$VERSIONGUID
  2
{FAEB1C32-E019-11D5-929B-00C0DF256EC4}
  9
$EXTNAMES
290
     1
  9
$PSVPSCALE
 40
0.0
  9
$OLESTARTUP
290
     0
  0
ENDSEC
  0
SECTION
  2
CLASSES
  0
CLASS
  1
ACDBDICTIONARYWDFLT
  2
AcDbDictionaryWithDefault
  3
ObjectDBX Classes
 90
        0
280
     0
281
     0
  0
CLASS
  1
VISUALSTYLE
  2
AcDbVisualStyle
  3
ObjectDBX Classes
 90
     4095
280
     0
281
     0
  0
CLASS
  1
MATERIAL
  2
AcDbMaterial
  3
ObjectDBX Classes
 90
     1153
280
     0
281
     0
  0
CLASS
  1
SCALE
  2
AcDbScale
  3
ObjectDBX Classes
 90
     1153
280
     0
281
     0
  0
CLASS
  1
SUN
  2
AcDbSun
  3
SCENEOE
 90
     1153
280
     0
281
     0
  0
CLASS
  1
ACDBPLACEHOLDER
  2
AcDbPlaceHolder
  3
ObjectDBX Classes
 90
        0
280
     0
281
     0
  0
CLASS
  1
LAYOUT
  2
AcDbLayout
  3
ObjectDBX Classes
 90
        0
280
     0
281
     0
  0
CLASS
  1
TABLESTYLE
  2
AcDbTableStyle
  3
ObjectDBX Classes
 90
     4095
280
     0
281
     0
  0
CLASS
  1
MLEADERSTYLE
  2
AcDbMLeaderStyle
  3
ACDB_MLEADERSTYLE_CLASS
 90
     4095
280
     0
281
     0
  0
CLASS
  1
RASTERVARIABLES
  2
AcDbRasterVariables
  3
ISM
 90
        0
280
     0
281
     0
  0
ENDSEC
  0
SECTION
  2
TABLES
  0
TABLE
  2
VPORT
  5
8
330
0
100
AcDbSymbolTable
 70
     1
  0
VPORT
  5
29
330
8
100
AcDbSymbolTableRecord
100
AcDbViewportTableRecord
  2
*Active
 70
     0
 10
0.0
 20
0.0
 11
1.0
 21
1.0
 12
41.39850208855692
 22
-38.28289409876075
 13
0.0
 23
0.0
 14
10.0
 24
10.0
 15
10.0
 25
10.0
 16
0.0
 26
0.0
 36
1.0
 17
0.0
 27
0.0
 37
0.0
 40
312.312635236969
 41
1.516441005802708
 42
50.0
 43
0.0
 44
0.0
 50
0.0
 51
0.0
 71
    16
 72
  2000
 73
     1
 74
     3
 75
     0
 76
     0
 77
     0
 78
     0
281
     0
 65
     1
110
0.0
120
0.0
130
0.0
111
1.0
121
0.0
131
0.0
112
0.0
122
1.0
132
0.0
 79
     0
146
0.0
  0
ENDTAB
  0
TABLE
  2
LTYPE
  5
5
330
0
100
AcDbSymbolTable
 70
     6
  0
LTYPE
  5
14
330
5
100
AcDbSymbolTableRecord
100
AcDbLinetypeTableRecord
  2
ByBlock
 70
     0
  3

 72
    65
 73
     0
 40
0.0
  0
LTYPE
  5
15
330
5
100
AcDbSymbolTableRecord
100
AcDbLinetypeTableRecord
  2
ByLayer
 70
     0
  3

 72
    65
 73
     0
 40
0.0
  0
LTYPE
  5
16
330
5
100
AcDbSymbolTableRecord
100
AcDbLinetypeTableRecord
  2
Continuous
 70
     0
  3
Solid line
 72
    65
 73
     0
 40
0.0
  0
LTYPE
  5
6A
330
5
100
AcDbSymbolTableRecord
100
AcDbLinetypeTableRecord
  2
HIDDEN
 70
     0
  3
Hidden __ __ __ __ __ __ __ __ __ __ __ __ __ __
 72
    65
 73
     2
 40
1.905
 49
1.27
 74
     0
 49
-0.635
 74
     0
  0
LTYPE
  5
6B
330
5
100
AcDbSymbolTableRecord
100
AcDbLinetypeTableRecord
  2
PHANTOM
 70
     0
  3
Phantom ______  __  __  ______  __  __  ______
 72
    65
 73
     6
 40
12.7
 49
6.35
 74
     0
 49
-1.27
 74
     0
 49
1.27
 74
     0
 49
-1.27
 74
     0
 49
1.27
 74
     0
 49
-1.27
 74
     0
  0
LTYPE
  5
6C
330
5
100
AcDbSymbolTableRecord
100
AcDbLinetypeTableRecord
  2
CENTER
 70
     0
  3
Center ____ _ ____ _ ____ _ ____ _ ____ _ ____
 72
    65
 73
     4
 40
10.16
 49
6.35
 74
     0
 49
-1.27
 74
     0
 49
1.27
 74
     0
 49
-1.27
 74
     0
  0
LTYPE
  5
6D
330
5
100
AcDbSymbolTableRecord
100
AcDbLinetypeTableRecord
  2
CENTERX2
 70
     0
  3
Center (2x) ________  __  ________  __  _____
 72
    65
 73
     4
 40
20.32
 49
12.7
 74
     0
 49
-2.54
 74
     0
 49
2.54
 74
     0
 49
-2.54
 74
     0
  0
LTYPE
  5
6E
330
5
100
AcDbSymbolTableRecord
100
AcDbLinetypeTableRecord
  2
DOT2
 70
     0
  3
Dot (.5x) ........................................
 72
    65
 73
     2
 40
0.635
 49
0.0
 74
     0
 49
-0.635
 74
     0
  0
ENDTAB
  0
TABLE
  2
LAYER
  5
2
102
{ACAD_XDICTIONARY
360
344
102
}
330
0
100
AcDbSymbolTable
 70
    18
  0
LAYER
  5
10
330
2
100
AcDbSymbolTableRecord
100
AcDbLayerTableRecord
  2
0
 70
     0
 62
     7
  6
Continuous
370
    -3
390
F
  0
LAYER
  5
6F
330
2
100
AcDbSymbolTableRecord
100
AcDbLayerTableRecord
  2
FORMAT
 70
     0
 62
     2
  6
Continuous
370
    -3
390
F
  0
LAYER
  5
70
330
2
100
AcDbSymbolTableRecord
100
AcDbLayerTableRecord
  2
외형선
 70
     0
 62
     4
  6
Continuous
370
    30
390
F
  0
LAYER
  5
71
330
2
100
AcDbSymbolTableRecord
100
AcDbLayerTableRecord
  2
숨은선
 70
     0
 62
     2
  6
HIDDEN
370
    15
390
F
  0
LAYER
  5
72
330
2
100
AcDbSymbolTableRecord
100
AcDbLayerTableRecord
  2
중심선
 70
     0
 62
     1
  6
CENTERX2
370
    -3
390
F
  0
LAYER
  5
73
330
2
100
AcDbSymbolTableRecord
100
AcDbLayerTableRecord
  2
파단선
 70
     0
 62
     4
  6
Continuous
370
    -3
390
F
  0
LAYER
  5
74
330
2
100
AcDbSymbolTableRecord
100
AcDbLayerTableRecord
  2
해칭선
 70
     0
 62
   100
  6
Continuous
370
    -3
390
F
  0
LAYER
  5
75
330
2
100
AcDbSymbolTableRecord
100
AcDbLayerTableRecord
  2
가는실선
 70
     0
 62
     4
  6
Continuous
370
    -3
390
F
  0
LAYER
  5
76
330
2
100
AcDbSymbolTableRecord
100
AcDbLayerTableRecord
  2
치수_보조선
 70
     0
 62
     4
  6
Continuous
370
    -3
390
F
  0
LAYER
  5
77
330
2
100
AcDbSymbolTableRecord
100
AcDbLayerTableRecord
  2
치수문자_일반주서
 70
     0
 62
     7
  6
Continuous
370
    15
390
F
  0
LAYER
  5
78
330
2
100
AcDbSymbolTableRecord
100
AcDbLayerTableRecord
  2
개별주서
 70
     0
 62
   100
  6
Continuous
370
    30
390
F
  0
LAYER
  5
79
330
2
100
AcDbSymbolTableRecord
100
AcDbLayerTableRecord
  2
중간선
 70
     0
 62
     2
  6
Continuous
370
    15
390
F
  0
LAYER
  5
7A
330
2
100
AcDbSymbolTableRecord
100
AcDbLayerTableRecord
  2
윤곽선
 70
     0
 62
     3
  6
Continuous
370
    40
390
F
  0
LAYER
  5
7B
330
2
100
AcDbSymbolTableRecord
100
AcDbLayerTableRecord
  2
중심마크
 70
     0
 62
   100
  6
Continuous
370
    30
390
F
  0
LAYER
  5
7C
330
2
100
AcDbSymbolTableRecord
100
AcDbLayerTableRecord
  2
가상선
 70
     0
 62
     4
  6
PHANTOM
370
    -3
390
F
  0
LAYER
  5
7D
330
2
100
AcDbSymbolTableRecord
100
AcDbLayerTableRecord
  2
특수지정선
 70
     0
 62
     5
  6
CENTERX2
370
    60
390
F
  0
LAYER
  5
7E
330
2
100
AcDbSymbolTableRecord
100
AcDbLayerTableRecord
  2
참조1
 70
     0
 62
    -4
  6
Continuous
370
    -3
390
F
  0
LAYER
  5
317
330
2
100
AcDbSymbolTableRecord
100
AcDbLayerTableRecord
  2
Defpoints
 70
     0
 62
     7
  6
Continuous
290
     0
370
    -3
390
F
  0
ENDTAB
  0
TABLE
  2
STYLE
  5
3
330
0
100
AcDbSymbolTable
 70
     2
  0
STYLE
  5
11
330
3
100
AcDbSymbolTableRecord
100
AcDbTextStyleTableRecord
  2
Standard
 70
     0
 40
0.0
 41
1.0
 50
0.0
 71
     0
 42
3.5
  3
txt
  4

  0
STYLE
  5
94
330
3
100
AcDbSymbolTableRecord
100
AcDbTextStyleTableRecord
  2
SLDTEXTSTYLE0
 70
     0
 40
0.0
 41
0.75
 50
0.0
 71
     0
 42
3.5
  3
TXT
  4

  0
ENDTAB
  0
TABLE
  2
VIEW
  5
6
330
0
100
AcDbSymbolTable
 70
     0
  0
ENDTAB
  0
TABLE
  2
UCS
  5
7
330
0
100
AcDbSymbolTable
 70
     0
  0
ENDTAB
  0
TABLE
  2
APPID
  5
9
330
0
100
AcDbSymbolTable
 70
     1
  0
APPID
  5
12
330
9
100
AcDbSymbolTableRecord
100
AcDbRegAppTableRecord
  2
ACAD
 70
     0
  0
ENDTAB
  0
TABLE
  2
DIMSTYLE
  5
A
330
0
100
AcDbSymbolTable
 70
     3
100
AcDbDimStyleTable
  0
DIMSTYLE
105
27
330
A
100
AcDbSymbolTableRecord
100
AcDbDimStyleTableRecord
  2
ISO-25
 70
     0
 41
2.5
 42
0.625
 43
3.75
 44
1.25
 73
     0
 74
     0
 77
     1
 78
     8
140
2.5
141
2.5
143
0.03937007874016
147
0.625
171
     3
172
     1
178
     0
271
     2
272
     2
274
     3
278
    44
283
     0
284
     8
340
11
  0
DIMSTYLE
105
296
102
{ACAD_REACTORS
330
295
102
}
330
A
100
AcDbSymbolTableRecord
100
AcDbDimStyleTableRecord
  2
SLDDIMSTYLE0
 70
     0
 41
3.302
 44
0.0
 45
0.000000001
 73
     0
 74
     0
 77
     1
 78
    12
 79
     3
140
3.5
143
0.0393700787401575
147
0.875
148
0.000000001
170
     1
172
     1
173
     1
178
     0
271
     2
272
     2
276
     2
284
    12
289
     0
340
94
  0
DIMSTYLE
105
2AB
102
{ACAD_REACTORS
330
2AA
330
2BE
330
2D2
102
}
330
A
100
AcDbSymbolTableRecord
100
AcDbDimStyleTableRecord
  2
SLDDIMSTYLE1
 70
     0
 41
3.302
 44
0.0
 45
0.000000001
 73
     0
 74
     0
 77
     1
 78
    12
 79
     3
140
3.5
143
0.0393700787401575
147
0.875
148
0.000000001
170
     1
173
     1
178
     0
271
     2
272
     2
276
     2
284
    12
340
94
  0
ENDTAB
  0
TABLE
  2
BLOCK_RECORD
  5
1
330
0
100
AcDbSymbolTable
 70
     8
  0
BLOCK_RECORD
  5
1F
330
1
100
AcDbSymbolTableRecord
100
AcDbBlockTableRecord
  2
*Model_Space
340
22
  0
BLOCK_RECORD
  5
1B
330
1
100
AcDbSymbolTableRecord
100
AcDbBlockTableRecord
  2
*Paper_Space
340
1E
  0
BLOCK_RECORD
  5
23
330
1
100
AcDbSymbolTableRecord
100
AcDbBlockTableRecord
  2
*Paper_Space0
340
26
  0
BLOCK_RECORD
  5
7F
330
1
100
AcDbSymbolTableRecord
100
AcDbBlockTableRecord
  2
블럭10
340
0
102
{BLKREFS
331
28E
102
}
  0
BLOCK_RECORD
  5
297
330
1
100
AcDbSymbolTableRecord
100
AcDbBlockTableRecord
  2
_D
340
0
  0
BLOCK_RECORD
  5
2AC
330
1
100
AcDbSymbolTableRecord
100
AcDbBlockTableRecord
  2
_D_1
340
0
  0
BLOCK_RECORD
  5
2BF
330
1
100
AcDbSymbolTableRecord
100
AcDbBlockTableRecord
  2
_D_2
340
0
  0
BLOCK_RECORD
  5
2D3
330
1
100
AcDbSymbolTableRecord
100
AcDbBlockTableRecord
  2
_D_3
340
0
  0
BLOCK_RECORD
  5
2EC
330
1
100
AcDbSymbolTableRecord
100
AcDbBlockTableRecord
  2
SW_DOWELSYMBOL_0
340
0
102
{BLKREFS
331
2F2
102
}
  0
ENDTAB
  0
ENDSEC
  0
SECTION
  2
BLOCKS
  0
BLOCK
  5
20
330
1F
100
AcDbEntity
  8
0
100
AcDbBlockBegin
  2
*Model_Space
 70
     0
 10
0.0
 20
0.0
 30
0.0
  3
*Model_Space
  1
*Model_Space
  0
ENDBLK
  5
21
330
1F
100
AcDbEntity
  8
0
100
AcDbBlockEnd
  0
BLOCK
  5
1C
330
1B
100
AcDbEntity
 67
     1
  8
0
100
AcDbBlockBegin
  2
*Paper_Space
 70
     0
 10
0.0
 20
0.0
 30
0.0
  3
*Paper_Space
  1
*Paper_Space
  0
ENDBLK
  5
1D
330
1B
100
AcDbEntity
 67
     1
  8
0
100
AcDbBlockEnd
  0
BLOCK
  5
24
330
23
100
AcDbEntity
  8
0
100
AcDbBlockBegin
  2
*Paper_Space0
 70
     0
 10
0.0
 20
0.0
 30
0.0
  3
*Paper_Space0
  1
*Paper_Space0
  0
ENDBLK
  5
25
330
23
100
AcDbEntity
  8
0
100
AcDbBlockEnd
  0
BLOCK
  5
80
330
7F
100
AcDbEntity
  8
0
100
AcDbBlockBegin
  2
블럭10
 70
     2
 10
0.0
 20
0.0
 30
0.0
  3
블럭10
  1
블럭10
  0
ELLIPSE
  5
82
330
7F
100
AcDbEntity
  8
중심선
100
AcDbEllipse
 10
20.54032771741204
 20
12.0471743016438
 30
0.0
 11
6.600054785286829
 21
-1.261213355974178E-13
 31
0.0
210
0.0
220
0.0
230
1.0
 40
0.636358354079598
 41
0.9219305317359503
 42
6.513795318482858
  0
ELLIPSE
  5
83
330
7F
100
AcDbEntity
  8
중심선
100
AcDbEllipse
 10
20.54032771746488
 20
12.04717430159265
 30
0.0
 11
3.960054785062283
 21
1.540847449632565E-10
 31
0.0
210
0.0
220
0.0
230
1.0
 40
0.3939339440162632
 41
1.131841032648279
 42
5.62031148352944
  0
LINE
  5
84
330
7F
100
AcDbEntity
  8
중심선
100
AcDbLine
 10
2.268634060543552
 20
16.24717430164393
 30
0.0
 11
5.714909304380834
 21
16.24717430164393
 31
0.0
  0
LINE
  5
85
330
7F
100
AcDbEntity
  8
중심선
100
AcDbLine
 10
5.245725140726316
 20
7.84717430164391
 30
0.0
 11
8.692000384563599
 21
7.84717430164391
 31
0.0
  0
LINE
  5
86
330
7F
100
AcDbEntity
  8
중심선
100
AcDbLine
 10
15.74043728645272
 20
16.24717430164393
 30
0.0
 11
8.692000384563599
 21
7.84717430164391
 31
0.0
  0
LINE
  5
87
330
7F
100
AcDbEntity
  8
중심선
100
AcDbLine
 10
0.1404042013395286
 20
13.71084872107135
 30
0.0
 11
3.58671253028996
 21
13.71088815037384
 31
0.0
  0
LINE
  5
88
330
7F
100
AcDbEntity
  8
중심선
100
AcDbLine
 10
2.750260043222114
 20
10.84717430164391
 30
0.0
 11
6.196535287059397
 21
10.84717430164391
 31
0.0
  0
LINE
  5
89
330
7F
100
AcDbEntity
  8
중심선
100
AcDbLine
 10
12.29416204261559
 20
16.24717430164393
 30
0.0
 11
5.245725140726316
 21
7.84717430164391
 31
0.0
  0
LINE
  5
8A
330
7F
100
AcDbEntity
  8
중심선
100
AcDbLine
 10
10.72767329541681
 20
16.24717430164393
 30
0.0
 11
6.196535287059397
 21
10.84717430164391
 31
0.0
  0
LINE
  5
8B
330
7F
100
AcDbEntity
  8
중심선
100
AcDbLine
 10
7.28139805157953
 20
16.24717430164393
 30
0.0
 11
2.750260043222114
 21
10.84717430164391
 31
0.0
  0
LINE
  5
8C
330
7F
100
AcDbEntity
  8
중심선
100
AcDbLine
 10
5.714909304380834
 20
16.24717430164393
 30
0.0
 11
3.58671253028996
 21
13.71088815037384
 31
0.0
  0
LINE
  5
8D
330
7F
100
AcDbEntity
  8
중심선
100
AcDbLine
 10
2.268634060543552
 20
16.24717430164393
 30
0.0
 11
0.1404042013395286
 21
13.71084872107135
 31
0.0
  0
LINE
  5
8E
330
7F
100
AcDbEntity
  8
중심선
100
AcDbLine
 10
7.28139805157953
 20
16.24717430164393
 30
0.0
 11
10.72767329541681
 21
16.24717430164393
 31
0.0
  0
LINE
  5
8F
330
7F
100
AcDbEntity
  8
중심선
100
AcDbLine
 10
12.29416204261559
 20
16.24717430164393
 30
0.0
 11
15.74043728645272
 21
16.24717430164393
 31
0.0
  0
LINE
  5
90
330
7F
100
AcDbEntity
  8
중심선
100
AcDbLine
 10
19.22036997980202
 20
11.08717430171403
 30
0.0
 11
23.66174974927406
 21
11.08717430171406
 31
0.0
  0
LINE
  5
91
330
7F
100
AcDbEntity
  8
중심선
100
AcDbLine
 10
19.22039502424796
 20
13.00717430171391
 30
0.0
 11
19.22036997980202
 21
11.08717430171403
 31
0.0
  0
LINE
  5
92
330
7F
100
AcDbEntity
  8
중심선
100
AcDbLine
 10
19.22039502424796
 20
13.00717430171391
 30
0.0
 11
26.96566020931264
 21
13.00717430171391
 31
0.0
  0
LINE
  5
93
330
7F
100
AcDbEntity
  8
중심선
100
AcDbLine
 10
22.22332737316547
 20
13.45928029700563
 30
0.0
 11
24.52862924686651
 21
15.39360700705356
 31
0.0
  0
ATTDEF
  5
95
330
7F
100
AcDbEntity
  8
FORMAT
 62
     2
100
AcDbText
 10
-9.18129528874128
 20
2.075366912832191
 30
0.0
 40
4.233333333333333
  1
E2191048 [ 3 FLUTE ]
 41
0.75
  7
SLDTEXTSTYLE0
 11
-9.18129528874128
 21
-0.0412997538344756
 31
0.0
100
AcDbAttributeDefinition
  3

  2
AUTOATTR0
 70
     0
 74
     1
  0
ENDBLK
  5
81
330
7F
100
AcDbEntity
  8
0
100
AcDbBlockEnd
  0
BLOCK
  5
298
330
297
100
AcDbEntity
  8
0
100
AcDbBlockBegin
  2
_D
 70
     0
 10
0.0
 20
0.0
 30
0.0
  3
_D
  1
_D
  0
LINE
  5
29A
330
297
100
AcDbEntity
  8
치수문자_일반주서
 62
     0
370
    -2
100
AcDbLine
 10
-50.75018467149221
 20
9.524999999999983
 30
0.0
 11
-64.1876846714923
 21
9.524999999999933
 31
0.0
  0
LINE
  5
29B
330
297
100
AcDbEntity
  8
치수문자_일반주서
 62
     0
370
    -2
100
AcDbLine
 10
-50.75018467149221
 20
-9.525
 30
0.0
 11
-64.18768467149224
 21
-9.52500000000005
 31
0.0
  0
LINE
  5
29C
330
297
100
AcDbEntity
  8
치수문자_일반주서
 62
     0
370
    -2
100
AcDbLine
 10
-64.18768467149229
 20
6.222999999999933
 30
0.0
 11
-64.18768467149225
 21
-6.22300000000005
 31
0.0
  0
SOLID
  5
29D
330
297
100
AcDbEntity
  8
치수문자_일반주서
 62
     0
100
AcDbTrace
 10
-63.63735133815896
 20
6.222999999999935
 30
0.0
 11
-64.73801800482562
 21
6.222999999999931
 31
0.0
 12
-64.1876846714923
 22
9.524999999999933
 32
0.0
 13
-64.1876846714923
 23
9.524999999999933
 33
0.0
  0
SOLID
  5
29E
330
297
100
AcDbEntity
  8
치수문자_일반주서
 62
     0
100
AcDbTrace
 10
-64.73801800482558
 20
-6.223000000000052
 30
0.0
 11
-63.63735133815891
 21
-6.223000000000049
 31
0.0
 12
-64.18768467149224
 22
-9.52500000000005
 32
0.0
 13
-64.18768467149224
 23
-9.52500000000005
 33
0.0
  0
MTEXT
  5
29F
330
297
100
AcDbEntity
  8
치수문자_일반주서
 62
     0
100
AcDbMText
 10
-68.56268467149226
 20
-0.7260757102877916
 30
0.0
 40
3.5
 41
0.0
 71
     2
 72
     1
  1
\A1;%%c19.05 [3/4]
  7
SLDTEXTSTYLE0
 11
-3.729883127349610E-15
 21
1.0
 31
0.0
 73
     1
 44
1.0
  0
POINT
  5
2A0
330
297
100
AcDbEntity
  8
Defpoints
 62
     0
100
AcDbPoint
 10
-50.68768467149221
 20
9.524999999999983
 30
0.0
  0
POINT
  5
2A1
330
297
100
AcDbEntity
  8
Defpoints
 62
     0
100
AcDbPoint
 10
-50.68768467149221
 20
-9.525
 30
0.0
  0
POINT
  5
2A2
330
297
100
AcDbEntity
  8
Defpoints
 62
     0
100
AcDbPoint
 10
-64.18768467149224
 20
-9.52500000000005
 30
0.0
  0
ENDBLK
  5
299
330
297
100
AcDbEntity
  8
0
100
AcDbBlockEnd
  0
BLOCK
  5
2AD
330
2AC
100
AcDbEntity
  8
0
100
AcDbBlockBegin
  2
_D_1
 70
     0
 10
0.0
 20
0.0
 30
0.0
  3
_D_1
  1
_D_1
  0
LINE
  5
2AF
330
2AC
100
AcDbEntity
  8
치수문자_일반주서
 62
     0
370
    -2
100
AcDbLine
 10
47.2998153285078
 20
-9.524999999999988
 30
0.0
 11
66.23731532850795
 21
-9.524999999999917
 31
0.0
  0
LINE
  5
2B0
330
2AC
100
AcDbEntity
  8
치수문자_일반주서
 62
     0
370
    -2
100
AcDbLine
 10
47.2998153285078
 20
9.525000000000013
 30
0.0
 11
66.23731532850788
 21
9.525000000000084
 31
0.0
  0
LINE
  5
2B1
330
2AC
100
AcDbEntity
  8
치수문자_일반주서
 62
     0
370
    -2
100
AcDbLine
 10
66.23731532850788
 20
9.525000000000084
 30
0.0
 11
66.23731532850775
 21
40.66377779652204
 31
0.0
  0
LINE
  5
2B2
330
2AC
100
AcDbEntity
  8
치수문자_일반주서
 62
     0
370
    -2
100
AcDbLine
 10
66.23731532850793
 20
-6.222999999999917
 30
0.0
 11
66.23731532850789
 21
6.223000000000084
 31
0.0
  0
SOLID
  5
2B3
330
2AC
100
AcDbEntity
  8
치수문자_일반주서
 62
     0
100
AcDbTrace
 10
65.6869819951746
 20
-6.222999999999919
 30
0.0
 11
66.78764866184126
 21
-6.222999999999915
 31
0.0
 12
66.23731532850795
 22
-9.524999999999917
 32
0.0
 13
66.23731532850795
 23
-9.524999999999917
 33
0.0
  0
SOLID
  5
2B4
330
2AC
100
AcDbEntity
  8
치수문자_일반주서
 62
     0
100
AcDbTrace
 10
66.78764866184122
 20
6.223000000000086
 30
0.0
 11
65.68698199517456
 21
6.223000000000082
 31
0.0
 12
66.23731532850788
 22
9.525000000000084
 32
0.0
 13
66.23731532850788
 23
9.525000000000084
 33
0.0
  0
MTEXT
  5
2B5
330
2AC
100
AcDbEntity
  8
치수문자_일반주서
 62
     0
100
AcDbMText
 10
61.8623153285078
 20
26.88252779652202
 30
0.0
 40
3.5
 41
0.0
 71
     2
 72
     1
  1
\A1;%%c19.05 [3/4]
  7
SLDTEXTSTYLE0
 11
-3.729883127349607E-15
 21
1.0
 31
0.0
 73
     1
 44
1.0
  0
POINT
  5
2B6
330
2AC
100
AcDbEntity
  8
Defpoints
 62
     0
100
AcDbPoint
 10
47.2373153285078
 20
-9.524999999999988
 30
0.0
  0
POINT
  5
2B7
330
2AC
100
AcDbEntity
  8
Defpoints
 62
     0
100
AcDbPoint
 10
47.2373153285078
 20
9.525000000000013
 30
0.0
  0
POINT
  5
2B8
330
2AC
100
AcDbEntity
  8
Defpoints
 62
     0
100
AcDbPoint
 10
66.23731532850788
 20
9.525000000000084
 30
0.0
  0
ENDBLK
  5
2AE
330
2AC
100
AcDbEntity
  8
0
100
AcDbBlockEnd
  0
BLOCK
  5
2C0
330
2BF
100
AcDbEntity
  8
0
100
AcDbBlockBegin
  2
_D_2
 70
     0
 10
0.0
 20
0.0
 30
0.0
  3
_D_2
  1
_D_2
  0
LINE
  5
2C2
330
2BF
100
AcDbEntity
  8
치수문자_일반주서
 62
     0
370
    -2
100
AcDbLine
 10
47.2373153285078
 20
9.375330447157314
 30
0.0
 11
47.2373153285078
 21
31.709256515396
 31
0.0
  0
LINE
  5
2C3
330
2BF
100
AcDbEntity
  8
치수문자_일반주서
 62
     0
370
    -2
100
AcDbLine
 10
5.96231532849414
 20
-6.77131985958274
 30
0.0
 11
5.962315328494139
 21
31.709256515396
 31
0.0
  0
LINE
  5
2C4
330
2BF
100
AcDbEntity
  8
치수문자_일반주서
 62
     0
370
    -2
100
AcDbLine
 10
43.9353153285078
 20
31.709256515396
 30
0.0
 11
9.264315328494138
 21
31.709256515396
 31
0.0
  0
SOLID
  5
2C5
330
2BF
100
AcDbEntity
  8
치수문자_일반주서
 62
     0
100
AcDbTrace
 10
43.9353153285078
 20
31.15892318206267
 30
0.0
 11
43.9353153285078
 21
32.25958984872933
 31
0.0
 12
47.2373153285078
 22
31.709256515396
 32
0.0
 13
47.2373153285078
 23
31.709256515396
 33
0.0
  0
SOLID
  5
2C6
330
2BF
100
AcDbEntity
  8
치수문자_일반주서
 62
     0
100
AcDbTrace
 10
9.264315328494138
 20
32.25958984872933
 30
0.0
 11
9.264315328494138
 21
31.15892318206267
 31
0.0
 12
5.962315328494139
 22
31.709256515396
 32
0.0
 13
5.962315328494139
 23
31.709256515396
 33
0.0
  0
MTEXT
  5
2C7
330
2BF
100
AcDbEntity
  8
치수문자_일반주서
 62
     0
100
AcDbMText
 10
27.49218583951862
 20
36.08425651539601
 30
0.0
 40
3.5
 41
0.0
 71
     2
 72
     1
  1
\A1;41.28 [1 5/8]
  7
SLDTEXTSTYLE0
 73
     1
 44
1.0
  0
POINT
  5
2C8
330
2BF
100
AcDbEntity
  8
Defpoints
 62
     0
100
AcDbPoint
 10
47.2373153285078
 20
9.312830447157314
 30
0.0
  0
POINT
  5
2C9
330
2BF
100
AcDbEntity
  8
Defpoints
 62
     0
100
AcDbPoint
 10
5.96231532849414
 20
-6.83381985958274
 30
0.0
  0
POINT
  5
2CA
330
2BF
100
AcDbEntity
  8
Defpoints
 62
     0
100
AcDbPoint
 10
5.96231532849414
 20
31.709256515396
 30
0.0
  0
ENDBLK
  5
2C1
330
2BF
100
AcDbEntity
  8
0
100
AcDbBlockEnd
  0
BLOCK
  5
2D4
330
2D3
100
AcDbEntity
  8
0
100
AcDbBlockBegin
  2
_D_3
 70
     0
 10
0.0
 20
0.0
 30
0.0
  3
_D_3
  1
_D_3
  0
LINE
  5
2D6
330
2D3
100
AcDbEntity
  8
치수문자_일반주서
 62
     0
370
    -2
100
AcDbLine
 10
47.2373153285078
 20
9.375330447157314
 30
0.0
 11
47.2373153285078
 21
47.7924511005973
 31
0.0
  0
LINE
  5
2D7
330
2D3
100
AcDbEntity
  8
치수문자_일반주서
 62
     0
370
    -2
100
AcDbLine
 10
-51.18768467149221
 20
9.0875
 30
0.0
 11
-51.1876846714922
 21
47.7924511005973
 31
0.0
  0
LINE
  5
2D8
330
2D3
100
AcDbEntity
  8
치수문자_일반주서
 62
     0
370
    -2
100
AcDbLine
 10
43.93531532850781
 20
47.7924511005973
 30
0.0
 11
-47.8856846714922
 21
47.7924511005973
 31
0.0
  0
SOLID
  5
2D9
330
2D3
100
AcDbEntity
  8
치수문자_일반주서
 62
     0
100
AcDbTrace
 10
43.93531532850781
 20
47.24211776726396
 30
0.0
 11
43.93531532850781
 21
48.34278443393063
 31
0.0
 12
47.2373153285078
 22
47.7924511005973
 32
0.0
 13
47.2373153285078
 23
47.7924511005973
 33
0.0
  0
SOLID
  5
2DA
330
2D3
100
AcDbEntity
  8
치수문자_일반주서
 62
     0
100
AcDbTrace
 10
-47.8856846714922
 20
48.34278443393063
 30
0.0
 11
-47.8856846714922
 21
47.24211776726396
 31
0.0
 12
-51.1876846714922
 22
47.7924511005973
 32
0.0
 13
-51.1876846714922
 23
47.7924511005973
 33
0.0
  0
MTEXT
  5
2DB
330
2D3
100
AcDbEntity
  8
치수문자_일반주서
 62
     0
100
AcDbMText
 10
1.511640740347281
 20
52.1674511005973
 30
0.0
 40
3.5
 41
0.0
 71
     2
 72
     1
  1
\A1;98.43 [3 7/8]
  7
SLDTEXTSTYLE0
 73
     1
 44
1.0
  0
POINT
  5
2DC
330
2D3
100
AcDbEntity
  8
Defpoints
 62
     0
100
AcDbPoint
 10
47.2373153285078
 20
9.312830447157314
 30
0.0
  0
POINT
  5
2DD
330
2D3
100
AcDbEntity
  8
Defpoints
 62
     0
100
AcDbPoint
 10
-51.18768467149221
 20
9.025
 30
0.0
  0
POINT
  5
2DE
330
2D3
100
AcDbEntity
  8
Defpoints
 62
     0
100
AcDbPoint
 10
-51.18768467149221
 20
47.7924511005973
 30
0.0
  0
ENDBLK
  5
2D5
330
2D3
100
AcDbEntity
  8
0
100
AcDbBlockEnd
  0
BLOCK
  5
2ED
330
2EC
100
AcDbEntity
  8
0
100
AcDbBlockBegin
  2
SW_DOWELSYMBOL_0
 70
     0
 10
0.0
 20
0.0
 30
0.0
  3
SW_DOWELSYMBOL_0
  1
SW_DOWELSYMBOL_0
  0
CIRCLE
  5
2EF
330
2EC
100
AcDbEntity
  8
해칭선
 62
     0
100
AcDbCircle
 10
0.0
 20
0.0
 30
0.0
 40
3.000000000000001
  0
HATCH
  5
2F0
330
2EC
100
AcDbEntity
  8
0
  6
Continuous
 62
     0
370
     0
100
AcDbHatch
 10
0.0
 20
0.0
 30
0.0
210
0.0
220
0.0
230
1.0
  2
SOLID
 70
     1
 71
     0
 91
        1
 92
        0
 93
        3
 72
     2
 10
0.0
 20
0.0
 40
3.000000000000001
 50
0.0
 51
90.0
 73
     1
 72
     1
 10
0.0
 20
3.000000000000001
 11
0.0
 21
0.0
 72
     1
 10
0.0
 20
0.0
 11
3.000000000000001
 21
0.0
 97
        0
 75
     0
 76
     1
 98
        1
 10
0.0
 20
0.0
  0
HATCH
  5
2F1
330
2EC
100
AcDbEntity
  8
0
  6
Continuous
 62
     0
370
     0
100
AcDbHatch
 10
0.0
 20
0.0
 30
0.0
210
0.0
220
0.0
230
1.0
  2
SOLID
 70
     1
 71
     0
 91
        1
 92
        0
 93
        3
 72
     2
 10
0.0
 20
0.0
 40
3.000000000000001
 50
180.0
 51
270.0000000000008
 73
     1
 72
     1
 10
0.0
 20
-3.000000000000001
 11
0.0
 21
0.0
 72
     1
 10
0.0
 20
0.0
 11
-3.000000000000001
 21
0.0
 97
        0
 75
     0
 76
     1
 98
        1
 10
0.0
 20
0.0
  0
ENDBLK
  5
2EE
330
2EC
100
AcDbEntity
  8
0
100
AcDbBlockEnd
  0
ENDSEC
  0
SECTION
  2
ENTITIES
  0
SPLINE
  5
96
330
1F
100
AcDbEntity
  8
외형선
  6
Continuous
370
    15
100
AcDbSpline
210
0.0
220
0.0
230
1.0
 70
     8
 71
     3
 72
     9
 73
     5
 74
     0
 42
0.000000001
 43
0.00000001
 40
0.0
 40
0.0
 40
0.0
 40
0.0
 40
0.5006511673060626
 40
1.0
 40
1.0
 40
1.0
 40
1.0
 10
1.988504677633869
 20
-9.52488946054663
 30
0.0
 10
2.066519071725547
 20
-9.510830760951846
 30
0.0
 10
2.222344922509961
 20
-9.482749932397246
 30
0.0
 10
2.360340929244952
 20
-9.40298935023235
 30
0.0
 10
2.429249074124496
 20
-9.363160996633315
 30
0.0
  0
LINE
  5
97
330
1F
100
AcDbEntity
  8
외형선
  6
Continuous
370
    15
100
AcDbLine
 10
2.912087807273549
 20
9.525000000000004
 30
0.0
 11
-17.69460967149222
 21
9.525
 31
0.0
  0
LINE
  5
98
330
1F
100
AcDbEntity
  8
외형선
  6
Continuous
370
    15
100
AcDbLine
 10
-50.68768467149221
 20
-9.525
 30
0.0
 11
1.986615242479374
 21
-9.524999999999993
 31
0.0
  0
LINE
  5
99
330
1F
100
AcDbEntity
  8
외형선
  6
Continuous
370
    15
100
AcDbLine
 10
-50.68768467149221
 20
9.524999999999999
 30
0.0
 11
-51.18768467149221
 21
9.024999999999999
 31
0.0
  0
LINE
  5
9A
330
1F
100
AcDbEntity
  8
외형선
  6
Continuous
370
    15
100
AcDbLine
 10
-51.18768467149221
 20
-9.025000000000006
 30
0.0
 11
-50.68768467149221
 21
-9.525000000000006
 31
0.0
  0
SPLINE
  5
9B
330
1F
100
AcDbEntity
  8
외형선
  6
Continuous
370
    15
100
AcDbSpline
210
0.0
220
0.0
230
1.0
 70
     8
 71
     3
 72
     9
 73
     5
 74
     0
 42
0.000000001
 43
0.00000001
 40
0.0
 40
0.0
 40
0.0
 40
0.0
 40
0.5003894971746795
 40
1.0
 40
1.0
 40
1.0
 40
1.0
 10
2.429342323286222
 20
-9.363099800026117
 30
0.0
 10
2.471585195248203
 20
-9.344143626511121
 30
0.0
 10
2.556005176483809
 20
-9.30626078999671
 30
0.0
 10
2.641117328198638
 20
-9.343346923889085
 30
0.0
 10
2.683640253113432
 20
-9.3618755458909
 30
0.0
  0
LINE
  5
9C
330
1F
100
AcDbEntity
  8
외형선
  6
Continuous
370
    15
100
AcDbLine
 10
2.699500864947142
 20
-9.364708522133526
 30
0.0
 11
2.910085003265344
 21
-9.45975867440156
 31
0.0
  0
LINE
  5
9D
330
1F
100
AcDbEntity
  8
외형선
  6
Continuous
 62
     1
370
    15
100
AcDbLine
 10
29.14217085846223
 20
9.450877702474555
 30
0.0
 11
28.93363746602202
 21
9.361873749444303
 31
0.0
  0
LINE
  5
9E
330
1F
100
AcDbEntity
  8
외형선
  6
Continuous
 62
     1
370
    15
100
AcDbLine
 10
32.23566892669908
 20
-9.46082733127317
 30
0.0
 11
32.42935152941189
 21
-9.363093731086002
 31
0.0
  0
SPLINE
  5
9F
330
1F
100
AcDbEntity
  8
외형선
  6
Continuous
 62
     1
370
    15
100
AcDbSpline
210
0.0
220
0.0
230
1.0
 70
     8
 71
     3
 72
     9
 73
     5
 74
     0
 42
0.000000001
 43
0.00000001
 40
0.0
 40
0.0
 40
0.0
 40
0.0
 40
0.0716373699165404
 40
1.0
 40
1.0
 40
1.0
 40
1.0
 10
5.962293044126343
 20
-9.495475836085204
 30
0.0
 10
5.971055148932291
 20
-9.494851083707353
 30
0.0
 10
6.093367076577803
 20
-9.48613004357734
 30
0.0
 10
6.195149043166736
 20
-9.421665150738493
 30
0.0
 10
6.289639617364304
 20
-9.36181835327457
 30
0.0
  0
SPLINE
  5
A0
330
1F
100
AcDbEntity
  8
외형선
  6
Continuous
 62
     1
370
    15
100
AcDbSpline
210
0.0
220
0.0
230
1.0
 70
     8
 71
     3
 72
    11
 73
     7
 74
     0
 42
0.000000001
 43
0.00000001
 40
0.0
 40
0.0
 40
0.0
 40
0.0
 40
0.2449414501311817
 40
0.4999885127831922
 40
0.7550413850585359
 40
1.0
 40
1.0
 40
1.0
 40
1.0
 10
32.70725846543407
 20
-9.360757889460636
 30
0.0
 10
32.79086170152286
 20
-9.40431341455819
 30
0.0
 10
32.96151741395333
 20
-9.493221446274966
 30
0.0
 10
33.25463961432182
 20
-9.528111687143113
 30
0.0
 10
33.54776424490738
 20
-9.487576481984576
 30
0.0
 10
33.71841996142871
 20
-9.394846778291939
 30
0.0
 10
33.80202521654714
 20
-9.349417942432751
 30
0.0
  0
SPLINE
  5
A1
330
1F
100
AcDbEntity
  8
외형선
  6
Continuous
 62
     1
370
    15
100
AcDbSpline
210
0.0
220
0.0
230
1.0
 70
     8
 71
     3
 72
     9
 73
     5
 74
     0
 42
0.000000001
 43
0.00000001
 40
0.0
 40
0.0
 40
0.0
 40
0.0
 40
0.5962846047770889
 40
1.0
 40
1.0
 40
1.0
 40
1.0
 10
32.42935130011772
 20
-9.363093882302687
 30
0.0
 10
32.46903460659301
 20
-9.34364638447737
 30
0.0
 10
32.5355855558501
 20
-9.311031928780356
 30
0.0
 10
32.60515979194155
 20
-9.3357385641737
 30
0.0
 10
32.63324798216254
 20
-9.345713013246154
 30
0.0
  0
SPLINE
  5
A2
330
1F
100
AcDbEntity
  8
외형선
  6
Continuous
 62
     1
370
    15
100
AcDbSpline
210
0.0
220
0.0
230
1.0
 70
     8
 71
     3
 72
     9
 73
     5
 74
     0
 42
0.000000001
 43
0.00000001
 40
0.0
 40
0.0
 40
0.0
 40
0.0
 40
0.5889826402142171
 40
1.0
 40
1.0
 40
1.0
 40
1.0
 10
28.93363753019663
 20
9.361873790813831
 30
0.0
 10
28.89304428687161
 20
9.34273067174603
 30
0.0
 10
28.82412333648459
 20
9.310228662755001
 30
0.0
 10
28.7537898855079
 20
9.337077225635273
 30
0.0
 10
28.72488161618283
 20
9.348112451064363
 30
0.0
  0
SPLINE
  5
A3
330
1F
100
AcDbEntity
  8
외형선
  6
Continuous
 62
     1
370
    15
100
AcDbSpline
210
0.0
220
0.0
230
1.0
 70
     8
 71
     3
 72
     9
 73
     5
 74
     0
 42
0.000000001
 43
0.00000001
 40
0.0
 40
0.0
 40
0.0
 40
0.0
 40
0.4997653482375803
 40
1.0
 40
1.0
 40
1.0
 40
1.0
 10
28.64683958465227
 20
9.353681008430017
 30
0.0
 10
28.5788637485609
 20
9.391695662623034
 30
0.0
 10
28.44284824382232
 20
9.467760668584482
 30
0.0
 10
28.28862612544791
 20
9.493331274306666
 30
0.0
 10
28.21147887776882
 20
9.506122577355454
 30
0.0
  0
SPLINE
  5
A4
330
1F
100
AcDbEntity
  8
외형선
  6
Continuous
 62
     1
370
    15
100
AcDbSpline
210
0.0
220
0.0
230
1.0
 70
     8
 71
     3
 72
    11
 73
     7
 74
     0
 42
0.000000001
 43
0.00000001
 40
0.0
 40
0.0
 40
0.0
 40
0.0
 40
0.2474000295231417
 40
0.5000552227127916
 40
0.752684671298523
 40
1.0
 40
1.0
 40
1.0
 40
1.0
 10
6.292706492051452
 20
-9.35956984535766
 30
0.0
 10
6.312783498702369
 20
-9.349013206931113
 30
0.0
 10
6.353363979034488
 20
-9.327675690562742
 30
0.0
 10
6.425724758712223
 20
-9.319503827368518
 30
0.0
 10
6.497981272589082
 20
-9.331179804011136
 30
0.0
 10
6.538336988416934
 20
-9.35484941644923
 30
0.0
 10
6.558300367530733
 20
-9.36655842561646
 30
0.0
  0
SPLINE
  5
A5
330
1F
100
AcDbEntity
  8
외형선
  6
Continuous
 62
     1
370
    15
100
AcDbSpline
210
0.0
220
0.0
230
1.0
 70
     8
 71
     3
 72
     9
 73
     5
 74
     0
 42
0.000000001
 43
0.00000001
 40
0.0
 40
0.0
 40
0.0
 40
0.0
 40
0.4997376583089116
 40
1.0
 40
1.0
 40
1.0
 40
1.0
 10
6.570856305494007
 20
-9.35968942510042
 30
0.0
 10
6.638872795254993
 20
-9.39791872001538
 30
0.0
 10
6.774977186489283
 20
-9.474417447456338
 30
0.0
 10
6.929268448093247
 20
-9.500363520447618
 30
0.0
 10
7.006454555925715
 20
-9.51334336367992
 30
0.0
  0
SPLINE
  5
A6
330
1F
100
AcDbEntity
  8
외형선
  6
Continuous
 62
     1
370
    15
100
AcDbSpline
210
0.0
220
0.0
230
1.0
 70
     8
 71
     3
 72
     9
 73
     5
 74
     0
 42
0.000000001
 43
0.00000001
 40
0.0
 40
0.0
 40
0.0
 40
0.0
 40
0.5002943184157458
 40
1.0
 40
1.0
 40
1.0
 40
1.0
 10
28.21685839823736
 20
9.513375106451614
 30
0.0
 10
28.13962417245329
 20
9.498692601922986
 30
0.0
 10
27.98524659321424
 20
9.469344868022823
 30
0.0
 10
27.84903002304186
 20
9.389497137859129
 30
0.0
 10
27.78096182900079
 20
9.349596773434724
 30
0.0
  0
SPLINE
  5
A7
330
1F
100
AcDbEntity
  8
외형선
  6
Continuous
 62
     1
370
    15
100
AcDbSpline
210
0.0
220
0.0
230
1.0
 70
     8
 71
     3
 72
     9
 73
     5
 74
     0
 42
0.000000001
 43
0.00000001
 40
0.0
 40
0.0
 40
0.0
 40
0.0
 40
0.500313810501738
 40
1.0
 40
1.0
 40
1.0
 40
1.0
 10
7.00137308017833
 20
-9.518531064139937
 30
0.0
 10
7.078686217088806
 20
-9.504000361500122
 30
0.0
 10
7.233215505082959
 20
-9.474957184328488
 30
0.0
 10
7.369607038291046
 20
-9.395309907547071
 30
0.0
 10
7.43776000379962
 20
-9.355511263308248
 30
0.0
  0
SPLINE
  5
A8
330
1F
100
AcDbEntity
  8
외형선
  6
Continuous
 62
     1
370
    15
100
AcDbSpline
210
0.0
220
0.0
230
1.0
 70
     8
 71
     3
 72
     9
 73
     5
 74
     0
 42
0.000000001
 43
0.00000001
 40
0.0
 40
0.0
 40
0.0
 40
0.0
 40
0.4997447914259046
 40
1.0
 40
1.0
 40
1.0
 40
1.0
 10
27.79532160277088
 20
9.364012638500414
 30
0.0
 10
27.75249120410237
 20
9.344607015548874
 30
0.0
 10
27.66678666169724
 20
9.30577594960386
 30
0.0
 10
27.58083311359672
 20
9.343844144767413
 30
0.0
 10
27.53783440346401
 20
9.362887957678998
 30
0.0
  0
SPLINE
  5
A9
330
1F
100
AcDbEntity
  8
외형선
  6
Continuous
 62
     1
370
    15
100
AcDbSpline
210
0.0
220
0.0
230
1.0
 70
     8
 71
     3
 72
    11
 73
     7
 74
     0
 42
0.000000001
 43
0.00000001
 40
0.0
 40
0.0
 40
0.0
 40
0.0
 40
0.245086025605356
 40
0.500034438133689
 40
0.75496550501632
 40
1.0
 40
1.0
 40
1.0
 40
1.0
 10
27.53316943392084
 20
9.364778244113841
 30
0.0
 10
27.44931730148837
 20
9.409316930336457
 30
0.0
 10
27.27823878396124
 20
9.500186562277037
 30
0.0
 10
26.98419753318397
 20
9.537642729420712
 30
0.0
 10
26.69016294917963
 20
9.49922117695353
 30
0.0
 10
26.51908184774249
 20
9.407688407105477
 30
0.0
 10
26.43523453006842
 20
9.362827945215958
 30
0.0
  0
SPLINE
  5
AA
330
1F
100
AcDbEntity
  8
외형선
  6
Continuous
 62
     1
370
    15
100
AcDbSpline
210
0.0
220
0.0
230
1.0
 70
     8
 71
     3
 72
     9
 73
     5
 74
     0
 42
0.000000001
 43
0.00000001
 40
0.0
 40
0.0
 40
0.0
 40
0.0
 40
0.5003452003327513
 40
0.9999999999999999
 40
0.9999999999999999
 40
0.9999999999999999
 40
0.9999999999999999
 10
33.78960517094797
 20
-9.36184052547618
 30
0.0
 10
33.83199138857624
 20
-9.343328161329909
 30
0.0
 10
33.91670533726624
 20
-9.306328977298643
 30
0.0
 10
34.00123423164118
 20
-9.344013019682606
 30
0.0
 10
34.04346949942617
 20
-9.362842032330617
 30
0.0
  0
SPLINE
  5
AB
330
1F
100
AcDbEntity
  8
외형선
  6
Continuous
 62
     1
370
    15
100
AcDbSpline
210
0.0
220
0.0
230
1.0
 70
     8
 71
     3
 72
     9
 73
     5
 74
     0
 42
0.000000001
 43
0.00000001
 40
0.0
 40
0.0
 40
0.0
 40
0.0
 40
0.4996582593083952
 40
0.9999999999999999
 40
0.9999999999999999
 40
0.9999999999999999
 40
0.9999999999999999
 10
34.05426885394463
 20
-9.366823428105421
 30
0.0
 10
34.12244461646211
 20
-9.405755820609365
 30
0.0
 10
34.25888939896577
 20
-9.48367386114738
 30
0.0
 10
34.41345301274707
 20
-9.51086764923893
 30
0.0
 10
34.49078764031398
 20
-9.524473836508655
 30
0.0
  0
SPLINE
  5
AC
330
1F
100
AcDbEntity
  8
외형선
  6
Continuous
 62
     1
370
    15
100
AcDbSpline
210
0.0
220
0.0
230
1.0
 70
     8
 71
     3
 72
     9
 73
     5
 74
     0
 42
0.000000001
 43
0.00000001
 40
0.0
 40
0.0
 40
0.0
 40
0.0
 40
0.500431180991141
 40
1.0
 40
1.0
 40
1.0
 40
1.0
 10
7.429325542862698
 20
-9.36311084956659
 30
0.0
 10
7.47131865989514
 20
-9.344229848459317
 30
0.0
 10
7.555232529828813
 20
-9.306500382701653
 30
0.0
 10
7.639868442034888
 20
-9.34274345103975
 30
0.0
 10
7.682149904741412
 20
-9.36084935788667
 30
0.0
  0
SPLINE
  5
AD
330
1F
100
AcDbEntity
  8
외형선
  6
Continuous
 62
     1
370
    15
100
AcDbSpline
210
0.0
220
0.0
230
1.0
 70
     8
 71
     3
 72
    11
 73
     7
 74
     0
 42
0.000000001
 43
0.00000001
 40
0.0
 40
0.0
 40
0.0
 40
0.0
 40
0.2450973500442312
 40
0.4999543234037792
 40
0.7548342667873704
 40
1.0
 40
1.0
 40
1.0
 40
1.0
 10
7.685781326740712
 20
-9.363120044479528
 30
0.0
 10
7.769767556729959
 20
-9.408001393264618
 30
0.0
 10
7.941084295902908
 20
-9.499551238096679
 30
0.0
 10
8.235653784851017
 20
-9.537826302643214
 30
0.0
 10
8.53023177329117
 20
-9.499970721374906
 30
0.0
 10
8.701543713509643
 20
-9.408717374797904
 30
0.0
 10
8.785535675439263
 20
-9.363977074723833
 30
0.0
  0
SPLINE
  5
AE
330
1F
100
AcDbEntity
  8
외형선
  6
Continuous
 62
     1
370
    15
100
AcDbSpline
210
0.0
220
0.0
230
1.0
 70
     8
 71
     3
 72
     9
 73
     5
 74
     0
 42
0.000000001
 43
0.00000001
 40
0.0
 40
0.0
 40
0.0
 40
0.0
 40
0.500453232710324
 40
1.0
 40
1.0
 40
1.0
 40
1.0
 10
34.48814040246443
 20
-9.52492723217184
 30
0.0
 10
34.56574490067887
 20
-9.510983449672286
 30
0.0
 10
34.72081333293609
 20
-9.48312114089263
 30
0.0
 10
34.85787058948888
 20
-9.404229282031082
 30
0.0
 10
34.92633709893341
 20
-9.364819108971323
 30
0.0
  0
SPLINE
  5
AF
330
1F
100
AcDbEntity
  8
외형선
  6
Continuous
 62
     1
370
    15
100
AcDbSpline
210
0.0
220
0.0
230
1.0
 70
     8
 71
     3
 72
     9
 73
     5
 74
     0
 42
0.000000001
 43
0.00000001
 40
0.0
 40
0.0
 40
0.0
 40
0.0
 40
0.5003890082434385
 40
1.0
 40
1.0
 40
1.0
 40
1.0
 10
34.9293117177564
 20
-9.36311994087676
 30
0.0
 10
34.97155877907056
 20
-9.344155774294975
 30
0.0
 10
35.05598721498376
 20
-9.306256927059378
 30
0.0
 10
35.14110746864249
 20
-9.343343144378942
 30
0.0
 10
35.18363448299151
 20
-9.361871826194472
 30
0.0
  0
SPLINE
  5
B0
330
1F
100
AcDbEntity
  8
외형선
  6
Continuous
 62
     1
370
    15
100
AcDbSpline
210
0.0
220
0.0
230
1.0
 70
     8
 71
     3
 72
     9
 73
     5
 74
     0
 42
0.000000001
 43
0.00000001
 40
0.0
 40
0.0
 40
0.0
 40
0.0
 40
0.4996094775668575
 40
1.0
 40
1.0
 40
1.0
 40
1.0
 10
26.43361271548631
 20
9.361857776102276
 30
0.0
 10
26.39109629578437
 20
9.343337280640549
 30
0.0
 10
26.30599699000456
 20
9.306267336427473
 30
0.0
 10
26.2215905867004
 20
9.34414046720392
 30
0.0
 10
26.17935442245433
 20
9.36309182289932
 30
0.0
  0
SPLINE
  5
B1
330
1F
100
AcDbEntity
  8
외형선
  6
Continuous
 62
     1
370
    15
100
AcDbSpline
210
0.0
220
0.0
230
1.0
 70
     8
 71
     3
 72
    11
 73
     7
 74
     0
 42
0.000000001
 43
0.00000001
 40
0.0
 40
0.0
 40
0.0
 40
0.0
 40
0.2898749335082593
 40
0.5599056121969611
 40
0.7982972374588122
 40
1.0
 40
1.0
 40
1.0
 40
1.0
 10
35.17865621041162
 20
-9.357927641345206
 30
0.0
 10
35.28081661384383
 20
-9.411411211581175
 30
0.0
 10
35.47814372500076
 20
-9.51471697442526
 30
0.0
 10
35.79795881132203
 20
-9.536199599174154
 30
0.0
 10
36.07340866002411
 20
-9.481996185543371
 30
0.0
 10
36.22154045271579
 20
-9.39967863102814
 30
0.0
 10
36.28943177929063
 20
-9.361951092092134
 30
0.0
  0
SPLINE
  5
B2
330
1F
100
AcDbEntity
  8
외형선
  6
Continuous
 62
     1
370
    15
100
AcDbSpline
210
0.0
220
0.0
230
1.0
 70
     8
 71
     3
 72
     9
 73
     5
 74
     0
 42
0.000000001
 43
0.00000001
 40
0.0
 40
0.0
 40
0.0
 40
0.0
 40
0.4994786883994771
 40
1.0
 40
1.0
 40
1.0
 40
1.0
 10
26.18205148733484
 20
9.361102773975622
 30
0.0
 10
26.11343909922953
 20
9.400975969546517
 30
0.0
 10
25.97607109995578
 20
9.48080559290575
 30
0.0
 10
25.82075317559239
 20
9.509439972202458
 30
0.0
 10
25.74301324437496
 20
9.523772089284915
 30
0.0
  0
SPLINE
  5
B3
330
1F
100
AcDbEntity
  8
외형선
  6
Continuous
 62
     1
370
    15
100
AcDbSpline
210
0.0
220
0.0
230
1.0
 70
     8
 71
     3
 72
     9
 73
     5
 74
     0
 42
0.000000001
 43
0.00000001
 40
0.0
 40
0.0
 40
0.0
 40
0.0
 40
0.5003323465183687
 40
1.0
 40
1.0
 40
1.0
 40
1.0
 10
8.78962054246178
 20
-9.361830639727247
 30
0.0
 10
8.83208337142937
 20
-9.343298012532786
 30
0.0
 10
8.916952617367745
 20
-9.306257378795193
 30
0.0
 10
9.001627597653712
 20
-9.344198606527556
 30
0.0
 10
9.043936946361807
 20
-9.363156610758798
 30
0.0
  0
SPLINE
  5
B4
330
1F
100
AcDbEntity
  8
외형선
  6
Continuous
 62
     1
370
    15
100
AcDbSpline
210
0.0
220
0.0
230
1.0
 70
     8
 71
     3
 72
     9
 73
     5
 74
     0
 42
0.000000001
 43
0.00000001
 40
0.0
 40
0.0
 40
0.0
 40
0.0
 40
0.4992600598295448
 40
1.0
 40
1.0
 40
1.0
 40
1.0
 10
9.039441335730444
 20
-9.359594539493889
 30
0.0
 10
9.108333734049651
 20
-9.399815793832547
 30
0.0
 10
9.246322737902126
 20
-9.48037752423091
 30
0.0
 10
9.402087035804605
 20
-9.509276257320202
 30
0.0
 10
9.480084441016984
 20
-9.523747007198336
 30
0.0
  0
SPLINE
  5
B5
330
1F
100
AcDbEntity
  8
외형선
  6
Continuous
 62
     1
370
    15
100
AcDbSpline
210
0.0
220
0.0
230
1.0
 70
     8
 71
     3
 72
     9
 73
     5
 74
     0
 42
0.000000001
 43
0.00000001
 40
0.0
 40
0.0
 40
0.0
 40
0.0
 40
0.4664413754900846
 40
1.0
 40
1.0
 40
1.0
 40
1.0
 10
25.73679940301855
 20
9.524998494661851
 30
0.0
 10
25.66619123986672
 20
9.51318590563604
 30
0.0
 10
25.51481495366646
 20
9.487860988837232
 30
0.0
 10
25.37076302286941
 20
9.406529326746366
 30
0.0
 10
25.29390287281535
 20
9.36313411699206
 30
0.0
  0
SPLINE
  5
B6
330
1F
100
AcDbEntity
  8
외형선
  6
Continuous
 62
     1
370
    15
100
AcDbSpline
210
0.0
220
0.0
230
1.0
 70
     8
 71
     3
 72
     9
 73
     5
 74
     0
 42
0.000000001
 43
0.00000001
 40
0.0
 40
0.0
 40
0.0
 40
0.0
 40
0.5006512264513863
 40
1.0
 40
1.0
 40
1.0
 40
1.0
 10
9.488450985163002
 20
-9.524895521945856
 30
0.0
 10
9.566465584121168
 20
-9.51084169125628
 30
0.0
 10
9.722291825696828
 20
-9.482770591162925
 30
0.0
 10
9.860288290791786
 20
-9.40301902370179
 30
0.0
 10
9.929196656390996
 20
-9.36319517630149
 30
0.0
  0
SPLINE
  5
B7
330
1F
100
AcDbEntity
  8
외형선
  6
Continuous
 62
     1
370
    15
100
AcDbSpline
210
0.0
220
0.0
230
1.0
 70
     8
 71
     3
 72
     9
 73
     5
 74
     0
 42
0.000000001
 43
0.00000001
 40
0.0
 40
0.0
 40
0.0
 40
0.0
 40
0.4996662768287058
 40
1.0
 40
1.0
 40
1.0
 40
1.0
 10
25.29390534343701
 20
9.363135750290233
 30
0.0
 10
25.25160492880892
 20
9.344187680060601
 30
0.0
 10
25.16694759532515
 20
9.306266229067566
 30
0.0
 10
25.08209698552342
 20
9.343291130665225
 30
0.0
 10
25.03964336400796
 20
9.361815937531633
 30
0.0
  0
SPLINE
  5
B8
330
1F
100
AcDbEntity
  8
외형선
  6
Continuous
 62
     1
370
    15
100
AcDbSpline
210
0.0
220
0.0
230
1.0
 70
     8
 71
     3
 72
    11
 73
     7
 74
     0
 42
0.000000001
 43
0.00000001
 40
0.0
 40
0.0
 40
0.0
 40
0.0
 40
0.2454910013434951
 40
0.5001022623339821
 40
0.754662259670998
 40
1.0
 40
1.0
 40
1.0
 40
1.0
 10
25.03964398835413
 20
9.361815534889905
 30
0.0
 10
24.95518060221066
 20
9.40711557168453
 30
0.0
 10
24.78311592259485
 20
9.499398591269053
 30
0.0
 10
24.48664556746625
 20
9.538022524037556
 30
0.0
 10
24.19019234395611
 20
9.499449213746324
 30
0.0
 10
24.01811007262737
 20
9.407172855676917
 30
0.0
 10
23.93365624854009
 20
9.361885847017428
 30
0.0
  0
SPLINE
  5
B9
330
1F
100
AcDbEntity
  8
외형선
  6
Continuous
 62
     1
370
    15
100
AcDbSpline
210
0.0
220
0.0
230
1.0
 70
     8
 71
     3
 72
     9
 73
     5
 74
     0
 42
0.000000001
 43
0.00000001
 40
0.0
 40
0.0
 40
0.0
 40
0.0
 40
0.500332115437193
 40
0.9999999999999999
 40
0.9999999999999999
 40
0.9999999999999999
 40
0.9999999999999999
 10
36.28960405472461
 20
-9.361841242811774
 30
0.0
 10
36.33206893136927
 20
-9.34330441039954
 30
0.0
 10
36.41694230914065
 20
-9.30625535470174
 30
0.0
 10
36.50162125299759
 20
-9.34419601632861
 30
0.0
 10
36.54393260174161
 20
-9.36315374646262
 30
0.0
  0
SPLINE
  5
BA
330
1F
100
AcDbEntity
  8
외형선
  6
Continuous
 62
     1
370
    15
100
AcDbSpline
210
0.0
220
0.0
230
1.0
 70
     8
 71
     3
 72
     9
 73
     5
 74
     0
 42
0.000000001
 43
0.00000001
 40
0.0
 40
0.0
 40
0.0
 40
0.0
 40
0.5003890413857136
 40
1.0
 40
1.0
 40
1.0
 40
1.0
 10
9.929324180017606
 20
-9.363111746256124
 30
0.0
 10
9.971570543352904
 20
-9.344150503842194
 30
0.0
 10
10.05599757880178
 20
-9.306257502905519
 30
0.0
 10
10.14111645747175
 20
-9.343346904201683
 30
0.0
 10
10.18364278204022
 20
-9.361877175537687
 30
0.0
  0
SPLINE
  5
BB
330
1F
100
AcDbEntity
  8
외형선
  6
Continuous
 62
     1
370
    15
100
AcDbSpline
210
0.0
220
0.0
230
1.0
 70
     8
 71
     3
 72
     9
 73
     5
 74
     0
 42
0.000000001
 43
0.00000001
 40
0.0
 40
0.0
 40
0.0
 40
0.0
 40
0.4992624127195103
 40
1.0
 40
1.0
 40
1.0
 40
1.0
 10
36.54378743609963
 20
-9.363057400648412
 30
0.0
 10
36.61268370401437
 20
-9.402896652573046
 30
0.0
 10
36.75067980818623
 20
-9.482692869771995
 30
0.0
 10
36.9064523950535
 20
-9.510794756079694
 30
0.0
 10
36.98445358436587
 20
-9.52486642682744
 30
0.0
  0
SPLINE
  5
BC
330
1F
100
AcDbEntity
  8
외형선
  6
Continuous
 62
     1
370
    15
100
AcDbSpline
210
0.0
220
0.0
230
1.0
 70
     8
 71
     3
 72
    11
 73
     7
 74
     0
 42
0.000000001
 43
0.00000001
 40
0.0
 40
0.0
 40
0.0
 40
0.0
 40
0.2453445155439031
 40
0.499895728009651
 40
0.7544992088646002
 40
1.0
 40
1.0
 40
1.0
 40
1.0
 10
10.18352281377228
 20
-9.36179945123211
 30
0.0
 10
10.26798918311572
 20
-9.407107024408417
 30
0.0
 10
10.44009157187978
 20
-9.49942236403241
 30
0.0
 10
10.73659672226054
 20
-9.53802788607126
 30
0.0
 10
11.03311929971363
 20
-9.49940305880286
 30
0.0
 10
11.20520361873211
 20
-9.40710267072834
 30
0.0
 10
11.28967967468119
 20
-9.361792483306393
 30
0.0
  0
SPLINE
  5
BD
330
1F
100
AcDbEntity
  8
외형선
  6
Continuous
 62
     1
370
    15
100
AcDbSpline
210
0.0
220
0.0
230
1.0
 70
     8
 71
     3
 72
     9
 73
     5
 74
     0
 42
0.000000001
 43
0.00000001
 40
0.0
 40
0.0
 40
0.0
 40
0.0
 40
0.5006548551749367
 40
1.0
 40
1.0
 40
1.0
 40
1.0
 10
36.9885978923158
 20
-9.524878531815002
 30
0.0
 10
37.0666200242874
 20
-9.510809384894095
 30
0.0
 10
37.22246018276211
 20
-9.48270789586331
 30
0.0
 10
37.36047388988244
 20
-9.402913179997674
 30
0.0
 10
37.42939036445228
 20
-9.363068076047472
 30
0.0
  0
SPLINE
  5
BE
330
1F
100
AcDbEntity
  8
외형선
  6
Continuous
 62
     1
370
    15
100
AcDbSpline
210
0.0
220
0.0
230
1.0
 70
     8
 71
     3
 72
     9
 73
     5
 74
     0
 42
0.000000001
 43
0.00000001
 40
0.0
 40
0.0
 40
0.0
 40
0.0
 40
0.5003890339122545
 40
1.0
 40
1.0
 40
1.0
 40
1.0
 10
37.4293110331487
 20
-9.363120390783982
 30
0.0
 10
37.47155796591041
 20
-9.344156117951782
 30
0.0
 10
37.55598614058766
 20
-9.3062570603247
 30
0.0
 10
37.64110615118046
 20
-9.343342569718626
 30
0.0
 10
37.68363304190613
 20
-9.36187089689478
 30
0.0
  0
SPLINE
  5
BF
330
1F
100
AcDbEntity
  8
외형선
  6
Continuous
 62
     1
370
    15
100
AcDbSpline
210
0.0
220
0.0
230
1.0
 70
     8
 71
     3
 72
     9
 73
     5
 74
     0
 42
0.000000001
 43
0.00000001
 40
0.0
 40
0.0
 40
0.0
 40
0.0
 40
0.4996093999615531
 40
1.0
 40
1.0
 40
1.0
 40
1.0
 10
23.93361065576711
 20
9.361856445181663
 30
0.0
 10
23.8910947296875
 20
9.343336560548764
 30
0.0
 10
23.80599639870557
 20
9.306267833190303
 30
0.0
 10
23.72159102562249
 20
9.344140214154772
 30
0.0
 10
23.67935537033897
 20
9.363091197590467
 30
0.0
  0
SPLINE
  5
C0
330
1F
100
AcDbEntity
  8
외형선
  6
Continuous
 62
     1
370
    15
100
AcDbSpline
210
0.0
220
0.0
230
1.0
 70
     8
 71
     3
 72
    11
 73
     7
 74
     0
 42
0.000000001
 43
0.00000001
 40
0.0
 40
0.0
 40
0.0
 40
0.0
 40
0.2453285130986708
 40
0.4999001901269534
 40
0.7545219049552192
 40
1.0
 40
1.0
 40
1.0
 40
1.0
 10
37.6837193040028
 20
-9.36192630769331
 30
0.0
 10
37.768156212093
 20
-9.407198270975794
 30
0.0
 10
37.94021133065579
 20
-9.49944789482295
 30
0.0
 10
38.23659474351276
 20
-9.538015519098417
 30
0.0
 10
38.53299493052889
 20
-9.49942999086899
 30
0.0
 10
38.70503305193193
 20
-9.407195145202582
 30
0.0
 10
38.78947937541248
 20
-9.361920914411158
 30
0.0
  0
SPLINE
  5
C1
330
1F
100
AcDbEntity
  8
외형선
  6
Continuous
 62
     1
370
    15
100
AcDbSpline
210
0.0
220
0.0
230
1.0
 70
     8
 71
     3
 72
     9
 73
     5
 74
     0
 42
0.000000001
 43
0.00000001
 40
0.0
 40
0.0
 40
0.0
 40
0.0
 40
0.4993450794478912
 40
1.0
 40
1.0
 40
1.0
 40
1.0
 10
23.67930263030306
 20
9.363125910720878
 30
0.0
 10
23.61038586181293
 20
9.40296339806341
 30
0.0
 10
23.47237154801149
 20
9.482742871181635
 30
0.0
 10
23.31653086498978
 20
9.51082804607998
 30
0.0
 10
23.23850846021276
 20
9.524889027087406
 30
0.0
  0
SPLINE
  5
C2
330
1F
100
AcDbEntity
  8
외형선
  6
Continuous
 62
     1
370
    15
100
AcDbSpline
210
0.0
220
0.0
230
1.0
 70
     8
 71
     3
 72
     9
 73
     5
 74
     0
 42
0.000000001
 43
0.00000001
 40
0.0
 40
0.0
 40
0.0
 40
0.0
 40
0.5003323003081621
 40
1.0
 40
1.0
 40
1.0
 40
1.0
 10
11.28961863770287
 20
-9.361831865459175
 30
0.0
 10
11.33208182095146
 20
-9.343298715548006
 30
0.0
 10
11.41695178281967
 20
-9.306257033650285
 30
0.0
 10
11.50162744563262
 20
-9.344198575157831
 30
0.0
 10
11.54393713929025
 20
-9.363156737925667
 30
0.0
  0
SPLINE
  5
C3
330
1F
100
AcDbEntity
  8
외형선
  6
Continuous
 62
     1
370
    15
100
AcDbSpline
210
0.0
220
0.0
230
1.0
 70
     8
 71
     3
 72
     9
 73
     5
 74
     0
 42
0.000000001
 43
0.00000001
 40
0.0
 40
0.0
 40
0.0
 40
0.0
 40
0.4992758676011517
 40
1.0
 40
1.0
 40
1.0
 40
1.0
 10
11.54400396748046
 20
-9.3632006546214
 30
0.0
 10
11.61287686251981
 20
-9.40300881076218
 30
0.0
 10
11.75082243431414
 20
-9.482740595781246
 30
0.0
 10
11.90655614515995
 20
-9.510817699954815
 30
0.0
 10
11.98453577240847
 20
-9.524876583582394
 30
0.0
  0
SPLINE
  5
C4
330
1F
100
AcDbEntity
  8
외형선
  6
Continuous
 62
     1
370
    15
100
AcDbSpline
210
0.0
220
0.0
230
1.0
 70
     8
 71
     3
 72
     9
 73
     5
 74
     0
 42
0.000000001
 43
0.00000001
 40
0.0
 40
0.0
 40
0.0
 40
0.0
 40
0.541234933842154
 40
1.0
 40
1.0
 40
1.0
 40
1.0
 10
23.23441033765912
 20
9.524860921050683
 30
0.0
 10
23.14501275414665
 20
9.50728917850358
 30
0.0
 10
22.97983941088544
 20
9.474823161533163
 30
0.0
 10
22.85070401064661
 20
9.397031422531155
 30
0.0
 10
22.79146120021274
 20
9.361343290241365
 30
0.0
  0
SPLINE
  5
C5
330
1F
100
AcDbEntity
  8
외형선
  6
Continuous
 62
     1
370
    15
100
AcDbSpline
210
0.0
220
0.0
230
1.0
 70
     8
 71
     3
 72
     9
 73
     5
 74
     0
 42
0.000000001
 43
0.00000001
 40
0.0
 40
0.0
 40
0.0
 40
0.0
 40
0.5007797458777581
 40
1.0
 40
1.0
 40
1.0
 40
1.0
 10
11.99165991908047
 20
-9.524233655211688
 30
0.0
 10
12.06995080970684
 20
-9.50976349390693
 30
0.0
 10
12.22628878317886
 20
-9.48086823321823
 30
0.0
 10
12.36491579273394
 20
-9.399775298000032
 30
0.0
 10
12.43412120367224
 20
-9.359292062272885
 30
0.0
  0
SPLINE
  5
C6
330
1F
100
AcDbEntity
  8
외형선
  6
Continuous
 62
     1
370
    15
100
AcDbSpline
210
0.0
220
0.0
230
1.0
 70
     8
 71
     3
 72
     9
 73
     5
 74
     0
 42
0.000000001
 43
0.00000001
 40
0.0
 40
0.0
 40
0.0
 40
0.0
 40
0.4996663032018396
 40
1.0
 40
1.0
 40
1.0
 40
1.0
 10
22.79390595565701
 20
9.363136154965668
 30
0.0
 10
22.7516053702514
 20
9.344187892816706
 30
0.0
 10
22.66694769945283
 20
9.306266059730225
 30
0.0
 10
22.58209673338038
 20
9.343291258876004
 30
0.0
 10
22.53964293584846
 20
9.3618162136393
 30
0.0
  0
SPLINE
  5
C7
330
1F
100
AcDbEntity
  8
외형선
  6
Continuous
 62
     1
370
    15
100
AcDbSpline
210
0.0
220
0.0
230
1.0
 70
     8
 71
     3
 72
    11
 73
     7
 74
     0
 42
0.000000001
 43
0.00000001
 40
0.0
 40
0.0
 40
0.0
 40
0.0
 40
0.2453846329785574
 40
0.5000867349015329
 40
0.7547453264764478
 40
1.0
 40
1.0
 40
1.0
 40
1.0
 10
22.53487664758851
 20
9.364232849627264
 30
0.0
 10
22.45056393398597
 20
9.408994849775329
 30
0.0
 10
22.27873707936842
 20
9.50021850233251
 30
0.0
 10
21.9828806930653
 20
9.537552064893967
 30
0.0
 10
21.68703926111445
 20
9.498063470987795
 30
0.0
 10
21.51519890224298
 20
9.405362055766057
 30
0.0
 10
21.43089497583108
 20
9.359883255916847
 30
0.0
  0
SPLINE
  5
C8
330
1F
100
AcDbEntity
  8
외형선
  6
Continuous
 62
     1
370
    15
100
AcDbSpline
210
0.0
220
0.0
230
1.0
 70
     8
 71
     3
 72
     9
 73
     5
 74
     0
 42
0.000000001
 43
0.00000001
 40
0.0
 40
0.0
 40
0.0
 40
0.0
 40
0.500332127695738
 40
1.0
 40
1.0
 40
1.0
 40
1.0
 10
38.78960238784569
 20
-9.361842313889554
 30
0.0
 10
38.8320672566665
 20
-9.343305123392252
 30
0.0
 10
38.91694061672109
 20
-9.306255352907447
 30
0.0
 10
39.00161955133641
 20
-9.344195265277582
 30
0.0
 10
39.04393089442465
 20
-9.36315262056698
 30
0.0
  0
SPLINE
  5
C9
330
1F
100
AcDbEntity
  8
외형선
  6
Continuous
 62
     1
370
    15
100
AcDbSpline
210
0.0
220
0.0
230
1.0
 70
     8
 71
     3
 72
     9
 73
     5
 74
     0
 42
0.000000001
 43
0.00000001
 40
0.0
 40
0.0
 40
0.0
 40
0.0
 40
0.5003890161184781
 40
1.0
 40
1.0
 40
1.0
 40
1.0
 10
12.42932178377363
 20
-9.363113322614586
 30
0.0
 10
12.47156839605822
 20
-9.344151480428893
 30
0.0
 10
12.55599593328175
 20
-9.306257278967843
 30
0.0
 10
12.64111529537653
 20
-9.343346434341557
 30
0.0
 10
12.68364186362007
 20
-9.361876583749153
 30
0.0
  0
SPLINE
  5
CA
330
1F
100
AcDbEntity
  8
외형선
  6
Continuous
 62
     1
370
    15
100
AcDbSpline
210
0.0
220
0.0
230
1.0
 70
     8
 71
     3
 72
     9
 73
     5
 74
     0
 42
0.000000001
 43
0.00000001
 40
0.0
 40
0.0
 40
0.0
 40
0.0
 40
0.4992441532638636
 40
1.0
 40
1.0
 40
1.0
 40
1.0
 10
39.04823694148543
 20
-9.365445146583804
 30
0.0
 10
39.11717393155627
 20
-9.404898282475708
 30
0.0
 10
39.25525665044272
 20
-9.483924016946458
 30
0.0
 10
39.41109905446886
 20
-9.511164326484504
 30
0.0
 10
39.48913804945437
 20
-9.524805070752583
 30
0.0
  0
SPLINE
  5
CB
330
1F
100
AcDbEntity
  8
외형선
  6
Continuous
 62
     1
370
    15
100
AcDbSpline
210
0.0
220
0.0
230
1.0
 70
     8
 71
     3
 72
    11
 73
     7
 74
     0
 42
0.000000001
 43
0.00000001
 40
0.0
 40
0.0
 40
0.0
 40
0.0
 40
0.2451392062636864
 40
0.4999489444200629
 40
0.7547843378793643
 40
1.0
 40
1.0
 40
1.0
 40
1.0
 10
12.68837944086456
 20
-9.36426729537388
 30
0.0
 10
12.77245040141495
 20
-9.408969234792409
 30
0.0
 10
12.94390884996005
 20
-9.500136566882828
 30
0.0
 10
13.23880910064886
 20
-9.537732029668184
 30
0.0
 10
13.53371865171688
 20
-9.499031938534744
 30
0.0
 10
13.70517096295387
 20
-9.407132279940056
 30
0.0
 10
13.78924796179818
 20
-9.36206641040635
 30
0.0
  0
SPLINE
  5
CC
330
1F
100
AcDbEntity
  8
외형선
  6
Continuous
 62
     1
370
    15
100
AcDbSpline
210
0.0
220
0.0
230
1.0
 70
     8
 71
     3
 72
     9
 73
     5
 74
     0
 42
0.000000001
 43
0.00000001
 40
0.0
 40
0.0
 40
0.0
 40
0.0
 40
0.5004032848238165
 40
1.0
 40
1.0
 40
1.0
 40
1.0
 10
39.48952311863586
 20
-9.524742154319036
 30
0.0
 10
39.56702475604189
 20
-9.510732985826133
 30
0.0
 10
39.72190311067402
 20
-9.48273722936775
 30
0.0
 10
39.85872492081372
 20
-9.403852770622835
 30
0.0
 10
39.92708064772397
 20
-9.364442354155424
 30
0.0
  0
SPLINE
  5
CD
330
1F
100
AcDbEntity
  8
외형선
  6
Continuous
 62
     1
370
    15
100
AcDbSpline
210
0.0
220
0.0
230
1.0
 70
     8
 71
     3
 72
     9
 73
     5
 74
     0
 42
0.000000001
 43
0.00000001
 40
0.0
 40
0.0
 40
0.0
 40
0.0
 40
0.5003892887529408
 40
1.0
 40
1.0
 40
1.0
 40
1.0
 10
39.92931959080659
 20
-9.36311476495756
 30
0.0
 10
39.97156463527542
 20
-9.344152959511892
 30
0.0
 10
40.05598899330698
 20
-9.306258852120177
 30
0.0
 10
40.14110536997524
 20
-9.343342046785612
 30
0.0
 10
40.18363042346124
 20
-9.361869208047722
 30
0.0
  0
SPLINE
  5
CE
330
1F
100
AcDbEntity
  8
외형선
  6
Continuous
 62
     1
370
    15
100
AcDbSpline
210
0.0
220
0.0
230
1.0
 70
     8
 71
     3
 72
     9
 73
     5
 74
     0
 42
0.000000001
 43
0.00000001
 40
0.0
 40
0.0
 40
0.0
 40
0.0
 40
0.4996093932478628
 40
1.0
 40
1.0
 40
1.0
 40
1.0
 10
21.43361064327051
 20
9.361856437106015
 30
0.0
 10
21.39109476858565
 20
9.343336571844286
 30
0.0
 10
21.30599653933006
 20
9.306267882760334
 30
0.0
 10
21.22159127280158
 20
9.344140098636831
 30
0.0
 10
21.17935567027033
 20
9.363090999718322
 30
0.0
  0
SPLINE
  5
CF
330
1F
100
AcDbEntity
  8
외형선
  6
Continuous
 62
     1
370
    15
100
AcDbSpline
210
0.0
220
0.0
230
1.0
 70
     8
 71
     3
 72
    11
 73
     7
 74
     0
 42
0.000000001
 43
0.00000001
 40
0.0
 40
0.0
 40
0.0
 40
0.0
 40
0.2449747874399787
 40
0.4999733350662754
 40
0.7549853406292795
 40
1.0
 40
1.0
 40
1.0
 40
1.0
 10
40.17984894621555
 20
-9.359006586624506
 30
0.0
 10
40.26355145956836
 20
-9.404108987936029
 30
0.0
 10
40.43438138534054
 20
-9.496159268860325
 30
0.0
 10
40.72787515798122
 20
-9.535516027710695
 30
0.0
 10
41.02137433512335
 20
-9.499239015392593
 30
0.0
 10
41.1922032676319
 20
-9.409282212500818
 30
0.0
 10
41.27590998898204
 20
-9.365203092397234
 30
0.0
  0
SPLINE
  5
D0
330
1F
100
AcDbEntity
  8
외형선
  6
Continuous
 62
     1
370
    15
100
AcDbSpline
210
0.0
220
0.0
230
1.0
 70
     8
 71
     3
 72
     9
 73
     5
 74
     0
 42
0.000000001
 43
0.00000001
 40
0.0
 40
0.0
 40
0.0
 40
0.0
 40
0.499632056039336
 40
1.0
 40
1.0
 40
1.0
 40
1.0
 10
21.18117940780575
 20
9.361791822583614
 30
0.0
 10
21.11290364839116
 20
9.401382785750565
 30
0.0
 10
20.97625156894729
 20
9.480623024018694
 30
0.0
 10
20.82151070971466
 20
9.509087780144288
 30
0.0
 10
20.74408334413373
 20
9.523330631642196
 30
0.0
  0
SPLINE
  5
D1
330
1F
100
AcDbEntity
  8
외형선
  6
Continuous
 62
     1
370
    15
100
AcDbSpline
210
0.0
220
0.0
230
1.0
 70
     8
 71
     3
 72
     9
 73
     5
 74
     0
 42
0.000000001
 43
0.00000001
 40
0.0
 40
0.0
 40
0.0
 40
0.0
 40
0.5003826368437208
 40
1.0
 40
1.0
 40
1.0
 40
1.0
 10
13.79202971660218
 20
-9.360112672888397
 30
0.0
 10
13.83408576222705
 20
-9.34227731749889
 30
0.0
 10
13.91813353392861
 20
-9.306633883701895
 30
0.0
 10
14.00202391690012
 20
-9.344325343953093
 30
0.0
 10
14.04393700883451
 20
-9.363156651937306
 30
0.0
  0
SPLINE
  5
D2
330
1F
100
AcDbEntity
  8
외형선
  6
Continuous
 62
     1
370
    15
100
AcDbSpline
210
0.0
220
0.0
230
1.0
 70
     8
 71
     3
 72
     9
 73
     5
 74
     0
 42
0.000000001
 43
0.00000001
 40
0.0
 40
0.0
 40
0.0
 40
0.0
 40
0.4996582824003326
 40
1.0
 40
1.0
 40
1.0
 40
1.0
 10
14.03811464526257
 20
-9.358313891931866
 30
0.0
 10
14.10628151915973
 20
-9.398018410127493
 30
0.0
 10
14.24270850595898
 20
-9.477481754565392
 30
0.0
 10
14.39725532369479
 20
-9.506295483907314
 30
0.0
 10
14.47458154393029
 20
-9.520712194736703
 30
0.0
  0
SPLINE
  5
D3
330
1F
100
AcDbEntity
  8
외형선
  6
Continuous
 62
     1
370
    15
100
AcDbSpline
210
0.0
220
0.0
230
1.0
 70
     8
 71
     3
 72
     9
 73
     5
 74
     0
 42
0.000000001
 43
0.00000001
 40
0.0
 40
0.0
 40
0.0
 40
0.0
 40
0.5002951813223715
 40
1.0
 40
1.0
 40
1.0
 40
1.0
 10
20.74815924329767
 20
9.521031737961136
 30
0.0
 10
20.67091039782419
 20
9.507743802430772
 30
0.0
 10
20.51650386272767
 20
9.481183611514604
 30
0.0
 10
20.3802560818533
 20
9.403988324067408
 30
0.0
 10
20.31217240921624
 20
9.36541346695084
 30
0.0
  0
SPLINE
  5
D4
330
1F
100
AcDbEntity
  8
외형선
  6
Continuous
 62
     1
370
    15
100
AcDbSpline
210
0.0
220
0.0
230
1.0
 70
     8
 71
     3
 72
     9
 73
     5
 74
     0
 42
0.000000001
 43
0.00000001
 40
0.0
 40
0.0
 40
0.0
 40
0.0
 40
0.500258740912688
 40
0.9999999999999999
 40
0.9999999999999999
 40
0.9999999999999999
 40
0.9999999999999999
 10
14.46994601086294
 20
-9.516741572255315
 30
0.0
 10
14.54714629108987
 20
-9.503648513086016
 30
0.0
 10
14.70146699338501
 20
-9.477475938579047
 30
0.0
 10
14.83760233726559
 20
-9.400725121690458
 30
0.0
 10
14.90563478542275
 20
-9.362369571822576
 30
0.0
  0
SPLINE
  5
D5
330
1F
100
AcDbEntity
  8
외형선
  6
Continuous
 62
     1
370
    15
100
AcDbSpline
210
0.0
220
0.0
230
1.0
 70
     8
 71
     3
 72
     9
 73
     5
 74
     0
 42
0.000000001
 43
0.00000001
 40
0.0
 40
0.0
 40
0.0
 40
0.0
 40
0.7889292147755775
 40
1.0
 40
1.0
 40
1.0
 40
1.0
 10
47.08977611725982
 20
9.510196987493778
 30
0.0
 10
46.97452315805853
 20
9.515849574330495
 30
0.0
 10
46.82843532528118
 20
9.523014459000565
 30
0.0
 10
46.6994035602122
 20
9.463105016006885
 30
0.0
 10
46.67216872424021
 20
9.450459882831854
 30
0.0
  0
SPLINE
  5
D6
330
1F
100
AcDbEntity
  8
외형선
  6
Continuous
 62
     1
370
    15
100
AcDbSpline
210
0.0
220
0.0
230
1.0
 70
     8
 71
     3
 72
    11
 73
     7
 74
     0
 42
0.000000001
 43
0.00000001
 40
0.0
 40
0.0
 40
0.0
 40
0.0
 40
0.2480134266857076
 40
0.4998667303786978
 40
0.7517840084695123
 40
0.9999999999999999
 40
0.9999999999999999
 40
0.9999999999999999
 40
0.9999999999999999
 10
20.29990197416249
 20
9.36603884649217
 30
0.0
 10
20.28024793200716
 20
9.354841748295865
 30
0.0
 10
20.24063555326539
 20
9.332274192418298
 30
0.0
 10
20.16895998051227
 20
9.321576239931444
 30
0.0
 10
20.0971810606979
 20
9.330717778998503
 30
0.0
 10
20.05736162755947
 20
9.352301446666225
 30
0.0
 10
20.03759925485006
 20
9.363013414448462
 30
0.0
  0
SPLINE
  5
D7
330
1F
100
AcDbEntity
  8
외형선
  6
Continuous
 62
     1
370
    15
100
AcDbSpline
210
0.0
220
0.0
230
1.0
 70
     8
 71
     3
 72
    11
 73
     7
 74
     0
 42
0.000000001
 43
0.00000001
 40
0.0
 40
0.0
 40
0.0
 40
0.0
 40
0.2478488459651506
 40
0.5001131795531507
 40
0.7523235353585637
 40
1.0
 40
1.0
 40
1.0
 40
1.0
 10
41.28049605288449
 20
-9.365292012458255
 30
0.0
 10
41.30041722133451
 20
-9.354079948723541
 30
0.0
 10
41.3406144587078
 20
-9.331456075604894
 30
0.0
 10
41.4127032499174
 20
-9.321118438007426
 30
0.0
 10
41.48468843246389
 20
-9.330643909336674
 30
0.0
 10
41.52467399550667
 20
-9.352620582985654
 30
0.0
 10
41.54448544579113
 20
-9.363509257404182
 30
0.0
  0
LINE
  5
D8
330
1F
100
AcDbEntity
  8
외형선
  6
Continuous
 62
     1
370
    15
100
AcDbLine
 10
47.2373153285078
 20
9.325000000000015
 30
0.0
 11
47.04190475243147
 21
9.520410576076335
 31
0.0
  0
SPLINE
  5
D9
330
1F
100
AcDbEntity
  8
외형선
  6
Continuous
 62
     1
370
    15
100
AcDbSpline
210
0.0
220
0.0
230
1.0
 70
     8
 71
     3
 72
    11
 73
     7
 74
     0
 42
0.000000001
 43
0.00000001
 40
0.0
 40
0.0
 40
0.0
 40
0.0
 40
0.2477038138905318
 40
0.5001523739508847
 40
0.7525262817580499
 40
1.0
 40
1.0
 40
1.0
 40
1.0
 10
14.91822761139209
 20
-9.366844838444528
 30
0.0
 10
14.93810043870713
 20
-9.355312221895757
 30
0.0
 10
14.97822675570896
 20
-9.33202608247732
 30
0.0
 10
15.0503392962976
 20
-9.320719479786412
 30
0.0
 10
15.12256025998602
 20
-9.329274707048857
 30
0.0
 10
15.16295770495174
 20
-9.350776746080898
 30
0.0
 10
15.18295841195152
 20
-9.361422369410356
 30
0.0
  0
SPLINE
  5
DA
330
1F
100
AcDbEntity
  8
외형선
  6
Continuous
 62
     1
370
    15
100
AcDbSpline
210
0.0
220
0.0
230
1.0
 70
     8
 71
     3
 72
    11
 73
     7
 74
     0
 42
0.000000001
 43
0.00000001
 40
0.0
 40
0.0
 40
0.0
 40
0.0
 40
0.2474928970758515
 40
0.4998719033083809
 40
0.7523138130857191
 40
0.9999999999999999
 40
0.9999999999999999
 40
0.9999999999999999
 40
0.9999999999999999
 10
46.44479371761938
 20
9.365403314288464
 30
0.0
 10
46.42479793235049
 20
9.354064554858162
 30
0.0
 10
46.38441159658648
 20
9.331163181426641
 30
0.0
 10
46.31220259340726
 20
9.320578306682817
 30
0.0
 10
46.24010157244589
 20
9.329854091861453
 30
0.0
 10
46.19998094875709
 20
9.351738020299504
 30
0.0
 10
46.1801113906102
 20
9.362575937275935
 30
0.0
  0
LINE
  5
DB
330
1F
100
AcDbEntity
  8
외형선
  6
Continuous
 62
     1
370
    15
100
AcDbLine
 10
41.98860006710486
 20
-9.52487827069243
 30
0.0
 11
41.99509604018877
 21
-9.523598197074111
 31
0.0
  0
SPLINE
  5
DC
330
1F
100
AcDbEntity
  8
외형선
  6
Continuous
 62
     1
370
    15
100
AcDbSpline
210
0.0
220
0.0
230
1.0
 70
     8
 71
     3
 72
    14
 73
    10
 74
     0
 42
0.000000001
 43
0.00000001
 40
0.0
 40
0.0
 40
0.0
 40
0.0
 40
0.25
 40
0.25
 40
0.5
 40
0.5
 40
0.75
 40
0.75
 40
1.0
 40
1.0
 40
1.0
 40
1.0
 10
45.61425211893401
 20
-4.644167127949423
 30
0.0
 10
45.696748248271
 20
-4.7218182291174
 30
0.0
 10
45.78241687622125
 20
-4.795621454487438
 30
0.0
 10
45.96020739757908
 20
-4.935430582320448
 30
0.0
 10
46.05201462647373
 20
-5.000987889309679
 30
0.0
 10
46.23509677799901
 20
-5.1173772220042
 30
0.0
 10
46.3244015458113
 20
-5.167124646844645
 30
0.0
 10
46.49919025319828
 20
-5.249353793069255
 30
0.0
 10
46.58535748431382
 20
-5.281898985726818
 30
0.0
 10
46.66556263029709
 20
-5.302954832806865
 30
0.0
  0
SPLINE
  5
DD
330
1F
100
AcDbEntity
  8
외형선
  6
Continuous
 62
     1
370
    15
100
AcDbSpline
210
0.0
220
0.0
230
1.0
 70
     8
 71
     3
 72
    14
 73
    10
 74
     0
 42
0.000000001
 43
0.00000001
 40
0.0
 40
0.0
 40
0.0
 40
0.0
 40
0.2499999999999999
 40
0.2499999999999999
 40
0.4999999999999999
 40
0.4999999999999999
 40
0.7499999999999998
 40
0.7499999999999998
 40
1.0
 40
1.0
 40
1.0
 40
1.0
 10
46.962070079814
 20
1.357319564666911
 30
0.0
 10
46.87959943305214
 20
1.422921587529178
 30
0.0
 10
46.79395663747613
 20
1.490874911380654
 30
0.0
 10
46.61620663027063
 20
1.629233210314911
 30
0.0
 10
46.52440568588617
 20
1.69937097801228
 30
0.0
 10
46.34129220505503
 20
1.834730134860233
 30
0.0
 10
46.2519547308932
 20
1.898535835476265
 30
0.0
 10
46.07707375551504
 20
2.017772325021621
 30
0.0
 10
45.99084477817015
 20
2.07356977771825
 30
0.0
 10
45.9105770168262
 20
2.122050759731415
 30
0.0
  0
SPLINE
  5
DE
330
1F
100
AcDbEntity
  8
외형선
  6
Continuous
 62
     1
370
    15
100
AcDbSpline
210
0.0
220
0.0
230
1.0
 70
     8
 71
     3
 72
    14
 73
    10
 74
     0
 42
0.000000001
 43
0.00000001
 40
0.0
 40
0.0
 40
0.0
 40
0.0
 40
0.25
 40
0.25
 40
0.5
 40
0.5
 40
0.75
 40
0.75
 40
1.0
 40
1.0
 40
1.0
 40
1.0
 10
19.49279189360138
 20
2.082561972418689
 30
0.0
 10
19.41036130586542
 20
2.151474808482706
 30
0.0
 10
19.32475500669315
 20
2.221433595614323
 30
0.0
 10
19.14707408132117
 20
2.36162964150952
 30
0.0
 10
19.05531182027502
 20
2.431554130944021
 30
0.0
 10
18.8722880292779
 20
2.564316789189701
 30
0.0
 10
18.78300266605916
 20
2.625792874544453
 30
0.0
 10
18.60823766136093
 20
2.738357728607569
 30
0.0
 10
18.52207091730765
 20
2.789753293392645
 30
0.0
 10
18.44186542437083
 20
2.832851422608647
 30
0.0
  0
SPLINE
  5
DF
330
1F
100
AcDbEntity
  8
외형선
  6
Continuous
 62
     1
370
    15
100
AcDbSpline
210
0.0
220
0.0
230
1.0
 70
     8
 71
     3
 72
    14
 73
    10
 74
     0
 42
0.000000001
 43
0.00000001
 40
0.0
 40
0.0
 40
0.0
 40
0.0
 40
0.25
 40
0.25
 40
0.5
 40
0.5
 40
0.75
 40
0.75
 40
1.0
 40
1.0
 40
1.0
 40
1.0
 10
18.14476064527449
 20
-3.989601635951642
 30
0.0
 10
18.22727224831331
 20
-4.0655837750514
 30
0.0
 10
18.31296226718369
 20
-4.139007146882483
 30
0.0
 10
18.49080652421109
 20
-4.280171484484866
 30
0.0
 10
18.58264458141898
 20
-4.347494930958392
 30
0.0
 10
18.76579273713959
 20
-4.4693554568753
 30
0.0
 10
18.85513867014831
 20
-4.522730093924044
 30
0.0
 10
19.03002258326928
 20
-4.613931864087844
 30
0.0
 10
19.11624157031249
 20
-4.651886966912251
 30
0.0
 10
19.19650039767015
 20
-4.679117109502612
 30
0.0
  0
SPLINE
  5
E0
330
1F
100
AcDbEntity
  8
외형선
  6
Continuous
 62
     1
370
    15
100
AcDbSpline
210
0.0
220
0.0
230
1.0
 70
     8
 71
     3
 72
    14
 73
    10
 74
     0
 42
0.000000001
 43
0.00000001
 40
0.0
 40
0.0
 40
0.0
 40
0.0
 40
0.25
 40
0.25
 40
0.5
 40
0.5
 40
0.75
 40
0.75
 40
1.0
 40
1.0
 40
1.0
 40
1.0
 10
21.91793390879221
 20
0.3032200767381212
 30
0.0
 10
21.83547098847341
 20
0.3631667819637224
 30
0.0
 10
21.7498275842951
 20
0.4273354109374951
 30
0.0
 10
21.5720672521306
 20
0.5612630257751869
 30
0.0
 10
21.48026598223445
 20
0.630809784378828
 30
0.0
 10
21.29717946613227
 20
0.7681733762729434
 30
0.0
 10
21.20786141377722
 20
0.8345188899508268
 30
0.0
 10
21.03302579652824
 20
0.961854461546317
 30
0.0
 10
20.9468262089059
 20
1.023293123431422
 30
0.0
 10
20.86657847518739
 20
1.078935690207073
 30
0.0
  0
SPLINE
  5
E1
330
1F
100
AcDbEntity
  8
외형선
  6
Continuous
 62
     1
370
    15
100
AcDbSpline
210
0.0
220
0.0
230
1.0
 70
     8
 71
     3
 72
    14
 73
    10
 74
     0
 42
0.000000001
 43
0.00000001
 40
0.0
 40
0.0
 40
0.0
 40
0.0
 40
0.25
 40
0.25
 40
0.5
 40
0.5
 40
0.75
 40
0.75
 40
1.0
 40
1.0
 40
1.0
 40
1.0
 10
20.56972226526229
 20
-5.532014767215832
 30
0.0
 10
20.65213927667444
 20
-5.611262646743215
 30
0.0
 10
20.7377337467458
 20
-5.68484695410829
 30
0.0
 10
20.91539073012403
 20
-5.821244050570351
 30
0.0
 10
21.00713636682032
 20
-5.883564385824767
 30
0.0
 10
21.19011244051585
 20
-5.990830659641873
 30
0.0
 10
21.27936753910327
 20
-6.03482045928684
 30
0.0
 10
21.45406197668262
 20
-6.103236829459792
 30
0.0
 10
21.54018850409694
 20
-6.127631870898993
 30
0.0
 10
21.62035412637108
 20
-6.13955662842156
 30
0.0
  0
SPLINE
  5
E2
330
1F
100
AcDbEntity
  8
외형선
  6
Continuous
 62
     1
370
    15
100
AcDbSpline
210
0.0
220
0.0
230
1.0
 70
     8
 71
     3
 72
     8
 73
     4
 74
     0
 42
0.000000001
 43
0.00000001
 40
0.0
 40
0.0
 40
0.0
 40
0.0
 40
1.0
 40
1.0
 40
1.0
 40
1.0
 10
44.92748437099268
 20
-4.261017931149348
 30
0.0
 10
45.07400996594703
 20
-4.352352775048133
 30
0.0
 10
45.21725653715956
 20
-4.425212040036302
 30
0.0
 10
45.34584538440242
 20
-4.471190187863827
 30
0.0
  0
SPLINE
  5
E3
330
1F
100
AcDbEntity
  8
외형선
  6
Continuous
 62
     1
370
    15
100
AcDbSpline
210
0.0
220
0.0
230
1.0
 70
     8
 71
     3
 72
    16
 73
    12
 74
     0
 42
0.000000001
 43
0.00000001
 40
0.0
 40
0.0
 40
0.0
 40
0.0
 40
0.1249999999999999
 40
0.1249999999999999
 40
0.2499999999999998
 40
0.2499999999999998
 40
0.4999999999999999
 40
0.4999999999999999
 40
0.7499999999999999
 40
0.7499999999999999
 40
1.0
 40
1.0
 40
1.0
 40
1.0
 10
45.22375777623724
 20
2.651379085834478
 30
0.0
 10
45.21134916883354
 20
2.36655254824479
 30
0.0
 10
45.19909155789615
 20
2.079017841885329
 30
0.0
 10
45.17502726528902
 20
1.502401109536584
 30
0.0
 10
45.16336813968898
 20
1.21452405468182
 30
0.0
 10
45.12737349083382
 20
0.3388520155080395
 30
0.0
 10
45.10244740384005
 20
-0.2576949926652002
 30
0.0
 10
45.0519736479948
 20
-1.445733155185002
 30
0.0
 10
45.0264335056463
 20
-2.037041801571223
 30
0.0
 10
44.97608835201577
 20
-3.183225026129262
 30
0.0
 10
44.95129073288606
 20
-3.737937778655697
 30
0.0
 10
44.92747624980343
 20
-4.261197415265036
 30
0.0
  0
SPLINE
  5
E4
330
1F
100
AcDbEntity
  8
외형선
  6
Continuous
 62
     1
370
    15
100
AcDbSpline
210
0.0
220
0.0
230
1.0
 70
     8
 71
     3
 72
     8
 73
     4
 74
     0
 42
0.000000001
 43
0.00000001
 40
0.0
 40
0.0
 40
0.0
 40
0.0
 40
1.0
 40
1.0
 40
1.0
 40
1.0
 10
45.64232620987553
 20
2.315149578574853
 30
0.0
 10
45.51194680770286
 20
2.426018080537866
 30
0.0
 10
45.36895885157215
 20
2.542326939708882
 30
0.0
 10
45.2237803146913
 20
2.651896425576509
 30
0.0
  0
SPLINE
  5
E5
330
1F
100
AcDbEntity
  8
외형선
  6
Continuous
 62
     1
370
    15
100
AcDbSpline
210
0.0
220
0.0
230
1.0
 70
     8
 71
     3
 72
    16
 73
    12
 74
     0
 42
0.000000001
 43
0.00000001
 40
0.0
 40
0.0
 40
0.0
 40
0.0
 40
0.125
 40
0.125
 40
0.2500000000000001
 40
0.2500000000000001
 40
0.5
 40
0.5
 40
0.75
 40
0.75
 40
1.0
 40
1.0
 40
1.0
 40
1.0
 10
20.1792593155191
 20
1.602939260299423
 30
0.0
 10
20.16731735320118
 20
1.314126024106158
 30
0.0
 10
20.15560121835238
 20
1.024851234189592
 30
0.0
 10
20.13138944053461
 20
0.4379690558162588
 30
0.0
 10
20.11906788848815
 20
0.141751194895261
 30
0.0
 10
20.08168360079366
 20
-0.7495567791230978
 30
0.0
 10
20.05619933225785
 20
-1.347279977801768
 30
0.0
 10
20.00543966583587
 20
-2.518177893328009
 30
0.0
 10
19.98017208303007
 20
-3.091174230622563
 30
0.0
 10
19.93115616619439
 20
-4.183572698390954
 30
0.0
 10
19.90797505104902
 20
-4.699398974752911
 30
0.0
 10
19.88353940865434
 20
-5.194293304430458
 30
0.0
  0
SPLINE
  5
E6
330
1F
100
AcDbEntity
  8
외형선
  6
Continuous
 62
     1
370
    15
100
AcDbSpline
210
0.0
220
0.0
230
1.0
 70
     8
 71
     3
 72
     8
 73
     4
 74
     0
 42
0.000000001
 43
0.00000001
 40
0.0
 40
0.0
 40
0.0
 40
0.0
 40
1.0
 40
1.0
 40
1.0
 40
1.0
 10
19.46485073645917
 20
-4.850909728588429
 30
0.0
 10
19.59530866516548
 20
-4.97551593175169
 30
0.0
 10
19.73834012575429
 20
-5.093416601761164
 30
0.0
 10
19.88351885006479
 20
-5.194709667365783
 30
0.0
  0
SPLINE
  5
E7
330
1F
100
AcDbEntity
  8
외형선
  6
Continuous
 62
     1
370
    15
100
AcDbSpline
210
0.0
220
0.0
230
1.0
 70
     8
 71
     3
 72
     8
 73
     4
 74
     0
 42
0.000000001
 43
0.00000001
 40
0.0
 40
0.0
 40
0.0
 40
0.0
 40
1.0
 40
1.0
 40
1.0
 40
1.0
 10
20.17926877976088
 20
1.603168142285723
 30
0.0
 10
20.03268766749902
 20
1.709717851519595
 30
0.0
 10
19.88958313321806
 20
1.807970072969097
 30
0.0
 10
19.76106364268189
 20
1.888311073536414
 30
0.0
  0
SPLINE
  5
E8
330
1F
100
AcDbEntity
  8
외형선
  6
Continuous
 62
     1
370
    15
100
AcDbSpline
210
0.0
220
0.0
230
1.0
 70
     8
 71
     3
 72
     8
 73
     4
 74
     0
 42
0.000000001
 43
0.00000001
 40
0.0
 40
0.0
 40
0.0
 40
0.0
 40
1.0
 40
1.0
 40
1.0
 40
1.0
 10
19.8835188039612
 20
-5.194709641129413
 30
0.0
 10
20.02995751412528
 20
-5.27804372336865
 30
0.0
 10
20.17305902471604
 20
-5.339551112201033
 30
0.0
 10
20.30154463087871
 20
-5.371193214950861
 30
0.0
  0
SPLINE
  5
E9
330
1F
100
AcDbEntity
  8
외형선
  6
Continuous
 62
     1
370
    15
100
AcDbSpline
210
0.0
220
0.0
230
1.0
 70
     8
 71
     3
 72
     8
 73
     4
 74
     0
 42
0.000000001
 43
0.00000001
 40
0.0
 40
0.0
 40
0.0
 40
0.0
 40
1.0
 40
1.0
 40
1.0
 40
1.0
 10
20.59814930971642
 20
1.276170042834988
 30
0.0
 10
20.46763444488131
 20
1.37937015478798
 30
0.0
 10
20.324533297089
 20
1.492629028393924
 30
0.0
 10
20.17926877948327
 20
1.603168142488102
 30
0.0
  0
SPLINE
  5
EA
330
1F
100
AcDbEntity
  8
외형선
  6
Continuous
 62
     1
370
    15
100
AcDbSpline
210
0.0
220
0.0
230
1.0
 70
     8
 71
     3
 72
    14
 73
    10
 74
     0
 42
0.000000001
 43
0.00000001
 40
0.0
 40
0.0
 40
0.0
 40
0.0
 40
0.25
 40
0.25
 40
0.5
 40
0.5
 40
0.75
 40
0.75
 40
1.0
 40
1.0
 40
1.0
 40
1.0
 10
43.18946887147549
 20
-3.00834250571805
 30
0.0
 10
43.2719304304936
 20
-3.080976188704079
 30
0.0
 10
43.35757143273545
 20
-3.152948246175577
 30
0.0
 10
43.53531757833341
 20
-3.294344832194115
 30
0.0
 10
43.62710104505089
 20
-3.36339899020348
 30
0.0
 10
43.81012292851167
 20
-3.491665234146606
 30
0.0
 10
43.8993960160054
 20
-3.549606092443961
 30
0.0
 10
44.07412148826649
 20
-3.652601761919262
 30
0.0
 10
44.16025532803081
 20
-3.697879126985487
 30
0.0
 10
44.24043571985311
 20
-3.733672441231374
 30
0.0
  0
SPLINE
  5
EB
330
1F
100
AcDbEntity
  8
외형선
  6
Continuous
 62
     1
370
    15
100
AcDbSpline
210
0.0
220
0.0
230
1.0
 70
     8
 71
     3
 72
    14
 73
    10
 74
     0
 42
0.000000001
 43
0.00000001
 40
0.0
 40
0.0
 40
0.0
 40
0.0
 40
0.25
 40
0.25
 40
0.5
 40
0.5
 40
0.75
 40
0.75
 40
1.0
 40
1.0
 40
1.0
 40
1.0
 10
44.5377888285142
 20
3.098749209675468
 30
0.0
 10
44.45541906188738
 20
3.171810321692728
 30
0.0
 10
44.36987110252846
 20
3.244021950803116
 30
0.0
 10
44.19229682546386
 20
3.385571923505191
 30
0.0
 10
44.10058334292025
 20
3.454541185257753
 30
0.0
 10
43.91764109875893
 20
3.582329667228837
 30
0.0
 10
43.82839117619294
 20
3.639876625495081
 30
0.0
 10
43.65368804427618
 20
3.741775750418203
 30
0.0
 10
43.5675458319832
 20
3.786344162236136
 30
0.0
 10
43.4873620802741
 20
3.821277847773231
 30
0.0
  0
SPLINE
  5
ED
330
1F
100
AcDbEntity
  8
외형선
  6
Continuous
370
    15
100
AcDbSpline
210
0.0
220
0.0
230
1.0
 70
    24
 71
     3
 72
    20
 73
    16
 74
     0
 42
0.000000001
 43
0.00000001
 40
0.0
 40
0.0
 40
0.0
 40
0.0
 40
0.1250000000000002
 40
0.1250000000000002
 40
0.2500000000000004
 40
0.2500000000000004
 40
0.3750000000000003
 40
0.3750000000000003
 40
0.5000000000000003
 40
0.5000000000000003
 40
0.6250000000000003
 40
0.6250000000000003
 40
0.7500000000000002
 40
0.7500000000000002
 40
1.0
 40
1.0
 40
1.0
 40
1.0
 10
2.912087807273547
 20
6.513130886324137
 30
0.0
 10
2.912087807273547
 20
6.197671782134771
 30
0.0
 10
2.912087807273545
 20
5.86148047635519
 30
0.0
 10
2.912087807273545
 20
5.159929300280641
 30
0.0
 10
2.912087807273544
 20
4.795577817100892
 30
0.0
 10
2.912087807273544
 20
4.040395586314202
 30
0.0
 10
2.912087807273553
 20
3.649565498932709
 30
0.0
 10
2.912087807273551
 20
2.84060615602248
 30
0.0
 10
2.912087807273526
 20
2.425352924154274
 30
0.0
 10
2.912087807273528
 20
1.592159246424527
 30
0.0
 10
2.912087807273504
 20
1.17155001984635
 30
0.0
 10
2.912087807273504
 20
0.3221460225691914
 30
0.0
 10
2.912087807273544
 20
-0.1100280085732097
 30
0.0
 10
2.912087807273542
 20
-1.389011991019314
 30
0.0
 10
2.912087807273549
 20
-2.218963809101469
 30
0.0
 10
2.912087807273549
 20
-3.02562173585804
 30
0.0
  0
SPLINE
  5
EE
330
1F
100
AcDbEntity
  8
외형선
  6
Continuous
 62
     1
370
    15
100
AcDbSpline
210
0.0
220
0.0
230
1.0
 70
     8
 71
     3
 72
     8
 73
     4
 74
     0
 42
0.000000001
 43
0.00000001
 40
0.0
 40
0.0
 40
0.0
 40
0.0
 40
1.0
 40
1.0
 40
1.0
 40
1.0
 10
44.50872888927649
 20
-3.915788101081105
 30
0.0
 10
44.6392085913279
 20
-4.036554503092525
 30
0.0
 10
44.78218737113279
 20
-4.155357985571414
 30
0.0
 10
44.92748441712089
 20
-4.261017959902776
 30
0.0
  0
SPLINE
  5
EF
330
1F
100
AcDbEntity
  8
외형선
  6
Continuous
 62
     1
370
    15
100
AcDbSpline
210
0.0
220
0.0
230
1.0
 70
     8
 71
     3
 72
     8
 73
     4
 74
     0
 42
0.000000001
 43
0.00000001
 40
0.0
 40
0.0
 40
0.0
 40
0.0
 40
1.0
 40
1.0
 40
1.0
 40
1.0
 10
45.22378031492058
 20
2.651896425417574
 30
0.0
 10
45.07727758388172
 20
2.753446400628377
 30
0.0
 10
44.93421605371418
 20
2.8426602523517
 30
0.0
 10
44.80587706576616
 20
2.910516828712323
 30
0.0
  0
SPLINE
  5
F0
330
1F
100
AcDbEntity
  8
외형선
  6
Continuous
 62
     1
370
    15
100
AcDbSpline
210
0.0
220
0.0
230
1.0
 70
     8
 71
     3
 72
     8
 73
     4
 74
     0
 42
0.000000001
 43
0.00000001
 40
0.0
 40
0.0
 40
0.0
 40
0.0
 40
1.0
 40
1.0
 40
1.0
 40
1.0
 10
17.45836626604805
 20
-3.577111266144329
 30
0.0
 10
17.60478667556442
 20
-3.67340893605761
 30
0.0
 10
17.74793958866401
 20
-3.753735833630331
 30
0.0
 10
17.87644873158838
 20
-3.809395924498008
 30
0.0
  0
SPLINE
  5
F1
330
1F
100
AcDbEntity
  8
외형선
  6
Continuous
 62
     1
370
    15
100
AcDbSpline
210
0.0
220
0.0
230
1.0
 70
     8
 71
     3
 72
    16
 73
    12
 74
     0
 42
0.000000001
 43
0.00000001
 40
0.0
 40
0.0
 40
0.0
 40
0.0
 40
0.2500000000000002
 40
0.2500000000000002
 40
0.3750000000000001
 40
0.3750000000000001
 40
0.5000000000000001
 40
0.5000000000000001
 40
0.75
 40
0.75
 40
1.0
 40
1.0
 40
1.0
 40
1.0
 10
17.75532558261215
 20
3.36285176471471
 30
0.0
 10
17.7301465344733
 20
2.805734343961505
 30
0.0
 10
17.70530575296041
 20
2.231315358887033
 30
0.0
 10
17.66947009760014
 20
1.366864205161873
 30
0.0
 10
17.65780601797904
 20
1.078626318544628
 30
0.0
 10
17.63369951796294
 20
0.4936892588055875
 30
0.0
 10
17.62142708019934
 20
0.1983426498088749
 30
0.0
 10
17.58417667215756
 20
-0.6907146976128856
 30
0.0
 10
17.55876347270518
 20
-1.287427769466553
 30
0.0
 10
17.5080983615412
 20
-2.457483385627459
 30
0.0
 10
17.48285419680156
 20
-3.030648491024042
 30
0.0
 10
17.45834430587227
 20
-3.577602383330477
 30
0.0
  0
SPLINE
  5
F2
330
1F
100
AcDbEntity
  8
외형선
  6
Continuous
 62
     1
370
    15
100
AcDbSpline
210
0.0
220
0.0
230
1.0
 70
     8
 71
     3
 72
     8
 73
     4
 74
     0
 42
0.000000001
 43
0.00000001
 40
0.0
 40
0.0
 40
0.0
 40
0.0
 40
1.0
 40
1.0
 40
1.0
 40
1.0
 10
18.17373122235037
 20
3.021744355659282
 30
0.0
 10
18.04339458582341
 20
3.137248122085118
 30
0.0
 10
17.90045602764359
 20
3.254962333381944
 30
0.0
 10
17.75534193385825
 20
3.363213552695826
 30
0.0
  0
SPLINE
  5
F3
330
1F
100
AcDbEntity
  8
외형선
  6
Continuous
 62
     1
370
    15
100
AcDbSpline
210
0.0
220
0.0
230
1.0
 70
     8
 71
     3
 72
    14
 73
    10
 74
     0
 42
0.000000001
 43
0.00000001
 40
0.0
 40
0.0
 40
0.0
 40
0.0
 40
0.25
 40
0.25
 40
0.5
 40
0.5
 40
0.75
 40
0.75
 40
1.0
 40
1.0
 40
1.0
 40
1.0
 10
17.06953052129742
 20
3.784192863999284
 30
0.0
 10
16.98715840200237
 20
3.859523958487519
 30
0.0
 10
16.90160599001817
 20
3.932697648329229
 30
0.0
 10
16.72402261226007
 20
4.074014150412729
 30
0.0
 10
16.63230820670972
 20
4.141749283942789
 30
0.0
 10
16.44937798017731
 20
4.265029670683489
 30
0.0
 10
16.36013939119641
 20
4.319378229051489
 30
0.0
 10
16.18546719168776
 20
4.41305103956
 30
0.0
 10
16.09934512458842
 20
4.452526321610393
 30
0.0
 10
16.01918098352055
 20
4.481523231750049
 30
0.0
  0
SPLINE
  5
F4
330
1F
100
AcDbEntity
  8
외형선
  6
Continuous
 62
     1
370
    15
100
AcDbSpline
210
0.0
220
0.0
230
1.0
 70
     8
 71
     3
 72
    14
 73
    10
 74
     0
 42
0.000000001
 43
0.00000001
 40
0.0
 40
0.0
 40
0.0
 40
0.0
 40
0.25
 40
0.25
 40
0.5
 40
0.5
 40
0.75
 40
0.75
 40
1.0
 40
1.0
 40
1.0
 40
1.0
 10
15.72109365107519
 20
-2.301717634933892
 30
0.0
 10
15.80350931560353
 20
-2.371505111691457
 30
0.0
 10
15.88910571274452
 20
-2.441947613781381
 30
0.0
 10
16.06676950518166
 20
-2.582466645364325
 30
0.0
 10
16.15851577946161
 20
-2.652211640335763
 30
0.0
 10
16.34147921687291
 20
-2.78397194374758
 30
0.0
 10
16.43072543243474
 20
-2.844647386561291
 30
0.0
 10
16.6053996747259
 20
-2.95503408382
 30
0.0
 10
16.69151274795306
 20
-3.005032746309577
 30
0.0
 10
16.77166986306421
 20
-3.046461879807921
 30
0.0
  0
SPLINE
  5
F5
330
1F
100
AcDbEntity
  8
외형선
  6
Continuous
 62
     1
370
    15
100
AcDbSpline
210
0.0
220
0.0
230
1.0
 70
     8
 71
     3
 72
     8
 73
     4
 74
     0
 42
0.000000001
 43
0.00000001
 40
0.0
 40
0.0
 40
0.0
 40
0.0
 40
1.0
 40
1.0
 40
1.0
 40
1.0
 10
17.03983515672573
 20
-3.234056644753291
 30
0.0
 10
17.17024513119149
 20
-3.351007657570149
 30
0.0
 10
17.3132331524261
 20
-3.469195482036914
 30
0.0
 10
17.45836631215367
 20
-3.577111296467267
 30
0.0
  0
SPLINE
  5
F6
330
1F
100
AcDbEntity
  8
외형선
  6
Continuous
 62
     1
370
    15
100
AcDbSpline
210
0.0
220
0.0
230
1.0
 70
     8
 71
     3
 72
     8
 73
     4
 74
     0
 42
0.000000001
 43
0.00000001
 40
0.0
 40
0.0
 40
0.0
 40
0.0
 40
1.0
 40
1.0
 40
1.0
 40
1.0
 10
17.75534193408738
 20
3.36321355254332
 30
0.0
 10
17.60888642593934
 20
3.460706355040621
 30
0.0
 10
17.46591992206854
 20
3.543290029426888
 30
0.0
 10
17.33756998692434
 20
3.601904974978213
 30
0.0
  0
SPLINE
  5
F7
330
1F
100
AcDbEntity
  8
외형선
  6
Continuous
 62
     1
370
    15
100
AcDbSpline
210
0.0
220
0.0
230
1.0
 70
     8
 71
     3
 72
     8
 73
     4
 74
     0
 42
0.000000001
 43
0.00000001
 40
0.0
 40
0.0
 40
0.0
 40
0.0
 40
1.0
 40
1.0
 40
1.0
 40
1.0
 10
42.50349116595446
 20
-2.559332096160365
 30
0.0
 10
42.6498579659252
 20
-2.661410883688967
 30
0.0
 10
42.79293131925706
 20
-2.751333698497883
 30
0.0
 10
42.92133566209533
 20
-2.820078403476762
 30
0.0
  0
SPLINE
  5
F8
330
1F
100
AcDbEntity
  8
외형선
  6
Continuous
 62
     1
370
    15
100
AcDbSpline
210
0.0
220
0.0
230
1.0
 70
     8
 71
     3
 72
    16
 73
    12
 74
     0
 42
0.000000001
 43
0.00000001
 40
0.0
 40
0.0
 40
0.0
 40
0.0
 40
0.2500000000000001
 40
0.2500000000000001
 40
0.3749999999999999
 40
0.3749999999999999
 40
0.4999999999999999
 40
0.4999999999999999
 40
0.7499999999999999
 40
0.7499999999999999
 40
1.0
 40
1.0
 40
1.0
 40
1.0
 10
42.80097765326991
 20
4.346217832153267
 30
0.0
 10
42.77566282426824
 20
3.815692996874464
 30
0.0
 10
42.7502793729935
 20
3.258973362393664
 30
0.0
 10
42.71308808503783
 20
2.406998429962629
 30
0.0
 10
42.7008377402092
 20
2.120219576944715
 30
0.0
 10
42.67677932644332
 20
1.544935838663991
 30
0.0
 10
42.66513451332735
 20
1.257760338807482
 30
0.0
 10
42.62928314503793
 20
0.3848372051123257
 30
0.0
 10
42.60444227436255
 20
-0.2101874957639231
 30
0.0
 10
42.55410519859862
 20
-1.396070504015939
 30
0.0
 10
42.52861640897718
 20
-1.986748499564753
 30
0.0
 10
42.50347423359452
 20
-2.559719055068408
 30
0.0
  0
SPLINE
  5
F9
330
1F
100
AcDbEntity
  8
외형선
  6
Continuous
 62
     1
370
    15
100
AcDbSpline
210
0.0
220
0.0
230
1.0
 70
     8
 71
     3
 72
     8
 73
     4
 74
     0
 42
0.000000001
 43
0.00000001
 40
0.0
 40
0.0
 40
0.0
 40
0.0
 40
1.0
 40
1.0
 40
1.0
 40
1.0
 10
43.21929902214851
 20
4.002012217361258
 30
0.0
 10
43.08900367332333
 20
4.122810821984089
 30
0.0
 10
42.94608752507973
 20
4.241127006875517
 30
0.0
 10
42.80097378695915
 20
4.34613680538803
 30
0.0
  0
SPLINE
  5
FA
330
1F
100
AcDbEntity
  8
외형선
  6
Continuous
 62
     1
370
    15
100
AcDbSpline
210
0.0
220
0.0
230
1.0
 70
     8
 71
     3
 72
    14
 73
    10
 74
     0
 42
0.000000001
 43
0.00000001
 40
0.0
 40
0.0
 40
0.0
 40
0.0
 40
0.25
 40
0.25
 40
0.5
 40
0.5
 40
0.75
 40
0.75
 40
1.0
 40
1.0
 40
1.0
 40
1.0
 10
40.76676011721295
 20
-1.263660513221737
 30
0.0
 10
40.84917687188332
 20
-1.328597647231372
 30
0.0
 10
40.93477193361573
 20
-1.396081727826777
 30
0.0
 10
41.11242489415697
 20
-1.533845401019081
 30
0.0
 10
41.20415955435519
 20
-1.603851015097917
 30
0.0
 10
41.38708563206956
 20
-1.739271869976395
 30
0.0
 10
41.47630646974562
 20
-1.803268310221601
 30
0.0
 10
41.65091895965144
 20
-1.923206492523498
 30
0.0
 10
41.73699543310074
 20
-1.979524209834499
 30
0.0
 10
41.81711379304499
 20
-2.028690092228785
 30
0.0
  0
SPLINE
  5
FB
330
1F
100
AcDbEntity
  8
외형선
  6
Continuous
 62
     1
370
    15
100
AcDbSpline
210
0.0
220
0.0
230
1.0
 70
     8
 71
     3
 72
    14
 73
    10
 74
     0
 42
0.000000001
 43
0.00000001
 40
0.0
 40
0.0
 40
0.0
 40
0.0
 40
0.25
 40
0.25
 40
0.5
 40
0.5
 40
0.75
 40
0.75
 40
1.0
 40
1.0
 40
1.0
 40
1.0
 10
42.1151784344854
 20
4.725465255644542
 30
0.0
 10
42.03280553264439
 20
4.803383271848386
 30
0.0
 10
41.94725250680087
 20
4.877278616484225
 30
0.0
 10
41.7696641847613
 20
5.016969198148274
 30
0.0
 10
41.67794224028113
 20
5.082311778178774
 30
0.0
 10
41.49498338443928
 20
5.197985608654621
 30
0.0
 10
41.40572219271739
 20
5.247239442084468
 30
0.0
 10
41.23099035933805
 20
5.328222895924831
 30
0.0
 10
41.1448324511102
 20
5.360007648613354
 30
0.0
 10
41.06462840643333
 20
5.380192541596988
 30
0.0
  0
SPLINE
  5
FC
330
1F
100
AcDbEntity
  8
외형선
  6
Continuous
 62
     1
370
    15
100
AcDbSpline
210
0.0
220
0.0
230
1.0
 70
     8
 71
     3
 72
     8
 73
     4
 74
     0
 42
0.000000001
 43
0.00000001
 40
0.0
 40
0.0
 40
0.0
 40
0.0
 40
1.0
 40
1.0
 40
1.0
 40
1.0
 10
42.08516572919556
 20
-2.222582043826409
 30
0.0
 10
42.21548337311723
 20
-2.333048854028613
 30
0.0
 10
42.35831165409548
 20
-2.449493674382594
 30
0.0
 10
42.50349121203015
 20
-2.559332128294447
 30
0.0
  0
SPLINE
  5
FD
330
1F
100
AcDbEntity
  8
외형선
  6
Continuous
 62
     1
370
    15
100
AcDbSpline
210
0.0
220
0.0
230
1.0
 70
     8
 71
     3
 72
     8
 73
     4
 74
     0
 42
0.000000001
 43
0.00000001
 40
0.0
 40
0.0
 40
0.0
 40
0.0
 40
1.0
 40
1.0
 40
1.0
 40
1.0
 10
42.80097378718946
 20
4.34613680524579
 30
0.0
 10
42.65452002154741
 20
4.436556947226489
 30
0.0
 10
42.51150713304389
 20
4.508325441480446
 30
0.0
 10
42.38321525761998
 20
4.55311847824782
 30
0.0
  0
SPLINE
  5
FE
330
1F
100
AcDbEntity
  8
외형선
  6
Continuous
 62
     1
370
    15
100
AcDbSpline
210
0.0
220
0.0
230
1.0
 70
     8
 71
     3
 72
     8
 73
     4
 74
     0
 42
0.000000001
 43
0.00000001
 40
0.0
 40
0.0
 40
0.0
 40
0.0
 40
1.0
 40
1.0
 40
1.0
 40
1.0
 10
20.30154463087871
 20
-5.371193214950864
 30
0.0
 10
20.38275973834942
 20
-5.391194029455905
 30
0.0
 10
20.48581423969284
 20
-5.451333206603844
 30
0.0
 10
20.56972226526229
 20
-5.532014767215832
 30
0.0
  0
SPLINE
  5
FF
330
1F
100
AcDbEntity
  8
외형선
  6
Continuous
 62
     1
370
    15
100
AcDbSpline
210
0.0
220
0.0
230
1.0
 70
     8
 71
     3
 72
     8
 73
     4
 74
     0
 42
0.000000001
 43
0.00000001
 40
0.0
 40
0.0
 40
0.0
 40
0.0
 40
1.0
 40
1.0
 40
1.0
 40
1.0
 10
20.86657847518739
 20
1.078935690207059
 30
0.0
 10
20.78484758217335
 20
1.13560665724171
 30
0.0
 10
20.6816792643238
 20
1.210121622390295
 30
0.0
 10
20.59814930971642
 20
1.276170042834982
 30
0.0
  0
SPLINE
  5
100
330
1F
100
AcDbEntity
  8
외형선
  6
Continuous
 62
     1
370
    15
100
AcDbSpline
210
0.0
220
0.0
230
1.0
 70
     8
 71
     3
 72
     8
 73
     4
 74
     0
 42
0.000000001
 43
0.00000001
 40
0.0
 40
0.0
 40
0.0
 40
0.0
 40
1.0
 40
1.0
 40
1.0
 40
1.0
 10
45.34584538440241
 20
-4.471190187863827
 30
0.0
 10
45.42714283811014
 20
-4.500258854585098
 30
0.0
 10
45.53027318518863
 20
-4.565120308024057
 30
0.0
 10
45.61425211893401
 20
-4.644167127949428
 30
0.0
  0
SPLINE
  5
101
330
1F
100
AcDbEntity
  8
외형선
  6
Continuous
 62
     1
370
    15
100
AcDbSpline
210
0.0
220
0.0
230
1.0
 70
     8
 71
     3
 72
     8
 73
     4
 74
     0
 42
0.000000001
 43
0.00000001
 40
0.0
 40
0.0
 40
0.0
 40
0.0
 40
1.0
 40
1.0
 40
1.0
 40
1.0
 10
45.91057701682561
 20
2.122050759731776
 30
0.0
 10
45.82891153183859
 20
2.171375953837867
 30
0.0
 10
45.72579360780722
 20
2.244172835184565
 30
0.0
 10
45.64232620987538
 20
2.315149578575354
 30
0.0
  0
SPLINE
  5
102
330
1F
100
AcDbEntity
  8
외형선
  6
Continuous
 62
     1
370
    15
100
AcDbSpline
210
0.0
220
0.0
230
1.0
 70
     8
 71
     3
 72
     8
 73
     4
 74
     0
 42
0.000000001
 43
0.00000001
 40
0.0
 40
0.0
 40
0.0
 40
0.0
 40
1.0
 40
1.0
 40
1.0
 40
1.0
 10
19.1965003976701
 20
-4.679117109502585
 30
0.0
 10
19.2782128273512
 20
-4.706840428978778
 30
0.0
 10
19.38135221987233
 20
-4.771156560461166
 30
0.0
 10
19.46485073645916
 20
-4.850909728588429
 30
0.0
  0
SPLINE
  5
103
330
1F
100
AcDbEntity
  8
외형선
  6
Continuous
 62
     1
370
    15
100
AcDbSpline
210
0.0
220
0.0
230
1.0
 70
     8
 71
     3
 72
     8
 73
     4
 74
     0
 42
0.000000001
 43
0.00000001
 40
0.0
 40
0.0
 40
0.0
 40
0.0
 40
1.0
 40
1.0
 40
1.0
 40
1.0
 10
19.76106364268189
 20
1.8883110735364
 30
0.0
 10
19.67981570914978
 20
1.939101348589348
 30
0.0
 10
19.5767404979328
 20
2.012380058556486
 30
0.0
 10
19.49279189360138
 20
2.082561972418677
 30
0.0
  0
SPLINE
  5
104
330
1F
100
AcDbEntity
  8
외형선
  6
Continuous
 62
     1
370
    15
100
AcDbSpline
210
0.0
220
0.0
230
1.0
 70
     8
 71
     3
 72
     8
 73
     4
 74
     0
 42
0.000000001
 43
0.00000001
 40
0.0
 40
0.0
 40
0.0
 40
0.0
 40
1.0
 40
1.0
 40
1.0
 40
1.0
 10
47.20869495779045
 20
1.175034401327545
 30
0.0
 10
47.20466706827206
 20
0.8930376665146638
 30
0.0
 10
47.20025145813856
 20
0.6093206578740363
 30
0.0
 10
47.19546885826374
 20
0.324837586878634
 30
0.0
  0
SPLINE
  5
105
330
1F
100
AcDbEntity
  8
외형선
  6
Continuous
 62
     1
370
    15
100
AcDbSpline
210
0.0
220
0.0
230
1.0
 70
     8
 71
     3
 72
     8
 73
     4
 74
     0
 42
0.000000001
 43
0.00000001
 40
0.0
 40
0.0
 40
0.0
 40
0.0
 40
1.0
 40
1.0
 40
1.0
 40
1.0
 10
46.94437092226185
 20
-5.261100911045463
 30
0.0
 10
46.89013518411662
 20
-5.27523367786959
 30
0.0
 10
46.82789650415247
 20
-5.304767311216028
 30
0.0
 10
46.76634819644255
 20
-5.344182756532331
 30
0.0
  0
SPLINE
  5
106
330
1F
100
AcDbEntity
  8
외형선
  6
Continuous
 62
     1
370
    15
100
AcDbSpline
210
0.0
220
0.0
230
1.0
 70
     8
 71
     3
 72
     8
 73
     4
 74
     0
 42
0.000000001
 43
0.00000001
 40
0.0
 40
0.0
 40
0.0
 40
0.0
 40
1.0
 40
1.0
 40
1.0
 40
1.0
 10
46.66556263029709
 20
-5.30295483280686
 30
0.0
 10
46.69691486298746
 20
-5.311185574226917
 30
0.0
 10
46.73071778942789
 20
-5.325180855197766
 30
0.0
 10
46.76634819644257
 20
-5.344182756532336
 30
0.0
  0
SPLINE
  5
107
330
1F
100
AcDbEntity
  8
외형선
  6
Continuous
 62
     1
370
    15
100
AcDbSpline
210
0.0
220
0.0
230
1.0
 70
     8
 71
     3
 72
     8
 73
     4
 74
     0
 42
0.000000001
 43
0.00000001
 40
0.0
 40
0.0
 40
0.0
 40
0.0
 40
1.0
 40
1.0
 40
1.0
 40
1.0
 10
47.20869495779047
 20
1.175034401327542
 30
0.0
 10
47.1319110199263
 20
1.228625221730125
 30
0.0
 10
47.0387044502292
 20
1.296360060681497
 30
0.0
 10
46.96207007981496
 20
1.357319564666825
 30
0.0
  0
SPLINE
  5
108
330
1F
100
AcDbEntity
  8
외형선
  6
Continuous
 62
     1
370
    15
100
AcDbSpline
210
0.0
220
0.0
230
1.0
 70
     8
 71
     3
 72
     8
 73
     4
 74
     0
 42
0.000000001
 43
0.00000001
 40
0.0
 40
0.0
 40
0.0
 40
0.0
 40
1.0
 40
1.0
 40
1.0
 40
1.0
 10
15.03527775875587
 20
-1.829786430087548
 30
0.0
 10
15.18160002975872
 20
-1.935362925399652
 30
0.0
 10
15.32464632068583
 20
-2.031505760575876
 30
0.0
 10
15.45303209010723
 20
-2.10901225181187
 30
0.0
  0
SPLINE
  5
109
330
1F
100
AcDbEntity
  8
외형선
  6
Continuous
 62
     1
370
    15
100
AcDbSpline
210
0.0
220
0.0
230
1.0
 70
     8
 71
     3
 72
    16
 73
    12
 74
     0
 42
0.000000001
 43
0.00000001
 40
0.0
 40
0.0
 40
0.0
 40
0.0
 40
0.25
 40
0.25
 40
0.5
 40
0.5
 40
0.625
 40
0.625
 40
0.75
 40
0.75
 40
1.0
 40
1.0
 40
1.0
 40
1.0
 10
15.33276607483124
 20
4.999468916592545
 30
0.0
 10
15.3076291756541
 20
4.493187927894042
 30
0.0
 10
15.28214127914298
 20
3.955078191628071
 30
0.0
 10
15.23179708194911
 20
2.843288781618755
 30
0.0
 10
15.20694820453538
 20
2.269787013550776
 30
0.0
 10
15.17107916375066
 20
1.406196983124764
 30
0.0
 10
15.15943787268821
 20
1.118461940235073
 30
0.0
 10
15.13539193595402
 20
0.5345470344810407
 30
0.0
 10
15.12314689821815
 20
0.2396334115484795
 30
0.0
 10
15.08596840620616
 20
-0.6483907956166225
 30
0.0
 10
15.06058926898077
 20
-1.244773807242893
 30
0.0
 10
15.03527417623545
 20
-1.829870329324954
 30
0.0
  0
SPLINE
  5
10A
330
1F
100
AcDbEntity
  8
외형선
  6
Continuous
 62
     1
370
    15
100
AcDbSpline
210
0.0
220
0.0
230
1.0
 70
     8
 71
     3
 72
     8
 73
     4
 74
     0
 42
0.000000001
 43
0.00000001
 40
0.0
 40
0.0
 40
0.0
 40
0.0
 40
1.0
 40
1.0
 40
1.0
 40
1.0
 10
15.75110932615823
 20
4.65534272855666
 30
0.0
 10
15.62078996435553
 20
4.779035224930103
 30
0.0
 10
15.47785956432564
 20
4.897008999236446
 30
0.0
 10
15.33274894338453
 20
4.999123869207989
 30
0.0
  0
SPLINE
  5
10B
330
1F
100
AcDbEntity
  8
외형선
  6
Continuous
 62
     1
370
    15
100
AcDbSpline
210
0.0
220
0.0
230
1.0
 70
     8
 71
     3
 72
    14
 73
    10
 74
     0
 42
0.000000001
 43
0.00000001
 40
0.0
 40
0.0
 40
0.0
 40
0.0
 40
0.25
 40
0.25
 40
0.5
 40
0.5
 40
0.75
 40
0.75
 40
1.0
 40
1.0
 40
1.0
 40
1.0
 10
14.6468119603305
 20
5.346828465218761
 30
0.0
 10
14.56439393831705
 20
5.425892154675086
 30
0.0
 10
14.47879518712915
 20
5.49966634766426
 30
0.0
 10
14.3011190336946
 20
5.637049056883515
 30
0.0
 10
14.20935630010197
 20
5.700174615754896
 30
0.0
 10
14.02633137170066
 20
5.80957816664113
 30
0.0
 10
13.93704063114886
 20
5.854872988142459
 30
0.0
 10
13.76225467766987
 20
5.926354528286276
 30
0.0
 10
13.67607476894509
 20
5.952529216754747
 30
0.0
 10
13.59584763009379
 20
5.96642581106528
 30
0.0
  0
SPLINE
  5
10C
330
1F
100
AcDbEntity
  8
외형선
  6
Continuous
 62
     1
370
    15
100
AcDbSpline
210
0.0
220
0.0
230
1.0
 70
     8
 71
     3
 72
    14
 73
    10
 74
     0
 42
0.000000001
 43
0.00000001
 40
0.0
 40
0.0
 40
0.0
 40
0.0
 40
0.25
 40
0.25
 40
0.5
 40
0.5
 40
0.75
 40
0.75
 40
1.0
 40
1.0
 40
1.0
 40
1.0
 10
13.29848625617178
 20
-0.5302402272052754
 30
0.0
 10
13.38089988527519
 20
-0.5913464765259276
 30
0.0
 10
13.46649161731229
 20
-0.6562877545764805
 30
0.0
 10
13.64414095620104
 20
-0.7911223610405859
 30
0.0
 10
13.73587828898311
 20
-0.8607868775376073
 30
0.0
 10
13.91882397767812
 20
-0.9977291002390715
 30
0.0
 10
14.00805880614226
 20
-1.063542128081319
 30
0.0
 10
14.18270507291414
 20
-1.189180435601602
 30
0.0
 10
14.26880289523682
 20
-1.249440720912501
 30
0.0
 10
14.34894067404151
 20
-1.3035823360366
 30
0.0
  0
SPLINE
  5
10D
330
1F
100
AcDbEntity
  8
외형선
  6
Continuous
 62
     1
370
    15
100
AcDbSpline
210
0.0
220
0.0
230
1.0
 70
     8
 71
     3
 72
     8
 73
     4
 74
     0
 42
0.000000001
 43
0.00000001
 40
0.0
 40
0.0
 40
0.0
 40
0.0
 40
1.0
 40
1.0
 40
1.0
 40
1.0
 10
14.61699003627693
 20
-1.500136345309633
 30
0.0
 10
14.747319393128
 20
-1.605123640324022
 30
0.0
 10
14.89018426048453
 20
-1.719288641296404
 30
0.0
 10
15.03527780482278
 20
-1.82978646332684
 30
0.0
  0
SPLINE
  5
10E
330
1F
100
AcDbEntity
  8
외형선
  6
Continuous
 62
     1
370
    15
100
AcDbSpline
210
0.0
220
0.0
230
1.0
 70
     8
 71
     3
 72
     8
 73
     4
 74
     0
 42
0.000000001
 43
0.00000001
 40
0.0
 40
0.0
 40
0.0
 40
0.0
 40
1.0
 40
1.0
 40
1.0
 40
1.0
 10
15.33274894361368
 20
4.999123869075035
 30
0.0
 10
15.18627032627862
 20
5.084107760350591
 30
0.0
 10
15.04326975882621
 20
5.148096159842194
 30
0.0
 10
14.91492378734067
 20
5.182969970699005
 30
0.0
  0
SPLINE
  5
10F
330
1F
100
AcDbEntity
  8
외형선
  6
Continuous
 62
     1
370
    15
100
AcDbSpline
210
0.0
220
0.0
230
1.0
 70
     8
 71
     3
 72
     8
 73
     4
 74
     0
 42
0.000000001
 43
0.00000001
 40
0.0
 40
0.0
 40
0.0
 40
0.0
 40
1.0
 40
1.0
 40
1.0
 40
1.0
 10
17.87644873158838
 20
-3.809395924498015
 30
0.0
 10
17.95770856238167
 20
-3.844591315759077
 30
0.0
 10
18.06080582164759
 20
-3.912290483919894
 30
0.0
 10
18.14476064527451
 20
-3.989601635951623
 30
0.0
  0
SPLINE
  5
110
330
1F
100
AcDbEntity
  8
외형선
  6
Continuous
 62
     1
370
    15
100
AcDbSpline
210
0.0
220
0.0
230
1.0
 70
     8
 71
     3
 72
     8
 73
     4
 74
     0
 42
0.000000001
 43
0.00000001
 40
0.0
 40
0.0
 40
0.0
 40
0.0
 40
1.0
 40
1.0
 40
1.0
 40
1.0
 10
18.44186542437087
 20
2.832851422608639
 30
0.0
 10
18.36023676199272
 20
2.876714286735341
 30
0.0
 10
18.25715642537816
 20
2.947813299731172
 30
0.0
 10
18.17373122235045
 20
3.021744355659155
 30
0.0
  0
SPLINE
  5
111
330
1F
100
AcDbEntity
  8
외형선
  6
Continuous
 62
     1
370
    15
100
AcDbSpline
210
0.0
220
0.0
230
1.0
 70
     8
 71
     3
 72
     8
 73
     4
 74
     0
 42
0.000000001
 43
0.00000001
 40
0.0
 40
0.0
 40
0.0
 40
0.0
 40
1.0
 40
1.0
 40
1.0
 40
1.0
 10
44.24043571985311
 20
-3.733672441231375
 30
0.0
 10
44.32213315934325
 20
-3.770142980452928
 30
0.0
 10
44.42524745043062
 20
-3.838521270718646
 30
0.0
 10
44.50872888927649
 20
-3.91578810108111
 30
0.0
  0
SPLINE
  5
112
330
1F
100
AcDbEntity
  8
외형선
  6
Continuous
 62
     1
370
    15
100
AcDbSpline
210
0.0
220
0.0
230
1.0
 70
     8
 71
     3
 72
     8
 73
     4
 74
     0
 42
0.000000001
 43
0.00000001
 40
0.0
 40
0.0
 40
0.0
 40
0.0
 40
1.0
 40
1.0
 40
1.0
 40
1.0
 10
44.80587706576617
 20
2.910516828712312
 30
0.0
 10
44.72467626495449
 20
2.953450066919346
 30
0.0
 10
44.62168299709896
 20
3.024335969241159
 30
0.0
 10
44.53778882851518
 20
3.098749209675255
 30
0.0
  0
SPLINE
  5
113
330
1F
100
AcDbEntity
  8
외형선
  6
Continuous
370
    15
100
AcDbSpline
210
0.0
220
0.0
230
1.0
 70
     8
 71
     3
 72
     8
 73
     4
 74
     0
 42
0.000000001
 43
0.00000001
 40
0.0
 40
0.0
 40
0.0
 40
0.0
 40
1.0
 40
1.0
 40
1.0
 40
1.0
 10
5.833990398392381
 20
9.144198164191353
 30
0.0
 10
5.721967051944067
 20
9.171940757626325
 30
0.0
 10
5.610019769251713
 20
9.198648672652967
 30
0.0
 10
5.498148309946457
 20
9.22431552994887
 30
0.0
  0
SPLINE
  5
114
330
1F
100
AcDbEntity
  8
외형선
  6
Continuous
370
    15
100
AcDbSpline
210
0.0
220
0.0
230
1.0
 70
     8
 71
     3
 72
     8
 73
     4
 74
     0
 42
0.000000001
 43
0.00000001
 40
0.0
 40
0.0
 40
0.0
 40
0.0
 40
1.0
 40
1.0
 40
1.0
 40
1.0
 10
5.498148309946449
 20
9.224315529948825
 30
0.0
 10
5.401110701802952
 20
9.21533170257182
 30
0.0
 10
5.306922468266207
 20
9.189509662857128
 30
0.0
 10
5.219823101144388
 20
9.14621189397639
 30
0.0
  0
SPLINE
  5
115
330
1F
100
AcDbEntity
  8
외형선
  6
Continuous
370
    15
100
AcDbSpline
210
0.0
220
0.0
230
1.0
 70
     8
 71
     3
 72
     8
 73
     4
 74
     0
 42
0.000000001
 43
0.00000001
 40
0.0
 40
0.0
 40
0.0
 40
0.0
 40
1.0
 40
1.0
 40
1.0
 40
1.0
 10
5.219823101144432
 20
9.14621189397641
 30
0.0
 10
5.138508988596512
 20
9.105790019878084
 30
0.0
 10
5.035444868342236
 20
9.11950916167276
 30
0.0
 10
4.951474015211135
 20
9.185758404888063
 30
0.0
  0
SPLINE
  5
116
330
1F
100
AcDbEntity
  8
외형선
  6
Continuous
370
    15
100
AcDbSpline
210
0.0
220
0.0
230
1.0
 70
     8
 71
     3
 72
    14
 73
    10
 74
     0
 42
0.000000001
 43
0.00000001
 40
0.0
 40
0.0
 40
0.0
 40
0.0
 40
0.2500000000000001
 40
0.2500000000000001
 40
0.5000000000000001
 40
0.5000000000000001
 40
0.7500000000000001
 40
0.7500000000000001
 40
1.0
 40
1.0
 40
1.0
 40
1.0
 10
4.951474015211185
 20
9.185758404888013
 30
0.0
 10
4.868836040713977
 20
9.250956066542564
 30
0.0
 10
4.783010620312646
 20
9.30124204655567
 30
0.0
 10
4.604862960432151
 20
9.376408407738051
 30
0.0
 10
4.513061327876202
 20
9.400550476162758
 30
0.0
 10
4.331572710187465
 20
9.421084645824951
 30
0.0
 10
4.239708477524037
 20
9.41754944677367
 30
0.0
 10
4.064573119946773
 20
9.382741404277487
 30
0.0
 10
3.980302784324886
 20
9.351901199193406
 30
0.0
 10
3.899808895284393
 20
9.305685416802293
 30
0.0
  0
SPLINE
  5
117
330
1F
100
AcDbEntity
  8
외형선
  6
Continuous
370
    15
100
AcDbSpline
210
0.0
220
0.0
230
1.0
 70
     8
 71
     3
 72
     8
 73
     4
 74
     0
 42
0.000000001
 43
0.00000001
 40
0.0
 40
0.0
 40
0.0
 40
0.0
 40
1.0
 40
1.0
 40
1.0
 40
1.0
 10
3.899808895284403
 20
9.305685416802305
 30
0.0
 10
3.818128915862527
 20
9.258788637435947
 30
0.0
 10
3.71499395991998
 20
9.26554031862194
 30
0.0
 10
3.631505368883832
 20
9.327401597909631
 30
0.0
  0
SPLINE
  5
118
330
1F
100
AcDbEntity
  8
외형선
  6
Continuous
370
    15
100
AcDbSpline
210
0.0
220
0.0
230
1.0
 70
     8
 71
     3
 72
     8
 73
     4
 74
     0
 42
0.000000001
 43
0.00000001
 40
0.0
 40
0.0
 40
0.0
 40
0.0
 40
1.0
 40
1.0
 40
1.0
 40
1.0
 10
3.631505368883812
 20
9.327401597909644
 30
0.0
 10
3.501111496732592
 20
9.42401757432562
 30
0.0
 10
3.358100669943775
 20
9.483765714388067
 30
0.0
 10
3.212882999058294
 20
9.508186162772718
 30
0.0
  0
SPLINE
  5
119
330
1F
100
AcDbEntity
  8
외형선
  6
Continuous
370
    15
100
AcDbSpline
210
0.0
220
0.0
230
1.0
 70
     8
 71
     3
 72
     8
 73
     4
 74
     0
 42
0.000000001
 43
0.00000001
 40
0.0
 40
0.0
 40
0.0
 40
0.0
 40
1.0
 40
1.0
 40
1.0
 40
1.0
 10
3.212909954434609
 20
9.508184956991583
 30
0.0
 10
3.112537917430577
 20
9.512674928500328
 30
0.0
 10
3.012249727127507
 20
9.516265129580677
 30
0.0
 10
2.912087807273549
 20
9.518955917407249
 30
0.0
  0
SPLINE
  5
11A
330
1F
100
AcDbEntity
  8
외형선
  6
Continuous
 62
     1
370
    15
100
AcDbSpline
210
0.0
220
0.0
230
1.0
 70
     8
 71
     3
 72
    10
 73
     6
 74
     0
 42
0.000000001
 43
0.00000001
 40
0.0
 40
0.0
 40
0.0
 40
0.0
 40
0.313245714693673
 40
0.6559087635979169
 40
1.0
 40
1.0
 40
1.0
 40
1.0
 10
10.79545257758828
 20
7.455043075514088
 30
0.0
 10
10.81604024682895
 20
7.469836099371386
 30
0.0
 10
10.8591490015336
 20
7.500811380222726
 30
0.0
 10
10.92588689193756
 20
7.543746530905407
 30
0.0
 10
10.97208432295898
 20
7.570085389106473
 30
0.0
 10
10.99523107500534
 20
7.583282205606543
 30
0.0
  0
SPLINE
  5
11B
330
1F
100
AcDbEntity
  8
외형선
  6
Continuous
 62
     1
370
    15
100
AcDbSpline
210
0.0
220
0.0
230
1.0
 70
     8
 71
     3
 72
     8
 73
     4
 74
     0
 42
0.000000001
 43
0.00000001
 40
0.0
 40
0.0
 40
0.0
 40
0.0
 40
1.0
 40
1.0
 40
1.0
 40
1.0
 10
10.99523098278779
 20
7.583282163617866
 30
0.0
 10
11.14167760781116
 20
7.635855071000011
 30
0.0
 10
11.28475936584341
 20
7.65802686827002
 30
0.0
 10
11.41313497809768
 20
7.644183228426836
 30
0.0
  0
SPLINE
  5
11C
330
1F
100
AcDbEntity
  8
외형선
  6
Continuous
 62
     1
370
    15
100
AcDbSpline
210
0.0
220
0.0
230
1.0
 70
     8
 71
     3
 72
     8
 73
     4
 74
     0
 42
0.000000001
 43
0.00000001
 40
0.0
 40
0.0
 40
0.0
 40
0.0
 40
1.0
 40
1.0
 40
1.0
 40
1.0
 10
11.4131349780966
 20
7.644183228430689
 30
0.0
 10
11.49435833115914
 20
7.635424346374244
 30
0.0
 10
11.59741973645915
 20
7.676719229731587
 30
0.0
 10
11.68129711795707
 20
7.756001753191801
 30
0.0
  0
SPLINE
  5
11D
330
1F
100
AcDbEntity
  8
외형선
  6
Continuous
 62
     1
370
    15
100
AcDbSpline
210
0.0
220
0.0
230
1.0
 70
     8
 71
     3
 72
    14
 73
    10
 74
     0
 42
0.000000001
 43
0.00000001
 40
0.0
 40
0.0
 40
0.0
 40
0.0
 40
0.25
 40
0.25
 40
0.5
 40
0.5
 40
0.75
 40
0.75
 40
1.0
 40
1.0
 40
1.0
 40
1.0
 10
11.68129711795706
 20
7.756001753191801
 30
0.0
 10
11.76382285310119
 20
7.834006674373064
 30
0.0
 10
11.84951545356036
 20
7.901341589820624
 30
0.0
 10
12.02732647353525
 20
8.017214300767156
 30
0.0
 10
12.11911837521231
 20
8.065165791367852
 30
0.0
 10
12.30210173016751
 20
8.137198952672582
 30
0.0
 10
12.39134127104591
 20
8.160799383624337
 30
0.0
 10
12.56598150330585
 20
8.183202574630618
 30
0.0
 10
12.65211119431753
 20
8.181642360723112
 30
0.0
 10
12.73232630763252
 20
8.165609941140799
 30
0.0
  0
SPLINE
  5
11E
330
1F
100
AcDbEntity
  8
외형선
  6
Continuous
 62
     1
370
    15
100
AcDbSpline
210
0.0
220
0.0
230
1.0
 70
     8
 71
     3
 72
     8
 73
     4
 74
     0
 42
0.000000001
 43
0.00000001
 40
0.0
 40
0.0
 40
0.0
 40
0.0
 40
1.0
 40
1.0
 40
1.0
 40
1.0
 10
12.7323263076325
 20
8.165609941140762
 30
0.0
 10
12.81400417954395
 20
8.149285163191095
 30
0.0
 10
12.91713165986906
 20
8.184644337918863
 30
0.0
 10
13.00066293077177
 20
8.262430890343824
 30
0.0
  0
SPLINE
  5
11F
330
1F
100
AcDbEntity
  8
외형선
  6
Continuous
 62
     1
370
    15
100
AcDbSpline
210
0.0
220
0.0
230
1.0
 70
     8
 71
     3
 72
     8
 73
     4
 74
     0
 42
0.000000001
 43
0.00000001
 40
0.0
 40
0.0
 40
0.0
 40
0.0
 40
1.0
 40
1.0
 40
1.0
 40
1.0
 10
13.00066293077179
 20
8.262430890343825
 30
0.0
 10
13.13109580278791
 20
8.38389346750058
 30
0.0
 10
13.27417640198644
 20
8.478662535888901
 30
0.0
 10
13.41953110149751
 20
8.542926694255868
 30
0.0
  0
SPLINE
  5
120
330
1F
100
AcDbEntity
  8
외형선
  6
Continuous
 62
     1
370
    15
100
AcDbSpline
210
0.0
220
0.0
230
1.0
 70
     8
 71
     3
 72
     8
 73
     4
 74
     0
 42
0.000000001
 43
0.00000001
 40
0.0
 40
0.0
 40
0.0
 40
0.0
 40
1.0
 40
1.0
 40
1.0
 40
1.0
 10
13.41953105535601
 20
8.542926683943797
 30
0.0
 10
13.56612549310211
 20
8.575688785876753
 30
0.0
 10
13.70937075736173
 20
8.574792333615862
 30
0.0
 10
13.83790953957113
 20
8.536084341591335
 30
0.0
  0
SPLINE
  5
121
330
1F
100
AcDbEntity
  8
외형선
  6
Continuous
 62
     1
370
    15
100
AcDbSpline
210
0.0
220
0.0
230
1.0
 70
     8
 71
     3
 72
     8
 73
     4
 74
     0
 42
0.000000001
 43
0.00000001
 40
0.0
 40
0.0
 40
0.0
 40
0.0
 40
1.0
 40
1.0
 40
1.0
 40
1.0
 10
13.83790953957114
 20
8.536084341591321
 30
0.0
 10
13.91920469832342
 20
8.511603229334561
 30
0.0
 10
14.0223273980206
 20
8.540154134964279
 30
0.0
 10
14.10627360573546
 20
8.614627238665557
 30
0.0
  0
SPLINE
  5
122
330
1F
100
AcDbEntity
  8
외형선
  6
Continuous
 62
     1
370
    15
100
AcDbSpline
210
0.0
220
0.0
230
1.0
 70
     8
 71
     3
 72
    14
 73
    10
 74
     0
 42
0.000000001
 43
0.00000001
 40
0.0
 40
0.0
 40
0.0
 40
0.0
 40
0.25
 40
0.25
 40
0.5
 40
0.5
 40
0.75
 40
0.75
 40
1.0
 40
1.0
 40
1.0
 40
1.0
 10
14.10627360573542
 20
8.614627238665516
 30
0.0
 10
14.18881247842378
 20
8.687851821317125
 30
0.0
 10
14.27451343095028
 20
8.748133706325369
 30
0.0
 10
14.45233491463962
 20
8.846319907865206
 30
0.0
 10
14.5441343033829
 20
8.883622635229331
 30
0.0
 10
14.72714423653006
 20
8.93188397955904
 30
0.0
 10
14.81639701209764
 20
8.942646786618461
 30
0.0
 10
14.99106040834795
 20
8.937619598794875
 30
0.0
 10
15.07716225063213
 20
8.921368450729702
 30
0.0
 10
15.15735935004764
 20
8.890264038625082
 30
0.0
  0
SPLINE
  5
123
330
1F
100
AcDbEntity
  8
외형선
  6
Continuous
 62
     1
370
    15
100
AcDbSpline
210
0.0
220
0.0
230
1.0
 70
     8
 71
     3
 72
     8
 73
     4
 74
     0
 42
0.000000001
 43
0.00000001
 40
0.0
 40
0.0
 40
0.0
 40
0.0
 40
1.0
 40
1.0
 40
1.0
 40
1.0
 10
15.1573593500476
 20
8.890264038625093
 30
0.0
 10
15.23897748512103
 20
8.858608478423578
 30
0.0
 10
15.3420487634771
 20
8.880619544694676
 30
0.0
 10
15.42551825803928
 20
8.952158998321531
 30
0.0
  0
SPLINE
  5
124
330
1F
100
AcDbEntity
  8
외형선
  6
Continuous
 62
     1
370
    15
100
AcDbSpline
210
0.0
220
0.0
230
1.0
 70
     8
 71
     3
 72
     8
 73
     4
 74
     0
 42
0.000000001
 43
0.00000001
 40
0.0
 40
0.0
 40
0.0
 40
0.0
 40
1.0
 40
1.0
 40
1.0
 40
1.0
 10
15.42551825803922
 20
8.952158998321487
 30
0.0
 10
15.55580881299828
 20
9.063827520616988
 30
0.0
 10
15.698745431613
 20
9.143309078839753
 30
0.0
 10
15.84396941761206
 20
9.189287191430095
 30
0.0
  0
SPLINE
  5
125
330
1F
100
AcDbEntity
  8
외형선
  6
Continuous
 62
     1
370
    15
100
AcDbSpline
210
0.0
220
0.0
230
1.0
 70
     8
 71
     3
 72
     8
 73
     4
 74
     0
 42
0.000000001
 43
0.00000001
 40
0.0
 40
0.0
 40
0.0
 40
0.0
 40
1.0
 40
1.0
 40
1.0
 40
1.0
 10
15.84396937152804
 20
9.18928718776676
 30
0.0
 10
15.99039521870242
 20
9.200926719311356
 30
0.0
 10
16.13346842053266
 20
9.176858841432205
 30
0.0
 10
16.26183193214104
 20
9.114656481705879
 30
0.0
  0
SPLINE
  5
126
330
1F
100
AcDbEntity
  8
외형선
  6
Continuous
 62
     1
370
    15
100
AcDbSpline
210
0.0
220
0.0
230
1.0
 70
     8
 71
     3
 72
     8
 73
     4
 74
     0
 42
0.000000001
 43
0.00000001
 40
0.0
 40
0.0
 40
0.0
 40
0.0
 40
1.0
 40
1.0
 40
1.0
 40
1.0
 10
16.26183193214104
 20
9.114656481705877
 30
0.0
 10
16.34302596650587
 20
9.075311495970356
 30
0.0
 10
16.44606444335843
 20
9.090061237818427
 30
0.0
 10
16.52991439001452
 20
9.156935075709539
 30
0.0
  0
SPLINE
  5
127
330
1F
100
AcDbEntity
  8
외형선
  6
Continuous
 62
     1
370
    15
100
AcDbSpline
210
0.0
220
0.0
230
1.0
 70
     8
 71
     3
 72
    14
 73
    10
 74
     0
 42
0.000000001
 43
0.00000001
 40
0.0
 40
0.0
 40
0.0
 40
0.0
 40
0.25
 40
0.25
 40
0.5
 40
0.5
 40
0.75
 40
0.75
 40
1.0
 40
1.0
 40
1.0
 40
1.0
 10
16.52991439001448
 20
9.156935075709503
 30
0.0
 10
16.61237876014918
 20
9.222703858399367
 30
0.0
 10
16.69801212231839
 20
9.273728656177807
 30
0.0
 10
16.87571335457282
 20
9.350629670832966
 30
0.0
 10
16.9674543779789
 20
9.375904594475632
 30
0.0
 10
17.15034917012945
 20
9.398599903165834
 30
0.0
 10
17.23954273894915
 20
9.396119843807503
 30
0.0
 10
17.41408510385389
 20
9.363858731073412
 30
0.0
 10
17.50010351279742
 20
9.333505263063984
 30
0.0
 10
17.58022133418195
 20
9.288511724874198
 30
0.0
  0
SPLINE
  5
128
330
1F
100
AcDbEntity
  8
외형선
  6
Continuous
 62
     1
370
    15
100
AcDbSpline
210
0.0
220
0.0
230
1.0
 70
     8
 71
     3
 72
     8
 73
     4
 74
     0
 42
0.000000001
 43
0.00000001
 40
0.0
 40
0.0
 40
0.0
 40
0.0
 40
1.0
 40
1.0
 40
1.0
 40
1.0
 10
17.58022133418197
 20
9.288511724874203
 30
0.0
 10
17.66179622851292
 20
9.242699905980743
 30
0.0
 10
17.76482859919064
 20
9.250591344641057
 30
0.0
 10
17.84825984846852
 20
9.313274107052791
 30
0.0
  0
SPLINE
  5
129
330
1F
100
AcDbEntity
  8
외형선
  6
Continuous
 62
     1
370
    15
100
AcDbSpline
210
0.0
220
0.0
230
1.0
 70
     8
 71
     3
 72
     8
 73
     4
 74
     0
 42
0.000000001
 43
0.00000001
 40
0.0
 40
0.0
 40
0.0
 40
0.0
 40
1.0
 40
1.0
 40
1.0
 40
1.0
 10
17.84825984846853
 20
9.313274107052791
 30
0.0
 10
17.97850573230834
 20
9.411129189680711
 30
0.0
 10
18.121404043237
 20
9.472441924323663
 30
0.0
 10
18.2665939038961
 20
9.498493824996059
 30
0.0
  0
SPLINE
  5
12A
330
1F
100
AcDbEntity
  8
외형선
  6
Continuous
 62
     1
370
    15
100
AcDbSpline
210
0.0
220
0.0
230
1.0
 70
     8
 71
     3
 72
     8
 73
     4
 74
     0
 42
0.000000001
 43
0.00000001
 40
0.0
 40
0.0
 40
0.0
 40
0.0
 40
1.0
 40
1.0
 40
1.0
 40
1.0
 10
18.26659385782036
 20
9.498493828093839
 30
0.0
 10
18.41300340600828
 20
9.488650416972218
 30
0.0
 10
18.55606315657975
 20
9.442370548587045
 30
0.0
 10
18.6844201701634
 20
9.359010126886279
 30
0.0
  0
SPLINE
  5
12B
330
1F
100
AcDbEntity
  8
외형선
  6
Continuous
 62
     1
370
    15
100
AcDbSpline
210
0.0
220
0.0
230
1.0
 70
     8
 71
     3
 72
     8
 73
     4
 74
     0
 42
0.000000001
 43
0.00000001
 40
0.0
 40
0.0
 40
0.0
 40
0.0
 40
1.0
 40
1.0
 40
1.0
 40
1.0
 10
18.68442017016286
 20
9.359010126886607
 30
0.0
 10
18.76561938121335
 20
9.306275957666266
 30
0.0
 10
18.86866500457847
 20
9.306714942828247
 30
0.0
 10
18.95252451298725
 20
9.363583011658
 30
0.0
  0
SPLINE
  5
12C
330
1F
100
AcDbEntity
  8
외형선
  6
Continuous
 62
     1
370
    15
100
AcDbSpline
210
0.0
220
0.0
230
1.0
 70
     8
 71
     3
 72
    14
 73
    10
 74
     0
 42
0.000000001
 43
0.00000001
 40
0.0
 40
0.0
 40
0.0
 40
0.0
 40
0.25
 40
0.25
 40
0.5
 40
0.5
 40
0.75
 40
0.75
 40
1.0
 40
1.0
 40
1.0
 40
1.0
 10
18.95252451298777
 20
9.363583011657443
 30
0.0
 10
19.03501755811694
 20
9.419524433893205
 30
0.0
 10
19.12068226023127
 20
9.459447877079596
 30
0.0
 10
19.29845070378165
 20
9.512291863857484
 30
0.0
 10
19.39022790833314
 20
9.524636343652665
 30
0.0
 10
19.57319311518058
 20
9.520986577723063
 30
0.0
 10
19.66242497456616
 20
9.505383723170686
 30
0.0
 10
19.83704991181354
 20
9.44712486641442
 30
0.0
 10
19.92310467498599
 20
9.403789191166517
 30
0.0
 10
20.00324771480235
 20
9.346557641543672
 30
0.0
  0
SPLINE
  5
12D
330
1F
100
AcDbEntity
  8
외형선
  6
Continuous
 62
     1
370
    15
100
AcDbSpline
210
0.0
220
0.0
230
1.0
 70
     8
 71
     3
 72
     8
 73
     4
 74
     0
 42
0.000000001
 43
0.00000001
 40
0.0
 40
0.0
 40
0.0
 40
0.0
 40
1.0
 40
1.0
 40
1.0
 40
1.0
 10
20.00324771480235
 20
9.346557641543672
 30
0.0
 10
20.08488587445957
 20
9.288258400633346
 30
0.0
 10
20.18797107061052
 20
9.281730404649142
 30
0.0
 10
20.27147056312776
 20
9.333266088246193
 30
0.0
  0
SPLINE
  5
12E
330
1F
100
AcDbEntity
  8
외형선
  6
Continuous
 62
     1
370
    15
100
AcDbSpline
210
0.0
220
0.0
230
1.0
 70
     8
 71
     3
 72
     8
 73
     4
 74
     0
 42
0.000000001
 43
0.00000001
 40
0.0
 40
0.0
 40
0.0
 40
0.0
 40
1.0
 40
1.0
 40
1.0
 40
1.0
 10
20.27147056312779
 20
9.333266088246187
 30
0.0
 10
20.4018348652343
 20
9.413726618282634
 30
0.0
 10
20.54484870601098
 20
9.454595336640129
 30
0.0
 10
20.69015213706829
 20
9.459747233399263
 30
0.0
  0
SPLINE
  5
12F
330
1F
100
AcDbEntity
  8
외형선
  6
Continuous
 62
     1
370
    15
100
AcDbSpline
210
0.0
220
0.0
230
1.0
 70
     8
 71
     3
 72
     8
 73
     4
 74
     0
 42
0.000000001
 43
0.00000001
 40
0.0
 40
0.0
 40
0.0
 40
0.0
 40
1.0
 40
1.0
 40
1.0
 40
1.0
 10
20.6901520909487
 20
9.459747243151293
 30
0.0
 10
20.83669906988154
 20
9.42875976524329
 30
0.0
 10
20.9799050393591
 20
9.361948502929305
 30
0.0
 10
21.10842511609187
 20
9.260444739766138
 30
0.0
  0
SPLINE
  5
130
330
1F
100
AcDbEntity
  8
외형선
  6
Continuous
 62
     1
370
    15
100
AcDbSpline
210
0.0
220
0.0
230
1.0
 70
     8
 71
     3
 72
     8
 73
     4
 74
     0
 42
0.000000001
 43
0.00000001
 40
0.0
 40
0.0
 40
0.0
 40
0.0
 40
1.0
 40
1.0
 40
1.0
 40
1.0
 10
21.10842511609188
 20
9.260444739766136
 30
0.0
 10
21.18973567911388
 20
9.196226538676743
 30
0.0
 10
21.29287961446189
 20
9.182314854656484
 30
0.0
 10
21.37685422684333
 20
9.227081512894657
 30
0.0
  0
SPLINE
  5
131
330
1F
100
AcDbEntity
  8
외형선
  6
Continuous
 62
     1
370
    15
100
AcDbSpline
210
0.0
220
0.0
230
1.0
 70
     8
 71
     3
 72
    14
 73
    10
 74
     0
 42
0.000000001
 43
0.00000001
 40
0.0
 40
0.0
 40
0.0
 40
0.0
 40
0.25
 40
0.25
 40
0.5
 40
0.5
 40
0.75
 40
0.75
 40
1.0
 40
1.0
 40
1.0
 40
1.0
 10
21.37685422684334
 20
9.227081512894664
 30
0.0
 10
21.45942179570193
 20
9.271098079709637
 30
0.0
 10
21.54515426116787
 20
9.298424060014742
 30
0.0
 10
21.72304407927233
 20
9.325241561278013
 30
0.0
 10
21.81488401676165
 20
9.324203615101503
 30
0.0
 10
21.99798583172484
 20
9.29434586514559
 30
0.0
 10
22.08728901799286
 20
9.266193560911516
 30
0.0
 10
22.26205899292242
 20
9.184048732300575
 30
0.0
 10
22.34819807545735
 20
9.12928932814803
 30
0.0
 10
22.4283857038111
 20
9.061851462095701
 30
0.0
  0
SPLINE
  5
132
330
1F
100
AcDbEntity
  8
외형선
  6
Continuous
 62
     1
370
    15
100
AcDbSpline
210
0.0
220
0.0
230
1.0
 70
     8
 71
     3
 72
     8
 73
     4
 74
     0
 42
0.000000001
 43
0.00000001
 40
0.0
 40
0.0
 40
0.0
 40
0.0
 40
1.0
 40
1.0
 40
1.0
 40
1.0
 10
22.42838570381109
 20
9.061851462095703
 30
0.0
 10
22.51003102996847
 20
8.99318767090699
 30
0.0
 10
22.61311713455435
 20
8.972437257403445
 30
0.0
 10
22.69662181215005
 20
9.010915036502768
 30
0.0
  0
SPLINE
  5
133
330
1F
100
AcDbEntity
  8
외형선
  6
Continuous
 62
     1
370
    15
100
AcDbSpline
210
0.0
220
0.0
230
1.0
 70
     8
 71
     3
 72
     8
 73
     4
 74
     0
 42
0.000000001
 43
0.00000001
 40
0.0
 40
0.0
 40
0.0
 40
0.0
 40
1.0
 40
1.0
 40
1.0
 40
1.0
 10
22.69662181215009
 20
9.010915036502787
 30
0.0
 10
22.82694628212757
 20
9.07096671637768
 30
0.0
 10
22.969912375686
 20
9.089898171918115
 30
0.0
 10
23.11517732696706
 20
9.073950903569258
 30
0.0
  0
SPLINE
  5
134
330
1F
100
AcDbEntity
  8
외형선
  6
Continuous
 62
     1
370
    15
100
AcDbSpline
210
0.0
220
0.0
230
1.0
 70
     8
 71
     3
 72
     8
 73
     4
 74
     0
 42
0.000000001
 43
0.00000001
 40
0.0
 40
0.0
 40
0.0
 40
0.0
 40
1.0
 40
1.0
 40
1.0
 40
1.0
 10
23.11517728087175
 20
9.073950919621021
 30
0.0
 10
23.26161940202516
 20
9.022955472706242
 30
0.0
 10
23.40472646636884
 20
8.93806959676319
 30
0.0
 10
23.53313168952312
 20
8.82215867976004
 30
0.0
  0
SPLINE
  5
135
330
1F
100
AcDbEntity
  8
외형선
  6
Continuous
 62
     1
370
    15
100
AcDbSpline
210
0.0
220
0.0
230
1.0
 70
     8
 71
     3
 72
     8
 73
     4
 74
     0
 42
0.000000001
 43
0.00000001
 40
0.0
 40
0.0
 40
0.0
 40
0.0
 40
1.0
 40
1.0
 40
1.0
 40
1.0
 10
23.53313168952312
 20
8.822158679760035
 30
0.0
 10
23.61433930741392
 20
8.748852865353603
 30
0.0
 10
23.71739316928971
 20
8.721108807406067
 30
0.0
 10
23.80126286474889
 20
8.752147132437631
 30
0.0
  0
SPLINE
  5
136
330
1F
100
AcDbEntity
  8
외형선
  6
Continuous
 62
     1
370
    15
100
AcDbSpline
210
0.0
220
0.0
230
1.0
 70
     8
 71
     3
 72
    14
 73
    10
 74
     0
 42
0.000000001
 43
0.00000001
 40
0.0
 40
0.0
 40
0.0
 40
0.0
 40
0.25
 40
0.25
 40
0.5
 40
0.5
 40
0.75
 40
0.75
 40
1.0
 40
1.0
 40
1.0
 40
1.0
 10
23.80126286474885
 20
8.752147132437624
 30
0.0
 10
23.88372468133138
 20
8.782664432539518
 30
0.0
 10
23.96935787920948
 20
8.796438287768195
 30
0.0
 10
24.14706651317186
 20
8.796312429518256
 30
0.0
 10
24.23881717416212
 20
8.781950051136185
 30
0.0
 10
24.42174465007013
 20
8.7270171506301
 30
0.0
 10
24.51095780590101
 20
8.68736837528853
 30
0.0
 10
24.68554301848364
 20
8.584432268587348
 30
0.0
 10
24.77159535280576
 20
8.520322585653117
 30
0.0
 10
24.85169076966767
 20
8.445232732445929
 30
0.0
  0
SPLINE
  5
137
330
1F
100
AcDbEntity
  8
외형선
  6
Continuous
 62
     1
370
    15
100
AcDbSpline
210
0.0
220
0.0
230
1.0
 70
     8
 71
     3
 72
     8
 73
     4
 74
     0
 42
0.000000001
 43
0.00000001
 40
0.0
 40
0.0
 40
0.0
 40
0.0
 40
1.0
 40
1.0
 40
1.0
 40
1.0
 10
24.85169076966763
 20
8.445232732445968
 30
0.0
 10
24.93328062637541
 20
8.368741834421874
 30
0.0
 10
25.03628678379999
 20
8.33457258714814
 30
0.0
 10
25.1197221255876
 20
8.358591369546927
 30
0.0
  0
SPLINE
  5
138
330
1F
100
AcDbEntity
  8
외형선
  6
Continuous
 62
     1
370
    15
100
AcDbSpline
210
0.0
220
0.0
230
1.0
 70
     8
 71
     3
 72
     8
 73
     4
 74
     0
 42
0.000000001
 43
0.00000001
 40
0.0
 40
0.0
 40
0.0
 40
0.0
 40
1.0
 40
1.0
 40
1.0
 40
1.0
 10
25.1197221255876
 20
8.358591369546923
 30
0.0
 10
25.24995693873062
 20
8.396082456304764
 30
0.0
 10
25.39284167015563
 20
8.392402219730826
 30
0.0
 10
25.53803091424983
 20
8.355969258552532
 30
0.0
  0
SPLINE
  5
139
330
1F
100
AcDbEntity
  8
외형선
  6
Continuous
 62
     1
370
    15
100
AcDbSpline
210
0.0
220
0.0
230
1.0
 70
     8
 71
     3
 72
     8
 73
     4
 74
     0
 42
0.000000001
 43
0.00000001
 40
0.0
 40
0.0
 40
0.0
 40
0.0
 40
1.0
 40
1.0
 40
1.0
 40
1.0
 10
25.53803086817788
 20
8.355969280306645
 30
0.0
 10
25.6844134375923
 20
8.286850853132556
 30
0.0
 10
25.82746233893686
 20
8.18700942305293
 30
0.0
 10
25.95581409469271
 20
8.060974216913122
 30
0.0
  0
SPLINE
  5
13A
330
1F
100
AcDbEntity
  8
외형선
  6
Continuous
 62
     1
370
    15
100
AcDbSpline
210
0.0
220
0.0
230
1.0
 70
     8
 71
     3
 72
     8
 73
     4
 74
     0
 42
0.000000001
 43
0.00000001
 40
0.0
 40
0.0
 40
0.0
 40
0.0
 40
1.0
 40
1.0
 40
1.0
 40
1.0
 10
25.95581409469268
 20
8.06097421691314
 30
0.0
 10
26.0369974127139
 20
7.98125613154949
 30
0.0
 10
26.14003235371447
 20
7.940717854189712
 30
0.0
 10
26.22388233896033
 20
7.956895466861409
 30
0.0
  0
SPLINE
  5
13B
330
1F
100
AcDbEntity
  8
외형선
  6
Continuous
 62
     1
370
    15
100
AcDbSpline
210
0.0
220
0.0
230
1.0
 70
     8
 71
     3
 72
    14
 73
    10
 74
     0
 42
0.000000001
 43
0.00000001
 40
0.0
 40
0.0
 40
0.0
 40
0.0
 40
0.25
 40
0.25
 40
0.5
 40
0.5
 40
0.75
 40
0.75
 40
1.0
 40
1.0
 40
1.0
 40
1.0
 10
26.2238823389604
 20
7.956895466861276
 30
0.0
 10
26.30634200129773
 20
7.972804837321162
 30
0.0
 10
26.39197649262534
 20
7.972514375912271
 30
0.0
 10
26.56969436261846
 20
7.945436390748823
 30
0.0
 10
26.66145162580882
 20
7.918268956932005
 30
0.0
 10
26.84439254833198
 20
7.840264709214832
 30
0.0
 10
26.93361440230198
 20
7.79056800386474
 30
0.0
 10
27.108221093605
 20
7.670593343861619
 30
0.0
 10
27.19428539770947
 20
7.599472253046436
 30
0.0
 10
27.27439633162578
 20
7.519460078318621
 30
0.0
  0
SPLINE
  5
13C
330
1F
100
AcDbEntity
  8
외형선
  6
Continuous
 62
     1
370
    15
100
AcDbSpline
210
0.0
220
0.0
230
1.0
 70
     8
 71
     3
 72
     8
 73
     4
 74
     0
 42
0.000000001
 43
0.00000001
 40
0.0
 40
0.0
 40
0.0
 40
0.0
 40
1.0
 40
1.0
 40
1.0
 40
1.0
 10
27.27439633162698
 20
7.519460078316156
 30
0.0
 10
27.35603560934216
 20
7.437921443901719
 30
0.0
 10
27.45906180992197
 20
7.391553102590823
 30
0.0
 10
27.54252946975608
 20
7.400205407438567
 30
0.0
  0
SPLINE
  5
13D
330
1F
100
AcDbEntity
  8
외형선
  6
Continuous
 62
     1
370
    15
100
AcDbSpline
210
0.0
220
0.0
230
1.0
 70
     8
 71
     3
 72
     8
 73
     4
 74
     0
 42
0.000000001
 43
0.00000001
 40
0.0
 40
0.0
 40
0.0
 40
0.0
 40
1.0
 40
1.0
 40
1.0
 40
1.0
 10
27.54252946975607
 20
7.400205407438587
 30
0.0
 10
27.67283788264636
 20
7.413713251252508
 30
0.0
 10
27.81579528182612
 20
7.387481226603502
 30
0.0
 10
27.96105677083423
 20
7.331833101212527
 30
0.0
  0
SPLINE
  5
13E
330
1F
100
AcDbEntity
  8
외형선
  6
Continuous
 62
     1
370
    15
100
AcDbSpline
210
0.0
220
0.0
230
1.0
 70
     8
 71
     3
 72
     8
 73
     4
 74
     0
 42
0.000000001
 43
0.00000001
 40
0.0
 40
0.0
 40
0.0
 40
0.0
 40
1.0
 40
1.0
 40
1.0
 40
1.0
 10
27.96105672468897
 20
7.331833127918195
 30
0.0
 10
28.10753373894607
 20
7.247055827591498
 30
0.0
 10
28.25068451320283
 20
7.135853522722053
 30
0.0
 10
28.37915283495704
 20
7.00422481287856
 30
0.0
  0
SPLINE
  5
13F
330
1F
100
AcDbEntity
  8
외형선
  6
Continuous
 62
     1
370
    15
100
AcDbSpline
210
0.0
220
0.0
230
1.0
 70
     8
 71
     3
 72
     8
 73
     4
 74
     0
 42
0.000000001
 43
0.00000001
 40
0.0
 40
0.0
 40
0.0
 40
0.0
 40
1.0
 40
1.0
 40
1.0
 40
1.0
 10
28.37915283495703
 20
7.004224812878573
 30
0.0
 10
28.46041832520946
 20
6.920960148946928
 30
0.0
 10
28.56352580380735
 20
6.869064013874239
 30
0.0
 10
28.64746197461448
 20
6.869742277374178
 30
0.0
  0
SPLINE
  5
140
330
1F
100
AcDbEntity
  8
외형선
  6
Continuous
 62
     1
370
    15
100
AcDbSpline
210
0.0
220
0.0
230
1.0
 70
     8
 71
     3
 72
    14
 73
    10
 74
     0
 42
0.000000001
 43
0.00000001
 40
0.0
 40
0.0
 40
0.0
 40
0.0
 40
0.25
 40
0.25
 40
0.5
 40
0.5
 40
0.75
 40
0.75
 40
1.0
 40
1.0
 40
1.0
 40
1.0
 10
28.64746197461448
 20
6.869742277374181
 30
0.0
 10
28.73001724503554
 20
6.870409382224402
 30
0.0
 10
28.81574609467902
 20
6.856007726357118
 30
0.0
 10
28.99364796239278
 20
6.802862614351249
 30
0.0
 10
29.08549941637916
 20
6.763834440442164
 30
0.0
 10
29.26862818552156
 20
6.665524018184756
 30
0.0
 10
29.35795097329113
 20
6.607556272343792
 30
0.0
 10
29.5327704038288
 20
6.474838839628057
 30
0.0
 10
29.61894204473801
 20
6.399257833401694
 30
0.0
 10
29.69915674568519
 20
6.317187384082827
 30
0.0
  0
SPLINE
  5
141
330
1F
100
AcDbEntity
  8
외형선
  6
Continuous
 62
     1
370
    15
100
AcDbSpline
210
0.0
220
0.0
230
1.0
 70
     8
 71
     3
 72
     8
 73
     4
 74
     0
 42
0.000000001
 43
0.00000001
 40
0.0
 40
0.0
 40
0.0
 40
0.0
 40
1.0
 40
1.0
 40
1.0
 40
1.0
 10
29.6991567456852
 20
6.317187384082833
 30
0.0
 10
29.78088045127506
 20
6.233573019651338
 30
0.0
 10
29.88396980141
 20
6.17666733488887
 30
0.0
 10
29.96749811000126
 20
6.169598569056289
 30
0.0
  0
SPLINE
  5
142
330
1F
100
AcDbEntity
  8
외형선
  6
Continuous
 62
     1
370
    15
100
AcDbSpline
210
0.0
220
0.0
230
1.0
 70
     8
 71
     3
 72
     8
 73
     4
 74
     0
 42
0.000000001
 43
0.00000001
 40
0.0
 40
0.0
 40
0.0
 40
0.0
 40
1.0
 40
1.0
 40
1.0
 40
1.0
 10
29.96749811000127
 20
6.169598569056306
 30
0.0
 10
30.0978693774593
 20
6.158565615360742
 30
0.0
 10
30.24087547863664
 20
6.110725393400324
 30
0.0
 10
30.38619101025051
 20
6.037877399293752
 30
0.0
  0
SPLINE
  5
143
330
1F
100
AcDbEntity
  8
외형선
  6
Continuous
 62
     1
370
    15
100
AcDbSpline
210
0.0
220
0.0
230
1.0
 70
     8
 71
     3
 72
     8
 73
     4
 74
     0
 42
0.000000001
 43
0.00000001
 40
0.0
 40
0.0
 40
0.0
 40
0.0
 40
1.0
 40
1.0
 40
1.0
 40
1.0
 10
30.3861909641405
 20
6.037877429926857
 30
0.0
 10
30.53265936133185
 20
5.940571422541356
 30
0.0
 10
30.67581141121176
 20
5.822116475584527
 30
0.0
 10
30.80427169573203
 20
5.689754953188365
 30
0.0
  0
SPLINE
  5
144
330
1F
100
AcDbEntity
  8
외형선
  6
Continuous
 62
     1
370
    15
100
AcDbSpline
210
0.0
220
0.0
230
1.0
 70
     8
 71
     3
 72
     8
 73
     4
 74
     0
 42
0.000000001
 43
0.00000001
 40
0.0
 40
0.0
 40
0.0
 40
0.0
 40
1.0
 40
1.0
 40
1.0
 40
1.0
 10
30.80427169573203
 20
5.68975495318836
 30
0.0
 10
30.88550110654256
 20
5.606058669014799
 30
0.0
 10
30.98857543359222
 20
5.544736377451234
 30
0.0
 10
31.07247322395268
 20
5.529933836698212
 30
0.0
  0
SPLINE
  5
145
330
1F
100
AcDbEntity
  8
외형선
  6
Continuous
 62
     1
370
    15
100
AcDbSpline
210
0.0
220
0.0
230
1.0
 70
     8
 71
     3
 72
    14
 73
    10
 74
     0
 42
0.000000001
 43
0.00000001
 40
0.0
 40
0.0
 40
0.0
 40
0.0
 40
0.25
 40
0.25
 40
0.5
 40
0.5
 40
0.75
 40
0.75
 40
1.0
 40
1.0
 40
1.0
 40
1.0
 10
31.07247322395268
 20
5.529933836698204
 30
0.0
 10
31.15493817611247
 20
5.515384099335675
 30
0.0
 10
31.2405757832485
 20
5.487485862129667
 30
0.0
 10
31.41829869880815
 20
5.410413462697298
 30
0.0
 10
31.51006191642971
 20
5.361062251549609
 30
0.0
 10
31.69302884405841
 20
5.246245841376582
 30
0.0
 10
31.78226574808251
 20
5.182229051327934
 30
0.0
 10
31.95690375337279
 20
5.041843275913143
 30
0.0
 10
32.04298693617712
 20
4.964678202575277
 30
0.0
 10
32.12311092808082
 20
4.883680957518818
 30
0.0
  0
SPLINE
  5
146
330
1F
100
AcDbEntity
  8
외형선
  6
Continuous
 62
     1
370
    15
100
AcDbSpline
210
0.0
220
0.0
230
1.0
 70
     8
 71
     3
 72
     8
 73
     4
 74
     0
 42
0.000000001
 43
0.00000001
 40
0.0
 40
0.0
 40
0.0
 40
0.0
 40
1.0
 40
1.0
 40
1.0
 40
1.0
 10
32.12311092808083
 20
4.883680957518783
 30
0.0
 10
32.20473809661073
 20
4.801164153056165
 30
0.0
 10
32.30775297235095
 20
4.735934020238747
 30
0.0
 10
32.39116787509729
 20
4.713485916364508
 30
0.0
  0
SPLINE
  5
147
330
1F
100
AcDbEntity
  8
외형선
  6
Continuous
 62
     1
370
    15
100
AcDbSpline
210
0.0
220
0.0
230
1.0
 70
     8
 71
     3
 72
     8
 73
     4
 74
     0
 42
0.000000001
 43
0.00000001
 40
0.0
 40
0.0
 40
0.0
 40
0.0
 40
1.0
 40
1.0
 40
1.0
 40
1.0
 10
32.39116787509727
 20
4.713485916364498
 30
0.0
 10
32.52140459039239
 20
4.678437415234255
 30
0.0
 10
32.66428635976043
 20
4.610848095355996
 30
0.0
 10
32.80948465930044
 20
4.523575404140995
 30
0.0
  0
SPLINE
  5
148
330
1F
100
AcDbEntity
  8
외형선
  6
Continuous
 62
     1
370
    15
100
AcDbSpline
210
0.0
220
0.0
230
1.0
 70
     8
 71
     3
 72
     8
 73
     4
 74
     0
 42
0.000000001
 43
0.00000001
 40
0.0
 40
0.0
 40
0.0
 40
0.0
 40
1.0
 40
1.0
 40
1.0
 40
1.0
 10
32.80948461322839
 20
4.523575437572612
 30
0.0
 10
32.95585029715064
 20
4.417366965340994
 30
0.0
 10
33.09889954382602
 20
4.29605440240674
 30
0.0
 10
33.22725944182292
 20
4.167890593855877
 30
0.0
  0
SPLINE
  5
149
330
1F
100
AcDbEntity
  8
외형선
  6
Continuous
 62
     1
370
    15
100
AcDbSpline
210
0.0
220
0.0
230
1.0
 70
     8
 71
     3
 72
     8
 73
     4
 74
     0
 42
0.000000001
 43
0.00000001
 40
0.0
 40
0.0
 40
0.0
 40
0.0
 40
1.0
 40
1.0
 40
1.0
 40
1.0
 10
33.22725944182292
 20
4.167890593855873
 30
0.0
 10
33.30843512253561
 20
4.086838921455066
 30
0.0
 10
33.41146449785822
 20
4.018369621115188
 30
0.0
 10
33.49531333556338
 20
3.98864900022134
 30
0.0
  0
SPLINE
  5
14A
330
1F
100
AcDbEntity
  8
외형선
  6
Continuous
 62
     1
370
    15
100
AcDbSpline
210
0.0
220
0.0
230
1.0
 70
     8
 71
     3
 72
    14
 73
    10
 74
     0
 42
0.000000001
 43
0.00000001
 40
0.0
 40
0.0
 40
0.0
 40
0.0
 40
0.25
 40
0.25
 40
0.5
 40
0.5
 40
0.75
 40
0.75
 40
1.0
 40
1.0
 40
1.0
 40
1.0
 10
33.49531333556342
 20
3.988649000221289
 30
0.0
 10
33.57774731765107
 20
3.959429881656853
 30
0.0
 10
33.66335832279282
 20
3.91904343550567
 30
0.0
 10
33.84103710251126
 20
3.820816432715338
 30
0.0
 10
33.93277985224741
 20
3.762913639102207
 30
0.0
 10
34.11570720102071
 20
3.635735907899837
 30
0.0
 10
34.20492513507225
 20
3.567985277801196
 30
0.0
 10
34.37952722765645
 20
3.425013178980711
 30
0.0
 10
34.46559387568958
 20
3.349064451471147
 30
0.0
 10
34.54570448766093
 20
3.27207542684142
 30
0.0
  0
SPLINE
  5
14B
330
1F
100
AcDbEntity
  8
외형선
  6
Continuous
 62
     1
370
    15
100
AcDbSpline
210
0.0
220
0.0
230
1.0
 70
     8
 71
     3
 72
     8
 73
     4
 74
     0
 42
0.000000001
 43
0.00000001
 40
0.0
 40
0.0
 40
0.0
 40
0.0
 40
1.0
 40
1.0
 40
1.0
 40
1.0
 10
34.54570448766093
 20
3.272075426841436
 30
0.0
 10
34.62733700572005
 20
3.193623798664027
 30
0.0
 10
34.73037558087893
 20
3.122426575186051
 30
0.0
 10
34.81378301756219
 20
3.085386992724255
 30
0.0
  0
SPLINE
  5
14C
330
1F
100
AcDbEntity
  8
외형선
  6
Continuous
 62
     1
370
    15
100
AcDbSpline
210
0.0
220
0.0
230
1.0
 70
     8
 71
     3
 72
     8
 73
     4
 74
     0
 42
0.000000001
 43
0.00000001
 40
0.0
 40
0.0
 40
0.0
 40
0.0
 40
1.0
 40
1.0
 40
1.0
 40
1.0
 10
34.81378301755989
 20
3.085386992725309
 30
0.0
 10
34.94405647294784
 20
3.027535144193582
 30
0.0
 10
35.0869598873284
 20
2.942553754744601
 30
0.0
 10
35.23218871129281
 20
2.843957557279459
 30
0.0
  0
SPLINE
  5
14D
330
1F
100
AcDbEntity
  8
외형선
  6
Continuous
 62
     1
370
    15
100
AcDbSpline
210
0.0
220
0.0
230
1.0
 70
     8
 71
     3
 72
     8
 73
     4
 74
     0
 42
0.000000001
 43
0.00000001
 40
0.0
 40
0.0
 40
0.0
 40
0.0
 40
1.0
 40
1.0
 40
1.0
 40
1.0
 10
35.23218866520514
 20
2.843957592320231
 30
0.0
 10
35.37860560400554
 20
2.732635508773162
 30
0.0
 10
35.52171214221404
 20
2.612807661655022
 30
0.0
 10
35.65014184651528
 20
2.493415778746094
 30
0.0
  0
SPLINE
  5
14E
330
1F
100
AcDbEntity
  8
외형선
  6
Continuous
 62
     1
370
    15
100
AcDbSpline
210
0.0
220
0.0
230
1.0
 70
     8
 71
     3
 72
     8
 73
     4
 74
     0
 42
0.000000001
 43
0.00000001
 40
0.0
 40
0.0
 40
0.0
 40
0.0
 40
1.0
 40
1.0
 40
1.0
 40
1.0
 10
35.65014184651532
 20
2.493415778746055
 30
0.0
 10
35.7313703688825
 20
2.417903448603337
 30
0.0
 10
35.83444635955286
 20
2.344731205389843
 30
0.0
 10
35.91835230091827
 20
2.301113752631673
 30
0.0
  0
SPLINE
  5
14F
330
1F
100
AcDbEntity
  8
외형선
  6
Continuous
 62
     1
370
    15
100
AcDbSpline
210
0.0
220
0.0
230
1.0
 70
     8
 71
     3
 72
    14
 73
    10
 74
     0
 42
0.000000001
 43
0.00000001
 40
0.0
 40
0.0
 40
0.0
 40
0.0
 40
0.2500000000000046
 40
0.2500000000000046
 40
0.5000000000000032
 40
0.5000000000000032
 40
0.7500000000000016
 40
0.7500000000000016
 40
1.0
 40
1.0
 40
1.0
 40
1.0
 10
35.91835230091852
 20
2.301113752630871
 30
0.0
 10
36.00085980271587
 20
2.258223261167721
 30
0.0
 10
36.08654451914011
 20
2.206753643242838
 30
0.0
 10
36.26436955565384
 20
2.090829746860364
 30
0.0
 10
36.35618799968478
 20
2.026426779059001
 30
0.0
 10
36.5392638191739
 20
1.891413498427421
 30
0.0
 10
36.6285615543629
 20
1.822342253584993
 30
0.0
 10
36.80333389401498
 20
1.681876686128002
 30
0.0
 10
36.88948619563729
 20
1.609855125708509
 30
0.0
 10
36.96968744879815
 20
1.539619881814563
 30
0.0
  0
SPLINE
  5
150
330
1F
100
AcDbEntity
  8
외형선
  6
Continuous
 62
     1
370
    15
100
AcDbSpline
210
0.0
220
0.0
230
1.0
 70
     8
 71
     3
 72
     8
 73
     4
 74
     0
 42
0.000000001
 43
0.00000001
 40
0.0
 40
0.0
 40
0.0
 40
0.0
 40
1.0
 40
1.0
 40
1.0
 40
1.0
 10
36.96968744879817
 20
1.539619881814536
 30
0.0
 10
37.05143026854092
 20
1.468034630276197
 30
0.0
 10
37.15457006542177
 20
1.39338439640604
 30
0.0
 10
37.23809155980949
 20
1.343059615060282
 30
0.0
  0
SPLINE
  5
151
330
1F
100
AcDbEntity
  8
외형선
  6
Continuous
 62
     1
370
    15
100
AcDbSpline
210
0.0
220
0.0
230
1.0
 70
     8
 71
     3
 72
     8
 73
     4
 74
     0
 42
0.000000001
 43
0.00000001
 40
0.0
 40
0.0
 40
0.0
 40
0.0
 40
1.0
 40
1.0
 40
1.0
 40
1.0
 10
37.23809155980943
 20
1.343059615060307
 30
0.0
 10
37.36855784412169
 20
1.264448866065225
 30
0.0
 10
37.51158253171022
 20
1.165056637639282
 30
0.0
 10
37.6569537507724
 20
1.058652808872259
 30
0.0
  0
SPLINE
  5
152
330
1F
100
AcDbEntity
  8
외형선
  6
Continuous
 62
     1
370
    15
100
AcDbSpline
210
0.0
220
0.0
230
1.0
 70
     8
 71
     3
 72
     8
 73
     4
 74
     0
 42
0.000000001
 43
0.00000001
 40
0.0
 40
0.0
 40
0.0
 40
0.0
 40
1.0
 40
1.0
 40
1.0
 40
1.0
 10
37.65695370464427
 20
1.058652844260324
 30
0.0
 10
37.80345829669995
 20
0.9462595413442527
 30
0.0
 10
37.94666641135526
 20
0.832273116258439
 30
0.0
 10
38.07519509075845
 20
0.7260071909500789
 30
0.0
  0
SPLINE
  5
153
330
1F
100
AcDbEntity
  8
외형선
  6
Continuous
 62
     1
370
    15
100
AcDbSpline
210
0.0
220
0.0
230
1.0
 70
     8
 71
     3
 72
     8
 73
     4
 74
     0
 42
0.000000001
 43
0.00000001
 40
0.0
 40
0.0
 40
0.0
 40
0.0
 40
1.0
 40
1.0
 40
1.0
 40
1.0
 10
38.07519509075845
 20
0.7260071909500811
 30
0.0
 10
38.15645446252891
 20
0.6588229456029729
 30
0.0
 10
38.25955429984266
 20
0.5836361493947512
 30
0.0
 10
38.34348851122365
 20
0.5277254244958324
 30
0.0
  0
SPLINE
  5
154
330
1F
100
AcDbEntity
  8
외형선
  6
Continuous
 62
     1
370
    15
100
AcDbSpline
210
0.0
220
0.0
230
1.0
 70
     8
 71
     3
 72
    14
 73
    10
 74
     0
 42
0.000000001
 43
0.00000001
 40
0.0
 40
0.0
 40
0.0
 40
0.0
 40
0.25
 40
0.25
 40
0.5
 40
0.5
 40
0.75
 40
0.75
 40
1.0
 40
1.0
 40
1.0
 40
1.0
 10
38.34348851122365
 20
0.5277254244958315
 30
0.0
 10
38.42596492307977
 20
0.4727857771450494
 30
0.0
 10
38.5116143597693
 20
0.4121876741346431
 30
0.0
 10
38.68936460152335
 20
0.2829643842117845
 30
0.0
 10
38.7811466861595
 20
0.214502164591361
 30
0.0
 10
38.96416518631057
 20
0.0767505129447871
 30
0.0
 10
39.05343264604266
 20
0.0089704836304333
 30
0.0
 10
39.22813853916862
 20
-0.123667022921126
 30
0.0
 10
39.31426002621764
 20
-0.1890370989644685
 30
0.0
 10
39.39442059015807
 20
-0.2498496258405624
 30
0.0
  0
SPLINE
  5
155
330
1F
100
AcDbEntity
  8
외형선
  6
Continuous
 62
     1
370
    15
100
AcDbSpline
210
0.0
220
0.0
230
1.0
 70
     8
 71
     3
 72
     8
 73
     4
 74
     0
 42
0.000000001
 43
0.00000001
 40
0.0
 40
0.0
 40
0.0
 40
0.0
 40
1.0
 40
1.0
 40
1.0
 40
1.0
 10
39.39442059015807
 20
-0.2498496258405681
 30
0.0
 10
39.47606248706264
 20
-0.3117859422244388
 30
0.0
 10
39.57911767211475
 20
-0.387021640560366
 30
0.0
 10
39.66253552804275
 20
-0.4486332025119845
 30
0.0
  0
SPLINE
  5
156
330
1F
100
AcDbEntity
  8
외형선
  6
Continuous
 62
     1
370
    15
100
AcDbSpline
210
0.0
220
0.0
230
1.0
 70
     8
 71
     3
 72
     8
 73
     4
 74
     0
 42
0.000000001
 43
0.00000001
 40
0.0
 40
0.0
 40
0.0
 40
0.0
 40
1.0
 40
1.0
 40
1.0
 40
1.0
 10
39.66253552804275
 20
-0.4486332025119941
 30
0.0
 10
39.79284931969064
 20
-0.5448816154919912
 30
0.0
 10
39.93569276851932
 20
-0.6547729909291994
 30
0.0
 10
40.08089766740988
 20
-0.7648575770318701
 30
0.0
  0
SPLINE
  5
157
330
1F
100
AcDbEntity
  8
외형선
  6
Continuous
 62
     1
370
    15
100
AcDbSpline
210
0.0
220
0.0
230
1.0
 70
     8
 71
     3
 72
     8
 73
     4
 74
     0
 42
0.000000001
 43
0.00000001
 40
0.0
 40
0.0
 40
0.0
 40
0.0
 40
1.0
 40
1.0
 40
1.0
 40
1.0
 10
40.08089762133437
 20
-0.7648575426616273
 30
0.0
 10
40.22725649520179
 20
-0.8740340004557107
 30
0.0
 10
40.37031730585821
 20
-0.9778274904653329
 30
0.0
 10
40.49869879716869
 20
-1.066896545878447
 30
0.0
  0
SPLINE
  5
158
330
1F
100
AcDbEntity
  8
외형선
  6
Continuous
 62
     1
370
    15
100
AcDbSpline
210
0.0
220
0.0
230
1.0
 70
     8
 71
     3
 72
     8
 73
     4
 74
     0
 42
0.000000001
 43
0.00000001
 40
0.0
 40
0.0
 40
0.0
 40
0.0
 40
1.0
 40
1.0
 40
1.0
 40
1.0
 10
40.4986987971687
 20
-1.066896545878455
 30
0.0
 10
40.57987509751315
 20
-1.123215383740568
 30
0.0
 10
40.68290403054473
 20
-1.197589312538401
 30
0.0
 10
40.76676011721293
 20
-1.263660513221745
 30
0.0
  0
SPLINE
  5
159
330
1F
100
AcDbEntity
  8
외형선
  6
Continuous
 62
     1
370
    15
100
AcDbSpline
210
0.0
220
0.0
230
1.0
 70
     8
 71
     3
 72
     8
 73
     4
 74
     0
 42
0.000000001
 43
0.00000001
 40
0.0
 40
0.0
 40
0.0
 40
0.0
 40
1.0
 40
1.0
 40
1.0
 40
1.0
 10
41.81711379304497
 20
-2.02869009222875
 30
0.0
 10
41.89873023315662
 20
-2.078775294905927
 30
0.0
 10
42.00176920118631
 20
-2.151889019045663
 30
0.0
 10
42.08516572919574
 20
-2.22258204382655
 30
0.0
  0
SPLINE
  5
15A
330
1F
100
AcDbEntity
  8
외형선
  6
Continuous
 62
     1
370
    15
100
AcDbSpline
210
0.0
220
0.0
230
1.0
 70
     8
 71
     3
 72
     8
 73
     4
 74
     0
 42
0.000000001
 43
0.00000001
 40
0.0
 40
0.0
 40
0.0
 40
0.0
 40
1.0
 40
1.0
 40
1.0
 40
1.0
 10
42.92133566209533
 20
-2.820078403476763
 30
0.0
 10
43.00253536535
 20
-2.863550840009891
 30
0.0
 10
43.10558488548098
 20
-2.934455922452964
 30
0.0
 10
43.18946887147498
 20
-3.008342505714813
 30
0.0
  0
SPLINE
  5
15B
330
1F
100
AcDbEntity
  8
외형선
  6
Continuous
 62
     1
370
    15
100
AcDbSpline
210
0.0
220
0.0
230
1.0
 70
     8
 71
     3
 72
     9
 73
     5
 74
     0
 42
0.000000001
 43
0.00000001
 40
0.0
 40
0.0
 40
0.0
 40
0.0
 40
0.2661151485014159
 40
1.0
 40
1.0
 40
1.0
 40
1.0
 10
44.69352983452978
 20
-4.07799842475402
 30
0.0
 10
44.63555926249068
 20
-4.093931490800038
 30
0.0
 10
44.41771908178107
 20
-4.153804317039895
 30
0.0
 10
44.17752822462434
 20
-4.25953060517128
 30
0.0
 10
44.00125579308853
 20
-4.337121526436078
 30
0.0
  0
LINE
  5
15C
330
1F
100
AcDbEntity
  8
외형선
  6
Continuous
 62
     1
370
    15
100
AcDbLine
 10
47.2373153285078
 20
-5.162747278445006
 30
0.0
 11
47.1638741710119
 21
-5.148743045437286
 31
0.0
  0
SPLINE
  5
15D
330
1F
100
AcDbEntity
  8
외형선
  6
Continuous
 62
     1
370
    15
100
AcDbSpline
210
0.0
220
0.0
230
1.0
 70
     8
 71
     3
 72
     9
 73
     5
 74
     0
 42
0.000000001
 43
0.00000001
 40
0.0
 40
0.0
 40
0.0
 40
0.0
 40
0.165225422867511
 40
1.0
 40
1.0
 40
1.0
 40
1.0
 10
45.93580116763823
 20
-4.914566174100555
 30
0.0
 10
45.82716579610124
 20
-4.894987592150557
 30
0.0
 10
45.16966787809555
 20
-4.776491409116435
 30
0.0
 10
44.53285281668724
 20
-4.537023363201473
 30
0.0
 10
44.0012557930885
 20
-4.337121526436066
 30
0.0
  0
LINE
  5
15E
330
1F
100
AcDbEntity
  8
외형선
  6
Continuous
 62
     1
370
    15
100
AcDbLine
 10
47.2373153285078
 20
-8.58983604827177
 30
0.0
 11
47.2373153285078
 21
-5.162747278445005
 31
0.0
  0
SPLINE
  5
15F
330
1F
100
AcDbEntity
  8
외형선
  6
Continuous
 62
     1
370
    15
100
AcDbSpline
210
0.0
220
0.0
230
1.0
 70
     8
 71
     3
 72
     8
 73
     4
 74
     0
 42
0.000000001
 43
0.00000001
 40
0.000121561327901
 40
0.000121561327901
 40
0.000121561327901
 40
0.000121561327901
 40
0.000315821284586
 40
0.000315821284586
 40
0.000315821284586
 40
0.000315821284586
 10
47.11401687100949
 20
-8.736598861121621
 30
0.0
 10
47.15496607718061
 20
-8.687701994950915
 30
0.0
 10
47.19606713650847
 20
-8.63877339458881
 30
0.0
 10
47.2373153285078
 20
-8.589836048271769
 30
0.0
  0
SPLINE
  5
160
330
1F
100
AcDbEntity
  8
외형선
  6
Continuous
 62
     1
370
    15
100
AcDbSpline
210
0.0
220
0.0
230
1.0
 70
     8
 71
     3
 72
     8
 73
     4
 74
     0
 42
0.000000001
 43
0.00000001
 40
0.0
 40
0.0
 40
0.0
 40
0.0
 40
1.0
 40
1.0
 40
1.0
 40
1.0
 10
47.11401687100951
 20
-8.736598861121646
 30
0.0
 10
47.02573540018427
 20
-8.797976036006673
 30
0.0
 10
46.93385485936962
 20
-8.847022308350466
 30
0.0
 10
46.8410569403456
 20
-8.882874354191149
 30
0.0
  0
SPLINE
  5
161
330
1F
100
AcDbEntity
  8
외형선
  6
Continuous
 62
     1
370
    15
100
AcDbSpline
210
0.0
220
0.0
230
1.0
 70
     8
 71
     3
 72
     8
 73
     4
 74
     0
 42
0.000000001
 43
0.00000001
 40
0.0
 40
0.0
 40
0.0
 40
0.0
 40
1.0
 40
1.0
 40
1.0
 40
1.0
 10
46.84105694062449
 20
-8.882874354143972
 30
0.0
 10
46.69466064276551
 20
-8.905997398582459
 30
0.0
 10
46.55157439995371
 20
-8.89432888218532
 30
0.0
 10
46.42316663352746
 20
-8.844507218542516
 30
0.0
  0
SPLINE
  5
162
330
1F
100
AcDbEntity
  8
외형선
  6
Continuous
 62
     1
370
    15
100
AcDbSpline
210
0.0
220
0.0
230
1.0
 70
     8
 71
     3
 72
     8
 73
     4
 74
     0
 42
0.000000001
 43
0.00000001
 40
0.0
 40
0.0
 40
0.0
 40
0.0
 40
1.0
 40
1.0
 40
1.0
 40
1.0
 10
46.42316663352746
 20
-8.844507218542518
 30
0.0
 10
46.34195426818806
 20
-8.812997168471675
 30
0.0
 10
46.23889239098089
 20
-8.835250097584526
 30
0.0
 10
46.15500253165183
 20
-8.906516005777927
 30
0.0
  0
SPLINE
  5
163
330
1F
100
AcDbEntity
  8
외형선
  6
Continuous
 62
     1
370
    15
100
AcDbSpline
210
0.0
220
0.0
230
1.0
 70
     8
 71
     3
 72
    14
 73
    10
 74
     0
 42
0.000000001
 43
0.00000001
 40
0.0
 40
0.0
 40
0.0
 40
0.0
 40
0.25
 40
0.25
 40
0.5
 40
0.5
 40
0.75
 40
0.75
 40
1.0
 40
1.0
 40
1.0
 40
1.0
 10
46.15500253165181
 20
-8.906516005777922
 30
0.0
 10
46.07251546683935
 20
-8.976590215403307
 30
0.0
 10
45.98685073270574
 20
-9.032824726590539
 30
0.0
 10
45.80906406091089
 20
-9.121516395088385
 30
0.0
 10
45.71726477857359
 20
-9.153369554951821
 30
0.0
 10
45.53422515302536
 20
-9.189896864159643
 30
0.0
 10
45.44494636869037
 20
-9.194512249738283
 30
0.0
 10
45.27021372400463
 20
-9.176713091099312
 30
0.0
 10
45.18408080962629
 20
-9.15378002083548
 30
0.0
 10
45.10389996506103
 20
-9.116092920776241
 30
0.0
  0
SPLINE
  5
164
330
1F
100
AcDbEntity
  8
외형선
  6
Continuous
 62
     1
370
    15
100
AcDbSpline
210
0.0
220
0.0
230
1.0
 70
     8
 71
     3
 72
     8
 73
     4
 74
     0
 42
0.000000001
 43
0.00000001
 40
0.0
 40
0.0
 40
0.0
 40
0.0
 40
1.0
 40
1.0
 40
1.0
 40
1.0
 10
45.10389996506103
 20
-9.116092920776246
 30
0.0
 10
45.02218263253233
 20
-9.077683631072684
 30
0.0
 10
44.91906427288789
 20
-9.093303576695241
 30
0.0
 10
44.83556827779325
 20
-9.161069192410652
 30
0.0
  0
SPLINE
  5
165
330
1F
100
AcDbEntity
  8
외형선
  6
Continuous
 62
     1
370
    15
100
AcDbSpline
210
0.0
220
0.0
230
1.0
 70
     8
 71
     3
 72
     8
 73
     4
 74
     0
 42
0.000000001
 43
0.00000001
 40
0.0
 40
0.0
 40
0.0
 40
0.0
 40
1.0
 40
1.0
 40
1.0
 40
1.0
 10
44.83556827779326
 20
-9.161069192410649
 30
0.0
 10
44.70511247032547
 20
-9.266947541506143
 30
0.0
 10
44.56209488454761
 20
-9.33838654126034
 30
0.0
 10
44.41673139315037
 20
-9.375356165397257
 30
0.0
  0
SPLINE
  5
166
330
1F
100
AcDbEntity
  8
외형선
  6
Continuous
 62
     1
370
    15
100
AcDbSpline
210
0.0
220
0.0
230
1.0
 70
     8
 71
     3
 72
     8
 73
     4
 74
     0
 42
0.000000001
 43
0.00000001
 40
0.0
 40
0.0
 40
0.0
 40
0.0
 40
1.0
 40
1.0
 40
1.0
 40
1.0
 10
44.41673139337973
 20
-9.375356165394521
 30
0.0
 10
44.27019115111548
 20
-9.3771127627616
 30
0.0
 10
44.12694456568701
 20
-9.342666737269502
 30
0.0
 10
43.9983753767486
 20
-9.270309137178812
 30
0.0
  0
SPLINE
  5
167
330
1F
100
AcDbEntity
  8
외형선
  6
Continuous
 62
     1
370
    15
100
AcDbSpline
210
0.0
220
0.0
230
1.0
 70
     8
 71
     3
 72
     8
 73
     4
 74
     0
 42
0.000000001
 43
0.00000001
 40
0.0
 40
0.0
 40
0.0
 40
0.0
 40
1.0
 40
1.0
 40
1.0
 40
1.0
 10
43.9983753767483
 20
-9.270309137178645
 30
0.0
 10
43.91709287038298
 20
-9.224564062962077
 30
0.0
 10
43.81397332986256
 20
-9.23269938322411
 30
0.0
 10
43.73001608519129
 20
-9.295244019985658
 30
0.0
  0
SPLINE
  5
168
330
1F
100
AcDbEntity
  8
외형선
  6
Continuous
 62
     1
370
    15
100
AcDbSpline
210
0.0
220
0.0
230
1.0
 70
     8
 71
     3
 72
    14
 73
    10
 74
     0
 42
0.000000001
 43
0.00000001
 40
0.0
 40
0.0
 40
0.0
 40
0.0
 40
0.25
 40
0.25
 40
0.5
 40
0.5
 40
0.75
 40
0.75
 40
1.0
 40
1.0
 40
1.0
 40
1.0
 10
43.73001608519129
 20
-9.295244019985658
 30
0.0
 10
43.64752158641794
 20
-9.356698972215304
 30
0.0
 10
43.5618551257529
 20
-9.402770272654935
 30
0.0
 10
43.38407296528126
 20
-9.468810395628955
 30
0.0
 10
43.29227453561915
 20
-9.488191316680478
 30
0.0
 10
43.10922275721284
 20
-9.498743522382478
 30
0.0
 10
43.01993771713267
 20
-9.49014946744308
 30
0.0
 10
42.84519520290913
 20
-9.445621997716652
 30
0.0
 10
42.75905532977741
 20
-9.409051123910364
 30
0.0
 10
42.67887675450336
 20
-9.358133519966135
 30
0.0
  0
SPLINE
  5
169
330
1F
100
AcDbEntity
  8
외형선
  6
Continuous
 62
     1
370
    15
100
AcDbSpline
210
0.0
220
0.0
230
1.0
 70
     8
 71
     3
 72
     8
 73
     4
 74
     0
 42
0.000000001
 43
0.00000001
 40
0.0
 40
0.0
 40
0.0
 40
0.0
 40
1.0
 40
1.0
 40
1.0
 40
1.0
 10
42.67887675450338
 20
-9.35813351996614
 30
0.0
 10
42.59722104939145
 20
-9.306277861038978
 30
0.0
 10
42.49415346429953
 20
-9.307535156591427
 30
0.0
 10
42.41072190148827
 20
-9.365300049542409
 30
0.0
  0
SPLINE
  5
16A
330
1F
100
AcDbEntity
  8
외형선
  6
Continuous
 62
     1
370
    15
100
AcDbSpline
210
0.0
220
0.0
230
1.0
 70
     8
 71
     3
 72
     8
 73
     4
 74
     0
 42
0.000000001
 43
0.00000001
 40
0.0
 40
0.0
 40
0.0
 40
0.0
 40
1.0
 40
1.0
 40
1.0
 40
1.0
 10
42.41072190148824
 20
-9.365300049542414
 30
0.0
 10
42.2803875493306
 20
-9.455538679223283
 30
0.0
 10
42.13752931682618
 20
-9.507589014971185
 30
0.0
 10
41.99231014722365
 20
-9.524025379646845
 30
0.0
  0
SPLINE
  5
16B
330
1F
100
AcDbEntity
  8
외형선
  6
Continuous
 62
     1
370
    15
100
AcDbSpline
210
0.0
220
0.0
230
1.0
 70
     8
 71
     3
 72
     8
 73
     4
 74
     0
 42
0.000000001
 43
0.00000001
 40
0.0
 40
0.0
 40
0.0
 40
0.0
 40
1.0
 40
1.0
 40
1.0
 40
1.0
 10
41.99231014745267
 20
-9.524025379677743
 30
0.0
 10
41.84593992560048
 20
-9.504293335166938
 30
0.0
 10
41.70286615115942
 20
-9.448251774135096
 30
0.0
 10
41.574471249856
 20
-9.356025423575348
 30
0.0
  0
SPLINE
  5
16C
330
1F
100
AcDbEntity
  8
외형선
  6
Continuous
 62
     1
370
    15
100
AcDbSpline
210
0.0
220
0.0
230
1.0
 70
     8
 71
     3
 72
     8
 73
     4
 74
     0
 42
0.000000001
 43
0.00000001
 40
0.0
 40
0.0
 40
0.0
 40
0.0
 40
1.0
 40
1.0
 40
1.0
 40
1.0
 10
41.574471249856
 20
-9.356025423575344
 30
0.0
 10
41.49328899276639
 20
-9.29771202307757
 30
0.0
 10
41.39025518642185
 20
-9.291447373002482
 30
0.0
 10
41.306393182673
 20
-9.342946472171493
 30
0.0
  0
SPLINE
  5
16D
330
1F
100
AcDbEntity
  8
외형선
  6
Continuous
 62
     1
370
    15
100
AcDbSpline
210
0.0
220
0.0
230
1.0
 70
     8
 71
     3
 72
    14
 73
    10
 74
     0
 42
0.000000001
 43
0.00000001
 40
0.0
 40
0.0
 40
0.0
 40
0.0
 40
0.25
 40
0.25
 40
0.5
 40
0.5
 40
0.75
 40
0.75
 40
1.0
 40
1.0
 40
1.0
 40
1.0
 10
41.30639318267299
 20
-9.342946472171485
 30
0.0
 10
41.22397521835942
 20
-9.393558796320141
 30
0.0
 10
41.13837936726079
 20
-9.427799121029125
 30
0.0
 10
40.9607253668918
 20
-9.468790435718093
 30
0.0
 10
40.86898997524109
 20
-9.474986640408224
 30
0.0
 10
40.68606118624484
 20
-9.459171651300457
 30
0.0
 10
40.59683884639568
 20
-9.437682494157913
 30
0.0
 10
40.42222333014921
 20
-9.368091538320394
 30
0.0
 10
40.3361451027644
 20
-9.319256556141017
 30
0.0
 10
40.25602564226148
 20
-9.25703843304967
 30
0.0
  0
SPLINE
  5
16E
330
1F
100
AcDbEntity
  8
외형선
  6
Continuous
 62
     1
370
    15
100
AcDbSpline
210
0.0
220
0.0
230
1.0
 70
     8
 71
     3
 72
     8
 73
     4
 74
     0
 42
0.000000001
 43
0.00000001
 40
0.0
 40
0.0
 40
0.0
 40
0.0
 40
1.0
 40
1.0
 40
1.0
 40
1.0
 10
40.25602564226148
 20
-9.257038433049676
 30
0.0
 10
40.17441271524856
 20
-9.19366053326276
 30
0.0
 10
40.07137633402541
 20
-9.180560093661693
 30
0.0
 10
39.98798339344658
 20
-9.226234332605719
 30
0.0
  0
SPLINE
  5
16F
330
1F
100
AcDbEntity
  8
외형선
  6
Continuous
 62
     1
370
    15
100
AcDbSpline
210
0.0
220
0.0
230
1.0
 70
     8
 71
     3
 72
     8
 73
     4
 74
     0
 42
0.000000001
 43
0.00000001
 40
0.0
 40
0.0
 40
0.0
 40
0.0
 40
1.0
 40
1.0
 40
1.0
 40
1.0
 10
39.9879833934466
 20
-9.226234332605719
 30
0.0
 10
39.85767234584967
 20
-9.297605576786305
 30
0.0
 10
39.71485283982852
 20
-9.328367943512118
 30
0.0
 10
39.56968399952411
 20
-9.32368896883109
 30
0.0
  0
SPLINE
  5
170
330
1F
100
AcDbEntity
  8
외형선
  6
Continuous
 62
     1
370
    15
100
AcDbSpline
210
0.0
220
0.0
230
1.0
 70
     8
 71
     3
 72
     8
 73
     4
 74
     0
 42
0.000000001
 43
0.00000001
 40
0.0
 40
0.0
 40
0.0
 40
0.0
 40
1.0
 40
1.0
 40
1.0
 40
1.0
 10
39.56968399975313
 20
-9.323688968894444
 30
0.0
 10
39.42333100175011
 20
-9.283218085320733
 30
0.0
 10
39.28027081129175
 20
-9.207670671270145
 30
0.0
 10
39.1518807740019
 20
-9.098965336458871
 30
0.0
  0
SPLINE
  5
171
330
1F
100
AcDbEntity
  8
외형선
  6
Continuous
 62
     1
370
    15
100
AcDbSpline
210
0.0
220
0.0
230
1.0
 70
     8
 71
     3
 72
     8
 73
     4
 74
     0
 42
0.000000001
 43
0.00000001
 40
0.0
 40
0.0
 40
0.0
 40
0.0
 40
1.0
 40
1.0
 40
1.0
 40
1.0
 10
39.1518807740019
 20
-9.098965336458866
 30
0.0
 10
39.07069245921919
 20
-9.030224777397477
 30
0.0
 10
38.96765303806655
 20
-9.009795857643281
 30
0.0
 10
38.88378038853327
 20
-9.048381704306836
 30
0.0
  0
SPLINE
  5
172
330
1F
100
AcDbEntity
  8
외형선
  6
Continuous
 62
     1
370
    15
100
AcDbSpline
210
0.0
220
0.0
230
1.0
 70
     8
 71
     3
 72
    14
 73
    10
 74
     0
 42
0.000000001
 43
0.00000001
 40
0.0
 40
0.0
 40
0.0
 40
0.0
 40
0.25
 40
0.25
 40
0.5
 40
0.5
 40
0.75
 40
0.75
 40
1.0
 40
1.0
 40
1.0
 40
1.0
 10
38.88378038853328
 20
-9.048381704306827
 30
0.0
 10
38.80133458238083
 20
-9.086311127688038
 30
0.0
 10
38.71570909265625
 20
-9.107466593406972
 30
0.0
 10
38.53799287880939
 20
-9.12190511620846
 30
0.0
 10
38.44622433146567
 20
-9.11468848438465
 30
0.0
 10
38.26323035975772
 20
-9.073088717530453
 30
0.0
 10
38.17397185717387
 20
-9.039494795698955
 30
0.0
 10
37.99927693461964
 20
-8.947388229435916
 30
0.0
 10
37.91315796328478
 20
-8.88807687939137
 30
0.0
 10
37.83299336130516
 20
-8.816827032386565
 30
0.0
  0
SPLINE
  5
173
330
1F
100
AcDbEntity
  8
외형선
  6
Continuous
 62
     1
370
    15
100
AcDbSpline
210
0.0
220
0.0
230
1.0
 70
     8
 71
     3
 72
     8
 73
     4
 74
     0
 42
0.000000001
 43
0.00000001
 40
0.0
 40
0.0
 40
0.0
 40
0.0
 40
1.0
 40
1.0
 40
1.0
 40
1.0
 10
37.83299336130516
 20
-8.816827032386568
 30
0.0
 10
37.75131667494445
 20
-8.744233253295151
 30
0.0
 10
37.64821984912606
 20
-8.717242739815227
 30
0.0
 10
37.56475918669545
 20
-8.749152662888354
 30
0.0
  0
SPLINE
  5
174
330
1F
100
AcDbEntity
  8
외형선
  6
Continuous
 62
     1
370
    15
100
AcDbSpline
210
0.0
220
0.0
230
1.0
 70
     8
 71
     3
 72
     8
 73
     4
 74
     0
 42
0.000000001
 43
0.00000001
 40
0.0
 40
0.0
 40
0.0
 40
0.0
 40
1.0
 40
1.0
 40
1.0
 40
1.0
 10
37.56475918669542
 20
-8.749152662888367
 30
0.0
 10
37.43431314339565
 20
-8.799026736322093
 30
0.0
 10
37.29136632470377
 20
-8.807329299615498
 30
0.0
 10
37.14610479396995
 20
-8.781652788877924
 30
0.0
  0
SPLINE
  5
175
330
1F
100
AcDbEntity
  8
외형선
  6
Continuous
 62
     1
370
    15
100
AcDbSpline
210
0.0
220
0.0
230
1.0
 70
     8
 71
     3
 72
     8
 73
     4
 74
     0
 42
0.000000001
 43
0.00000001
 40
0.0
 40
0.0
 40
0.0
 40
0.0
 40
1.0
 40
1.0
 40
1.0
 40
1.0
 10
37.14610479419918
 20
-8.781652788971494
 30
0.0
 10
36.99961506995533
 20
-8.72186365045933
 30
0.0
 10
36.85640846670512
 20
-8.629522612762255
 30
0.0
 10
36.72785338011541
 20
-8.50824231437055
 30
0.0
  0
SPLINE
  5
176
330
1F
100
AcDbEntity
  8
외형선
  6
Continuous
 62
     1
370
    15
100
AcDbSpline
210
0.0
220
0.0
230
1.0
 70
     8
 71
     3
 72
     8
 73
     4
 74
     0
 42
0.000000001
 43
0.00000001
 40
0.0
 40
0.0
 40
0.0
 40
0.0
 40
1.0
 40
1.0
 40
1.0
 40
1.0
 10
36.72785338011539
 20
-8.508242314370525
 30
0.0
 10
36.64655278968216
 20
-8.431542433185477
 30
0.0
 10
36.5434164687603
 20
-8.397650581911185
 30
0.0
 10
36.45942753787035
 20
-8.421868773630672
 30
0.0
  0
SPLINE
  5
177
330
1F
100
AcDbEntity
  8
외형선
  6
Continuous
 62
     1
370
    15
100
AcDbSpline
210
0.0
220
0.0
230
1.0
 70
     8
 71
     3
 72
    14
 73
    10
 74
     0
 42
0.000000001
 43
0.00000001
 40
0.0
 40
0.0
 40
0.0
 40
0.0
 40
0.25
 40
0.25
 40
0.5
 40
0.5
 40
0.75
 40
0.75
 40
1.0
 40
1.0
 40
1.0
 40
1.0
 10
36.45942753787035
 20
-8.42186877363067
 30
0.0
 10
36.37690896083433
 20
-8.445662989105285
 30
0.0
 10
36.29121868477113
 20
-8.452914988880499
 30
0.0
 10
36.11338779371161
 20
-8.440218425588254
 30
0.0
 10
36.02156009837221
 20
-8.419842770086104
 30
0.0
 10
35.83843648558521
 20
-8.353961033683268
 30
0.0
 10
35.74910980804864
 20
-8.309482635729282
 30
0.0
 10
35.57427538305588
 20
-8.198191714590472
 30
0.0
 10
35.48808525558729
 20
-8.130542601121192
 30
0.0
 10
35.4078574821139
 20
-8.052818898489454
 30
0.0
  0
SPLINE
  5
178
330
1F
100
AcDbEntity
  8
외형선
  6
Continuous
 62
     1
370
    15
100
AcDbSpline
210
0.0
220
0.0
230
1.0
 70
     8
 71
     3
 72
     8
 73
     4
 74
     0
 42
0.000000001
 43
0.00000001
 40
0.0
 40
0.0
 40
0.0
 40
0.0
 40
1.0
 40
1.0
 40
1.0
 40
1.0
 10
35.4078574821138
 20
-8.052818898489365
 30
0.0
 10
35.32617543271262
 20
-7.973686310818654
 30
0.0
 10
35.22307226753516
 20
-7.933782653775103
 30
0.0
 10
35.13960911759239
 20
-7.950763493451954
 30
0.0
  0
SPLINE
  5
179
330
1F
100
AcDbEntity
  8
외형선
  6
Continuous
 62
     1
370
    15
100
AcDbSpline
210
0.0
220
0.0
230
1.0
 70
     8
 71
     3
 72
     8
 73
     4
 74
     0
 42
0.000000001
 43
0.00000001
 40
0.0
 40
0.0
 40
0.0
 40
0.0
 40
1.0
 40
1.0
 40
1.0
 40
1.0
 10
35.13960911759239
 20
-7.950763493451967
 30
0.0
 10
35.00919573656311
 20
-7.977296504924609
 30
0.0
 10
34.86627685578848
 20
-7.962905545131273
 30
0.0
 10
34.72108318478077
 20
-7.91719506819675
 30
0.0
  0
SPLINE
  5
17A
330
1F
100
AcDbEntity
  8
외형선
  6
Continuous
 62
     1
370
    15
100
AcDbSpline
210
0.0
220
0.0
230
1.0
 70
     8
 71
     3
 72
     8
 73
     4
 74
     0
 42
0.000000001
 43
0.00000001
 40
0.0
 40
0.0
 40
0.0
 40
0.0
 40
1.0
 40
1.0
 40
1.0
 40
1.0
 10
34.72108318500921
 20
-7.91719506831687
 30
0.0
 10
34.57470287965552
 20
-7.840323617331897
 30
0.0
 10
34.43159914519764
 20
-7.734625912209575
 30
0.0
 10
34.30316146605462
 20
-7.605284281104725
 30
0.0
  0
SPLINE
  5
17B
330
1F
100
AcDbEntity
  8
외형선
  6
Continuous
 62
     1
370
    15
100
AcDbSpline
210
0.0
220
0.0
230
1.0
 70
     8
 71
     3
 72
     8
 73
     4
 74
     0
 42
0.000000001
 43
0.00000001
 40
0.0
 40
0.0
 40
0.0
 40
0.0
 40
1.0
 40
1.0
 40
1.0
 40
1.0
 10
34.30316146605462
 20
-7.605284281104725
 30
0.0
 10
34.22196553825201
 20
-7.523516891572834
 30
0.0
 10
34.1189230117201
 20
-7.477446429431152
 30
0.0
 10
34.03504055657056
 20
-7.486462819059343
 30
0.0
  0
SPLINE
  5
17C
330
1F
100
AcDbEntity
  8
외형선
  6
Continuous
 62
     1
370
    15
100
AcDbSpline
210
0.0
220
0.0
230
1.0
 70
     8
 71
     3
 72
    14
 73
    10
 74
     0
 42
0.000000001
 43
0.00000001
 40
0.0
 40
0.0
 40
0.0
 40
0.0
 40
0.25
 40
0.25
 40
0.5
 40
0.5
 40
0.75
 40
0.75
 40
1.0
 40
1.0
 40
1.0
 40
1.0
 10
34.03504055657058
 20
-7.486462819059339
 30
0.0
 10
33.95262669210753
 20
-7.495321352246513
 30
0.0
 10
33.86703476926773
 20
-7.488474947588718
 30
0.0
 10
33.68938484807666
 20
-7.449220570297636
 30
0.0
 10
33.5976468402426
 20
-7.416476077635971
 30
0.0
 10
33.41469861815561
 20
-7.328813721622256
 30
0.0
 10
33.32546211752827
 20
-7.275127136282023
 30
0.0
 10
33.15081191399396
 20
-7.148860973314025
 30
0.0
 10
33.06471173745201
 20
-7.075433936881438
 30
0.0
 10
32.98457171617824
 20
-6.994194194631213
 30
0.0
  0
SPLINE
  5
17D
330
1F
100
AcDbEntity
  8
외형선
  6
Continuous
 62
     1
370
    15
100
AcDbSpline
210
0.0
220
0.0
230
1.0
 70
     8
 71
     3
 72
     8
 73
     4
 74
     0
 42
0.000000001
 43
0.00000001
 40
0.0
 40
0.0
 40
0.0
 40
0.0
 40
1.0
 40
1.0
 40
1.0
 40
1.0
 10
32.98457171617825
 20
-6.994194194631237
 30
0.0
 10
32.90296177196251
 20
-6.911464358429998
 30
0.0
 10
32.79991583419014
 20
-6.86017553202513
 30
0.0
 10
32.71652055169912
 20
-6.861645016892981
 30
0.0
  0
SPLINE
  5
17E
330
1F
100
AcDbEntity
  8
외형선
  6
Continuous
 62
     1
370
    15
100
AcDbSpline
210
0.0
220
0.0
230
1.0
 70
     8
 71
     3
 72
     8
 73
     4
 74
     0
 42
0.000000001
 43
0.00000001
 40
0.0
 40
0.0
 40
0.0
 40
0.0
 40
1.0
 40
1.0
 40
1.0
 40
1.0
 10
32.71652055169915
 20
-6.861645016892985
 30
0.0
 10
32.58619087676516
 20
-6.863941519517922
 30
0.0
 10
32.44331681770323
 20
-6.827454306041277
 30
0.0
 10
32.29823186464601
 20
-6.763419521590223
 30
0.0
  0
SPLINE
  5
17F
330
1F
100
AcDbEntity
  8
외형선
  6
Continuous
 62
     1
370
    15
100
AcDbSpline
210
0.0
220
0.0
230
1.0
 70
     8
 71
     3
 72
     8
 73
     4
 74
     0
 42
0.000000001
 43
0.00000001
 40
0.0
 40
0.0
 40
0.0
 40
0.0
 40
1.0
 40
1.0
 40
1.0
 40
1.0
 10
32.29823186487501
 20
-6.763419521732898
 30
0.0
 10
32.15191216680785
 20
-6.67227667330394
 30
0.0
 10
32.00886686023855
 20
-6.557081945244425
 30
0.0
 10
31.8804811410528
 20
-6.42442335590125
 30
0.0
  0
SPLINE
  5
180
330
1F
100
AcDbEntity
  8
외형선
  6
Continuous
 62
     1
370
    15
100
AcDbSpline
210
0.0
220
0.0
230
1.0
 70
     8
 71
     3
 72
     8
 73
     4
 74
     0
 42
0.000000001
 43
0.00000001
 40
0.0
 40
0.0
 40
0.0
 40
0.0
 40
1.0
 40
1.0
 40
1.0
 40
1.0
 10
31.88048114105281
 20
-6.424423355901244
 30
0.0
 10
31.79930866646977
 20
-6.340549339071527
 30
0.0
 10
31.69628662377904
 20
-6.283986500826047
 30
0.0
 10
31.61242282587121
 20
-6.277453787308066
 30
0.0
  0
SPLINE
  5
181
330
1F
100
AcDbEntity
  8
외형선
  6
Continuous
 62
     1
370
    15
100
AcDbSpline
210
0.0
220
0.0
230
1.0
 70
     8
 71
     3
 72
    14
 73
    10
 74
     0
 42
0.000000001
 43
0.00000001
 40
0.0
 40
0.0
 40
0.0
 40
0.0
 40
0.25
 40
0.25
 40
0.5
 40
0.5
 40
0.75
 40
0.75
 40
1.0
 40
1.0
 40
1.0
 40
1.0
 10
31.6124228258712
 20
-6.277453787308068
 30
0.0
 10
31.53000992253322
 20
-6.271034093696248
 30
0.0
 10
31.44441623050868
 20
-6.250308896160574
 30
0.0
 10
31.26675738738711
 20
-6.185874189910899
 30
0.0
 10
31.17501324136443
 20
-6.141929659011936
 30
0.0
 10
30.99205275982913
 20
-6.035641156776771
 30
0.0
 10
30.90280773755208
 20
-5.974683583323355
 30
0.0
 10
30.72813550528513
 20
-5.837996854793583
 30
0.0
 10
30.64202303322902
 20
-5.761445093040493
 30
0.0
 10
30.56186667394607
 20
-5.679619036228071
 30
0.0
  0
SPLINE
  5
182
330
1F
100
AcDbEntity
  8
외형선
  6
Continuous
 62
     1
370
    15
100
AcDbSpline
210
0.0
220
0.0
230
1.0
 70
     8
 71
     3
 72
     8
 73
     4
 74
     0
 42
0.000000001
 43
0.00000001
 40
0.0
 40
0.0
 40
0.0
 40
0.0
 40
1.0
 40
1.0
 40
1.0
 40
1.0
 10
30.56186667394606
 20
-5.679619036228073
 30
0.0
 10
30.48022241032288
 20
-5.596274081274997
 30
0.0
 10
30.37714208170506
 20
-5.535439056710371
 30
0.0
 10
30.29370838025233
 20
-5.52130939434839
 30
0.0
  0
SPLINE
  5
183
330
1F
100
AcDbEntity
  8
외형선
  6
Continuous
 62
     1
370
    15
100
AcDbSpline
210
0.0
220
0.0
230
1.0
 70
     8
 71
     3
 72
     8
 73
     4
 74
     0
 42
0.000000001
 43
0.00000001
 40
0.0
 40
0.0
 40
0.0
 40
0.0
 40
1.0
 40
1.0
 40
1.0
 40
1.0
 10
30.29370838025233
 20
-5.521309394348413
 30
0.0
 10
30.16330401004051
 20
-5.499225156330233
 30
0.0
 10
30.02031727863286
 20
-5.441922631700434
 30
0.0
 10
29.87518938832094
 20
-5.361836337230176
 30
0.0
  0
SPLINE
  5
184
330
1F
100
AcDbEntity
  8
외형선
  6
Continuous
 62
     1
370
    15
100
AcDbSpline
210
0.0
220
0.0
230
1.0
 70
     8
 71
     3
 72
     8
 73
     4
 74
     0
 42
0.000000001
 43
0.00000001
 40
0.0
 40
0.0
 40
0.0
 40
0.0
 40
1.0
 40
1.0
 40
1.0
 40
1.0
 10
29.8751893885501
 20
-5.361836337390081
 30
0.0
 10
29.72876707958473
 20
-5.259671638133699
 30
0.0
 10
29.58562860617143
 20
-5.139095410342903
 30
0.0
 10
29.45712445640847
 20
-5.007865230970785
 30
0.0
  0
SPLINE
  5
185
330
1F
100
AcDbEntity
  8
외형선
  6
Continuous
 62
     1
370
    15
100
AcDbSpline
210
0.0
220
0.0
230
1.0
 70
     8
 71
     3
 72
     8
 73
     4
 74
     0
 42
0.000000001
 43
0.00000001
 40
0.0
 40
0.0
 40
0.0
 40
0.0
 40
1.0
 40
1.0
 40
1.0
 40
1.0
 10
29.45712445640849
 20
-5.007865230970814
 30
0.0
 10
29.3758688648878
 20
-4.924885919641822
 30
0.0
 10
29.27277570921607
 20
-4.859838276168594
 30
0.0
 10
29.18882451967273
 20
-4.837928923239279
 30
0.0
  0
SPLINE
  5
186
330
1F
100
AcDbEntity
  8
외형선
  6
Continuous
 62
     1
370
    15
100
AcDbSpline
210
0.0
220
0.0
230
1.0
 70
     8
 71
     3
 72
    14
 73
    10
 74
     0
 42
0.000000001
 43
0.00000001
 40
0.0
 40
0.0
 40
0.0
 40
0.0
 40
0.25
 40
0.25
 40
0.5
 40
0.5
 40
0.75
 40
0.75
 40
1.0
 40
1.0
 40
1.0
 40
1.0
 10
29.18882451967272
 20
-4.83792892323927
 30
0.0
 10
29.10631565829462
 20
-4.816395985188458
 30
0.0
 10
29.02062799878831
 20
-4.782479079586654
 30
0.0
 10
28.84278724439455
 20
-4.695091271636773
 30
0.0
 10
28.75095030008997
 20
-4.641492788154625
 30
0.0
 10
28.56780453849253
 20
-4.520352569704792
 30
0.0
 10
28.47845943244625
 20
-4.454298543405997
 30
0.0
 10
28.30357559226856
 20
-4.312072006344863
 30
0.0
 10
28.21735623512878
 20
-4.235134164016886
 30
0.0
 10
28.13709633691519
 20
-4.155647629662449
 30
0.0
  0
SPLINE
  5
187
330
1F
100
AcDbEntity
  8
외형선
  6
Continuous
 62
     1
370
    15
100
AcDbSpline
210
0.0
220
0.0
230
1.0
 70
     8
 71
     3
 72
     8
 73
     4
 74
     0
 42
0.000000001
 43
0.00000001
 40
0.0
 40
0.0
 40
0.0
 40
0.0
 40
1.0
 40
1.0
 40
1.0
 40
1.0
 10
28.1370963369152
 20
-4.15564762966243
 30
0.0
 10
28.05537988371945
 20
-4.074718575317246
 30
0.0
 10
27.95223619444281
 20
-4.006527710649304
 30
0.0
 10
27.86873320407743
 20
-3.977284204748444
 30
0.0
  0
SPLINE
  5
188
330
1F
100
AcDbEntity
  8
외형선
  6
Continuous
 62
     1
370
    15
100
AcDbSpline
210
0.0
220
0.0
230
1.0
 70
     8
 71
     3
 72
     8
 73
     4
 74
     0
 42
0.000000001
 43
0.00000001
 40
0.0
 40
0.0
 40
0.0
 40
0.0
 40
1.0
 40
1.0
 40
1.0
 40
1.0
 10
27.86873320407706
 20
-3.977284204748507
 30
0.0
 10
27.73827020663058
 20
-3.931594877708119
 30
0.0
 10
27.59523287226028
 20
-3.855550882097639
 30
0.0
 10
27.45004691754849
 20
-3.762390124232186
 30
0.0
  0
SPLINE
  5
189
330
1F
100
AcDbEntity
  8
외형선
  6
Continuous
 62
     1
370
    15
100
AcDbSpline
210
0.0
220
0.0
230
1.0
 70
     8
 71
     3
 72
     8
 73
     4
 74
     0
 42
0.000000001
 43
0.00000001
 40
0.0
 40
0.0
 40
0.0
 40
0.0
 40
1.0
 40
1.0
 40
1.0
 40
1.0
 10
27.45004691782153
 20
-3.762390124435155
 30
0.0
 10
27.30359463976888
 20
-3.653041191890405
 30
0.0
 10
27.16049709961115
 20
-3.531522667584471
 30
0.0
 10
27.03200659283583
 20
-3.406598177806238
 30
0.0
  0
SPLINE
  5
18A
330
1F
100
AcDbEntity
  8
외형선
  6
Continuous
 62
     1
370
    15
100
AcDbSpline
210
0.0
220
0.0
230
1.0
 70
     8
 71
     3
 72
     8
 73
     4
 74
     0
 42
0.000000001
 43
0.00000001
 40
0.0
 40
0.0
 40
0.0
 40
0.0
 40
1.0
 40
1.0
 40
1.0
 40
1.0
 10
27.03200659283554
 20
-3.406598177805977
 30
0.0
 10
26.95078876557615
 20
-3.327634401524683
 30
0.0
 10
26.84773242697046
 20
-3.256534877860447
 30
0.0
 10
26.76382110530164
 20
-3.220112883409305
 30
0.0
  0
SPLINE
  5
18B
330
1F
100
AcDbEntity
  8
외형선
  6
Continuous
 62
     1
370
    15
100
AcDbSpline
210
0.0
220
0.0
230
1.0
 70
     8
 71
     3
 72
    14
 73
    10
 74
     0
 42
0.000000001
 43
0.00000001
 40
0.0
 40
0.0
 40
0.0
 40
0.0
 40
0.25
 40
0.25
 40
0.5
 40
0.5
 40
0.75
 40
0.75
 40
1.0
 40
1.0
 40
1.0
 40
1.0
 10
26.76382110530161
 20
-3.220112883409273
 30
0.0
 10
26.68140300467521
 20
-3.184339026628225
 30
0.0
 10
26.59580757125483
 20
-3.138584272213175
 30
0.0
 10
26.41814862373078
 20
-3.031677487135285
 30
0.0
 10
26.32640163520333
 20
-2.970512850830699
 30
0.0
 10
26.14342171641693
 20
-2.839190894441486
 30
0.0
 10
26.05416421725046
 20
-2.770578813652282
 30
0.0
 10
25.87946424441212
 20
-2.62827808614912
 30
0.0
 10
25.79333457075964
 20
-2.553901148359785
 30
0.0
 10
25.71316586709301
 20
-2.479806315611592
 30
0.0
  0
SPLINE
  5
18C
330
1F
100
AcDbEntity
  8
외형선
  6
Continuous
 62
     1
370
    15
100
AcDbSpline
210
0.0
220
0.0
230
1.0
 70
     8
 71
     3
 72
     8
 73
     4
 74
     0
 42
0.000000001
 43
0.00000001
 40
0.0
 40
0.0
 40
0.0
 40
0.0
 40
1.0
 40
1.0
 40
1.0
 40
1.0
 10
25.71316586709302
 20
-2.479806315611569
 30
0.0
 10
25.63155066348007
 20
-2.404374574984224
 30
0.0
 10
25.52849006850081
 20
-2.331441472453429
 30
0.0
 10
25.44508402398064
 20
-2.288265169511124
 30
0.0
  0
SPLINE
  5
18D
330
1F
100
AcDbEntity
  8
외형선
  6
Continuous
 62
     1
370
    15
100
AcDbSpline
210
0.0
220
0.0
230
1.0
 70
     8
 71
     3
 72
     8
 73
     4
 74
     0
 42
0.000000001
 43
0.00000001
 40
0.0
 40
0.0
 40
0.0
 40
0.0
 40
1.0
 40
1.0
 40
1.0
 40
1.0
 10
25.44508402398059
 20
-2.288265169511084
 30
0.0
 10
25.31475653736914
 20
-2.220799327244889
 30
0.0
 10
25.17183828538089
 20
-2.128933955766304
 30
0.0
 10
25.02676189420457
 20
-2.02624432850476
 30
0.0
  0
SPLINE
  5
18E
330
1F
100
AcDbEntity
  8
외형선
  6
Continuous
 62
     1
370
    15
100
AcDbSpline
210
0.0
220
0.0
230
1.0
 70
     8
 71
     3
 72
     8
 73
     4
 74
     0
 42
0.000000001
 43
0.00000001
 40
0.0
 40
0.0
 40
0.0
 40
0.0
 40
1.0
 40
1.0
 40
1.0
 40
1.0
 10
25.0267618944336
 20
-2.026244328680687
 30
0.0
 10
24.88037467413765
 20
-1.913795967655898
 30
0.0
 10
24.73740788683054
 20
-1.795865032942237
 30
0.0
 10
24.60902505425724
 20
-1.681895397004672
 30
0.0
  0
SPLINE
  5
18F
330
1F
100
AcDbEntity
  8
외형선
  6
Continuous
 62
     1
370
    15
100
AcDbSpline
210
0.0
220
0.0
230
1.0
 70
     8
 71
     3
 72
     8
 73
     4
 74
     0
 42
0.000000001
 43
0.00000001
 40
0.0
 40
0.0
 40
0.0
 40
0.0
 40
1.0
 40
1.0
 40
1.0
 40
1.0
 10
24.60902505425728
 20
-1.681895397004731
 30
0.0
 10
24.52786018329222
 20
-1.609842688637156
 30
0.0
 10
24.42485042061203
 20
-1.535316392147533
 30
0.0
 10
24.34098706992812
 20
-1.485732293402834
 30
0.0
  0
SPLINE
  5
190
330
1F
100
AcDbEntity
  8
외형선
  6
Continuous
 62
     1
370
    15
100
AcDbSpline
210
0.0
220
0.0
230
1.0
 70
     8
 71
     3
 72
    14
 73
    10
 74
     0
 42
0.000000001
 43
0.00000001
 40
0.0
 40
0.0
 40
0.0
 40
0.0
 40
0.25
 40
0.25
 40
0.5
 40
0.5
 40
0.75
 40
0.75
 40
1.0
 40
1.0
 40
1.0
 40
1.0
 10
24.34098706992807
 20
-1.485732293402794
 30
0.0
 10
24.25859872858963
 20
-1.437020292045563
 30
0.0
 10
24.17302939723392
 20
-1.381073123952574
 30
0.0
 10
23.99541484144078
 20
-1.258483913408253
 30
0.0
 10
23.90368875188633
 20
-1.191945722353195
 30
0.0
 10
23.72074954327064
 20
-1.055167496652532
 30
0.0
 10
23.63151116076942
 20
-0.9864665908579949
 30
0.0
 10
23.45684648872289
 20
-0.8492094399169974
 30
0.0
 10
23.3707330020206
 20
-0.7800722337089582
 30
0.0
 10
23.29057682282313
 20
-0.7140311600618825
 30
0.0
  0
SPLINE
  5
191
330
1F
100
AcDbEntity
  8
외형선
  6
Continuous
 62
     1
370
    15
100
AcDbSpline
210
0.0
220
0.0
230
1.0
 70
     8
 71
     3
 72
     8
 73
     4
 74
     0
 42
0.000000001
 43
0.00000001
 40
0.0
 40
0.0
 40
0.0
 40
0.0
 40
1.0
 40
1.0
 40
1.0
 40
1.0
 10
23.29057682282313
 20
-0.7140311600619007
 30
0.0
 10
23.20895675377507
 20
-0.6467839803054433
 30
0.0
 10
23.10588784972309
 20
-0.5717189197037396
 30
0.0
 10
23.02247271557654
 20
-0.5161316706853232
 30
0.0
  0
SPLINE
  5
192
330
1F
100
AcDbEntity
  8
외형선
  6
Continuous
 62
     1
370
    15
100
AcDbSpline
210
0.0
220
0.0
230
1.0
 70
     8
 71
     3
 72
     8
 73
     4
 74
     0
 42
0.000000001
 43
0.00000001
 40
0.0
 40
0.0
 40
0.0
 40
0.0
 40
1.0
 40
1.0
 40
1.0
 40
1.0
 10
23.02247271557655
 20
-0.516131670685295
 30
0.0
 10
22.89211742777333
 20
-0.4292638388688967
 30
0.0
 10
22.74916418975713
 20
-0.3248350623210271
 30
0.0
 10
22.60404964061748
 20
-0.2162762950961125
 30
0.0
  0
SPLINE
  5
193
330
1F
100
AcDbEntity
  8
외형선
  6
Continuous
 62
     1
370
    15
100
AcDbSpline
210
0.0
220
0.0
230
1.0
 70
     8
 71
     3
 72
     8
 73
     4
 74
     0
 42
0.000000001
 43
0.00000001
 40
0.0
 40
0.0
 40
0.0
 40
0.0
 40
1.0
 40
1.0
 40
1.0
 40
1.0
 10
22.60404964084659
 20
-0.2162762952705694
 30
0.0
 10
22.45757845870137
 20
-0.104743355369176
 30
0.0
 10
22.31456964613672
 20
0.0053687809149943
 30
0.0
 10
22.18612910778853
 20
0.1043377669080114
 30
0.0
  0
SPLINE
  5
194
330
1F
100
AcDbEntity
  8
외형선
  6
Continuous
 62
     1
370
    15
100
AcDbSpline
210
0.0
220
0.0
230
1.0
 70
     8
 71
     3
 72
     8
 73
     4
 74
     0
 42
0.000000001
 43
0.00000001
 40
0.0
 40
0.0
 40
0.0
 40
0.0
 40
1.0
 40
1.0
 40
1.0
 40
1.0
 10
22.18612910778853
 20
0.1043377669080151
 30
0.0
 10
22.10491046832238
 20
0.1669202388835437
 30
0.0
 10
22.00185555768437
 20
0.2422129437292997
 30
0.0
 10
21.91793390879227
 20
0.3032200767380748
 30
0.0
  0
SPLINE
  5
195
330
1F
100
AcDbEntity
  8
외형선
  6
Continuous
 62
     1
370
    15
100
AcDbSpline
210
0.0
220
0.0
230
1.0
 70
     8
 71
     3
 72
     8
 73
     4
 74
     0
 42
0.000000001
 43
0.00000001
 40
0.0
 40
0.0
 40
0.0
 40
0.0
 40
1.0
 40
1.0
 40
1.0
 40
1.0
 10
17.3375699869243
 20
3.601904974978249
 30
0.0
 10
17.25640446236583
 20
3.638971708181463
 30
0.0
 10
17.15340187084288
 20
3.707490690843279
 30
0.0
 10
17.06953052129701
 20
3.784192864000495
 30
0.0
  0
SPLINE
  5
196
330
1F
100
AcDbEntity
  8
외형선
  6
Continuous
 62
     1
370
    15
100
AcDbSpline
210
0.0
220
0.0
230
1.0
 70
     8
 71
     3
 72
     8
 73
     4
 74
     0
 42
0.000000001
 43
0.00000001
 40
0.0
 40
0.0
 40
0.0
 40
0.0
 40
1.0
 40
1.0
 40
1.0
 40
1.0
 10
16.01918098352056
 20
4.481523231750067
 30
0.0
 10
15.93757688141486
 20
4.511041003465268
 30
0.0
 10
15.83451430381791
 20
4.576178974575796
 30
0.0
 10
15.75110932615829
 20
4.655342728556619
 30
0.0
  0
SPLINE
  5
197
330
1F
100
AcDbEntity
  8
외형선
  6
Continuous
 62
     1
370
    15
100
AcDbSpline
210
0.0
220
0.0
230
1.0
 70
     8
 71
     3
 72
     8
 73
     4
 74
     0
 42
0.000000001
 43
0.00000001
 40
0.0
 40
0.0
 40
0.0
 40
0.0
 40
1.0
 40
1.0
 40
1.0
 40
1.0
 10
14.91492378734067
 20
5.182969970698998
 30
0.0
 10
14.83373398979969
 20
5.205030636960469
 30
0.0
 10
14.73071235179105
 20
5.266342737296099
 30
0.0
 10
14.64681196033047
 20
5.34682846521882
 30
0.0
  0
SPLINE
  5
198
330
1F
100
AcDbEntity
  8
외형선
  6
Continuous
 62
     1
370
    15
100
AcDbSpline
210
0.0
220
0.0
230
1.0
 70
     8
 71
     3
 72
     8
 73
     4
 74
     0
 42
0.000000001
 43
0.00000001
 40
0.0
 40
0.0
 40
0.0
 40
0.0
 40
1.0
 40
1.0
 40
1.0
 40
1.0
 10
13.59584763009379
 20
5.966425811065266
 30
0.0
 10
13.51416186722707
 20
5.980575061851949
 30
0.0
 10
13.41102566124347
 20
6.037418113875873
 30
0.0
 10
13.32753486134483
 20
6.118986363466475
 30
0.0
  0
SPLINE
  5
199
330
1F
100
AcDbEntity
  8
외형선
  6
Continuous
 62
     1
370
    15
100
AcDbSpline
210
0.0
220
0.0
230
1.0
 70
     8
 71
     3
 72
     8
 73
     4
 74
     0
 42
0.000000001
 43
0.00000001
 40
0.0
 40
0.0
 40
0.0
 40
0.0
 40
1.0
 40
1.0
 40
1.0
 40
1.0
 10
13.32753486134482
 20
6.118986363466477
 30
0.0
 10
13.1970697664333
 20
6.24644722666966
 30
0.0
 10
13.05399394696855
 20
6.360443883542295
 30
0.0
 10
12.90873966125417
 20
6.452766456576972
 30
0.0
  0
SPLINE
  5
19A
330
1F
100
AcDbEntity
  8
외형선
  6
Continuous
 62
     1
370
    15
100
AcDbSpline
210
0.0
220
0.0
230
1.0
 70
     8
 71
     3
 72
     8
 73
     4
 74
     0
 42
0.000000001
 43
0.00000001
 40
0.0
 40
0.0
 40
0.0
 40
0.0
 40
1.0
 40
1.0
 40
1.0
 40
1.0
 10
12.90873966148356
 20
6.452766456468375
 30
0.0
 10
12.76209308072254
 20
6.522207048422042
 30
0.0
 10
12.61888682695699
 20
6.565326389613513
 30
0.0
 10
12.4903893080091
 20
6.575231006007363
 30
0.0
  0
SPLINE
  5
19B
330
1F
100
AcDbEntity
  8
외형선
  6
Continuous
 62
     1
370
    15
100
AcDbSpline
210
0.0
220
0.0
230
1.0
 70
     8
 71
     3
 72
     8
 73
     4
 74
     0
 42
0.000000001
 43
0.00000001
 40
0.0
 40
0.0
 40
0.0
 40
0.0
 40
1.0
 40
1.0
 40
1.0
 40
1.0
 10
12.49038930800921
 20
6.575231006007138
 30
0.0
 10
12.40910308899331
 20
6.581496565249463
 30
0.0
 10
12.30600398656462
 20
6.633356372821263
 30
0.0
 10
12.22200968680933
 20
6.714713214568198
 30
0.0
  0
SPLINE
  5
19C
330
1F
100
AcDbEntity
  8
외형선
  6
Continuous
 62
     1
370
    15
100
AcDbSpline
210
0.0
220
0.0
230
1.0
 70
     8
 71
     3
 72
    14
 73
    10
 74
     0
 42
0.000000001
 43
0.00000001
 40
0.0
 40
0.0
 40
0.0
 40
0.0
 40
0.25
 40
0.25
 40
0.5
 40
0.5
 40
0.75
 40
0.75
 40
1.0
 40
1.0
 40
1.0
 40
1.0
 10
12.22200968680932
 20
6.714713214568194
 30
0.0
 10
12.1395584061226
 20
6.79457548872495
 30
0.0
 10
12.05393392792033
 20
6.866215723873593
 30
0.0
 10
11.87621813728402
 20
6.994577285953843
 30
0.0
 10
11.78443433352887
 20
7.050762318897483
 30
0.0
 10
11.60135451357355
 20
7.142251406678375
 30
0.0
 10
11.51203446356699
 20
7.176814978348794
 30
0.0
 10
11.33718930547453
 20
7.223426192736733
 30
0.0
 10
11.25097792217078
 20
7.23530056392682
 30
0.0
 10
11.17072749958697
 20
7.233523883354294
 30
0.0
  0
SPLINE
  5
19D
330
1F
100
AcDbEntity
  8
외형선
  6
Continuous
 62
     1
370
    15
100
AcDbSpline
210
0.0
220
0.0
230
1.0
 70
     8
 71
     3
 72
     8
 73
     4
 74
     0
 42
0.000000001
 43
0.00000001
 40
0.0
 40
0.0
 40
0.0
 40
0.0
 40
1.0
 40
1.0
 40
1.0
 40
1.0
 10
11.17072749958676
 20
7.233523883354343
 30
0.0
 10
11.08907722732863
 20
7.231716211222636
 30
0.0
 10
10.98597209133613
 20
7.278106729035361
 30
0.0
 10
10.90251936173443
 20
7.359018563011896
 30
0.0
  0
SPLINE
  5
19E
330
1F
100
AcDbEntity
  8
외형선
  6
Continuous
 62
     1
370
    15
100
AcDbSpline
210
0.0
220
0.0
230
1.0
 70
     8
 71
     3
 72
     8
 73
     4
 74
     0
 42
0.000000001
 43
0.00000001
 40
0.0
 40
0.0
 40
0.0
 40
0.0
 40
1.0
 40
1.0
 40
1.0
 40
1.0
 10
10.90251936173443
 20
7.359018563011899
 30
0.0
 10
10.77216056280904
 20
7.485408311392483
 30
0.0
 10
10.62919112244483
 20
7.591131567818014
 30
0.0
 10
10.48402992580858
 20
7.670155143337293
 30
0.0
  0
SPLINE
  5
19F
330
1F
100
AcDbEntity
  8
외형선
  6
Continuous
 62
     1
370
    15
100
AcDbSpline
210
0.0
220
0.0
230
1.0
 70
     8
 71
     3
 72
     8
 73
     4
 74
     0
 42
0.000000001
 43
0.00000001
 40
0.0
 40
0.0
 40
0.0
 40
0.0
 40
1.0
 40
1.0
 40
1.0
 40
1.0
 10
10.4840299260415
 20
7.670155143255707
 30
0.0
 10
10.3375426819383
 20
7.72133382497119
 30
0.0
 10
10.1944970220093
 20
7.741860078250896
 30
0.0
 10
10.06617426163524
 20
7.72621541929516
 30
0.0
  0
SPLINE
  5
1A0
330
1F
100
AcDbEntity
  8
외형선
  6
Continuous
 62
     1
370
    15
100
AcDbSpline
210
0.0
220
0.0
230
1.0
 70
     8
 71
     3
 72
     8
 73
     4
 74
     0
 42
0.000000001
 43
0.00000001
 40
0.0
 40
0.0
 40
0.0
 40
0.0
 40
1.0
 40
1.0
 40
1.0
 40
1.0
 10
10.06617426163527
 20
7.726215419295128
 30
0.0
 10
9.984980293732843
 20
7.716316536716595
 30
0.0
 10
9.881996154141124
 20
7.756770628063952
 30
0.0
 10
9.798110664147007
 20
7.835889690749028
 30
0.0
  0
SPLINE
  5
1A1
330
1F
100
AcDbEntity
  8
외형선
  6
Continuous
 62
     1
370
    15
100
AcDbSpline
210
0.0
220
0.0
230
1.0
 70
     8
 71
     3
 72
    14
 73
    10
 74
     0
 42
0.000000001
 43
0.00000001
 40
0.0
 40
0.0
 40
0.0
 40
0.0
 40
0.25
 40
0.25
 40
0.5
 40
0.5
 40
0.75
 40
0.75
 40
1.0
 40
1.0
 40
1.0
 40
1.0
 10
9.798110664146975
 20
7.835889690749073
 30
0.0
 10
9.715746451074292
 20
7.91357391644248
 30
0.0
 10
9.630203539170061
 20
7.980410336789432
 30
0.0
 10
9.452638261031442
 20
8.094959561047412
 30
0.0
 10
9.360929172454242
 20
8.14209278854504
 30
0.0
 10
9.17799561350823
 20
8.21220577535371
 30
0.0
 10
9.088749946558725
 20
8.234717334049524
 30
0.0
 10
8.914055057699155
 20
8.254670055849948
 30
0.0
 10
8.827916793127788
 20
8.251782815201443
 30
0.0
 10
8.747736496251438
 20
8.234402928606675
 30
0.0
  0
SPLINE
  5
1A2
330
1F
100
AcDbEntity
  8
외형선
  6
Continuous
 62
     1
370
    15
100
AcDbSpline
210
0.0
220
0.0
230
1.0
 70
     8
 71
     3
 72
     8
 73
     4
 74
     0
 42
0.000000001
 43
0.00000001
 40
0.0
 40
0.0
 40
0.0
 40
0.0
 40
1.0
 40
1.0
 40
1.0
 40
1.0
 10
8.747736496251434
 20
8.23440292860667
 30
0.0
 10
8.66614013934764
 20
8.21671609674421
 30
0.0
 10
8.563078775091114
 20
8.250980869285954
 30
0.0
 10
8.47967553074784
 20
8.328270988918591
 30
0.0
  0
SPLINE
  5
1A3
330
1F
100
AcDbEntity
  8
외형선
  6
Continuous
 62
     1
370
    15
100
AcDbSpline
210
0.0
220
0.0
230
1.0
 70
     8
 71
     3
 72
     8
 73
     4
 74
     0
 42
0.000000001
 43
0.00000001
 40
0.0
 40
0.0
 40
0.0
 40
0.0
 40
1.0
 40
1.0
 40
1.0
 40
1.0
 10
8.479675530747826
 20
8.328270988918597
 30
0.0
 10
8.349378971632213
 20
8.449017330635465
 30
0.0
 10
8.206460749462558
 20
8.542638674048021
 30
0.0
 10
8.061344597625524
 20
8.605521836689892
 30
0.0
  0
SPLINE
  5
1A4
330
1F
100
AcDbEntity
  8
외형선
  6
Continuous
 62
     1
370
    15
100
AcDbSpline
210
0.0
220
0.0
230
1.0
 70
     8
 71
     3
 72
     8
 73
     4
 74
     0
 42
0.000000001
 43
0.00000001
 40
0.0
 40
0.0
 40
0.0
 40
0.0
 40
1.0
 40
1.0
 40
1.0
 40
1.0
 10
8.061344597854617
 20
8.60552183664119
 30
0.0
 10
7.914885623133782
 20
8.63666475712183
 30
0.0
 10
7.771867131197522
 20
8.633955654768569
 30
0.0
 10
7.64356867409506
 20
8.593452544967985
 30
0.0
  0
SPLINE
  5
1A5
330
1F
100
AcDbEntity
  8
외형선
  6
Continuous
 62
     1
370
    15
100
AcDbSpline
210
0.0
220
0.0
230
1.0
 70
     8
 71
     3
 72
     8
 73
     4
 74
     0
 42
0.000000001
 43
0.00000001
 40
0.0
 40
0.0
 40
0.0
 40
0.0
 40
1.0
 40
1.0
 40
1.0
 40
1.0
 10
7.64356867409504
 20
8.593452544968018
 30
0.0
 10
7.562365446696512
 20
8.567817137420931
 30
0.0
 10
7.459393128717102
 20
8.595412946535014
 30
0.0
 10
7.375515397003194
 20
8.669448408543635
 30
0.0
  0
SPLINE
  5
1A6
330
1F
100
AcDbEntity
  8
외형선
  6
Continuous
 62
     1
370
    15
100
AcDbSpline
210
0.0
220
0.0
230
1.0
 70
     8
 71
     3
 72
    14
 73
    10
 74
     0
 42
0.000000001
 43
0.00000001
 40
0.0
 40
0.0
 40
0.0
 40
0.0
 40
0.2499999999999998
 40
0.2499999999999998
 40
0.4999999999999996
 40
0.4999999999999996
 40
0.7499999999999998
 40
0.7499999999999998
 40
1.0
 40
1.0
 40
1.0
 40
1.0
 10
7.375515397003203
 20
8.669448408543625
 30
0.0
 10
7.293134057644816
 20
8.742163065886656
 30
0.0
 10
7.207572643296007
 20
8.801790189524672
 30
0.0
 10
7.029967804225271
 20
8.898409436190159
 30
0.0
 10
6.938237357554734
 20
8.934804027740578
 30
0.0
 10
6.75526194156634
 20
8.981055384774816
 30
0.0
 10
6.665991750635343
 20
8.990735745851175
 30
0.0
 10
6.491240501846
 20
8.98338888198927
 30
0.0
 10
6.405072803239166
 20
8.965890638811526
 30
0.0
 10
6.32485822816052
 20
8.933583024324466
 30
0.0
  0
SPLINE
  5
1A7
330
1F
100
AcDbEntity
  8
외형선
  6
Continuous
 62
     1
370
    15
100
AcDbSpline
210
0.0
220
0.0
230
1.0
 70
     8
 71
     3
 72
     8
 73
     4
 74
     0
 42
0.000000001
 43
0.00000001
 40
0.0
 40
0.0
 40
0.0
 40
0.0
 40
1.0
 40
1.0
 40
1.0
 40
1.0
 10
6.324858228160534
 20
8.933583024324493
 30
0.0
 10
6.243209499858872
 20
8.900697783272694
 30
0.0
 10
6.140100421608127
 20
8.921610073695607
 30
0.0
 10
6.056640491158972
 20
8.992492813124741
 30
0.0
  0
SPLINE
  5
1A8
330
1F
100
AcDbEntity
  8
외형선
  6
Continuous
370
    15
100
AcDbSpline
210
0.0
220
0.0
230
1.0
 70
     8
 71
     3
 72
     8
 73
     4
 74
     0
 42
0.000000001
 43
0.00000001
 40
0.0
 40
0.0
 40
0.0
 40
0.0
 40
1.0
 40
1.0
 40
1.0
 40
1.0
 10
6.056640491158945
 20
8.99249281312476
 30
0.0
 10
5.985625426584995
 20
9.052806095087135
 30
0.0
 10
5.910820925628232
 20
9.103380311282713
 30
0.0
 10
5.833990398392397
 20
9.144198164191321
 30
0.0
  0
SPLINE
  5
1A9
330
1F
100
AcDbEntity
  8
외형선
  6
Continuous
 62
     1
370
    15
100
AcDbSpline
210
0.0
220
0.0
230
1.0
 70
     8
 71
     3
 72
    16
 73
    12
 74
     0
 42
0.000000001
 43
0.00000001
 40
0.0
 40
0.0
 40
0.0
 40
0.0
 40
0.2499999999999999
 40
0.2499999999999999
 40
0.4999999999999998
 40
0.4999999999999998
 40
0.6249999999999998
 40
0.6249999999999998
 40
0.7499999999999998
 40
0.7499999999999998
 40
1.0
 40
1.0
 40
1.0
 40
1.0
 10
40.37790179909441
 20
5.881784446425085
 30
0.0
 10
40.35340031308978
 20
5.417614472837779
 30
0.0
 10
40.32816026947057
 20
4.914645815362205
 30
0.0
 10
40.2774941048987
 20
3.85522414735273
 30
0.0
 10
40.25207573101908
 20
3.29892921391533
 30
0.0
 10
40.21481122953793
 20
2.447008641947459
 30
0.0
 10
40.20253305114674
 20
2.160151914386957
 30
0.0
 10
40.17841322117172
 20
1.584533053253235
 30
0.0
 10
40.1667433129322
 20
1.297166805584131
 30
0.0
 10
40.13092415384494
 20
0.4243682706661538
 30
0.0
 10
40.1060905322766
 20
-0.1709198333894836
 30
0.0
 10
40.08091419507962
 20
-0.7644679281494319
 30
0.0
  0
SPLINE
  5
1AA
330
1F
100
AcDbEntity
  8
외형선
  6
Continuous
 62
     1
370
    15
100
AcDbSpline
210
0.0
220
0.0
230
1.0
 70
     8
 71
     3
 72
     8
 73
     4
 74
     0
 42
0.000000001
 43
0.00000001
 40
0.0
 40
0.0
 40
0.0
 40
0.0
 40
1.0
 40
1.0
 40
1.0
 40
1.0
 10
40.79644919846389
 20
5.542153817649675
 30
0.0
 10
40.6660746812835
 20
5.668574914822413
 30
0.0
 10
40.5230764251768
 20
5.784665312888206
 30
0.0
 10
40.37787991584845
 20
5.881369871329541
 30
0.0
  0
SPLINE
  5
1AB
330
1F
100
AcDbEntity
  8
외형선
  6
Continuous
 62
     1
370
    15
100
AcDbSpline
210
0.0
220
0.0
230
1.0
 70
     8
 71
     3
 72
     8
 73
     4
 74
     0
 42
0.000000001
 43
0.00000001
 40
0.0
 40
0.0
 40
0.0
 40
0.0
 40
1.0
 40
1.0
 40
1.0
 40
1.0
 10
16.77166986306265
 20
-3.046461879807107
 30
0.0
 10
16.85331703593007
 20
-3.088661148328645
 30
0.0
 10
16.95639899821225
 20
-3.159231515129012
 30
0.0
 10
17.03983515672572
 20
-3.234056644753284
 30
0.0
  0
SPLINE
  5
1AC
330
1F
100
AcDbEntity
  8
외형선
  6
Continuous
 62
     1
370
    15
100
AcDbSpline
210
0.0
220
0.0
230
1.0
 70
     8
 71
     3
 72
    14
 73
    10
 74
     0
 42
0.000000001
 43
0.00000001
 40
0.0
 40
0.0
 40
0.0
 40
0.0
 40
0.25
 40
0.25
 40
0.5
 40
0.5
 40
0.75
 40
0.75
 40
1.0
 40
1.0
 40
1.0
 40
1.0
 10
39.69148937945661
 20
6.179732120814634
 30
0.0
 10
39.60902027219767
 20
6.259706336096916
 30
0.0
 10
39.52337410423245
 20
6.3326202304848
 30
0.0
 10
39.34560756485145
 20
6.46540840311481
 30
0.0
 10
39.25379531093549
 20
6.524767416918044
 30
0.0
 10
39.07065427632072
 20
6.624169549448411
 30
0.0
 10
38.98129426348408
 20
6.663372336364557
 30
0.0
 10
38.80635388978051
 20
6.720551569614445
 30
0.0
 10
38.72009051228876
 20
6.738419558620565
 30
0.0
 10
38.63978492091108
 20
6.743123968227207
 30
0.0
  0
SPLINE
  5
1AD
330
1F
100
AcDbEntity
  8
외형선
  6
Continuous
370
    15
100
AcDbSpline
210
0.0
220
0.0
230
1.0
 70
     8
 71
     3
 72
     8
 73
     4
 74
     0
 42
0.000000001
 43
0.00000001
 40
0.0
 40
0.0
 40
0.0
 40
0.0
 40
1.0
 40
1.0
 40
1.0
 40
1.0
 10
5.516398558803133
 20
-6.482877729939813
 30
0.0
 10
5.434783235688275
 20
-6.399492139050071
 30
0.0
 10
5.331744137135616
 20
-6.343996038477526
 30
0.0
 10
5.248348298605236
 20
-6.33898934650892
 30
0.0
  0
SPLINE
  5
1AE
330
1F
100
AcDbEntity
  8
외형선
  6
Continuous
370
    15
100
AcDbSpline
210
0.0
220
0.0
230
1.0
 70
     8
 71
     3
 72
     8
 73
     4
 74
     0
 42
0.000000001
 43
0.00000001
 40
0.0
 40
0.0
 40
0.0
 40
0.0
 40
1.0
 40
1.0
 40
1.0
 40
1.0
 10
5.248348298605316
 20
-6.338989346508951
 30
0.0
 10
5.11802862633292
 20
-6.33116556935154
 30
0.0
 10
4.975201754394325
 20
-6.285823534105219
 30
0.0
 10
4.830028398822517
 20
-6.214950879047758
 30
0.0
  0
SPLINE
  5
1AF
330
1F
100
AcDbEntity
  8
외형선
  6
Continuous
370
    15
100
AcDbSpline
210
0.0
220
0.0
230
1.0
 70
     8
 71
     3
 72
     8
 73
     4
 74
     0
 42
0.000000001
 43
0.00000001
 40
0.0
 40
0.0
 40
0.0
 40
0.0
 40
1.0
 40
1.0
 40
1.0
 40
1.0
 10
4.830028399051693
 20
-6.214950879198039
 30
0.0
 10
4.683665848143512
 20
-6.118959864659321
 30
0.0
 10
4.540595284337242
 20
-6.001129534144738
 30
0.0
 10
4.412193033591669
 20
-5.868560400683223
 30
0.0
  0
SPLINE
  5
1B0
330
1F
100
AcDbEntity
  8
외형선
  6
Continuous
370
    15
100
AcDbSpline
210
0.0
220
0.0
230
1.0
 70
     8
 71
     3
 72
     8
 73
     4
 74
     0
 42
0.000000001
 43
0.00000001
 40
0.0
 40
0.0
 40
0.0
 40
0.0
 40
1.0
 40
1.0
 40
1.0
 40
1.0
 10
4.412193033591682
 20
-5.868560400683306
 30
0.0
 10
4.330995790745432
 20
-5.784728162065305
 30
0.0
 10
4.227948624401082
 20
-5.724460529258248
 30
0.0
 10
4.144066528141555
 20
-5.711589823531563
 30
0.0
  0
SPLINE
  5
1B1
330
1F
100
AcDbEntity
  8
외형선
  6
Continuous
370
    15
100
AcDbSpline
210
0.0
220
0.0
230
1.0
 70
     8
 71
     3
 72
    14
 73
    10
 74
     0
 42
0.000000001
 43
0.00000001
 40
0.0
 40
0.0
 40
0.0
 40
0.0
 40
0.25
 40
0.25
 40
0.5
 40
0.5
 40
0.75
 40
0.75
 40
1.0
 40
1.0
 40
1.0
 40
1.0
 10
4.144066528141598
 20
-5.711589823531587
 30
0.0
 10
4.061608987005374
 20
-5.698937698772728
 30
0.0
 10
3.975971850132796
 20
-5.672698888805318
 30
0.0
 10
3.798232771868546
 20
-5.598530320368102
 30
0.0
 10
3.706452480897716
 20
-5.550409623228997
 30
0.0
 10
3.523435586295324
 20
-5.437514793756606
 30
0.0
 10
3.434164797597877
 20
-5.374173846173871
 30
0.0
 10
3.259443717254052
 20
-5.234568461354212
 30
0.0
 10
3.173311653031655
 20
-5.157502710548314
 30
0.0
 10
3.093133242701129
 20
-5.076263475229584
 30
0.0
  0
SPLINE
  5
1B2
330
1F
100
AcDbEntity
  8
외형선
  6
Continuous
370
    15
100
AcDbSpline
210
0.0
220
0.0
230
1.0
 70
     8
 71
     3
 72
     8
 73
     4
 74
     0
 42
0.000000001
 43
0.00000001
 40
0.0
 40
0.0
 40
0.0
 40
0.0
 40
1.0
 40
1.0
 40
1.0
 40
1.0
 10
3.09313324270114
 20
-5.076263475229577
 30
0.0
 10
3.038285599869246
 20
-5.020690153878737
 30
0.0
 10
2.974624259500619
 20
-4.974228871246366
 30
0.0
 10
2.912087807273551
 20
-4.942490275387943
 30
0.0
  0
LINE
  5
1B3
330
1F
100
AcDbEntity
  8
외형선
  6
Continuous
370
    15
100
AcDbLine
 10
2.912087807273549
 20
6.601635650660516
 30
0.0
 11
2.916585778290204
 21
6.599189788735789
 31
0.0
  0
SPLINE
  5
1B4
330
1F
100
AcDbEntity
  8
외형선
  6
Continuous
370
    15
100
AcDbSpline
210
0.0
220
0.0
230
1.0
 70
     8
 71
     3
 72
     8
 73
     4
 74
     0
 42
0.000000001
 43
0.00000001
 40
0.0
 40
0.0
 40
0.0
 40
0.0
 40
1.0
 40
1.0
 40
1.0
 40
1.0
 10
2.916883790672399
 20
6.599027715209668
 30
0.0
 10
3.063419246769936
 20
6.506352826943065
 30
0.0
 10
3.206659038100351
 20
6.390274231059897
 30
0.0
 10
3.335220240128714
 20
6.257520235777665
 30
0.0
  0
SPLINE
  5
1B5
330
1F
100
AcDbEntity
  8
외형선
  6
Continuous
370
    15
100
AcDbSpline
210
0.0
220
0.0
230
1.0
 70
     8
 71
     3
 72
     8
 73
     4
 74
     0
 42
0.000000001
 43
0.00000001
 40
0.0
 40
0.0
 40
0.0
 40
0.0
 40
1.0
 40
1.0
 40
1.0
 40
1.0
 10
3.335220240128758
 20
6.257520235777618
 30
0.0
 10
3.416498700389269
 20
6.173591024166872
 30
0.0
 10
3.519614870724832
 20
6.115841218409352
 30
0.0
 10
3.603567537358511
 20
6.107336934536836
 30
0.0
  0
SPLINE
  5
1B6
330
1F
100
AcDbEntity
  8
외형선
  6
Continuous
370
    15
100
AcDbSpline
210
0.0
220
0.0
230
1.0
 70
     8
 71
     3
 72
    14
 73
    10
 74
     0
 42
0.000000001
 43
0.00000001
 40
0.0
 40
0.0
 40
0.0
 40
0.0
 40
0.25
 40
0.25
 40
0.5
 40
0.5
 40
0.75
 40
0.75
 40
1.0
 40
1.0
 40
1.0
 40
1.0
 10
3.603567537358503
 20
6.107336934536822
 30
0.0
 10
3.686059695343961
 20
6.098980598080876
 30
0.0
 10
3.771723876365225
 20
6.076526175812988
 30
0.0
 10
3.949501366018369
 20
6.009009277202886
 30
0.0
 10
4.041297023839499
 20
5.963723491313787
 30
0.0
 10
4.224342137296362
 20
5.855262674136633
 30
0.0
 10
4.313623371262626
 20
5.793489032383077
 30
0.0
 10
4.488357571611928
 20
5.655710230509992
 30
0.0
 10
4.574492932290133
 20
5.57888935630607
 30
0.0
 10
4.654667120669695
 20
5.497122876107016
 30
0.0
  0
SPLINE
  5
1B7
330
1F
100
AcDbEntity
  8
외형선
  6
Continuous
370
    15
100
AcDbSpline
210
0.0
220
0.0
230
1.0
 70
     8
 71
     3
 72
     8
 73
     4
 74
     0
 42
0.000000001
 43
0.00000001
 40
0.0
 40
0.0
 40
0.0
 40
0.0
 40
1.0
 40
1.0
 40
1.0
 40
1.0
 10
4.654667120669704
 20
5.497122876107031
 30
0.0
 10
4.736320475160927
 20
5.413847852958874
 30
0.0
 10
4.839384871115943
 20
5.351865267406175
 30
0.0
 10
4.922813665534043
 20
5.335694167467611
 30
0.0
  0
SPLINE
  5
1B8
330
1F
100
AcDbEntity
  8
외형선
  6
Continuous
370
    15
100
AcDbSpline
210
0.0
220
0.0
230
1.0
 70
     8
 71
     3
 72
     8
 73
     4
 74
     0
 42
0.000000001
 43
0.00000001
 40
0.0
 40
0.0
 40
0.0
 40
0.0
 40
1.0
 40
1.0
 40
1.0
 40
1.0
 10
4.922813665534037
 20
5.335694167467592
 30
0.0
 10
5.026518817667739
 20
5.31559287760724
 30
0.0
 10
5.138355757466724
 20
5.273332447763171
 30
0.0
 10
5.252701673246157
 20
5.215918085417822
 30
0.0
  0
SPLINE
  5
1B9
330
1F
100
AcDbEntity
  8
외형선
  6
Continuous
370
    15
100
AcDbSpline
210
0.0
220
0.0
230
1.0
 70
     8
 71
     3
 72
     8
 73
     4
 74
     0
 42
0.000000001
 43
0.00000001
 40
0.0
 40
0.0
 40
0.0
 40
0.0
 40
1.0
 40
1.0
 40
1.0
 40
1.0
 10
5.252701673246158
 20
5.215918085417842
 30
0.0
 10
5.327431473281385
 20
5.16655801855827
 30
0.0
 10
5.402192083765351
 20
5.116992078238393
 30
0.0
 10
5.476983613848909
 20
5.067221527315798
 30
0.0
  0
SPLINE
  5
1BA
330
1F
100
AcDbEntity
  8
외형선
  6
Continuous
370
    15
100
AcDbSpline
210
0.0
220
0.0
230
1.0
 70
     8
 71
     3
 72
     8
 73
     4
 74
     0
 42
0.000000001
 43
0.00000001
 40
0.0
 40
0.0
 40
0.0
 40
0.0
 40
1.0
 40
1.0
 40
1.0
 40
1.0
 10
5.476983613848909
 20
5.067221527315777
 30
0.0
 10
5.575296734991659
 20
4.989364840833634
 30
0.0
 10
5.670812405491296
 20
4.904110622567466
 30
0.0
 10
5.759048242043369
 20
4.814419651082398
 30
0.0
  0
SPLINE
  5
1BB
330
1F
100
AcDbEntity
  8
외형선
  6
Continuous
370
    15
100
AcDbSpline
210
0.0
220
0.0
230
1.0
 70
     8
 71
     3
 72
     8
 73
     4
 74
     0
 42
0.000000001
 43
0.00000001
 40
0.0
 40
0.0
 40
0.0
 40
0.0
 40
1.0
 40
1.0
 40
1.0
 40
1.0
 10
5.759048242043375
 20
4.814419651082397
 30
0.0
 10
5.840229485670078
 20
4.731899612832996
 30
0.0
 10
5.943262590585676
 20
4.666056705620224
 30
0.0
 10
6.027123034542108
 20
4.642353415716109
 30
0.0
  0
SPLINE
  5
1BC
330
1F
100
AcDbEntity
  8
외형선
  6
Continuous
 62
     1
370
    15
100
AcDbSpline
210
0.0
220
0.0
230
1.0
 70
     8
 71
     3
 72
    14
 73
    10
 74
     0
 42
0.000000001
 43
0.00000001
 40
0.0
 40
0.0
 40
0.0
 40
0.0
 40
0.25
 40
0.25
 40
0.5
 40
0.5
 40
0.75
 40
0.75
 40
1.0
 40
1.0
 40
1.0
 40
1.0
 10
6.027123034542082
 20
4.642353415716172
 30
0.0
 10
6.109541625610539
 20
4.61905766785918
 30
0.0
 10
6.195138066534018
 20
4.583655955154914
 30
0.0
 10
6.372792881398873
 20
4.493761029929099
 30
0.0
 10
6.464528281917562
 20
4.439157825091161
 30
0.0
 10
6.647455858041371
 20
4.316581382833627
 30
0.0
 10
6.736677250895155
 20
4.250109760396939
 30
0.0
 10
6.911290409101924
 20
4.107658738395156
 30
0.0
 10
6.997367071690211
 20
4.030918796110734
 30
0.0
 10
7.07748513068799
 20
3.951984255667667
 30
0.0
  0
SPLINE
  5
1BD
330
1F
100
AcDbEntity
  8
외형선
  6
Continuous
 62
     1
370
    15
100
AcDbSpline
210
0.0
220
0.0
230
1.0
 70
     8
 71
     3
 72
     8
 73
     4
 74
     0
 42
0.000000001
 43
0.00000001
 40
0.0
 40
0.0
 40
0.0
 40
0.0
 40
1.0
 40
1.0
 40
1.0
 40
1.0
 10
7.077485130688026
 20
3.951984255667602
 30
0.0
 10
7.159098763866303
 20
3.871576233938138
 30
0.0
 10
7.262134653808121
 20
3.802616749566563
 30
0.0
 10
7.345527874458459
 20
3.771509176398119
 30
0.0
  0
SPLINE
  5
1BE
330
1F
100
AcDbEntity
  8
외형선
  6
Continuous
 62
     1
370
    15
100
AcDbSpline
210
0.0
220
0.0
230
1.0
 70
     8
 71
     3
 72
     8
 73
     4
 74
     0
 42
0.000000001
 43
0.00000001
 40
0.0
 40
0.0
 40
0.0
 40
0.0
 40
1.0
 40
1.0
 40
1.0
 40
1.0
 10
7.34552787445847
 20
3.771509176398128
 30
0.0
 10
7.475836113044052
 20
3.722901231595899
 30
0.0
 10
7.618656773052638
 20
3.644555817391474
 30
0.0
 10
7.763831093490578
 20
3.550113293677406
 30
0.0
  0
SPLINE
  5
1BF
330
1F
100
AcDbEntity
  8
외형선
  6
Continuous
 62
     1
370
    15
100
AcDbSpline
210
0.0
220
0.0
230
1.0
 70
     8
 71
     3
 72
     8
 73
     4
 74
     0
 42
0.000000001
 43
0.00000001
 40
0.0
 40
0.0
 40
0.0
 40
0.0
 40
1.0
 40
1.0
 40
1.0
 40
1.0
 10
7.763831047417969
 20
3.550113328239061
 30
0.0
 10
7.910187695105562
 20
3.440323328625013
 30
0.0
 10
8.053250055464957
 20
3.319284468741641
 30
0.0
 10
8.181641532533472
 20
3.195691418582127
 30
0.0
  0
SPLINE
  5
1C0
330
1F
100
AcDbEntity
  8
외형선
  6
Continuous
 62
     1
370
    15
100
AcDbSpline
210
0.0
220
0.0
230
1.0
 70
     8
 71
     3
 72
     8
 73
     4
 74
     0
 42
0.000000001
 43
0.00000001
 40
0.0
 40
0.0
 40
0.0
 40
0.0
 40
1.0
 40
1.0
 40
1.0
 40
1.0
 10
8.181641532533437
 20
3.195691418582181
 30
0.0
 10
8.262831899207132
 20
3.117535412514763
 30
0.0
 10
8.365873315967043
 20
3.045956865588883
 30
0.0
 10
8.449747449890584
 20
3.007872258124258
 30
0.0
  0
SPLINE
  5
1C1
330
1F
100
AcDbEntity
  8
외형선
  6
Continuous
 62
     1
370
    15
100
AcDbSpline
210
0.0
220
0.0
230
1.0
 70
     8
 71
     3
 72
    14
 73
    10
 74
     0
 42
0.000000001
 43
0.00000001
 40
0.0
 40
0.0
 40
0.0
 40
0.0
 40
0.25
 40
0.25
 40
0.5
 40
0.5
 40
0.75
 40
0.75
 40
1.0
 40
1.0
 40
1.0
 40
1.0
 10
8.449747449890733
 20
3.007872258123771
 30
0.0
 10
8.532196875510202
 20
2.970434565911487
 30
0.0
 10
8.617825846271582
 20
2.923320518431519
 30
0.0
 10
8.79554839474709
 20
2.814221670797333
 30
0.0
 10
8.887319747129563
 20
2.752241402726652
 30
0.0
 10
9.070317982046703
 20
2.619924488518174
 30
0.0
 10
9.159578403555425
 20
2.551129783919514
 30
0.0
 10
9.33427692782422
 20
2.409094143449539
 30
0.0
 10
9.420397284229875
 20
2.335180427807805
 30
0.0
 10
9.500563472006178
 20
2.261897198883629
 30
0.0
  0
SPLINE
  5
1C2
330
1F
100
AcDbEntity
  8
외형선
  6
Continuous
 62
     1
370
    15
100
AcDbSpline
210
0.0
220
0.0
230
1.0
 70
     8
 71
     3
 72
     8
 73
     4
 74
     0
 42
0.000000001
 43
0.00000001
 40
0.0
 40
0.0
 40
0.0
 40
0.0
 40
1.0
 40
1.0
 40
1.0
 40
1.0
 10
9.500563472006196
 20
2.261897198883653
 30
0.0
 10
9.582243919728203
 20
2.187229722294348
 30
0.0
 10
9.685342943129324
 20
2.11375591853679
 30
0.0
 10
9.768806927228901
 20
2.068782505205736
 30
0.0
  0
SPLINE
  5
1C3
330
1F
100
AcDbEntity
  8
외형선
  6
Continuous
 62
     1
370
    15
100
AcDbSpline
210
0.0
220
0.0
230
1.0
 70
     8
 71
     3
 72
     8
 73
     4
 74
     0
 42
0.000000001
 43
0.00000001
 40
0.0
 40
0.0
 40
0.0
 40
0.0
 40
1.0
 40
1.0
 40
1.0
 40
1.0
 10
9.768806927228919
 20
2.06878250520576
 30
0.0
 10
9.899256158411308
 20
1.998491741399374
 30
0.0
 10
10.04220554688539
 20
1.904490990156326
 30
0.0
 10
10.18747813644163
 20
1.800740267129238
 30
0.0
  0
SPLINE
  5
1C4
330
1F
100
AcDbEntity
  8
외형선
  6
Continuous
 62
     1
370
    15
100
AcDbSpline
210
0.0
220
0.0
230
1.0
 70
     8
 71
     3
 72
     8
 73
     4
 74
     0
 42
0.000000001
 43
0.00000001
 40
0.0
 40
0.0
 40
0.0
 40
0.0
 40
1.0
 40
1.0
 40
1.0
 40
1.0
 10
10.18747809032381
 20
1.800740302576359
 30
0.0
 10
10.33397591037138
 20
1.688139965846263
 30
0.0
 10
10.47718927339141
 20
1.571105513084985
 30
0.0
 10
10.60575061836072
 20
1.458830394594323
 30
0.0
  0
SPLINE
  5
1C5
330
1F
100
AcDbEntity
  8
외형선
  6
Continuous
 62
     1
370
    15
100
AcDbSpline
210
0.0
220
0.0
230
1.0
 70
     8
 71
     3
 72
     8
 73
     4
 74
     0
 42
0.000000001
 43
0.00000001
 40
0.0
 40
0.0
 40
0.0
 40
0.0
 40
1.0
 40
1.0
 40
1.0
 40
1.0
 10
10.60575061836077
 20
1.458830394594266
 30
0.0
 10
10.68705564862957
 20
1.387825133179999
 30
0.0
 10
10.79019676840157
 20
1.313059543751471
 30
0.0
 10
10.87418823114534
 20
1.261902963686621
 30
0.0
  0
SPLINE
  5
1C6
330
1F
100
AcDbEntity
  8
외형선
  6
Continuous
 62
     1
370
    15
100
AcDbSpline
210
0.0
220
0.0
230
1.0
 70
     8
 71
     3
 72
    14
 73
    10
 74
     0
 42
0.000000001
 43
0.00000001
 40
0.0
 40
0.0
 40
0.0
 40
0.0
 40
0.25
 40
0.25
 40
0.5
 40
0.5
 40
0.75
 40
0.75
 40
1.0
 40
1.0
 40
1.0
 40
1.0
 10
10.87418823114528
 20
1.261902963686628
 30
0.0
 10
10.95670387239257
 20
1.211645260460922
 30
0.0
 10
11.04239088842328
 20
1.154512341206614
 30
0.0
 10
11.22021563038747
 20
1.03016382353493
 30
0.0
 10
11.31203996863601
 20
0.9630615792153171
 30
0.0
 10
11.49515567332404
 20
0.8258143667444359
 30
0.0
 10
11.58447785431285
 20
0.7572000123628772
 30
0.0
 10
11.75930244949836
 20
0.6207532588867896
 30
0.0
 10
11.84548730919421
 20
0.5523580561844763
 30
0.0
 10
11.92570988720536
 20
0.48740333992945
 30
0.0
  0
SPLINE
  5
1C7
330
1F
100
AcDbEntity
  8
외형선
  6
Continuous
 62
     1
370
    15
100
AcDbSpline
210
0.0
220
0.0
230
1.0
 70
     8
 71
     3
 72
     8
 73
     4
 74
     0
 42
0.000000001
 43
0.00000001
 40
0.0
 40
0.0
 40
0.0
 40
0.0
 40
1.0
 40
1.0
 40
1.0
 40
1.0
 10
11.9257098872054
 20
0.4874033399293823
 30
0.0
 10
12.00738874531101
 20
0.4212695010050453
 30
0.0
 10
12.11048816467972
 20
0.3460121944803718
 30
0.0
 10
12.19394769022602
 20
0.2888619125578692
 30
0.0
  0
SPLINE
  5
1C8
330
1F
100
AcDbEntity
  8
외형선
  6
Continuous
 62
     1
370
    15
100
AcDbSpline
210
0.0
220
0.0
230
1.0
 70
     8
 71
     3
 72
     8
 73
     4
 74
     0
 42
0.000000001
 43
0.00000001
 40
0.0
 40
0.0
 40
0.0
 40
0.0
 40
1.0
 40
1.0
 40
1.0
 40
1.0
 10
12.19394769022606
 20
0.2888619125578148
 30
0.0
 10
12.32435474425532
 20
0.1995635388410799
 30
0.0
 10
12.46726303698992
 20
0.0935140659692041
 30
0.0
 10
12.61245967190308
 20
-0.0156202086787098
 30
0.0
  0
SPLINE
  5
1C9
330
1F
100
AcDbEntity
  8
외형선
  6
Continuous
 62
     1
370
    15
100
AcDbSpline
210
0.0
220
0.0
230
1.0
 70
     8
 71
     3
 72
     8
 73
     4
 74
     0
 42
0.000000001
 43
0.00000001
 40
0.0
 40
0.0
 40
0.0
 40
0.0
 40
1.0
 40
1.0
 40
1.0
 40
1.0
 10
12.61245962581369
 20
-0.0156201736980582
 30
0.0
 10
12.75883801133681
 20
-0.1267175362609195
 30
0.0
 10
12.90193807978167
 20
-0.235267039005534
 30
0.0
 10
13.03037091307112
 20
-0.3318907879591723
 30
0.0
  0
SPLINE
  5
1CA
330
1F
100
AcDbEntity
  8
외형선
  6
Continuous
 62
     1
370
    15
100
AcDbSpline
210
0.0
220
0.0
230
1.0
 70
     8
 71
     3
 72
     8
 73
     4
 74
     0
 42
0.000000001
 43
0.00000001
 40
0.0
 40
0.0
 40
0.0
 40
0.0
 40
1.0
 40
1.0
 40
1.0
 40
1.0
 10
13.03037091307112
 20
-0.3318907879591914
 30
0.0
 10
13.11156497318101
 20
-0.3929754364844027
 30
0.0
 10
13.21460622902963
 20
-0.4680467052438361
 30
0.0
 10
13.2984862561718
 20
-0.5302402272053699
 30
0.0
  0
SPLINE
  5
1CB
330
1F
100
AcDbEntity
  8
외형선
  6
Continuous
 62
     1
370
    15
100
AcDbSpline
210
0.0
220
0.0
230
1.0
 70
     8
 71
     3
 72
     8
 73
     4
 74
     0
 42
0.000000001
 43
0.00000001
 40
0.0
 40
0.0
 40
0.0
 40
0.0
 40
1.0
 40
1.0
 40
1.0
 40
1.0
 10
14.34894067404017
 20
-1.303582336040455
 30
0.0
 10
14.43055046765689
 20
-1.358718454139275
 30
0.0
 10
14.53359534422335
 20
-1.432957442959472
 30
0.0
 10
14.61699003627696
 20
-1.500136345309702
 30
0.0
  0
SPLINE
  5
1CC
330
1F
100
AcDbEntity
  8
외형선
  6
Continuous
 62
     1
370
    15
100
AcDbSpline
210
0.0
220
0.0
230
1.0
 70
     8
 71
     3
 72
     8
 73
     4
 74
     0
 42
0.000000001
 43
0.00000001
 40
0.0
 40
0.0
 40
0.0
 40
0.0
 40
1.0
 40
1.0
 40
1.0
 40
1.0
 10
15.45303209010728
 20
-2.109012251811909
 30
0.0
 10
15.53420576357721
 20
-2.158016799899633
 30
0.0
 10
15.63722923392994
 20
-2.230703391515385
 30
0.0
 10
15.72109365107521
 20
-2.301717634933878
 30
0.0
  0
SPLINE
  5
1CD
330
1F
100
AcDbEntity
  8
외형선
  6
Continuous
 62
     1
370
    15
100
AcDbSpline
210
0.0
220
0.0
230
1.0
 70
     8
 71
     3
 72
     8
 73
     4
 74
     0
 42
0.000000001
 43
0.00000001
 40
0.0
 40
0.0
 40
0.0
 40
0.0
 40
1.0
 40
1.0
 40
1.0
 40
1.0
 10
21.62035412637108
 20
-6.139556628421557
 30
0.0
 10
21.70196832644626
 20
-6.151696864082258
 30
0.0
 10
21.80502729149852
 20
-6.207335346442989
 30
0.0
 10
21.88843187721348
 20
-6.288987415404986
 30
0.0
  0
SPLINE
  5
1CE
330
1F
100
AcDbEntity
  8
외형선
  6
Continuous
 62
     1
370
    15
100
AcDbSpline
210
0.0
220
0.0
230
1.0
 70
     8
 71
     3
 72
     8
 73
     4
 74
     0
 42
0.000000001
 43
0.00000001
 40
0.0
 40
0.0
 40
0.0
 40
0.0
 40
1.0
 40
1.0
 40
1.0
 40
1.0
 10
21.88843187721348
 20
-6.288987415404996
 30
0.0
 10
22.01875893334912
 20
-6.416576008813639
 30
0.0
 10
22.16167574852209
 20
-6.529790087250944
 30
0.0
 10
22.30674919356565
 20
-6.620667933920957
 30
0.0
  0
SPLINE
  5
1CF
330
1F
100
AcDbEntity
  8
외형선
  6
Continuous
 62
     1
370
    15
100
AcDbSpline
210
0.0
220
0.0
230
1.0
 70
     8
 71
     3
 72
     8
 73
     4
 74
     0
 42
0.000000001
 43
0.00000001
 40
0.0
 40
0.0
 40
0.0
 40
0.0
 40
1.0
 40
1.0
 40
1.0
 40
1.0
 10
22.30674914749725
 20
-6.620667912745968
 30
0.0
 10
22.45312870351593
 20
-6.687949757353278
 30
0.0
 10
22.59610097287875
 20
-6.728310039929759
 30
0.0
 10
22.72448508650027
 20
-6.734772260987078
 30
0.0
  0
SPLINE
  5
1D0
330
1F
100
AcDbEntity
  8
외형선
  6
Continuous
 62
     1
370
    15
100
AcDbSpline
210
0.0
220
0.0
230
1.0
 70
     8
 71
     3
 72
     8
 73
     4
 74
     0
 42
0.000000001
 43
0.00000001
 40
0.0
 40
0.0
 40
0.0
 40
0.0
 40
1.0
 40
1.0
 40
1.0
 40
1.0
 10
22.72448508649829
 20
-6.734772260986968
 30
0.0
 10
22.80565030083993
 20
-6.738857716285501
 30
0.0
 10
22.90866092140489
 20
-6.789251914104746
 30
0.0
 10
22.99252402183756
 20
-6.870346274268987
 30
0.0
  0
SPLINE
  5
1D1
330
1F
100
AcDbEntity
  8
외형선
  6
Continuous
 62
     1
370
    15
100
AcDbSpline
210
0.0
220
0.0
230
1.0
 70
     8
 71
     3
 72
    14
 73
    10
 74
     0
 42
0.000000001
 43
0.00000001
 40
0.0
 40
0.0
 40
0.0
 40
0.0
 40
0.25
 40
0.25
 40
0.5
 40
0.5
 40
0.75
 40
0.75
 40
1.0
 40
1.0
 40
1.0
 40
1.0
 10
22.99252402183753
 20
-6.870346274268935
 30
0.0
 10
23.07491426369515
 20
-6.950016402284117
 30
0.0
 10
23.16048552117824
 20
-7.021120692297654
 30
0.0
 10
23.33810363295226
 20
-7.147857495276186
 30
0.0
 10
23.42983116827734
 20
-7.202939240039249
 30
0.0
 10
23.61277201392869
 20
-7.291776845091821
 30
0.0
 10
23.70201086531199
 20
-7.324827116382952
 30
0.0
 10
23.8766759702788
 20
-7.368079776209414
 30
0.0
 10
23.96278926944175
 20
-7.37808960324462
 30
0.0
 10
24.04294536454595
 20
-7.374344760431541
 30
0.0
  0
SPLINE
  5
1D2
330
1F
100
AcDbEntity
  8
외형선
  6
Continuous
 62
     1
370
    15
100
AcDbSpline
210
0.0
220
0.0
230
1.0
 70
     8
 71
     3
 72
     8
 73
     4
 74
     0
 42
0.000000001
 43
0.00000001
 40
0.0
 40
0.0
 40
0.0
 40
0.0
 40
1.0
 40
1.0
 40
1.0
 40
1.0
 10
24.04294536454531
 20
-7.374344760431861
 30
0.0
 10
24.12456748992282
 20
-7.370531425597989
 30
0.0
 10
24.22763746042457
 20
-7.415516932794077
 30
0.0
 10
24.31105418468429
 20
-7.49615086097548
 30
0.0
  0
SPLINE
  5
1D3
330
1F
100
AcDbEntity
  8
외형선
  6
Continuous
 62
     1
370
    15
100
AcDbSpline
210
0.0
220
0.0
230
1.0
 70
     8
 71
     3
 72
     8
 73
     4
 74
     0
 42
0.000000001
 43
0.00000001
 40
0.0
 40
0.0
 40
0.0
 40
0.0
 40
1.0
 40
1.0
 40
1.0
 40
1.0
 10
24.31105418468207
 20
-7.49615086097393
 30
0.0
 10
24.44141373195885
 20
-7.622161591629641
 30
0.0
 10
24.58437000851569
 20
-7.72663763834709
 30
0.0
 10
24.72948592341882
 20
-7.803871014602752
 30
0.0
  0
SPLINE
  5
1D4
330
1F
100
AcDbEntity
  8
외형선
  6
Continuous
 62
     1
370
    15
100
AcDbSpline
210
0.0
220
0.0
230
1.0
 70
     8
 71
     3
 72
     8
 73
     4
 74
     0
 42
0.000000001
 43
0.00000001
 40
0.0
 40
0.0
 40
0.0
 40
0.0
 40
1.0
 40
1.0
 40
1.0
 40
1.0
 10
24.72948587733189
 20
-7.803870999229257
 30
0.0
 10
24.87595536892812
 20
-7.852729567651621
 30
0.0
 10
25.01897116704805
 20
-7.870523979907458
 30
0.0
 10
25.14741912802989
 20
-7.851647462732444
 30
0.0
  0
SPLINE
  5
1D5
330
1F
100
AcDbEntity
  8
외형선
  6
Continuous
 62
     1
370
    15
100
AcDbSpline
210
0.0
220
0.0
230
1.0
 70
     8
 71
     3
 72
     8
 73
     4
 74
     0
 42
0.000000001
 43
0.00000001
 40
0.0
 40
0.0
 40
0.0
 40
0.0
 40
1.0
 40
1.0
 40
1.0
 40
1.0
 10
25.14741912802991
 20
-7.851647462732426
 30
0.0
 10
25.22864116865719
 20
-7.839711195055068
 30
0.0
 10
25.33169962919062
 20
-7.878551827489224
 30
0.0
 10
25.41562406164699
 20
-7.957142502775979
 30
0.0
  0
SPLINE
  5
1D6
330
1F
100
AcDbEntity
  8
외형선
  6
Continuous
 62
     1
370
    15
100
AcDbSpline
210
0.0
220
0.0
230
1.0
 70
     8
 71
     3
 72
    14
 73
    10
 74
     0
 42
0.000000001
 43
0.00000001
 40
0.0
 40
0.0
 40
0.0
 40
0.0
 40
0.25
 40
0.25
 40
0.5
 40
0.5
 40
0.75
 40
0.75
 40
1.0
 40
1.0
 40
1.0
 40
1.0
 10
25.415624061647
 20
-7.957142502775983
 30
0.0
 10
25.49809185647329
 20
-8.034369115993508
 30
0.0
 10
25.58374005868476
 20
-8.100427931368232
 30
0.0
 10
25.76150942746185
 20
-8.212930417863916
 30
0.0
 10
25.85331491769003
 20
-8.258789065251358
 30
0.0
 10
26.03640850535562
 20
-8.326011519355788
 30
0.0
 10
26.12572987318159
 20
-8.346948502628404
 30
0.0
 10
26.30057184668211
 20
-8.363523972379685
 30
0.0
 10
26.38677417130857
 20
-8.358816570079046
 30
0.0
 10
26.46702477866995
 20
-8.339567438730255
 30
0.0
  0
SPLINE
  5
1D7
330
1F
100
AcDbEntity
  8
외형선
  6
Continuous
 62
     1
370
    15
100
AcDbSpline
210
0.0
220
0.0
230
1.0
 70
     8
 71
     3
 72
     8
 73
     4
 74
     0
 42
0.000000001
 43
0.00000001
 40
0.0
 40
0.0
 40
0.0
 40
0.0
 40
1.0
 40
1.0
 40
1.0
 40
1.0
 10
26.46702477867077
 20
-8.339567438731383
 30
0.0
 10
26.54876054102249
 20
-8.319962074022815
 30
0.0
 10
26.6519329072447
 20
-8.352665664526867
 30
0.0
 10
26.73546654029303
 20
-8.429372073292743
 30
0.0
  0
SPLINE
  5
1D8
330
1F
100
AcDbEntity
  8
외형선
  6
Continuous
 62
     1
370
    15
100
AcDbSpline
210
0.0
220
0.0
230
1.0
 70
     8
 71
     3
 72
     8
 73
     4
 74
     0
 42
0.000000001
 43
0.00000001
 40
0.0
 40
0.0
 40
0.0
 40
0.0
 40
1.0
 40
1.0
 40
1.0
 40
1.0
 10
26.73546654029306
 20
-8.429372073292768
 30
0.0
 10
26.86597669207652
 20
-8.549215598415248
 30
0.0
 10
27.00906994829207
 20
-8.641154337026563
 30
0.0
 10
27.15432657341751
 20
-8.701938326377155
 30
0.0
  0
SPLINE
  5
1D9
330
1F
100
AcDbEntity
  8
외형선
  6
Continuous
 62
     1
370
    15
100
AcDbSpline
210
0.0
220
0.0
230
1.0
 70
     8
 71
     3
 72
     8
 73
     4
 74
     0
 42
0.000000001
 43
0.00000001
 40
0.0
 40
0.0
 40
0.0
 40
0.0
 40
1.0
 40
1.0
 40
1.0
 40
1.0
 10
27.15432652728856
 20
-8.70193831736615
 30
0.0
 10
27.30089731009396
 20
-8.730569162622446
 30
0.0
 10
27.44399533565593
 20
-8.725108805242535
 30
0.0
 10
27.57251235391946
 20
-8.681521117112942
 30
0.0
  0
SPLINE
  5
1DA
330
1F
100
AcDbEntity
  8
외형선
  6
Continuous
 62
     1
370
    15
100
AcDbSpline
210
0.0
220
0.0
230
1.0
 70
     8
 71
     3
 72
     8
 73
     4
 74
     0
 42
0.000000001
 43
0.00000001
 40
0.0
 40
0.0
 40
0.0
 40
0.0
 40
1.0
 40
1.0
 40
1.0
 40
1.0
 10
27.57251235391947
 20
-8.68152111711295
 30
0.0
 10
27.65375671840508
 20
-8.6539663693501
 30
0.0
 10
27.75682952956753
 20
-8.679776726387335
 30
0.0
 10
27.8407739704231
 20
-8.752953857167672
 30
0.0
  0
SPLINE
  5
1DB
330
1F
100
AcDbEntity
  8
외형선
  6
Continuous
 62
     1
370
    15
100
AcDbSpline
210
0.0
220
0.0
230
1.0
 70
     8
 71
     3
 72
    14
 73
    10
 74
     0
 42
0.000000001
 43
0.00000001
 40
0.0
 40
0.0
 40
0.0
 40
0.0
 40
0.25
 40
0.25
 40
0.5
 40
0.5
 40
0.75
 40
0.75
 40
1.0
 40
1.0
 40
1.0
 40
1.0
 10
27.8407739704231
 20
-8.75295385716767
 30
0.0
 10
27.92320261938026
 20
-8.824809622282144
 30
0.0
 10
28.00880718656072
 20
-8.883333650320278
 30
0.0
 10
28.18648477186467
 20
-8.977370659561057
 30
0.0
 10
28.27824500629191
 20
-9.012285952559132
 30
0.0
 10
28.46126364240346
 20
-9.055354712262497
 30
0.0
 10
28.55054588067895
 20
-9.063368917169996
 30
0.0
 10
28.72530376490157
 20
-9.052555568143227
 30
0.0
 10
28.81146657124832
 20
-9.033239948149868
 30
0.0
 10
28.8916681411296
 20
-8.999112594086528
 30
0.0
  0
SPLINE
  5
1DC
330
1F
100
AcDbEntity
  8
외형선
  6
Continuous
 62
     1
370
    15
100
AcDbSpline
210
0.0
220
0.0
230
1.0
 70
     8
 71
     3
 72
     8
 73
     4
 74
     0
 42
0.000000001
 43
0.00000001
 40
0.0
 40
0.0
 40
0.0
 40
0.0
 40
1.0
 40
1.0
 40
1.0
 40
1.0
 10
28.8916681411296
 20
-8.999112594086517
 30
0.0
 10
28.97329495152177
 20
-8.964378772000012
 30
0.0
 10
29.07637309180654
 20
-8.983537405238547
 30
0.0
 10
29.15979597041034
 20
-9.053419852299301
 30
0.0
  0
SPLINE
  5
1DD
330
1F
100
AcDbEntity
  8
외형선
  6
Continuous
 62
     1
370
    15
100
AcDbSpline
210
0.0
220
0.0
230
1.0
 70
     8
 71
     3
 72
     8
 73
     4
 74
     0
 42
0.000000001
 43
0.00000001
 40
0.0
 40
0.0
 40
0.0
 40
0.0
 40
1.0
 40
1.0
 40
1.0
 40
1.0
 10
29.15979597041033
 20
-9.053419852299312
 30
0.0
 10
29.29013083068301
 20
-9.162599961228834
 30
0.0
 10
29.43306682544655
 20
-9.238564215730076
 30
0.0
 10
29.57817695642003
 20
-9.280604558702304
 30
0.0
  0
SPLINE
  5
1DE
330
1F
100
AcDbEntity
  8
외형선
  6
Continuous
 62
     1
370
    15
100
AcDbSpline
210
0.0
220
0.0
230
1.0
 70
     8
 71
     3
 72
     8
 73
     4
 74
     0
 42
0.000000001
 43
0.00000001
 40
0.0
 40
0.0
 40
0.0
 40
0.0
 40
1.0
 40
1.0
 40
1.0
 40
1.0
 10
29.57817691034011
 20
-9.280604556403418
 30
0.0
 10
29.72462789109408
 20
-9.287909851165612
 30
0.0
 10
29.86758945549858
 20
-9.259306257370614
 30
0.0
 10
29.9959430595972
 20
-9.192599202363166
 30
0.0
  0
SPLINE
  5
1DF
330
1F
100
AcDbEntity
  8
외형선
  6
Continuous
 62
     1
370
    15
100
AcDbSpline
210
0.0
220
0.0
230
1.0
 70
     8
 71
     3
 72
     8
 73
     4
 74
     0
 42
0.000000001
 43
0.00000001
 40
0.0
 40
0.0
 40
0.0
 40
0.0
 40
1.0
 40
1.0
 40
1.0
 40
1.0
 10
29.99594305959719
 20
-9.192599202363176
 30
0.0
 10
30.07710807021
 20
-9.15041667959219
 30
0.0
 10
30.18011094911449
 20
-9.16225610991122
 30
0.0
 10
30.26398117517445
 20
-9.227302823736613
 30
0.0
  0
SPLINE
  5
1E0
330
1F
100
AcDbEntity
  8
외형선
  6
Continuous
 62
     1
370
    15
100
AcDbSpline
210
0.0
220
0.0
230
1.0
 70
     8
 71
     3
 72
    14
 73
    10
 74
     0
 42
0.000000001
 43
0.00000001
 40
0.0
 40
0.0
 40
0.0
 40
0.0
 40
0.25
 40
0.25
 40
0.5
 40
0.5
 40
0.75
 40
0.75
 40
1.0
 40
1.0
 40
1.0
 40
1.0
 10
30.2639811751746
 20
-9.227302823736725
 30
0.0
 10
30.34635433596635
 20
-9.291188467887594
 30
0.0
 10
30.43190789646351
 20
-9.340054723824
 30
0.0
 10
30.60949343838904
 20
-9.412207157542975
 30
0.0
 10
30.70120860702287
 20
-9.434900673264428
 30
0.0
 10
30.88413914839992
 20
-9.45223810393229
 30
0.0
 10
30.97337747898868
 20
-9.447039725710301
 30
0.0
 10
31.14804852648744
 20
-9.409271244389686
 30
0.0
 10
31.23416961203758
 20
-9.376089269653376
 30
0.0
 10
31.31433282390817
 20
-9.328394881459307
 30
0.0
  0
SPLINE
  5
1E1
330
1F
100
AcDbEntity
  8
외형선
  6
Continuous
 62
     1
370
    15
100
AcDbSpline
210
0.0
220
0.0
230
1.0
 70
     8
 71
     3
 72
     8
 73
     4
 74
     0
 42
0.000000001
 43
0.00000001
 40
0.0
 40
0.0
 40
0.0
 40
0.0
 40
1.0
 40
1.0
 40
1.0
 40
1.0
 10
31.31433282390815
 20
-9.328394881459314
 30
0.0
 10
31.39593812930238
 20
-9.279842496601653
 30
0.0
 10
31.49900120394003
 20
-9.284809101330461
 30
0.0
 10
31.58240690304868
 20
-9.345353499396255
 30
0.0
  0
SPLINE
  5
1E2
330
1F
100
AcDbEntity
  8
외형선
  6
Continuous
 62
     1
370
    15
100
AcDbSpline
210
0.0
220
0.0
230
1.0
 70
     8
 71
     3
 72
     8
 73
     4
 74
     0
 42
0.000000001
 43
0.00000001
 40
0.0
 40
0.0
 40
0.0
 40
0.0
 40
1.0
 40
1.0
 40
1.0
 40
1.0
 10
31.58240690304868
 20
-9.345353499396259
 30
0.0
 10
31.71272917155921
 20
-9.43995474830207
 30
0.0
 10
31.85566147951283
 20
-9.49722051570603
 30
0.0
 10
32.00077244800858
 20
-9.519044422367738
 30
0.0
  0
SPLINE
  5
1E3
330
1F
100
AcDbEntity
  8
외형선
  6
Continuous
 62
     1
370
    15
100
AcDbSpline
210
0.0
220
0.0
230
1.0
 70
     8
 71
     3
 72
    10
 73
     6
 74
     0
 42
0.000000001
 43
0.00000001
 40
0.0
 40
0.0
 40
0.0
 40
0.0
 40
0.3757084716577603
 40
0.7540072017998428
 40
1.0
 40
1.0
 40
1.0
 40
1.0
 10
32.00077240193016
 20
-9.519044426841647
 30
0.0
 10
32.03079078900129
 20
-9.515195290559115
 30
0.0
 10
32.09103451983381
 20
-9.50747048077526
 30
0.0
 10
32.1696712754837
 20
-9.487269783744303
 30
0.0
 10
32.21758807571464
 20
-9.46960351799618
 30
0.0
 10
32.23646897868141
 20
-9.462642388543296
 30
0.0
  0
SPLINE
  5
1E4
330
1F
100
AcDbEntity
  8
외형선
  6
Continuous
 62
     1
370
    15
100
AcDbSpline
210
0.0
220
0.0
230
1.0
 70
     8
 71
     3
 72
     9
 73
     5
 74
     0
 42
0.000000001
 43
0.00000001
 40
0.0
 40
0.0
 40
0.0
 40
0.0
 40
0.2714120002523515
 40
1.0
 40
1.0
 40
1.0
 40
1.0
 10
32.63573781862109
 20
-9.339226767263392
 30
0.0
 10
32.64054711393569
 20
-9.340706556254187
 30
0.0
 10
32.65826665216589
 20
-9.346158743296089
 30
0.0
 10
32.67472983104881
 20
-9.356238543051129
 30
0.0
 10
32.6867247056206
 20
-9.363582564192512
 30
0.0
  0
SPLINE
  5
1E5
330
1F
100
AcDbEntity
  8
외형선
  6
Continuous
 62
     1
370
    15
100
AcDbSpline
210
0.0
220
0.0
230
1.0
 70
     8
 71
     3
 72
     8
 73
     4
 74
     0
 42
0.000000001
 43
0.00000001
 40
0.0
 40
0.0
 40
0.0
 40
0.0
 40
1.0
 40
1.0
 40
1.0
 40
1.0
 10
24.2183695080456
 20
-7.442614882939417
 30
0.0
 10
24.07192482846869
 20
-7.497611836966979
 30
0.0
 10
23.92881364596645
 20
-7.522689361666317
 30
0.0
 10
23.80040352459588
 20
-7.512011316300792
 30
0.0
  0
SPLINE
  5
1E6
330
1F
100
AcDbEntity
  8
외형선
  6
Continuous
 62
     1
370
    15
100
AcDbSpline
210
0.0
220
0.0
230
1.0
 70
     8
 71
     3
 72
     8
 73
     4
 74
     0
 42
0.000000001
 43
0.00000001
 40
0.0
 40
0.0
 40
0.0
 40
0.0
 40
1.0
 40
1.0
 40
1.0
 40
1.0
 10
23.80040352459588
 20
-7.512011316300783
 30
0.0
 10
23.71919395448078
 20
-7.505258270165883
 30
0.0
 10
23.61613819929159
 20
-7.548024288797785
 30
0.0
 10
23.53226604400892
 20
-7.627693610827711
 30
0.0
  0
SPLINE
  5
1E7
330
1F
100
AcDbEntity
  8
외형선
  6
Continuous
 62
     1
370
    15
100
AcDbSpline
210
0.0
220
0.0
230
1.0
 70
     8
 71
     3
 72
    14
 73
    10
 74
     0
 42
0.000000001
 43
0.00000001
 40
0.0
 40
0.0
 40
0.0
 40
0.0
 40
0.2500000000000008
 40
0.2500000000000008
 40
0.5000000000000006
 40
0.5000000000000006
 40
0.7500000000000003
 40
0.7500000000000003
 40
1.0
 40
1.0
 40
1.0
 40
1.0
 10
23.53226604400889
 20
-7.627693610827754
 30
0.0
 10
23.4498039939642
 20
-7.706023487985658
 30
0.0
 10
23.36417044718709
 20
-7.774013808446894
 30
0.0
 10
23.18646063971506
 20
-7.891703718514421
 30
0.0
 10
23.094708928585
 20
-7.940822623201588
 30
0.0
 10
22.91177812021663
 20
-8.015550696107983
 30
0.0
 10
22.8225629797669
 20
-8.040639796794766
 30
0.0
 10
22.64797339872027
 20
-8.06627245541166
 30
0.0
 10
22.56191850632993
 20
-8.06652080883423
 30
0.0
 10
22.48182076074229
 20
-8.05244832424634
 30
0.0
  0
SPLINE
  5
1E8
330
1F
100
AcDbEntity
  8
외형선
  6
Continuous
 62
     1
370
    15
100
AcDbSpline
210
0.0
220
0.0
230
1.0
 70
     8
 71
     3
 72
     8
 73
     4
 74
     0
 42
0.000000001
 43
0.00000001
 40
0.0
 40
0.0
 40
0.0
 40
0.0
 40
1.0
 40
1.0
 40
1.0
 40
1.0
 10
22.48182076074373
 20
-8.05244832424659
 30
0.0
 10
22.40022623178683
 20
-8.038112867701875
 30
0.0
 10
22.29722349661992
 20
-8.075115667887227
 30
0.0
 10
22.21378834287867
 20
-8.153506296398557
 30
0.0
  0
SPLINE
  5
1E9
330
1F
100
AcDbEntity
  8
외형선
  6
Continuous
 62
     1
370
    15
100
AcDbSpline
210
0.0
220
0.0
230
1.0
 70
     8
 71
     3
 72
     8
 73
     4
 74
     0
 42
0.000000001
 43
0.00000001
 40
0.0
 40
0.0
 40
0.0
 40
0.0
 40
1.0
 40
1.0
 40
1.0
 40
1.0
 10
22.21378834287865
 20
-8.153506296398561
 30
0.0
 10
22.08355381065939
 20
-8.275866792865164
 30
0.0
 10
21.94066970361456
 20
-8.372341307946959
 30
0.0
 10
21.79548003548716
 20
-8.438744075449804
 30
0.0
  0
SPLINE
  5
1EA
330
1F
100
AcDbEntity
  8
외형선
  6
Continuous
 62
     1
370
    15
100
AcDbSpline
210
0.0
220
0.0
230
1.0
 70
     8
 71
     3
 72
     8
 73
     4
 74
     0
 42
0.000000001
 43
0.00000001
 40
0.0
 40
0.0
 40
0.0
 40
0.0
 40
1.0
 40
1.0
 40
1.0
 40
1.0
 10
21.7954800357163
 20
-8.438744075394506
 30
0.0
 10
21.64909938535062
 20
-8.474061403020242
 30
0.0
 10
21.50605100021952
 20
-8.476039052331759
 30
0.0
 10
21.37769922632162
 20
-8.440367141819488
 30
0.0
  0
SPLINE
  5
1EB
330
1F
100
AcDbEntity
  8
외형선
  6
Continuous
 62
     1
370
    15
100
AcDbSpline
210
0.0
220
0.0
230
1.0
 70
     8
 71
     3
 72
     8
 73
     4
 74
     0
 42
0.000000001
 43
0.00000001
 40
0.0
 40
0.0
 40
0.0
 40
0.0
 40
1.0
 40
1.0
 40
1.0
 40
1.0
 10
21.37769922632162
 20
-8.44036714181949
 30
0.0
 10
21.29651701731979
 20
-8.417804738459136
 30
0.0
 10
21.193482876769
 20
-8.448003805515226
 30
0.0
 10
21.10963347370615
 20
-8.523192588160684
 30
0.0
  0
SPLINE
  5
1EC
330
1F
100
AcDbEntity
  8
외형선
  6
Continuous
 62
     1
370
    15
100
AcDbSpline
210
0.0
220
0.0
230
1.0
 70
     8
 71
     3
 72
    14
 73
    10
 74
     0
 42
0.000000001
 43
0.00000001
 40
0.0
 40
0.0
 40
0.0
 40
0.0
 40
0.2500000000000015
 40
0.2500000000000015
 40
0.500000000000003
 40
0.500000000000003
 40
0.7500000000000014
 40
0.7500000000000014
 40
1.0
 40
1.0
 40
1.0
 40
1.0
 10
21.10963347370614
 20
-8.523192588160688
 30
0.0
 10
21.02717657852339
 20
-8.597132692002178
 30
0.0
 10
20.94154463872874
 20
-8.658398424915651
 30
0.0
 10
20.76383113653151
 20
-8.758955093155082
 30
0.0
 10
20.67207563155489
 20
-8.797642722688868
 30
0.0
 10
20.48913687456989
 20
-8.848921670450032
 30
0.0
 10
20.39991590576123
 20
-8.861280394160097
 30
0.0
 10
20.22531080139713
 20
-8.859612263059695
 30
0.0
 10
20.13924689799399
 20
-8.845145022537155
 30
0.0
 10
20.05913663867124
 20
-8.815930261440037
 30
0.0
  0
SPLINE
  5
1ED
330
1F
100
AcDbEntity
  8
외형선
  6
Continuous
 62
     1
370
    15
100
AcDbSpline
210
0.0
220
0.0
230
1.0
 70
     8
 71
     3
 72
     8
 73
     4
 74
     0
 42
0.000000001
 43
0.00000001
 40
0.0
 40
0.0
 40
0.0
 40
0.0
 40
1.0
 40
1.0
 40
1.0
 40
1.0
 10
20.05913663867128
 20
-8.81593026144003
 30
0.0
 10
19.97749707572937
 20
-8.786157791002607
 30
0.0
 10
19.87447395642723
 20
-8.809990773316596
 30
0.0
 10
19.79101084585354
 20
-8.88250280745278
 30
0.0
  0
SPLINE
  5
1EE
330
1F
100
AcDbEntity
  8
외형선
  6
Continuous
 62
     1
370
    15
100
AcDbSpline
210
0.0
220
0.0
230
1.0
 70
     8
 71
     3
 72
     8
 73
     4
 74
     0
 42
0.000000001
 43
0.00000001
 40
0.0
 40
0.0
 40
0.0
 40
0.0
 40
1.0
 40
1.0
 40
1.0
 40
1.0
 10
19.79101084585354
 20
-8.882502807452774
 30
0.0
 10
19.6607073869226
 20
-8.995709334229915
 30
0.0
 10
19.51775507091672
 20
-9.077340130994669
 30
0.0
 10
19.37249745477369
 20
-9.125772119536412
 30
0.0
  0
SPLINE
  5
1EF
330
1F
100
AcDbEntity
  8
외형선
  6
Continuous
 62
     1
370
    15
100
AcDbSpline
210
0.0
220
0.0
230
1.0
 70
     8
 71
     3
 72
     8
 73
     4
 74
     0
 42
0.000000001
 43
0.00000001
 40
0.0
 40
0.0
 40
0.0
 40
0.0
 40
1.0
 40
1.0
 40
1.0
 40
1.0
 10
19.37249745500284
 20
-9.125772119513885
 30
0.0
 10
19.22602682728301
 20
-9.140158721184171
 30
0.0
 10
19.08288118473502
 20
-9.119014027304043
 30
0.0
 10
18.95441769559822
 20
-9.059685041194449
 30
0.0
  0
SPLINE
  5
1F0
330
1F
100
AcDbEntity
  8
외형선
  6
Continuous
 62
     1
370
    15
100
AcDbSpline
210
0.0
220
0.0
230
1.0
 70
     8
 71
     3
 72
     8
 73
     4
 74
     0
 42
0.000000001
 43
0.00000001
 40
0.0
 40
0.0
 40
0.0
 40
0.0
 40
1.0
 40
1.0
 40
1.0
 40
1.0
 10
18.95441769559822
 20
-9.059685041194442
 30
0.0
 10
18.87315635612032
 20
-9.022155678466353
 30
0.0
 10
18.77005235220069
 20
-9.03869653173099
 30
0.0
 10
18.68611978028259
 20
-9.106682207888106
 30
0.0
  0
SPLINE
  5
1F1
330
1F
100
AcDbEntity
  8
외형선
  6
Continuous
 62
     1
370
    15
100
AcDbSpline
210
0.0
220
0.0
230
1.0
 70
     8
 71
     3
 72
    14
 73
    10
 74
     0
 42
0.000000001
 43
0.00000001
 40
0.0
 40
0.0
 40
0.0
 40
0.0
 40
0.2500000000000001
 40
0.2500000000000001
 40
0.5000000000000002
 40
0.5000000000000002
 40
0.7500000000000001
 40
0.7500000000000001
 40
1.0
 40
1.0
 40
1.0
 40
1.0
 10
18.68611978028261
 20
-9.106682207888085
 30
0.0
 10
18.60356789293299
 20
-9.173549524726496
 30
0.0
 10
18.51784193105241
 20
-9.225858222890155
 30
0.0
 10
18.33994445180647
 20
-9.305616693668787
 30
0.0
 10
18.24809454450054
 20
-9.332465410916177
 30
0.0
 10
18.06496865334621
 20
-9.3584425533109
 30
0.0
 10
17.97564737422457
 20
-9.3576350878295
 30
0.0
 10
17.80082938566943
 20
-9.32875578812889
 30
0.0
 10
17.71465805601098
 20
-9.300111582564147
 30
0.0
 10
17.63444293785053
 20
-9.256809145242299
 30
0.0
  0
SPLINE
  5
1F2
330
1F
100
AcDbEntity
  8
외형선
  6
Continuous
 62
     1
370
    15
100
AcDbSpline
210
0.0
220
0.0
230
1.0
 70
     8
 71
     3
 72
     8
 73
     4
 74
     0
 42
0.000000001
 43
0.00000001
 40
0.0
 40
0.0
 40
0.0
 40
0.0
 40
1.0
 40
1.0
 40
1.0
 40
1.0
 10
17.63444293785052
 20
-9.256809145242284
 30
0.0
 10
17.55271314349347
 20
-9.212689041967062
 30
0.0
 10
17.44961803888878
 20
-9.222434681458477
 30
0.0
 10
17.36608866198863
 20
-9.286401040917006
 30
0.0
  0
SPLINE
  5
1F3
330
1F
100
AcDbEntity
  8
외형선
  6
Continuous
 62
     1
370
    15
100
AcDbSpline
210
0.0
220
0.0
230
1.0
 70
     8
 71
     3
 72
     8
 73
     4
 74
     0
 42
0.000000001
 43
0.00000001
 40
0.0
 40
0.0
 40
0.0
 40
0.0
 40
1.0
 40
1.0
 40
1.0
 40
1.0
 10
17.36608866198853
 20
-9.286401040917076
 30
0.0
 10
17.2357116791726
 20
-9.386243051685327
 30
0.0
 10
17.0927006280749
 20
-9.45000523808655
 30
0.0
 10
16.94737933700055
 20
-9.478651105210723
 30
0.0
  0
SPLINE
  5
1F4
330
1F
100
AcDbEntity
  8
외형선
  6
Continuous
 62
     1
370
    15
100
AcDbSpline
210
0.0
220
0.0
230
1.0
 70
     8
 71
     3
 72
     8
 73
     4
 74
     0
 42
0.000000001
 43
0.00000001
 40
0.0
 40
0.0
 40
0.0
 40
0.0
 40
1.0
 40
1.0
 40
1.0
 40
1.0
 10
16.94737933722989
 20
-9.47865110522187
 30
0.0
 10
16.80090731228082
 20
-9.471525097509975
 30
0.0
 10
16.6577499696811
 20
-9.427988839780145
 30
0.0
 10
16.52928340920385
 20
-9.347106126888036
 30
0.0
  0
SPLINE
  5
1F5
330
1F
100
AcDbEntity
  8
외형선
  6
Continuous
 62
     1
370
    15
100
AcDbSpline
210
0.0
220
0.0
230
1.0
 70
     8
 71
     3
 72
     8
 73
     4
 74
     0
 42
0.000000001
 43
0.00000001
 40
0.0
 40
0.0
 40
0.0
 40
0.0
 40
1.0
 40
1.0
 40
1.0
 40
1.0
 10
16.52928340920383
 20
-9.347106126888024
 30
0.0
 10
16.44805119744381
 20
-9.295962221135673
 30
0.0
 10
16.34497441239585
 20
-9.298191020824573
 30
0.0
 10
16.26107330161664
 20
-9.35644747454271
 30
0.0
  0
SPLINE
  5
1F6
330
1F
100
AcDbEntity
  8
외형선
  6
Continuous
 62
     1
370
    15
100
AcDbSpline
210
0.0
220
0.0
230
1.0
 70
     8
 71
     3
 72
    14
 73
    10
 74
     0
 42
0.000000001
 43
0.00000001
 40
0.0
 40
0.0
 40
0.0
 40
0.0
 40
0.25
 40
0.25
 40
0.5
 40
0.5
 40
0.75
 40
0.75
 40
1.0
 40
1.0
 40
1.0
 40
1.0
 10
16.26107330161668
 20
-9.35644747454269
 30
0.0
 10
16.17860725589321
 20
-9.4137074956722
 30
0.0
 10
16.09296852184967
 20
-9.455101724709495
 30
0.0
 10
15.91524304322081
 20
-9.5110919690544
 30
0.0
 10
15.82347809722987
 20
-9.52510999519631
 30
0.0
 10
15.64050652998815
 20
-9.524810690251732
 30
0.0
 10
15.55126691724608
 20
-9.51084789286557
 30
0.0
 10
15.37662295697062
 20
-9.455765842530024
 30
0.0
 10
15.29053643357801
 20
-9.413967437095245
 30
0.0
 10
15.21040928279806
 20
-9.358160687617321
 30
0.0
  0
SPLINE
  5
1F7
330
1F
100
AcDbEntity
  8
외형선
  6
Continuous
 62
     1
370
    15
100
AcDbSpline
210
0.0
220
0.0
230
1.0
 70
     8
 71
     3
 72
     8
 73
     4
 74
     0
 42
0.000000001
 43
0.00000001
 40
0.0
 40
0.0
 40
0.0
 40
0.0
 40
1.0
 40
1.0
 40
1.0
 40
1.0
 10
15.21040928279812
 20
-9.358160687617374
 30
0.0
 10
15.12878031912992
 20
-9.301307959406884
 30
0.0
 10
15.02575955251968
 20
-9.296631947145238
 30
0.0
 10
14.94234774445448
 20
-9.349661737656215
 30
0.0
  0
SPLINE
  5
1F8
330
1F
100
AcDbEntity
  8
외형선
  6
Continuous
 62
     1
370
    15
100
AcDbSpline
210
0.0
220
0.0
230
1.0
 70
     8
 71
     3
 72
     8
 73
     4
 74
     0
 42
0.000000001
 43
0.00000001
 40
0.0
 40
0.0
 40
0.0
 40
0.0
 40
1.0
 40
1.0
 40
1.0
 40
1.0
 10
14.94234774445448
 20
-9.349661737656216
 30
0.0
 10
14.81210997032812
 20
-9.43246154788378
 30
0.0
 10
14.66922769669588
 20
-9.47600955689412
 30
0.0
 10
14.52402793124144
 20
-9.483814840548561
 30
0.0
  0
SPLINE
  5
1F9
330
1F
100
AcDbEntity
  8
외형선
  6
Continuous
 62
     1
370
    15
100
AcDbSpline
210
0.0
220
0.0
230
1.0
 70
     8
 71
     3
 72
     8
 73
     4
 74
     0
 42
0.000000001
 43
0.00000001
 40
0.0
 40
0.0
 40
0.0
 40
0.0
 40
1.0
 40
1.0
 40
1.0
 40
1.0
 10
14.52402793147056
 20
-9.483814840592975
 30
0.0
 10
14.37766308329044
 20
-9.455442853530979
 30
0.0
 10
14.23461316616063
 20
-9.391104131242548
 30
0.0
 10
14.10625186239176
 20
-9.29168665388108
 30
0.0
  0
SPLINE
  5
1FA
330
1F
100
AcDbEntity
  8
외형선
  6
Continuous
 62
     1
370
    15
100
AcDbSpline
210
0.0
220
0.0
230
1.0
 70
     8
 71
     3
 72
     8
 73
     4
 74
     0
 42
0.000000001
 43
0.00000001
 40
0.0
 40
0.0
 40
0.0
 40
0.0
 40
1.0
 40
1.0
 40
1.0
 40
1.0
 10
14.10625186239175
 20
-9.291686653881076
 30
0.0
 10
14.0250764344902
 20
-9.228815243037191
 30
0.0
 10
13.9220472886009
 20
-9.216688756587542
 30
0.0
 10
13.83819816685318
 20
-9.263089541885876
 30
0.0
  0
SPLINE
  5
1FB
330
1F
100
AcDbEntity
  8
외형선
  6
Continuous
 62
     1
370
    15
100
AcDbSpline
210
0.0
220
0.0
230
1.0
 70
     8
 71
     3
 72
    14
 73
    10
 74
     0
 42
0.000000001
 43
0.00000001
 40
0.0
 40
0.0
 40
0.0
 40
0.0
 40
0.2500000000000001
 40
0.2500000000000001
 40
0.5000000000000001
 40
0.5000000000000001
 40
0.7500000000000002
 40
0.7500000000000002
 40
1.0
 40
1.0
 40
1.0
 40
1.0
 10
13.83819816685318
 20
-9.263089541885861
 30
0.0
 10
13.7557660806288
 20
-9.308706162010989
 30
0.0
 10
13.67015683853182
 20
-9.337705214714227
 30
0.0
 10
13.49248101793282
 20
-9.367923176367434
 30
0.0
 10
13.40073933875796
 20
-9.368606921415836
 30
0.0
 10
13.21781283393883
 20
-9.342067626440038
 30
0.0
 10
13.12859506153081
 20
-9.315479466677427
 30
0.0
 10
12.95399298410197
 20
-9.236273726990143
 30
0.0
 10
12.86792595403945
 20
-9.182893169195399
 30
0.0
 10
12.78781518131368
 20
-9.116669980859733
 30
0.0
  0
SPLINE
  5
1FC
330
1F
100
AcDbEntity
  8
외형선
  6
Continuous
 62
     1
370
    15
100
AcDbSpline
210
0.0
220
0.0
230
1.0
 70
     8
 71
     3
 72
     8
 73
     4
 74
     0
 42
0.000000001
 43
0.00000001
 40
0.0
 40
0.0
 40
0.0
 40
0.0
 40
1.0
 40
1.0
 40
1.0
 40
1.0
 10
12.78781518131367
 20
-9.116669980859731
 30
0.0
 10
12.7061846401572
 20
-9.049190483196524
 30
0.0
 10
12.6031465042172
 20
-9.030285971515843
 30
0.0
 10
12.51974062884784
 20
-9.070464547474367
 30
0.0
  0
SPLINE
  5
1FD
330
1F
100
AcDbEntity
  8
외형선
  6
Continuous
 62
     1
370
    15
100
AcDbSpline
210
0.0
220
0.0
230
1.0
 70
     8
 71
     3
 72
     8
 73
     4
 74
     0
 42
0.000000001
 43
0.00000001
 40
0.0
 40
0.0
 40
0.0
 40
0.0
 40
1.0
 40
1.0
 40
1.0
 40
1.0
 10
12.51974062884779
 20
-9.07046454747438
 30
0.0
 10
12.38946273411658
 20
-9.133222479886193
 30
0.0
 10
12.24657073701129
 20
-9.154930157694874
 30
0.0
 10
12.1013452369994
 20
-9.141603972199075
 30
0.0
  0
SPLINE
  5
1FE
330
1F
100
AcDbEntity
  8
외형선
  6
Continuous
 62
     1
370
    15
100
AcDbSpline
210
0.0
220
0.0
230
1.0
 70
     8
 71
     3
 72
     8
 73
     4
 74
     0
 42
0.000000001
 43
0.00000001
 40
0.0
 40
0.0
 40
0.0
 40
0.0
 40
1.0
 40
1.0
 40
1.0
 40
1.0
 10
12.10134523722858
 20
-9.141603972275139
 30
0.0
 10
11.95493361861543
 20
-9.093018343268481
 30
0.0
 10
11.81183104553049
 20
-9.010233975740523
 30
0.0
 10
11.68340480928826
 20
-8.895897999874078
 30
0.0
  0
SPLINE
  5
1FF
330
1F
100
AcDbEntity
  8
외형선
  6
Continuous
 62
     1
370
    15
100
AcDbSpline
210
0.0
220
0.0
230
1.0
 70
     8
 71
     3
 72
     8
 73
     4
 74
     0
 42
0.000000001
 43
0.00000001
 40
0.0
 40
0.0
 40
0.0
 40
0.0
 40
1.0
 40
1.0
 40
1.0
 40
1.0
 10
11.68340480928826
 20
-8.89589799987408
 30
0.0
 10
11.60217959477454
 20
-8.823584394507103
 30
0.0
 10
11.49910652066317
 20
-8.79753232891097
 30
0.0
 10
11.41520332668965
 20
-8.830374368703662
 30
0.0
  0
SPLINE
  5
200
330
1F
100
AcDbEntity
  8
외형선
  6
Continuous
 62
     1
370
    15
100
AcDbSpline
210
0.0
220
0.0
230
1.0
 70
     8
 71
     3
 72
    14
 73
    10
 74
     0
 42
0.000000001
 43
0.00000001
 40
0.0
 40
0.0
 40
0.0
 40
0.0
 40
0.25
 40
0.25
 40
0.5
 40
0.5
 40
0.75
 40
0.75
 40
1.0
 40
1.0
 40
1.0
 40
1.0
 10
11.41520332668966
 20
-8.830374368703623
 30
0.0
 10
11.33270070189613
 20
-8.862668186830806
 30
0.0
 10
11.24702062717157
 20
-8.878188385749528
 30
0.0
 10
11.06920404310395
 20
-8.881482730356385
 30
0.0
 10
10.97738945044176
 20
-8.86878473691654
 30
0.0
 10
10.79431992020866
 20
-8.816939142939399
 30
0.0
 10
10.70502519875822
 20
-8.778681356145407
 30
0.0
 10
10.53025880902055
 20
-8.678208775621505
 30
0.0
 10
10.44410905498475
 20
-8.615179253296802
 30
0.0
 10
10.36391060660329
 20
-8.54093480779124
 30
0.0
  0
SPLINE
  5
201
330
1F
100
AcDbEntity
  8
외형선
  6
Continuous
 62
     1
370
    15
100
AcDbSpline
210
0.0
220
0.0
230
1.0
 70
     8
 71
     3
 72
     8
 73
     4
 74
     0
 42
0.000000001
 43
0.00000001
 40
0.0
 40
0.0
 40
0.0
 40
0.0
 40
1.0
 40
1.0
 40
1.0
 40
1.0
 10
10.36391060660329
 20
-8.540934807791238
 30
0.0
 10
10.28217280069437
 20
-8.465265288005975
 30
0.0
 10
10.17903611229884
 20
-8.432784402320761
 30
0.0
 10
10.09551920083476
 20
-8.458623258430467
 30
0.0
  0
SPLINE
  5
202
330
1F
100
AcDbEntity
  8
외형선
  6
Continuous
 62
     1
370
    15
100
AcDbSpline
210
0.0
220
0.0
230
1.0
 70
     8
 71
     3
 72
     8
 73
     4
 74
     0
 42
0.000000001
 43
0.00000001
 40
0.0
 40
0.0
 40
0.0
 40
0.0
 40
1.0
 40
1.0
 40
1.0
 40
1.0
 10
10.09551920083472
 20
-8.458623258430459
 30
0.0
 10
9.965044635607569
 20
-8.498990095012209
 30
0.0
 10
9.822019542173493
 20
-8.497956743102831
 30
0.0
 10
9.67664599811572
 20
-8.463911029535991
 30
0.0
  0
SPLINE
  5
203
330
1F
100
AcDbEntity
  8
외형선
  6
Continuous
 62
     1
370
    15
100
AcDbSpline
210
0.0
220
0.0
230
1.0
 70
     8
 71
     3
 72
     8
 73
     4
 74
     0
 42
0.000000001
 43
0.00000001
 40
0.0
 40
0.0
 40
0.0
 40
0.0
 40
1.0
 40
1.0
 40
1.0
 40
1.0
 10
9.676645998345219
 20
-8.463911029641034
 30
0.0
 10
9.530136718527487
 20
-8.3968392028569
 30
0.0
 10
9.386922142440405
 20
-8.298603457665648
 30
0.0
 10
9.258385812550241
 20
-8.173465434442239
 30
0.0
  0
SPLINE
  5
204
330
1F
100
AcDbEntity
  8
외형선
  6
Continuous
 62
     1
370
    15
100
AcDbSpline
210
0.0
220
0.0
230
1.0
 70
     8
 71
     3
 72
     8
 73
     4
 74
     0
 42
0.000000001
 43
0.00000001
 40
0.0
 40
0.0
 40
0.0
 40
0.0
 40
1.0
 40
1.0
 40
1.0
 40
1.0
 10
9.258385812549164
 20
-8.173465434441194
 30
0.0
 10
9.177122795880962
 20
-8.094350889349247
 30
0.0
 10
9.074019940260523
 20
-8.055291032407457
 30
0.0
 10
8.990081550670727
 20
-8.073354919417117
 30
0.0
  0
SPLINE
  5
205
330
1F
100
AcDbEntity
  8
외형선
  6
Continuous
 62
     1
370
    15
100
AcDbSpline
210
0.0
220
0.0
230
1.0
 70
     8
 71
     3
 72
    14
 73
    10
 74
     0
 42
0.000000001
 43
0.00000001
 40
0.0
 40
0.0
 40
0.0
 40
0.0
 40
0.2500000000000003
 40
0.2500000000000003
 40
0.5000000000000006
 40
0.5000000000000006
 40
0.7500000000000009
 40
0.7500000000000009
 40
1.0
 40
1.0
 40
1.0
 40
1.0
 10
8.990081550669839
 20
-8.073354919417278
 30
0.0
 10
8.907603191371912
 20
-8.091104601897705
 30
0.0
 10
8.821951855193706
 20
-8.092577000715314
 30
0.0
 10
8.644197669186177
 20
-8.068860931424284
 30
0.0
 10
8.552413180963871
 20
-8.04328109284213
 30
0.0
 10
8.369388738118005
 20
-7.968092388698301
 30
0.0
 10
8.28011785120303
 20
-7.919599507006122
 30
0.0
 10
8.10540443401414
 20
-7.801598680800994
 30
0.0
 10
8.019278825708248
 20
-7.731246372076911
 30
0.0
 10
7.939114271784116
 20
-7.651710512481431
 30
0.0
  0
SPLINE
  5
206
330
1F
100
AcDbEntity
  8
외형선
  6
Continuous
 62
     1
370
    15
100
AcDbSpline
210
0.0
220
0.0
230
1.0
 70
     8
 71
     3
 72
     8
 73
     4
 74
     0
 42
0.000000001
 43
0.00000001
 40
0.0
 40
0.0
 40
0.0
 40
0.0
 40
1.0
 40
1.0
 40
1.0
 40
1.0
 10
7.939114271784118
 20
-7.651710512481428
 30
0.0
 10
7.857470430668761
 20
-7.570706967074911
 30
0.0
 10
7.754412414360249
 20
-7.525889213530706
 30
0.0
 10
7.670992195775638
 20
-7.536499178353028
 30
0.0
  0
SPLINE
  5
207
330
1F
100
AcDbEntity
  8
외형선
  6
Continuous
 62
     1
370
    15
100
AcDbSpline
210
0.0
220
0.0
230
1.0
 70
     8
 71
     3
 72
     8
 73
     4
 74
     0
 42
0.000000001
 43
0.00000001
 40
0.0
 40
0.0
 40
0.0
 40
0.0
 40
1.0
 40
1.0
 40
1.0
 40
1.0
 10
7.670992195775557
 20
-7.53649917835298
 30
0.0
 10
7.540670734411301
 20
-7.553074370124617
 30
0.0
 10
7.397827091057628
 20
-7.529475396228691
 30
0.0
 10
7.252622555519284
 20
-7.476060427249483
 30
0.0
  0
SPLINE
  5
208
330
1F
100
AcDbEntity
  8
외형선
  6
Continuous
 62
     1
370
    15
100
AcDbSpline
210
0.0
220
0.0
230
1.0
 70
     8
 71
     3
 72
     8
 73
     4
 74
     0
 42
0.000000001
 43
0.00000001
 40
0.0
 40
0.0
 40
0.0
 40
0.0
 40
1.0
 40
1.0
 40
1.0
 40
1.0
 10
7.252622555748469
 20
-7.476060427379508
 30
0.0
 10
7.106263436530493
 20
-7.393036733958796
 30
0.0
 10
6.96320076722152
 20
-7.283015559113577
 30
0.0
 10
6.834816478363586
 20
-7.151799506370756
 30
0.0
  0
SPLINE
  5
209
330
1F
100
AcDbEntity
  8
외형선
  6
Continuous
 62
     1
370
    15
100
AcDbSpline
210
0.0
220
0.0
230
1.0
 70
     8
 71
     3
 72
     8
 73
     4
 74
     0
 42
0.000000001
 43
0.00000001
 40
0.0
 40
0.0
 40
0.0
 40
0.0
 40
1.0
 40
1.0
 40
1.0
 40
1.0
 10
6.834816478363623
 20
-7.151799506370805
 30
0.0
 10
6.753639574746717
 20
-7.068832089085956
 30
0.0
 10
6.650610299992194
 20
-7.018262791662127
 30
0.0
 10
6.566753061380029
 20
-7.020925503458508
 30
0.0
  0
SPLINE
  5
20A
330
1F
100
AcDbEntity
  8
외형선
  6
Continuous
 62
     1
370
    15
100
AcDbSpline
210
0.0
220
0.0
230
1.0
 70
     8
 71
     3
 72
    10
 73
     6
 74
     0
 42
0.000000001
 43
0.00000001
 40
0.0
 40
0.0
 40
0.0
 40
0.0
 40
0.5
 40
0.5
 40
1.0
 40
1.0
 40
1.0
 40
1.0
 10
6.566753061379964
 20
-7.020925503458418
 30
0.0
 10
6.472909062084999
 20
-7.023905324021065
 30
0.0
 10
6.374972929675754
 20
-7.00731288873475
 30
0.0
 10
6.170575094582802
 20
-6.94260647827625
 30
0.0
 10
6.06506112696029
 20
-6.894061013609605
 30
0.0
 10
5.962315328493934
 20
-6.833819859582769
 30
0.0
  0
SPLINE
  5
20B
330
1F
100
AcDbEntity
  8
외형선
  6
Continuous
370
    15
100
AcDbSpline
210
0.0
220
0.0
230
1.0
 70
    24
 71
     3
 72
     9
 73
     5
 74
     0
 42
0.000000001
 43
0.00000001
 40
0.0
 40
0.0
 40
0.0
 40
0.0
 40
0.5
 40
1.0
 40
1.0
 40
1.0
 40
1.0
 10
5.962315328507787
 20
-6.79722761506883
 30
0.0
 10
5.962315328507787
 20
-6.803345023998588
 30
0.0
 10
5.962315328507789
 20
-6.815561199223676
 30
0.0
 10
5.962315328507789
 20
-6.827739912392915
 30
0.0
 10
5.962315328507789
 20
-6.833819859586877
 30
0.0
  0
SPLINE
  5
20C
330
1F
100
AcDbEntity
  8
외형선
  6
Continuous
370
    15
100
AcDbSpline
210
0.0
220
0.0
230
1.0
 70
     8
 71
     3
 72
     8
 73
     4
 74
     0
 42
0.000000001
 43
0.00000001
 40
0.0
 40
0.0
 40
0.0
 40
0.0
 40
1.0
 40
1.0
 40
1.0
 40
1.0
 10
5.962315328507789
 20
-6.79722761506883
 30
0.0
 10
5.895846387265682
 20
-6.765184227617614
 30
0.0
 10
5.829404227774678
 20
-6.732826999826842
 30
0.0
 10
5.762988802086148
 20
-6.700155171239367
 30
0.0
  0
SPLINE
  5
20D
330
1F
100
AcDbEntity
  8
외형선
  6
Continuous
370
    15
100
AcDbSpline
210
0.0
220
0.0
230
1.0
 70
     8
 71
     3
 72
     8
 73
     4
 74
     0
 42
0.000000001
 43
0.00000001
 40
0.0
 40
0.0
 40
0.0
 40
0.0
 40
1.0
 40
1.0
 40
1.0
 40
1.0
 10
5.76298880208613
 20
-6.700155171235872
 30
0.0
 10
5.678089505392056
 20
-6.635854991181278
 30
0.0
 10
5.594401785864091
 20
-6.562572877021841
 30
0.0
 10
5.516398558803128
 20
-6.48287772993982
 30
0.0
  0
SPLINE
  5
20E
330
1F
100
AcDbEntity
  8
외형선
  6
Continuous
 62
     1
370
    15
100
AcDbSpline
210
0.0
220
0.0
230
1.0
 70
     8
 71
     3
 72
     8
 73
     4
 74
     0
 42
0.000000001
 43
0.00000001
 40
0.0
 40
0.0
 40
0.0
 40
0.0
 40
1.0
 40
1.0
 40
1.0
 40
1.0
 10
40.37787991607781
 20
5.881369871210472
 30
0.0
 10
40.23132068874047
 20
5.957451846426765
 30
0.0
 10
40.08819624556601
 20
6.009254973082394
 30
0.0
 10
39.95978134453872
 20
6.029445250226602
 30
0.0
  0
SPLINE
  5
20F
330
1F
100
AcDbEntity
  8
외형선
  6
Continuous
 62
     1
370
    15
100
AcDbSpline
210
0.0
220
0.0
230
1.0
 70
     8
 71
     3
 72
     8
 73
     4
 74
     0
 42
0.000000001
 43
0.00000001
 40
0.0
 40
0.0
 40
0.0
 40
0.0
 40
1.0
 40
1.0
 40
1.0
 40
1.0
 10
43.4873620802741
 20
3.821277847773225
 30
0.0
 10
43.40576469129512
 20
3.856827413196165
 30
0.0
 10
43.3027027580501
 20
3.924687470099862
 30
0.0
 10
43.21929902214851
 20
4.002012217361263
 30
0.0
  0
SPLINE
  5
210
330
1F
100
AcDbEntity
  8
외형선
  6
Continuous
 62
     1
370
    15
100
AcDbSpline
210
0.0
220
0.0
230
1.0
 70
     8
 71
     3
 72
    14
 73
    10
 74
     0
 42
0.000000001
 43
0.00000001
 40
0.0
 40
0.0
 40
0.0
 40
0.0
 40
0.2499999999999998
 40
0.2499999999999998
 40
0.4999999999999997
 40
0.4999999999999997
 40
0.7499999999999998
 40
0.7499999999999998
 40
1.0
 40
1.0
 40
1.0
 40
1.0
 10
22.60407192863908
 20
-0.2157455036606473
 30
0.0
 10
22.57917946827765
 20
-0.8085648062472902
 30
0.0
 10
22.55375038079228
 20
-1.404350610305724
 30
0.0
 10
22.50314239130005
 20
-2.570533750784716
 30
0.0
 10
22.4779711847515
 20
-3.140755994297269
 30
0.0
 10
22.42917406442761
 20
-4.227168266015423
 30
0.0
 10
22.40605805117708
 20
-4.74022762483837
 30
0.0
 10
22.35723930380284
 20
-5.724783276109406
 30
0.0
 10
22.33206152968757
 20
-6.191903670030932
 30
0.0
 10
22.30675576686881
 20
-6.620556590007385
 30
0.0
  0
SPLINE
  5
211
330
1F
100
AcDbEntity
  8
외형선
  6
Continuous
370
    15
100
AcDbSpline
210
0.0
220
0.0
230
1.0
 70
     8
 71
     3
 72
    14
 73
    10
 74
     0
 42
0.000000001
 43
0.00000001
 40
0.0
 40
0.0
 40
0.0
 40
0.0
 40
0.25
 40
0.25
 40
0.5
 40
0.5
 40
0.75
 40
0.75
 40
1.0
 40
1.0
 40
1.0
 40
1.0
 10
2.91208780727358
 20
-9.157220727997572
 30
0.0
 10
2.988825233086241
 20
-9.206313829363395
 30
0.0
 10
3.066611792753339
 20
-9.243986145254436
 30
0.0
 10
3.224736174742741
 20
-9.299430303695154
 30
0.0
 10
3.306152690775171
 20
-9.31719504584257
 30
0.0
 10
3.466550123795676
 20
-9.330880865252606
 30
0.0
 10
3.545102956205604
 20
-9.327097270505941
 30
0.0
 10
3.699183975723696
 20
-9.297687002999995
 30
0.0
 10
3.775068709317061
 20
-9.27167370049873
 30
0.0
 10
3.846150322205421
 20
-9.234155511229952
 30
0.0
  0
SPLINE
  5
212
330
1F
100
AcDbEntity
  8
외형선
  6
Continuous
370
    15
100
AcDbSpline
210
0.0
220
0.0
230
1.0
 70
     8
 71
     3
 72
     8
 73
     4
 74
     0
 42
0.000000001
 43
0.00000001
 40
0.0
 40
0.0
 40
0.0
 40
0.0
 40
1.0
 40
1.0
 40
1.0
 40
1.0
 10
3.84615032220607
 20
-9.234155511229616
 30
0.0
 10
3.927747652396397
 20
-9.191086931979507
 30
0.0
 10
4.030809152457213
 20
-9.201922292138232
 30
0.0
 10
4.114212331702212
 20
-9.266583777562223
 30
0.0
  0
SPLINE
  5
213
330
1F
100
AcDbEntity
  8
외형선
  6
Continuous
370
    15
100
AcDbSpline
210
0.0
220
0.0
230
1.0
 70
     8
 71
     3
 72
     8
 73
     4
 74
     0
 42
0.000000001
 43
0.00000001
 40
0.0
 40
0.0
 40
0.0
 40
0.0
 40
1.0
 40
1.0
 40
1.0
 40
1.0
 10
4.114212331702221
 20
-9.266583777562238
 30
0.0
 10
4.244508609769345
 20
-9.367600920569341
 30
0.0
 10
4.387424937118198
 20
-9.432834322038644
 30
0.0
 10
4.532537424943916
 20
-9.463089216124741
 30
0.0
  0
SPLINE
  5
214
330
1F
100
AcDbEntity
  8
외형선
  6
Continuous
370
    15
100
AcDbSpline
210
0.0
220
0.0
230
1.0
 70
     8
 71
     3
 72
     8
 73
     4
 74
     0
 42
0.000000001
 43
0.00000001
 40
0.0
 40
0.0
 40
0.0
 40
0.0
 40
1.0
 40
1.0
 40
1.0
 40
1.0
 10
4.532537378872301
 20
-9.463089217827934
 30
0.0
 10
4.67899230860953
 20
-9.45767501124492
 30
0.0
 10
4.822005361914397
 20
-9.41586151694186
 30
0.0
 10
4.950297750048372
 20
-9.336675058540429
 30
0.0
  0
SPLINE
  5
215
330
1F
100
AcDbEntity
  8
외형선
  6
Continuous
370
    15
100
AcDbSpline
210
0.0
220
0.0
230
1.0
 70
     8
 71
     3
 72
     8
 73
     4
 74
     0
 42
0.000000001
 43
0.00000001
 40
0.0
 40
0.0
 40
0.0
 40
0.0
 40
1.0
 40
1.0
 40
1.0
 40
1.0
 10
4.95029775004842
 20
-9.336675058540406
 30
0.0
 10
5.031492125872888
 20
-9.286559107335725
 30
0.0
 10
5.134462290567522
 20
-9.289962829546045
 30
0.0
 10
5.218337860025032
 20
-9.349100657894747
 30
0.0
  0
SPLINE
  5
216
330
1F
100
AcDbEntity
  8
외형선
  6
Continuous
370
    15
100
AcDbSpline
210
0.0
220
0.0
230
1.0
 70
     8
 71
     3
 72
     8
 73
     4
 74
     0
 42
0.000000001
 43
0.00000001
 40
0.0
 40
0.0
 40
0.0
 40
0.0
 40
1.0
 40
1.0
 40
1.0
 40
1.0
 10
5.218337860024945
 20
-9.349100657894635
 30
0.0
 10
5.312164292949553
 20
-9.415254503653944
 30
0.0
 10
5.410087753903247
 20
-9.461105905161263
 30
0.0
 10
5.512290106271952
 20
-9.489778913263995
 30
0.0
  0
SPLINE
  5
217
330
1F
100
AcDbEntity
  8
외형선
  6
Continuous
370
    15
100
AcDbSpline
210
0.0
220
0.0
230
1.0
 70
     8
 71
     3
 72
     8
 73
     4
 74
     0
 42
0.000000001
 43
0.00000001
 40
0.0
 40
0.0
 40
0.0
 40
0.0
 40
1.0
 40
1.0
 40
1.0
 40
1.0
 10
5.51229010627262
 20
-9.489778913265761
 30
0.0
 10
5.662173999662
 20
-9.48599712697808
 30
0.0
 10
5.812182104534988
 20
-9.480186185364383
 30
0.0
 10
5.962315328507787
 20
-9.47235897570878
 30
0.0
  0
SPLINE
  5
218
330
1F
100
AcDbEntity
  8
외형선
  6
Continuous
 62
     1
370
    15
100
AcDbSpline
210
0.0
220
0.0
230
1.0
 70
     8
 71
     3
 72
    10
 73
     6
 74
     0
 42
0.000000001
 43
0.00000001
 40
0.0
 40
0.0
 40
0.0
 40
0.0
 40
0.0811988394150004
 40
0.7639651304795745
 40
0.9999999999999999
 40
0.9999999999999999
 40
0.9999999999999999
 40
0.9999999999999999
 10
37.20403379235614
 20
7.456623307438195
 30
0.0
 10
37.2200549181029
 20
7.46565803425888
 30
0.0
 10
37.37079083390822
 20
7.550661912444066
 30
0.0
 10
37.57245154056064
 20
7.601782711319331
 30
0.0
 10
37.73527663116963
 20
7.597470247115126
 30
0.0
 10
37.77710548453339
 20
7.596362399226579
 30
0.0
  0
SPLINE
  5
219
330
1F
100
AcDbEntity
  8
외형선
  6
Continuous
 62
     1
370
    15
100
AcDbSpline
210
0.0
220
0.0
230
1.0
 70
     8
 71
     3
 72
     8
 73
     4
 74
     0
 42
0.000000001
 43
0.00000001
 40
0.0
 40
0.0
 40
0.0
 40
0.0
 40
1.0
 40
1.0
 40
1.0
 40
1.0
 10
37.77710548453401
 20
7.5963623992265
 30
0.0
 10
37.85871966920639
 20
7.589318792192417
 30
0.0
 10
37.96179861508163
 20
7.631893711271764
 30
0.0
 10
38.04525449826733
 20
7.711959992087126
 30
0.0
  0
SPLINE
  5
21A
330
1F
100
AcDbEntity
  8
외형선
  6
Continuous
 62
     1
370
    15
100
AcDbSpline
210
0.0
220
0.0
230
1.0
 70
     8
 71
     3
 72
     8
 73
     4
 74
     0
 42
0.000000001
 43
0.00000001
 40
0.0
 40
0.0
 40
0.0
 40
0.0
 40
1.0
 40
1.0
 40
1.0
 40
1.0
 10
38.04525449826621
 20
7.711959992087132
 30
0.0
 10
38.17557982421811
 20
7.836992089845839
 30
0.0
 10
38.31855512157691
 20
7.939099985687769
 30
0.0
 10
38.46379265305928
 20
8.01300701198663
 30
0.0
  0
SPLINE
  5
21B
330
1F
100
AcDbEntity
  8
외형선
  6
Continuous
 62
     1
370
    15
100
AcDbSpline
210
0.0
220
0.0
230
1.0
 70
     8
 71
     3
 72
     8
 73
     4
 74
     0
 42
0.000000001
 43
0.00000001
 40
0.0
 40
0.0
 40
0.0
 40
0.0
 40
1.0
 40
1.0
 40
1.0
 40
1.0
 10
38.46379260695711
 20
8.013006997944004
 30
0.0
 10
38.61030751573985
 20
8.057634942554897
 30
0.0
 10
38.7534446041147
 20
8.070384090756571
 30
0.0
 10
38.8818765400848
 20
8.046250065803171
 30
0.0
  0
SPLINE
  5
21C
330
1F
100
AcDbEntity
  8
외형선
  6
Continuous
 62
     1
370
    15
100
AcDbSpline
210
0.0
220
0.0
230
1.0
 70
     8
 71
     3
 72
     8
 73
     4
 74
     0
 42
0.000000001
 43
0.00000001
 40
0.0
 40
0.0
 40
0.0
 40
0.0
 40
1.0
 40
1.0
 40
1.0
 40
1.0
 10
38.8818765400848
 20
8.046250065803171
 30
0.0
 10
38.9631489141063
 20
8.03097793362015
 30
0.0
 10
39.06624595587049
 20
8.067231866282176
 30
0.0
 10
39.15016659709513
 20
8.14490733448291
 30
0.0
  0
SPLINE
  5
21D
330
1F
100
AcDbEntity
  8
외형선
  6
Continuous
 62
     1
370
    15
100
AcDbSpline
210
0.0
220
0.0
230
1.0
 70
     8
 71
     3
 72
    14
 73
    10
 74
     0
 42
0.000000001
 43
0.00000001
 40
0.0
 40
0.0
 40
0.0
 40
0.0
 40
0.25
 40
0.25
 40
0.5
 40
0.5
 40
0.75
 40
0.75
 40
1.0
 40
1.0
 40
1.0
 40
1.0
 10
39.15016659709516
 20
8.144907334482928
 30
0.0
 10
39.2327386419788
 20
8.221334565650785
 30
0.0
 10
39.31847048513295
 20
8.28609466792481
 30
0.0
 10
39.49634159700644
 20
8.395255432983433
 30
0.0
 10
39.58815560645621
 20
8.439060647433127
 30
0.0
 10
39.77117795886893
 20
8.501696204138575
 30
0.0
 10
39.86042960418672
 20
8.520172718988837
 30
0.0
 10
40.03525722446031
 20
8.531365827024084
 30
0.0
 10
40.12148659361838
 20
8.523712778059613
 30
0.0
 10
40.20178042734418
 20
8.50136109417129
 30
0.0
  0
SPLINE
  5
21E
330
1F
100
AcDbEntity
  8
외형선
  6
Continuous
 62
     1
370
    15
100
AcDbSpline
210
0.0
220
0.0
230
1.0
 70
     8
 71
     3
 72
     8
 73
     4
 74
     0
 42
0.000000001
 43
0.00000001
 40
0.0
 40
0.0
 40
0.0
 40
0.0
 40
1.0
 40
1.0
 40
1.0
 40
1.0
 10
40.20178042734483
 20
8.501361094171104
 30
0.0
 10
40.28347708737674
 20
8.478618900467897
 30
0.0
 10
40.38662342880427
 20
8.508601118373685
 30
0.0
 10
40.47015956287635
 20
8.584147702008744
 30
0.0
  0
SPLINE
  5
21F
330
1F
100
AcDbEntity
  8
외형선
  6
Continuous
 62
     1
370
    15
100
AcDbSpline
210
0.0
220
0.0
230
1.0
 70
     8
 71
     3
 72
     8
 73
     4
 74
     0
 42
0.000000001
 43
0.00000001
 40
0.0
 40
0.0
 40
0.0
 40
0.0
 40
1.0
 40
1.0
 40
1.0
 40
1.0
 10
40.47015956287636
 20
8.584147702008748
 30
0.0
 10
40.60056033892653
 20
8.702076706545288
 30
0.0
 10
40.74359802471577
 20
8.790940458593644
 30
0.0
 10
40.8889032900103
 20
8.847930570134414
 30
0.0
  0
SPLINE
  5
220
330
1F
100
AcDbEntity
  8
외형선
  6
Continuous
 62
     1
370
    15
100
AcDbSpline
210
0.0
220
0.0
230
1.0
 70
     8
 71
     3
 72
     8
 73
     4
 74
     0
 42
0.000000001
 43
0.00000001
 40
0.0
 40
0.0
 40
0.0
 40
0.0
 40
1.0
 40
1.0
 40
1.0
 40
1.0
 10
40.88890324389587
 20
8.847930562527347
 30
0.0
 10
41.03542395791789
 20
8.872100721951396
 30
0.0
 10
41.17857656517885
 20
8.861618804826003
 30
0.0
 10
41.30701397527558
 20
8.81303973318241
 30
0.0
  0
SPLINE
  5
221
330
1F
100
AcDbEntity
  8
외형선
  6
Continuous
 62
     1
370
    15
100
AcDbSpline
210
0.0
220
0.0
230
1.0
 70
     8
 71
     3
 72
     8
 73
     4
 74
     0
 42
0.000000001
 43
0.00000001
 40
0.0
 40
0.0
 40
0.0
 40
0.0
 40
1.0
 40
1.0
 40
1.0
 40
1.0
 10
41.30701397527557
 20
8.81303973318241
 30
0.0
 10
41.38825885212623
 20
8.78231036320967
 30
0.0
 10
41.49133228812275
 20
8.805298902138908
 30
0.0
 10
41.57522292868546
 20
8.876968753905034
 30
0.0
  0
SPLINE
  5
222
330
1F
100
AcDbEntity
  8
외형선
  6
Continuous
 62
     1
370
    15
100
AcDbSpline
210
0.0
220
0.0
230
1.0
 70
     8
 71
     3
 72
    14
 73
    10
 74
     0
 42
0.000000001
 43
0.00000001
 40
0.0
 40
0.0
 40
0.0
 40
0.0
 40
0.25
 40
0.25
 40
0.5
 40
0.5
 40
0.75
 40
0.75
 40
1.0
 40
1.0
 40
1.0
 40
1.0
 10
41.57522292868546
 20
8.876968753905036
 30
0.0
 10
41.65771768141176
 20
8.947446064123662
 30
0.0
 10
41.74337203082948
 20
9.004179051821998
 30
0.0
 10
41.92109291390582
 20
9.09403026099792
 30
0.0
 10
42.01283406703512
 20
9.126543723787801
 30
0.0
 10
42.19572252485182
 20
9.164500787636536
 30
0.0
 10
42.28488978554471
 20
9.1698829950574
 30
0.0
 10
42.45950975396736
 20
9.153594467822694
 30
0.0
 10
42.54563781263096
 20
9.131406007930895
 30
0.0
 10
42.62583056775533
 20
9.094390235486935
 30
0.0
  0
SPLINE
  5
223
330
1F
100
AcDbEntity
  8
외형선
  6
Continuous
 62
     1
370
    15
100
AcDbSpline
210
0.0
220
0.0
230
1.0
 70
     8
 71
     3
 72
     8
 73
     4
 74
     0
 42
0.000000001
 43
0.00000001
 40
0.0
 40
0.0
 40
0.0
 40
0.0
 40
1.0
 40
1.0
 40
1.0
 40
1.0
 10
42.625830567756
 20
9.094390235486628
 30
0.0
 10
42.70742169459292
 20
9.056728995643224
 30
0.0
 10
42.81047624950574
 20
9.07299704948351
 30
0.0
 10
42.89391167376869
 20
9.141178350485859
 30
0.0
  0
SPLINE
  5
224
330
1F
100
AcDbEntity
  8
외형선
  6
Continuous
 62
     1
370
    15
100
AcDbSpline
210
0.0
220
0.0
230
1.0
 70
     8
 71
     3
 72
     8
 73
     4
 74
     0
 42
0.000000001
 43
0.00000001
 40
0.0
 40
0.0
 40
0.0
 40
0.0
 40
1.0
 40
1.0
 40
1.0
 40
1.0
 10
42.89391167376871
 20
9.141178350485864
 30
0.0
 10
43.02417187128759
 20
9.247623662103994
 30
0.0
 10
43.16708134005744
 20
9.319945171438954
 30
0.0
 10
43.31226634993639
 20
9.357893276477471
 30
0.0
  0
SPLINE
  5
225
330
1F
100
AcDbEntity
  8
외형선
  6
Continuous
 62
     1
370
    15
100
AcDbSpline
210
0.0
220
0.0
230
1.0
 70
     8
 71
     3
 72
     8
 73
     4
 74
     0
 42
0.000000001
 43
0.00000001
 40
0.0
 40
0.0
 40
0.0
 40
0.0
 40
1.0
 40
1.0
 40
1.0
 40
1.0
 10
43.31226630385974
 20
9.35789327559104
 30
0.0
 10
43.45868070652691
 20
9.360709686841028
 30
0.0
 10
43.60172607432252
 20
9.327358998508185
 30
0.0
 10
43.73005671752792
 20
9.256154310063797
 30
0.0
  0
SPLINE
  5
226
330
1F
100
AcDbEntity
  8
외형선
  6
Continuous
 62
     1
370
    15
100
AcDbSpline
210
0.0
220
0.0
230
1.0
 70
     8
 71
     3
 72
     8
 73
     4
 74
     0
 42
0.000000001
 43
0.00000001
 40
0.0
 40
0.0
 40
0.0
 40
0.0
 40
1.0
 40
1.0
 40
1.0
 40
1.0
 10
43.73005671752792
 20
9.256154310063806
 30
0.0
 10
43.81124389287824
 20
9.211107333113436
 30
0.0
 10
43.9142711944717
 20
9.220024281348591
 30
0.0
 10
43.99810877672025
 20
9.283067164719943
 30
0.0
  0
SPLINE
  5
227
330
1F
100
AcDbEntity
  8
외형선
  6
Continuous
 62
     1
370
    15
100
AcDbSpline
210
0.0
220
0.0
230
1.0
 70
     8
 71
     3
 72
    14
 73
    10
 74
     0
 42
0.000000001
 43
0.00000001
 40
0.0
 40
0.0
 40
0.0
 40
0.0
 40
0.25
 40
0.25
 40
0.5
 40
0.5
 40
0.75
 40
0.75
 40
1.0
 40
1.0
 40
1.0
 40
1.0
 10
43.99810877672027
 20
9.283067164719947
 30
0.0
 10
44.08057531298798
 20
9.345079070222573
 30
0.0
 10
44.16620718104799
 20
9.391752759862065
 30
0.0
 10
44.34389490409652
 20
9.459075218040889
 30
0.0
 10
44.43562214989423
 20
9.479130068576403
 30
0.0
 10
44.61848082101014
 20
9.491070407916437
 30
0.0
 10
44.70763931568695
 20
9.483181600769232
 30
0.0
 10
44.88217606770944
 20
9.440072560771794
 30
0.0
 10
44.96826436655173
 20
9.404205343259282
 30
0.0
 10
45.04842453938711
 20
9.353931498871175
 30
0.0
  0
SPLINE
  5
228
330
1F
100
AcDbEntity
  8
외형선
  6
Continuous
 62
     1
370
    15
100
AcDbSpline
210
0.0
220
0.0
230
1.0
 70
     8
 71
     3
 72
     8
 73
     4
 74
     0
 42
0.000000001
 43
0.00000001
 40
0.0
 40
0.0
 40
0.0
 40
0.0
 40
1.0
 40
1.0
 40
1.0
 40
1.0
 10
45.04842453938779
 20
9.35393149887076
 30
0.0
 10
45.13001616701709
 20
9.302759892751201
 30
0.0
 10
45.23307021351918
 20
9.30474126186773
 30
0.0
 10
45.31651102710708
 20
9.363098061095013
 30
0.0
  0
SPLINE
  5
229
330
1F
100
AcDbEntity
  8
외형선
  6
Continuous
 62
     1
370
    15
100
AcDbSpline
210
0.0
220
0.0
230
1.0
 70
     8
 71
     3
 72
     8
 73
     4
 74
     0
 42
0.000000001
 43
0.00000001
 40
0.0
 40
0.0
 40
0.0
 40
0.0
 40
1.0
 40
1.0
 40
1.0
 40
1.0
 10
45.31651102710708
 20
9.363098061095005
 30
0.0
 10
45.44679341727715
 20
9.45421490139278
 30
0.0
 10
45.58972826809018
 20
9.507370515923007
 30
0.0
 10
45.73494051966854
 20
9.524920740282697
 30
0.0
  0
SPLINE
  5
22A
330
1F
100
AcDbEntity
  8
외형선
  6
Continuous
 62
     1
370
    15
100
AcDbSpline
210
0.0
220
0.0
230
1.0
 70
     8
 71
     3
 72
     8
 73
     4
 74
     0
 42
0.000000001
 43
0.00000001
 40
0.0
 40
0.0
 40
0.0
 40
0.0
 40
1.0
 40
1.0
 40
1.0
 40
1.0
 10
45.73494047358054
 20
9.52492074613762
 30
0.0
 10
45.88140248067559
 20
9.506314513575594
 30
0.0
 10
46.02450053212544
 20
9.451359008404085
 30
0.0
 10
46.15289437712087
 20
9.360156313656615
 30
0.0
  0
SPLINE
  5
22B
330
1F
100
AcDbEntity
  8
외형선
  6
Continuous
 62
     1
370
    15
100
AcDbSpline
210
0.0
220
0.0
230
1.0
 70
     8
 71
     3
 72
     8
 73
     4
 74
     0
 42
0.000000001
 43
0.00000001
 40
0.0
 40
0.0
 40
0.0
 40
0.0
 40
1.0
 40
1.0
 40
1.0
 40
1.0
 10
46.15289437712087
 20
9.360156313656617
 30
0.0
 10
46.23413046617171
 20
9.302451442893965
 30
0.0
 10
46.33720322112156
 20
9.296980587073719
 30
0.0
 10
46.4210937979385
 20
9.349110913456464
 30
0.0
  0
SPLINE
  5
22C
330
1F
100
AcDbEntity
  8
외형선
  6
Continuous
 62
     1
370
    15
100
AcDbSpline
210
0.0
220
0.0
230
1.0
 70
     8
 71
     3
 72
     8
 73
     4
 74
     0
 42
0.000000001
 43
0.00000001
 40
0.0
 40
0.0
 40
0.0
 40
0.0
 40
1.0
 40
1.0
 40
1.0
 40
1.0
 10
46.42109379793852
 20
9.349110913456476
 30
0.0
 10
46.5290650796051
 20
9.416205197067448
 30
0.0
 10
46.64273108625218
 20
9.455785640955886
 30
0.0
 10
46.76138031349008
 20
9.472005573138137
 30
0.0
  0
SPLINE
  5
22D
330
1F
100
AcDbEntity
  8
외형선
  6
Continuous
 62
     1
370
    15
100
AcDbSpline
210
0.0
220
0.0
230
1.0
 70
     8
 71
     3
 72
    22
 73
    18
 74
     0
 42
0.000000001
 43
0.00000001
 40
0.0
 40
0.0
 40
0.0
 40
0.0
 40
0.2500000000000012
 40
0.2500000000000012
 40
0.375000000000002
 40
0.375000000000002
 40
0.5000000000000028
 40
0.5000000000000028
 40
0.5625000000000031
 40
0.5625000000000031
 40
0.6250000000000033
 40
0.6250000000000033
 40
0.7500000000000022
 40
0.7500000000000022
 40
0.8750000000000012
 40
0.8750000000000012
 40
1.0
 40
1.0
 40
1.0
 40
1.0
 10
46.76138031349005
 20
9.472005573138134
 30
0.0
 10
46.78235310609224
 20
8.880941576565986
 30
0.0
 10
46.75893818845865
 20
8.296509700052699
 30
0.0
 10
46.63319396317355
 20
7.433402006596416
 30
0.0
 10
46.57600348612166
 20
7.147981842124271
 30
0.0
 10
46.42287970975821
 20
6.582930211161488
 30
0.0
 10
46.32886504517658
 20
6.310829375498939
 30
0.0
 10
46.15836053210343
 20
5.921470052812873
 30
0.0
 10
46.09658112327028
 20
5.794774751226254
 30
0.0
 10
45.96226248905331
 20
5.548110735847748
 30
0.0
 10
45.88930043782911
 20
5.427615770296248
 30
0.0
 10
45.65816115366358
 20
5.084961891392552
 30
0.0
 10
45.48684467659535
 20
4.879273525405631
 30
0.0
 10
45.1088212452563
 20
4.514637648203478
 30
0.0
 10
44.89956502497949
 20
4.354747970191944
 30
0.0
 10
44.46468305228861
 20
4.097258158674606
 30
0.0
 10
44.2375363358819
 20
3.99738315983214
 30
0.0
 10
44.00125579308851
 20
3.924676927883735
 30
0.0
  0
SPLINE
  5
22E
330
1F
100
AcDbEntity
  8
외형선
  6
Continuous
 62
     1
370
    15
100
AcDbSpline
210
0.0
220
0.0
230
1.0
 70
     8
 71
     3
 72
     8
 73
     4
 74
     0
 42
0.000000001
 43
0.00000001
 40
0.0
 40
0.0
 40
0.0
 40
0.0
 40
1.0
 40
1.0
 40
1.0
 40
1.0
 10
47.2373153285078
 20
2.375151339946335
 30
0.0
 10
46.12816457038507
 20
2.976637649332413
 30
0.0
 10
45.04967083054767
 20
3.492608455380096
 30
0.0
 10
44.00125579308852
 20
3.924676927883743
 30
0.0
  0
LINE
  5
22F
330
1F
100
AcDbEntity
  8
외형선
  6
Continuous
 62
     1
370
    15
100
AcDbLine
 10
47.2373153285078
 20
1.161400480856132
 30
0.0
 11
47.2373153285078
 21
2.375151339946336
 31
0.0
  0
SPLINE
  5
230
330
1F
100
AcDbEntity
  8
외형선
  6
Continuous
 62
     1
370
    15
100
AcDbSpline
210
0.0
220
0.0
230
1.0
 70
     8
 71
     3
 72
     8
 73
     4
 74
     0
 42
0.000000001
 43
0.00000001
 40
0.0002708580373136
 40
0.0002708580373136
 40
0.0002708580373136
 40
0.0002708580373136
 40
0.000315821284586
 40
0.000315821284586
 40
0.000315821284586
 40
0.000315821284586
 10
47.20869495779047
 20
1.175034401327542
 30
0.0
 10
47.21822706134838
 20
1.167334427713968
 30
0.0
 10
47.22776720499279
 20
1.159665612341181
 30
0.0
 10
47.2373153285078
 20
1.152028231626805
 30
0.0
  0
SPLINE
  5
231
330
1F
100
AcDbEntity
  8
외형선
  6
Continuous
 62
     1
370
    15
100
AcDbSpline
210
0.0
220
0.0
230
1.0
 70
     8
 71
     3
 72
     8
 73
     4
 74
     0
 42
0.000000001
 43
0.00000001
 40
0.0
 40
0.0
 40
0.0
 40
0.0
 40
1.0
 40
1.0
 40
1.0
 40
1.0
 10
42.38321525761998
 20
4.553118478247819
 30
0.0
 10
42.30201893400738
 20
4.581468129361244
 30
0.0
 10
42.19905117802691
 20
4.646128512076815
 30
0.0
 10
42.11517843448638
 20
4.725465255644218
 30
0.0
  0
SPLINE
  5
232
330
1F
100
AcDbEntity
  8
외형선
  6
Continuous
 62
     1
370
    15
100
AcDbSpline
210
0.0
220
0.0
230
1.0
 70
     8
 71
     3
 72
     8
 73
     4
 74
     0
 42
0.000000001
 43
0.00000001
 40
0.0
 40
0.0
 40
0.0
 40
0.0
 40
1.0
 40
1.0
 40
1.0
 40
1.0
 10
41.06462840643301
 20
5.380192541597815
 30
0.0
 10
40.98299285459547
 20
5.400737700936583
 30
0.0
 10
40.87989543687598
 20
5.461237966583493
 30
0.0
 10
40.7964491984639
 20
5.542153817649681
 30
0.0
  0
SPLINE
  5
233
330
1F
100
AcDbEntity
  8
외형선
  6
Continuous
 62
     1
370
    15
100
AcDbSpline
210
0.0
220
0.0
230
1.0
 70
     8
 71
     3
 72
     8
 73
     4
 74
     0
 42
0.000000001
 43
0.00000001
 40
0.0
 40
0.0
 40
0.0
 40
0.0
 40
1.0
 40
1.0
 40
1.0
 40
1.0
 10
39.95978134453873
 20
6.029445250226595
 30
0.0
 10
39.87848775237264
 20
6.042226789929165
 30
0.0
 10
39.77544167356571
 20
6.098319588708381
 30
0.0
 10
39.69148937945759
 20
6.179732120814219
 30
0.0
  0
SPLINE
  5
234
330
1F
100
AcDbEntity
  8
외형선
  6
Continuous
 62
     1
370
    15
100
AcDbSpline
210
0.0
220
0.0
230
1.0
 70
     8
 71
     3
 72
     8
 73
     4
 74
     0
 42
0.000000001
 43
0.00000001
 40
0.0
 40
0.0
 40
0.0
 40
0.0
 40
1.0
 40
1.0
 40
1.0
 40
1.0
 10
38.63978492091099
 20
6.743123968227217
 30
0.0
 10
38.5580858657645
 20
6.747910008816557
 30
0.0
 10
38.45493471044718
 20
6.798817878911578
 30
0.0
 10
38.37142759165884
 20
6.880372865180102
 30
0.0
  0
SPLINE
  5
235
330
1F
100
AcDbEntity
  8
외형선
  6
Continuous
 62
     1
370
    15
100
AcDbSpline
210
0.0
220
0.0
230
1.0
 70
     8
 71
     3
 72
     8
 73
     4
 74
     0
 42
0.000000001
 43
0.00000001
 40
0.0
 40
0.0
 40
0.0
 40
0.0
 40
1.0
 40
1.0
 40
1.0
 40
1.0
 10
38.37142759165914
 20
6.880372865179481
 30
0.0
 10
38.24100718894096
 20
7.007744451065212
 30
0.0
 10
38.09797217453109
 20
7.117327437890839
 30
0.0
 10
37.95273168222705
 20
7.202150790375401
 30
0.0
  0
SPLINE
  5
236
330
1F
100
AcDbEntity
  8
외형선
  6
Continuous
 62
     1
370
    15
100
AcDbSpline
210
0.0
220
0.0
230
1.0
 70
     8
 71
     3
 72
     8
 73
     4
 74
     0
 42
0.000000001
 43
0.00000001
 40
0.0
 40
0.0
 40
0.0
 40
0.0
 40
1.0
 40
1.0
 40
1.0
 40
1.0
 10
37.95273168245643
 20
7.202150790283238
 30
0.0
 10
37.80619184254912
 20
7.261023165332605
 30
0.0
 10
37.66307880130584
 20
7.290883963653712
 30
0.0
 10
37.53468908016357
 20
7.285622797089379
 30
0.0
  0
SPLINE
  5
237
330
1F
100
AcDbEntity
  8
외형선
  6
Continuous
 62
     1
370
    15
100
AcDbSpline
210
0.0
220
0.0
230
1.0
 70
     8
 71
     3
 72
     8
 73
     4
 74
     0
 42
0.000000001
 43
0.00000001
 40
0.0
 40
0.0
 40
0.0
 40
0.0
 40
1.0
 40
1.0
 40
1.0
 40
1.0
 10
37.53468908016348
 20
7.285622797089387
 30
0.0
 10
37.45343686875955
 20
7.282293236014612
 30
0.0
 10
37.35042037976696
 20
7.327665393510216
 30
0.0
 10
37.26653275868932
 20
7.408076789170806
 30
0.0
  0
SPLINE
  5
238
330
1F
100
AcDbEntity
  8
외형선
  6
Continuous
 62
     1
370
    15
100
AcDbSpline
210
0.0
220
0.0
230
1.0
 70
     8
 71
     3
 72
    14
 73
    10
 74
     0
 42
0.000000001
 43
0.00000001
 40
0.0
 40
0.0
 40
0.0
 40
0.0
 40
0.25
 40
0.25
 40
0.5
 40
0.5
 40
0.75
 40
0.75
 40
1.0
 40
1.0
 40
1.0
 40
1.0
 10
37.26653275868834
 20
7.408076789171148
 30
0.0
 10
37.1841587573336
 20
7.487037288109828
 30
0.0
 10
37.0986091813175
 20
7.556184450679128
 30
0.0
 10
36.92103284813538
 20
7.677001135093722
 30
0.0
 10
36.82931471886707
 20
7.728107628792526
 30
0.0
 10
36.64634974129947
 20
7.807401329410232
 30
0.0
 10
36.55708215434683
 20
7.835004409469531
 30
0.0
 10
36.38233343305166
 20
7.866066562413369
 30
0.0
 10
36.29616354640954
 20
7.869259699986364
 30
0.0
 10
36.21595152511078
 20
7.85823229313216
 30
0.0
  0
SPLINE
  5
239
330
1F
100
AcDbEntity
  8
외형선
  6
Continuous
 62
     1
370
    15
100
AcDbSpline
210
0.0
220
0.0
230
1.0
 70
     8
 71
     3
 72
     8
 73
     4
 74
     0
 42
0.000000001
 43
0.00000001
 40
0.0
 40
0.0
 40
0.0
 40
0.0
 40
1.0
 40
1.0
 40
1.0
 40
1.0
 10
36.2159515251108
 20
7.858232293132149
 30
0.0
 10
36.13434973215693
 20
7.847013822928251
 30
0.0
 10
36.0312804200043
 20
7.88642150814855
 30
0.0
 10
35.94786606031727
 20
7.965537768157718
 30
0.0
  0
SPLINE
  5
23A
330
1F
100
AcDbEntity
  8
외형선
  6
Continuous
 62
     1
370
    15
100
AcDbSpline
210
0.0
220
0.0
230
1.0
 70
     8
 71
     3
 72
     8
 73
     4
 74
     0
 42
0.000000001
 43
0.00000001
 40
0.0
 40
0.0
 40
0.0
 40
0.0
 40
1.0
 40
1.0
 40
1.0
 40
1.0
 10
35.9478660603142
 20
7.965537768160625
 30
0.0
 10
35.81757439854136
 20
8.089115879036513
 30
0.0
 10
35.67465401402999
 20
8.188118059408657
 30
0.0
 10
35.52951969791609
 20
8.257900227506243
 30
0.0
  0
SPLINE
  5
23B
330
1F
100
AcDbEntity
  8
외형선
  6
Continuous
 62
     1
370
    15
100
AcDbSpline
210
0.0
220
0.0
230
1.0
 70
     8
 71
     3
 72
     8
 73
     4
 74
     0
 42
0.000000001
 43
0.00000001
 40
0.0
 40
0.0
 40
0.0
 40
0.0
 40
1.0
 40
1.0
 40
1.0
 40
1.0
 10
35.52951969814533
 20
8.257900227444418
 30
0.0
 10
35.38307204173132
 20
8.297398727342081
 30
0.0
 10
35.24005232093045
 20
8.304207556498376
 30
0.0
 10
35.11175665635449
 20
8.273723194115234
 30
0.0
  0
SPLINE
  5
23C
330
1F
100
AcDbEntity
  8
외형선
  6
Continuous
 62
     1
370
    15
100
AcDbSpline
210
0.0
220
0.0
230
1.0
 70
     8
 71
     3
 72
     8
 73
     4
 74
     0
 42
0.000000001
 43
0.00000001
 40
0.0
 40
0.0
 40
0.0
 40
0.0
 40
1.0
 40
1.0
 40
1.0
 40
1.0
 10
35.11175665635449
 20
8.273723194115233
 30
0.0
 10
35.03055294038591
 20
8.254428360477435
 30
0.0
 10
34.92755914747992
 20
8.287450601013862
 30
0.0
 10
34.84373194239461
 20
8.363908071769018
 30
0.0
  0
SPLINE
  5
23D
330
1F
100
AcDbEntity
  8
외형선
  6
Continuous
 62
     1
370
    15
100
AcDbSpline
210
0.0
220
0.0
230
1.0
 70
     8
 71
     3
 72
    14
 73
    10
 74
     0
 42
0.000000001
 43
0.00000001
 40
0.0
 40
0.0
 40
0.0
 40
0.0
 40
0.2499999999999997
 40
0.2499999999999997
 40
0.4999999999999994
 40
0.4999999999999994
 40
0.7499999999999997
 40
0.7499999999999997
 40
1.0
 40
1.0
 40
1.0
 40
1.0
 10
34.84373194239362
 20
8.363908071769574
 30
0.0
 10
34.76137752596062
 20
8.439022235239019
 30
0.0
 10
34.67585638121464
 20
8.501918730507326
 30
0.0
 10
34.49831878953637
 20
8.606421496067071
 30
0.0
 10
34.40661969092949
 20
8.647437108233207
 30
0.0
 10
34.22369138603112
 20
8.7037900173887
 30
0.0
 10
34.13444030822695
 20
8.71882854179206
 30
0.0
 10
33.95972046957667
 20
8.722740768305082
 30
0.0
 10
33.87356350616808
 20
8.711199821602404
 30
0.0
 10
33.79336017609365
 20
8.684904440112215
 30
0.0
  0
SPLINE
  5
23E
330
1F
100
AcDbEntity
  8
외형선
  6
Continuous
 62
     1
370
    15
100
AcDbSpline
210
0.0
220
0.0
230
1.0
 70
     8
 71
     3
 72
     8
 73
     4
 74
     0
 42
0.000000001
 43
0.00000001
 40
0.0
 40
0.0
 40
0.0
 40
0.0
 40
1.0
 40
1.0
 40
1.0
 40
1.0
 10
33.79336017609365
 20
8.684904440112224
 30
0.0
 10
33.71174962014894
 20
8.658147686992363
 30
0.0
 10
33.60867085295583
 20
8.684657973996664
 30
0.0
 10
33.52524325852855
 20
8.758497303655977
 30
0.0
  0
SPLINE
  5
23F
330
1F
100
AcDbEntity
  8
외형선
  6
Continuous
 62
     1
370
    15
100
AcDbSpline
210
0.0
220
0.0
230
1.0
 70
     8
 71
     3
 72
     8
 73
     4
 74
     0
 42
0.000000001
 43
0.00000001
 40
0.0
 40
0.0
 40
0.0
 40
0.0
 40
1.0
 40
1.0
 40
1.0
 40
1.0
 10
33.52524325852858
 20
8.758497303655954
 30
0.0
 10
33.39491738674082
 20
8.873844930255212
 30
0.0
 10
33.251957890225
 20
8.958705045242574
 30
0.0
 10
33.1067822621394
 20
9.01096155063275
 30
0.0
  0
SPLINE
  5
240
330
1F
100
AcDbEntity
  8
외형선
  6
Continuous
 62
     1
370
    15
100
AcDbSpline
210
0.0
220
0.0
230
1.0
 70
     8
 71
     3
 72
     8
 73
     4
 74
     0
 42
0.000000001
 43
0.00000001
 40
0.0
 40
0.0
 40
0.0
 40
0.0
 40
1.0
 40
1.0
 40
1.0
 40
1.0
 10
33.10678226240191
 20
9.010961550597186
 30
0.0
 10
32.96027244712879
 20
9.029712897164591
 30
0.0
 10
32.81718586392061
 20
9.013301992318924
 30
0.0
 10
32.68881408678452
 20
8.958775005093239
 30
0.0
  0
SPLINE
  5
241
330
1F
100
AcDbEntity
  8
외형선
  6
Continuous
 62
     1
370
    15
100
AcDbSpline
210
0.0
220
0.0
230
1.0
 70
     8
 71
     3
 72
     8
 73
     4
 74
     0
 42
0.000000001
 43
0.00000001
 40
0.0
 40
0.0
 40
0.0
 40
0.0
 40
1.0
 40
1.0
 40
1.0
 40
1.0
 10
32.6888140867845
 20
8.958775005093232
 30
0.0
 10
32.60755310214002
 20
8.92425872144812
 30
0.0
 10
32.50450373125516
 20
8.943762774839737
 30
0.0
 10
32.42061540889341
 20
9.013504606033159
 30
0.0
  0
SPLINE
  5
242
330
1F
100
AcDbEntity
  8
외형선
  6
Continuous
 62
     1
370
    15
100
AcDbSpline
210
0.0
220
0.0
230
1.0
 70
     8
 71
     3
 72
    14
 73
    10
 74
     0
 42
0.000000001
 43
0.00000001
 40
0.0
 40
0.0
 40
0.0
 40
0.0
 40
0.25
 40
0.25
 40
0.5
 40
0.5
 40
0.75
 40
0.75
 40
1.0
 40
1.0
 40
1.0
 40
1.0
 10
32.42061540889243
 20
9.013504606033765
 30
0.0
 10
32.338160635979
 20
9.082054634115156
 30
0.0
 10
32.25257285145015
 20
9.136403666588947
 30
0.0
 10
32.07488348268245
 20
9.220782442295036
 30
0.0
 10
31.98310900874193
 20
9.250212210789194
 30
0.0
 10
31.80003144142949
 20
9.281579628828096
 30
0.0
 10
31.71069903065083
 20
9.283515440728927
 30
0.0
 10
31.53580357372126
 20
9.260155280208325
 30
0.0
 10
31.44955809603118
 20
9.234313238004162
 30
0.0
 10
31.3692601141921
 20
9.193716125637575
 30
0.0
  0
SPLINE
  5
243
330
1F
100
AcDbEntity
  8
외형선
  6
Continuous
 62
     1
370
    15
100
AcDbSpline
210
0.0
220
0.0
230
1.0
 70
     8
 71
     3
 72
     8
 73
     4
 74
     0
 42
0.000000001
 43
0.00000001
 40
0.0
 40
0.0
 40
0.0
 40
0.0
 40
1.0
 40
1.0
 40
1.0
 40
1.0
 10
31.3692601141921
 20
9.193716125637577
 30
0.0
 10
31.28753546186664
 20
9.152397716163398
 30
0.0
 10
31.18435591122492
 20
9.165031884244408
 30
0.0
 10
31.10081110935369
 20
9.230907041906999
 30
0.0
  0
SPLINE
  5
244
330
1F
100
AcDbEntity
  8
외형선
  6
Continuous
 62
     1
370
    15
100
AcDbSpline
210
0.0
220
0.0
230
1.0
 70
     8
 71
     3
 72
     8
 73
     4
 74
     0
 42
0.000000001
 43
0.00000001
 40
0.0
 40
0.0
 40
0.0
 40
0.0
 40
1.0
 40
1.0
 40
1.0
 40
1.0
 10
31.10081110935369
 20
9.230907041906997
 30
0.0
 10
30.97033695776552
 20
9.333786037538733
 30
0.0
 10
30.8272445159432
 20
9.401391393989122
 30
0.0
 10
30.68193278394951
 20
9.434200884818376
 30
0.0
  0
SPLINE
  5
245
330
1F
100
AcDbEntity
  8
외형선
  6
Continuous
 62
     1
370
    15
100
AcDbSpline
210
0.0
220
0.0
230
1.0
 70
     8
 71
     3
 72
     8
 73
     4
 74
     0
 42
0.000000001
 43
0.00000001
 40
0.0
 40
0.0
 40
0.0
 40
0.0
 40
1.0
 40
1.0
 40
1.0
 40
1.0
 10
30.68193278420539
 20
9.434200884821458
 30
0.0
 10
30.53534584890762
 20
9.431497753787205
 30
0.0
 10
30.39217037532249
 20
9.392461845304926
 30
0.0
 10
30.26371683685315
 20
9.315838762219258
 30
0.0
  0
SPLINE
  5
246
330
1F
100
AcDbEntity
  8
외형선
  6
Continuous
 62
     1
370
    15
100
AcDbSpline
210
0.0
220
0.0
230
1.0
 70
     8
 71
     3
 72
     8
 73
     4
 74
     0
 42
0.000000001
 43
0.00000001
 40
0.0
 40
0.0
 40
0.0
 40
0.0
 40
1.0
 40
1.0
 40
1.0
 40
1.0
 10
30.26371683685328
 20
9.315838762219238
 30
0.0
 10
30.18243545316888
 20
9.267354070481028
 30
0.0
 10
30.07936628638332
 20
9.272590170264209
 30
0.0
 10
29.99546047377027
 20
9.333048907698961
 30
0.0
  0
SPLINE
  5
247
330
1F
100
AcDbEntity
  8
외형선
  6
Continuous
 62
     1
370
    15
100
AcDbSpline
210
0.0
220
0.0
230
1.0
 70
     8
 71
     3
 72
    10
 73
     6
 74
     0
 42
0.000000001
 43
0.00000001
 40
0.0
 40
0.0
 40
0.0
 40
0.0
 40
0.3910654507180507
 40
0.6187535671710224
 40
1.0
 40
1.0
 40
1.0
 40
1.0
 10
29.99546047376941
 20
9.333048907699563
 30
0.0
 10
29.88805561262468
 20
9.393812383956513
 30
0.0
 10
29.71811694674974
 20
9.489953880523565
 30
0.0
 10
29.42362577652828
 20
9.534335552892276
 30
0.0
 10
29.25063200660915
 20
9.482734258958589
 30
0.0
 10
29.14232273468318
 20
9.45042732340242
 30
0.0
  0
SPLINE
  5
248
330
1F
100
AcDbEntity
  8
외형선
  6
Continuous
 62
     1
370
    15
100
AcDbSpline
210
0.0
220
0.0
230
1.0
 70
     8
 71
     3
 72
     9
 73
     5
 74
     0
 42
0.000000001
 43
0.00000001
 40
0.0
 40
0.0
 40
0.0
 40
0.0
 40
0.1989228833928295
 40
1.0
 40
1.0
 40
1.0
 40
1.0
 10
28.72233641405639
 20
9.34157366468784
 30
0.0
 10
28.71915708517545
 20
9.342610719804936
 30
0.0
 10
28.70317436450136
 20
9.347824072333347
 30
0.0
 10
28.6883673589431
 20
9.357214208999032
 30
0.0
 10
28.6765058056249
 20
9.364736432603728
 30
0.0
  0
SPLINE
  5
249
330
1F
100
AcDbEntity
  8
외형선
  6
Continuous
 62
     1
370
    15
100
AcDbSpline
210
0.0
220
0.0
230
1.0
 70
     8
 71
     3
 72
    16
 73
    12
 74
     0
 42
0.000000001
 43
0.00000001
 40
0.0
 40
0.0
 40
0.0
 40
0.0
 40
0.2500000000000001
 40
0.2500000000000001
 40
0.5000000000000002
 40
0.5000000000000002
 40
0.7500000000000002
 40
0.7500000000000002
 40
0.8750000000000001
 40
0.8750000000000001
 40
1.0
 40
1.0
 40
1.0
 40
1.0
 10
12.90874745455795
 20
6.452907342345693
 30
0.0
 10
12.88494587771257
 20
6.022629947492499
 30
0.0
 10
12.86015742838366
 20
5.549642419680929
 30
0.0
 10
12.80982161461177
 20
4.538731973436104
 30
0.0
 10
12.78428163240836
 20
4.000940789124136
 30
0.0
 10
12.7337991445243
 20
2.888795594465136
 30
0.0
 10
12.70886417431315
 20
2.314620903267731
 30
0.0
 10
12.67285053202894
 20
1.449421492686713
 30
0.0
 10
12.66119250241399
 20
1.161323972309941
 30
0.0
 10
12.63714003957185
 20
0.5767773924721296
 30
0.0
 10
12.62488739084568
 20
0.2814480982440942
 30
0.0
 10
12.61248268826618
 20
-0.0150700355289238
 30
0.0
  0
SPLINE
  5
24A
330
1F
100
AcDbEntity
  8
외형선
  6
Continuous
 62
     1
370
    15
100
AcDbSpline
210
0.0
220
0.0
230
1.0
 70
     8
 71
     3
 72
    14
 73
    10
 74
     0
 42
0.000000001
 43
0.00000001
 40
0.0
 40
0.0
 40
0.0
 40
0.0
 40
0.25
 40
0.25
 40
0.5
 40
0.5
 40
0.75
 40
0.75
 40
1.0
 40
1.0
 40
1.0
 40
1.0
 10
47.19546885826374
 20
0.3248375868784954
 30
0.0
 10
47.18727670271608
 20
-0.162455857957159
 30
0.0
 10
47.17918810400546
 20
-0.6525367262686077
 30
0.0
 10
47.1636258983429
 20
-1.615551285224414
 30
0.0
 10
47.15614349955874
 20
-2.088868502386801
 30
0.0
 10
47.14177181897988
 20
-3.019397940176357
 30
0.0
 10
47.13484723263061
 20
-3.47903458083597
 30
0.0
 10
47.12176235977095
 20
-4.369847662222253
 30
0.0
 10
47.11566949819716
 20
-4.797586468903517
 30
0.0
 10
47.10960405362079
 20
-5.207773595257441
 30
0.0
  0
SPLINE
  5
24B
330
1F
100
AcDbEntity
  8
외형선
  6
Continuous
 62
     1
370
    15
100
AcDbSpline
210
0.0
220
0.0
230
1.0
 70
     8
 71
     3
 72
     8
 73
     4
 74
     0
 42
0.000000001
 43
0.00000001
 40
0.0
 40
0.0
 40
0.0
 40
0.0
 40
1.0
 40
1.0
 40
1.0
 40
1.0
 10
47.10960405362081
 20
-5.207773595257443
 30
0.0
 10
47.05259962202852
 20
-5.229397527816629
 30
0.0
 10
46.99735175430967
 20
-5.247295148075223
 30
0.0
 10
46.94437092226372
 20
-5.261100911047439
 30
0.0
  0
LINE
  5
24C
330
1F
100
AcDbEntity
  8
외형선
  6
Continuous
370
    15
100
AcDbLine
 10
-50.68768467149221
 20
9.525
 30
0.0
 11
-50.68768467149221
 21
-9.525000000000013
 31
0.0
  0
LINE
  5
24D
330
1F
100
AcDbEntity
  8
외형선
  6
Continuous
370
    15
100
AcDbLine
 10
2.912087807273549
 20
9.525000000000004
 30
0.0
 11
2.912087807273549
 21
9.518953179040349
 31
0.0
  0
LINE
  5
24F
330
1F
100
AcDbEntity
  8
외형선
  6
Continuous
370
    15
100
AcDbLine
 10
2.912087807273549
 20
6.601697885321216
 30
0.0
 11
2.912087807273549
 21
6.513141005583701
 31
0.0
  0
LINE
  5
250
330
1F
100
AcDbEntity
  8
외형선
  6
Continuous
 62
     1
370
    15
100
AcDbLine
 10
47.2373153285078
 20
-5.068859822131017
 30
0.0
 11
47.2373153285078
 21
1.152028231626803
 31
0.0
  0
SPLINE
  5
251
330
1F
100
AcDbEntity
  8
외형선
  6
Continuous
 62
     1
370
    15
100
AcDbSpline
210
0.0
220
0.0
230
1.0
 70
     8
 71
     3
 72
     8
 73
     4
 74
     0
 42
0.000000001
 43
0.00000001
 40
0.0001124983522286
 40
0.0001124983522286
 40
0.0001124983522286
 40
0.0001124983522286
 40
0.00031104582193
 40
0.00031104582193
 40
0.00031104582193
 40
0.00031104582193
 10
47.10960405362081
 20
-5.207773595257444
 30
0.0
 10
47.15222233260393
 20
-5.161477082158486
 30
0.0
 10
47.19479336780646
 20
-5.115172483438236
 30
0.0
 10
47.2373153285078
 20
-5.068859822131021
 30
0.0
  0
LINE
  5
252
330
1F
100
AcDbEntity
  8
외형선
  6
Continuous
370
    15
100
AcDbLine
 10
-51.18768467149221
 20
9.025
 30
0.0
 11
-51.18768467149221
 21
-9.024999999999988
 31
0.0
  0
SPLINE
  5
253
330
1F
100
AcDbEntity
  8
외형선
  6
Continuous
 62
     1
370
    15
100
AcDbSpline
210
0.0
220
0.0
230
1.0
 70
     8
 71
     3
 72
    16
 73
    12
 74
     0
 42
0.000000001
 43
0.00000001
 40
0.0
 40
0.0
 40
0.0
 40
0.0
 40
0.2499999999999999
 40
0.2499999999999999
 40
0.4999999999999998
 40
0.4999999999999998
 40
0.7499999999999997
 40
0.7499999999999997
 40
0.8749999999999998
 40
0.8749999999999998
 40
1.0
 40
1.0
 40
1.0
 40
1.0
 10
37.95271101202481
 20
7.201824041804747
 30
0.0
 10
37.92826313658994
 20
6.815345089744637
 30
0.0
 10
37.90508232672827
 20
6.394811359080265
 30
0.0
 10
37.85608444605723
 20
5.470163879956363
 30
0.0
 10
37.83082160249392
 20
4.968511225286119
 30
0.0
 10
37.78006202623738
 20
3.910527000071687
 30
0.0
 10
37.75457310765265
 20
3.354353308249871
 30
0.0
 10
37.71717538098762
 20
2.501775907180651
 30
0.0
 10
37.70484828472998
 20
2.214562140392422
 30
0.0
 10
37.68062352024796
 20
1.637980414132632
 30
0.0
 10
37.6688991343557
 20
1.350018214516586
 30
0.0
 10
37.65696297187136
 20
1.058877724498154
 30
0.0
  0
SPLINE
  5
254
330
1F
100
AcDbEntity
  8
외형선
  6
Continuous
 62
     1
370
    15
100
AcDbSpline
210
0.0
220
0.0
230
1.0
 70
     8
 71
     3
 72
    16
 73
    12
 74
     0
 42
0.000000001
 43
0.00000001
 40
0.0
 40
0.0
 40
0.0
 40
0.0
 40
0.1249999999999999
 40
0.1249999999999999
 40
0.2499999999999998
 40
0.2499999999999998
 40
0.4999999999999999
 40
0.4999999999999999
 40
0.7499999999999999
 40
0.7499999999999999
 40
1.0
 40
1.0
 40
1.0
 40
1.0
 10
10.48400780181078
 20
7.669842927629134
 30
0.0
 10
10.47152815941548
 20
7.49372184196814
 30
0.0
 10
10.45917764210769
 20
7.306998402347686
 30
0.0
 10
10.43488774790541
 20
6.915325917305975
 30
0.0
 10
10.42308908691917
 20
6.711225226306754
 30
0.0
 10
10.3875059273524
 20
6.070532630031583
 30
0.0
 10
10.36277892823633
 20
5.60046333670001
 30
0.0
 10
10.3125200459963
 20
4.594569300442767
 30
0.0
 10
10.28699547247773
 20
4.0588733422326
 30
0.0
 10
10.23649524061829
 20
2.94985706342098
 30
0.0
 10
10.21152714347318
 20
2.376715019197261
 30
0.0
 10
10.18746354855225
 20
1.80039088956965
 30
0.0
  0
SPLINE
  5
255
330
1F
100
AcDbEntity
  8
외형선
  6
Continuous
 62
     1
370
    15
100
AcDbSpline
210
0.0
220
0.0
230
1.0
 70
     8
 71
     3
 72
    14
 73
    10
 74
     0
 42
0.000000001
 43
0.00000001
 40
0.0
 40
0.0
 40
0.0
 40
0.0
 40
0.2499999999999999
 40
0.2499999999999999
 40
0.5000000000000001
 40
0.5000000000000001
 40
0.75
 40
0.75
 40
1.0
 40
1.0
 40
1.0
 40
1.0
 10
25.02675428084774
 20
-2.026419636371354
 30
0.0
 10
25.00145524759522
 20
-2.608963219469398
 30
0.0
 10
24.97630410850352
 20
-3.17829126668547
 30
0.0
 10
24.92757393509441
 20
-4.262344499647783
 30
0.0
 10
24.90445319150068
 20
-4.774337950240676
 30
0.0
 10
24.85556491671167
 20
-5.756686286767002
 30
0.0
 10
24.83036576838192
 20
-6.222374071368506
 30
0.0
 10
24.77974185954678
 20
-7.076276189500274
 30
0.0
 10
24.75432481066914
 20
-7.464352615041933
 30
0.0
 10
24.72946335189314
 20
-7.804179551916406
 30
0.0
  0
SPLINE
  5
256
330
1F
100
AcDbEntity
  8
외형선
  6
Continuous
 62
     1
370
    15
100
AcDbSpline
210
0.0
220
0.0
230
1.0
 70
     8
 71
     3
 72
    14
 73
    10
 74
     0
 42
0.000000001
 43
0.00000001
 40
0.0
 40
0.0
 40
0.0
 40
0.0
 40
0.25
 40
0.25
 40
0.5
 40
0.5
 40
0.75
 40
0.75
 40
1.0
 40
1.0
 40
1.0
 40
1.0
 10
35.52951338926904
 20
8.257826154844812
 30
0.0
 10
35.50420407852161
 20
7.960654049499336
 30
0.0
 10
35.47901805332307
 20
7.615044316651876
 30
0.0
 10
35.43017475430888
 20
6.848016382469442
 30
0.0
 10
35.40705649603281
 20
6.43061049367496
 30
0.0
 10
35.35827669839415
 20
5.51287082891171
 30
0.0
 10
35.33310995548143
 20
5.014606911214543
 30
0.0
 10
35.28250171094064
 20
3.962835180582181
 30
0.0
 10
35.25706790391789
 20
3.409481432033278
 30
0.0
 10
35.23216651845433
 20
2.843453102907576
 30
0.0
  0
SPLINE
  5
257
330
1F
100
AcDbEntity
  8
외형선
  6
Continuous
 62
     1
370
    15
100
AcDbSpline
210
0.0
220
0.0
230
1.0
 70
     8
 71
     3
 72
    14
 73
    10
 74
     0
 42
0.000000001
 43
0.00000001
 40
0.0
 40
0.0
 40
0.0
 40
0.0
 40
0.2500000000000002
 40
0.2500000000000002
 40
0.5000000000000002
 40
0.5000000000000002
 40
0.7500000000000002
 40
0.7500000000000002
 40
1.0
 40
1.0
 40
1.0
 40
1.0
 10
8.061353240957622
 20
8.605609168661255
 30
0.0
 10
8.036071736791726
 20
8.350171236984904
 30
0.0
 10
8.010629000026864
 20
8.043242204885344
 30
0.0
 10
7.960746948930049
 20
7.343717361466233
 30
0.0
 10
7.936574349691255
 20
6.952808550492225
 30
0.0
 10
7.889304184925446
 20
6.10405116024315
 30
0.0
 10
7.864654602893963
 20
5.636691173762031
 30
0.0
 10
7.814519452652223
 20
4.635800686993531
 30
0.0
 10
7.78904109228137
 20
4.102395975832042
 30
0.0
 10
7.763817932123664
 20
3.549824966062308
 30
0.0
  0
SPLINE
  5
258
330
1F
100
AcDbEntity
  8
외형선
  6
Continuous
 62
     1
370
    15
100
AcDbSpline
210
0.0
220
0.0
230
1.0
 70
     8
 71
     3
 72
    16
 73
    12
 74
     0
 42
0.000000001
 43
0.00000001
 40
0.0
 40
0.0
 40
0.0
 40
0.0
 40
0.2500000000000001
 40
0.2500000000000001
 40
0.4999999999999999
 40
0.4999999999999999
 40
0.7499999999999997
 40
0.7499999999999997
 40
0.8749999999999999
 40
0.8749999999999999
 40
1.0
 40
1.0
 40
1.0
 40
1.0
 10
27.45002696157069
 20
-3.762833650184221
 30
0.0
 10
27.42563697307802
 20
-4.304903829922025
 30
0.0
 10
27.40244151286675
 20
-4.816996664382573
 30
0.0
 10
27.35333478358548
 20
-5.799059402834338
 30
0.0
 10
27.3280398385256
 20
-6.26404104516525
 30
0.0
 10
27.27726615749951
 20
-7.115359412116792
 30
0.0
 10
27.251795250815
 20
-7.501558488960218
 30
0.0
 10
27.21445982687706
 20
-8.007731638933203
 30
0.0
 10
27.20215931003939
 20
-8.164344732521165
 30
0.0
 10
27.17799820417451
 20
-8.452025690899546
 30
0.0
 10
27.16630851423456
 20
-8.582581107306693
 30
0.0
 10
27.15433750393573
 20
-8.701829446700332
 30
0.0
  0
SPLINE
  5
259
330
1F
100
AcDbEntity
  8
외형선
  6
Continuous
370
    15
100
AcDbSpline
210
0.0
220
0.0
230
1.0
 70
    24
 71
     3
 72
     8
 73
     4
 74
     0
 42
0.000000001
 43
0.00000001
 40
0.0
 40
0.0
 40
0.0
 40
0.0
 40
1.0
 40
1.0
 40
1.0
 40
1.0
 10
2.912087807273551
 20
-3.02562173585804
 30
0.0
 10
2.912087807273551
 20
-3.697469142709272
 30
0.0
 10
2.912087807273551
 20
-4.340165040380402
 30
0.0
 10
2.912087807273551
 20
-4.942528667976007
 30
0.0
  0
SPLINE
  5
25A
330
1F
100
AcDbEntity
  8
외형선
  6
Continuous
 62
     1
370
    15
100
AcDbSpline
210
0.0
220
0.0
230
1.0
 70
     8
 71
     3
 72
    14
 73
    10
 74
     0
 42
0.000000001
 43
0.00000001
 40
0.0
 40
0.0
 40
0.0
 40
0.0
 40
0.25
 40
0.25
 40
0.5
 40
0.5
 40
0.75
 40
0.75
 40
1.0
 40
1.0
 40
1.0
 40
1.0
 10
33.10680481388496
 20
9.011135817051368
 30
0.0
 10
33.08194867659392
 20
8.819077398308655
 30
0.0
 10
33.05653231189149
 20
8.572778203080512
 30
0.0
 10
33.00590033591225
 20
7.982715225096885
 30
0.0
 10
32.98069244324439
 20
7.63905059436223
 30
0.0
 10
32.93177868731095
 20
6.875343955121049
 30
0.0
 10
32.90865331845361
 20
6.459522120629194
 30
0.0
 10
32.8599393661377
 20
5.54520983480863
 30
0.0
 10
32.83479213994431
 20
5.048439342199567
 30
0.0
 10
32.80949246865009
 20
4.523737366756258
 30
0.0
  0
SPLINE
  5
25C
330
1F
100
AcDbEntity
  8
외형선
  6
Continuous
370
    15
100
AcDbSpline
210
0.0
220
0.0
230
1.0
 70
    24
 71
     3
 72
    10
 73
     6
 74
     0
 42
0.000000001
 43
0.00000001
 40
0.0
 40
0.0
 40
0.0
 40
0.0
 40
0.4298755324795298
 40
0.9095919090060072
 40
1.0
 40
1.0
 40
1.0
 40
1.0
 10
2.912087807273554
 20
-9.157197507100792
 30
0.0
 10
2.912087807273504
 20
-9.22495790409661
 30
0.0
 10
2.912087807273396
 20
-9.368335007936235
 30
0.0
 10
2.912087807274026
 20
-9.466636279872187
 30
0.0
 10
2.912087807273902
 20
-9.456830130666757
 30
0.0
 10
2.912087807273882
 20
-9.45527511017532
 30
0.0
  0
SPLINE
  5
25D
330
1F
100
AcDbEntity
  8
외형선
  6
Continuous
 62
     1
370
    15
100
AcDbSpline
210
0.0
220
0.0
230
1.0
 70
     8
 71
     3
 72
    16
 73
    12
 74
     0
 42
0.000000001
 43
0.00000001
 40
0.0
 40
0.0
 40
0.0
 40
0.0
 40
0.2500000000000003
 40
0.2500000000000003
 40
0.5000000000000006
 40
0.5000000000000006
 40
0.6250000000000003
 40
0.6250000000000003
 40
0.7500000000000001
 40
0.7500000000000001
 40
1.0
 40
1.0
 40
1.0
 40
1.0
 10
29.8752117461428
 20
-5.361391900252124
 30
0.0
 10
29.85066088220665
 20
-5.8494352166257
 30
0.0
 10
29.82539394793579
 20
-6.311017490274436
 30
0.0
 10
29.77472359011724
 20
-7.155095419159896
 30
0.0
 10
29.74932792012535
 20
-7.537457280305897
 30
0.0
 10
29.71213181719327
 20
-8.037884921729658
 30
0.0
 10
29.69988209488304
 20
-8.192584708716405
 30
0.0
 10
29.67582930361738
 20
-8.476495555181376
 30
0.0
 10
29.66418186025088
 20
-8.605268017044738
 30
0.0
 10
29.62826622096481
 20
-8.958091893601244
 30
0.0
 10
29.60338868326682
 20
-9.146451729855057
 30
0.0
 10
29.57819251654952
 20
-9.280521769548873
 30
0.0
  0
SPLINE
  5
25F
330
1F
100
AcDbEntity
  8
외형선
  6
Continuous
 62
     1
370
    15
100
AcDbSpline
210
0.0
220
0.0
230
1.0
 70
     8
 71
     3
 72
    16
 73
    12
 74
     0
 42
0.000000001
 43
0.00000001
 40
0.0
 40
0.0
 40
0.0
 40
0.0
 40
0.1249999999999998
 40
0.1249999999999998
 40
0.2499999999999997
 40
0.2499999999999997
 40
0.4999999999999998
 40
0.4999999999999998
 40
0.7499999999999999
 40
0.7499999999999999
 40
1.0
 40
1.0
 40
1.0
 40
1.0
 10
30.68192156211716
 20
9.434163030696325
 30
0.0
 10
30.6699424821261
 20
9.393750161139533
 30
0.0
 10
30.65825647865828
 20
9.340400262913663
 30
0.0
 10
30.63410544320937
 20
9.206056601586816
 30
0.0
 10
30.62180889157753
 20
9.125189700894877
 30
0.0
 10
30.58448189100196
 20
8.841884245503321
 30
0.0
 10
30.55901191622646
 20
8.59838501046669
 30
0.0
 10
30.50823052560151
 20
8.01286397812352
 30
0.0
 10
30.48292694565262
 20
7.670939932145546
 30
0.0
 10
30.43379480467485
 20
6.909572138454568
 30
0.0
 10
30.41059242804133
 20
6.494575857131883
 30
0.0
 10
30.38621076125278
 20
6.038247065683195
 30
0.0
  0
SPLINE
  5
261
330
1F
100
AcDbEntity
  8
외형선
  6
Continuous
 62
     1
370
    15
100
AcDbSpline
210
0.0
220
0.0
230
1.0
 70
     8
 71
     3
 72
    16
 73
    12
 74
     0
 42
0.000000001
 43
0.00000001
 40
0.0
 40
0.0
 40
0.0
 40
0.0
 40
0.2499999999999998
 40
0.2499999999999998
 40
0.3749999999999998
 40
0.3749999999999998
 40
0.4999999999999999
 40
0.4999999999999999
 40
0.7499999999999999
 40
0.7499999999999999
 40
1.0
 40
1.0
 40
1.0
 40
1.0
 10
32.29823443230362
 20
-6.763376945344
 30
0.0
 10
32.2729155876663
 20
-7.183208940963787
 30
0.0
 10
32.24755264433535
 20
-7.563149409318034
 30
0.0
 10
32.21042629109846
 20
-8.059828576302355
 30
0.0
 10
32.19820322007933
 20
-8.213259818953754
 30
0.0
 10
32.17420947004633
 20
-8.494630634112784
 30
0.0
 10
32.16257577312451
 20
-8.622211337956466
 30
0.0
 10
32.12662514666608
 20
-8.971628751941463
 30
0.0
 10
32.10173831590017
 20
-9.157569116309599
 30
0.0
 10
32.05135738374461
 20
-9.420819456741075
 30
0.0
 10
32.02587074357267
 20
-9.498060815812854
 30
0.0
 10
32.00075461382852
 20
-9.519059342083404
 30
0.0
  0
SPLINE
  5
263
330
1F
100
AcDbEntity
  8
외형선
  6
Continuous
370
    15
100
AcDbSpline
210
0.0
220
0.0
230
1.0
 70
    24
 71
     3
 72
    13
 73
     9
 74
     0
 42
0.000000001
 43
0.00000001
 40
0.0
 40
0.0
 40
0.0
 40
0.0
 40
0.1212392398375807
 40
0.2609469248734197
 40
0.4756235374053167
 40
0.6965200643519961
 40
0.8511884507148874
 40
1.0
 40
1.0
 40
1.0
 40
1.0
 10
5.962315328507787
 20
-9.495814230529572
 30
0.0
 10
5.962315328507791
 20
-9.489440832730132
 30
0.0
 10
5.962315328507795
 20
-9.475723173670353
 30
0.0
 10
5.962315328507787
 20
-9.2984084694223
 30
0.0
 10
5.962315328507768
 20
-8.91004454373918
 30
0.0
 10
5.962315328507789
 20
-8.279467285677978
 30
0.0
 10
5.962315328507789
 20
-7.570701733863863
 30
0.0
 10
5.962315328507802
 20
-7.076266460956071
 30
0.0
 10
5.962315328507805
 20
-6.833819859583529
 30
0.0
  0
LINE
  5
264
330
1F
100
AcDbEntity
  8
외형선
  6
Continuous
 62
     1
370
    15
100
AcDbLine
 10
33.80162575975294
 20
-9.33966846660423
 30
0.0
 11
33.79691942311229
 21
-9.35181654764052
 31
0.0
  0
SPLINE
  5
265
330
1F
100
AcDbEntity
  8
외형선
  6
Continuous
 62
     1
370
    15
100
AcDbSpline
210
0.0
220
0.0
230
1.0
 70
     8
 71
     3
 72
    13
 73
     9
 74
     0
 42
0.000000001
 43
0.00000001
 40
0.0
 40
0.0
 40
0.0
 40
0.0
 40
0.0181933873102195
 40
0.1945566831159498
 40
0.3939804830258257
 40
0.5958190095164314
 40
0.7983964781348413
 40
1.0
 40
1.0
 40
1.0
 40
1.0
 10
28.21687828485839
 20
9.507619041572893
 30
0.0
 10
28.21531648917559
 20
9.507654878210843
 30
0.0
 10
28.19861493808074
 20
9.508038108518377
 30
0.0
 10
28.16604866666877
 20
9.385719038562295
 30
0.0
 10
28.11771035427754
 20
9.118533375690983
 30
0.0
 10
28.06557403007652
 20
8.66938636530151
 30
0.0
 10
28.01286959985118
 20
8.085459601572149
 30
0.0
 10
27.9782850336076
 20
7.582409154351669
 30
0.0
 10
27.9610344193505
 20
7.331490025982581
 30
0.0
  0
SPLINE
  5
266
330
1F
100
AcDbEntity
  8
외형선
  6
Continuous
 62
     1
370
    15
100
AcDbSpline
210
0.0
220
0.0
230
1.0
 70
     8
 71
     3
 72
    13
 73
     9
 74
     0
 42
0.000000001
 43
0.00000001
 40
0.0
 40
0.0
 40
0.0
 40
0.0
 40
0.0943498076339294
 40
0.3154738530450384
 40
0.5356327313515827
 40
0.7587025363899355
 40
0.9826873095259133
 40
0.9999999999999999
 40
0.9999999999999999
 40
0.9999999999999999
 40
0.9999999999999999
 10
7.252604313661489
 20
-7.476327908236742
 30
0.0
 10
7.244786071213354
 20
-7.588524940339094
 30
0.0
 10
7.218644512147089
 20
-7.963673877100872
 30
0.0
 10
7.17524405746009
 20
-8.502659083236269
 30
0.0
 10
7.12224817835813
 20
-9.023429074242312
 30
0.0
 10
7.066807595314581
 20
-9.355356384627113
 30
0.0
 10
7.027793718449725
 20
-9.513586973772732
 30
0.0
 10
7.007906283211406
 20
-9.507322120014521
 30
0.0
 10
7.006479392909893
 20
-9.506872627208594
 30
0.0
  0
LINE
  5
267
330
1F
100
AcDbEntity
  8
외형선
  6
Continuous
 62
     1
370
    15
100
AcDbLine
 10
27.79553527955831
 20
9.353561591280684
 30
0.0
 11
27.79206964915311
 21
9.355295489284213
 31
0.0
  0
LINE
  5
268
330
1F
100
AcDbEntity
  8
외형선
  6
Continuous
 62
     1
370
    15
100
AcDbLine
 10
27.78519287103185
 20
9.35176745192534
 30
0.0
 11
27.78132629822883
 21
9.341674344252159
 31
0.0
  0
SPLINE
  5
269
330
1F
100
AcDbEntity
  8
외형선
  6
Continuous
 62
     1
370
    15
100
AcDbSpline
210
0.0
220
0.0
230
1.0
 70
     8
 71
     3
 72
     9
 73
     5
 74
     0
 42
0.000000001
 43
0.00000001
 40
0.0
 40
0.0
 40
0.0
 40
0.0
 40
0.767496893257616
 40
1.0
 40
1.0
 40
1.0
 40
1.0
 10
7.437473211701463
 20
-9.346424443199265
 30
0.0
 10
7.435362016138682
 20
-9.354246688127303
 30
0.0
 10
7.432611261599701
 20
-9.364438579451887
 30
0.0
 10
7.429923528039601
 20
-9.360884099084574
 30
0.0
 10
7.429298621636783
 20
-9.36005767135632
 30
0.0
  0
LINE
  5
26A
330
1F
100
AcDbEntity
  8
외형선
  6
Continuous
 62
     1
370
    15
100
AcDbLine
 10
27.53746840551815
 20
9.340515722334393
 30
0.0
 11
27.53281411676868
 21
9.3445600543992
 31
0.0
  0
LINE
  5
26B
330
1F
100
AcDbEntity
  8
외형선
  6
Continuous
 62
     1
370
    15
100
AcDbLine
 10
26.43575027301125
 20
9.349739876672844
 30
0.0
 11
26.43389433073428
 21
9.350069815352233
 31
0.0
  0
LINE
  5
26C
330
1F
100
AcDbEntity
  8
외형선
  6
Continuous
 62
     1
370
    15
100
AcDbLine
 10
34.05466538258906
 20
-9.352993835163355
 30
0.0
 11
34.04424088060823
 21
-9.340545038303922
 31
0.0
  0
SPLINE
  5
26D
330
1F
100
AcDbEntity
  8
외형선
  6
Continuous
 62
     1
370
    15
100
AcDbSpline
210
0.0
220
0.0
230
1.0
 70
     8
 71
     3
 72
    11
 73
     7
 74
     0
 42
0.000000001
 43
0.00000001
 40
0.0
 40
0.0
 40
0.0
 40
0.0
 40
0.2558047940369916
 40
0.5123435125729495
 40
0.7718395685366574
 40
1.0
 40
1.0
 40
1.0
 40
1.0
 10
34.72106012744403
 20
-7.917501780456642
 30
0.0
 10
34.70172947871426
 20
-8.162485015979994
 30
0.0
 10
34.66301272007096
 20
-8.653154363605163
 30
0.0
 10
34.60472281058435
 20
-9.149734308430915
 30
0.0
 10
34.54640628701165
 20
-9.464058256829814
 30
0.0
 10
34.50851625600608
 20
-9.49744549127708
 30
0.0
 10
34.49078860130388
 20
-9.513066417099367
 30
0.0
  0
LINE
  5
26E
330
1F
100
AcDbEntity
  8
외형선
  6
Continuous
 62
     1
370
    15
100
AcDbLine
 10
7.686448586745532
 20
-9.344344866891527
 30
0.0
 11
7.682930630350001
 21
-9.339481402809021
 31
0.0
  0
LINE
  5
26F
330
1F
100
AcDbEntity
  8
외형선
  6
Continuous
 62
     1
370
    15
100
AcDbLine
 10
8.789164277571707
 20
-9.3390951459678
 30
0.0
 11
8.785147421999099
 21
-9.342544948955826
 31
0.0
  0
LINE
  5
270
330
1F
100
AcDbEntity
  8
외형선
  6
Continuous
 62
     1
370
    15
100
AcDbLine
 10
34.92879594445931
 20
-9.33964545474838
 30
0.0
 11
34.92613608818367
 21
-9.342406698750668
 31
0.0
  0
SPLINE
  5
271
330
1F
100
AcDbEntity
  8
외형선
  6
Continuous
 62
     1
370
    15
100
AcDbSpline
210
0.0
220
0.0
230
1.0
 70
     8
 71
     3
 72
    11
 73
     7
 74
     0
 42
0.000000001
 43
0.00000001
 40
0.0
 40
0.0
 40
0.0
 40
0.0
 40
0.0720446902873849
 40
0.3489698858449358
 40
0.6724645290222169
 40
1.0
 40
1.0
 40
1.0
 40
1.0
 10
25.73675435094631
 20
9.507088198063284
 30
0.0
 10
25.73190744279625
 20
9.512489122283835
 30
0.0
 10
25.70843000154304
 20
9.538650105156881
 30
0.0
 10
25.66495576222007
 20
9.38961502842627
 30
0.0
 10
25.60426368427433
 20
9.041223049487094
 30
0.0
 10
25.56019813313214
 20
8.585313030662078
 30
0.0
 10
25.53802860405284
 20
8.355943145164316
 30
0.0
  0
SPLINE
  5
272
330
1F
100
AcDbEntity
  8
외형선
  6
Continuous
 62
     1
370
    15
100
AcDbSpline
210
0.0
220
0.0
230
1.0
 70
     8
 71
     3
 72
    10
 73
     6
 74
     0
 42
0.000000001
 43
0.00000001
 40
0.0
 40
0.0
 40
0.0
 40
0.0
 40
0.3423918177250398
 40
0.6895324200859541
 40
1.0
 40
1.0
 40
1.0
 40
1.0
 10
9.676638383470944
 20
-8.463996891935349
 30
0.0
 10
9.655727765882258
 20
-8.676685232588941
 30
0.0
 10
9.613616512035065
 20
-9.105011783233065
 30
0.0
 10
9.54981702711859
 20
-9.45746582215611
 30
0.0
 10
9.508194884559742
 20
-9.49501266768048
 30
0.0
 10
9.48854439020857
 20
-9.512739147638552
 30
0.0
  0
SPLINE
  5
273
330
1F
100
AcDbEntity
  8
외형선
  6
Continuous
 62
     1
370
    15
100
AcDbSpline
210
0.0
220
0.0
230
1.0
 70
     8
 71
     3
 72
    10
 73
     6
 74
     0
 42
0.000000001
 43
0.00000001
 40
0.0
 40
0.0
 40
0.0
 40
0.0
 40
0.3637611616274106
 40
0.7305458694230011
 40
1.0
 40
1.0
 40
1.0
 40
1.0
 10
37.14612050935762
 20
-8.78150455557263
 30
0.0
 10
37.1273121297664
 20
-8.938541977436152
 30
0.0
 10
37.08953903722561
 20
-9.253922100410199
 30
0.0
 10
37.03632965287329
 20
-9.489414266152512
 30
0.0
 10
37.00292248067552
 20
-9.500921435387372
 30
0.0
 10
36.98877417661628
 20
-9.505794847845989
 30
0.0
  0
SPLINE
  5
274
330
1F
100
AcDbEntity
  8
외형선
  6
Continuous
 62
     1
370
    15
100
AcDbSpline
210
0.0
220
0.0
230
1.0
 70
     8
 71
     3
 72
     8
 73
     4
 74
     0
 42
0.000000001
 43
0.00000001
 40
0.0
 40
0.0
 40
0.0
 40
0.0
 40
1.0
 40
1.0
 40
1.0
 40
1.0
 10
47.04049106236197
 20
9.50200284411518
 30
0.0
 10
46.94747317533308
 20
9.505024265627453
 30
0.0
 10
46.85313843440921
 20
9.494909027522185
 30
0.0
 10
46.76138031348992
 20
9.4720055731381
 30
0.0
  0
SPLINE
  5
275
330
1F
100
AcDbEntity
  8
외형선
  6
Continuous
 62
     1
370
    15
100
AcDbSpline
210
0.0
220
0.0
230
1.0
 70
     8
 71
     3
 72
     8
 73
     4
 74
     0
 42
0.000000001
 43
0.00000001
 40
0.0000052358433397
 40
0.0000052358433397
 40
0.0000052358433397
 40
0.0000052358433397
 40
0.00031104582193
 40
0.00031104582193
 40
0.00031104582193
 40
0.00031104582193
 10
47.04049106236162
 20
9.502002844114656
 30
0.0
 10
47.10621120238347
 20
9.43911951083926
 30
0.0
 10
47.17182149096607
 20
9.376064665466334
 30
0.0
 10
47.2373153285078
 20
9.312830447157316
 30
0.0
  0
LINE
  5
276
330
1F
100
AcDbEntity
  8
외형선
  6
Continuous
 62
     1
370
    15
100
AcDbLine
 10
47.2373153285078
 20
1.152028231626803
 30
0.0
 11
47.2373153285078
 21
1.161400480856132
 31
0.0
  0
LINE
  5
277
330
1F
100
AcDbEntity
  8
외형선
  6
Continuous
 62
     1
370
    15
100
AcDbLine
 10
47.2373153285078
 20
2.375151339946336
 30
0.0
 11
47.2373153285078
 21
9.312830447157314
 31
0.0
  0
SPLINE
  5
278
330
1F
100
AcDbEntity
  8
외형선
  6
Continuous
 62
     1
370
    15
100
AcDbSpline
210
0.0
220
0.0
230
1.0
 70
     8
 71
     3
 72
    10
 73
     6
 74
     0
 42
0.000000001
 43
0.00000001
 40
0.0
 40
0.0
 40
0.0
 40
0.0
 40
0.056341705019587
 40
0.5569120956097421
 40
0.9999999999999999
 40
0.9999999999999999
 40
0.9999999999999999
 40
0.9999999999999999
 10
23.23438249666595
 20
9.513741184606797
 30
0.0
 10
23.23208553542193
 20
9.517035720291016
 30
0.0
 10
23.20938111958122
 20
9.549600705168938
 30
0.0
 10
23.17028268238629
 20
9.419260010867962
 30
0.0
 10
23.13280002477995
 20
9.184396595564156
 30
0.0
 10
23.11520031490816
 20
9.074118183284568
 30
0.0
  0
SPLINE
  5
279
330
1F
100
AcDbEntity
  8
외형선
  6
Continuous
 62
     1
370
    15
100
AcDbSpline
210
0.0
220
0.0
230
1.0
 70
     8
 71
     3
 72
     9
 73
     5
 74
     0
 42
0.000000001
 43
0.00000001
 40
0.0
 40
0.0
 40
0.0
 40
0.0
 40
0.5658166277574063
 40
1.0
 40
1.0
 40
1.0
 40
1.0
 10
12.10136709586476
 20
-9.141457860651517
 30
0.0
 10
12.08069105543886
 20
-9.26313571872966
 30
0.0
 10
12.04414910984801
 20
-9.478183937726705
 30
0.0
 10
12.00767996478861
 20
-9.496308711824978
 30
0.0
 10
11.99184566840391
 20
-9.5041781873641
 30
0.0
  0
LINE
  5
27A
330
1F
100
AcDbEntity
  8
외형선
  6
Continuous
 62
     1
370
    15
100
AcDbLine
 10
22.79427339243967
 20
9.354166037708005
 30
0.0
 11
22.79264842042538
 21
9.350523036913698
 31
0.0
  0
LINE
  5
27B
330
1F
100
AcDbEntity
  8
외형선
  6
Continuous
 62
     1
370
    15
100
AcDbLine
 10
12.43379029343832
 20
-9.33587477443633
 30
0.0
 11
12.42884379565197
 21
-9.340228269975269
 31
0.0
  0
LINE
  5
27C
330
1F
100
AcDbEntity
  8
외형선
  6
Continuous
 62
     1
370
    15
100
AcDbLine
 10
22.53908580178063
 20
9.34056829291389
 30
0.0
 11
22.53425468881129
 21
9.348992974122485
 31
0.0
  0
LINE
  5
27D
330
1F
100
AcDbEntity
  8
외형선
  6
Continuous
 62
     1
370
    15
100
AcDbLine
 10
21.43371792619533
 20
9.359231873101786
 30
0.0
 11
21.43166993120143
 21
9.354472364325007
 31
0.0
  0
SPLINE
  5
27E
330
1F
100
AcDbEntity
  8
외형선
  6
Continuous
 62
     1
370
    15
100
AcDbSpline
210
0.0
220
0.0
230
1.0
 70
     8
 71
     3
 72
     9
 73
     5
 74
     0
 42
0.000000001
 43
0.00000001
 40
0.0
 40
0.0
 40
0.0
 40
0.0
 40
0.6388827651254894
 40
1.0
 40
1.0
 40
1.0
 40
1.0
 10
39.56969639118251
 20
-9.323629160075964
 30
0.0
 10
39.55245000356049
 20
-9.3974492556441
 30
0.0
 10
39.52545539897347
 20
-9.512994860562145
 30
0.0
 10
39.49877474723659
 20
-9.507797280297169
 30
0.0
 10
39.48913990405672
 20
-9.505920344483844
 30
0.0
  0
LINE
  5
27F
330
1F
100
AcDbEntity
  8
외형선
  6
Continuous
 62
     1
370
    15
100
AcDbLine
 10
13.79134221414485
 20
-9.335726527498311
 30
0.0
 11
13.78879965801599
 21
-9.339668046180057
 31
0.0
  0
LINE
  5
280
330
1F
100
AcDbEntity
  8
외형선
  6
Continuous
 62
     1
370
    15
100
AcDbLine
 10
47.2373153285078
 20
-5.068859822131017
 30
0.0
 11
47.2373153285078
 21
-5.162747278445005
 31
0.0
  0
LINE
  5
281
330
1F
100
AcDbEntity
  8
외형선
  6
Continuous
 62
     1
370
    15
100
AcDbLine
 10
39.92914984431765
 20
-9.351414523224138
 30
0.0
 11
39.92685834037365
 21
-9.351335677950082
 31
0.0
  0
LINE
  5
282
330
1F
100
AcDbEntity
  8
외형선
  6
Continuous
 62
     1
370
    15
100
AcDbLine
 10
20.74415165468071
 20
9.517226138632212
 30
0.0
 11
20.69013619581853
 21
9.459701876018235
 31
0.0
  0
LINE
  5
283
330
1F
100
AcDbEntity
  8
외형선
  6
Continuous
 62
     1
370
    15
100
AcDbLine
 10
14.52401911990843
 20
-9.483834132803086
 30
0.0
 11
14.4745943225944
 21
-9.513952694944907
 31
0.0
  0
LINE
  5
284
330
1F
100
AcDbEntity
  8
외형선
  6
Continuous
 62
     1
370
    15
100
AcDbLine
 10
14.94234774445447
 20
-9.349661737656213
 30
0.0
 11
14.91803916449316
 21
-9.350492893102798
 31
0.0
  0
LINE
  5
285
330
1F
100
AcDbEntity
  8
외형선
  6
Continuous
 62
     1
370
    15
100
AcDbLine
 10
46.4454315821805
 20
9.334942818585409
 30
0.0
 11
46.42109379793852
 21
9.349110913456471
 31
0.0
  0
SPLINE
  5
286
330
1F
100
AcDbEntity
  8
외형선
  6
Continuous
 62
     1
370
    15
100
AcDbSpline
210
0.0
220
0.0
230
1.0
 70
     8
 71
     3
 72
     9
 73
     5
 74
     0
 42
0.000000001
 43
0.00000001
 40
0.0
 40
0.0
 40
0.0
 40
0.0
 40
0.2578364591522836
 40
1.0
 40
1.0
 40
1.0
 40
1.0
 10
47.03879276962651
 20
9.51729859327137
 30
0.0
 10
47.03887438995372
 20
9.5193391748902
 30
0.0
 10
47.03919094847095
 20
9.527253422648412
 30
0.0
 10
47.03993721244652
 20
9.512759617709255
 30
0.0
 10
47.04049106236104
 20
9.502002844115255
 30
0.0
  0
LINE
  5
287
330
1F
100
AcDbEntity
  8
외형선
  6
Continuous
 62
     1
370
    15
100
AcDbLine
 10
47.2373153285078
 20
9.312830447157314
 30
0.0
 11
47.2373153285078
 21
9.325000000000015
 31
0.0
  0
LINE
  5
288
330
1F
100
AcDbEntity
  8
외형선
  6
Continuous
 62
     1
370
    15
100
AcDbLine
 10
15.21040928279814
 20
-9.358160687617378
 30
0.0
 11
15.18324469666106
 21
-9.348975550439846
 31
0.0
  0
LINE
  5
289
330
1F
100
AcDbEntity
  8
외형선
  6
Continuous
 62
     1
370
    15
100
AcDbLine
 10
41.99228989621989
 20
-9.524032242853172
 30
0.0
 11
41.98864277519465
 21
-9.521139470233113
 31
0.0
  0
LINE
  5
28A
330
1F
100
AcDbEntity
  8
중심선
100
AcDbLine
 10
-54.18768467149221
 20
-0.0000000000000017
 30
0.0
 11
50.2373153285078
 21
0.0000000000000117
 31
0.0
  0
LINE
  5
28B
330
1F
100
AcDbEntity
  8
참조1
100
AcDbLine
 10
-1.975184671492209
 20
-0.0000000000000017
 30
0.0
 11
-1.975184671492204
 21
-38.04226164784987
 31
0.0
  0
LINE
  5
28C
330
1F
100
AcDbEntity
  8
참조1
100
AcDbLine
 10
-1.975184671492204
 20
-38.04226164784987
 30
0.0
 11
-24.27727811824466
 21
-38.04226164784988
 31
0.0
  0
CIRCLE
  5
28D
330
1F
100
AcDbEntity
  8
해칭선
100
AcDbCircle
 10
0.0
 20
0.0
 30
0.0
 40
3.000000000000001
  0
INSERT
  5
28E
330
1F
100
AcDbEntity
  8
0
  6
Continuous
 62
     7
100
AcDbBlockReference
 66
     1
  2
블럭10
 10
-15.91545760361742
 20
-50.0894359494938
 30
0.0
  0
ATTRIB
  5
28F
330
28E
100
AcDbEntity
  8
FORMAT
 62
     2
100
AcDbText
 10
-25.09675289235869
 20
-48.0140690366616
 30
0.0
 40
4.233333333333333
  1
E2191048 [ 3 FLUTE ]
 41
0.75
  7
SLDTEXTSTYLE0
 11
-25.09675289235869
 21
-50.13073570332827
 31
0.0
100
AcDbAttribute
  2
AUTOATTR0
 70
     0
 74
     1
  0
SEQEND
  5
290
330
28E
100
AcDbEntity
  8
0
  6
Continuous
 62
     7
  0
HATCH
  5
291
330
1F
100
AcDbEntity
  8
중심선
100
AcDbHatch
 10
0.0
 20
0.0
 30
0.0
210
0.0
220
0.0
230
1.0
  2
SOLID
 70
     1
 71
     0
 91
        1
 92
        0
 93
        4
 72
     1
 10
-10.20054829923657
 20
-33.84226164784986
 11
-13.64682354307385
 21
-33.84226164784986
 72
     1
 10
-13.64682354307385
 20
-33.84226164784986
 11
-15.77505340227787
 21
-36.37858722842243
 72
     1
 10
-15.77505340227787
 20
-36.37858722842243
 11
-12.32874507332744
 21
-36.37854779911994
 72
     1
 10
-12.32874507332744
 20
-36.37854779911994
 11
-10.20054829923657
 21
-33.84226164784986
 97
        0
 75
     0
 76
     1
 98
        1
 10
-2.962315328507779
 20
0.0000000000000052
  0
HATCH
  5
292
330
1F
100
AcDbEntity
  8
중심선
100
AcDbHatch
 10
0.0
 20
0.0
 30
0.0
210
0.0
220
0.0
230
1.0
  2
SOLID
 70
     1
 71
     0
 91
        1
 92
        0
 93
        4
 72
     1
 10
-5.187784308200586
 20
-33.84226164784986
 11
-8.634059552037868
 21
-33.84226164784986
 72
     1
 10
-8.634059552037868
 20
-33.84226164784986
 11
-13.16519756039528
 21
-39.24226164784988
 72
     1
 10
-13.16519756039528
 20
-39.24226164784988
 11
-9.718922316558004
 21
-39.24226164784988
 72
     1
 10
-9.718922316558002
 20
-39.24226164784988
 11
-5.187784308200586
 21
-33.84226164784986
 97
        0
 75
     0
 76
     1
 98
        1
 10
-2.962315328507779
 20
0.0000000000000052
  0
HATCH
  5
293
330
1F
100
AcDbEntity
  8
중심선
100
AcDbHatch
 10
0.0
 20
0.0
 30
0.0
210
0.0
220
0.0
230
1.0
  2
SOLID
 70
     1
 71
     0
 91
        1
 92
        0
 93
        4
 72
     1
 10
-0.17502031716469
 20
-33.84226164784983
 11
-3.621295561001834
 21
-33.84226164784989
 72
     1
 10
-3.621295561001834
 20
-33.84226164784989
 11
-10.66973246289108
 21
-42.24226164784988
 72
     1
 10
-10.66973246289108
 20
-42.24226164784988
 11
-7.223457219053802
 21
-42.24226164784988
 72
     1
 10
-7.223457219053801
 20
-42.24226164784988
 11
-0.17502031716469
 21
-33.84226164784983
 97
        0
 75
     0
 76
     1
 98
        1
 10
-2.962315328507779
 20
0.0000000000000052
  0
HATCH
  5
294
330
1F
100
AcDbEntity
  8
중심선
100
AcDbHatch
 10
0.0
 20
0.0
 30
0.0
210
0.0
220
0.0
230
1.0
  2
SOLID
 70
     1
 71
     0
 91
        1
 92
        0
 93
        6
 72
     3
 10
4.624870113847481
 20
-38.04226164790114
 11
3.960054785062284
 21
1.540882976769353E-10
 40
0.3939339440162627
 50
17.09539180608438
 51
320.0019657685079
 73
     0
 72
     1
 10
6.307869769548076
 20
-36.63015565248816
 11
8.613171643249114
 21
-34.69582894244024
 72
     3
 10
4.624870113794635
 20
-38.04226164785001
 11
6.60005478528683
 21
-1.278976924368180E-13
 40
0.636358354079598
 50
39.9987384933741
 51
368.4976242363725
 73
     1
 72
     1
 10
11.05020260569524
 20
-37.08226164777988
 11
3.304937420630556
 21
-37.08226164777988
 72
     1
 10
3.304937420630557
 20
-37.08226164777988
 11
3.304912376184624
 21
-39.00226164777978
 72
     1
 10
3.304912376184624
 20
-39.00226164777978
 11
7.74629214565666
 21
-39.00226164777975
 97
        0
 75
     0
 76
     1
 98
        1
 10
-2.962315328507779
 20
0.0000000000000052
  0
DIMENSION
  5
295
330
1F
100
AcDbEntity
  8
치수문자_일반주서
100
AcDbDimension
  2
_D
 10
-64.18768467149224
 20
-9.52500000000005
 30
0.0
 11
-64.18768467149226
 21
-0.7260757102877753
 31
0.0
 70
   160
  1
%%c<>
 71
     2
 42
19.04999999999998
 52
-270.0
  3
SLDDIMSTYLE0
100
AcDbAlignedDimension
 13
-50.68768467149221
 23
9.524999999999983
 33
0.0
 14
-50.68768467149221
 24
-9.525
 34
0.0
 50
90.0000000000002
100
AcDbRotatedDimension
1001
ACAD
1000
DSTYLE
1002
{
1070
   171
1070
     6
1070
   273
1070
     7
1002
}
  0
DIMENSION
  5
2AA
330
1F
100
AcDbEntity
  8
치수문자_일반주서
100
AcDbDimension
  2
_D_1
 10
66.23731532850788
 20
9.525000000000084
 30
0.0
 11
66.2373153285078
 21
26.88252779652204
 31
0.0
 70
   160
  1
%%c<>
 71
     2
 42
19.05
 52
-270.0
  3
SLDDIMSTYLE1
100
AcDbAlignedDimension
 13
47.2373153285078
 23
-9.524999999999988
 33
0.0
 14
47.2373153285078
 24
9.525000000000013
 34
0.0
 50
90.0000000000002
100
AcDbRotatedDimension
1001
ACAD
1000
DSTYLE
1002
{
1070
   171
1070
     6
1070
   273
1070
     7
1002
}
  0
DIMENSION
  5
2BE
330
1F
100
AcDbEntity
  8
치수문자_일반주서
100
AcDbDimension
  2
_D_2
 10
5.962315328494139
 20
31.709256515396
 30
0.0
 11
27.49218583951862
 21
31.709256515396
 31
0.0
 70
   160
  1
<>
 71
     2
 42
41.27500000001366
  3
SLDDIMSTYLE1
100
AcDbAlignedDimension
 13
47.2373153285078
 23
9.312830447157314
 33
0.0
 14
5.96231532849414
 24
-6.83381985958274
 34
0.0
100
AcDbRotatedDimension
1001
ACAD
1000
DSTYLE
1002
{
1070
   171
1070
     6
1070
   273
1070
     7
1002
}
  0
DIMENSION
  5
2D2
330
1F
100
AcDbEntity
  8
치수문자_일반주서
100
AcDbDimension
  2
_D_3
 10
-51.1876846714922
 20
47.7924511005973
 30
0.0
 11
1.511640740347281
 21
47.7924511005973
 31
0.0
 70
   160
  1
<>
 71
     2
 42
98.42500000000001
  3
SLDDIMSTYLE1
100
AcDbAlignedDimension
 13
47.2373153285078
 23
9.312830447157314
 33
0.0
 14
-51.18768467149221
 24
9.025
 34
0.0
100
AcDbRotatedDimension
1001
ACAD
1000
DSTYLE
1002
{
1070
   171
1070
     6
1070
   273
1070
     7
1002
}
  0
LINE
  5
2E5
330
1F
100
AcDbEntity
  8
참조1
100
AcDbLine
 10
95.3611426628914
 20
9.397738352150137
 30
0.0
 11
95.3611426628914
 21
-5.482261647849867
 31
0.0
  0
LINE
  5
2E6
330
1F
100
AcDbEntity
  8
참조1
100
AcDbLine
 10
108.0611426628914
 20
7.397738352150136
 30
0.0
 11
95.3611426628914
 21
7.397738352150136
 31
0.0
  0
SOLID
  5
2E7
330
1F
100
AcDbEntity
  8
참조1
100
AcDbTrace
 10
95.3611426628914
 20
7.397738352150136
 30
0.0
 11
101.7111426628914
 21
6.381738352150136
 31
0.0
 12
101.7111426628914
 22
8.413738352150135
 32
0.0
 13
101.7111426628914
 23
8.413738352150135
 33
0.0
  0
LINE
  5
2E8
330
1F
100
AcDbEntity
  8
참조1
100
AcDbLine
 10
108.0611426628914
 20
-3.482261647849868
 30
0.0
 11
95.3611426628914
 21
-3.482261647849868
 31
0.0
  0
SOLID
  5
2E9
330
1F
100
AcDbEntity
  8
참조1
100
AcDbTrace
 10
95.3611426628914
 20
-3.482261647849868
 30
0.0
 11
101.7111426628914
 21
-4.498261647849867
 31
0.0
 12
101.7111426628914
 22
-2.466261647849868
 32
0.0
 13
101.7111426628914
 23
-2.466261647849868
 33
0.0
  0
MTEXT
  5
2EA
330
1F
100
AcDbEntity
  8
참조1
100
AcDbMText
 10
104.961257473454
 20
13.02345591816621
 30
0.0
 40
3.5
 41
0.0
 71
     1
 72
     1
  1
A
  7
SLDTEXTSTYLE0
 73
     1
 44
1.0
  0
MTEXT
  5
2EB
330
1F
100
AcDbEntity
  8
참조1
100
AcDbMText
 10
104.961257473454
 20
2.143455918166205
 30
0.0
 40
3.5
 41
0.0
 71
     1
 72
     1
  1
A
  7
SLDTEXTSTYLE0
 73
     1
 44
1.0
  0
INSERT
  5
2F2
330
1F
100
AcDbEntity
  8
해칭선
100
AcDbBlockReference
  2
SW_DOWELSYMBOL_0
 10
0.0
 20
0.0
 30
0.0
  0
LINE
  5
352
330
1F
100
AcDbEntity
  8
외형선
  6
Continuous
370
    15
100
AcDbLine
 10
-31.18200967149218
 20
7.620000000000005
 30
0.0
 11
-19.59960967149217
 21
7.620000000000005
 31
0.0
  0
LINE
  5
353
330
1F
100
AcDbEntity
  8
외형선
  6
Continuous
370
    15
100
AcDbLine
 10
-31.18200967149218
 20
7.619999999999976
 30
0.0
 11
-33.08700967149232
 21
9.525000000000006
 31
0.0
  0
LINE
  5
354
330
1F
100
AcDbEntity
  8
외형선
  6
Continuous
370
    15
100
AcDbLine
 10
-19.59960967149217
 20
7.619999999999976
 30
0.0
 11
-17.6946096714922
 21
9.525000000000006
 31
0.0
  0
LINE
  5
355
330
1F
100
AcDbEntity
  8
외형선
  6
Continuous
370
    15
100
AcDbLine
 10
-33.08700967149232
 20
9.524999999999999
 30
0.0
 11
-50.68768467149221
 21
9.524999999999997
 31
0.0
  0
ENDSEC
  0
SECTION
  2
OBJECTS
  0
DICTIONARY
  5
C
330
0
100
AcDbDictionary
281
     1
  3
ACAD_GROUP
350
D
  3
ACAD_IMAGE_VARS
350
316
  3
ACAD_LAYOUT
350
1A
  3
ACAD_MLINESTYLE
350
17
  3
ACAD_PLOTSETTINGS
350
19
  3
ACAD_PLOTSTYLENAME
350
E
  3
ACAD_SCALELIST
350
47
  3
APPDATA
350
314
  3
DWGPROPS
350
356
  0
DICTIONARY
  5
344
330
2
100
AcDbDictionary
280
     1
281
     1
  3
ACAD_LAYERSTATES
360
345
  0
DICTIONARY
  5
D
102
{ACAD_REACTORS
330
C
102
}
330
C
100
AcDbDictionary
281
     1
  0
RASTERVARIABLES
  5
316
102
{ACAD_REACTORS
330
C
102
}
330
C
100
AcDbRasterVariables
 90
        0
 70
     1
 71
     1
 72
     1
  0
DICTIONARY
  5
1A
102
{ACAD_REACTORS
330
C
102
}
330
C
100
AcDbDictionary
281
     1
  3
Layout1
350
1E
  3
Layout2
350
26
  3
Model
350
22
  0
DICTIONARY
  5
17
102
{ACAD_REACTORS
330
C
102
}
330
C
100
AcDbDictionary
281
     1
  3
Standard
350
18
  0
DICTIONARY
  5
19
102
{ACAD_REACTORS
330
C
102
}
330
C
100
AcDbDictionary
281
     1
  0
ACDBDICTIONARYWDFLT
  5
E
102
{ACAD_REACTORS
330
C
102
}
330
C
100
AcDbDictionary
281
     1
  3
Normal
350
F
100
AcDbDictionaryWithDefault
340
F
  0
DICTIONARY
  5
47
102
{ACAD_REACTORS
330
C
102
}
330
C
100
AcDbDictionary
281
     1
  3
A0
350
48
  3
A1
350
49
  3
A2
350
4A
  3
A3
350
4B
  3
A4
350
4C
  3
A5
350
4D
  3
A6
350
4E
  3
A7
350
4F
  3
A8
350
50
  3
A9
350
51
  3
B0
350
52
  3
B1
350
53
  3
B2
350
54
  3
B3
350
55
  3
B4
350
56
  3
B5
350
57
  3
B6
350
58
  3
B7
350
59
  3
B8
350
5A
  3
B9
350
5B
  3
C0
350
5C
  3
C1
350
5D
  3
C2
350
5E
  3
C3
350
5F
  3
C4
350
60
  3
C5
350
61
  3
C6
350
62
  3
C7
350
63
  3
C8
350
64
  3
C9
350
65
  3
D0
350
66
  3
D1
350
67
  3
D2
350
68
  0
DICTIONARY
  5
314
102
{ACAD_REACTORS
330
C
102
}
330
C
100
AcDbDictionary
281
     1
  0
XRECORD
  5
356
102
{ACAD_REACTORS
330
C
102
}
330
C
100
AcDbXrecord
280
     1
  1
DWGPROPS COOKIE
  2

  3

  4

  6

  7

  8
12016016
  9

300
=
301
=
302
=
303
=
304
=
305
=
306
=
307
=
308
=
309
=
 40
0.0
 41
2458318.990839097
 42
2458331.398873773
  1

 90
        0
  0
DICTIONARY
  5
345
102
{ACAD_REACTORS
330
344
102
}
330
344
100
AcDbDictionary
281
     1
  0
LAYOUT
  5
1E
102
{ACAD_REACTORS
330
1A
102
}
330
1A
100
AcDbPlotSettings
  1

  2
none_device
  4

  6

 40
0.0
 41
0.0
 42
0.0
 43
0.0
 44
0.0
 45
0.0
 46
0.0
 47
0.0
 48
0.0
 49
0.0
140
0.0
141
0.0
142
1.0
143
1.0
 70
   688
 72
     1
 73
     0
 74
     5
  7

 75
    16
147
1.0
148
0.0
149
0.0
100
AcDbLayout
  1
Layout1
 70
     1
 71
     1
 10
0.0
 20
0.0
 11
420.0
 21
297.0
 12
0.0
 22
0.0
 32
0.0
 14
1.000000000000000E+20
 24
1.000000000000000E+20
 34
1.000000000000000E+20
 15
-1.000000000000000E+20
 25
-1.000000000000000E+20
 35
-1.000000000000000E+20
146
0.0
 13
0.0
 23
0.0
 33
0.0
 16
1.0
 26
0.0
 36
0.0
 17
0.0
 27
1.0
 37
0.0
 76
     0
330
1B
  0
LAYOUT
  5
26
102
{ACAD_REACTORS
330
1A
102
}
330
1A
100
AcDbPlotSettings
  1

  2
none_device
  4

  6

 40
0.0
 41
0.0
 42
0.0
 43
0.0
 44
0.0
 45
0.0
 46
0.0
 47
0.0
 48
0.0
 49
0.0
140
0.0
141
0.0
142
1.0
143
1.0
 70
   688
 72
     1
 73
     0
 74
     5
  7

 75
    16
147
1.0
148
0.0
149
0.0
100
AcDbLayout
  1
Layout2
 70
     1
 71
     2
 10
0.0
 20
0.0
 11
0.0
 21
0.0
 12
0.0
 22
0.0
 32
0.0
 14
0.0
 24
0.0
 34
0.0
 15
0.0
 25
0.0
 35
0.0
146
0.0
 13
0.0
 23
0.0
 33
0.0
 16
1.0
 26
0.0
 36
0.0
 17
0.0
 27
1.0
 37
0.0
 76
     0
330
23
  0
LAYOUT
  5
22
102
{ACAD_REACTORS
330
1A
102
}
330
1A
100
AcDbPlotSettings
  1

  2
none_device
  4
ANSI_A_(11.00_x_8.50_Inches)
  6

 40
6.35
 41
19.05
 42
6.35000508
 43
19.05000254
 44
279.4
 45
215.9
 46
78.8422285863287
 47
81.25596140997908
 48
0.0
 49
0.0
140
0.0
141
0.0
142
0.0458081777741218
143
1.0
 70
  1696
 72
     0
 73
     0
 74
     0
  7

 75
     0
147
0.0235690232323232
148
0.0
149
0.0
100
AcDbLayout
  1
Model
 70
     1
 71
     0
 10
0.0
 20
0.0
 11
420.0
 21
297.0
 12
0.0
 22
0.0
 32
0.0
 14
1.000000000000000E+20
 24
1.000000000000000E+20
 34
1.000000000000000E+20
 15
-1.000000000000000E+20
 25
-1.000000000000000E+20
 35
-1.000000000000000E+20
146
0.0
 13
0.0
 23
0.0
 33
0.0
 16
1.0
 26
0.0
 36
0.0
 17
0.0
 27
1.0
 37
0.0
 76
     0
330
1F
331
29
  0
MLINESTYLE
  5
18
102
{ACAD_REACTORS
330
17
102
}
330
17
100
AcDbMlineStyle
  2
Standard
 70
     0
  3

 62
   256
 51
90.0
 52
90.0
 71
     2
 49
0.5
 62
   256
  6
BYLAYER
 49
-0.5
 62
   256
  6
BYLAYER
  0
ACDBPLACEHOLDER
  5
F
102
{ACAD_REACTORS
330
E
102
}
330
E
  0
SCALE
  5
48
102
{ACAD_REACTORS
330
47
102
}
330
47
100
AcDbScale
 70
     0
300
1:1
140
1.0
141
1.0
290
     1
  0
SCALE
  5
49
102
{ACAD_REACTORS
330
47
102
}
330
47
100
AcDbScale
 70
     0
300
1:2
140
1.0
141
2.0
290
     0
  0
SCALE
  5
4A
102
{ACAD_REACTORS
330
47
102
}
330
47
100
AcDbScale
 70
     0
300
1:4
140
1.0
141
4.0
290
     0
  0
SCALE
  5
4B
102
{ACAD_REACTORS
330
47
102
}
330
47
100
AcDbScale
 70
     0
300
1:5
140
1.0
141
5.0
290
     0
  0
SCALE
  5
4C
102
{ACAD_REACTORS
330
47
102
}
330
47
100
AcDbScale
 70
     0
300
1:8
140
1.0
141
8.0
290
     0
  0
SCALE
  5
4D
102
{ACAD_REACTORS
330
47
102
}
330
47
100
AcDbScale
 70
     0
300
1:10
140
1.0
141
10.0
290
     0
  0
SCALE
  5
4E
102
{ACAD_REACTORS
330
47
102
}
330
47
100
AcDbScale
 70
     0
300
1:16
140
1.0
141
16.0
290
     0
  0
SCALE
  5
4F
102
{ACAD_REACTORS
330
47
102
}
330
47
100
AcDbScale
 70
     0
300
1:20
140
1.0
141
20.0
290
     0
  0
SCALE
  5
50
102
{ACAD_REACTORS
330
47
102
}
330
47
100
AcDbScale
 70
     0
300
1:30
140
1.0
141
30.0
290
     0
  0
SCALE
  5
51
102
{ACAD_REACTORS
330
47
102
}
330
47
100
AcDbScale
 70
     0
300
1:40
140
1.0
141
40.0
290
     0
  0
SCALE
  5
52
102
{ACAD_REACTORS
330
47
102
}
330
47
100
AcDbScale
 70
     0
300
1:50
140
1.0
141
50.0
290
     0
  0
SCALE
  5
53
102
{ACAD_REACTORS
330
47
102
}
330
47
100
AcDbScale
 70
     0
300
1:100
140
1.0
141
100.0
290
     0
  0
SCALE
  5
54
102
{ACAD_REACTORS
330
47
102
}
330
47
100
AcDbScale
 70
     0
300
2:1
140
2.0
141
1.0
290
     0
  0
SCALE
  5
55
102
{ACAD_REACTORS
330
47
102
}
330
47
100
AcDbScale
 70
     0
300
4:1
140
4.0
141
1.0
290
     0
  0
SCALE
  5
56
102
{ACAD_REACTORS
330
47
102
}
330
47
100
AcDbScale
 70
     0
300
8:1
140
8.0
141
1.0
290
     0
  0
SCALE
  5
57
102
{ACAD_REACTORS
330
47
102
}
330
47
100
AcDbScale
 70
     0
300
10:1
140
10.0
141
1.0
290
     0
  0
SCALE
  5
58
102
{ACAD_REACTORS
330
47
102
}
330
47
100
AcDbScale
 70
     0
300
100:1
140
100.0
141
1.0
290
     0
  0
SCALE
  5
59
102
{ACAD_REACTORS
330
47
102
}
330
47
100
AcDbScale
 70
     0
300
1/128" = 1'-0"
140
0.0078125
141
12.0
290
     0
  0
SCALE
  5
5A
102
{ACAD_REACTORS
330
47
102
}
330
47
100
AcDbScale
 70
     0
300
1/64" = 1'-0"
140
0.015625
141
12.0
290
     0
  0
SCALE
  5
5B
102
{ACAD_REACTORS
330
47
102
}
330
47
100
AcDbScale
 70
     0
300
1/32" = 1'-0"
140
0.03125
141
12.0
290
     0
  0
SCALE
  5
5C
102
{ACAD_REACTORS
330
47
102
}
330
47
100
AcDbScale
 70
     0
300
1/16" = 1'-0"
140
0.0625
141
12.0
290
     0
  0
SCALE
  5
5D
102
{ACAD_REACTORS
330
47
102
}
330
47
100
AcDbScale
 70
     0
300
3/32" = 1'-0"
140
0.09375
141
12.0
290
     0
  0
SCALE
  5
5E
102
{ACAD_REACTORS
330
47
102
}
330
47
100
AcDbScale
 70
     0
300
1/8" = 1'-0"
140
0.125
141
12.0
290
     0
  0
SCALE
  5
5F
102
{ACAD_REACTORS
330
47
102
}
330
47
100
AcDbScale
 70
     0
300
3/16" = 1'-0"
140
0.1875
141
12.0
290
     0
  0
SCALE
  5
60
102
{ACAD_REACTORS
330
47
102
}
330
47
100
AcDbScale
 70
     0
300
1/4" = 1'-0"
140
0.25
141
12.0
290
     0
  0
SCALE
  5
61
102
{ACAD_REACTORS
330
47
102
}
330
47
100
AcDbScale
 70
     0
300
3/8" = 1'-0"
140
0.375
141
12.0
290
     0
  0
SCALE
  5
62
102
{ACAD_REACTORS
330
47
102
}
330
47
100
AcDbScale
 70
     0
300
1/2" = 1'-0"
140
0.5
141
12.0
290
     0
  0
SCALE
  5
63
102
{ACAD_REACTORS
330
47
102
}
330
47
100
AcDbScale
 70
     0
300
3/4" = 1'-0"
140
0.75
141
12.0
290
     0
  0
SCALE
  5
64
102
{ACAD_REACTORS
330
47
102
}
330
47
100
AcDbScale
 70
     0
300
1" = 1'-0"
140
1.0
141
12.0
290
     0
  0
SCALE
  5
65
102
{ACAD_REACTORS
330
47
102
}
330
47
100
AcDbScale
 70
     0
300
1-1/2" = 1'-0"
140
1.5
141
12.0
290
     0
  0
SCALE
  5
66
102
{ACAD_REACTORS
330
47
102
}
330
47
100
AcDbScale
 70
     0
300
3" = 1'-0"
140
3.0
141
12.0
290
     0
  0
SCALE
  5
67
102
{ACAD_REACTORS
330
47
102
}
330
47
100
AcDbScale
 70
     0
300
6" = 1'-0"
140
6.0
141
12.0
290
     0
  0
SCALE
  5
68
102
{ACAD_REACTORS
330
47
102
}
330
47
100
AcDbScale
 70
     0
300
1'-0" = 1'-0"
140
12.0
141
12.0
290
     0
  0
ENDSEC
  0
EOF
