  0
SECTION
  2
HEADER
  9
$ACADVER
  1
AC1015
  9
$ACADMAINTVER
 70
     6
  9
$DWGCODEPAGE
  3
ANSI_949
  9
$INSBASE
 10
0.0
 20
0.0
 30
0.0
  9
$EXTMIN
 10
1.000000000000000E+20
 20
1.000000000000000E+20
 30
1.000000000000000E+20
  9
$EXTMAX
 10
-1.000000000000000E+20
 20
-1.000000000000000E+20
 30
-1.000000000000000E+20
  9
$LIMMIN
 10
0.0
 20
0.0
  9
$LIMMAX
 10
420.0
 20
297.0
  9
$ORTHOMODE
 70
     0
  9
$REGENMODE
 70
     1
  9
$FILLMODE
 70
     1
  9
$QTEXTMODE
 70
     0
  9
$MIRRTEXT
 70
     1
  9
$LTSCALE
 40
1.0
  9
$ATTMODE
 70
     1
  9
$TEXTSIZE
 40
3.5
  9
$TRACEWID
 40
1.0
  9
$TEXTSTYLE
  7
Standard
  9
$CLAYER
  8
0
  9
$CELTYPE
  6
ByLayer
  9
$CECOLOR
 62
   256
  9
$CELTSCALE
 40
1.0
  9
$DISPSILH
 70
     0
  9
$DIMSCALE
 40
1.0
  9
$DIMASZ
 40
3.302
  9
$DIMEXO
 40
1.0
  9
$DIMDLI
 40
3.75
  9
$DIMRND
 40
0.0
  9
$DIMDLE
 40
0.0
  9
$DIMEXE
 40
1.0
  9
$DIMTP
 40
0.0
  9
$DIMTM
 40
0.0
  9
$DIMTXT
 40
3.5
  9
$DIMCEN
 40
2.5
  9
$DIMTSZ
 40
0.0
  9
$DIMTOL
 70
     0
  9
$DIMLIM
 70
     0
  9
$DIMTIH
 70
     1
  9
$DIMTOH
 70
     1
  9
$DIMSE1
 70
     0
  9
$DIMSE2
 70
     0
  9
$DIMTAD
 70
     1
  9
$DIMZIN
 70
     0
  9
$DIMBLK
  1

  9
$DIMASO
 70
     1
  9
$DIMSHO
 70
     1
  9
$DIMPOST
  1

  9
$DIMAPOST
  1

  9
$DIMALT
 70
     0
  9
$DIMALTD
 70
     3
  9
$DIMALTF
 40
0.0393700787401575
  9
$DIMLFAC
 40
1.0
  9
$DIMTOFL
 70
     1
  9
$DIMTVP
 40
0.0
  9
$DIMTIX
 70
     0
  9
$DIMSOXD
 70
     0
  9
$DIMSAH
 70
     0
  9
$DIMBLK1
  1

  9
$DIMBLK2
  1

  9
$DIMSTYLE
  2
ISO-25
  9
$DIMCLRD
 70
     0
  9
$DIMCLRE
 70
     0
  9
$DIMCLRT
 70
     0
  9
$DIMTFAC
 40
1.0
  9
$DIMGAP
 40
1.524
  9
$DIMJUST
 70
     0
  9
$DIMSD1
 70
     0
  9
$DIMSD2
 70
     0
  9
$DIMTOLJ
 70
     0
  9
$DIMTZIN
 70
     0
  9
$DIMALTZ
 70
     0
  9
$DIMALTTZ
 70
     0
  9
$DIMUPT
 70
     0
  9
$DIMDEC
 70
     2
  9
$DIMTDEC
 70
     2
  9
$DIMALTU
 70
     2
  9
$DIMALTTD
 70
     3
  9
$DIMTXSTY
  7
Standard
  9
$DIMAUNIT
 70
     0
  9
$DIMADEC
 70
     2
  9
$DIMALTRND
 40
0.0
  9
$DIMAZIN
 70
     0
  9
$DIMDSEP
 70
    44
  9
$DIMATFIT
 70
     3
  9
$DIMFRAC
 70
     0
  9
$DIMLDRBLK
  1

  9
$DIMLUNIT
 70
     2
  9
$DIMLWD
 70
    -2
  9
$DIMLWE
 70
    -2
  9
$DIMTMOVE
 70
     0
  9
$LUNITS
 70
     2
  9
$LUPREC
 70
     2
  9
$SKETCHINC
 40
1.0
  9
$FILLETRAD
 40
10.0
  9
$AUNITS
 70
     0
  9
$AUPREC
 70
     2
  9
$MENU
  1
.
  9
$ELEVATION
 40
0.0
  9
$PELEVATION
 40
0.0
  9
$THICKNESS
 40
0.0
  9
$LIMCHECK
 70
     0
  9
$CHAMFERA
 40
0.0
  9
$CHAMFERB
 40
0.0
  9
$CHAMFERC
 40
0.0
  9
$CHAMFERD
 40
0.0
  9
$SKPOLY
 70
     0
  9
$TDCREATE
 40
2458299.344554676
  9
$TDUCREATE
 40
2458298.969554676
  9
$TDUPDATE
 40
2458311.486052465
  9
$TDUUPDATE
 40
2458311.111052465
  9
$TDINDWG
 40
0.0008506481
  9
$TDUSRTIMER
 40
2458311.110723889
  9
$USRTIMER
 70
     1
  9
$ANGBASE
 50
0.0
  9
$ANGDIR
 70
     0
  9
$PDMODE
 70
     0
  9
$PDSIZE
 40
-1.0
  9
$PLINEWID
 40
0.0
  9
$SPLFRAME
 70
     0
  9
$SPLINETYPE
 70
     6
  9
$SPLINESEGS
 70
     8
  9
$HANDSEED
  5
2B7
  9
$SURFTAB1
 70
     6
  9
$SURFTAB2
 70
     6
  9
$SURFTYPE
 70
     6
  9
$SURFU
 70
     6
  9
$SURFV
 70
     6
  9
$UCSBASE
  2

  9
$UCSNAME
  2

  9
$UCSORG
 10
0.0
 20
0.0
 30
0.0
  9
$UCSXDIR
 10
1.0
 20
0.0
 30
0.0
  9
$UCSYDIR
 10
0.0
 20
1.0
 30
0.0
  9
$UCSORTHOREF
  2

  9
$UCSORTHOVIEW
 70
     0
  9
$UCSORGTOP
 10
0.0
 20
0.0
 30
0.0
  9
$UCSORGBOTTOM
 10
0.0
 20
0.0
 30
0.0
  9
$UCSORGLEFT
 10
0.0
 20
0.0
 30
0.0
  9
$UCSORGRIGHT
 10
0.0
 20
0.0
 30
0.0
  9
$UCSORGFRONT
 10
0.0
 20
0.0
 30
0.0
  9
$UCSORGBACK
 10
0.0
 20
0.0
 30
0.0
  9
$PUCSBASE
  2

  9
$PUCSNAME
  2

  9
$PUCSORG
 10
0.0
 20
0.0
 30
0.0
  9
$PUCSXDIR
 10
1.0
 20
0.0
 30
0.0
  9
$PUCSYDIR
 10
0.0
 20
1.0
 30
0.0
  9
$PUCSORTHOREF
  2

  9
$PUCSORTHOVIEW
 70
     0
  9
$PUCSORGTOP
 10
0.0
 20
0.0
 30
0.0
  9
$PUCSORGBOTTOM
 10
0.0
 20
0.0
 30
0.0
  9
$PUCSORGLEFT
 10
0.0
 20
0.0
 30
0.0
  9
$PUCSORGRIGHT
 10
0.0
 20
0.0
 30
0.0
  9
$PUCSORGFRONT
 10
0.0
 20
0.0
 30
0.0
  9
$PUCSORGBACK
 10
0.0
 20
0.0
 30
0.0
  9
$USERI1
 70
     0
  9
$USERI2
 70
     0
  9
$USERI3
 70
     0
  9
$USERI4
 70
     0
  9
$USERI5
 70
     0
  9
$USERR1
 40
0.0
  9
$USERR2
 40
0.0
  9
$USERR3
 40
0.0
  9
$USERR4
 40
0.0
  9
$USERR5
 40
0.0
  9
$WORLDVIEW
 70
     1
  9
$SHADEDGE
 70
     3
  9
$SHADEDIF
 70
    70
  9
$TILEMODE
 70
     1
  9
$MAXACTVP
 70
    64
  9
$PINSBASE
 10
0.0
 20
0.0
 30
0.0
  9
$PLIMCHECK
 70
     0
  9
$PEXTMIN
 10
1.000000000000000E+20
 20
1.000000000000000E+20
 30
1.000000000000000E+20
  9
$PEXTMAX
 10
-1.000000000000000E+20
 20
-1.000000000000000E+20
 30
-1.000000000000000E+20
  9
$PLIMMIN
 10
0.0
 20
0.0
  9
$PLIMMAX
 10
0.0
 20
0.0
  9
$UNITMODE
 70
     0
  9
$VISRETAIN
 70
     1
  9
$PLINEGEN
 70
     0
  9
$PSLTSCALE
 70
     1
  9
$TREEDEPTH
 70
  3020
  9
$CMLSTYLE
  2
Standard
  9
$CMLJUST
 70
     0
  9
$CMLSCALE
 40
20.0
  9
$PROXYGRAPHICS
 70
     1
  9
$MEASUREMENT
 70
     1
  9
$CELWEIGHT
370
    -1
  9
$ENDCAPS
280
     0
  9
$JOINSTYLE
280
     0
  9
$LWDISPLAY
290
     1
  9
$INSUNITS
 70
     4
  9
$HYPERLINKBASE
  1

  9
$STYLESHEET
  1

  9
$XEDIT
290
     1
  9
$CEPSNTYPE
380
     0
  9
$PSTYLEMODE
290
     1
  9
$FINGERPRINTGUID
  2
{5C68D617-FCE9-4D22-898D-A1506F3446AB}
  9
$VERSIONGUID
  2
{FAEB1C32-E019-11D5-929B-00C0DF256EC4}
  9
$EXTNAMES
290
     1
  9
$PSVPSCALE
 40
0.0
  9
$OLESTARTUP
290
     0
  0
ENDSEC
  0
SECTION
  2
CLASSES
  0
CLASS
  1
ACDBDICTIONARYWDFLT
  2
AcDbDictionaryWithDefault
  3
ObjectDBX Classes
 90
        0
280
     0
281
     0
  0
CLASS
  1
VISUALSTYLE
  2
AcDbVisualStyle
  3
ObjectDBX Classes
 90
     4095
280
     0
281
     0
  0
CLASS
  1
MATERIAL
  2
AcDbMaterial
  3
ObjectDBX Classes
 90
     1153
280
     0
281
     0
  0
CLASS
  1
SCALE
  2
AcDbScale
  3
ObjectDBX Classes
 90
     1153
280
     0
281
     0
  0
CLASS
  1
SUN
  2
AcDbSun
  3
SCENEOE
 90
     1153
280
     0
281
     0
  0
CLASS
  1
ACDBPLACEHOLDER
  2
AcDbPlaceHolder
  3
ObjectDBX Classes
 90
        0
280
     0
281
     0
  0
CLASS
  1
LAYOUT
  2
AcDbLayout
  3
ObjectDBX Classes
 90
        0
280
     0
281
     0
  0
CLASS
  1
TABLESTYLE
  2
AcDbTableStyle
  3
ObjectDBX Classes
 90
     4095
280
     0
281
     0
  0
CLASS
  1
MLEADERSTYLE
  2
AcDbMLeaderStyle
  3
ACDB_MLEADERSTYLE_CLASS
 90
     4095
280
     0
281
     0
  0
CLASS
  1
RASTERVARIABLES
  2
AcDbRasterVariables
  3
ISM
 90
        0
280
     0
281
     0
  0
ENDSEC
  0
SECTION
  2
TABLES
  0
TABLE
  2
VPORT
  5
8
330
0
100
AcDbSymbolTable
 70
     1
  0
VPORT
  5
29
330
8
100
AcDbSymbolTableRecord
100
AcDbViewportTableRecord
  2
*Active
 70
     0
 10
0.0
 20
0.0
 11
1.0
 21
1.0
 12
-8.358745242390249
 22
-10.16815596874566
 13
0.0
 23
0.0
 14
10.0
 24
10.0
 15
10.0
 25
10.0
 16
0.0
 26
0.0
 36
1.0
 17
0.0
 27
0.0
 37
0.0
 40
288.702044369544
 41
1.387755102040816
 42
50.0
 43
0.0
 44
0.0
 50
0.0
 51
0.0
 71
    16
 72
  2000
 73
     1
 74
     3
 75
     0
 76
     0
 77
     0
 78
     0
281
     0
 65
     1
110
0.0
120
0.0
130
0.0
111
1.0
121
0.0
131
0.0
112
0.0
122
1.0
132
0.0
 79
     0
146
0.0
  0
ENDTAB
  0
TABLE
  2
LTYPE
  5
5
330
0
100
AcDbSymbolTable
 70
     6
  0
LTYPE
  5
14
330
5
100
AcDbSymbolTableRecord
100
AcDbLinetypeTableRecord
  2
ByBlock
 70
     0
  3

 72
    65
 73
     0
 40
0.0
  0
LTYPE
  5
15
330
5
100
AcDbSymbolTableRecord
100
AcDbLinetypeTableRecord
  2
ByLayer
 70
     0
  3

 72
    65
 73
     0
 40
0.0
  0
LTYPE
  5
16
330
5
100
AcDbSymbolTableRecord
100
AcDbLinetypeTableRecord
  2
Continuous
 70
     0
  3
Solid line
 72
    65
 73
     0
 40
0.0
  0
LTYPE
  5
6A
330
5
100
AcDbSymbolTableRecord
100
AcDbLinetypeTableRecord
  2
HIDDEN
 70
     0
  3
Hidden __ __ __ __ __ __ __ __ __ __ __ __ __ __
 72
    65
 73
     2
 40
1.905
 49
1.27
 74
     0
 49
-0.635
 74
     0
  0
LTYPE
  5
6B
330
5
100
AcDbSymbolTableRecord
100
AcDbLinetypeTableRecord
  2
PHANTOM
 70
     0
  3
Phantom ______  __  __  ______  __  __  ______
 72
    65
 73
     6
 40
12.7
 49
6.35
 74
     0
 49
-1.27
 74
     0
 49
1.27
 74
     0
 49
-1.27
 74
     0
 49
1.27
 74
     0
 49
-1.27
 74
     0
  0
LTYPE
  5
6C
330
5
100
AcDbSymbolTableRecord
100
AcDbLinetypeTableRecord
  2
CENTER
 70
     0
  3
Center ____ _ ____ _ ____ _ ____ _ ____ _ ____
 72
    65
 73
     4
 40
10.16
 49
6.35
 74
     0
 49
-1.27
 74
     0
 49
1.27
 74
     0
 49
-1.27
 74
     0
  0
LTYPE
  5
6D
330
5
100
AcDbSymbolTableRecord
100
AcDbLinetypeTableRecord
  2
CENTERX2
 70
     0
  3
Center (2x) ________  __  ________  __  _____
 72
    65
 73
     4
 40
20.32
 49
12.7
 74
     0
 49
-2.54
 74
     0
 49
2.54
 74
     0
 49
-2.54
 74
     0
  0
LTYPE
  5
6E
330
5
100
AcDbSymbolTableRecord
100
AcDbLinetypeTableRecord
  2
DOT2
 70
     0
  3
Dot (.5x) ........................................
 72
    65
 73
     2
 40
0.635
 49
0.0
 74
     0
 49
-0.635
 74
     0
  0
ENDTAB
  0
TABLE
  2
LAYER
  5
2
102
{ACAD_XDICTIONARY
360
29E
102
}
330
0
100
AcDbSymbolTable
 70
    18
  0
LAYER
  5
10
330
2
100
AcDbSymbolTableRecord
100
AcDbLayerTableRecord
  2
0
 70
     0
 62
     7
  6
Continuous
370
    -3
390
F
  0
LAYER
  5
6F
330
2
100
AcDbSymbolTableRecord
100
AcDbLayerTableRecord
  2
FORMAT
 70
     0
 62
     2
  6
Continuous
370
    -3
390
F
  0
LAYER
  5
70
330
2
100
AcDbSymbolTableRecord
100
AcDbLayerTableRecord
  2
외형선
 70
     0
 62
     4
  6
Continuous
370
    30
390
F
  0
LAYER
  5
71
330
2
100
AcDbSymbolTableRecord
100
AcDbLayerTableRecord
  2
숨은선
 70
     0
 62
     2
  6
HIDDEN
370
    15
390
F
  0
LAYER
  5
72
330
2
100
AcDbSymbolTableRecord
100
AcDbLayerTableRecord
  2
중심선
 70
     0
 62
     1
  6
CENTERX2
370
    -3
390
F
  0
LAYER
  5
73
330
2
100
AcDbSymbolTableRecord
100
AcDbLayerTableRecord
  2
파단선
 70
     0
 62
     4
  6
Continuous
370
    -3
390
F
  0
LAYER
  5
74
330
2
100
AcDbSymbolTableRecord
100
AcDbLayerTableRecord
  2
해칭선
 70
     0
 62
   100
  6
Continuous
370
    -3
390
F
  0
LAYER
  5
75
330
2
100
AcDbSymbolTableRecord
100
AcDbLayerTableRecord
  2
가는실선
 70
     0
 62
     4
  6
Continuous
370
    -3
390
F
  0
LAYER
  5
76
330
2
100
AcDbSymbolTableRecord
100
AcDbLayerTableRecord
  2
치수_보조선
 70
     0
 62
     4
  6
Continuous
370
    -3
390
F
  0
LAYER
  5
77
330
2
100
AcDbSymbolTableRecord
100
AcDbLayerTableRecord
  2
치수문자_일반주서
 70
     0
 62
     7
  6
Continuous
370
    15
390
F
  0
LAYER
  5
78
330
2
100
AcDbSymbolTableRecord
100
AcDbLayerTableRecord
  2
개별주서
 70
     0
 62
   100
  6
Continuous
370
    30
390
F
  0
LAYER
  5
79
330
2
100
AcDbSymbolTableRecord
100
AcDbLayerTableRecord
  2
중간선
 70
     0
 62
     2
  6
Continuous
370
    15
390
F
  0
LAYER
  5
7A
330
2
100
AcDbSymbolTableRecord
100
AcDbLayerTableRecord
  2
윤곽선
 70
     0
 62
     3
  6
Continuous
370
    40
390
F
  0
LAYER
  5
7B
330
2
100
AcDbSymbolTableRecord
100
AcDbLayerTableRecord
  2
중심마크
 70
     0
 62
   100
  6
Continuous
370
    30
390
F
  0
LAYER
  5
7C
330
2
100
AcDbSymbolTableRecord
100
AcDbLayerTableRecord
  2
가상선
 70
     0
 62
     4
  6
PHANTOM
370
    -3
390
F
  0
LAYER
  5
7D
330
2
100
AcDbSymbolTableRecord
100
AcDbLayerTableRecord
  2
특수지정선
 70
     0
 62
     5
  6
CENTERX2
370
    60
390
F
  0
LAYER
  5
7E
330
2
100
AcDbSymbolTableRecord
100
AcDbLayerTableRecord
  2
참조1
 70
     0
 62
    -4
  6
Continuous
370
    -3
390
F
  0
LAYER
  5
1F6
330
2
100
AcDbSymbolTableRecord
100
AcDbLayerTableRecord
  2
Defpoints
 70
     0
 62
     7
  6
Continuous
290
     0
370
    -3
390
F
  0
ENDTAB
  0
TABLE
  2
STYLE
  5
3
330
0
100
AcDbSymbolTable
 70
     2
  0
STYLE
  5
11
330
3
100
AcDbSymbolTableRecord
100
AcDbTextStyleTableRecord
  2
Standard
 70
     0
 40
0.0
 41
1.0
 50
0.0
 71
     0
 42
3.5
  3
txt
  4

  0
STYLE
  5
94
330
3
100
AcDbSymbolTableRecord
100
AcDbTextStyleTableRecord
  2
SLDTEXTSTYLE0
 70
     0
 40
0.0
 41
0.75
 50
0.0
 71
     0
 42
3.5
  3
TXT
  4

  0
ENDTAB
  0
TABLE
  2
VIEW
  5
6
330
0
100
AcDbSymbolTable
 70
     0
  0
ENDTAB
  0
TABLE
  2
UCS
  5
7
330
0
100
AcDbSymbolTable
 70
     0
  0
ENDTAB
  0
TABLE
  2
APPID
  5
9
330
0
100
AcDbSymbolTable
 70
     1
  0
APPID
  5
12
330
9
100
AcDbSymbolTableRecord
100
AcDbRegAppTableRecord
  2
ACAD
 70
     0
  0
ENDTAB
  0
TABLE
  2
DIMSTYLE
  5
A
330
0
100
AcDbSymbolTable
 70
     4
100
AcDbDimStyleTable
  0
DIMSTYLE
105
27
330
A
100
AcDbSymbolTableRecord
100
AcDbDimStyleTableRecord
  2
ISO-25
 70
     0
 41
2.5
 42
0.625
 43
3.75
 44
1.25
 73
     0
 74
     0
 77
     1
 78
     8
140
2.5
141
2.5
143
0.03937007874016
147
0.625
171
     3
172
     1
178
     0
271
     2
272
     2
274
     3
278
    44
283
     0
284
     8
340
11
  0
DIMSTYLE
105
175
102
{ACAD_REACTORS
330
174
330
19C
102
}
330
A
100
AcDbSymbolTableRecord
100
AcDbDimStyleTableRecord
  2
SLDDIMSTYLE0
 70
     0
 41
3.302
 44
0.0
 45
0.000000001
 73
     0
 74
     0
 77
     1
 78
    12
 79
     3
140
3.5
143
0.0393700787401575
147
0.875
148
0.000000001
170
     1
173
     1
178
     0
271
     2
272
     2
276
     2
284
    12
340
94
  0
DIMSTYLE
105
188
102
{ACAD_REACTORS
330
187
102
}
330
A
100
AcDbSymbolTableRecord
100
AcDbDimStyleTableRecord
  2
SLDDIMSTYLE1
 70
     0
 41
3.302
 44
0.0
 45
0.000000001
 73
     0
 74
     0
 77
     1
 78
    12
 79
     3
140
3.5
143
0.0393700787401575
147
0.875
148
0.000000001
170
     1
172
     1
173
     1
178
     0
271
     2
272
     2
276
     2
284
    12
289
     0
340
94
  0
DIMSTYLE
105
1B1
102
{ACAD_REACTORS
330
1B0
102
}
330
A
100
AcDbSymbolTableRecord
100
AcDbDimStyleTableRecord
  2
SLDDIMSTYLE2
 70
     0
 41
3.302
 44
0.0
 45
0.000000001
 73
     0
 74
     0
 77
     1
 78
     4
 79
     1
140
3.5
143
0.0393700787401575
147
0.875
148
0.000000001
170
     1
173
     1
178
     0
271
     2
272
     2
276
     2
284
    12
340
94
  0
ENDTAB
  0
TABLE
  2
BLOCK_RECORD
  5
1
330
0
100
AcDbSymbolTable
 70
     8
  0
BLOCK_RECORD
  5
1F
330
1
100
AcDbSymbolTableRecord
100
AcDbBlockTableRecord
  2
*Model_Space
340
22
  0
BLOCK_RECORD
  5
1B
330
1
100
AcDbSymbolTableRecord
100
AcDbBlockTableRecord
  2
*Paper_Space
340
1E
  0
BLOCK_RECORD
  5
23
330
1
100
AcDbSymbolTableRecord
100
AcDbBlockTableRecord
  2
*Paper_Space0
340
26
  0
BLOCK_RECORD
  5
7F
330
1
100
AcDbSymbolTableRecord
100
AcDbBlockTableRecord
  2
블럭10
340
0
102
{BLKREFS
331
16C
102
}
  0
BLOCK_RECORD
  5
176
330
1
100
AcDbSymbolTableRecord
100
AcDbBlockTableRecord
  2
_D
340
0
  0
BLOCK_RECORD
  5
189
330
1
100
AcDbSymbolTableRecord
100
AcDbBlockTableRecord
  2
_D_1
340
0
  0
BLOCK_RECORD
  5
19D
330
1
100
AcDbSymbolTableRecord
100
AcDbBlockTableRecord
  2
_D_2
340
0
  0
BLOCK_RECORD
  5
1B2
330
1
100
AcDbSymbolTableRecord
100
AcDbBlockTableRecord
  2
_D_3
340
0
  0
BLOCK_RECORD
  5
1CB
330
1
100
AcDbSymbolTableRecord
100
AcDbBlockTableRecord
  2
SW_DOWELSYMBOL_0
340
0
102
{BLKREFS
331
1D1
102
}
  0
ENDTAB
  0
ENDSEC
  0
SECTION
  2
BLOCKS
  0
BLOCK
  5
20
330
1F
100
AcDbEntity
  8
0
100
AcDbBlockBegin
  2
*Model_Space
 70
     0
 10
0.0
 20
0.0
 30
0.0
  3
*Model_Space
  1
*Model_Space
  0
ENDBLK
  5
21
330
1F
100
AcDbEntity
  8
0
100
AcDbBlockEnd
  0
BLOCK
  5
1C
330
1B
100
AcDbEntity
 67
     1
  8
0
100
AcDbBlockBegin
  2
*Paper_Space
 70
     0
 10
0.0
 20
0.0
 30
0.0
  3
*Paper_Space
  1
*Paper_Space
  0
ENDBLK
  5
1D
330
1B
100
AcDbEntity
 67
     1
  8
0
100
AcDbBlockEnd
  0
BLOCK
  5
24
330
23
100
AcDbEntity
  8
0
100
AcDbBlockBegin
  2
*Paper_Space0
 70
     0
 10
0.0
 20
0.0
 30
0.0
  3
*Paper_Space0
  1
*Paper_Space0
  0
ENDBLK
  5
25
330
23
100
AcDbEntity
  8
0
100
AcDbBlockEnd
  0
BLOCK
  5
80
330
7F
100
AcDbEntity
  8
0
100
AcDbBlockBegin
  2
블럭10
 70
     2
 10
0.0
 20
0.0
 30
0.0
  3
블럭10
  1
블럭10
  0
ELLIPSE
  5
82
330
7F
100
AcDbEntity
  8
중심선
100
AcDbEllipse
 10
20.54032771741204
 20
12.0471743016438
 30
0.0
 11
6.600054785286829
 21
-1.261213355974178E-13
 31
0.0
210
0.0
220
0.0
230
1.0
 40
0.636358354079598
 41
0.9219305317359503
 42
6.513795318482858
  0
ELLIPSE
  5
83
330
7F
100
AcDbEntity
  8
중심선
100
AcDbEllipse
 10
20.54032771746488
 20
12.04717430159265
 30
0.0
 11
3.960054785062283
 21
1.540847449632565E-10
 31
0.0
210
0.0
220
0.0
230
1.0
 40
0.3939339440162632
 41
1.131841032648279
 42
5.62031148352944
  0
LINE
  5
84
330
7F
100
AcDbEntity
  8
중심선
100
AcDbLine
 10
2.268634060543552
 20
16.24717430164393
 30
0.0
 11
5.714909304380834
 21
16.24717430164393
 31
0.0
  0
LINE
  5
85
330
7F
100
AcDbEntity
  8
중심선
100
AcDbLine
 10
5.245725140726316
 20
7.84717430164391
 30
0.0
 11
8.692000384563599
 21
7.84717430164391
 31
0.0
  0
LINE
  5
86
330
7F
100
AcDbEntity
  8
중심선
100
AcDbLine
 10
15.74043728645272
 20
16.24717430164393
 30
0.0
 11
8.692000384563599
 21
7.84717430164391
 31
0.0
  0
LINE
  5
87
330
7F
100
AcDbEntity
  8
중심선
100
AcDbLine
 10
0.1404042013395286
 20
13.71084872107135
 30
0.0
 11
3.58671253028996
 21
13.71088815037384
 31
0.0
  0
LINE
  5
88
330
7F
100
AcDbEntity
  8
중심선
100
AcDbLine
 10
2.750260043222114
 20
10.84717430164391
 30
0.0
 11
6.196535287059397
 21
10.84717430164391
 31
0.0
  0
LINE
  5
89
330
7F
100
AcDbEntity
  8
중심선
100
AcDbLine
 10
12.29416204261559
 20
16.24717430164393
 30
0.0
 11
5.245725140726316
 21
7.84717430164391
 31
0.0
  0
LINE
  5
8A
330
7F
100
AcDbEntity
  8
중심선
100
AcDbLine
 10
10.72767329541681
 20
16.24717430164393
 30
0.0
 11
6.196535287059397
 21
10.84717430164391
 31
0.0
  0
LINE
  5
8B
330
7F
100
AcDbEntity
  8
중심선
100
AcDbLine
 10
7.28139805157953
 20
16.24717430164393
 30
0.0
 11
2.750260043222114
 21
10.84717430164391
 31
0.0
  0
LINE
  5
8C
330
7F
100
AcDbEntity
  8
중심선
100
AcDbLine
 10
5.714909304380834
 20
16.24717430164393
 30
0.0
 11
3.58671253028996
 21
13.71088815037384
 31
0.0
  0
LINE
  5
8D
330
7F
100
AcDbEntity
  8
중심선
100
AcDbLine
 10
2.268634060543552
 20
16.24717430164393
 30
0.0
 11
0.1404042013395286
 21
13.71084872107135
 31
0.0
  0
LINE
  5
8E
330
7F
100
AcDbEntity
  8
중심선
100
AcDbLine
 10
7.28139805157953
 20
16.24717430164393
 30
0.0
 11
10.72767329541681
 21
16.24717430164393
 31
0.0
  0
LINE
  5
8F
330
7F
100
AcDbEntity
  8
중심선
100
AcDbLine
 10
12.29416204261559
 20
16.24717430164393
 30
0.0
 11
15.74043728645272
 21
16.24717430164393
 31
0.0
  0
LINE
  5
90
330
7F
100
AcDbEntity
  8
중심선
100
AcDbLine
 10
19.22036997980202
 20
11.08717430171403
 30
0.0
 11
23.66174974927406
 21
11.08717430171406
 31
0.0
  0
LINE
  5
91
330
7F
100
AcDbEntity
  8
중심선
100
AcDbLine
 10
19.22039502424796
 20
13.00717430171391
 30
0.0
 11
19.22036997980202
 21
11.08717430171403
 31
0.0
  0
LINE
  5
92
330
7F
100
AcDbEntity
  8
중심선
100
AcDbLine
 10
19.22039502424796
 20
13.00717430171391
 30
0.0
 11
26.96566020931264
 21
13.00717430171391
 31
0.0
  0
LINE
  5
93
330
7F
100
AcDbEntity
  8
중심선
100
AcDbLine
 10
22.22332737316547
 20
13.45928029700563
 30
0.0
 11
24.52862924686651
 21
15.39360700705356
 31
0.0
  0
ATTDEF
  5
95
330
7F
100
AcDbEntity
  8
FORMAT
 62
     2
100
AcDbText
 10
-9.522313950597932
 20
2.075366912832191
 30
0.0
 40
4.233333333333333
  1
EH095024 [ 3 FLUTE ]
 41
0.75
  7
SLDTEXTSTYLE0
 11
-9.522313950597932
 21
-0.0412997538344756
 31
0.0
100
AcDbAttributeDefinition
  3

  2
AUTOATTR0
 70
     0
 74
     1
  0
ENDBLK
  5
81
330
7F
100
AcDbEntity
  8
0
100
AcDbBlockEnd
  0
BLOCK
  5
177
330
176
100
AcDbEntity
  8
0
100
AcDbBlockBegin
  2
_D
 70
     0
 10
0.0
 20
0.0
 30
0.0
  3
_D
  1
_D
  0
LINE
  5
179
330
176
100
AcDbEntity
  8
치수문자_일반주서
 62
     0
370
    -2
100
AcDbLine
 10
88.2625
 20
12.7
 30
0.0
 11
131.6110590785464
 21
12.70000000000017
 31
0.0
  0
LINE
  5
17A
330
176
100
AcDbEntity
  8
치수문자_일반주서
 62
     0
370
    -2
100
AcDbLine
 10
88.2625
 20
-12.7
 30
0.0
 11
131.6110590785465
 21
-12.69999999999985
 31
0.0
  0
LINE
  5
17B
330
176
100
AcDbEntity
  8
치수문자_일반주서
 62
     0
370
    -2
100
AcDbLine
 10
131.6110590785464
 20
12.70000000000017
 30
0.0
 11
131.6110590785462
 21
67.15116666666708
 31
0.0
  0
LINE
  5
17C
330
176
100
AcDbEntity
  8
치수문자_일반주서
 62
     0
370
    -2
100
AcDbLine
 10
131.6110590785464
 20
9.398000000000167
 30
0.0
 11
131.6110590785465
 21
-9.397999999999847
 31
0.0
  0
SOLID
  5
17D
330
176
100
AcDbEntity
  8
치수문자_일반주서
 62
     0
100
AcDbTrace
 10
132.1613924118797
 20
9.398000000000168
 30
0.0
 11
131.0607257452131
 21
9.398000000000165
 31
0.0
 12
131.6110590785464
 22
12.70000000000017
 32
0.0
 13
131.6110590785464
 23
12.70000000000017
 33
0.0
  0
SOLID
  5
17E
330
176
100
AcDbEntity
  8
치수문자_일반주서
 62
     0
100
AcDbTrace
 10
131.0607257452131
 20
-9.397999999999849
 30
0.0
 11
132.1613924118798
 21
-9.397999999999845
 31
0.0
 12
131.6110590785465
 22
-12.69999999999985
 32
0.0
 13
131.6110590785465
 23
-12.69999999999985
 33
0.0
  0
MTEXT
  5
17F
330
176
100
AcDbEntity
  8
치수문자_일반주서
 62
     0
100
AcDbMText
 10
127.2360590785462
 20
57.08866666666707
 30
0.0
 40
3.5
 41
0.0
 71
     2
 72
     1
  1
\A1;%%c25.4 [1]
  7
SLDTEXTSTYLE0
 11
-3.356894814614646E-15
 21
1.0
 31
0.0
 73
     1
 44
1.0
  0
POINT
  5
180
330
176
100
AcDbEntity
  8
Defpoints
 62
     0
100
AcDbPoint
 10
88.2
 20
12.7
 30
0.0
  0
POINT
  5
181
330
176
100
AcDbEntity
  8
Defpoints
 62
     0
100
AcDbPoint
 10
88.2
 20
-12.7
 30
0.0
  0
POINT
  5
182
330
176
100
AcDbEntity
  8
Defpoints
 62
     0
100
AcDbPoint
 10
131.6110590785465
 20
-12.69999999999984
 30
0.0
  0
ENDBLK
  5
178
330
176
100
AcDbEntity
  8
0
100
AcDbBlockEnd
  0
BLOCK
  5
18A
330
189
100
AcDbEntity
  8
0
100
AcDbBlockBegin
  2
_D_1
 70
     0
 10
0.0
 20
0.0
 30
0.0
  3
_D_1
  1
_D_1
  0
LINE
  5
18C
330
189
100
AcDbEntity
  8
치수문자_일반주서
 62
     0
370
    -2
100
AcDbLine
 10
-48.83333333333326
 20
12.69999999999997
 30
0.0
 11
-77.59750000000007
 21
12.69999999999987
 31
0.0
  0
LINE
  5
18D
330
189
100
AcDbEntity
  8
치수문자_일반주서
 62
     0
370
    -2
100
AcDbLine
 10
-48.83333333333326
 20
-12.70000000000004
 30
0.0
 11
-77.59749999999998
 21
-12.70000000000015
 31
0.0
  0
LINE
  5
18E
330
189
100
AcDbEntity
  8
치수문자_일반주서
 62
     0
370
    -2
100
AcDbLine
 10
-77.59750000000005
 20
9.397999999999868
 30
0.0
 11
-77.5975
 21
-9.398000000000147
 31
0.0
  0
SOLID
  5
18F
330
189
100
AcDbEntity
  8
치수문자_일반주서
 62
     0
100
AcDbTrace
 10
-77.04716666666673
 20
9.39799999999987
 30
0.0
 11
-78.14783333333338
 21
9.397999999999866
 31
0.0
 12
-77.59750000000007
 22
12.69999999999987
 32
0.0
 13
-77.59750000000007
 23
12.69999999999987
 33
0.0
  0
SOLID
  5
190
330
189
100
AcDbEntity
  8
치수문자_일반주서
 62
     0
100
AcDbTrace
 10
-78.14783333333332
 20
-9.398000000000149
 30
0.0
 11
-77.04716666666667
 21
-9.398000000000145
 31
0.0
 12
-77.59749999999998
 22
-12.70000000000015
 32
0.0
 13
-77.59749999999998
 23
-12.70000000000015
 33
0.0
  0
MTEXT
  5
191
330
189
100
AcDbEntity
  8
치수문자_일반주서
 62
     0
100
AcDbMText
 10
-81.97250000000003
 20
-0.0000000000001531
 30
0.0
 40
3.5
 41
0.0
 71
     2
 72
     1
  1
\A1;%%c25.4 [1]
  7
SLDTEXTSTYLE0
 11
-3.356894814614645E-15
 21
1.0
 31
0.0
 73
     1
 44
1.0
  0
POINT
  5
192
330
189
100
AcDbEntity
  8
Defpoints
 62
     0
100
AcDbPoint
 10
-48.77083333333326
 20
12.69999999999997
 30
0.0
  0
POINT
  5
193
330
189
100
AcDbEntity
  8
Defpoints
 62
     0
100
AcDbPoint
 10
-48.77083333333326
 20
-12.70000000000004
 30
0.0
  0
POINT
  5
194
330
189
100
AcDbEntity
  8
Defpoints
 62
     0
100
AcDbPoint
 10
-77.59749999999998
 20
-12.70000000000015
 30
0.0
  0
ENDBLK
  5
18B
330
189
100
AcDbEntity
  8
0
100
AcDbBlockEnd
  0
BLOCK
  5
19E
330
19D
100
AcDbEntity
  8
0
100
AcDbBlockBegin
  2
_D_2
 70
     0
 10
0.0
 20
0.0
 30
0.0
  3
_D_2
  1
_D_2
  0
LINE
  5
1A0
330
19D
100
AcDbEntity
  8
치수문자_일반주서
 62
     0
370
    -2
100
AcDbLine
 10
88.20000000000002
 20
8.285800350377965
 30
0.0
 11
88.20000000000002
 21
54.43054078405299
 31
0.0
  0
LINE
  5
1A1
330
19D
100
AcDbEntity
  8
치수문자_일반주서
 62
     0
370
    -2
100
AcDbLine
 10
12.0
 20
12.7625
 30
0.0
 11
12.0
 21
54.43054078405299
 31
0.0
  0
LINE
  5
1A2
330
19D
100
AcDbEntity
  8
치수문자_일반주서
 62
     0
370
    -2
100
AcDbLine
 10
84.89800000000001
 20
54.43054078405299
 30
0.0
 11
15.302
 21
54.43054078405299
 31
0.0
  0
SOLID
  5
1A3
330
19D
100
AcDbEntity
  8
치수문자_일반주서
 62
     0
100
AcDbTrace
 10
84.89800000000001
 20
53.88020745071966
 30
0.0
 11
84.89800000000001
 21
54.98087411738633
 31
0.0
 12
88.20000000000002
 22
54.43054078405299
 32
0.0
 13
88.20000000000002
 23
54.43054078405299
 33
0.0
  0
SOLID
  5
1A4
330
19D
100
AcDbEntity
  8
치수문자_일반주서
 62
     0
100
AcDbTrace
 10
15.302
 20
54.98087411738633
 30
0.0
 11
15.302
 21
53.88020745071966
 31
0.0
 12
12.0
 22
54.43054078405299
 32
0.0
 13
12.0
 23
54.43054078405299
 33
0.0
  0
MTEXT
  5
1A5
330
19D
100
AcDbEntity
  8
치수문자_일반주서
 62
     0
100
AcDbMText
 10
58.56666666666672
 20
58.80554078405299
 30
0.0
 40
3.5
 41
0.0
 71
     2
 72
     1
  1
\A1;76.2 [3]
  7
SLDTEXTSTYLE0
 73
     1
 44
1.0
  0
POINT
  5
1A6
330
19D
100
AcDbEntity
  8
Defpoints
 62
     0
100
AcDbPoint
 10
88.20000000000002
 20
8.223300350377965
 30
0.0
  0
POINT
  5
1A7
330
19D
100
AcDbEntity
  8
Defpoints
 62
     0
100
AcDbPoint
 10
12.0
 20
12.7
 30
0.0
  0
POINT
  5
1A8
330
19D
100
AcDbEntity
  8
Defpoints
 62
     0
100
AcDbPoint
 10
12.0
 20
54.43054078405299
 30
0.0
  0
ENDBLK
  5
19F
330
19D
100
AcDbEntity
  8
0
100
AcDbBlockEnd
  0
BLOCK
  5
1B3
330
1B2
100
AcDbEntity
  8
0
100
AcDbBlockBegin
  2
_D_3
 70
     0
 10
0.0
 20
0.0
 30
0.0
  3
_D_3
  1
_D_3
  0
LINE
  5
1B5
330
1B2
100
AcDbEntity
  8
치수문자_일반주서
 62
     0
370
    -2
100
AcDbLine
 10
88.20000000000002
 20
9.735206871930261
 30
0.0
 11
88.20000000000002
 21
101.2073873082609
 31
0.0
  0
LINE
  5
1B6
330
1B2
100
AcDbEntity
  8
치수문자_일반주서
 62
     0
370
    -2
100
AcDbLine
 10
-51.49999999999997
 20
10.09583333333331
 30
0.0
 11
-51.49999999999997
 21
101.2073873082609
 31
0.0
  0
LINE
  5
1B7
330
1B2
100
AcDbEntity
  8
치수문자_일반주서
 62
     0
370
    -2
100
AcDbLine
 10
84.89800000000001
 20
101.2073873082609
 30
0.0
 11
-48.19799999999997
 21
101.2073873082609
 31
0.0
  0
SOLID
  5
1B8
330
1B2
100
AcDbEntity
  8
치수문자_일반주서
 62
     0
100
AcDbTrace
 10
84.89800000000001
 20
100.6570539749276
 30
0.0
 11
84.89800000000001
 21
101.7577206415942
 31
0.0
 12
88.20000000000002
 22
101.2073873082609
 32
0.0
 13
88.20000000000002
 23
101.2073873082609
 33
0.0
  0
SOLID
  5
1B9
330
1B2
100
AcDbEntity
  8
치수문자_일반주서
 62
     0
100
AcDbTrace
 10
-48.19799999999997
 20
101.7577206415942
 30
0.0
 11
-48.19799999999997
 21
100.6570539749276
 31
0.0
 12
-51.49999999999997
 22
101.2073873082609
 32
0.0
 13
-51.49999999999997
 23
101.2073873082609
 33
0.0
  0
MTEXT
  5
1BA
330
1B2
100
AcDbEntity
  8
치수문자_일반주서
 62
     0
100
AcDbMText
 10
18.35000000000002
 20
105.5823873082609
 30
0.0
 40
3.5
 41
0.0
 71
     2
 72
     1
  1
\A1;139.70 [5 1/2]
  7
SLDTEXTSTYLE0
 73
     1
 44
1.0
  0
POINT
  5
1BB
330
1B2
100
AcDbEntity
  8
Defpoints
 62
     0
100
AcDbPoint
 10
88.20000000000002
 20
9.672706871930261
 30
0.0
  0
POINT
  5
1BC
330
1B2
100
AcDbEntity
  8
Defpoints
 62
     0
100
AcDbPoint
 10
-51.49999999999997
 20
10.03333333333331
 30
0.0
  0
POINT
  5
1BD
330
1B2
100
AcDbEntity
  8
Defpoints
 62
     0
100
AcDbPoint
 10
-51.49999999999997
 20
101.2073873082609
 30
0.0
  0
ENDBLK
  5
1B4
330
1B2
100
AcDbEntity
  8
0
100
AcDbBlockEnd
  0
BLOCK
  5
1CC
330
1CB
100
AcDbEntity
  8
0
100
AcDbBlockBegin
  2
SW_DOWELSYMBOL_0
 70
     0
 10
0.0
 20
0.0
 30
0.0
  3
SW_DOWELSYMBOL_0
  1
SW_DOWELSYMBOL_0
  0
CIRCLE
  5
1CE
330
1CB
100
AcDbEntity
  8
해칭선
 62
     0
100
AcDbCircle
 10
0.0
 20
0.0
 30
0.0
 40
3.000000000000004
  0
HATCH
  5
1CF
330
1CB
100
AcDbEntity
  8
0
  6
Continuous
 62
     0
370
     0
100
AcDbHatch
 10
0.0
 20
0.0
 30
0.0
210
0.0
220
0.0
230
1.0
  2
SOLID
 70
     1
 71
     0
 91
        1
 92
        0
 93
        3
 72
     2
 10
0.0000000000000104
 20
-0.0000000000000035
 40
3.000000000000004
 50
0.0
 51
90.0
 73
     1
 72
     1
 10
0.0000000000000104
 20
3.000000000000001
 11
0.0000000000000104
 21
-0.0000000000000036
 72
     1
 10
0.0000000000000104
 20
-0.0000000000000035
 11
3.000000000000015
 21
-0.0000000000000035
 97
        0
 75
     0
 76
     1
 98
        1
 10
0.0
 20
0.0
  0
HATCH
  5
1D0
330
1CB
100
AcDbEntity
  8
0
  6
Continuous
 62
     0
370
     0
100
AcDbHatch
 10
0.0
 20
0.0
 30
0.0
210
0.0
220
0.0
230
1.0
  2
SOLID
 70
     1
 71
     0
 91
        1
 92
        0
 93
        3
 72
     2
 10
0.0000000000000104
 20
-0.0000000000000035
 40
3.000000000000004
 50
180.0
 51
270.0000000000007
 73
     1
 72
     1
 10
0.0000000000000104
 20
-3.000000000000008
 11
0.0000000000000104
 21
-0.0000000000000036
 72
     1
 10
0.0000000000000104
 20
-0.0000000000000035
 11
-2.999999999999994
 21
-0.0000000000000035
 97
        0
 75
     0
 76
     1
 98
        1
 10
0.0
 20
0.0
  0
ENDBLK
  5
1CD
330
1CB
100
AcDbEntity
  8
0
100
AcDbBlockEnd
  0
ENDSEC
  0
SECTION
  2
ENTITIES
  0
LINE
  5
96
330
1F
100
AcDbEntity
  8
외형선
  6
Continuous
370
    15
100
AcDbLine
 10
12.0
 20
12.69999999999998
 30
0.0
 11
-14.06992499999996
 21
12.69999999999998
 31
0.0
  0
LINE
  5
97
330
1F
100
AcDbEntity
  8
외형선
  6
Continuous
370
    15
100
AcDbLine
 10
-48.83333333333324
 20
-12.70000000000003
 30
0.0
 11
12.0
 21
-12.70000000000002
 31
0.0
  0
LINE
  5
99
330
1F
100
AcDbEntity
  8
외형선
  6
Continuous
370
    15
100
AcDbLine
 10
-51.49999999999997
 20
-10.03333333333335
 30
0.0
 11
-48.83333333333326
 21
-12.70000000000002
 31
0.0
  0
LINE
  5
9A
330
1F
100
AcDbEntity
  8
외형선
  6
Continuous
 62
     1
370
    15
100
AcDbLine
 10
63.78550885361448
 20
-12.70000000000002
 30
0.0
 11
66.96627670752842
 21
-12.70000000000002
 31
0.0
  0
SPLINE
  5
9B
330
1F
100
AcDbEntity
  8
외형선
  6
Continuous
 62
     1
370
    15
100
AcDbSpline
210
0.0
220
0.0
230
1.0
 70
     8
 71
     3
 72
     9
 73
     5
 74
     0
 42
0.000000001
 43
0.00000001
 40
0.0
 40
0.0
 40
0.0
 40
0.0
 40
0.3657976737887576
 40
1.0
 40
1.0
 40
1.0
 40
1.0
 10
55.95258566437741
 20
12.30594613899063
 30
0.0
 10
55.8949616477331
 20
12.31636330862194
 30
0.0
 10
55.73743189625201
 20
12.34484126345257
 30
0.0
 10
55.6244286050368
 20
12.40298245893797
 30
0.0
 10
55.55276165487856
 20
12.4398557403635
 30
0.0
  0
SPLINE
  5
9C
330
1F
100
AcDbEntity
  8
외형선
  6
Continuous
 62
     1
370
    15
100
AcDbSpline
210
0.0
220
0.0
230
1.0
 70
     8
 71
     3
 72
     9
 73
     5
 74
     0
 42
0.000000001
 43
0.00000001
 40
0.0
 40
0.0
 40
0.0
 40
0.0
 40
0.4977347529258042
 40
1.0
 40
1.0
 40
1.0
 40
1.0
 10
55.48132856616174
 20
12.51740211697573
 30
0.0
 10
55.41022703292264
 20
12.56449318076974
 30
0.0
 10
55.26737678422864
 20
12.65910394185724
 30
0.0
 10
55.10258842238257
 20
12.67927225918095
 30
0.0
 10
55.01982095510498
 20
12.68940210406461
 30
0.0
  0
LINE
  5
9D
330
1F
100
AcDbEntity
  8
외형선
  6
Continuous
 62
     1
370
    15
100
AcDbLine
 10
54.95875782973715
 20
12.69999999999999
 30
0.0
 11
49.43606676304762
 21
12.69999999999999
 31
0.0
  0
SPLINE
  5
9E
330
1F
100
AcDbEntity
  8
외형선
  6
Continuous
 62
     1
370
    15
100
AcDbSpline
210
0.0
220
0.0
230
1.0
 70
     8
 71
     3
 72
     9
 73
     5
 74
     0
 42
0.000000001
 43
0.00000001
 40
0.0
 40
0.0
 40
0.0
 40
0.0
 40
0.5028599567068203
 40
1.0
 40
1.0
 40
1.0
 40
1.0
 10
66.96761574868376
 20
-12.69999999999999
 30
0.0
 10
67.05950868572087
 20
-12.69192210816583
 30
0.0
 10
67.24224929930821
 20
-12.67585820861206
 30
0.0
 10
67.40347593697051
 20
-12.56878149684525
 30
0.0
 10
67.48362815459792
 20
-12.5155493757218
 30
0.0
  0
SPLINE
  5
9F
330
1F
100
AcDbEntity
  8
외형선
  6
Continuous
 62
     1
370
    15
100
AcDbSpline
210
0.0
220
0.0
230
1.0
 70
     8
 71
     3
 72
    11
 73
     7
 74
     0
 42
0.000000001
 43
0.00000001
 40
0.0
 40
0.0
 40
0.0
 40
0.0
 40
0.2712560198716472
 40
0.5303123910207417
 40
0.77302544566836
 40
1.0
 40
1.0
 40
1.0
 40
1.0
 10
67.47369699088505
 20
-12.52324845834488
 30
0.0
 10
67.60342570543779
 20
-12.44310582898891
 30
0.0
 10
67.85704862901775
 20
-12.28642495821391
 30
0.0
 10
68.30729684444272
 20
-12.2551185540294
 30
0.0
 10
68.67970831726778
 20
-12.35345106280472
 30
0.0
 10
68.83668740216318
 20
-12.45865185598993
 30
0.0
 10
68.91254688227797
 20
-12.50948969520915
 30
0.0
  0
SPLINE
  5
A0
330
1F
100
AcDbEntity
  8
외형선
  6
Continuous
 62
     1
370
    15
100
AcDbSpline
210
0.0
220
0.0
230
1.0
 70
     8
 71
     3
 72
     9
 73
     5
 74
     0
 42
0.000000001
 43
0.00000001
 40
0.0
 40
0.0
 40
0.0
 40
0.0
 40
0.4984202449305597
 40
1.0
 40
1.0
 40
1.0
 40
1.0
 10
68.92178196553611
 20
-12.51703179291403
 30
0.0
 10
69.00192707246133
 20
-12.56986191899487
 30
0.0
 10
69.16272533003693
 20
-12.67585706389155
 30
0.0
 10
69.34546282687917
 20
-12.69193542124292
 30
0.0
 10
69.43712025578728
 20
-12.69999999978515
 30
0.0
  0
LINE
  5
A1
330
1F
100
AcDbEntity
  8
외형선
  6
Continuous
 62
     1
370
    15
100
AcDbLine
 10
69.43692464605493
 20
-12.70000000000002
 30
0.0
 11
74.96752153216704
 21
-12.70000000000002
 31
0.0
  0
SPLINE
  5
A2
330
1F
100
AcDbEntity
  8
외형선
  6
Continuous
 62
     1
370
    15
100
AcDbSpline
210
0.0
220
0.0
230
1.0
 70
     8
 71
     3
 72
     9
 73
     5
 74
     0
 42
0.000000001
 43
0.00000001
 40
0.0
 40
0.0
 40
0.0
 40
0.0
 40
0.5015798423785639
 40
1.0
 40
1.0
 40
1.0
 40
1.0
 10
49.43717674315485
 20
12.69999999070909
 30
0.0
 10
49.34552800199227
 20
12.69194462464733
 30
0.0
 10
49.16280785772179
 20
12.67588463702191
 30
0.0
 10
49.00202713883627
 20
12.56992786499872
 30
0.0
 10
48.92189078758688
 20
12.51711687398587
 30
0.0
  0
SPLINE
  5
A3
330
1F
100
AcDbEntity
  8
외형선
  6
Continuous
 62
     1
370
    15
100
AcDbSpline
210
0.0
220
0.0
230
1.0
 70
     8
 71
     3
 72
    11
 73
     7
 74
     0
 42
0.000000001
 43
0.00000001
 40
0.0
 40
0.0
 40
0.0
 40
0.0
 40
0.2487633767465057
 40
0.500587820548188
 40
0.7521407062429882
 40
1.0
 40
1.0
 40
1.0
 40
1.0
 10
48.92318320094011
 20
12.51812057406623
 30
0.0
 10
48.81982735499672
 20
12.45132961759691
 30
0.0
 10
48.61184385542219
 20
12.31692583288957
 30
0.0
 10
48.19823029749688
 20
12.25054032415778
 30
0.0
 10
47.78436123275824
 20
12.31986101678656
 30
0.0
 10
47.57508048151944
 20
12.45699217150678
 30
0.0
 10
47.47121401343304
 20
12.52505064616862
 30
0.0
  0
SPLINE
  5
A4
330
1F
100
AcDbEntity
  8
외형선
  6
Continuous
 62
     1
370
    15
100
AcDbSpline
210
0.0
220
0.0
230
1.0
 70
     8
 71
     3
 72
     9
 73
     5
 74
     0
 42
0.000000001
 43
0.00000001
 40
0.0
 40
0.0
 40
0.0
 40
0.0
 40
0.4971802109527635
 40
0.9999999999999999
 40
0.9999999999999999
 40
0.9999999999999999
 40
0.9999999999999999
 10
47.47959716683091
 20
12.51876921135437
 30
0.0
 10
47.40012116336472
 20
12.57106175338788
 30
0.0
 10
47.24026765006037
 20
12.67623999838138
 30
0.0
 10
47.05888559750005
 20
12.69205026671938
 30
0.0
 10
46.96768311209472
 20
12.69999998250988
 30
0.0
  0
LINE
  5
A5
330
1F
100
AcDbEntity
  8
외형선
  6
Continuous
 62
     1
370
    15
100
AcDbLine
 10
46.96731430615037
 20
12.69999999999999
 30
0.0
 11
41.4368744478068
 21
12.69999999999999
 31
0.0
  0
SPLINE
  5
A6
330
1F
100
AcDbEntity
  8
외형선
  6
Continuous
 62
     1
370
    15
100
AcDbSpline
210
0.0
220
0.0
230
1.0
 70
     8
 71
     3
 72
     9
 73
     5
 74
     0
 42
0.000000001
 43
0.00000001
 40
0.0
 40
0.0
 40
0.0
 40
0.0
 40
0.5028193248694652
 40
1.0
 40
1.0
 40
1.0
 40
1.0
 10
74.96762661809343
 20
-12.69999999955104
 30
0.0
 10
75.05882452780942
 20
-12.6920585477926
 30
0.0
 10
75.240197647746
 20
-12.67626470025003
 30
0.0
 10
75.40004206228993
 20
-12.57111364809973
 30
0.0
 10
75.47951361622872
 20
-12.51883457700097
 30
0.0
  0
LINE
  5
A8
330
1F
100
AcDbEntity
  8
외형선
  6
Continuous
 62
     1
370
    15
100
AcDbLine
 10
30.71389236701287
 20
-12.70000000000002
 30
0.0
 11
31.99085003370568
 21
-12.70000000000002
 31
0.0
  0
SPLINE
  5
A9
330
1F
100
AcDbEntity
  8
외형선
  6
Continuous
 62
     1
370
    15
100
AcDbSpline
210
0.0
220
0.0
230
1.0
 70
     8
 71
     3
 72
    11
 73
     7
 74
     0
 42
0.000000001
 43
0.00000001
 40
0.0
 40
0.0
 40
0.0
 40
0.0
 40
0.2457331235047843
 40
0.4998353072463358
 40
0.7540070196458815
 40
1.0
 40
1.0
 40
1.0
 40
1.0
 10
75.47270128293309
 20
-12.52397704543226
 30
0.0
 10
75.58400736289445
 20
-12.45230238331266
 30
0.0
 10
75.81041033162074
 20
-12.3065119979899
 30
0.0
 10
76.24034666341981
 20
-12.24436139078207
 30
0.0
 10
76.67021636309495
 20
-12.32218512593596
 30
0.0
 10
76.89611251680135
 20
-12.47924882215646
 30
0.0
 10
77.00721365789714
 20
-12.55649651136459
 30
0.0
  0
LINE
  5
AA
330
1F
100
AcDbEntity
  8
외형선
  6
Continuous
 62
     1
370
    15
100
AcDbLine
 10
88.20000000000002
 20
9.766666666666648
 30
0.0
 11
86.44066719545101
 21
11.52599947121568
 31
0.0
  0
LINE
  5
AB
330
1F
100
AcDbEntity
  8
외형선
  6
Continuous
 62
     1
370
    15
100
AcDbLine
 10
77.39987163624875
 20
-12.69388172263276
 30
0.0
 11
77.45550718224018
 21
-12.69869178416239
 31
0.0
  0
LINE
  5
AC
330
1F
100
AcDbEntity
  8
외형선
  6
Continuous
 62
     1
370
    15
100
AcDbLine
 10
77.43690003818553
 20
-12.70000000000002
 30
0.0
 11
78.06159439458706
 21
-12.70000000000002
 31
0.0
  0
SPLINE
  5
AD
330
1F
100
AcDbEntity
  8
외형선
  6
Continuous
 62
     1
370
    15
100
AcDbSpline
210
0.0
220
0.0
230
1.0
 70
     8
 71
     3
 72
     9
 73
     5
 74
     0
 42
0.000000001
 43
0.00000001
 40
0.0
 40
0.0
 40
0.0
 40
0.0
 40
0.5018272713142384
 40
1.0
 40
1.0
 40
1.0
 40
1.0
 10
41.40663465373099
 20
12.69641797186638
 30
0.0
 10
41.32121858624544
 20
12.68681397945753
 30
0.0
 10
41.151008491322
 20
12.66767593543753
 30
0.0
 10
41.00281783205416
 20
12.57075974294251
 30
0.0
 10
40.92899328696096
 20
12.52247873887344
 30
0.0
  0
LINE
  5
AE
330
1F
100
AcDbEntity
  8
외형선
  6
Continuous
 62
     1
370
    15
100
AcDbLine
 10
40.30145482440771
 20
12.29705745258904
 30
0.0
 11
40.23449770938355
 21
12.29688296873102
 31
0.0
  0
LINE
  5
B5
330
1F
100
AcDbEntity
  8
외형선
  6
Continuous
370
    15
100
AcDbLine
 10
-48.83333333333326
 20
10.79499999999997
 30
0.0
 11
-48.83333333333326
 21
-12.7
 31
0.0
  0
LINE
  5
B8
330
1F
100
AcDbEntity
  8
외형선
  6
Continuous
370
    15
100
AcDbLine
 10
-51.49999999999997
 20
10.79499999999997
 30
0.0
 11
-51.49999999999997
 21
-10.03333333333335
 31
0.0
  0
SPLINE
  5
BA
330
1F
100
AcDbEntity
  8
외형선
  6
Continuous
 62
     1
370
    15
100
AcDbSpline
210
0.0
220
0.0
230
1.0
 70
     8
 71
     3
 72
    14
 73
    10
 74
     0
 42
0.000000001
 43
0.00000001
 40
0.0
 40
0.0
 40
0.0
 40
0.0
 40
0.0000586126099046
 40
0.0000586126099046
 40
0.0000586126099046
 40
0.0001171912303297
 40
0.0001171912303297
 40
0.0001171912303297
 40
0.0002029549218776
 40
0.0002029549218776
 40
0.0002029549218776
 40
0.0002029549218776
 10
42.12226304034517
 20
-6.959050754866858
 30
0.0
 10
42.08529964101851
 20
-6.953369017538531
 30
0.0
 10
42.04594364691864
 20
-6.944851802641549
 30
0.0
 10
42.00515430567658
 20
-6.933824659608739
 30
0.0
 10
41.96437978025371
 20
-6.922801521939885
 30
0.0
 10
41.92189606763355
 20
-6.909197974798365
 30
0.0
 10
41.87855420949664
 20
-6.893360426823714
 30
0.0
 10
41.81531943834018
 20
-6.870253809689459
 30
0.0
 10
41.74952563623197
 20
-6.842106095140688
 30
0.0
 10
41.68368840878917
 20
-6.810084483292096
 30
0.0
  0
SPLINE
  5
BB
330
1F
100
AcDbEntity
  8
외형선
  6
Continuous
 62
     1
370
    15
100
AcDbSpline
210
0.0
220
0.0
230
1.0
 70
     8
 71
     3
 72
    12
 73
     8
 74
     0
 42
0.000000001
 43
0.00000001
 40
0.0
 40
0.0
 40
0.0
 40
0.0
 40
0.2499999999999999
 40
0.2499999999999999
 40
0.5000000000000001
 40
0.5000000000000001
 40
1.0
 40
1.0
 40
1.0
 40
1.0
 10
41.68368838540987
 20
-6.810084284130742
 30
0.0
 10
41.61183567519896
 20
-6.19794575302576
 30
0.0
 10
41.54332977068366
 20
-5.562543742258747
 30
0.0
 10
41.39882351879848
 20
-4.221572133782973
 30
0.0
 10
41.32447249767723
 20
-3.520439965303552
 30
0.0
 10
41.09997145047565
 20
-1.369649283748357
 30
0.0
 10
40.94860097552437
 20
0.1261644115982157
 30
0.0
 10
40.8083888943808
 20
1.55408566129732
 30
0.0
  0
SPLINE
  5
BC
330
1F
100
AcDbEntity
  8
외형선
  6
Continuous
 62
     1
370
    15
100
AcDbSpline
210
0.0
220
0.0
230
1.0
 70
     8
 71
     3
 72
     8
 73
     4
 74
     0
 42
0.000000001
 43
0.00000001
 40
0.0
 40
0.0
 40
0.0
 40
0.0
 40
1.0
 40
1.0
 40
1.0
 40
1.0
 10
40.80838849226197
 20
1.55408975647964
 30
0.0
 10
40.9589395530228
 20
1.467981173153015
 30
0.0
 10
41.11202623046299
 20
1.380172060746959
 30
0.0
 10
41.24256938519467
 20
1.309527393861966
 30
0.0
  0
SPLINE
  5
BD
330
1F
100
AcDbEntity
  8
외형선
  6
Continuous
 62
     1
370
    15
100
AcDbSpline
210
0.0
220
0.0
230
1.0
 70
     8
 71
     3
 72
    12
 73
     8
 74
     0
 42
0.000000001
 43
0.00000001
 40
0.0
 40
0.0
 40
0.0
 40
0.0
 40
0.2499999999999998
 40
0.2499999999999998
 40
0.4999999999999999
 40
0.4999999999999999
 40
1.0
 40
1.0
 40
1.0
 40
1.0
 10
42.12226305240456
 20
-6.959050854558395
 30
0.0
 10
42.04955897988501
 20
-6.358026457409688
 30
0.0
 10
41.98069552177155
 20
-5.733689090879846
 30
0.0
 10
41.83659693319245
 20
-4.41675876500916
 30
0.0
 10
41.76224925932651
 20
-3.726135774805995
 30
0.0
 10
41.53714792916803
 20
-1.601397369621426
 30
0.0
 10
41.38454004351627
 20
-0.1153752787264446
 30
0.0
 10
41.24256975435181
 20
1.309523688789889
 30
0.0
  0
SPLINE
  5
BE
330
1F
100
AcDbEntity
  8
외형선
  6
Continuous
 62
     1
370
    15
100
AcDbSpline
210
0.0
220
0.0
230
1.0
 70
     8
 71
     3
 72
     8
 73
     4
 74
     0
 42
0.000000001
 43
0.00000001
 40
0.0
 40
0.0
 40
0.0
 40
0.0
 40
1.0
 40
1.0
 40
1.0
 40
1.0
 10
83.93694520710818
 20
-4.858239791470718
 30
0.0
 10
83.78619402861085
 20
-4.777724804941877
 30
0.0
 10
83.63293209987893
 20
-4.683326352344354
 30
0.0
 10
83.50216828387595
 20
-4.590540839428906
 30
0.0
  0
SPLINE
  5
BF
330
1F
100
AcDbEntity
  8
외형선
  6
Continuous
 62
     1
370
    15
100
AcDbSpline
210
0.0
220
0.0
230
1.0
 70
     8
 71
     3
 72
    12
 73
     8
 74
     0
 42
0.000000001
 43
0.00000001
 40
0.0
 40
0.0
 40
0.0
 40
0.0
 40
0.5
 40
0.5
 40
0.75
 40
0.75
 40
1.0
 40
1.0
 40
1.0
 40
1.0
 10
83.50216768013573
 20
-4.590535277119647
 30
0.0
 10
83.35608984337408
 20
-3.244705809843598
 30
0.0
 10
83.20225990388637
 20
-1.781871727019734
 30
0.0
 10
82.98015712774898
 20
0.3959818166977322
 30
0.0
 10
82.90796946475056
 20
1.117468363305662
 30
0.0
 10
82.7679006894873
 20
2.528387185710092
 30
0.0
 10
82.6950147418403
 20
3.234428624157879
 30
0.0
 10
82.62078495353762
 20
3.924854971665938
 30
0.0
  0
SPLINE
  5
C0
330
1F
100
AcDbEntity
  8
외형선
  6
Continuous
 62
     1
370
    15
100
AcDbSpline
210
0.0
220
0.0
230
1.0
 70
     8
 71
     3
 72
    14
 73
    10
 74
     0
 42
0.000000001
 43
0.00000001
 40
0.0
 40
0.0
 40
0.0
 40
0.0
 40
0.0000587615093834
 40
0.0000587615093834
 40
0.0000587615093834
 40
0.0001174882549143
 40
0.0001174882549143
 40
0.0001174882549143
 40
0.0002033640277833
 40
0.0002033640277833
 40
0.0002033640277833
 40
0.0002033640277833
 10
82.6207848983875
 20
3.924855484639311
 30
0.0
 10
82.65783589052181
 20
3.909624154924794
 30
0.0
 10
82.69728006883959
 20
3.892347806337981
 30
0.0
 10
82.73815303818293
 20
3.873482791850666
 30
0.0
 10
82.77901086995618
 20
3.854624764144178
 30
0.0
 10
82.82157369635094
 20
3.834052644700202
 30
0.0
 10
82.86498861613539
 20
3.812217528962949
 30
0.0
 10
82.92825491462871
 20
3.780398353510661
 30
0.0
 10
82.99405927588312
 20
3.745519514877759
 30
0.0
 10
83.05990004831091
 20
3.70904693339285
 30
0.0
  0
SPLINE
  5
C1
330
1F
100
AcDbEntity
  8
외형선
  6
Continuous
 62
     1
370
    15
100
AcDbSpline
210
0.0
220
0.0
230
1.0
 70
     8
 71
     3
 72
    12
 73
     8
 74
     0
 42
0.000000001
 43
0.00000001
 40
0.0
 40
0.0
 40
0.0
 40
0.0
 40
0.5000000000000002
 40
0.5000000000000002
 40
0.7500000000000001
 40
0.7500000000000001
 40
1.0
 40
1.0
 40
1.0
 40
1.0
 10
83.93694537064808
 20
-4.858241309911968
 30
0.0
 10
83.79235755087784
 20
-3.51576713944556
 30
0.0
 10
83.63940523915024
 20
-2.049944112274691
 30
0.0
 10
83.41736666957327
 20
0.1442373458721112
 30
0.0
 10
83.34461292999488
 20
0.8743502623802482
 30
0.0
 10
83.20462661869013
 20
2.300664604704025
 30
0.0
 10
83.1334494823061
 20
3.010251158927106
 30
0.0
 10
83.0598999628851
 20
3.70904774502533
 30
0.0
  0
SPLINE
  5
C2
330
1F
100
AcDbEntity
  8
외형선
  6
Continuous
 62
     1
370
    15
100
AcDbSpline
210
0.0
220
0.0
230
1.0
 70
     8
 71
     3
 72
     8
 73
     4
 74
     0
 42
0.000000001
 43
0.00000001
 40
0.0
 40
0.0
 40
0.0
 40
0.0
 40
1.0
 40
1.0
 40
1.0
 40
1.0
 10
35.81818536128566
 20
-3.745783008804165
 30
0.0
 10
35.66734481076331
 20
-3.662717694076152
 30
0.0
 10
35.51396873224365
 20
-3.569918613361403
 30
0.0
 10
35.3831262426889
 20
-3.484162957373262
 30
0.0
  0
SPLINE
  5
C3
330
1F
100
AcDbEntity
  8
외형선
  6
Continuous
 62
     1
370
    15
100
AcDbSpline
210
0.0
220
0.0
230
1.0
 70
     8
 71
     3
 72
    12
 73
     8
 74
     0
 42
0.000000001
 43
0.00000001
 40
0.0
 40
0.0
 40
0.0
 40
0.0
 40
0.5
 40
0.5
 40
0.75
 40
0.75
 40
1.0
 40
1.0
 40
1.0
 40
1.0
 10
35.38312624268616
 20
-3.484162957351571
 30
0.0
 10
35.23396405445349
 20
-2.085951414181279
 30
0.0
 10
35.0807062391865
 20
-0.6038664626659288
 30
0.0
 10
34.86471504574797
 20
1.549061755199585
 30
0.0
 10
34.79593111132579
 20
2.252144311473151
 30
0.0
 10
34.65071264540184
 20
3.654161730933552
 30
0.0
 10
34.57603108579149
 20
4.347077994467221
 30
0.0
 10
34.500914369628
 20
5.015779234406973
 30
0.0
  0
SPLINE
  5
C4
330
1F
100
AcDbEntity
  8
외형선
  6
Continuous
 62
     1
370
    15
100
AcDbSpline
210
0.0
220
0.0
230
1.0
 70
     8
 71
     3
 72
    14
 73
    10
 74
     0
 42
0.000000001
 43
0.00000001
 40
0.0
 40
0.0
 40
0.0
 40
0.0
 40
0.000058820410227
 40
0.000058820410227
 40
0.000058820410227
 40
0.0001176062885219
 40
0.0001176062885219
 40
0.0001176062885219
 40
0.0002033863455414
 40
0.0002033863455414
 40
0.0002033863455414
 40
0.0002033863455414
 10
34.50091413150173
 20
5.015781354256802
 30
0.0
 10
34.53800803056613
 20
5.003707007196454
 30
0.0
 10
34.57749987006518
 20
4.98929415567996
 30
0.0
 10
34.61842620549024
 20
4.972960752023813
 30
0.0
 10
34.65933748868464
 20
4.956633355603744
 30
0.0
 10
34.70195995627864
 20
4.938277766501106
 30
0.0
 10
34.74544080287248
 20
4.918314385938515
 30
0.0
 10
34.80866992642629
 20
4.889283970134178
 30
0.0
 10
34.87444176284069
 20
4.856506398042344
 30
0.0
 10
34.94026274961968
 20
4.821349182823035
 30
0.0
  0
SPLINE
  5
C5
330
1F
100
AcDbEntity
  8
외형선
  6
Continuous
 62
     1
370
    15
100
AcDbSpline
210
0.0
220
0.0
230
1.0
 70
     8
 71
     3
 72
    12
 73
     8
 74
     0
 42
0.000000001
 43
0.00000001
 40
0.0
 40
0.0
 40
0.0
 40
0.0
 40
0.5
 40
0.5
 40
0.75
 40
0.75
 40
1.0
 40
1.0
 40
1.0
 40
1.0
 10
35.81818510183544
 20
-3.74578055741356
 30
0.0
 10
35.67017426607181
 20
-2.347314205360399
 30
0.0
 10
35.51737809342109
 20
-0.858056697047607
 30
0.0
 10
35.30088318297054
 20
1.316686562429737
 30
0.0
 10
35.2324558781876
 20
2.026309991024025
 30
0.0
 10
35.08891318499261
 20
3.441132880144261
 30
0.0
 10
35.01490952607864
 20
4.142388623754354
 30
0.0
 10
34.94026444489378
 20
4.821333763216282
 30
0.0
  0
SPLINE
  5
C6
330
1F
100
AcDbEntity
  8
외형선
  6
Continuous
 62
     1
370
    15
100
AcDbSpline
210
0.0
220
0.0
230
1.0
 70
     8
 71
     3
 72
    14
 73
    10
 74
     0
 42
0.000000001
 43
0.00000001
 40
0.0
 40
0.0
 40
0.0
 40
0.0
 40
0.0000587067160619
 40
0.0000587067160619
 40
0.0000587067160619
 40
0.0001173789978033
 40
0.0001173789978033
 40
0.0001173789978033
 40
0.0002032019645589
 40
0.0002032019645589
 40
0.0002032019645589
 40
0.0002032019645589
 10
81.75415418711037
 20
-3.646777734351299
 30
0.0
 10
81.71711996905107
 20
-3.630829835947976
 30
0.0
 10
81.67769023469558
 20
-3.612924219449281
 30
0.0
 10
81.63682714493724
 20
-3.59352590382795
 30
0.0
 10
81.59597906448917
 20
-3.57413471334912
 30
0.0
 10
81.55342139483143
 20
-3.553121531599069
 30
0.0
 10
81.5100063566513
 20
-3.530943784514152
 30
0.0
 10
81.44672089615037
 20
-3.498615609854483
 30
0.0
 10
81.38088308680209
 20
-3.463429387293501
 30
0.0
 10
81.31500096033638
 20
-3.426869875698382
 30
0.0
  0
SPLINE
  5
C7
330
1F
100
AcDbEntity
  8
외형선
  6
Continuous
 62
     1
370
    15
100
AcDbSpline
210
0.0
220
0.0
230
1.0
 70
     8
 71
     3
 72
    12
 73
     8
 74
     0
 42
0.000000001
 43
0.00000001
 40
0.0
 40
0.0
 40
0.0
 40
0.0
 40
0.5000000000000001
 40
0.5000000000000001
 40
0.7500000000000002
 40
0.7500000000000002
 40
1.0
 40
1.0
 40
1.0
 40
1.0
 10
81.31500068349185
 20
-3.426867247456065
 30
0.0
 10
81.16635750918324
 20
-2.015713491318166
 30
0.0
 10
81.01397173683328
 20
-0.5234793286420926
 30
0.0
 10
80.79949043936864
 20
1.641020964049823
 30
0.0
 10
80.73093112932837
 20
2.348399068869806
 30
0.0
 10
80.58614044838036
 20
3.758582058531893
 30
0.0
 10
80.51174045963602
 20
4.455048226307007
 30
0.0
 10
80.43695536160648
 20
5.126834498965672
 30
0.0
  0
SPLINE
  5
C8
330
1F
100
AcDbEntity
  8
외형선
  6
Continuous
 62
     1
370
    15
100
AcDbSpline
210
0.0
220
0.0
230
1.0
 70
     8
 71
     3
 72
     8
 73
     4
 74
     0
 42
0.000000001
 43
0.00000001
 40
0.0
 40
0.0
 40
0.0
 40
0.0
 40
1.0
 40
1.0
 40
1.0
 40
1.0
 10
80.43695615306162
 20
5.126827389455469
 30
0.0
 10
80.5878249838412
 20
5.047292606191064
 30
0.0
 10
80.74125239337171
 20
4.952957344991626
 30
0.0
 10
80.87213907931582
 20
4.858895589405659
 30
0.0
  0
SPLINE
  5
C9
330
1F
100
AcDbEntity
  8
외형선
  6
Continuous
 62
     1
370
    15
100
AcDbSpline
210
0.0
220
0.0
230
1.0
 70
     8
 71
     3
 72
    12
 73
     8
 74
     0
 42
0.000000001
 43
0.00000001
 40
0.0
 40
0.0
 40
0.0
 40
0.0
 40
0.5
 40
0.5
 40
0.75
 40
0.75
 40
1.0
 40
1.0
 40
1.0
 40
1.0
 10
81.75415418709015
 20
-3.646777734149102
 30
0.0
 10
81.60534532115226
 20
-2.255307460610278
 30
0.0
 10
81.45189917802283
 20
-0.7749921560253071
 30
0.0
 10
81.2348906724478
 20
1.382904213775609
 30
0.0
 10
81.16619057168903
 20
2.087028817042626
 30
0.0
 10
81.02164063986157
 20
3.491263986829823
 30
0.0
 10
80.94717462101993
 20
4.186570172935592
 30
0.0
 10
80.87213907932066
 20
4.858895589386069
 30
0.0
  0
SPLINE
  5
CA
330
1F
100
AcDbEntity
  8
외형선
  6
Continuous
 62
     1
370
    15
100
AcDbSpline
210
0.0
220
0.0
230
1.0
 70
     8
 71
     3
 72
    10
 73
     6
 74
     0
 42
0.000000001
 43
0.00000001
 40
0.0
 40
0.0
 40
0.0
 40
0.0
 40
0.5
 40
0.5
 40
1.0
 40
1.0
 40
1.0
 40
1.0
 10
43.86994757324398
 20
-7.767593689993451
 30
0.0
 10
43.60312867419272
 20
-7.545916004545189
 30
0.0
 10
43.28830148698837
 20
-7.366318191748541
 30
0.0
 10
42.67241040080027
 20
-7.092160090073628
 30
0.0
 10
42.3740892677552
 20
-6.997759599361482
 30
0.0
 10
42.1222630403452
 20
-6.959050754866888
 30
0.0
  0
SPLINE
  5
CB
330
1F
100
AcDbEntity
  8
외형선
  6
Continuous
 62
     1
370
    15
100
AcDbSpline
210
0.0
220
0.0
230
1.0
 70
     8
 71
     3
 72
    10
 73
     6
 74
     0
 42
0.000000001
 43
0.00000001
 40
0.0
 40
0.0
 40
0.0
 40
0.0
 40
0.5
 40
0.5
 40
1.0
 40
1.0
 40
1.0
 40
1.0
 10
41.24256938519579
 20
1.309527393861371
 30
0.0
 10
41.50912209174733
 20
1.165279867437437
 30
0.0
 10
41.82394521699584
 20
1.000734274965537
 30
0.0
 10
42.43944975622155
 20
0.6577251070481959
 30
0.0
 10
42.73718379005536
 20
0.4807777166826112
 30
0.0
 10
42.98858469478181
 20
0.3162635719059728
 30
0.0
  0
SPLINE
  5
CC
330
1F
100
AcDbEntity
  8
외형선
  6
Continuous
 62
     1
370
    15
100
AcDbSpline
210
0.0
220
0.0
230
1.0
 70
     8
 71
     3
 72
    12
 73
     8
 74
     0
 42
0.000000001
 43
0.00000001
 40
0.0
 40
0.0
 40
0.0
 40
0.0
 40
0.25
 40
0.25
 40
0.5
 40
0.5
 40
1.0
 40
1.0
 40
1.0
 40
1.0
 10
43.86994757324334
 20
-7.767593689988354
 30
0.0
 10
43.79571968934773
 20
-7.196496099860441
 30
0.0
 10
43.72283574340806
 20
-6.589608342511795
 30
0.0
 10
43.58277091385547
 20
-5.334583591664325
 30
0.0
 10
43.51058384025693
 20
-4.671746741758848
 30
0.0
 10
43.28848556740267
 20
-2.60567600717707
 30
0.0
 10
43.13465923048746
 20
-1.129144976191513
 30
0.0
 10
42.98858469482899
 20
0.3162635714390197
 30
0.0
  0
SPLINE
  5
CD
330
1F
100
AcDbEntity
  8
외형선
  6
Continuous
 62
     1
370
    15
100
AcDbSpline
210
0.0
220
0.0
230
1.0
 70
     8
 71
     3
 72
    10
 73
     6
 74
     0
 42
0.000000001
 43
0.00000001
 40
0.0
 40
0.0
 40
0.0
 40
0.0
 40
0.5
 40
0.5
 40
1.0
 40
1.0
 40
1.0
 40
1.0
 10
83.50216828387492
 20
-4.590540839428202
 30
0.0
 10
83.23529642017485
 20
-4.401177730327954
 30
0.0
 10
82.9204374896102
 20
-4.22169990767441
 30
0.0
 10
82.30442656649662
 20
-3.898384816819536
 30
0.0
 10
82.0061154655725
 20
-3.75527882013108
 30
0.0
 10
81.75415418711172
 20
-3.646777734350987
 30
0.0
  0
SPLINE
  5
CE
330
1F
100
AcDbEntity
  8
외형선
  6
Continuous
 62
     1
370
    15
100
AcDbSpline
210
0.0
220
0.0
230
1.0
 70
     8
 71
     3
 72
    10
 73
     6
 74
     0
 42
0.000000001
 43
0.00000001
 40
0.0
 40
0.0
 40
0.0
 40
0.0
 40
0.5
 40
0.5
 40
1.0
 40
1.0
 40
1.0
 40
1.0
 10
80.87213907931874
 20
4.85889558940357
 30
0.0
 10
81.13921766604517
 20
4.666959484017714
 30
0.0
 10
81.45448379942381
 20
4.48773656199064
 30
0.0
 10
82.0707844641827
 20
4.16800893947996
 30
0.0
 10
82.36898577112767
 20
4.028367841749231
 30
0.0
 10
82.62078489838665
 20
3.924855484638936
 30
0.0
  0
SPLINE
  5
CF
330
1F
100
AcDbEntity
  8
외형선
  6
Continuous
 62
     1
370
    15
100
AcDbSpline
210
0.0
220
0.0
230
1.0
 70
     8
 71
     3
 72
    14
 73
    10
 74
     0
 42
0.000000001
 43
0.00000001
 40
0.0
 40
0.0
 40
0.0
 40
0.0
 40
0.0000588590612327
 40
0.0000588590612327
 40
0.0000588590612327
 40
0.0001176834646763
 40
0.0001176834646763
 40
0.0001176834646763
 40
0.0002034748806765
 40
0.0002034748806765
 40
0.0002034748806765
 40
0.0002034748806765
 10
33.63395252290296
 20
-2.513284486266325
 30
0.0
 10
33.59684282891432
 20
-2.494200468175075
 30
0.0
 10
33.55733444961864
 20
-2.473472961351012
 30
0.0
 10
33.51639143869784
 20
-2.451607152430764
 30
0.0
 10
33.47546353134952
 20
-2.429749409644927
 30
0.0
 10
33.43282421103275
 20
-2.406606620518071
 30
0.0
 10
33.38932637885733
 20
-2.382666366821344
 30
0.0
 10
33.32610507105629
 20
-2.347870744324758
 30
0.0
 10
33.26034356795957
 20
-2.310983114198677
 30
0.0
 10
33.19453117328381
 20
-2.273559045533486
 30
0.0
  0
SPLINE
  5
D0
330
1F
100
AcDbEntity
  8
외형선
  6
Continuous
 62
     1
370
    15
100
AcDbSpline
210
0.0
220
0.0
230
1.0
 70
     8
 71
     3
 72
    12
 73
     8
 74
     0
 42
0.000000001
 43
0.00000001
 40
0.0
 40
0.0
 40
0.0
 40
0.0
 40
0.25
 40
0.25
 40
0.5
 40
0.5
 40
1.0
 40
1.0
 40
1.0
 40
1.0
 10
33.19453091256888
 20
-2.273556528885847
 30
0.0
 10
33.11966303136648
 20
-1.550861624670435
 30
0.0
 10
33.04474956249624
 20
-0.8165790996791363
 30
0.0
 10
32.89814503812885
 20
0.6422207996371522
 30
0.0
 10
32.82774384398387
 20
1.362341571834398
 30
0.0
 10
32.6170000751536
 20
3.491149544399706
 30
0.0
 10
32.4656176947715
 20
4.905133560916807
 30
0.0
 10
32.31621874241616
 20
6.187160135279035
 30
0.0
  0
SPLINE
  5
D1
330
1F
100
AcDbEntity
  8
외형선
  6
Continuous
 62
     1
370
    15
100
AcDbSpline
210
0.0
220
0.0
230
1.0
 70
     8
 71
     3
 72
     8
 73
     4
 74
     0
 42
0.000000001
 43
0.00000001
 40
0.0
 40
0.0
 40
0.0
 40
0.0
 40
1.0
 40
1.0
 40
1.0
 40
1.0
 10
32.31621889378744
 20
6.187158836327431
 30
0.0
 10
32.46711103097098
 20
6.111177506371434
 30
0.0
 10
32.62053749039013
 20
6.016402100522502
 30
0.0
 10
32.75143676325277
 20
5.916425138881199
 30
0.0
  0
SPLINE
  5
D2
330
1F
100
AcDbEntity
  8
외형선
  6
Continuous
 62
     1
370
    15
100
AcDbSpline
210
0.0
220
0.0
230
1.0
 70
     8
 71
     3
 72
    10
 73
     6
 74
     0
 42
0.000000001
 43
0.00000001
 40
0.0
 40
0.0
 40
0.0
 40
0.0
 40
0.5
 40
0.5
 40
1.0
 40
1.0
 40
1.0
 40
1.0
 10
33.63395252289651
 20
-2.513284486205168
 30
0.0
 10
33.48360017089117
 20
-1.083644753381077
 30
0.0
 10
33.33303224217813
 20
0.3973854940253613
 30
0.0
 10
33.05325031472616
 20
3.217285902701322
 30
0.0
 10
32.90171863715982
 20
4.629557371219867
 30
0.0
 10
32.75143676325666
 20
5.916425138856867
 30
0.0
  0
SPLINE
  5
D3
330
1F
100
AcDbEntity
  8
외형선
  6
Continuous
 62
     1
370
    15
100
AcDbSpline
210
0.0
220
0.0
230
1.0
 70
     8
 71
     3
 72
     8
 73
     4
 74
     0
 42
0.000000001
 43
0.00000001
 40
0.0
 40
0.0
 40
0.0
 40
0.0
 40
1.0
 40
1.0
 40
1.0
 40
1.0
 10
32.31621752836987
 20
6.187159523879765
 30
0.0
 10
31.18713012109493
 20
6.755708430820109
 30
0.0
 10
30.05342187889829
 20
7.300490628882216
 30
0.0
 10
28.93333333333337
 20
7.812405904099778
 30
0.0
  0
SPLINE
  5
D4
330
1F
100
AcDbEntity
  8
외형선
  6
Continuous
 62
     1
370
    15
100
AcDbSpline
210
0.0
220
0.0
230
1.0
 70
     8
 71
     3
 72
     8
 73
     4
 74
     0
 42
0.000000001
 43
0.00000001
 40
0.0
 40
0.0
 40
0.0
 40
0.0
 40
1.0
 40
1.0
 40
1.0
 40
1.0
 10
33.1945311734508
 20
-2.273559045628434
 30
0.0
 10
31.77730773688427
 20
-1.467658159248803
 30
0.0
 10
30.34432397325643
 20
-0.6445110767206259
 30
0.0
 10
28.93333333333337
 20
0.1733457083802047
 30
0.0
  0
SPLINE
  5
D5
330
1F
100
AcDbEntity
  8
외형선
  6
Continuous
 62
     1
370
    15
100
AcDbSpline
210
0.0
220
0.0
230
1.0
 70
     8
 71
     3
 72
    12
 73
     8
 74
     0
 42
0.000000001
 43
0.00000001
 40
0.0
 40
0.0
 40
0.0
 40
0.0
 40
0.2499999999999999
 40
0.2499999999999999
 40
0.4999999999999998
 40
0.4999999999999998
 40
1.0
 40
1.0
 40
1.0
 40
1.0
 10
44.30508643187142
 20
-8.03728338628379
 30
0.0
 10
44.23094537275608
 20
-7.470148042780579
 30
0.0
 10
44.15796116306336
 20
-6.865642543471168
 30
0.0
 10
44.01734224297507
 20
-5.611815996001341
 30
0.0
 10
43.94693535051483
 20
-4.954658929383269
 30
0.0
 10
43.72692144592709
 20
-2.892454584962251
 30
0.0
 10
43.57376493919552
 20
-1.411264178306381
 30
0.0
 10
43.42747546976576
 20
0.0471165472761322
 30
0.0
  0
SPLINE
  5
D6
330
1F
100
AcDbEntity
  8
외형선
  6
Continuous
 62
     1
370
    15
100
AcDbSpline
210
0.0
220
0.0
230
1.0
 70
     8
 71
     3
 72
    10
 73
     6
 74
     0
 42
0.000000001
 43
0.00000001
 40
0.0
 40
0.0
 40
0.0
 40
0.0
 40
0.5
 40
0.5
 40
1.0
 40
1.0
 40
1.0
 40
1.0
 10
49.30247632207224
 20
-3.307860748124694
 30
0.0
 10
48.32485705181939
 20
-2.762074969245227
 30
0.0
 10
47.34867664674334
 20
-2.206725887743112
 30
0.0
 10
45.38279143518385
 20
-1.083627480703165
 30
0.0
 10
44.40361333600451
 20
-0.5178910577484851
 30
0.0
 10
43.42747641418291
 20
0.0471170365329466
 30
0.0
  0
SPLINE
  5
D7
330
1F
100
AcDbEntity
  8
외형선
  6
Continuous
 62
     1
370
    15
100
AcDbSpline
210
0.0
220
0.0
230
1.0
 70
     8
 71
     3
 72
    12
 73
     8
 74
     0
 42
0.000000001
 43
0.00000001
 40
0.0
 40
0.0
 40
0.0
 40
0.0
 40
0.5000000000000001
 40
0.5000000000000001
 40
0.7499999999999999
 40
0.7499999999999999
 40
1.0
 40
1.0
 40
1.0
 40
1.0
 10
50.18024123707416
 20
-10.34759318210417
 30
0.0
 10
50.03295665138853
 20
-9.500327034680963
 30
0.0
 10
49.87991821747509
 20
-8.431029202662698
 30
0.0
 10
49.66170491726373
 20
-6.636840307256954
 30
0.0
 10
49.59274024734056
 20
-6.014063441688624
 30
0.0
 10
49.4504886645331
 20
-4.704348502879192
 30
0.0
 10
49.37692266335594
 20
-4.015866509705226
 30
0.0
 10
49.30247589699579
 20
-3.307857710799707
 30
0.0
  0
SPLINE
  5
D8
330
1F
100
AcDbEntity
  8
외형선
  6
Continuous
 62
     1
370
    15
100
AcDbSpline
210
0.0
220
0.0
230
1.0
 70
     8
 71
     3
 72
    10
 73
     6
 74
     0
 42
0.000000001
 43
0.00000001
 40
0.0
 40
0.0
 40
0.0
 40
0.0
 40
0.4999999999999996
 40
0.4999999999999996
 40
1.0
 40
1.0
 40
1.0
 40
1.0
 10
50.1802456460324
 20
-10.34759600992153
 30
0.0
 10
49.19942983072254
 20
-10.01963170126273
 30
0.0
 10
48.22858877617843
 20
-9.662079171748555
 30
0.0
 10
46.26699387940437
 20
-8.889323335767248
 30
0.0
 10
45.28171759177704
 20
-8.474638882759125
 30
0.0
 10
44.30508640241403
 20
-8.037283160765814
 30
0.0
  0
SPLINE
  5
D9
330
1F
100
AcDbEntity
  8
외형선
  6
Continuous
 62
     1
370
    15
100
AcDbSpline
210
0.0
220
0.0
230
1.0
 70
     8
 71
     3
 72
    12
 73
     8
 74
     0
 42
0.000000001
 43
0.00000001
 40
0.0
 40
0.0
 40
0.0
 40
0.0
 40
0.2499999999999999
 40
0.2499999999999999
 40
0.4999999999999999
 40
0.4999999999999999
 40
1.0
 40
1.0
 40
1.0
 40
1.0
 10
75.4401500303726
 20
-0.079127263791684
 30
0.0
 10
75.36680962810267
 20
0.6507336954330162
 30
0.0
 10
75.29640747264203
 20
1.371152431710253
 30
0.0
 10
75.1557696754037
 20
2.791303654591568
 30
0.0
 10
75.08277685949858
 20
3.500185915420746
 30
0.0
 10
74.86033204874904
 20
5.574644842682635
 30
0.0
 10
74.70753987126942
 20
6.884347002275835
 30
0.0
 10
74.5635003072719
 20
8.010318199302551
 30
0.0
  0
SPLINE
  5
DA
330
1F
100
AcDbEntity
  8
외형선
  6
Continuous
 62
     1
370
    15
100
AcDbSpline
210
0.0
220
0.0
230
1.0
 70
     8
 71
     3
 72
    10
 73
     6
 74
     0
 42
0.000000001
 43
0.00000001
 40
0.0
 40
0.0
 40
0.0
 40
0.0
 40
0.5
 40
0.5
 40
1.0
 40
1.0
 40
1.0
 40
1.0
 10
80.43694800076877
 20
5.126831687164893
 30
0.0
 10
79.455456877166
 20
5.644252489842239
 30
0.0
 10
78.48271631776896
 20
6.144905238154228
 30
0.0
 10
76.52755264157909
 20
7.108537262514242
 30
0.0
 10
75.54263638302149
 20
7.571804354460586
 30
0.0
 10
74.56349662302046
 20
8.010320773039918
 30
0.0
  0
SPLINE
  5
DB
330
1F
100
AcDbEntity
  8
외형선
  6
Continuous
 62
     1
370
    15
100
AcDbSpline
210
0.0
220
0.0
230
1.0
 70
     8
 71
     3
 72
    10
 73
     6
 74
     0
 42
0.000000001
 43
0.00000001
 40
0.0
 40
0.0
 40
0.0
 40
0.0
 40
0.5
 40
0.5
 40
1.0
 40
1.0
 40
1.0
 40
1.0
 10
81.315001421415
 20
-3.426870131561539
 30
0.0
 10
80.33365535331818
 20
-2.882298565836265
 30
0.0
 10
79.35001459107698
 20
-2.327075801788494
 30
0.0
 10
77.40425294574597
 20
-1.210225962407773
 30
0.0
 10
76.42163952159991
 20
-0.6446926474978197
 30
0.0
 10
75.44015168439181
 20
-0.0791270975932744
 30
0.0
  0
SPLINE
  5
DC
330
1F
100
AcDbEntity
  8
외형선
  6
Continuous
 62
     1
370
    15
100
AcDbSpline
210
0.0
220
0.0
230
1.0
 70
     8
 71
     3
 72
    10
 73
     6
 74
     0
 42
0.000000001
 43
0.00000001
 40
0.0
 40
0.0
 40
0.0
 40
0.0
 40
0.5
 40
0.5
 40
1.0
 40
1.0
 40
1.0
 40
1.0
 10
40.80838988568546
 20
1.554088959502717
 30
0.0
 10
39.82791242693944
 20
2.114878933795183
 30
0.0
 10
38.85696680702496
 20
2.669243583096821
 30
0.0
 10
36.90215605088899
 20
3.761357217141095
 30
0.0
 10
35.91803613994899
 20
4.299087193063389
 30
0.0
 10
34.94028128661416
 20
4.821339281585896
 30
0.0
  0
SPLINE
  5
DD
330
1F
100
AcDbEntity
  8
외형선
  6
Continuous
 62
     1
370
    15
100
AcDbSpline
210
0.0
220
0.0
230
1.0
 70
     8
 71
     3
 72
    10
 73
     6
 74
     0
 42
0.000000001
 43
0.00000001
 40
0.0
 40
0.0
 40
0.0
 40
0.0
 40
0.5
 40
0.5
 40
1.0
 40
1.0
 40
1.0
 40
1.0
 10
41.68368840879819
 20
-6.810084483296472
 30
0.0
 10
40.70370581090589
 20
-6.333444995471578
 30
0.0
 10
39.72331697575339
 20
-5.836482304049533
 30
0.0
 10
37.78009332216
 20
-4.814110681907627
 30
0.0
 10
36.79792100441467
 20
-4.285306693018258
 30
0.0
 10
35.81818536133323
 20
-3.745783008830363
 30
0.0
  0
SPLINE
  5
DE
330
1F
100
AcDbEntity
  8
외형선
  6
Continuous
 62
     1
370
    15
100
AcDbSpline
210
0.0
220
0.0
230
1.0
 70
     8
 71
     3
 72
     8
 73
     4
 74
     0
 42
0.000000001
 43
0.00000001
 40
0.0
 40
0.0
 40
0.0
 40
0.0
 40
1.0
 40
1.0
 40
1.0
 40
1.0
 10
85.266666666667
 20
2.472948955008621
 30
0.0
 10
84.5281537372669
 20
2.890384223463592
 30
0.0
 10
83.79280950901013
 20
3.303050784472181
 30
0.0
 10
83.05990009092336
 20
3.709046909787637
 30
0.0
  0
LINE
  5
DF
330
1F
100
AcDbEntity
  8
외형선
  6
Continuous
 62
     1
370
    15
100
AcDbLine
 10
85.26666666666672
 20
-5.55782176389601
 30
0.0
 11
85.26666666666672
 21
2.472948955008785
 31
0.0
  0
SPLINE
  5
E0
330
1F
100
AcDbEntity
  8
외형선
  6
Continuous
 62
     1
370
    15
100
AcDbSpline
210
0.0
220
0.0
230
1.0
 70
     8
 71
     3
 72
     8
 73
     4
 74
     0
 42
0.000000001
 43
0.00000001
 40
0.0
 40
0.0
 40
0.0
 40
0.0
 40
1.0
 40
1.0
 40
1.0
 40
1.0
 10
85.266666666667
 20
-5.557821763896166
 30
0.0
 10
84.82259672001072
 20
-5.327724194091685
 30
0.0
 10
84.37895318350887
 20
-5.094312680719655
 30
0.0
 10
83.93694520710818
 20
-4.858239791470723
 30
0.0
  0
SPLINE
  5
E1
330
1F
100
AcDbEntity
  8
외형선
  6
Continuous
 62
     1
370
    15
100
AcDbSpline
210
0.0
220
0.0
230
1.0
 70
     8
 71
     3
 72
    10
 73
     6
 74
     0
 42
0.000000001
 43
0.00000001
 40
0.0
 40
0.0
 40
0.0
 40
0.0
 40
0.5
 40
0.5
 40
1.0
 40
1.0
 40
1.0
 40
1.0
 10
35.38312624268845
 20
-3.484162957372942
 30
0.0
 10
35.11588045425912
 20
-3.309007027714131
 30
0.0
 10
34.8004467203053
 20
-3.133355004304744
 30
0.0
 10
34.18402216424021
 20
-2.799799970478539
 30
0.0
 10
33.88593203480035
 20
-2.642867380836886
 30
0.0
 10
33.63395252290296
 20
-2.513284486266325
 30
0.0
  0
SPLINE
  5
E2
330
1F
100
AcDbEntity
  8
외형선
  6
Continuous
 62
     1
370
    15
100
AcDbSpline
210
0.0
220
0.0
230
1.0
 70
     8
 71
     3
 72
    10
 73
     6
 74
     0
 42
0.000000001
 43
0.00000001
 40
0.0
 40
0.0
 40
0.0
 40
0.0
 40
0.5
 40
0.5
 40
1.0
 40
1.0
 40
1.0
 40
1.0
 10
32.75143676325392
 20
5.916425138880333
 30
0.0
 10
33.01874712285213
 20
5.712261456504869
 30
0.0
 10
33.33419253646363
 20
5.531154140631685
 30
0.0
 10
33.95056946314072
 20
5.223586134402867
 30
0.0
 10
34.24880273718011
 20
5.097845535959037
 30
0.0
 10
34.50091413150059
 20
5.015781354256504
 30
0.0
  0
SPLINE
  5
E3
330
1F
100
AcDbEntity
  8
외형선
  6
Continuous
 62
     1
370
    15
100
AcDbSpline
210
0.0
220
0.0
230
1.0
 70
     8
 71
     3
 72
    14
 73
    10
 74
     0
 42
0.000000001
 43
0.00000001
 40
0.0
 40
0.0
 40
0.0
 40
0.0
 40
0.0000587366643157
 40
0.0000587366643157
 40
0.0000587366643157
 40
0.0001174387171814
 40
0.0001174387171814
 40
0.0001174387171814
 40
0.0002032871345618
 40
0.0002032871345618
 40
0.0002032871345618
 40
0.0002032871345618
 10
76.95911315215541
 20
-12.54102512394767
 30
0.0
 10
76.99616709060506
 20
-12.56934830023173
 30
0.0
 10
77.03561526777362
 20
-12.59394587960628
 30
0.0
 10
77.07649389211392
 20
-12.61453728190596
 30
0.0
 10
77.1173574350845
 20
-12.63512108741011
 30
0.0
 10
77.15992770620394
 20
-12.65184637787825
 30
0.0
 10
77.20335175089279
 20
-12.66452312125595
 30
0.0
 10
77.26663748919113
 20
-12.6829980714736
 30
0.0
 10
77.33246611720666
 20
-12.69305786078583
 30
0.0
 10
77.39833274922093
 20
-12.6942067509631
 30
0.0
  0
SPLINE
  5
E4
330
1F
100
AcDbEntity
  8
외형선
  6
Continuous
 62
     1
370
    15
100
AcDbSpline
210
0.0
220
0.0
230
1.0
 70
     8
 71
     3
 72
    10
 73
     6
 74
     0
 42
0.000000001
 43
0.00000001
 40
0.0
 40
0.0
 40
0.0
 40
0.0
 40
0.5000000000000001
 40
0.5000000000000001
 40
1.0
 40
1.0
 40
1.0
 40
1.0
 10
75.21018558201202
 20
-12.45013881956169
 30
0.0
 10
75.47723984520455
 20
-12.26859500770542
 30
0.0
 10
75.7924894845084
 20
-12.19873397233611
 30
0.0
 10
76.40887586897995
 20
-12.23959462601236
 30
0.0
 10
76.70719993986248
 20
-12.34846847224887
 30
0.0
 10
76.95911315215429
 20
-12.54102512394678
 30
0.0
  0
SPLINE
  5
E5
330
1F
100
AcDbEntity
  8
외형선
  6
Continuous
 62
     1
370
    15
100
AcDbSpline
210
0.0
220
0.0
230
1.0
 70
     8
 71
     3
 72
     8
 73
     4
 74
     0
 42
0.000000001
 43
0.00000001
 40
0.0
 40
0.0
 40
0.0
 40
0.0
 40
1.0
 40
1.0
 40
1.0
 40
1.0
 10
74.77495401683514
 20
-12.55873142721444
 30
0.0
 10
74.92582225300683
 20
-12.57167567722509
 30
0.0
 10
75.07926827606296
 20
-12.53913656285062
 30
0.0
 10
75.21018558201085
 20
-12.45013881956246
 30
0.0
  0
SPLINE
  5
E6
330
1F
100
AcDbEntity
  8
외형선
  6
Continuous
 62
     1
370
    15
100
AcDbSpline
210
0.0
220
0.0
230
1.0
 70
     8
 71
     3
 72
    10
 73
     6
 74
     0
 42
0.000000001
 43
0.00000001
 40
0.0
 40
0.0
 40
0.0
 40
0.0
 40
0.5
 40
0.5
 40
1.0
 40
1.0
 40
1.0
 40
1.0
 10
74.7749539396386
 20
-12.55873142059108
 30
0.0
 10
73.79496324529805
 20
-12.47464980622711
 30
0.0
 10
72.82462966890083
 20
-12.35363286989285
 30
0.0
 10
70.86365027177855
 20
-12.03821326953493
 30
0.0
 10
69.87906445272868
 20
-11.84386813420006
 30
0.0
 10
68.9034785362289
 20
-11.61565089654698
 30
0.0
  0
SPLINE
  5
E7
330
1F
100
AcDbEntity
  8
외형선
  6
Continuous
 62
     1
370
    15
100
AcDbSpline
210
0.0
220
0.0
230
1.0
 70
     8
 71
     3
 72
    14
 73
    10
 74
     0
 42
0.000000001
 43
0.00000001
 40
0.0
 40
0.0
 40
0.0
 40
0.0
 40
0.0000586199809473
 40
0.0000586199809473
 40
0.0000586199809473
 40
0.0001172057026607
 40
0.0001172057026607
 40
0.0001172057026607
 40
0.000203049518095
 40
0.000203049518095
 40
0.000203049518095
 40
0.000203049518095
 10
68.46523260219256
 20
-11.37388563050796
 30
0.0
 10
68.50214726443629
 20
-11.40894286366137
 30
0.0
 10
68.5414539943617
 20
-11.44097135284006
 30
0.0
 10
68.58219440157102
 20
-11.46950215831536
 30
0.0
 10
68.62291989825913
 20
-11.4980225218435
 30
0.0
 10
68.6653545194029
 20
-11.52324596725405
 30
0.0
 10
68.70864874889189
 20
-11.54479861482202
 30
0.0
 10
68.77186509480346
 20
-11.57626885092619
 30
0.0
 10
68.83764645528048
 20
-11.60025090325611
 30
0.0
 10
68.9034779740867
 20
-11.61565076504598
 30
0.0
  0
SPLINE
  5
E8
330
1F
100
AcDbEntity
  8
외형선
  6
Continuous
 62
     1
370
    15
100
AcDbSpline
210
0.0
220
0.0
230
1.0
 70
     8
 71
     3
 72
    10
 73
     6
 74
     0
 42
0.000000001
 43
0.00000001
 40
0.0
 40
0.0
 40
0.0
 40
0.0
 40
0.5
 40
0.5
 40
1.0
 40
1.0
 40
1.0
 40
1.0
 10
66.72035798831845
 20
-10.91593322878566
 30
0.0
 10
66.98688160962335
 20
-10.80397058909721
 30
0.0
 10
67.30156126326143
 20
-10.80190521546262
 30
0.0
 10
67.91666032319348
 20
-10.96874856490241
 30
0.0
 10
68.21414728490736
 20
-11.13543413252599
 30
0.0
 10
68.46523260219139
 20
-11.37388563050711
 30
0.0
  0
SPLINE
  5
E9
330
1F
100
AcDbEntity
  8
외형선
  6
Continuous
 62
     1
370
    15
100
AcDbSpline
210
0.0
220
0.0
230
1.0
 70
     8
 71
     3
 72
     8
 73
     4
 74
     0
 42
0.000000001
 43
0.00000001
 40
0.0
 40
0.0
 40
0.0
 40
0.0
 40
1.0
 40
1.0
 40
1.0
 40
1.0
 10
66.2858687839579
 20
-10.92331411265154
 30
0.0
 10
66.43652917205272
 20
-10.96759728120751
 30
0.0
 10
66.58972026167152
 20
-10.97081220966761
 30
0.0
 10
66.7203579883173
 20
-10.91593322878613
 30
0.0
  0
SPLINE
  5
EA
330
1F
100
AcDbEntity
  8
외형선
  6
Continuous
 62
     1
370
    15
100
AcDbSpline
210
0.0
220
0.0
230
1.0
 70
     8
 71
     3
 72
    10
 73
     6
 74
     0
 42
0.000000001
 43
0.00000001
 40
0.0
 40
0.0
 40
0.0
 40
0.0
 40
0.5
 40
0.5
 40
1.0
 40
1.0
 40
1.0
 40
1.0
 10
66.28586887419402
 20
-10.92331413917436
 30
0.0
 10
65.30450567373504
 20
-10.63486491723535
 30
0.0
 10
64.32414801290979
 20
-10.3139476430941
 30
0.0
 10
62.37718558735195
 20
-9.614648763987637
 30
0.0
 10
61.39347555639966
 20
-9.2341765043569
 30
0.0
 10
60.41259550639128
 20
-8.827729124532327
 30
0.0
  0
SPLINE
  5
EB
330
1F
100
AcDbEntity
  8
외형선
  6
Continuous
 62
     1
370
    15
100
AcDbSpline
210
0.0
220
0.0
230
1.0
 70
     8
 71
     3
 72
    14
 73
    10
 74
     0
 42
0.000000001
 43
0.00000001
 40
0.0
 40
0.0
 40
0.0
 40
0.0
 40
0.0000587493705263
 40
0.0000587493705263
 40
0.0000587493705263
 40
0.0001174642582957
 40
0.0001174642582957
 40
0.0001174642582957
 40
0.0002032727539075
 40
0.0002032727539075
 40
0.0002032727539075
 40
0.0002032727539075
 10
59.97328705486714
 20
-8.53334825520188
 30
0.0
 10
60.01035123418483
 20
-8.570018330595964
 30
0.0
 10
60.04981200514749
 20
-8.604782528605902
 30
0.0
 10
60.0907064355836
 20
-8.637056195337706
 30
0.0
 10
60.13158583321061
 20
-8.66931799825662
 30
0.0
 10
60.17417533914544
 20
-8.69931363158096
 30
0.0
 10
60.21762228262638
 20
-8.726543923697903
 30
0.0
 10
60.28089833475664
 20
-8.76620207328145
 30
0.0
 10
60.34672259320693
 20
-8.800433353569513
 30
0.0
 10
60.41259201740331
 20
-8.82772767879987
 30
0.0
  0
SPLINE
  5
EC
330
1F
100
AcDbEntity
  8
외형선
  6
Continuous
 62
     1
370
    15
100
AcDbSpline
210
0.0
220
0.0
230
1.0
 70
     8
 71
     3
 72
    10
 73
     6
 74
     0
 42
0.000000001
 43
0.00000001
 40
0.0
 40
0.0
 40
0.0
 40
0.0
 40
0.5
 40
0.5
 40
1.0
 40
1.0
 40
1.0
 40
1.0
 10
58.22434768662586
 20
-7.773296086971168
 30
0.0
 10
58.49142438556358
 20
-7.748019622257847
 30
0.0
 10
58.80642950245526
 20
-7.81521068442885
 30
0.0
 10
59.42271133294997
 20
-8.084173526299669
 30
0.0
 10
59.72116807718469
 20
-8.283910062042736
 30
0.0
 10
59.973287054866
 20
-8.53334825520125
 30
0.0
  0
SPLINE
  5
ED
330
1F
100
AcDbEntity
  8
외형선
  6
Continuous
 62
     1
370
    15
100
AcDbSpline
210
0.0
220
0.0
230
1.0
 70
     8
 71
     3
 72
     8
 73
     4
 74
     0
 42
0.000000001
 43
0.00000001
 40
0.0
 40
0.0
 40
0.0
 40
0.0
 40
1.0
 40
1.0
 40
1.0
 40
1.0
 10
57.78929926890034
 20
-7.677316876731799
 30
0.0
 10
57.94013668177453
 20
-7.746744234681402
 30
0.0
 10
58.09349291239737
 20
-7.785680342491426
 30
0.0
 10
58.22434768662464
 20
-7.773296086970838
 30
0.0
  0
SPLINE
  5
EE
330
1F
100
AcDbEntity
  8
외형선
  6
Continuous
 62
     1
370
    15
100
AcDbSpline
210
0.0
220
0.0
230
1.0
 70
     8
 71
     3
 72
    10
 73
     6
 74
     0
 42
0.000000001
 43
0.00000001
 40
0.0
 40
0.0
 40
0.0
 40
0.0
 40
0.5
 40
0.5
 40
1.0
 40
1.0
 40
1.0
 40
1.0
 10
57.7893006893401
 20
-7.677317530530726
 30
0.0
 10
56.81308216800936
 20
-7.227984248848774
 30
0.0
 10
55.82942021069822
 20
-6.754696833249644
 30
0.0
 10
53.87333185934985
 20
-5.772706698940338
 30
0.0
 10
52.90392573986021
 20
-5.264648775959197
 30
0.0
 10
51.92430433602032
 20
-4.740747620672029
 30
0.0
  0
SPLINE
  5
EF
330
1F
100
AcDbEntity
  8
외형선
  6
Continuous
 62
     1
370
    15
100
AcDbSpline
210
0.0
220
0.0
230
1.0
 70
     8
 71
     3
 72
    14
 73
    10
 74
     0
 42
0.000000001
 43
0.00000001
 40
0.0
 40
0.0
 40
0.0
 40
0.0
 40
0.0000586293850505
 40
0.0000586293850505
 40
0.0000586293850505
 40
0.0001172245991237
 40
0.0001172245991237
 40
0.0001172245991237
 40
0.0002030237146939
 40
0.0002030237146939
 40
0.0002030237146939
 40
0.0002030237146939
 10
51.48555242827395
 20
-4.437267042950191
 30
0.0
 10
51.52253494898467
 20
-4.470053935713656
 30
0.0
 10
51.56190989875718
 20
-4.502352862881509
 30
0.0
 10
51.60271667595968
 20
-4.533549598411474
 30
0.0
 10
51.6435085598079
 20
-4.564734947988722
 30
0.0
 10
51.68600816831752
 20
-4.595032580032576
 30
0.0
 10
51.72936384769886
 20
-4.62389137567888
 30
0.0
 10
51.792627218828
 20
-4.666001307419408
 30
0.0
 10
51.85844533246622
 20
-4.705526249805712
 30
0.0
 10
51.92430307965787
 20
-4.740746948769859
 30
0.0
  0
SPLINE
  5
F0
330
1F
100
AcDbEntity
  8
외형선
  6
Continuous
 62
     1
370
    15
100
AcDbSpline
210
0.0
220
0.0
230
1.0
 70
     8
 71
     3
 72
    10
 73
     6
 74
     0
 42
0.000000001
 43
0.00000001
 40
0.0
 40
0.0
 40
0.0
 40
0.0
 40
0.5
 40
0.5
 40
1.0
 40
1.0
 40
1.0
 40
1.0
 10
49.73764285306063
 20
-3.492203838145053
 30
0.0
 10
50.00448658394315
 20
-3.556465084352118
 30
0.0
 10
50.31948856412251
 20
-3.681142449132317
 30
0.0
 10
50.93552246842368
 20
-4.010918729765439
 30
0.0
 10
51.23377957015648
 20
-4.214057549891896
 30
0.0
 10
51.48555242827277
 20
-4.437267042949744
 30
0.0
  0
SPLINE
  5
F1
330
1F
100
AcDbEntity
  8
외형선
  6
Continuous
 62
     1
370
    15
100
AcDbSpline
210
0.0
220
0.0
230
1.0
 70
     8
 71
     3
 72
     8
 73
     4
 74
     0
 42
0.000000001
 43
0.00000001
 40
0.0
 40
0.0
 40
0.0
 40
0.0
 40
1.0
 40
1.0
 40
1.0
 40
1.0
 10
49.30247620977691
 20
-3.307860685432387
 30
0.0
 10
49.45329980237562
 20
-3.392062556870643
 30
0.0
 10
49.60672495453712
 20
-3.460676219781456
 30
0.0
 10
49.73764285305952
 20
-3.492203838144782
 30
0.0
  0
SPLINE
  5
F2
330
1F
100
AcDbEntity
  8
외형선
  6
Continuous
 62
     1
370
    15
100
AcDbSpline
210
0.0
220
0.0
230
1.0
 70
     8
 71
     3
 72
    14
 73
    10
 74
     0
 42
0.000000001
 43
0.00000001
 40
0.0
 40
0.0
 40
0.0
 40
0.0
 40
0.0000586748182104
 40
0.0000586748182104
 40
0.0000586748182104
 40
0.0001173148777971
 40
0.0001173148777971
 40
0.0001173148777971
 40
0.0002032462645282
 40
0.0002032462645282
 40
0.0002032462645282
 40
0.0002032462645282
 10
42.98858469478296
 20
0.316263571906028
 30
0.0
 10
43.02557558400157
 20
0.2920571176335539
 30
0.0
 10
43.06495803607656
 20
0.2668482240627947
 30
0.0
 10
43.10576903681989
 20
0.241192439807904
 30
0.0
 10
43.14656490822613
 20
0.2155461665917421
 30
0.0
 10
43.18906507872856
 20
0.1892792279378944
 30
0.0
 10
43.23241760818544
 20
0.1629146046544317
 30
0.0
 10
43.29572581539096
 20
0.1244140360685973
 30
0.0
 10
43.36158270717787
 20
0.0852576670204696
 30
0.0
 10
43.42747535944955
 20
0.0471176470342629
 30
0.0
  0
SPLINE
  5
F3
330
1F
100
AcDbEntity
  8
외형선
  6
Continuous
 62
     1
370
    15
100
AcDbSpline
210
0.0
220
0.0
230
1.0
 70
     8
 71
     3
 72
     8
 73
     4
 74
     0
 42
0.000000001
 43
0.00000001
 40
0.0
 40
0.0
 40
0.0
 40
0.0
 40
1.0
 40
1.0
 40
1.0
 40
1.0
 10
30.36489666461627
 20
11.31093199467828
 30
0.0
 10
29.88606811919488
 20
11.18533412186832
 30
0.0
 10
29.40861513521462
 20
11.05182646887488
 30
0.0
 10
28.93333333333337
 20
10.91082519986922
 30
0.0
  0
SPLINE
  5
F4
330
1F
100
AcDbEntity
  8
외형선
  6
Continuous
 62
     1
370
    15
100
AcDbSpline
210
0.0
220
0.0
230
1.0
 70
     8
 71
     3
 72
    14
 73
    10
 74
     0
 42
0.000000001
 43
0.00000001
 40
0.0
 40
0.0
 40
0.0
 40
0.0
 40
0.0000584434393544
 40
0.0000584434393544
 40
0.0000584434393544
 40
0.000116853101262
 40
0.000116853101262
 40
0.000116853101262
 40
0.0002027283260056
 40
0.0002027283260056
 40
0.0002027283260056
 40
0.0002027283260056
 10
30.80284587224363
 20
11.30376291821014
 30
0.0
 10
30.7660078625604
 20
11.31729042249869
 30
0.0
 10
30.72678382289491
 20
11.32704964801767
 30
0.0
 10
30.68612850834043
 20
11.33304965603585
 30
0.0
 10
30.64548786781688
 20
11.33904749842565
 30
0.0
 10
30.60314158543133
 20
11.34133467449667
 30
0.0
 10
30.55993944879261
 20
11.33999164122974
 30
0.0
 10
30.49664690560174
 20
11.33802405356701
 30
0.0
 10
30.43078080293019
 20
11.32821359124839
 30
0.0
 10
30.36487794376568
 20
11.31092708415021
 30
0.0
  0
SPLINE
  5
F5
330
1F
100
AcDbEntity
  8
외형선
  6
Continuous
 62
     1
370
    15
100
AcDbSpline
210
0.0
220
0.0
230
1.0
 70
     8
 71
     3
 72
    10
 73
     6
 74
     0
 42
0.000000001
 43
0.00000001
 40
0.0
 40
0.0
 40
0.0
 40
0.0
 40
0.4999999999999997
 40
0.4999999999999997
 40
1.0
 40
1.0
 40
1.0
 40
1.0
 10
32.5479142917148
 20
11.70107275946483
 30
0.0
 10
32.28152948625477
 20
11.47028439613254
 30
0.0
 10
31.96698541427235
 20
11.32875570626443
 30
0.0
 10
31.35182967392917
 20
11.19983275911295
 30
0.0
 10
31.054052911958
 20
11.21151568942794
 30
0.0
 10
30.80284587224499
 20
11.30376291820918
 30
0.0
  0
SPLINE
  5
F6
330
1F
100
AcDbEntity
  8
외형선
  6
Continuous
 62
     1
370
    15
100
AcDbSpline
210
0.0
220
0.0
230
1.0
 70
     8
 71
     3
 72
     8
 73
     4
 74
     0
 42
0.000000001
 43
0.00000001
 40
0.0
 40
0.0
 40
0.0
 40
0.0
 40
1.0
 40
1.0
 40
1.0
 40
1.0
 10
32.98255395455683
 20
11.91580971263113
 30
0.0
 10
32.83188434277088
 20
11.88570454448356
 30
0.0
 10
32.67863466422395
 20
11.81432524311707
 30
0.0
 10
32.5479142917148
 20
11.70107275946483
 30
0.0
  0
SPLINE
  5
F7
330
1F
100
AcDbEntity
  8
외형선
  6
Continuous
 62
     1
370
    15
100
AcDbSpline
210
0.0
220
0.0
230
1.0
 70
     8
 71
     3
 72
    10
 73
     6
 74
     0
 42
0.000000001
 43
0.00000001
 40
0.0
 40
0.0
 40
0.0
 40
0.0
 40
0.5
 40
0.5
 40
1.0
 40
1.0
 40
1.0
 40
1.0
 10
38.85669845694288
 20
12.65293750243505
 30
0.0
 10
37.88318730227728
 20
12.60439568393851
 30
0.0
 10
36.8991365647471
 20
12.51803737249209
 30
0.0
 10
34.93451073316218
 20
12.27127341173104
 30
0.0
 10
33.96154326666397
 20
12.11142074439451
 30
0.0
 10
32.98255385255213
 20
11.91580969224967
 30
0.0
  0
SPLINE
  5
F8
330
1F
100
AcDbEntity
  8
외형선
  6
Continuous
 62
     1
370
    15
100
AcDbSpline
210
0.0
220
0.0
230
1.0
 70
     8
 71
     3
 72
    14
 73
    10
 74
     0
 42
0.000000001
 43
0.00000001
 40
0.0
 40
0.0
 40
0.0
 40
0.0
 40
0.0000588136318674
 40
0.0000588136318674
 40
0.0000588136318674
 40
0.0001175921907481
 40
0.0001175921907481
 40
0.0001175921907481
 40
0.0002035184607126
 40
0.0002035184607126
 40
0.0002035184607126
 40
0.0002035184607126
 10
39.29609273842144
 20
12.5315940474554
 30
0.0
 10
39.25900836250115
 20
12.55701406318013
 30
0.0
 10
39.21952967917301
 20
12.57859778496132
 30
0.0
 10
39.17862283620299
 20
12.59613282525311
 30
0.0
 10
39.137731261316
 20
12.6136613207609
 30
0.0
 10
39.09513517331165
 20
12.62726811731594
 30
0.0
 10
39.0516880441855
 20
12.63682752686748
 30
0.0
 10
38.98839274190824
 20
12.65075401014327
 30
0.0
 10
38.92256366966552
 20
12.65622171460829
 30
0.0
 10
38.85669846648179
 20
12.65293750291069
 30
0.0
  0
SPLINE
  5
F9
330
1F
100
AcDbEntity
  8
외형선
  6
Continuous
 62
     1
370
    15
100
AcDbSpline
210
0.0
220
0.0
230
1.0
 70
     8
 71
     3
 72
    10
 73
     6
 74
     0
 42
0.000000001
 43
0.00000001
 40
0.0
 40
0.0
 40
0.0
 40
0.0
 40
0.5
 40
0.5
 40
1.0
 40
1.0
 40
1.0
 40
1.0
 10
41.04456870850565
 20
12.55639145589974
 30
0.0
 10
40.77753294804037
 20
12.35863410753453
 30
0.0
 10
40.46226813219005
 20
12.26997106185889
 30
0.0
 10
39.84600805573834
 20
12.27101432961731
 30
0.0
 10
39.54789096935792
 20
12.35899534972624
 30
0.0
 10
39.29609273842277
 20
12.53159404745434
 30
0.0
  0
SPLINE
  5
FA
330
1F
100
AcDbEntity
  8
외형선
  6
Continuous
 62
     1
370
    15
100
AcDbSpline
210
0.0
220
0.0
230
1.0
 70
     8
 71
     3
 72
     8
 73
     4
 74
     0
 42
0.000000001
 43
0.00000001
 40
0.0
 40
0.0
 40
0.0
 40
0.0
 40
1.0
 40
1.0
 40
1.0
 40
1.0
 10
41.47944437058597
 20
12.69304529254001
 30
0.0
 10
41.32866943608938
 20
12.69591979945218
 30
0.0
 10
41.17534924502944
 20
12.65324294903145
 30
0.0
 10
41.04456870850664
 20
12.55639145590048
 30
0.0
  0
SPLINE
  5
FB
330
1F
100
AcDbEntity
  8
외형선
  6
Continuous
 62
     1
370
    15
100
AcDbSpline
210
0.0
220
0.0
230
1.0
 70
     8
 71
     3
 72
    10
 73
     6
 74
     0
 42
0.000000001
 43
0.00000001
 40
0.0
 40
0.0
 40
0.0
 40
0.0
 40
0.5
 40
0.5
 40
1.0
 40
1.0
 40
1.0
 40
1.0
 10
47.34420997915998
 20
12.13410862924183
 30
0.0
 10
46.36587544598688
 20
12.3006971001988
 30
0.0
 10
45.38265123267487
 20
12.43145842796929
 30
0.0
 10
43.43251007455872
 20
12.61809960345645
 30
0.0
 10
42.4595690157228
 20
12.67435932913662
 30
0.0
 10
41.47944432938989
 20
12.69304529332541
 30
0.0
  0
SPLINE
  5
FC
330
1F
100
AcDbEntity
  8
외형선
  6
Continuous
 62
     1
370
    15
100
AcDbSpline
210
0.0
220
0.0
230
1.0
 70
     8
 71
     3
 72
    14
 73
    10
 74
     0
 42
0.000000001
 43
0.00000001
 40
0.0
 40
0.0
 40
0.0
 40
0.0
 40
0.0000587134246466
 40
0.0000587134246466
 40
0.0000587134246466
 40
0.0001173926408841
 40
0.0001173926408841
 40
0.0001173926408841
 40
0.0002031532424405
 40
0.0002031532424405
 40
0.0002031532424405
 40
0.0002031532424405
 10
47.78310815564685
 20
11.91600228432016
 30
0.0
 10
47.74608502429776
 20
11.94954836112141
 30
0.0
 10
47.70666672762294
 20
11.97979822675256
 30
0.0
 10
47.66581426015488
 20
12.00633335951266
 30
0.0
 10
47.62497670384646
 20
12.03285880694345
 30
0.0
 10
47.58242873097845
 20
12.05585707792914
 30
0.0
 10
47.53902210505864
 20
12.07500377718872
 30
0.0
 10
47.4758021280204
 20
12.10289016231767
 30
0.0
 10
47.4100307569559
 20
12.12290082023723
 30
0.0
 10
47.34421233727245
 20
12.13410822770799
 30
0.0
  0
SPLINE
  5
FD
330
1F
100
AcDbEntity
  8
외형선
  6
Continuous
 62
     1
370
    15
100
AcDbSpline
210
0.0
220
0.0
230
1.0
 70
     8
 71
     3
 72
    10
 73
     6
 74
     0
 42
0.000000001
 43
0.00000001
 40
0.0
 40
0.0
 40
0.0
 40
0.0
 40
0.5
 40
0.5
 40
1.0
 40
1.0
 40
1.0
 40
1.0
 10
49.53170836596544
 20
11.56279541549975
 30
0.0
 10
49.26456091010904
 20
11.42772905651396
 30
0.0
 10
48.94940144319811
 20
11.40521926295778
 30
0.0
 10
48.33343087117677
 20
11.53632085384426
 30
0.0
 10
48.03509263505315
 20
11.68768311219925
 30
0.0
 10
47.78310815564819
 20
11.91600228431916
 30
0.0
  0
SPLINE
  5
FE
330
1F
100
AcDbEntity
  8
외형선
  6
Continuous
 62
     1
370
    15
100
AcDbSpline
210
0.0
220
0.0
230
1.0
 70
     8
 71
     3
 72
     8
 73
     4
 74
     0
 42
0.000000001
 43
0.00000001
 40
0.0
 40
0.0
 40
0.0
 40
0.0
 40
1.0
 40
1.0
 40
1.0
 40
1.0
 10
49.96689817502083
 20
11.60116921328147
 30
0.0
 10
49.81601422335864
 20
11.63659371377596
 30
0.0
 10
49.66260023772195
 20
11.62897268259074
 30
0.0
 10
49.5317083659664
 20
11.56279541550025
 30
0.0
  0
SPLINE
  5
FF
330
1F
100
AcDbEntity
  8
외형선
  6
Continuous
 62
     1
370
    15
100
AcDbSpline
210
0.0
220
0.0
230
1.0
 70
     8
 71
     3
 72
    10
 73
     6
 74
     0
 42
0.000000001
 43
0.00000001
 40
0.0
 40
0.0
 40
0.0
 40
0.0
 40
0.5
 40
0.5
 40
1.0
 40
1.0
 40
1.0
 40
1.0
 10
55.84125659569253
 20
9.826798328581583
 30
0.0
 10
54.85956475326587
 20
10.18511380887675
 30
0.0
 10
53.88599576089544
 20
10.51323307994039
 30
0.0
 10
51.93145686197131
 20
11.10615695524738
 30
0.0
 10
50.94647636411213
 20
11.37118406779608
 30
0.0
 10
49.96689803906645
 20
11.60116924520084
 30
0.0
  0
SPLINE
  5
100
330
1F
100
AcDbEntity
  8
외형선
  6
Continuous
 62
     1
370
    15
100
AcDbSpline
210
0.0
220
0.0
230
1.0
 70
     8
 71
     3
 72
    14
 73
    10
 74
     0
 42
0.000000001
 43
0.00000001
 40
0.0
 40
0.0
 40
0.0
 40
0.0
 40
0.0000585787738706
 40
0.0000585787738706
 40
0.0000585787738706
 40
0.0001171232780005
 40
0.0001171232780005
 40
0.0001171232780005
 40
0.0002029834017089
 40
0.0002029834017089
 40
0.0002029834017089
 40
0.0002029834017089
 10
56.27993740974568
 20
9.5443567967647
 30
0.0
 10
56.24299170276429
 20
9.581026336168916
 30
0.0
 10
56.20365409272603
 20
9.61542015862253
 30
0.0
 10
56.16288453266891
 20
9.64698106462678
 30
0.0
 10
56.12212990331301
 20
9.6785304123396
 30
0.0
 10
56.0796677286776
 20
9.707467004690285
 30
0.0
 10
56.03634899537424
 20
9.733323989474165
 30
0.0
 10
55.97304080411008
 20
9.77111269688509
 30
0.0
 10
55.90716946134176
 20
9.80274026822515
 30
0.0
 10
55.84125774105624
 20
9.826797910526203
 30
0.0
  0
SPLINE
  5
101
330
1F
100
AcDbEntity
  8
외형선
  6
Continuous
 62
     1
370
    15
100
AcDbSpline
210
0.0
220
0.0
230
1.0
 70
     8
 71
     3
 72
    10
 73
     6
 74
     0
 42
0.000000001
 43
0.00000001
 40
0.0
 40
0.0
 40
0.0
 40
0.0
 40
0.5
 40
0.5
 40
1.0
 40
1.0
 40
1.0
 40
1.0
 10
58.02548822461289
 20
8.867901338360765
 30
0.0
 10
57.75913710479776
 20
8.815310209935058
 30
0.0
 10
57.44455638164182
 20
8.861506091123195
 30
0.0
 10
56.82925835274917
 20
9.102397411744333
 30
0.0
 10
56.53140546203542
 20
9.294768457393435
 30
0.0
 10
56.27993740974701
 20
9.544356796763887
 30
0.0
  0
SPLINE
  5
102
330
1F
100
AcDbEntity
  8
외형선
  6
Continuous
 62
     1
370
    15
100
AcDbSpline
210
0.0
220
0.0
230
1.0
 70
     8
 71
     3
 72
     8
 73
     4
 74
     0
 42
0.000000001
 43
0.00000001
 40
0.0
 40
0.0
 40
0.0
 40
0.0
 40
1.0
 40
1.0
 40
1.0
 40
1.0
 10
58.45964994816725
 20
8.802316726181298
 30
0.0
 10
58.30916072899757
 20
8.865172575457095
 30
0.0
 10
58.15608056472013
 20
8.893686844855527
 30
0.0
 10
58.02548822461389
 20
8.867901338360861
 30
0.0
  0
SPLINE
  5
103
330
1F
100
AcDbEntity
  8
외형선
  6
Continuous
 62
     1
370
    15
100
AcDbSpline
210
0.0
220
0.0
230
1.0
 70
     8
 71
     3
 72
    10
 73
     6
 74
     0
 42
0.000000001
 43
0.00000001
 40
0.0
 40
0.0
 40
0.0
 40
0.0
 40
0.5
 40
0.5
 40
1.0
 40
1.0
 40
1.0
 40
1.0
 10
64.32917482254942
 20
6.075700665437325
 30
0.0
 10
63.35140459302613
 20
6.571791599029389
 30
0.0
 10
62.3783079684708
 20
7.04909080493537
 30
0.0
 10
60.4147894022569
 20
7.961776172764272
 30
0.0
 10
59.43325113320957
 20
8.395666141875287
 30
0.0
 10
58.45964980246563
 20
8.80231678703747
 30
0.0
  0
SPLINE
  5
104
330
1F
100
AcDbEntity
  8
외형선
  6
Continuous
 62
     1
370
    15
100
AcDbSpline
210
0.0
220
0.0
230
1.0
 70
     8
 71
     3
 72
    14
 73
    10
 74
     0
 42
0.000000001
 43
0.00000001
 40
0.0
 40
0.0
 40
0.0
 40
0.0
 40
0.0000587638821223
 40
0.0000587638821223
 40
0.0000587638821223
 40
0.0001174930229376
 40
0.0001174930229376
 40
0.0001174930229376
 40
0.0002033589875324
 40
0.0002033589875324
 40
0.0002033589875324
 40
0.0002033589875324
 10
64.76853007044798
 20
5.76957393196172
 30
0.0
 10
64.7314578380728
 20
5.804145929346797
 30
0.0
 10
64.69199079702736
 20
5.837785708966045
 30
0.0
 10
64.65109358304416
 20
5.869878226337463
 30
0.0
 10
64.61021150582734
 20
5.901958865713045
 30
0.0
 10
64.56762288036563
 20
5.932713588121555
 30
0.0
 10
64.52418098075368
 20
5.961599148447509
 30
0.0
 10
64.46088510375856
 20
6.003686094222425
 30
0.0
 10
64.39504889317672
 20
6.042278161619138
 30
0.0
 10
64.3291748691876
 20
6.075700641774519
 30
0.0
  0
SPLINE
  5
105
330
1F
100
AcDbEntity
  8
외형선
  6
Continuous
 62
     1
370
    15
100
AcDbSpline
210
0.0
220
0.0
230
1.0
 70
     8
 71
     3
 72
    10
 73
     6
 74
     0
 42
0.000000001
 43
0.00000001
 40
0.0
 40
0.0
 40
0.0
 40
0.0
 40
0.5
 40
0.5
 40
1.0
 40
1.0
 40
1.0
 40
1.0
 10
66.51757834457213
 20
4.86697609917417
 30
0.0
 10
66.25050384113692
 20
4.904366080807144
 30
0.0
 10
65.93521987596813
 20
5.01302651628297
 30
0.0
 10
65.31878930014102
 20
5.329228574208106
 30
0.0
 10
65.0204690862536
 20
5.534626251781795
 30
0.0
 10
64.76853007044934
 20
5.769573931961227
 30
0.0
  0
SPLINE
  5
106
330
1F
100
AcDbEntity
  8
외형선
  6
Continuous
 62
     1
370
    15
100
AcDbSpline
210
0.0
220
0.0
230
1.0
 70
     8
 71
     3
 72
     8
 73
     4
 74
     0
 42
0.000000001
 43
0.00000001
 40
0.0
 40
0.0
 40
0.0
 40
0.0
 40
1.0
 40
1.0
 40
1.0
 40
1.0
 10
66.9527515822116
 20
4.707494353802575
 30
0.0
 10
66.8018987733188
 20
4.788292965824704
 30
0.0
 10
66.64847344302738
 20
4.848651005373783
 30
0.0
 10
66.51757834457315
 20
4.866976099174037
 30
0.0
  0
SPLINE
  5
107
330
1F
100
AcDbEntity
  8
외형선
  6
Continuous
 62
     1
370
    15
100
AcDbSpline
210
0.0
220
0.0
230
1.0
 70
     8
 71
     3
 72
    10
 73
     6
 74
     0
 42
0.000000001
 43
0.00000001
 40
0.0
 40
0.0
 40
0.0
 40
0.0
 40
0.5
 40
0.5
 40
1.0
 40
1.0
 40
1.0
 40
1.0
 10
72.82041536727098
 20
1.431763860328463
 30
0.0
 10
71.84481835096645
 20
1.992339997592877
 30
0.0
 10
70.8607803885781
 20
2.550268514164831
 30
0.0
 10
68.90197286507212
 20
3.645945941805554
 30
0.0
 10
67.93238910967989
 20
4.182788495769103
 30
0.0
 10
66.95275159642709
 20
4.707494346188563
 30
0.0
  0
SPLINE
  5
108
330
1F
100
AcDbEntity
  8
외형선
  6
Continuous
 62
     1
370
    15
100
AcDbSpline
210
0.0
220
0.0
230
1.0
 70
     8
 71
     3
 72
    14
 73
    10
 74
     0
 42
0.000000001
 43
0.00000001
 40
0.0
 40
0.0
 40
0.0
 40
0.0
 40
0.0000586726820656
 40
0.0000586726820656
 40
0.0000586726820656
 40
0.0001173113611444
 40
0.0001173113611444
 40
0.0001173113611444
 40
0.0002030496472765
 40
0.0002030496472765
 40
0.0002030496472765
 40
0.0002030496472765
 10
73.25872779663648
 20
1.147542400565481
 30
0.0
 10
73.2217685677267
 20
1.174846461963417
 30
0.0
 10
73.18241624151834
 20
1.202705478115822
 30
0.0
 10
73.1416294399139
 20
1.23053390430059
 30
0.0
 10
73.10085744938893
 20
1.258352225034194
 30
0.0
 10
73.05837511917791
 20
1.286329554178228
 30
0.0
 10
73.01503271775955
 20
1.313922665635312
 30
0.0
 10
72.9518797600641
 20
1.354127789105836
 30
0.0
 10
72.8861703445096
 20
1.393981180724074
 30
0.0
 10
72.82041042926267
 20
1.431766697698323
 30
0.0
  0
SPLINE
  5
109
330
1F
100
AcDbEntity
  8
외형선
  6
Continuous
 62
     1
370
    15
100
AcDbSpline
210
0.0
220
0.0
230
1.0
 70
     8
 71
     3
 72
    10
 73
     6
 74
     0
 42
0.000000001
 43
0.00000001
 40
0.0
 40
0.0
 40
0.0
 40
0.0
 40
0.5
 40
0.5
 40
1.0
 40
1.0
 40
1.0
 40
1.0
 10
75.00532180623493
 20
0.1508428211832045
 30
0.0
 10
74.73848950978966
 20
0.2728286877782914
 30
0.0
 10
74.42350748146595
 20
0.4279713813186901
 30
0.0
 10
73.80787860930509
 20
0.7732466856401244
 30
0.0
 10
73.51013642200701
 20
0.9618113464943121
 30
0.0
 10
73.25872779663784
 20
1.147542400565369
 30
0.0
  0
SPLINE
  5
10A
330
1F
100
AcDbEntity
  8
외형선
  6
Continuous
 62
     1
370
    15
100
AcDbSpline
210
0.0
220
0.0
230
1.0
 70
     8
 71
     3
 72
     8
 73
     4
 74
     0
 42
0.000000001
 43
0.00000001
 40
0.0
 40
0.0
 40
0.0
 40
0.0
 40
1.0
 40
1.0
 40
1.0
 40
1.0
 10
75.44014991098659
 20
-0.0791260756988877
 30
0.0
 10
75.28938220788
 20
0.0077512302198765
 30
0.0
 10
75.13607894599299
 20
0.0910654883063544
 30
0.0
 10
75.00532180623593
 20
0.1508428211827461
 30
0.0
  0
SPLINE
  5
10B
330
1F
100
AcDbEntity
  8
외형선
  6
Continuous
 62
     1
370
    15
100
AcDbSpline
210
0.0
220
0.0
230
1.0
 70
     8
 71
     3
 72
     8
 73
     4
 74
     0
 42
0.000000001
 43
0.00000001
 40
0.0
 40
0.0
 40
0.0
 40
0.0
 40
1.0
 40
1.0
 40
1.0
 40
1.0
 10
88.20000000000002
 20
-6.006776291440021
 30
0.0
 10
87.25912792454885
 20
-5.903123876984344
 30
0.0
 10
86.2716540327812
 20
-5.752604056766666
 30
0.0
 10
85.26666666666672
 20
-5.557821763896019
 30
0.0
  0
SPLINE
  5
10C
330
1F
100
AcDbEntity
  8
외형선
  6
Continuous
 62
     1
370
    15
100
AcDbSpline
210
0.0
220
0.0
230
1.0
 70
     8
 71
     3
 72
    10
 73
     6
 74
     0
 42
0.000000001
 43
0.00000001
 40
0.0
 40
0.0
 40
0.0
 40
0.0
 40
0.3735198585361011
 40
0.6851841356095063
 40
0.9999999999999999
 40
0.9999999999999999
 40
0.9999999999999999
 40
0.9999999999999999
 10
86.03840286581621
 20
-5.691799363399229
 30
0.0
 10
85.81083701224235
 20
-5.749575019297371
 30
0.0
 10
85.39339063258711
 20
-5.855558575301562
 30
0.0
 10
84.73116233493568
 20
-6.108936289900791
 30
0.0
 10
84.3038835267452
 20
-6.303781696421829
 30
0.0
 10
84.08916938269925
 20
-6.401694496870864
 30
0.0
  0
SPLINE
  5
10D
330
1F
100
AcDbEntity
  8
외형선
  6
Continuous
 62
     1
370
    15
100
AcDbSpline
210
0.0
220
0.0
230
1.0
 70
     8
 71
     3
 72
     8
 73
     4
 74
     0
 42
0.000000001
 43
0.00000001
 40
0.0
 40
0.0
 40
0.0
 40
0.0
 40
1.0
 40
1.0
 40
1.0
 40
1.0
 10
88.20000000000002
 20
-7.424523816498323
 30
0.0
 10
86.79447573428325
 20
-7.209402261752805
 30
0.0
 10
85.42544862474557
 20
-6.863997914469384
 30
0.0
 10
84.08916938269749
 20
-6.401694496878157
 30
0.0
  0
LINE
  5
10E
330
1F
100
AcDbEntity
  8
외형선
  6
Continuous
 62
     1
370
    15
100
AcDbLine
 10
88.20000000000002
 20
-9.052553825126022
 30
0.0
 11
88.20000000000002
 21
-7.424523816498315
 31
0.0
  0
SPLINE
  5
10F
330
1F
100
AcDbEntity
  8
외형선
  6
Continuous
 62
     1
370
    15
100
AcDbSpline
210
0.0
220
0.0
230
1.0
 70
     8
 71
     3
 72
    10
 73
     6
 74
     0
 42
0.000000001
 43
0.00000001
 40
0.0
 40
0.0
 40
0.0
 40
0.0
 40
0.5
 40
0.5
 40
1.0
 40
1.0
 40
1.0
 40
1.0
 10
85.4245174605229
 20
-11.85265627529165
 30
0.0
 10
85.87570895886734
 20
-11.36303572053193
 30
0.0
 10
86.33067411560062
 20
-10.88222821419507
 30
0.0
 10
87.25453454644776
 20
-9.945322940281178
 30
0.0
 10
87.72656458601958
 20
-9.486403369451057
 30
0.0
 10
88.20000000000002
 20
-9.052553825126111
 30
0.0
  0
SPLINE
  5
110
330
1F
100
AcDbEntity
  8
외형선
  6
Continuous
 62
     1
370
    15
100
AcDbSpline
210
0.0
220
0.0
230
1.0
 70
     8
 71
     3
 72
    10
 73
     6
 74
     0
 42
0.000000001
 43
0.00000001
 40
0.0
 40
0.0
 40
0.0
 40
0.0
 40
0.5
 40
0.5
 40
1.0
 40
1.0
 40
1.0
 40
1.0
 10
83.69916696737862
 20
-12.15203451534597
 30
0.0
 10
83.96580357676149
 20
-11.92756993936796
 30
0.0
 10
84.28064150680943
 20
-11.79997441298736
 30
0.0
 10
84.89642475438562
 20
-11.70889154309855
 30
0.0
 10
85.19456182381784
 20
-11.74421688365793
 30
0.0
 10
85.44631793868389
 20
-11.86264168273867
 30
0.0
  0
SPLINE
  5
111
330
1F
100
AcDbEntity
  8
외형선
  6
Continuous
 62
     1
370
    15
100
AcDbSpline
210
0.0
220
0.0
230
1.0
 70
     8
 71
     3
 72
     8
 73
     4
 74
     0
 42
0.000000001
 43
0.00000001
 40
0.0
 40
0.0
 40
0.0
 40
0.0
 40
1.0
 40
1.0
 40
1.0
 40
1.0
 10
83.26455422944072
 20
-12.3462849382656
 30
0.0
 10
83.41517982891402
 20
-12.32581770487334
 30
0.0
 10
83.5684118898095
 20
-12.26210898378245
 30
0.0
 10
83.69916696737862
 20
-12.15203451534598
 30
0.0
  0
SPLINE
  5
112
330
1F
100
AcDbEntity
  8
외형선
  6
Continuous
 62
     1
370
    15
100
AcDbSpline
210
0.0
220
0.0
230
1.0
 70
     8
 71
     3
 72
    10
 73
     6
 74
     0
 42
0.000000001
 43
0.00000001
 40
0.0
 40
0.0
 40
0.0
 40
0.0
 40
0.5
 40
0.5
 40
1.0
 40
1.0
 40
1.0
 40
1.0
 10
83.26454876066288
 20
-12.34628568137097
 30
0.0
 10
82.29249694498183
 20
-12.47836941352928
 30
0.0
 10
81.30949572568872
 20
-12.57431545312705
 30
0.0
 10
79.34759212241302
 20
-12.69071314213807
 30
0.0
 10
78.37602804615067
 20
-12.71126037111807
 30
0.0
 10
77.39833274906995
 20
-12.69420675096045
 30
0.0
  0
SPLINE
  5
114
330
1F
100
AcDbEntity
  8
외형선
  6
Continuous
 62
     1
370
    15
100
AcDbSpline
210
0.0
220
0.0
230
1.0
 70
     8
 71
     3
 72
    12
 73
     8
 74
     0
 42
0.000000001
 43
0.00000001
 40
0.0
 40
0.0
 40
0.0
 40
0.0
 40
0.4999999999999996
 40
0.4999999999999996
 40
0.7499999999999998
 40
0.7499999999999998
 40
1.0
 40
1.0
 40
1.0
 40
1.0
 10
66.95275122924744
 20
4.707497578990101
 30
0.0
 10
66.80363737362536
 20
6.070015846129488
 30
0.0
 10
66.65177117708039
 20
7.342729654465963
 30
0.0
 10
66.43934420188293
 20
8.96188526984125
 30
0.0
 10
66.3699956276998
 20
9.457814169786811
 30
0.0
 10
66.224141654439
 20
10.36813208964971
 30
0.0
 10
66.14943001324409
 20
10.7777384918543
 30
0.0
 10
66.07457586355741
 20
11.1313422087007
 30
0.0
  0
SPLINE
  5
115
330
1F
100
AcDbEntity
  8
외형선
  6
Continuous
 62
     1
370
    15
100
AcDbSpline
210
0.0
220
0.0
230
1.0
 70
     8
 71
     3
 72
    10
 73
     6
 74
     0
 42
0.000000001
 43
0.00000001
 40
0.0
 40
0.0
 40
0.0
 40
0.0
 40
0.4999999999999999
 40
0.4999999999999999
 40
1.0
 40
1.0
 40
1.0
 40
1.0
 10
71.9457205664213
 20
9.125228871226645
 30
0.0
 10
70.96609286040744
 20
9.518195857404987
 30
0.0
 10
69.9819190281515
 20
9.884551452947928
 30
0.0
 10
68.03063991518461
 20
10.55453083434891
 30
0.0
 10
67.05577457637395
 20
10.85917954337518
 30
0.0
 10
66.07457571378622
 20
11.13133890429867
 30
0.0
  0
SPLINE
  5
116
330
1F
100
AcDbEntity
  8
외형선
  6
Continuous
 62
     1
370
    15
100
AcDbSpline
210
0.0
220
0.0
230
1.0
 70
     8
 71
     3
 72
    14
 73
    10
 74
     0
 42
0.000000001
 43
0.00000001
 40
0.0
 40
0.0
 40
0.0
 40
0.0
 40
0.2500000000000001
 40
0.2500000000000001
 40
0.5000000000000001
 40
0.5000000000000001
 40
0.7500000000000002
 40
0.7500000000000002
 40
1.0
 40
1.0
 40
1.0
 40
1.0
 10
72.8204109985976
 20
1.431760909845287
 30
0.0
 10
72.74996542988147
 20
2.147909840364306
 30
0.0
 10
72.67959479488304
 20
2.85704334656849
 30
0.0
 10
72.53281599056504
 20
4.259625975393565
 30
0.0
 10
72.45778973689696
 20
4.948309536365002
 30
0.0
 10
72.30779162127702
 20
6.268711697515568
 30
0.0
 10
72.2328366190006
 20
6.90028240367812
 30
0.0
 10
72.08633240781427
 20
8.0795117045557
 30
0.0
 10
72.01638474267797
 20
8.62343865434152
 30
0.0
 10
71.94572273347536
 20
9.125225076914754
 30
0.0
  0
SPLINE
  5
117
330
1F
100
AcDbEntity
  8
외형선
  6
Continuous
 62
     1
370
    15
100
AcDbSpline
210
0.0
220
0.0
230
1.0
 70
     8
 71
     3
 72
     8
 73
     4
 74
     0
 42
0.000000001
 43
0.00000001
 40
0.0
 40
0.0
 40
0.0
 40
0.0
 40
1.0
 40
1.0
 40
1.0
 40
1.0
 10
44.30508640238813
 20
-8.037283160754214
 30
0.0
 10
44.15422199931656
 20
-7.96972294903133
 30
0.0
 10
44.00083682487558
 20
-7.87633870938634
 30
0.0
 10
43.86994757324445
 20
-7.767593689993845
 30
0.0
  0
LINE
  5
118
330
1F
100
AcDbEntity
  8
외형선
  6
Continuous
 62
     1
370
    15
100
AcDbLine
 10
47.87713569213346
 20
-9.513677602801302
 30
0.0
 11
46.26338730498694
 21
-10.11900195297988
 31
0.0
  0
SPLINE
  5
119
330
1F
100
AcDbEntity
  8
외형선
  6
Continuous
 62
     1
370
    15
100
AcDbSpline
210
0.0
220
0.0
230
1.0
 70
     8
 71
     3
 72
    14
 73
    10
 74
     0
 42
0.000000001
 43
0.00000001
 40
0.0
 40
0.0
 40
0.0
 40
0.0
 40
0.0000586782451522
 40
0.0000586782451522
 40
0.0000586782451522
 40
0.0001173222527949
 40
0.0001173222527949
 40
0.0001173222527949
 40
0.0002031084791099
 40
0.0002031084791099
 40
0.0002031084791099
 40
0.0002031084791099
 10
45.82443667276301
 20
-10.16581868891804
 30
0.0
 10
45.86145587549331
 20
-10.17313365923986
 30
0.0
 10
45.90086945510091
 20
-10.17686722856141
 30
0.0
 10
45.94171601752157
 20
-10.17714355522864
 30
0.0
 10
45.98254765333611
 20
-10.17741978091751
 30
0.0
 10
46.02508844143979
 20
-10.17424704502613
 30
0.0
 10
46.06848627036261
 20
-10.16780100788908
 30
0.0
 10
46.1317497370828
 20
-10.15840425542429
 30
0.0
 10
46.19756543957368
 20
-10.14191788566343
 30
0.0
 10
46.26342350482093
 20
-10.11898934999372
 30
0.0
  0
SPLINE
  5
11A
330
1F
100
AcDbEntity
  8
외형선
  6
Continuous
 62
     1
370
    15
100
AcDbSpline
210
0.0
220
0.0
230
1.0
 70
     8
 71
     3
 72
    10
 73
     6
 74
     0
 42
0.000000001
 43
0.00000001
 40
0.0
 40
0.0
 40
0.0
 40
0.0
 40
0.5
 40
0.5
 40
1.0
 40
1.0
 40
1.0
 40
1.0
 10
44.07573458936781
 20
-10.7191317448375
 30
0.0
 10
44.34268504905859
 20
-10.48375385252687
 30
0.0
 10
44.65775976386544
 20
-10.32441914193858
 30
0.0
 10
45.27399615135288
 20
-10.14083647443294
 30
0.0
 10
45.57244657881221
 20
-10.11602561065801
 30
0.0
 10
45.82443667276245
 20
-10.16581868891769
 30
0.0
  0
SPLINE
  5
11B
330
1F
100
AcDbEntity
  8
외형선
  6
Continuous
 62
     1
370
    15
100
AcDbSpline
210
0.0
220
0.0
230
1.0
 70
     8
 71
     3
 72
     8
 73
     4
 74
     0
 42
0.000000001
 43
0.00000001
 40
0.0
 40
0.0
 40
0.0
 40
0.0
 40
1.0
 40
1.0
 40
1.0
 40
1.0
 10
43.64040122141554
 20
-10.96023056862399
 30
0.0
 10
43.79129241528672
 20
-10.9160643060482
 30
0.0
 10
43.94473178154475
 20
-10.83464068543975
 30
0.0
 10
44.07573458936781
 20
-10.7191317448375
 30
0.0
  0
SPLINE
  5
11C
330
1F
100
AcDbEntity
  8
외형선
  6
Continuous
 62
     1
370
    15
100
AcDbSpline
210
0.0
220
0.0
230
1.0
 70
     8
 71
     3
 72
    10
 73
     6
 74
     0
 42
0.000000001
 43
0.00000001
 40
0.0
 40
0.0
 40
0.0
 40
0.0
 40
0.5000000000000001
 40
0.5000000000000001
 40
1.0
 40
1.0
 40
1.0
 40
1.0
 10
43.64040113964592
 20
-10.96023059255742
 30
0.0
 10
42.66625684508541
 20
-11.2453652734116
 30
0.0
 10
41.68171352358936
 20
-11.49889449144954
 30
0.0
 10
39.71801156499293
 20
-11.93546021301338
 30
0.0
 10
38.7461371921732
 20
-12.11819320663789
 30
0.0
 10
37.76668367220445
 20
-12.26492602241588
 30
0.0
  0
SPLINE
  5
11D
330
1F
100
AcDbEntity
  8
외형선
  6
Continuous
 62
     1
370
    15
100
AcDbSpline
210
0.0
220
0.0
230
1.0
 70
     8
 71
     3
 72
    14
 73
    10
 74
     0
 42
0.000000001
 43
0.00000001
 40
0.0
 40
0.0
 40
0.0
 40
0.0
 40
0.0000585597302139
 40
0.0000585597302139
 40
0.0000585597302139
 40
0.000117085070227
 40
0.000117085070227
 40
0.000117085070227
 40
0.0002029903237625
 40
0.0002029903237625
 40
0.0002029903237625
 40
0.0002029903237625
 10
37.32815853854149
 20
-12.19457569021006
 30
0.0
 10
37.36508084498963
 20
-12.21490060967271
 30
0.0
 10
37.40439319162141
 20
-12.23135548107089
 30
0.0
 10
37.44513543068413
 20
-12.24382784639586
 30
0.0
 10
37.48586269602936
 20
-12.2562956278374
 30
0.0
 10
37.52829521225712
 20
-12.2648732642834
 30
0.0
 10
37.57158220248013
 20
-12.26952776492237
 30
0.0
 10
37.63489757880149
 20
-12.27633584878374
 30
0.0
 10
37.70077504710325
 20
-12.27479986251626
 30
0.0
 10
37.76668925929181
 20
-12.2649251854089
 30
0.0
  0
SPLINE
  5
11E
330
1F
100
AcDbEntity
  8
외형선
  6
Continuous
 62
     1
370
    15
100
AcDbSpline
210
0.0
220
0.0
230
1.0
 70
     8
 71
     3
 72
    10
 73
     6
 74
     0
 42
0.000000001
 43
0.00000001
 40
0.0
 40
0.0
 40
0.0
 40
0.0
 40
0.4999999999999993
 40
0.4999999999999993
 40
1.0
 40
1.0
 40
1.0
 40
1.0
 10
35.58349838720066
 20
-12.3935066948796
 30
0.0
 10
35.84977084146339
 20
-12.17672475993518
 30
0.0
 10
36.16428695795197
 20
-12.06163160351832
 30
0.0
 10
36.77934387359645
 20
-12.00213226525924
 30
0.0
 10
37.07694300139283
 20
-12.05628704977741
 30
0.0
 10
37.32815853854109
 20
-12.1945756902096
 30
0.0
  0
SPLINE
  5
11F
330
1F
100
AcDbEntity
  8
외형선
  6
Continuous
 62
     1
370
    15
100
AcDbSpline
210
0.0
220
0.0
230
1.0
 70
     8
 71
     3
 72
     8
 73
     4
 74
     0
 42
0.000000001
 43
0.00000001
 40
0.0
 40
0.0
 40
0.0
 40
0.0
 40
1.0
 40
1.0
 40
1.0
 40
1.0
 10
35.14932385298248
 20
-12.56910047107436
 30
0.0
 10
35.29985737774597
 20
-12.55666137309423
 30
0.0
 10
35.45295110901099
 20
-12.49978990635948
 30
0.0
 10
35.58349838720066
 20
-12.39350669487955
 30
0.0
  0
SPLINE
  5
120
330
1F
100
AcDbEntity
  8
외형선
  6
Continuous
 62
     1
370
    15
100
AcDbSpline
210
0.0
220
0.0
230
1.0
 70
     8
 71
     3
 72
    10
 73
     6
 74
     0
 42
0.000000001
 43
0.00000001
 40
0.0
 40
0.0
 40
0.0
 40
0.0
 40
0.4999999999999999
 40
0.4999999999999999
 40
0.7646450541754681
 40
0.7646450541754681
 40
0.7646450541754681
 40
0.7646450541754681
 10
35.14931483347605
 20
-12.56910121638559
 30
0.0
 10
34.16975117129936
 20
-12.6500456714994
 30
0.0
 10
33.19911521565072
 20
-12.69350563109269
 30
0.0
 10
31.69904353048859
 20
-12.70240824816023
 30
0.0
 10
31.17889036804461
 20
-12.69486401000865
 30
0.0
 10
30.65970207925998
 20
-12.67679241989797
 30
0.0
  0
SPLINE
  5
122
330
1F
100
AcDbEntity
  8
외형선
  6
Continuous
 62
     1
370
    15
100
AcDbSpline
210
0.0
220
0.0
230
1.0
 70
     8
 71
     3
 72
    14
 73
    10
 74
     0
 42
0.000000001
 43
0.00000001
 40
0.0
 40
0.0
 40
0.0
 40
0.0
 40
0.0000586421269075
 40
0.0000586421269075
 40
0.0000586421269075
 40
0.0001172497728785
 40
0.0001172497728785
 40
0.0001172497728785
 40
0.000203124750518
 40
0.000203124750518
 40
0.000203124750518
 40
0.000203124750518
 10
50.61919546544046
 20
-10.38529807924466
 30
0.0
 10
50.58220405606584
 20
-10.39370378100865
 30
0.0
 10
50.54281980968488
 20
-10.39848473490297
 30
0.0
 10
50.50200457375339
 20
-10.39974724155021
 30
0.0
 10
50.461204360214
 20
-10.40100928352121
 30
0.0
 10
50.41869729972597
 20
-10.39876805228297
 30
0.0
 10
50.3753352775344
 20
-10.39318452374355
 30
0.0
 10
50.31202014279317
 20
-10.3850317244981
 30
0.0
 10
50.24615010194875
 20
-10.36963308855242
 30
0.0
 10
50.18024148689226
 20
-10.34759461919181
 30
0.0
  0
SPLINE
  5
123
330
1F
100
AcDbEntity
  8
외형선
  6
Continuous
 62
     1
370
    15
100
AcDbSpline
210
0.0
220
0.0
230
1.0
 70
     8
 71
     3
 72
    10
 73
     6
 74
     0
 42
0.000000001
 43
0.00000001
 40
0.0
 40
0.0
 40
0.0
 40
0.0
 40
0.5
 40
0.5
 40
1.0
 40
1.0
 40
1.0
 40
1.0
 10
52.36584905111725
 20
-10.9117218446198
 30
0.0
 10
52.09926758536104
 20
-10.67684774308298
 30
0.0
 10
51.78443887529272
 20
-10.52048097266442
 30
0.0
 10
51.16876024848155
 20
-10.34644019760172
 30
0.0
 10
50.87079183282336
 20
-10.32812685855104
 30
0.0
 10
50.61919546544046
 20
-10.38529807924466
 30
0.0
  0
SPLINE
  5
124
330
1F
100
AcDbEntity
  8
외형선
  6
Continuous
 62
     1
370
    15
100
AcDbSpline
210
0.0
220
0.0
230
1.0
 70
     8
 71
     3
 72
     8
 73
     4
 74
     0
 42
0.000000001
 43
0.00000001
 40
0.0
 40
0.0
 40
0.0
 40
0.0
 40
1.0
 40
1.0
 40
1.0
 40
1.0
 10
52.80027540157485
 20
-11.14821292880541
 30
0.0
 10
52.64967616963491
 20
-11.10653860353353
 30
0.0
 10
52.4965042207996
 20
-11.02683680770695
 30
0.0
 10
52.36584905111773
 20
-10.91172184462022
 30
0.0
  0
SPLINE
  5
125
330
1F
100
AcDbEntity
  8
외형선
  6
Continuous
 62
     1
370
    15
100
AcDbSpline
210
0.0
220
0.0
230
1.0
 70
     8
 71
     3
 72
    10
 73
     6
 74
     0
 42
0.000000001
 43
0.00000001
 40
0.0
 40
0.0
 40
0.0
 40
0.0
 40
0.5
 40
0.5
 40
1.0
 40
1.0
 40
1.0
 40
1.0
 10
58.66715558087408
 20
-12.35768440615161
 30
0.0
 10
57.6943076969844
 20
-12.22766505180621
 30
0.0
 10
56.71258077093685
 20
-12.06058640696913
 30
0.0
 10
54.75009251732229
 20
-11.65572039669538
 30
0.0
 10
53.77775868502826
 20
-11.41870539838729
 30
0.0
 10
52.8002748302271
 20
-11.14821277070015
 30
0.0
  0
SPLINE
  5
126
330
1F
100
AcDbEntity
  8
외형선
  6
Continuous
 62
     1
370
    15
100
AcDbSpline
210
0.0
220
0.0
230
1.0
 70
     8
 71
     3
 72
    14
 73
    10
 74
     0
 42
0.000000001
 43
0.00000001
 40
0.0
 40
0.0
 40
0.0
 40
0.0
 40
0.0000588121997513
 40
0.0000588121997513
 40
0.0000588121997513
 40
0.000117589445085
 40
0.000117589445085
 40
0.000117589445085
 40
0.0002034840015174
 40
0.0002034840015174
 40
0.0002034840015174
 40
0.0002034840015174
 10
59.10650301802264
 20
-12.27878344444716
 30
0.0
 10
59.06941757789797
 20
-12.30003582194764
 30
0.0
 10
59.02993783805203
 20
-12.3173967255801
 30
0.0
 10
58.98902958204992
 20
-12.33073997027256
 30
0.0
 10
58.94813654579437
 20
-12.34407825066631
 30
0.0
 10
58.90553859236842
 20
-12.35349725063221
 30
0.0
 10
58.86208919953816
 20
-12.35895033948144
 30
0.0
 10
58.79881247870888
 20
-12.36689184471991
 30
0.0
 10
58.73300249719603
 20
-12.36648472615353
 30
0.0
 10
58.66715608606755
 20
-12.35768447366981
 30
0.0
  0
SPLINE
  5
127
330
1F
100
AcDbEntity
  8
외형선
  6
Continuous
 62
     1
370
    15
100
AcDbSpline
210
0.0
220
0.0
230
1.0
 70
     8
 71
     3
 72
    10
 73
     6
 74
     0
 42
0.000000001
 43
0.00000001
 40
0.0
 40
0.0
 40
0.0
 40
0.0
 40
0.5
 40
0.5
 40
1.0
 40
1.0
 40
1.0
 40
1.0
 10
60.85562589234925
 20
-12.44899383129845
 30
0.0
 10
60.58846145814888
 20
-12.23477288286927
 30
0.0
 10
60.27310024497021
 20
-12.12404607189442
 30
0.0
 10
59.65664770532319
 20
-12.07459995408426
 30
0.0
 10
59.3583931029745
 20
-12.13443398665382
 30
0.0
 10
59.10650301802264
 20
-12.27878344444725
 30
0.0
  0
SPLINE
  5
128
330
1F
100
AcDbEntity
  8
외형선
  6
Continuous
 62
     1
370
    15
100
AcDbSpline
210
0.0
220
0.0
230
1.0
 70
     8
 71
     3
 72
     8
 73
     4
 74
     0
 42
0.000000001
 43
0.00000001
 40
0.0
 40
0.0
 40
0.0
 40
0.0
 40
1.0
 40
1.0
 40
1.0
 40
1.0
 10
61.29083279472269
 20
-12.61832947979606
 30
0.0
 10
61.13995459624291
 20
-12.60848650490543
 30
0.0
 10
60.98652063994102
 20
-12.55394940690635
 30
0.0
 10
60.85562589234974
 20
-12.44899383129883
 30
0.0
  0
LINE
  5
129
330
1F
100
AcDbEntity
  8
외형선
  6
Continuous
 62
     1
370
    15
100
AcDbLine
 10
61.28997450898776
 20
-12.61827347749386
 30
0.0
 11
63.78550885361448
 21
-12.67419272523308
 31
0.0
  0
SPLINE
  5
12B
330
1F
100
AcDbEntity
  8
외형선
  6
Continuous
 62
     1
370
    15
100
AcDbSpline
210
0.0
220
0.0
230
1.0
 70
     8
 71
     3
 72
    12
 73
     8
 74
     0
 42
0.000000001
 43
0.00000001
 40
0.0
 40
0.0
 40
0.0
 40
0.0
 40
0.2500000000000001
 40
0.2500000000000001
 40
0.5000000000000002
 40
0.5000000000000002
 40
1.0
 40
1.0
 40
1.0
 40
1.0
 10
75.00532180623445
 20
0.1508428211878053
 30
0.0
 10
74.93198663900469
 20
0.8748049615276005
 30
0.0
 10
74.86228037490307
 20
1.586036005221857
 30
0.0
 10
74.71981763248269
 20
2.996139639040821
 30
0.0
 10
74.64604241995373
 20
3.698221259882327
 30
0.0
 10
74.42179840501468
 20
5.746736219333042
 30
0.0
 10
74.26857178447253
 20
7.03148209948688
 30
0.0
 10
74.12496202419139
 20
8.127650013452296
 30
0.0
  0
SPLINE
  5
12C
330
1F
100
AcDbEntity
  8
외형선
  6
Continuous
 62
     1
370
    15
100
AcDbSpline
210
0.0
220
0.0
230
1.0
 70
     8
 71
     3
 72
    14
 73
    10
 74
     0
 42
0.000000001
 43
0.00000001
 40
0.0
 40
0.0
 40
0.0
 40
0.0
 40
0.0000586164716919
 40
0.0000586164716919
 40
0.0000586164716919
 40
0.00011719869265
 40
0.00011719869265
 40
0.00011719869265
 40
0.0002030362133147
 40
0.0002030362133147
 40
0.0002030362133147
 40
0.0002030362133147
 10
74.1249620241453
 20
8.12765001381305
 30
0.0
 10
74.16190563062173
 20
8.126194297885815
 30
0.0
 10
74.20124204839051
 20
8.121613945386652
 30
0.0
 10
74.24201198079712
 20
8.114173901521744
 30
0.0
 10
74.28276699583557
 20
8.106736579904993
 30
0.0
 10
74.32523116190733
 20
8.096394217124669
 30
0.0
 10
74.36855409097176
 20
8.083442756732586
 30
0.0
 10
74.4318115365622
 20
8.064531840071112
 30
0.0
 10
74.49763247517632
 20
8.03981861893176
 30
0.0
 10
74.56350018192477
 20
8.010319179152978
 30
0.0
  0
SPLINE
  5
12D
330
1F
100
AcDbEntity
  8
외형선
  6
Continuous
 62
     1
370
    15
100
AcDbSpline
210
0.0
220
0.0
230
1.0
 70
     8
 71
     3
 72
     8
 73
     4
 74
     0
 42
0.000000001
 43
0.00000001
 40
0.0
 40
0.0
 40
0.0
 40
0.0
 40
1.0
 40
1.0
 40
1.0
 40
1.0
 10
81.10145010533797
 20
12.27292586391674
 30
0.0
 10
80.95063743254002
 20
12.25058036790703
 30
0.0
 10
80.79727076711619
 20
12.18532703101431
 30
0.0
 10
80.66644957921513
 20
12.0745620181525
 30
0.0
  0
SPLINE
  5
12E
330
1F
100
AcDbEntity
  8
외형선
  6
Continuous
 62
     1
370
    15
100
AcDbSpline
210
0.0
220
0.0
230
1.0
 70
     8
 71
     3
 72
     8
 73
     4
 74
     0
 42
0.000000001
 43
0.00000001
 40
0.0
 40
0.0
 40
0.0
 40
0.0
 40
1.0
 40
1.0
 40
1.0
 40
1.0
 10
85.26666666666698
 20
12.66832253940128
 30
0.0
 10
83.87355943037385
 20
12.61165603420963
 30
0.0
 10
82.4948210228588
 20
12.47937780989452
 30
0.0
 10
81.10144906550686
 20
12.27292570984783
 30
0.0
  0
SPLINE
  5
12F
330
1F
100
AcDbEntity
  8
외형선
  6
Continuous
 62
     1
370
    15
100
AcDbSpline
210
0.0
220
0.0
230
1.0
 70
     8
 71
     3
 72
     8
 73
     4
 74
     0
 42
0.000000001
 43
0.00000001
 40
0.0
 40
0.0
 40
0.0
 40
0.0
 40
1.0
 40
1.0
 40
1.0
 40
1.0
 10
88.20000000000002
 20
9.672706871930261
 30
0.0
 10
87.25912792454885
 20
10.7242693171351
 30
0.0
 10
86.2716540327812
 20
11.71565843767453
 30
0.0
 10
85.26666666666672
 20
12.66832253940127
 30
0.0
  0
LINE
  5
130
330
1F
100
AcDbEntity
  8
외형선
  6
Continuous
 62
     1
370
    15
100
AcDbLine
 10
88.20000000000002
 20
8.223300350377965
 30
0.0
 11
88.20000000000002
 21
9.672706871930261
 31
0.0
  0
SPLINE
  5
131
330
1F
100
AcDbEntity
  8
외형선
  6
Continuous
 62
     1
370
    15
100
AcDbSpline
210
0.0
220
0.0
230
1.0
 70
     8
 71
     3
 72
    12
 73
     8
 74
     0
 42
0.000000001
 43
0.00000001
 40
0.0
 40
0.0
 40
0.0
 40
0.0
 40
0.25
 40
0.25
 40
0.5
 40
0.5
 40
1.0
 40
1.0
 40
1.0
 40
1.0
 10
88.20000000000002
 20
8.223300350377983
 30
0.0
 10
87.99074913924697
 20
7.745399266570779
 30
0.0
 10
87.74407008071533
 20
7.302638991263728
 30
0.0
 10
87.17184007985999
 20
6.491170143079469
 30
0.0
 10
86.8420557425613
 20
6.120070688013122
 30
0.0
 10
85.7788598545484
 20
5.173937764290117
 30
0.0
 10
84.94844104237112
 20
4.744075963883973
 30
0.0
 10
84.08916938269861
 20
4.518237255176672
 30
0.0
  0
SPLINE
  5
132
330
1F
100
AcDbEntity
  8
외형선
  6
Continuous
 62
     1
370
    15
100
AcDbSpline
210
0.0
220
0.0
230
1.0
 70
     8
 71
     3
 72
     8
 73
     4
 74
     0
 42
0.000000001
 43
0.00000001
 40
0.0
 40
0.0
 40
0.0
 40
0.0
 40
1.0
 40
1.0
 40
1.0
 40
1.0
 10
88.20000000000002
 20
2.449835235057668
 30
0.0
 10
86.79447573428322
 20
3.21413575517969
 30
0.0
 10
85.42544862474544
 20
3.900949743488794
 30
0.0
 10
84.0891693826973
 20
4.518237255170755
 30
0.0
  0
LINE
  5
133
330
1F
100
AcDbEntity
  8
외형선
  6
Continuous
 62
     1
370
    15
100
AcDbLine
 10
88.20000000000002
 20
1.351487901348198
 30
0.0
 11
88.20000000000002
 21
2.449835235057666
 31
0.0
  0
SPLINE
  5
134
330
1F
100
AcDbEntity
  8
외형선
  6
Continuous
 62
     1
370
    15
100
AcDbSpline
210
0.0
220
0.0
230
1.0
 70
     8
 71
     3
 72
    10
 73
     6
 74
     0
 42
0.000000001
 43
0.00000001
 40
0.0
 40
0.0
 40
0.0
 40
0.0
 40
0.5
 40
0.5
 40
1.0
 40
1.0
 40
1.0
 40
1.0
 10
85.2666666666667
 20
2.472948955008796
 30
0.0
 10
85.74330048124078
 20
2.169628066470369
 30
0.0
 10
86.22375477356795
 20
1.919784873727954
 30
0.0
 10
87.1998340572054
 20
1.53887036215742
 30
0.0
 10
87.69893288760036
 20
1.40694678605822
 30
0.0
 10
88.20000000000002
 20
1.35148790134816
 30
0.0
  0
SPLINE
  5
135
330
1F
100
AcDbEntity
  8
외형선
  6
Continuous
 62
     1
370
    15
100
AcDbSpline
210
0.0
220
0.0
230
1.0
 70
     8
 71
     3
 72
    10
 73
     6
 74
     0
 42
0.000000001
 43
0.00000001
 40
0.0
 40
0.0
 40
0.0
 40
0.0
 40
0.5
 40
0.5
 40
1.0
 40
1.0
 40
1.0
 40
1.0
 10
72.37993166914333
 20
8.862260328059111
 30
0.0
 10
72.64644228574912
 20
8.63328875554336
 30
0.0
 10
72.96110189705222
 20
8.458217987899264
 30
0.0
 10
73.57600328288224
 20
8.210248529514164
 30
0.0
 10
73.87357350266136
 20
8.137555659457783
 30
0.0
 10
74.12496202414421
 20
8.127650013812495
 30
0.0
  0
SPLINE
  5
136
330
1F
100
AcDbEntity
  8
외형선
  6
Continuous
 62
     1
370
    15
100
AcDbSpline
210
0.0
220
0.0
230
1.0
 70
     8
 71
     3
 72
     8
 73
     4
 74
     0
 42
0.000000001
 43
0.00000001
 40
0.0
 40
0.0
 40
0.0
 40
0.0
 40
1.0
 40
1.0
 40
1.0
 40
1.0
 10
71.9457222969151
 20
9.12522817705989
 30
0.0
 10
72.09629887658267
 20
9.064826016770768
 30
0.0
 10
72.24938797923637
 20
8.974416437787562
 30
0.0
 10
72.37993166914039
 20
8.862260328061623
 30
0.0
  0
SPLINE
  5
137
330
1F
100
AcDbEntity
  8
외형선
  6
Continuous
 62
     1
370
    15
100
AcDbSpline
210
0.0
220
0.0
230
1.0
 70
     8
 71
     3
 72
    14
 73
    10
 74
     0
 42
0.000000001
 43
0.00000001
 40
0.0
 40
0.0
 40
0.0
 40
0.0
 40
0.0000587306811025
 40
0.0000587306811025
 40
0.0000587306811025
 40
0.0001174268903101
 40
0.0001174268903101
 40
0.0001174268903101
 40
0.0002032418961792
 40
0.0002032418961792
 40
0.0002032418961792
 40
0.0002032418961792
 10
65.6352622399348
 20
11.13366151615175
 30
0.0
 10
65.67232278219667
 20
11.14615642315193
 30
0.0
 10
65.7117792571448
 20
11.15488685068193
 30
0.0
 10
65.7526685993964
 20
11.15988899640649
 30
0.0
 10
65.79354291230234
 20
11.16488930353516
 30
0.0
 10
65.83612649572999
 20
11.16620232477916
 30
0.0
 10
65.87956650916928
 20
11.16392662858615
 30
0.0
 10
65.94285713780437
 20
11.16061101629153
 30
0.0
 10
66.00869569853955
 20
11.14961232966618
 30
0.0
 10
66.07457661604171
 20
11.13133865403616
 30
0.0
  0
SPLINE
  5
138
330
1F
100
AcDbEntity
  8
외형선
  6
Continuous
 62
     1
370
    15
100
AcDbSpline
210
0.0
220
0.0
230
1.0
 70
     8
 71
     3
 72
    10
 73
     6
 74
     0
 42
0.000000001
 43
0.00000001
 40
0.0
 40
0.0
 40
0.0
 40
0.0
 40
0.5000000000000002
 40
0.5000000000000002
 40
1.0
 40
1.0
 40
1.0
 40
1.0
 10
63.88616707800304
 20
11.55975397501794
 30
0.0
 10
64.15316409000113
 20
11.32728079312338
 30
0.0
 10
64.46831810248347
 20
11.1822685436312
 30
0.0
 10
65.08469196796912
 20
11.04340452145377
 30
0.0
 10
65.38317738592224
 20
11.04867148052711
 30
0.0
 10
65.63526223993368
 20
11.13366151615097
 30
0.0
  0
SPLINE
  5
139
330
1F
100
AcDbEntity
  8
외형선
  6
Continuous
 62
     1
370
    15
100
AcDbSpline
210
0.0
220
0.0
230
1.0
 70
     8
 71
     3
 72
     8
 73
     4
 74
     0
 42
0.000000001
 43
0.00000001
 40
0.0
 40
0.0
 40
0.0
 40
0.0
 40
1.0
 40
1.0
 40
1.0
 40
1.0
 10
63.45092399044168
 20
11.77980486041587
 30
0.0
 10
63.60176916306467
 20
11.74713193212901
 30
0.0
 10
63.75519213193307
 20
11.67379331288626
 30
0.0
 10
63.88616707800013
 20
11.55975397502036
 30
0.0
  0
SPLINE
  5
13A
330
1F
100
AcDbEntity
  8
외형선
  6
Continuous
 62
     1
370
    15
100
AcDbSpline
210
0.0
220
0.0
230
1.0
 70
     8
 71
     3
 72
    10
 73
     6
 74
     0
 42
0.000000001
 43
0.00000001
 40
0.0
 40
0.0
 40
0.0
 40
0.0
 40
0.5
 40
0.5
 40
1.0
 40
1.0
 40
1.0
 40
1.0
 10
63.45091941010707
 20
11.77980585251078
 30
0.0
 10
62.47841186268947
 20
11.99044999569863
 30
0.0
 10
61.4952395971623
 20
12.16690133868221
 30
0.0
 10
59.53363837292846
 20
12.44612668904686
 30
0.0
 10
58.5625453442948
 20
12.54879402812077
 30
0.0
 10
57.58457947900618
 20
12.61428987274883
 30
0.0
  0
SPLINE
  5
13B
330
1F
100
AcDbEntity
  8
외형선
  6
Continuous
 62
     1
370
    15
100
AcDbSpline
210
0.0
220
0.0
230
1.0
 70
     8
 71
     3
 72
    14
 73
    10
 74
     0
 42
0.000000001
 43
0.00000001
 40
0.0
 40
0.0
 40
0.0
 40
0.0
 40
0.0000585950697937
 40
0.0000585950697937
 40
0.0000585950697937
 40
0.0001171559814346
 40
0.0001171559814346
 40
0.0001171559814346
 40
0.0002029747007883
 40
0.0002029747007883
 40
0.0002029747007883
 40
0.0002029747007883
 10
57.14610511669763
 20
12.5013570681594
 30
0.0
 10
57.1830513185056
 20
12.52592634252406
 30
0.0
 10
57.22238787993797
 20
12.54666211568731
 30
0.0
 10
57.26315483425824
 20
12.56336394191402
 30
0.0
 10
57.30390690878723
 20
12.5800596720344
 30
0.0
 10
57.34636499186355
 20
12.59284265877402
 30
0.0
 10
57.38967795880642
 20
12.60159818079288
 30
0.0
 10
57.45292988179072
 20
12.61438427335389
 30
0.0
 10
57.51873753308912
 20
12.6186994121024
 30
0.0
 10
57.584582498494
 20
12.61428967052909
 30
0.0
  0
SPLINE
  5
13C
330
1F
100
AcDbEntity
  8
외형선
  6
Continuous
 62
     1
370
    15
100
AcDbSpline
210
0.0
220
0.0
230
1.0
 70
     8
 71
     3
 72
    10
 73
     6
 74
     0
 42
0.000000001
 43
0.00000001
 40
0.0
 40
0.0
 40
0.0
 40
0.0
 40
0.3234308318342063
 40
0.777471249172909
 40
1.0
 40
1.0
 40
1.0
 40
1.0
 10
55.95319687367322
 20
12.31019832603561
 30
0.0
 10
56.0891701164221
 20
12.28469566647463
 30
0.0
 10
56.41602605125848
 20
12.22339172561758
 30
0.0
 10
56.82924686327557
 20
12.31862502094645
 30
0.0
 10
57.06768198854379
 20
12.45613047676819
 30
0.0
 10
57.1461051166965
 20
12.50135706815852
 30
0.0
  0
SPLINE
  5
13D
330
1F
100
AcDbEntity
  8
외형선
  6
Continuous
 62
     1
370
    15
100
AcDbSpline
210
0.0
220
0.0
230
1.0
 70
     8
 71
     3
 72
     9
 73
     5
 74
     0
 42
0.000000001
 43
0.00000001
 40
0.0
 40
0.0
 40
0.0
 40
0.0
 40
0.5277941045883613
 40
1.0
 40
1.0
 40
1.0
 40
1.0
 10
72.17939066964882
 20
9.88781077641032
 30
0.0
 10
72.02655288630298
 20
9.770800878910523
 30
0.0
 10
71.73697446544304
 20
9.549104773397826
 30
0.0
 10
71.41807537390045
 20
9.43110207958873
 30
0.0
 10
71.2674893428326
 20
9.375380511897621
 30
0.0
  0
SPLINE
  5
13E
330
1F
100
AcDbEntity
  8
외형선
  6
Continuous
 62
     1
370
    15
100
AcDbSpline
210
0.0
220
0.0
230
1.0
 70
     8
 71
     3
 72
     8
 73
     4
 74
     0
 42
0.000000001
 43
0.00000001
 40
0.0
 40
0.0
 40
0.0
 40
0.0
 40
1.0
 40
1.0
 40
1.0
 40
1.0
 10
72.61450201610906
 20
10.14131876765786
 30
0.0
 10
72.46368981899133
 20
10.08886088313124
 30
0.0
 10
72.31028550881258
 20
10.00248809297063
 30
0.0
 10
72.17939066964978
 20
9.887810776411149
 30
0.0
  0
SPLINE
  5
13F
330
1F
100
AcDbEntity
  8
외형선
  6
Continuous
 62
     1
370
    15
100
AcDbSpline
210
0.0
220
0.0
230
1.0
 70
     8
 71
     3
 72
    10
 73
     6
 74
     0
 42
0.000000001
 43
0.00000001
 40
0.0
 40
0.0
 40
0.0
 40
0.0
 40
0.5
 40
0.5
 40
1.0
 40
1.0
 40
1.0
 40
1.0
 10
78.4803507866715
 20
11.79794158688288
 30
0.0
 10
77.50713572557594
 20
11.58924070878529
 30
0.0
 10
76.52667528735971
 20
11.34503862238511
 30
0.0
 10
74.56428738623599
 20
10.79049136692681
 30
0.0
 10
73.59151791260605
 20
10.4811597876518
 30
0.0
 10
72.61450756961524
 20
10.14132069936598
 30
0.0
  0
SPLINE
  5
140
330
1F
100
AcDbEntity
  8
외형선
  6
Continuous
 62
     1
370
    15
100
AcDbSpline
210
0.0
220
0.0
230
1.0
 70
     8
 71
     3
 72
    14
 73
    10
 74
     0
 42
0.000000001
 43
0.00000001
 40
0.0
 40
0.0
 40
0.0
 40
0.0
 40
0.0000586813644257
 40
0.0000586813644257
 40
0.0000586813644257
 40
0.0001173282061186
 40
0.0001173282061186
 40
0.0001173282061186
 40
0.0002031917303084
 40
0.0002031917303084
 40
0.0002031917303084
 40
0.0002031917303084
 10
78.91901846709459
 20
11.7629815686334
 30
0.0
 10
78.88203124783216
 20
11.77960820093972
 30
0.0
 10
78.84265324611927
 20
11.79238230713894
 30
0.0
 10
78.80184670395005
 20
11.80126410446206
 30
0.0
 10
78.76105519048151
 20
11.81014263069513
 30
0.0
 10
78.71855933618191
 20
11.81519658236154
 30
0.0
 10
78.67521096116626
 20
11.81645779658301
 30
0.0
 10
78.61196583613437
 20
11.81829790364815
 30
0.0
 10
78.54617567892147
 20
11.81205739242991
 30
0.0
 10
78.48034972206337
 20
11.79794135858323
 30
0.0
  0
SPLINE
  5
141
330
1F
100
AcDbEntity
  8
외형선
  6
Continuous
 62
     1
370
    15
100
AcDbSpline
210
0.0
220
0.0
230
1.0
 70
     8
 71
     3
 72
    10
 73
     6
 74
     0
 42
0.000000001
 43
0.00000001
 40
0.0
 40
0.0
 40
0.0
 40
0.0
 40
0.5
 40
0.5
 40
1.0
 40
1.0
 40
1.0
 40
1.0
 10
80.66644957921419
 20
12.0745620181517
 30
0.0
 10
80.39956434392776
 20
11.84859291487788
 30
0.0
 10
80.08450302122235
 20
11.71816331134681
 30
0.0
 10
79.46858661269138
 20
11.61938901781019
 30
0.0
 10
79.17057766729096
 20
11.64989974176079
 30
0.0
 10
78.91901846709797
 20
11.76298156863091
 30
0.0
  0
LINE
  5
142
330
1F
100
AcDbEntity
  8
외형선
  6
Continuous
 62
     1
370
    15
100
AcDbLine
 10
88.20000000000002
 20
1.351487901348198
 30
0.0
 11
88.20000000000002
 21
-6.006776291440026
 31
0.0
  0
SPLINE
  5
143
330
1F
100
AcDbEntity
  8
외형선
  6
Continuous
 62
     1
370
    15
100
AcDbSpline
210
0.0
220
0.0
230
1.0
 70
     8
 71
     3
 72
    14
 73
    10
 74
     0
 42
0.000000001
 43
0.00000001
 40
0.0
 40
0.0
 40
0.0
 40
0.0
 40
0.2499999999999998
 40
0.2499999999999998
 40
0.4999999999999997
 40
0.4999999999999997
 40
0.7499999999999997
 40
0.7499999999999997
 40
1.0
 40
1.0
 40
1.0
 40
1.0
 10
73.25872779663722
 20
1.147542400571232
 30
0.0
 10
73.18730572390724
 20
1.862695968037979
 30
0.0
 10
73.11771908449778
 20
2.566335513587278
 30
0.0
 10
72.97108984409245
 20
3.965264237576877
 30
0.0
 10
72.89592902750658
 20
4.654144640393656
 30
0.0
 10
72.74525743987168
 20
5.978602319763263
 30
0.0
 10
72.66976390138434
 20
6.614025690212371
 30
0.0
 10
72.52185282680976
 20
7.803736628973562
 30
0.0
 10
72.45035277416714
 20
8.355806828553497
 30
0.0
 10
72.3799316286772
 20
8.862260619082651
 30
0.0
  0
SPLINE
  5
144
330
1F
100
AcDbEntity
  8
외형선
  6
Continuous
 62
     1
370
    15
100
AcDbSpline
210
0.0
220
0.0
230
1.0
 70
     8
 71
     3
 72
    12
 73
     8
 74
     0
 42
0.000000001
 43
0.00000001
 40
0.0
 40
0.0
 40
0.0
 40
0.0
 40
0.5000000000000006
 40
0.5000000000000006
 40
0.7500000000000003
 40
0.7500000000000003
 40
1.0
 40
1.0
 40
1.0
 40
1.0
 10
50.61919546540226
 20
-10.38529807903327
 30
0.0
 10
50.47199526866704
 20
-9.57057734823306
 30
0.0
 10
50.3181523320444
 20
-8.53045718232459
 30
0.0
 10
50.09770190833717
 20
-6.769690703461376
 30
0.0
 10
50.02755505431352
 20
-6.155376401317744
 30
0.0
 10
49.88575316472688
 20
-4.869259551210803
 30
0.0
 10
49.81223165913698
 20
-4.191297186392498
 30
0.0
 10
49.73764285306117
 20
-3.492203838149966
 30
0.0
  0
SPLINE
  5
145
330
1F
100
AcDbEntity
  8
외형선
  6
Continuous
 62
     1
370
    15
100
AcDbSpline
210
0.0
220
0.0
230
1.0
 70
     8
 71
     3
 72
    12
 73
     8
 74
     0
 42
0.000000001
 43
0.00000001
 40
0.0
 40
0.0
 40
0.0
 40
0.0
 40
0.5000000000000003
 40
0.5000000000000003
 40
0.7500000000000001
 40
0.7500000000000001
 40
1.0
 40
1.0
 40
1.0
 40
1.0
 10
52.36584878365715
 20
-10.91172051908513
 30
0.0
 10
52.22225166567525
 20
-10.2000517819174
 30
0.0
 10
52.0690374278979
 20
-9.251763643826937
 30
0.0
 10
51.84480694789899
 20
-7.587784521751546
 30
0.0
 10
51.77103541725187
 20
-6.994186383713762
 30
0.0
 10
51.62857794266446
 20
-5.75872894631849
 30
0.0
 10
51.55888046036488
 20
-5.114522837483792
 30
0.0
 10
51.48555243873616
 20
-4.437267139589541
 30
0.0
  0
SPLINE
  5
146
330
1F
100
AcDbEntity
  8
외형선
  6
Continuous
 62
     1
370
    15
100
AcDbSpline
210
0.0
220
0.0
230
1.0
 70
     8
 71
     3
 72
    12
 73
     8
 74
     0
 42
0.000000001
 43
0.00000001
 40
0.0
 40
0.0
 40
0.0
 40
0.0
 40
0.4999999999999996
 40
0.4999999999999996
 40
0.7499999999999998
 40
0.7499999999999998
 40
1.0
 40
1.0
 40
1.0
 40
1.0
 10
52.80027551952797
 20
-11.1482135037349
 30
0.0
 10
52.65833403776195
 20
-10.4563595310338
 30
0.0
 10
52.50621811958381
 20
-9.525509024588608
 30
0.0
 10
52.28237773344536
 20
-7.87753238753689
 30
0.0
 10
52.20853299981984
 20
-7.287598134421634
 30
0.0
 10
52.06553877500357
 20
-6.055594673981461
 30
0.0
 10
51.99684575881082
 20
-5.415586506278778
 30
0.0
 10
51.92430329396936
 20
-4.740748942435933
 30
0.0
  0
SPLINE
  5
147
330
1F
100
AcDbEntity
  8
외형선
  6
Continuous
 62
     1
370
    15
100
AcDbSpline
210
0.0
220
0.0
230
1.0
 70
     8
 71
     3
 72
    12
 73
     8
 74
     0
 42
0.000000001
 43
0.00000001
 40
0.0
 40
0.0
 40
0.0
 40
0.0
 40
0.2499999999999999
 40
0.2499999999999999
 40
0.4999999999999998
 40
0.4999999999999998
 40
1.0
 40
1.0
 40
1.0
 40
1.0
 10
58.66715603368254
 20
-12.35768435463281
 30
0.0
 10
58.59273830894659
 20
-12.18857558609184
 30
0.0
 10
58.51924120865925
 20
-11.95794562251153
 30
0.0
 10
58.37719710133614
 20
-11.38919704714092
 30
0.0
 10
58.30807018442373
 20
-11.05152475751803
 30
0.0
 10
58.08955505519229
 20
-9.862986333586813
 30
0.0
 10
57.9364677711188
 20
-8.841249129652837
 30
0.0
 10
57.78929934500155
 20
-7.67731747860389
 30
0.0
  0
SPLINE
  5
148
330
1F
100
AcDbEntity
  8
외형선
  6
Continuous
 62
     1
370
    15
100
AcDbSpline
210
0.0
220
0.0
230
1.0
 70
     8
 71
     3
 72
    12
 73
     8
 74
     0
 42
0.000000001
 43
0.00000001
 40
0.0
 40
0.0
 40
0.0
 40
0.0
 40
0.5000000000000001
 40
0.5000000000000001
 40
0.75
 40
0.75
 40
1.0
 40
1.0
 40
1.0
 40
1.0
 10
66.5175783445688
 20
4.866976099204194
 30
0.0
 10
66.36752256679397
 20
6.211042988077567
 30
0.0
 10
66.215437462674
 20
7.458593192879963
 30
0.0
 10
66.00382739098099
 20
9.034485062495191
 30
0.0
 10
65.93304755558904
 20
9.519388519100717
 30
0.0
 10
65.7857314005797
 20
10.40187526946976
 30
0.0
 10
65.7104622136079
 20
10.79620193273824
 30
0.0
 10
65.63526223993554
 20
11.13366151614264
 30
0.0
  0
SPLINE
  5
149
330
1F
100
AcDbEntity
  8
외형선
  6
Continuous
 62
     1
370
    15
100
AcDbSpline
210
0.0
220
0.0
230
1.0
 70
     8
 71
     3
 72
    12
 73
     8
 74
     0
 42
0.000000001
 43
0.00000001
 40
0.0
 40
0.0
 40
0.0
 40
0.0
 40
0.2499999999999998
 40
0.2499999999999998
 40
0.4999999999999998
 40
0.4999999999999998
 40
1.0
 40
1.0
 40
1.0
 40
1.0
 10
64.76853007045133
 20
5.769573931943946
 30
0.0
 10
64.69334118657288
 20
6.417646952619216
 30
0.0
 10
64.61839537775037
 20
7.035534554885258
 30
0.0
 10
64.47230285186232
 20
8.185214660139783
 30
0.0
 10
64.40307155745704
 20
8.712834436632738
 30
0.0
 10
64.18864576231493
 20
10.1777048069448
 30
0.0
 10
64.03574910811211
 20
10.99064429041415
 30
0.0
 10
63.88616707800593
 20
11.55975397500673
 30
0.0
  0
SPLINE
  5
14A
330
1F
100
AcDbEntity
  8
외형선
  6
Continuous
 62
     1
370
    15
100
AcDbSpline
210
0.0
220
0.0
230
1.0
 70
     8
 71
     3
 72
    12
 73
     8
 74
     0
 42
0.000000001
 43
0.00000001
 40
0.0
 40
0.0
 40
0.0
 40
0.0
 40
0.5000000000000001
 40
0.5000000000000001
 40
0.75
 40
0.75
 40
1.0
 40
1.0
 40
1.0
 40
1.0
 10
58.45965028608111
 20
8.80231421509781
 30
0.0
 10
58.32034331343831
 20
9.837523242613681
 30
0.0
 10
58.16982226262629
 20
10.7262567555645
 30
0.0
 10
57.94497135582603
 20
11.70616120887188
 30
0.0
 10
57.87031247992776
 20
11.97465141198165
 30
0.0
 10
57.72485216619722
 20
12.38691284126177
 30
0.0
 10
57.65595575986955
 20
12.53033724439478
 30
0.0
 10
57.5845824681769
 20
12.61428970618944
 30
0.0
  0
SPLINE
  5
14B
330
1F
100
AcDbEntity
  8
외형선
  6
Continuous
 62
     1
370
    15
100
AcDbSpline
210
0.0
220
0.0
230
1.0
 70
     8
 71
     3
 72
    12
 73
     8
 74
     0
 42
0.000000001
 43
0.00000001
 40
0.0
 40
0.0
 40
0.0
 40
0.0
 40
0.2499999999999999
 40
0.2499999999999999
 40
0.4999999999999998
 40
0.4999999999999998
 40
1.0
 40
1.0
 40
1.0
 40
1.0
 10
64.32917478951062
 20
6.075701328944334
 30
0.0
 10
64.25439933305408
 20
6.720597873227378
 30
0.0
 10
64.18007584790791
 20
7.333441030243543
 30
0.0
 10
64.03556049220899
 20
8.470292476341877
 30
0.0
 10
63.96708800153789
 20
8.990829303473387
 30
0.0
 10
63.75200279596472
 20
10.43788517402572
 30
0.0
 10
63.59945157114208
 20
11.23215571680143
 30
0.0
 10
63.4509237582784
 20
11.77980571642719
 30
0.0
  0
SPLINE
  5
14C
330
1F
100
AcDbEntity
  8
외형선
  6
Continuous
 62
     1
370
    15
100
AcDbSpline
210
0.0
220
0.0
230
1.0
 70
     8
 71
     3
 72
    12
 73
     8
 74
     0
 42
0.000000001
 43
0.00000001
 40
0.0
 40
0.0
 40
0.0
 40
0.0
 40
0.2499999999999999
 40
0.2499999999999999
 40
0.4999999999999999
 40
0.4999999999999999
 40
1.0
 40
1.0
 40
1.0
 40
1.0
 10
59.10650293045958
 20
-12.27878326592214
 30
0.0
 10
59.03154910148264
 20
-12.12596605756286
 30
0.0
 10
58.95731355640793
 20
-11.91113253607241
 30
0.0
 10
58.81348823082438
 20
-11.37185601886402
 30
0.0
 10
58.74462368810877
 20
-11.04978507027876
 30
0.0
 10
58.52644797355539
 20
-9.90777012269533
 30
0.0
 10
58.37277366224325
 20
-8.914652160791366
 30
0.0
 10
58.22434768662795
 20
-7.773296086987408
 30
0.0
  0
SPLINE
  5
14D
330
1F
100
AcDbEntity
  8
외형선
  6
Continuous
 62
     1
370
    15
100
AcDbSpline
210
0.0
220
0.0
230
1.0
 70
     8
 71
     3
 72
    12
 73
     8
 74
     0
 42
0.000000001
 43
0.00000001
 40
0.0
 40
0.0
 40
0.0
 40
0.0
 40
0.25
 40
0.25
 40
0.5
 40
0.5
 40
1.0
 40
1.0
 40
1.0
 40
1.0
 10
60.85562589234614
 20
-12.44899383129447
 30
0.0
 10
60.78042413763851
 20
-12.35316963628424
 30
0.0
 10
60.70515213412898
 20
-12.19382245267213
 30
0.0
 10
60.55782866099454
 20
-11.75776774545603
 30
0.0
 10
60.48704069821702
 20
-11.4831284732
 30
0.0
 10
60.27543413473227
 20
-10.49900049916938
 30
0.0
 10
60.12334765492024
 20
-9.603057279916367
 30
0.0
 10
59.97328705487299
 20
-8.533348255251132
 30
0.0
  0
SPLINE
  5
14E
330
1F
100
AcDbEntity
  8
외형선
  6
Continuous
 62
     1
370
    15
100
AcDbSpline
210
0.0
220
0.0
230
1.0
 70
     8
 71
     3
 72
    10
 73
     6
 74
     0
 42
0.000000001
 43
0.00000001
 40
0.0
 40
0.0
 40
0.0
 40
0.0
 40
0.5
 40
0.5
 40
1.0
 40
1.0
 40
1.0
 40
1.0
 10
61.29077410776846
 20
-12.61826424955088
 30
0.0
 10
61.14113916826525
 20
-12.45191280003359
 30
0.0
 10
60.99122185586157
 20
-12.02603866671184
 30
0.0
 10
60.71289068264637
 20
-10.75866463132228
 30
0.0
 10
60.56217169805779
 20
-9.883407658152741
 30
0.0
 10
60.41259208427685
 20
-8.827728150769186
 30
0.0
  0
SPLINE
  5
14F
330
1F
100
AcDbEntity
  8
외형선
  6
Continuous
 62
     1
370
    15
100
AcDbSpline
210
0.0
220
0.0
230
1.0
 70
     8
 71
     3
 72
    12
 73
     8
 74
     0
 42
0.000000001
 43
0.00000001
 40
0.0
 40
0.0
 40
0.0
 40
0.0
 40
0.5000000000000002
 40
0.5000000000000002
 40
0.7500000000000001
 40
0.7500000000000001
 40
1.0
 40
1.0
 40
1.0
 40
1.0
 10
58.02548812343261
 20
8.86790206542597
 30
0.0
 10
57.88466248928867
 20
9.879852357218017
 30
0.0
 10
57.73254164863933
 20
10.7406926021296
 30
0.0
 10
57.50698377202309
 20
11.673522771108
 30
0.0
 10
57.43229307760205
 20
11.92569306701942
 30
0.0
 10
57.28717627831139
 20
12.30537857264922
 30
0.0
 10
57.21836262181784
 20
12.43311434485127
 30
0.0
 10
57.14610511669731
 20
12.50135706815777
 30
0.0
  0
LINE
  5
150
330
1F
100
AcDbEntity
  8
외형선
  6
Continuous
 62
     1
370
    15
100
AcDbLine
 10
55.54924133279883
 20
12.41415704760308
 30
0.0
 11
55.47699152368256
 21
12.48254512272675
 31
0.0
  0
SPLINE
  5
151
330
1F
100
AcDbEntity
  8
외형선
  6
Continuous
 62
     1
370
    15
100
AcDbSpline
210
0.0
220
0.0
230
1.0
 70
     8
 71
     3
 72
    12
 73
     8
 74
     0
 42
0.000000001
 43
0.00000001
 40
0.0
 40
0.0
 40
0.0
 40
0.0
 40
0.5
 40
0.5
 40
0.75
 40
0.75
 40
1.0
 40
1.0
 40
1.0
 40
1.0
 10
55.84125776013047
 20
9.826797789629229
 30
0.0
 10
55.69578556703317
 20
10.74883487610531
 30
0.0
 10
55.54272431576264
 20
11.48688818218939
 30
0.0
 10
55.32173233182402
 20
12.21755674204866
 30
0.0
 10
55.24989530366832
 20
12.39939483339784
 30
0.0
 10
55.11051641964581
 20
12.64027379319109
 30
0.0
 10
55.03800198052605
 20
12.70193232227287
 30
0.0
 10
54.96414746917792
 20
12.69995352696104
 30
0.0
  0
LINE
  5
152
330
1F
100
AcDbEntity
  8
외형선
  6
Continuous
 62
     1
370
    15
100
AcDbLine
 10
88.20000000000002
 20
2.449835235057668
 30
0.0
 11
88.20000000000002
 21
8.223300350377965
 31
0.0
  0
SPLINE
  5
153
330
1F
100
AcDbEntity
  8
외형선
  6
Continuous
 62
     1
370
    15
100
AcDbSpline
210
0.0
220
0.0
230
1.0
 70
    24
 71
     3
 72
     8
 73
     4
 74
     0
 42
0.000000001
 43
0.00000001
 40
0.0
 40
0.0
 40
0.0
 40
0.0
 40
1.0
 40
1.0
 40
1.0
 40
1.0
 10
28.93333333334494
 20
-12.49317122458856
 30
0.0
 10
28.93333333334494
 20
-12.51692420612832
 30
0.0
 10
28.93333333337435
 20
-12.52812839633317
 30
0.0
 10
28.93333333337435
 20
-12.52556973208628
 30
0.0
  0
LINE
  5
154
330
1F
100
AcDbEntity
  8
외형선
  6
Continuous
 62
     1
370
    15
100
AcDbLine
 10
88.20000000000002
 20
-6.00677629144003
 30
0.0
 11
88.20000000000002
 21
-7.424523816498327
 31
0.0
  0
LINE
  5
155
330
1F
100
AcDbEntity
  8
외형선
  6
Continuous
 62
     1
370
    15
100
AcDbLine
 10
88.20000000000002
 20
9.766666666666648
 30
0.0
 11
88.20000000000002
 21
9.672706871930261
 31
0.0
  0
LINE
  5
156
330
1F
100
AcDbEntity
  8
외형선
  6
Continuous
 62
     1
370
    15
100
AcDbLine
 10
77.45416383217264
 20
-12.68241254955845
 30
0.0
 11
77.43690003818553
 21
-12.68605950908529
 31
0.0
  0
SPLINE
  5
157
330
1F
100
AcDbEntity
  8
외형선
  6
Continuous
 62
     1
370
    15
100
AcDbSpline
210
0.0
220
0.0
230
1.0
 70
     8
 71
     3
 72
    10
 73
     6
 74
     0
 42
0.000000001
 43
0.00000001
 40
0.0
 40
0.0
 40
0.0
 40
0.0
 40
0.1422482944389106
 40
0.5743059096230284
 40
1.0
 40
1.0
 40
1.0
 40
1.0
 10
66.96627670752845
 20
-12.62593509693968
 30
0.0
 10
66.93411280299173
 20
-12.64599743340442
 30
0.0
 10
66.8042559177134
 20
-12.72699607340918
 30
0.0
 10
66.56990949697453
 20
-12.21557299270524
 30
0.0
 10
66.38007973285045
 20
-11.35193210696476
 30
0.0
 10
66.28586900934927
 20
-10.9233152719482
 30
0.0
  0
SPLINE
  5
158
330
1F
100
AcDbEntity
  8
외형선
  6
Continuous
 62
     1
370
    15
100
AcDbSpline
210
0.0
220
0.0
230
1.0
 70
     8
 71
     3
 72
    11
 73
     7
 74
     0
 42
0.000000001
 43
0.00000001
 40
0.0
 40
0.0
 40
0.0
 40
0.0
 40
0.3107955843393636
 40
0.6227417515190106
 40
0.930834014084406
 40
0.9999999999999999
 40
0.9999999999999999
 40
0.9999999999999999
 40
0.9999999999999999
 10
56.27993740970155
 20
9.544356797057647
 30
0.0
 10
56.20419306737181
 20
10.00074793999179
 30
0.0
 10
56.0524239728709
 20
10.91521981169712
 30
0.0
 10
55.82051189752387
 20
11.82947291676183
 30
0.0
 10
55.65642709756851
 20
12.32713428628389
 30
0.0
 10
55.56584797850755
 20
12.40067432283148
 30
0.0
 10
55.54924133279883
 20
12.41415704760308
 30
0.0
  0
SPLINE
  5
159
330
1F
100
AcDbEntity
  8
외형선
  6
Continuous
 62
     1
370
    15
100
AcDbSpline
210
0.0
220
0.0
230
1.0
 70
     8
 71
     3
 72
     9
 73
     5
 74
     0
 42
0.000000001
 43
0.00000001
 40
0.0
 40
0.0
 40
0.0
 40
0.0
 40
0.5833023047514858
 40
1.0
 40
1.0
 40
1.0
 40
1.0
 10
49.96689799676781
 20
11.6011699266139
 30
0.0
 10
49.86351591620379
 20
11.97194948849245
 30
0.0
 10
49.68628006487608
 20
12.60760540628711
 30
0.0
 10
49.50966277900936
 20
12.63656728447484
 30
0.0
 10
49.43606676304762
 20
12.64863563236574
 30
0.0
  0
SPLINE
  5
15A
330
1F
100
AcDbEntity
  8
외형선
  6
Continuous
 62
     1
370
    15
100
AcDbSpline
210
0.0
220
0.0
230
1.0
 70
     8
 71
     3
 72
    11
 73
     7
 74
     0
 42
0.000000001
 43
0.00000001
 40
0.0
 40
0.0
 40
0.0
 40
0.0
 40
0.1251399955406615
 40
0.4187081590551409
 40
0.7114394890800804
 40
1.0
 40
1.0
 40
1.0
 40
1.0
 10
67.47580913953149
 20
-12.47542125893451
 30
0.0
 10
67.44474000844701
 20
-12.50993870380071
 30
0.0
 10
67.34078524463523
 20
-12.62543124263906
 30
0.0
 10
67.15699406287764
 20
-12.41781530139615
 30
0.0
 10
66.93376504408387
 20
-11.8950453026293
 30
0.0
 10
66.79115258498514
 20
-11.24073900372099
 30
0.0
 10
66.72035798378418
 20
-10.91593320633664
 30
0.0
  0
SPLINE
  5
15B
330
1F
100
AcDbEntity
  8
외형선
  6
Continuous
 62
     1
370
    15
100
AcDbSpline
210
0.0
220
0.0
230
1.0
 70
     8
 71
     3
 72
    10
 73
     6
 74
     0
 42
0.000000001
 43
0.00000001
 40
0.0
 40
0.0
 40
0.0
 40
0.0
 40
0.1288858400849735
 40
0.5669187401228335
 40
1.0
 40
1.0
 40
1.0
 40
1.0
 10
68.9144238536053
 20
-12.48045516188667
 30
0.0
 10
68.89497805865658
 20
-12.47289889451367
 30
0.0
 10
68.80944356110614
 20
-12.43966180984783
 30
0.0
 10
68.65686416006733
 20
-12.09880036861554
 30
0.0
 10
68.52886726558773
 20
-11.6146064484337
 30
0.0
 10
68.46523260221939
 20
-11.37388563062762
 30
0.0
  0
SPLINE
  5
15C
330
1F
100
AcDbEntity
  8
외형선
  6
Continuous
 62
     1
370
    15
100
AcDbSpline
210
0.0
220
0.0
230
1.0
 70
     8
 71
     3
 72
    10
 73
     6
 74
     0
 42
0.000000001
 43
0.00000001
 40
0.0
 40
0.0
 40
0.0
 40
0.0
 40
0.2885911908020982
 40
0.6460280524100703
 40
1.0
 40
1.0
 40
1.0
 40
1.0
 10
69.4363033735484
 20
-12.67837615783281
 30
0.0
 10
69.38489951476514
 20
-12.66849604988313
 30
0.0
 10
69.2698290072981
 20
-12.64637885746782
 30
0.0
 10
69.08953041604232
 20
-12.29614597959123
 30
0.0
 10
68.96529373271316
 20
-11.84174468463652
 30
0.0
 10
68.90347793820574
 20
-11.61565061708645
 30
0.0
  0
LINE
  5
15D
330
1F
100
AcDbEntity
  8
외형선
  6
Continuous
 62
     1
370
    15
100
AcDbLine
 10
74.96752153216704
 20
-12.68713193757738
 30
0.0
 11
74.77495395341707
 21
-12.55873133466275
 31
0.0
  0
SPLINE
  5
15E
330
1F
100
AcDbEntity
  8
외형선
  6
Continuous
 62
     1
370
    15
100
AcDbSpline
210
0.0
220
0.0
230
1.0
 70
     8
 71
     3
 72
    11
 73
     7
 74
     0
 42
0.000000001
 43
0.00000001
 40
0.0
 40
0.0
 40
0.0
 40
0.0
 40
0.2393339218894393
 40
0.4758948297275974
 40
0.7996574575569191
 40
1.0
 40
1.0
 40
1.0
 40
1.0
 10
49.53170836596384
 20
11.56279541550586
 30
0.0
 10
49.48287692519315
 20
11.73455545424266
 30
0.0
 10
49.38577982333869
 20
12.07608545443383
 30
0.0
 10
49.22831568054045
 20
12.42469858836713
 30
0.0
 10
49.07769126239872
 20
12.60658718324213
 30
0.0
 10
48.97015029645635
 20
12.51973512254555
 30
0.0
 10
48.92904207666435
 20
12.48653536867299
 30
0.0
  0
SPLINE
  5
15F
330
1F
100
AcDbEntity
  8
외형선
  6
Continuous
 62
     1
370
    15
100
AcDbSpline
210
0.0
220
0.0
230
1.0
 70
     8
 71
     3
 72
     9
 73
     5
 74
     0
 42
0.000000001
 43
0.00000001
 40
0.0
 40
0.0
 40
0.0
 40
0.0
 40
0.5844456516866141
 40
1.0
 40
1.0
 40
1.0
 40
1.0
 10
47.78310814838659
 20
11.91600230686807
 30
0.0
 10
47.72182226363816
 20
12.09520788973519
 30
0.0
 10
47.61696070025488
 20
12.4018327783796
 30
0.0
 10
47.51147017751856
 20
12.45494262238301
 30
0.0
 10
47.46763313208963
 20
12.47701264899687
 30
0.0
  0
SPLINE
  5
160
330
1F
100
AcDbEntity
  8
외형선
  6
Continuous
 62
     1
370
    15
100
AcDbSpline
210
0.0
220
0.0
230
1.0
 70
     8
 71
     3
 72
     9
 73
     5
 74
     0
 42
0.000000001
 43
0.00000001
 40
0.0
 40
0.0
 40
0.0
 40
0.0
 40
0.4178034856257358
 40
1.0
 40
1.0
 40
1.0
 40
1.0
 10
47.34421219486667
 20
12.13410864760925
 30
0.0
 10
47.29203868440512
 20
12.2754423299196
 30
0.0
 10
47.16716296589971
 20
12.6137202217344
 30
0.0
 10
47.04090480207725
 20
12.65969923381639
 30
0.0
 10
46.96739773918851
 20
12.68646805438491
 30
0.0
  0
LINE
  5
161
330
1F
100
AcDbEntity
  8
외형선
  6
Continuous
 62
     1
370
    15
100
AcDbLine
 10
41.47944432843219
 20
12.69304530643209
 30
0.0
 11
41.4368744478068
 21
12.66179279429212
 31
0.0
  0
SPLINE
  5
162
330
1F
100
AcDbEntity
  8
외형선
  6
Continuous
 62
     1
370
    15
100
AcDbSpline
210
0.0
220
0.0
230
1.0
 70
     8
 71
     3
 72
     9
 73
     5
 74
     0
 42
0.000000001
 43
0.00000001
 40
0.0
 40
0.0
 40
0.0
 40
0.0
 40
0.2445585977375364
 40
1.0
 40
1.0
 40
1.0
 40
1.0
 10
75.47079377685152
 20
-12.49306645597518
 30
0.0
 10
75.45000754873578
 20
-12.51744236640235
 30
0.0
 10
75.36501267099261
 20
-12.61711545355888
 30
0.0
 10
75.2768142903585
 20
-12.52199599598075
 30
0.0
 10
75.21018558201499
 20
-12.45013881956548
 30
0.0
  0
LINE
  5
164
330
1F
100
AcDbEntity
  8
외형선
  6
Continuous
 62
     1
370
    15
100
AcDbLine
 10
77.43690003818553
 20
-12.68605950908529
 30
0.0
 11
77.39833286710397
 21
-12.69420678610353
 31
0.0
  0
LINE
  5
165
330
1F
100
AcDbEntity
  8
외형선
  6
Continuous
 62
     1
370
    15
100
AcDbLine
 10
41.04456870850437
 20
12.55639145589992
 30
0.0
 11
40.93310148289979
 21
12.48732035446806
 31
0.0
  0
LINE
  5
166
330
1F
100
AcDbEntity
  8
중심선
100
AcDbLine
 10
-58.49999999999994
 20
-0.0000000000000184
 30
0.0
 11
95.20000000000005
 21
0.0000000000000004
 31
0.0
  0
LINE
  5
167
330
1F
100
AcDbEntity
  8
참조1
100
AcDbLine
 10
56.45000000000003
 20
-0.3168705809327401
 30
0.0
 11
56.45000000000004
 21
-40.31687058093274
 31
0.0
  0
LINE
  5
168
330
1F
100
AcDbEntity
  8
참조1
100
AcDbLine
 10
36.24639234480354
 20
-4.762499999999998
 30
0.0
 11
104.388972688396
 21
-4.762499999999998
 31
0.0
  0
LINE
  5
169
330
1F
100
AcDbEntity
  8
참조1
100
AcDbLine
 10
104.388972688396
 20
-4.762499999999998
 30
0.0
 11
104.388972688396
 21
-6.927248606176849
 31
0.0
  0
LINE
  5
16A
330
1F
100
AcDbEntity
  8
참조1
100
AcDbLine
 10
56.45000000000004
 20
-40.31687058093274
 30
0.0
 11
31.77895019273432
 21
-40.31687058093274
 31
0.0
  0
CIRCLE
  5
16B
330
1F
100
AcDbEntity
  8
해칭선
100
AcDbCircle
 10
0.0
 20
0.0
 30
0.0
 40
8.000000000000012
  0
INSERT
  5
16C
330
1F
100
AcDbEntity
  8
0
  6
Continuous
 62
     7
100
AcDbBlockReference
 66
     1
  2
블럭10
 10
42.50972706787482
 20
-52.36404488257666
 30
0.0
  0
ATTRIB
  5
16D
330
16C
100
AcDbEntity
  8
FORMAT
 62
     2
100
AcDbText
 10
32.98741311727689
 20
-50.28867796974448
 30
0.0
 40
4.233333333333333
  1
E2226064 [ 3 FLUTE ]
 41
0.75
  7
SLDTEXTSTYLE0
 11
32.98741311727689
 21
-52.40534463641114
 31
0.0
100
AcDbAttribute
  2
AUTOATTR0
 70
     0
 74
     1
  0
SEQEND
  5
16E
330
16C
100
AcDbEntity
  8
0
  6
Continuous
 62
     7
  0
HATCH
  5
16F
330
1F
100
AcDbEntity
  8
중심선
100
AcDbHatch
 10
0.0
 20
0.0
 30
0.0
210
0.0
220
0.0
230
1.0
  2
SOLID
 70
     1
 71
     0
 91
        1
 92
        0
 93
        4
 72
     1
 10
48.22463637225567
 20
-36.11687058093274
 11
44.77836112841839
 21
-36.11687058093274
 72
     1
 10
44.7783611284184
 20
-36.11687058093274
 11
42.65013126921438
 21
-38.65319616150533
 72
     1
 10
42.65013126921437
 20
-38.65319616150533
 11
46.0964395981648
 21
-38.65315673220285
 72
     1
 10
46.09643959816481
 20
-38.65315673220285
 11
48.22463637225568
 21
-36.11687058093274
 97
        0
 75
     0
 76
     1
 98
        1
 10
55.97500000000002
 20
-0.3168705809327366
  0
HATCH
  5
170
330
1F
100
AcDbEntity
  8
중심선
100
AcDbHatch
 10
0.0
 20
0.0
 30
0.0
210
0.0
220
0.0
230
1.0
  2
SOLID
 70
     1
 71
     0
 91
        1
 92
        0
 93
        4
 72
     1
 10
53.23740036329166
 20
-36.11687058093274
 11
49.79112511945437
 21
-36.11687058093274
 72
     1
 10
49.79112511945437
 20
-36.11687058093274
 11
45.25998711109696
 21
-41.51687058093276
 72
     1
 10
45.25998711109696
 20
-41.51687058093276
 11
48.70626235493424
 21
-41.51687058093276
 72
     1
 10
48.70626235493424
 20
-41.51687058093276
 11
53.23740036329166
 21
-36.11687058093274
 97
        0
 75
     0
 76
     1
 98
        1
 10
55.97500000000002
 20
-0.3168705809327366
  0
HATCH
  5
171
330
1F
100
AcDbEntity
  8
중심선
100
AcDbHatch
 10
0.0
 20
0.0
 30
0.0
210
0.0
220
0.0
230
1.0
  2
SOLID
 70
     1
 71
     0
 91
        1
 92
        0
 93
        4
 72
     1
 10
58.25016435432758
 20
-36.11687058093271
 11
54.80388911049041
 21
-36.11687058093273
 72
     1
 10
54.80388911049041
 20
-36.11687058093274
 11
47.75545220860116
 21
-44.51687058093276
 72
     1
 10
47.75545220860116
 20
-44.51687058093276
 11
51.20172745243844
 21
-44.51687058093276
 72
     1
 10
51.20172745243844
 20
-44.51687058093276
 11
58.25016435432758
 21
-36.11687058093272
 97
        0
 75
     0
 76
     1
 98
        1
 10
55.97500000000002
 20
-0.3168705809327366
  0
HATCH
  5
172
330
1F
100
AcDbEntity
  8
중심선
100
AcDbHatch
 10
0.0
 20
0.0
 30
0.0
210
0.0
220
0.0
230
1.0
  2
SOLID
 70
     1
 71
     0
 91
        1
 92
        0
 93
        6
 72
     3
 10
63.05005478533973
 20
-40.31687058098402
 11
3.960054785062283
 21
1.540882976769353E-10
 40
0.3939339440162628
 50
17.09539180608439
 51
320.0019657685082
 73
     0
 72
     1
 10
64.7330544410403
 20
-38.90476458557107
 11
67.03835631474139
 21
-36.97043787552312
 72
     3
 10
63.05005478528687
 20
-40.3168705809329
 11
6.600054785286829
 21
-1.278976924368180E-13
 40
0.636358354079598
 50
39.99873849337382
 51
368.4976242363724
 73
     1
 72
     1
 10
69.47538727718748
 20
-39.35687058086275
 11
61.7301220921228
 21
-39.35687058086275
 72
     1
 10
61.7301220921228
 20
-39.35687058086275
 11
61.73009704767686
 21
-41.27687058086265
 72
     1
 10
61.73009704767686
 20
-41.27687058086265
 11
66.1714768171489
 21
-41.27687058086262
 97
        0
 75
     0
 76
     1
 98
        1
 10
55.97500000000002
 20
-0.3168705809327366
  0
DIMENSION
  5
174
330
1F
100
AcDbEntity
  8
치수문자_일반주서
100
AcDbDimension
  2
_D
 10
131.6110590785465
 20
-12.69999999999985
 30
0.0
 11
131.6110590785462
 21
57.08866666666708
 31
0.0
 70
   160
  1
%%c<>
 71
     2
 42
25.4
 52
-270.0
  3
SLDDIMSTYLE0
100
AcDbAlignedDimension
 13
88.2
 23
12.7
 33
0.0
 14
88.2
 24
-12.7
 34
0.0
 50
90.0000000000002
100
AcDbRotatedDimension
1001
ACAD
1000
DSTYLE
1002
{
1070
   171
1070
     6
1070
   273
1070
     7
1002
}
  0
DIMENSION
  5
187
330
1F
100
AcDbEntity
  8
치수문자_일반주서
100
AcDbDimension
  2
_D_1
 10
-77.59749999999998
 20
-12.70000000000015
 30
0.0
 11
-77.59750000000003
 21
-0.0000000000001386
 31
0.0
 70
   160
  1
%%c<>
 71
     2
 42
25.40000000000001
 52
-270.0
  3
SLDDIMSTYLE1
100
AcDbAlignedDimension
 13
-48.77083333333326
 23
12.69999999999997
 33
0.0
 14
-48.77083333333326
 24
-12.70000000000004
 34
0.0
 50
90.0000000000002
100
AcDbRotatedDimension
1001
ACAD
1000
DSTYLE
1002
{
1070
   171
1070
     6
1070
   273
1070
     7
1002
}
  0
DIMENSION
  5
19C
330
1F
100
AcDbEntity
  8
치수문자_일반주서
100
AcDbDimension
  2
_D_2
 10
12.0
 20
54.43054078405299
 30
0.0
 11
58.56666666666672
 21
54.43054078405299
 31
0.0
 70
   160
  1
<>
 71
     2
 42
76.20000000000002
  3
SLDDIMSTYLE0
100
AcDbAlignedDimension
 13
88.20000000000002
 23
8.223300350377965
 33
0.0
 14
12.0
 24
12.7
 34
0.0
 50
-0.0000000000000183
100
AcDbRotatedDimension
1001
ACAD
1000
DSTYLE
1002
{
1070
   171
1070
     6
1070
   273
1070
     7
1002
}
  0
DIMENSION
  5
1B0
330
1F
100
AcDbEntity
  8
치수문자_일반주서
100
AcDbDimension
  2
_D_3
 10
-51.49999999999997
 20
101.2073873082609
 30
0.0
 11
18.35000000000002
 21
101.2073873082609
 31
0.0
 70
   160
  1
<>
 71
     2
 42
139.7
  3
SLDDIMSTYLE2
100
AcDbAlignedDimension
 13
88.20000000000002
 23
9.672706871930261
 33
0.0
 14
-51.49999999999997
 24
10.03333333333331
 34
0.0
100
AcDbRotatedDimension
1001
ACAD
1000
DSTYLE
1002
{
1070
   171
1070
     6
1070
   273
1070
     7
1002
}
  0
LINE
  5
1C4
330
1F
100
AcDbEntity
  8
참조1
100
AcDbLine
 10
129.7512908223886
 20
7.123129419067266
 30
0.0
 11
129.7512908223886
 21
-7.756870580932739
 31
0.0
  0
LINE
  5
1C5
330
1F
100
AcDbEntity
  8
참조1
100
AcDbLine
 10
142.4512908223886
 20
5.123129419067266
 30
0.0
 11
129.7512908223886
 21
5.123129419067266
 31
0.0
  0
SOLID
  5
1C6
330
1F
100
AcDbEntity
  8
참조1
100
AcDbTrace
 10
129.7512908223886
 20
5.123129419067266
 30
0.0
 11
136.1012908223886
 21
4.107129419067266
 31
0.0
 12
136.1012908223886
 22
6.139129419067266
 32
0.0
 13
136.1012908223886
 23
6.139129419067266
 33
0.0
  0
LINE
  5
1C7
330
1F
100
AcDbEntity
  8
참조1
100
AcDbLine
 10
142.4512908223886
 20
-5.756870580932739
 30
0.0
 11
129.7512908223886
 21
-5.756870580932739
 31
0.0
  0
SOLID
  5
1C8
330
1F
100
AcDbEntity
  8
참조1
100
AcDbTrace
 10
129.7512908223886
 20
-5.756870580932739
 30
0.0
 11
136.1012908223886
 21
-6.772870580932739
 31
0.0
 12
136.1012908223886
 22
-4.740870580932738
 32
0.0
 13
136.1012908223886
 23
-4.740870580932738
 33
0.0
  0
MTEXT
  5
1C9
330
1F
100
AcDbEntity
  8
참조1
100
AcDbMText
 10
139.3514056329512
 20
10.74884698508335
 30
0.0
 40
3.5
 41
0.0
 71
     1
 72
     1
  1
A
  7
SLDTEXTSTYLE0
 73
     1
 44
1.0
  0
MTEXT
  5
1CA
330
1F
100
AcDbEntity
  8
참조1
100
AcDbMText
 10
139.3514056329512
 20
-0.131153014916663
 30
0.0
 40
3.5
 41
0.0
 71
     1
 72
     1
  1
A
  7
SLDTEXTSTYLE0
 73
     1
 44
1.0
  0
INSERT
  5
1D1
330
1F
100
AcDbEntity
  8
해칭선
100
AcDbBlockReference
  2
SW_DOWELSYMBOL_0
 10
0.0
 20
0.0
 30
0.0
 41
2.666666666666667
 42
2.666666666666667
 43
2.666666666666667
  0
LINE
  5
21C
330
1F
100
AcDbEntity
  8
외형선
  6
Continuous
370
    15
100
AcDbLine
 10
12.0
 20
12.7
 30
0.0
 11
12.0
 21
-12.7
 31
0.0
  0
SPLINE
  5
220
330
1F
100
AcDbEntity
  8
외형선
  6
Continuous
 62
     1
370
    15
100
AcDbSpline
210
0.0
220
0.0
230
1.0
 70
     8
 71
     3
 72
    10
 73
     6
 74
     0
 42
0.000000001
 43
0.00000001
 40
0.0
 40
0.0
 40
0.0
 40
0.0
 40
0.5
 40
0.5
 40
1.0
 40
1.0
 40
1.0
 40
1.0
 10
28.93333333333566
 20
0.1733457083588337
 30
0.0
 10
28.66608754490633
 20
0.3485016380176442
 30
0.0
 10
28.35065381095251
 20
0.5241536614270315
 30
0.0
 10
27.73422925488742
 20
0.8577086952532365
 30
0.0
 10
27.43613912544755
 20
1.014641284894889
 30
0.0
 10
22.95688997774908
 20
2.403824168644634
 30
0.0
  0
SPLINE
  5
22F
330
1F
100
AcDbEntity
  8
외형선
  6
Continuous
 62
     1
370
    15
100
AcDbSpline
210
0.0
220
0.0
230
1.0
 70
     8
 71
     3
 72
    10
 73
     6
 74
     0
 42
0.000000001
 43
0.00000001
 40
0.0
 40
0.0
 40
0.0
 40
0.0
 40
0.4999999999999999
 40
0.4999999999999999
 40
1.0
 40
1.0
 40
1.0
 40
1.0
 10
28.9333311662793
 20
7.812409698411669
 30
0.0
 10
27.95370346026544
 20
8.20537668459001
 30
0.0
 10
26.9695296280095
 20
8.571732280132952
 30
0.0
 10
25.01825051504261
 20
9.24171166153393
 30
0.0
 10
24.04338517623195
 20
9.546360370560205
 30
0.0
 10
23.06218631364422
 20
9.81851973148369
 30
0.0
  0
SPLINE
  5
230
330
1F
100
AcDbEntity
  8
외형선
  6
Continuous
 62
     1
370
    15
100
AcDbSpline
210
0.0
220
0.0
230
1.0
 70
     8
 71
     3
 72
    14
 73
    10
 74
     0
 42
0.000000001
 43
0.00000001
 40
0.0
 40
0.0
 40
0.0
 40
0.0
 40
0.0000587306811025
 40
0.0000587306811025
 40
0.0000587306811025
 40
0.0001174268903101
 40
0.0001174268903101
 40
0.0001174268903101
 40
0.0002032418961792
 40
0.0002032418961792
 40
0.0002032418961792
 40
0.0002032418961792
 10
22.6228728397928
 20
9.820842343336771
 30
0.0
 10
22.65993338205467
 20
9.833337250336953
 30
0.0
 10
22.6993898570028
 20
9.84206767786695
 30
0.0
 10
22.7402791992544
 20
9.847069823591518
 30
0.0
 10
22.78115351216034
 20
9.852070130720186
 30
0.0
 10
22.82373709558798
 20
9.853383151964188
 30
0.0
 10
22.86717710902728
 20
9.851107455771178
 30
0.0
 10
22.93046773766237
 20
9.84779184347655
 30
0.0
 10
22.99630629839755
 20
9.836793156851208
 30
0.0
 10
23.06218721589971
 20
9.818519481221186
 30
0.0
  0
SPLINE
  5
231
330
1F
100
AcDbEntity
  8
외형선
  6
Continuous
 62
     1
370
    15
100
AcDbSpline
210
0.0
220
0.0
230
1.0
 70
     8
 71
     3
 72
    10
 73
     6
 74
     0
 42
0.000000001
 43
0.00000001
 40
0.0
 40
0.0
 40
0.0
 40
0.0
 40
0.5000000000000002
 40
0.5000000000000002
 40
1.0
 40
1.0
 40
1.0
 40
1.0
 10
20.87377767786104
 20
10.24693480220296
 30
0.0
 10
21.14077468985912
 20
10.01446162030841
 30
0.0
 10
21.45592870234147
 20
9.86944937081622
 30
0.0
 10
22.07230256782712
 20
9.730585348638797
 30
0.0
 10
22.37078798578024
 20
9.735852307712134
 30
0.0
 10
22.62287283979168
 20
9.820842343335993
 30
0.0
  0
SPLINE
  5
232
330
1F
100
AcDbEntity
  8
외형선
  6
Continuous
 62
     1
370
    15
100
AcDbSpline
210
0.0
220
0.0
230
1.0
 70
     8
 71
     3
 72
    10
 73
     6
 74
     0
 42
0.000000001
 43
0.00000001
 40
0.0
 40
0.0
 40
0.0
 40
0.0
 40
0.4999999999999999
 40
0.4999999999999999
 40
1.0
 40
1.0
 40
1.0
 40
1.0
 10
20.87377551080698
 20
10.24693859651485
 30
0.0
 10
19.89414780479312
 20
10.6399055826932
 30
0.0
 10
18.90997397253717
 20
11.00626117823614
 30
0.0
 10
16.95869485957029
 20
11.67624055963712
 30
0.0
 10
15.98382952075963
 20
11.98088926866339
 30
0.0
 10
15.0026306581719
 20
12.25304862958687
 30
0.0
  0
SPLINE
  5
233
330
1F
100
AcDbEntity
  8
외형선
  6
Continuous
 62
     1
370
    15
100
AcDbSpline
210
0.0
220
0.0
230
1.0
 70
     8
 71
     3
 72
    14
 73
    10
 74
     0
 42
0.000000001
 43
0.00000001
 40
0.0
 40
0.0
 40
0.0
 40
0.0
 40
0.0000587306811025
 40
0.0000587306811025
 40
0.0000587306811025
 40
0.0001174268903101
 40
0.0001174268903101
 40
0.0001174268903101
 40
0.0002032418961792
 40
0.0002032418961792
 40
0.0002032418961792
 40
0.0002032418961792
 10
14.56331718432047
 20
12.25537124143996
 30
0.0
 10
14.60037772658235
 20
12.26786614844014
 30
0.0
 10
14.63983420153048
 20
12.27659657597014
 30
0.0
 10
14.68072354378208
 20
12.2815987216947
 30
0.0
 10
14.72159785668802
 20
12.28659902882337
 30
0.0
 10
14.76418144011566
 20
12.28791205006737
 30
0.0
 10
14.80762145355496
 20
12.28563635387436
 30
0.0
 10
14.87091208219005
 20
12.28232074157973
 30
0.0
 10
14.93675064292523
 20
12.27132205495439
 30
0.0
 10
15.00263156042739
 20
12.25304837932437
 30
0.0
  0
SPLINE
  5
234
330
1F
100
AcDbEntity
  8
외형선
  6
Continuous
 62
     1
370
    15
100
AcDbSpline
210
0.0
220
0.0
230
1.0
 70
     8
 71
     3
 72
    10
 73
     6
 74
     0
 42
0.000000001
 43
0.00000001
 40
0.0
 40
0.0
 40
0.0
 40
0.0
 40
0.5000000000000002
 40
0.5000000000000002
 40
1.0
 40
1.0
 40
1.0
 40
1.0
 10
12.81422202238872
 20
12.68146370030615
 30
0.0
 10
13.0812190343868
 20
12.44899051841159
 30
0.0
 10
13.39637304686914
 20
12.3039782689194
 30
0.0
 10
14.0127469123548
 20
12.16511424674198
 30
0.0
 10
14.31123233030792
 20
12.17038120581532
 30
0.0
 10
14.56331718431936
 20
12.25537124143918
 30
0.0
  0
LINE
  5
235
330
1F
100
AcDbEntity
  8
외형선
  6
Continuous
 62
     1
370
    15
100
AcDbLine
 10
12.0
 20
12.69999999999998
 30
0.0
 11
12.81422202238872
 21
12.68146370030615
 31
0.0
  0
SPLINE
  5
237
330
1F
100
AcDbEntity
  8
외형선
  6
Continuous
 62
     1
370
    15
100
AcDbSpline
210
0.0
220
0.0
230
1.0
 70
     8
 71
     3
 72
    14
 73
    10
 74
     0
 42
0.000000001
 43
0.00000001
 40
0.0
 40
0.0
 40
0.0
 40
0.0
 40
0.0000587638821223
 40
0.0000587638821223
 40
0.0000587638821223
 40
0.0001174930229376
 40
0.0001174930229376
 40
0.0001174930229376
 40
0.0002033589875324
 40
0.0002033589875324
 40
0.0002033589875324
 40
0.0002033589875324
 10
31.44548263844805
 20
-1.370958696128321
 30
0.0
 10
31.40841040607287
 20
-1.336386698743244
 30
0.0
 10
31.36894336502743
 20
-1.302746919123996
 30
0.0
 10
31.32804615104423
 20
-1.270654401752577
 30
0.0
 10
31.28716407382741
 20
-1.238573762376996
 30
0.0
 10
31.2445754483657
 20
-1.207819039968486
 30
0.0
 10
31.20113354875376
 20
-1.178933479642532
 30
0.0
 10
31.13783767175863
 20
-1.136846533867615
 30
0.0
 10
31.0720014611768
 20
-1.098254466470903
 30
0.0
 10
31.00612743718767
 20
-1.064831986315522
 30
0.0
  0
SPLINE
  5
23C
330
1F
100
AcDbEntity
  8
외형선
  6
Continuous
 62
     1
370
    15
100
AcDbSpline
210
0.0
220
0.0
230
1.0
 70
     8
 71
     3
 72
    10
 73
     6
 74
     0
 42
0.000000001
 43
0.00000001
 40
0.0
 40
0.0
 40
0.0
 40
0.0
 40
0.5
 40
0.5
 40
1.0
 40
1.0
 40
1.0
 40
1.0
 10
22.95688997774908
 20
2.403824168644634
 30
0.0
 10
22.68981547431386
 20
2.441214150277608
 30
0.0
 10
22.37453150914508
 20
2.549874585753434
 30
0.0
 10
21.75810093331796
 20
2.866076643678571
 30
0.0
 10
21.45978071943055
 20
3.071474321252259
 30
0.0
 10
21.20784170362629
 20
3.306422001431691
 30
0.0
  0
SPLINE
  5
23D
330
1F
100
AcDbEntity
  8
외형선
  6
Continuous
 62
     1
370
    15
100
AcDbSpline
210
0.0
220
0.0
230
1.0
 70
     8
 71
     3
 72
    14
 73
    10
 74
     0
 42
0.000000001
 43
0.00000001
 40
0.0
 40
0.0
 40
0.0
 40
0.0
 40
0.0000587638821223
 40
0.0000587638821223
 40
0.0000587638821223
 40
0.0001174930229376
 40
0.0001174930229376
 40
0.0001174930229376
 40
0.0002033589875324
 40
0.0002033589875324
 40
0.0002033589875324
 40
0.0002033589875324
 10
21.20784170362492
 20
3.306422001432184
 30
0.0
 10
21.17076947124975
 20
3.340993998817261
 30
0.0
 10
21.13130243020431
 20
3.374633778436509
 30
0.0
 10
21.09040521622111
 20
3.406726295807927
 30
0.0
 10
21.04952313900429
 20
3.438806935183509
 30
0.0
 10
21.00693451354257
 20
3.469561657592019
 30
0.0
 10
20.96349261393063
 20
3.498447217917973
 30
0.0
 10
20.90019673693551
 20
3.54053416369289
 30
0.0
 10
20.83436052635367
 20
3.579126231089602
 30
0.0
 10
20.76848650236455
 20
3.612548711244983
 30
0.0
  0
SPLINE
  5
23E
330
1F
100
AcDbEntity
  8
외형선
  6
Continuous
 62
     1
370
    15
100
AcDbSpline
210
0.0
220
0.0
230
1.0
 70
     8
 71
     3
 72
    10
 73
     6
 74
     0
 42
0.000000001
 43
0.00000001
 40
0.0
 40
0.0
 40
0.0
 40
0.0
 40
0.5
 40
0.5
 40
1.0
 40
1.0
 40
1.0
 40
1.0
 10
20.76848645572636
 20
3.612548734907789
 30
0.0
 10
19.79071622620308
 20
4.108639668499853
 30
0.0
 10
18.81761960164775
 20
4.585938874405834
 30
0.0
 10
16.85410103543385
 20
5.498624242234736
 30
0.0
 10
15.87256276638652
 20
5.932514211345751
 30
0.0
 10
14.89896143564258
 20
6.339164856507933
 30
0.0
  0
SPLINE
  5
23F
330
1F
100
AcDbEntity
  8
외형선
  6
Continuous
 62
     1
370
    15
100
AcDbSpline
210
0.0
220
0.0
230
1.0
 70
     8
 71
     3
 72
    10
 73
     6
 74
     0
 42
0.000000001
 43
0.00000001
 40
0.0
 40
0.0
 40
0.0
 40
0.0
 40
0.5
 40
0.5
 40
1.0
 40
1.0
 40
1.0
 40
1.0
 10
14.46479985778983
 20
6.404749407831229
 30
0.0
 10
14.19844873797471
 20
6.352158279405522
 30
0.0
 10
13.88386801481877
 20
6.398354160593659
 30
0.0
 10
13.26856998592612
 20
6.639245481214797
 30
0.0
 10
12.97071709521236
 20
6.831616526863899
 30
0.0
 10
12.71924904292396
 20
7.081204866234351
 30
0.0
  0
SPLINE
  5
240
330
1F
100
AcDbEntity
  8
외형선
  6
Continuous
 62
     1
370
    15
100
AcDbSpline
210
0.0
220
0.0
230
1.0
 70
     8
 71
     3
 72
     8
 73
     4
 74
     0
 42
0.000000001
 43
0.00000001
 40
0.0
 40
0.0
 40
0.0
 40
0.0
 40
1.0
 40
1.0
 40
1.0
 40
1.0
 10
14.8989615813442
 20
6.339164795651762
 30
0.0
 10
14.74847236217452
 20
6.402020644927559
 30
0.0
 10
14.59539219789708
 20
6.430534914325991
 30
0.0
 10
14.46479985779084
 20
6.404749407831325
 30
0.0
  0
SPLINE
  5
241
330
1F
100
AcDbEntity
  8
외형선
  6
Continuous
 62
     1
370
    15
100
AcDbSpline
210
0.0
220
0.0
230
1.0
 70
     8
 71
     3
 72
    14
 73
    10
 74
     0
 42
0.000000001
 43
0.00000001
 40
0.0
 40
0.0
 40
0.0
 40
0.0
 40
0.0000585787738706
 40
0.0000585787738706
 40
0.0000585787738706
 40
0.0001171232780005
 40
0.0001171232780005
 40
0.0001171232780005
 40
0.0001965323787008
 40
0.0001965323787008
 40
0.0001965323787008
 40
0.0001965323787008
 10
12.71924904292263
 20
7.081204866235163
 30
0.0
 10
12.68230333594124
 20
7.11787440563938
 30
0.0
 10
12.64296572590298
 20
7.152268228092995
 30
0.0
 10
12.60219616584586
 20
7.183829134097245
 30
0.0
 10
12.56144153648996
 20
7.215378481810063
 30
0.0
 10
12.51897936185455
 20
7.244315074160749
 30
0.0
 10
12.47566062855119
 20
7.270172058944629
 30
0.0
 10
12.41710904117725
 20
7.305121545883641
 30
0.0
 10
12.35636499312468
 20
7.334800939131718
 30
0.0
 10
12.0
 20
7.316082700191804
 30
0.0
  0
SPLINE
  5
242
330
1F
100
AcDbEntity
  8
외형선
  6
Continuous
 62
     1
370
    15
100
AcDbSpline
210
0.0
220
0.0
230
1.0
 70
     8
 71
     3
 72
    10
 73
     6
 74
     0
 42
0.000000001
 43
0.00000001
 40
0.0
 40
0.0
 40
0.0
 40
0.0
 40
0.5
 40
0.5
 40
0.9274705290484854
 40
0.9274705290484854
 40
0.9274705290484854
 40
0.9274705290484854
 10
28.50347074786795
 20
0.4351534118039897
 30
0.0
 10
28.35311839586262
 20
1.86479314462808
 30
0.0
 10
28.20255046714958
 20
3.345823392034519
 30
0.0
 10
27.9430609748775
 20
5.961197915933252
 30
0.0
 10
27.81495396673097
 20
7.168318903687931
 30
0.0
 10
27.68639372624597
 20
8.297321596830281
 30
0.0
  0
SPLINE
  5
243
330
1F
100
AcDbEntity
  8
외형선
  6
Continuous
 62
     1
370
    15
100
AcDbSpline
210
0.0
220
0.0
230
1.0
 70
     8
 71
     3
 72
    12
 73
     8
 74
     0
 42
0.000000001
 43
0.00000001
 40
0.0
 40
0.0
 40
0.0
 40
0.0
 40
0.25
 40
0.25
 40
0.5
 40
0.5
 40
0.912957293739408
 40
0.912957293739408
 40
0.912957293739408
 40
0.912957293739408
 10
28.06404913754033
 20
0.6748813691233106
 30
0.0
 10
27.98918125633793
 20
1.397576273338722
 30
0.0
 10
27.91426778746769
 20
2.131858798330021
 30
0.0
 10
27.7676632631003
 20
3.59065869764631
 30
0.0
 10
27.69726206895531
 20
4.310779469843555
 30
0.0
 10
27.51097657741377
 20
6.192524499687252
 30
0.0
 10
27.38751292363312
 20
7.36110524203064
 30
0.0
 10
27.2638739306848
 20
8.454723090656238
 30
0.0
  0
SPLINE
  5
244
330
1F
100
AcDbEntity
  8
외형선
  6
Continuous
 62
     1
370
    15
100
AcDbSpline
210
0.0
220
0.0
230
1.0
 70
     8
 71
     3
 72
    10
 73
     6
 74
     0
 42
0.000000001
 43
0.00000001
 40
0.0
 40
0.0
 40
0.0
 40
0.0
 40
0.5
 40
0.5
 40
0.81511357244539
 40
0.81511357244539
 40
0.81511357244539
 40
0.81511357244539
 10
20.76848645572636
 20
3.61254873490779
 30
0.0
 10
20.61813410372103
 20
5.04218846773188
 30
0.0
 10
20.46756617500799
 20
6.523218715138318
 30
0.0
 10
20.23951212861695
 20
8.821757811194395
 30
0.0
 10
20.14672551442594
 20
9.711268677137282
 30
0.0
 10
20.05254209158401
 20
10.56972971583397
 30
0.0
  0
SPLINE
  5
245
330
1F
100
AcDbEntity
  8
외형선
  6
Continuous
 62
     1
370
    15
100
AcDbSpline
210
0.0
220
0.0
230
1.0
 70
     8
 71
     3
 72
    12
 73
     8
 74
     0
 42
0.000000001
 43
0.00000001
 40
0.0
 40
0.0
 40
0.0
 40
0.0
 40
0.25
 40
0.25
 40
0.5
 40
0.5
 40
0.8014322935203559
 40
0.8014322935203559
 40
0.8014322935203559
 40
0.8014322935203559
 10
20.32906484539873
 20
3.852276692227111
 30
0.0
 10
20.25419696419633
 20
4.574971596442522
 30
0.0
 10
20.17928349532609
 20
5.309254121433821
 30
0.0
 10
20.03267897095871
 20
6.768054020750109
 30
0.0
 10
19.96227777681372
 20
7.488174792947355
 30
0.0
 10
19.8073298837588
 20
9.05336607664883
 30
0.0
 10
19.71867324938486
 20
9.907057044276868
 30
0.0
 10
19.62887986955025
 20
10.73108138093654
 30
0.0
  0
SPLINE
  5
246
330
1F
100
AcDbEntity
  8
외형선
  6
Continuous
 62
     1
370
    15
100
AcDbSpline
210
0.0
220
0.0
230
1.0
 70
     8
 71
     3
 72
    10
 73
     6
 74
     0
 42
0.000000001
 43
0.00000001
 40
0.0
 40
0.0
 40
0.0
 40
0.0
 40
0.5
 40
0.5
 40
0.8632622547583906
 40
0.8632622547583906
 40
0.8632622547583906
 40
0.8632622547583906
 10
22.95688997774908
 20
2.403824168644634
 30
0.0
 10
22.80653762574374
 20
3.833463901468725
 30
0.0
 10
22.65596969703071
 20
5.314494148875163
 30
0.0
 10
22.41444451949787
 20
7.74880773386288
 30
0.0
 10
22.30666589617455
 20
8.77439636563698
 30
0.0
 10
22.19768621108295
 20
9.75222936640642
 30
0.0
  0
SPLINE
  5
247
330
1F
100
AcDbEntity
  8
외형선
  6
Continuous
 62
     1
370
    15
100
AcDbSpline
210
0.0
220
0.0
230
1.0
 70
     8
 71
     3
 72
    12
 73
     8
 74
     0
 42
0.000000001
 43
0.00000001
 40
0.0
 40
0.0
 40
0.0
 40
0.0
 40
0.25
 40
0.25
 40
0.5
 40
0.5
 40
0.8348030403882134
 40
0.8348030403882134
 40
0.8348030403882134
 40
0.8348030403882134
 10
22.47586431271186
 20
2.528657252090653
 30
0.0
 10
22.44260048621905
 20
3.366247030179367
 30
0.0
 10
22.36768701734881
 20
4.100529555170666
 30
0.0
 10
22.22108249298142
 20
5.559329454486954
 30
0.0
 10
22.15068129883644
 20
6.279450226684199
 30
0.0
 10
21.98635650316336
 20
7.939361393029347
 30
0.0
 10
21.88739840988588
 20
8.88732881620562
 30
0.0
 10
21.78742308121237
 20
9.794904803833765
 30
0.0
  0
SPLINE
  5
248
330
1F
100
AcDbEntity
  8
외형선
  6
Continuous
 62
     1
370
    15
100
AcDbSpline
210
0.0
220
0.0
230
1.0
 70
     8
 71
     3
 72
    10
 73
     6
 74
     0
 42
0.000000001
 43
0.00000001
 40
0.0
 40
0.0
 40
0.0
 40
0.0
 40
0.5
 40
0.5
 40
0.6823608267584085
 40
0.6823608267584085
 40
0.6823608267584085
 40
0.6823608267584085
 10
14.89896143564258
 20
6.339164856507933
 30
0.0
 10
14.74860908363724
 20
7.768804589332023
 30
0.0
 10
14.5980411549242
 20
9.249834836738462
 30
0.0
 10
14.40712892759601
 20
11.17402441097896
 30
0.0
 10
14.35455919430133
 20
11.68857255981731
 30
0.0
 10
14.30106638716746
 20
12.19723278808033
 30
0.0
  0
SPLINE
  5
249
330
1F
100
AcDbEntity
  8
외형선
  6
Continuous
 62
     1
370
    15
100
AcDbSpline
210
0.0
220
0.0
230
1.0
 70
     8
 71
     3
 72
    12
 73
     8
 74
     0
 42
0.000000001
 43
0.00000001
 40
0.0
 40
0.0
 40
0.0
 40
0.0
 40
0.25
 40
0.25
 40
0.5
 40
0.5
 40
0.6505223209308437
 40
0.6505223209308437
 40
0.6505223209308437
 40
0.6505223209308437
 10
14.46479985779084
 20
6.404749407831325
 30
0.0
 10
14.38467194411255
 20
7.301587718042665
 30
0.0
 10
14.3097584752423
 20
8.035870243033964
 30
0.0
 10
14.16315395087492
 20
9.494670142350254
 30
0.0
 10
14.09275275672994
 20
10.2147909145475
 30
0.0
 10
13.98020931217846
 20
11.35163772786475
 30
0.0
 10
13.9369271670678
 20
11.77840868846277
 30
0.0
 10
13.89300953011298
 20
12.20124870701923
 30
0.0
  0
SPLINE
  5
24A
330
1F
100
AcDbEntity
  8
외형선
  6
Continuous
 62
     1
370
    15
100
AcDbSpline
210
0.0
220
0.0
230
1.0
 70
     8
 71
     3
 72
    10
 73
     6
 74
     0
 42
0.000000001
 43
0.00000001
 40
0.0
 40
0.0
 40
0.0
 40
0.0
 40
0.5
 40
0.5
 40
0.6534177268833518
 40
0.6534177268833518
 40
0.6534177268833518
 40
0.6534177268833518
 10
12.71924904292396
 20
7.081204866234351
 30
0.0
 10
12.56889669091863
 20
8.51084459905844
 30
0.0
 10
12.41832876220559
 20
9.99187484646488
 30
0.0
 10
12.23551429114688
 20
11.83444776153936
 30
0.0
 10
12.19149483393771
 20
12.26728901464593
 30
0.0
 10
12.14675180738668
 20
12.69665909861494
 30
0.0
  0
SPLINE
  5
24B
330
1F
100
AcDbEntity
  8
외형선
  6
Continuous
 62
     1
370
    15
100
AcDbSpline
210
0.0
220
0.0
230
1.0
 70
     8
 71
     3
 72
    10
 73
     6
 74
     0
 42
0.000000001
 43
0.00000001
 40
0.0
 40
0.0
 40
0.0
 40
0.0
 40
0.25
 40
0.25
 40
0.3151251500596407
 40
0.3151251500596407
 40
0.3151251500596407
 40
0.3151251500596407
 10
12.27982743259633
 20
7.320932823553672
 30
0.0
 10
12.20495955139393
 20
8.043627727769083
 30
0.0
 10
12.13004608252369
 20
8.777910252760382
 30
0.0
 10
12.0376485370423
 20
9.69731932711845
 30
0.0
 10
12.01875012185422
 20
9.886698761614257
 30
0.0
 10
12.0
 20
10.07542660432408
 30
0.0
  0
SPLINE
  5
24C
330
1F
100
AcDbEntity
  8
외형선
  6
Continuous
 62
     1
370
    15
100
AcDbSpline
210
0.0
220
0.0
230
1.0
 70
    24
 71
     3
 72
     8
 73
     4
 74
     0
 42
0.000000001
 43
0.0000000001
 40
0.0
 40
0.0
 40
0.0
 40
0.0
 40
4.860734575417174
 40
4.860734575417174
 40
4.860734575417174
 40
4.860734575417174
 10
28.93333333333337
 20
10.91082519986922
 30
0.0
 10
27.38705766136872
 20
10.42685727975831
 30
0.0
 10
25.84078198940406
 20
9.942889359647408
 30
0.0
 10
24.2945063174394
 20
9.458921439536507
 30
0.0
  0
LINE
  5
24D
330
1F
100
AcDbEntity
  8
외형선
  6
Continuous
 62
     1
370
    15
100
AcDbLine
 10
22.75094537681905
 20
-12.70611827736727
 30
0.0
 11
28.28154226293116
 21
-12.70611827736727
 31
0.0
  0
SPLINE
  5
24E
330
1F
100
AcDbEntity
  8
외형선
  6
Continuous
 62
     1
370
    15
100
AcDbSpline
210
0.0
220
0.0
230
1.0
 70
     8
 71
     3
 72
     9
 73
     5
 74
     0
 42
0.000000001
 43
0.00000001
 40
0.0
 40
0.0
 40
0.0
 40
0.0
 40
0.5028193248694652
 40
1.0
 40
1.0
 40
1.0
 40
1.0
 10
28.28164734885755
 20
-12.7061182769183
 30
0.0
 10
28.37284525857354
 20
-12.69817682515986
 30
0.0
 10
28.55421837851012
 20
-12.68238297761729
 30
0.0
 10
28.71406279305405
 20
-12.57723192546699
 30
0.0
 10
28.79353434699284
 20
-12.52495285436823
 30
0.0
  0
SPLINE
  5
24F
330
1F
100
AcDbEntity
  8
외형선
  6
Continuous
 62
     1
370
    15
100
AcDbSpline
210
0.0
220
0.0
230
1.0
 70
     8
 71
     3
 72
    11
 73
     7
 74
     0
 42
0.000000001
 43
0.00000001
 40
0.0
 40
0.0
 40
0.0
 40
0.0
 40
0.2457331235047843
 40
0.4998353072463358
 40
0.7540070196458815
 40
1.0
 40
1.0
 40
1.0
 40
1.0
 10
28.78672201369721
 20
-12.53009532279952
 30
0.0
 10
28.89802809365857
 20
-12.45842066067991
 30
0.0
 10
29.12443106238486
 20
-12.31263027535716
 30
0.0
 10
29.55436739418393
 20
-12.25047966814932
 30
0.0
 10
29.98423709385907
 20
-12.32830340330322
 30
0.0
 10
30.21013324756547
 20
-12.48536709952371
 30
0.0
 10
30.71389236701287
 20
-12.70000000000002
 30
0.0
  0
SPLINE
  5
250
330
1F
100
AcDbEntity
  8
외형선
  6
Continuous
 62
     1
370
    15
100
AcDbSpline
210
0.0
220
0.0
230
1.0
 70
     8
 71
     3
 72
    10
 73
     6
 74
     0
 42
0.000000001
 43
0.00000001
 40
0.0
 40
0.0
 40
0.0
 40
0.0
 40
0.5000000000000001
 40
0.5000000000000001
 40
1.0
 40
1.0
 40
1.0
 40
1.0
 10
28.52420631277614
 20
-12.45625709692895
 30
0.0
 10
28.79126057596867
 20
-12.27471328507268
 30
0.0
 10
29.10651021527251
 20
-12.20485224970336
 30
0.0
 10
29.72289659974407
 20
-12.24571290337962
 30
0.0
 10
30.0212206706266
 20
-12.35458674961613
 30
0.0
 10
30.29073935645239
 20
-12.51030359515461
 30
0.0
  0
SPLINE
  5
251
330
1F
100
AcDbEntity
  8
외형선
  6
Continuous
 62
     1
370
    15
100
AcDbSpline
210
0.0
220
0.0
230
1.0
 70
     8
 71
     3
 72
     8
 73
     4
 74
     0
 42
0.000000001
 43
0.00000001
 40
0.0
 40
0.0
 40
0.0
 40
0.0
 40
1.0
 40
1.0
 40
1.0
 40
1.0
 10
28.08897474759926
 20
-12.5648497045817
 30
0.0
 10
28.23984298377095
 20
-12.57779395459235
 30
0.0
 10
28.39328900682708
 20
-12.54525484021788
 30
0.0
 10
28.52420631277497
 20
-12.45625709692971
 30
0.0
  0
SPLINE
  5
252
330
1F
100
AcDbEntity
  8
외형선
  6
Continuous
 62
     1
370
    15
100
AcDbSpline
210
0.0
220
0.0
230
1.0
 70
     8
 71
     3
 72
    10
 73
     6
 74
     0
 42
0.000000001
 43
0.00000001
 40
0.0
 40
0.0
 40
0.0
 40
0.0
 40
0.5
 40
0.5
 40
1.0
 40
1.0
 40
1.0
 40
1.0
 10
28.08897467040273
 20
-12.56484969795834
 30
0.0
 10
27.10898397606217
 20
-12.48076808359437
 30
0.0
 10
26.13865039966495
 20
-12.3597511472601
 30
0.0
 10
24.17767100254267
 20
-12.04433154690218
 30
0.0
 10
23.1930851834928
 20
-11.84998641156732
 30
0.0
 10
22.21749926699302
 20
-11.62176917391424
 30
0.0
  0
LINE
  5
253
330
1F
100
AcDbEntity
  8
외형선
  6
Continuous
 62
     1
370
    15
100
AcDbLine
 10
28.28154226293116
 20
-12.69325021494463
 30
0.0
 11
28.08897468418119
 21
-12.56484961203001
 31
0.0
  0
SPLINE
  5
254
330
1F
100
AcDbEntity
  8
외형선
  6
Continuous
 62
     1
370
    15
100
AcDbSpline
210
0.0
220
0.0
230
1.0
 70
     8
 71
     3
 72
     9
 73
     5
 74
     0
 42
0.000000001
 43
0.00000001
 40
0.0
 40
0.0
 40
0.0
 40
0.0
 40
0.2445585977375364
 40
1.0
 40
1.0
 40
1.0
 40
1.0
 10
28.78481450761564
 20
-12.49918473334244
 30
0.0
 10
28.7640282794999
 20
-12.52356064376961
 30
0.0
 10
28.67903340175673
 20
-12.62323373092614
 30
0.0
 10
28.59083502112262
 20
-12.52811427334801
 30
0.0
 10
28.52420631277911
 20
-12.45625709693274
 30
0.0
  0
LINE
  5
255
330
1F
100
AcDbEntity
  8
외형선
  6
Continuous
 62
     1
370
    15
100
AcDbLine
 10
17.0995295843786
 20
-12.70611827736727
 30
0.0
 11
20.28029743829254
 21
-12.70611827736727
 31
0.0
  0
SPLINE
  5
256
330
1F
100
AcDbEntity
  8
외형선
  6
Continuous
 62
     1
370
    15
100
AcDbSpline
210
0.0
220
0.0
230
1.0
 70
     8
 71
     3
 72
     9
 73
     5
 74
     0
 42
0.000000001
 43
0.00000001
 40
0.0
 40
0.0
 40
0.0
 40
0.0
 40
0.5028599567068203
 40
1.0
 40
1.0
 40
1.0
 40
1.0
 10
20.28163647944788
 20
-12.70611827736725
 30
0.0
 10
20.37352941648499
 20
-12.69804038553309
 30
0.0
 10
20.55627003007233
 20
-12.68197648597932
 30
0.0
 10
20.71749666773463
 20
-12.5748997742125
 30
0.0
 10
20.79764888536204
 20
-12.52166765308905
 30
0.0
  0
SPLINE
  5
257
330
1F
100
AcDbEntity
  8
외형선
  6
Continuous
 62
     1
370
    15
100
AcDbSpline
210
0.0
220
0.0
230
1.0
 70
     8
 71
     3
 72
    11
 73
     7
 74
     0
 42
0.000000001
 43
0.00000001
 40
0.0
 40
0.0
 40
0.0
 40
0.0
 40
0.2712560198716472
 40
0.5303123910207417
 40
0.77302544566836
 40
1.0
 40
1.0
 40
1.0
 40
1.0
 10
20.78771772164917
 20
-12.52936673571213
 30
0.0
 10
20.91744643620191
 20
-12.44922410635617
 30
0.0
 10
21.17106935978187
 20
-12.29254323558117
 30
0.0
 10
21.62131757520684
 20
-12.26123683139666
 30
0.0
 10
21.9937290480319
 20
-12.35956934017198
 30
0.0
 10
22.1507081329273
 20
-12.46477013335718
 30
0.0
 10
22.22656761304209
 20
-12.51560797257641
 30
0.0
  0
SPLINE
  5
258
330
1F
100
AcDbEntity
  8
외형선
  6
Continuous
 62
     1
370
    15
100
AcDbSpline
210
0.0
220
0.0
230
1.0
 70
     8
 71
     3
 72
     9
 73
     5
 74
     0
 42
0.000000001
 43
0.00000001
 40
0.0
 40
0.0
 40
0.0
 40
0.0
 40
0.4984202449305597
 40
1.0
 40
1.0
 40
1.0
 40
1.0
 10
22.23580269630023
 20
-12.52315007028129
 30
0.0
 10
22.31594780322545
 20
-12.57598019636213
 30
0.0
 10
22.47674606080106
 20
-12.6819753412588
 30
0.0
 10
22.65948355764329
 20
-12.69805369861018
 30
0.0
 10
22.7511409865514
 20
-12.7061182771524
 30
0.0
  0
SPLINE
  5
259
330
1F
100
AcDbEntity
  8
외형선
  6
Continuous
 62
     1
370
    15
100
AcDbSpline
210
0.0
220
0.0
230
1.0
 70
     8
 71
     3
 72
    14
 73
    10
 74
     0
 42
0.000000001
 43
0.00000001
 40
0.0
 40
0.0
 40
0.0
 40
0.0
 40
0.0000586199809473
 40
0.0000586199809473
 40
0.0000586199809473
 40
0.0001172057026607
 40
0.0001172057026607
 40
0.0001172057026607
 40
0.000203049518095
 40
0.000203049518095
 40
0.000203049518095
 40
0.000203049518095
 10
21.77925333295668
 20
-11.38000390787521
 30
0.0
 10
21.81616799520041
 20
-11.41506114102863
 30
0.0
 10
21.85547472512582
 20
-11.44708963020731
 30
0.0
 10
21.89621513233514
 20
-11.47562043568261
 30
0.0
 10
21.93694062902325
 20
-11.50414079921076
 30
0.0
 10
21.97937525016702
 20
-11.5293642446213
 30
0.0
 10
22.02266947965601
 20
-11.55091689218928
 30
0.0
 10
22.08588582556758
 20
-11.58238712829345
 30
0.0
 10
22.1516671860446
 20
-11.60636918062337
 30
0.0
 10
22.21749870485082
 20
-11.62176904241323
 30
0.0
  0
SPLINE
  5
25A
330
1F
100
AcDbEntity
  8
외형선
  6
Continuous
 62
     1
370
    15
100
AcDbSpline
210
0.0
220
0.0
230
1.0
 70
     8
 71
     3
 72
    10
 73
     6
 74
     0
 42
0.000000001
 43
0.00000001
 40
0.0
 40
0.0
 40
0.0
 40
0.0
 40
0.5
 40
0.5
 40
1.0
 40
1.0
 40
1.0
 40
1.0
 10
20.03437871908258
 20
-10.92205150615292
 30
0.0
 10
20.30090234038747
 20
-10.81008886646446
 30
0.0
 10
20.61558199402555
 20
-10.80802349282988
 30
0.0
 10
21.2306810539576
 20
-10.97486684226967
 30
0.0
 10
21.52816801567148
 20
-11.14155240989325
 30
0.0
 10
21.77925333295551
 20
-11.38000390787437
 30
0.0
  0
SPLINE
  5
25B
330
1F
100
AcDbEntity
  8
외형선
  6
Continuous
 62
     1
370
    15
100
AcDbSpline
210
0.0
220
0.0
230
1.0
 70
     8
 71
     3
 72
     8
 73
     4
 74
     0
 42
0.000000001
 43
0.00000001
 40
0.0
 40
0.0
 40
0.0
 40
0.0
 40
1.0
 40
1.0
 40
1.0
 40
1.0
 10
19.59988951472202
 20
-10.9294323900188
 30
0.0
 10
19.75054990281684
 20
-10.97371555857477
 30
0.0
 10
19.90374099243564
 20
-10.97693048703487
 30
0.0
 10
20.03437871908142
 20
-10.92205150615339
 30
0.0
  0
SPLINE
  5
25C
330
1F
100
AcDbEntity
  8
외형선
  6
Continuous
 62
     1
370
    15
100
AcDbSpline
210
0.0
220
0.0
230
1.0
 70
     8
 71
     3
 72
    10
 73
     6
 74
     0
 42
0.000000001
 43
0.00000001
 40
0.0
 40
0.0
 40
0.0
 40
0.0
 40
0.5
 40
0.5
 40
1.0
 40
1.0
 40
1.0
 40
1.0
 10
19.59988960495814
 20
-10.92943241654162
 30
0.0
 10
18.61852640449916
 20
-10.64098319460261
 30
0.0
 10
17.63816874367391
 20
-10.32006592046135
 30
0.0
 10
15.69120631811607
 20
-9.620767041354894
 30
0.0
 10
14.70749628716378
 20
-9.240294781724158
 30
0.0
 10
13.7266162371554
 20
-8.833847401899584
 30
0.0
  0
SPLINE
  5
25D
330
1F
100
AcDbEntity
  8
외형선
  6
Continuous
 62
     1
370
    15
100
AcDbSpline
210
0.0
220
0.0
230
1.0
 70
     8
 71
     3
 72
    14
 73
    10
 74
     0
 42
0.000000001
 43
0.00000001
 40
0.0
 40
0.0
 40
0.0
 40
0.0
 40
0.0000587493705263
 40
0.0000587493705263
 40
0.0000587493705263
 40
0.0001174642582957
 40
0.0001174642582957
 40
0.0001174642582957
 40
0.0002032727539075
 40
0.0002032727539075
 40
0.0002032727539075
 40
0.0002032727539075
 10
13.28730778563126
 20
-8.539466532569136
 30
0.0
 10
13.32437196494895
 20
-8.576136607963221
 30
0.0
 10
13.36383273591161
 20
-8.61090080597316
 30
0.0
 10
13.40472716634772
 20
-8.643174472704963
 30
0.0
 10
13.44560656397473
 20
-8.675436275623877
 30
0.0
 10
13.48819606990956
 20
-8.705431908948217
 30
0.0
 10
13.5316430133905
 20
-8.73266220106516
 30
0.0
 10
13.59491906552076
 20
-8.772320350648707
 30
0.0
 10
13.66074332397105
 20
-8.80655163093677
 30
0.0
 10
13.72661274816743
 20
-8.833845956167128
 30
0.0
  0
SPLINE
  5
25E
330
1F
100
AcDbEntity
  8
외형선
  6
Continuous
 62
     1
370
    15
100
AcDbSpline
210
0.0
220
0.0
230
1.0
 70
     8
 71
     3
 72
    10
 73
     6
 74
     0
 42
0.000000001
 43
0.00000001
 40
0.2676150609929332
 40
0.2676150609929332
 40
0.2676150609929332
 40
0.2676150609929332
 40
0.5
 40
0.5
 40
1.0
 40
1.0
 40
1.0
 40
1.0
 10
12.0
 20
-7.814435695439182
 30
0.0
 10
12.14067917395278
 20
-7.845340015870533
 30
0.0
 10
12.28537653287606
 20
-7.893307469128199
 30
0.0
 10
12.73673206371409
 20
-8.090291803666926
 30
0.0
 10
13.03518880794881
 20
-8.290028339409993
 30
0.0
 10
13.28730778563012
 20
-8.539466532568508
 30
0.0
  0
SPLINE
  5
260
330
1F
100
AcDbEntity
  8
외형선
  6
Continuous
 62
     1
370
    15
100
AcDbSpline
210
0.0
220
0.0
230
1.0
 70
     8
 71
     3
 72
     8
 73
     4
 74
     0
 42
0.000000001
 43
0.00000001
 40
0.8559228584855317
 40
0.8559228584855317
 40
0.8559228584855317
 40
0.8559228584855317
 40
1.0
 40
1.0
 40
1.0
 40
1.0
 10
6.083077853167083
 20
-5.195783274185763
 30
0.0
 10
5.802041068720776
 20
-5.047479112220469
 30
0.0
 10
5.520607170047725
 20
-4.897830259819091
 30
0.0
 10
5.238325066784441
 20
-4.746865898039286
 30
0.0
  0
SPLINE
  5
263
330
1F
100
AcDbEntity
  8
외형선
  6
Continuous
 62
     1
370
    15
100
AcDbSpline
210
0.0
220
0.0
230
1.0
 70
     8
 71
     3
 72
    10
 73
     6
 74
     0
 42
0.000000001
 43
0.00000001
 40
0.0
 40
0.0
 40
0.0
 40
0.0
 40
0.5
 40
0.5
 40
1.0
 40
1.0
 40
1.0
 40
1.0
 10
14.16964662311337
 20
-12.45511210866571
 30
0.0
 10
13.902482188913
 20
-12.24089116023652
 30
0.0
 10
13.58712097573433
 20
-12.13016434926167
 30
0.0
 10
12.97066843608732
 20
-12.08071823145152
 30
0.0
 10
12.67241383373862
 20
-12.14055226402107
 30
0.0
 10
12.42052374878676
 20
-12.28490172181451
 30
0.0
  0
SPLINE
  5
264
330
1F
100
AcDbEntity
  8
외형선
  6
Continuous
 62
     1
370
    15
100
AcDbSpline
210
0.0
220
0.0
230
1.0
 70
     8
 71
     3
 72
     8
 73
     4
 74
     0
 42
0.000000001
 43
0.00000001
 40
0.0
 40
0.0
 40
0.0
 40
0.0
 40
1.0
 40
1.0
 40
1.0
 40
1.0
 10
14.60485352548681
 20
-12.62444775716332
 30
0.0
 10
14.45397532700703
 20
-12.61460478227268
 30
0.0
 10
14.30054137070514
 20
-12.56006768427361
 30
0.0
 10
14.16964662311386
 20
-12.45511210866608
 30
0.0
  0
LINE
  5
265
330
1F
100
AcDbEntity
  8
외형선
  6
Continuous
 62
     1
370
    15
100
AcDbLine
 10
14.60399523975188
 20
-12.62439175486112
 30
0.0
 11
17.0995295843786
 21
-12.68031100260034
 31
0.0
  0
SPLINE
  5
267
330
1F
100
AcDbEntity
  8
외형선
  6
Continuous
 62
     1
370
    15
100
AcDbSpline
210
0.0
220
0.0
230
1.0
 70
     8
 71
     3
 72
    10
 73
     6
 74
     0
 42
0.000000001
 43
0.00000001
 40
0.0
 40
0.0
 40
0.0
 40
0.0
 40
0.2499999999999999
 40
0.2499999999999999
 40
0.4838117792923809
 40
0.4838117792923809
 40
0.4838117792923809
 40
0.4838117792923809
 10
12.4205236612237
 20
-12.2849015432894
 30
0.0
 10
12.34556983224676
 20
-12.13208433493012
 30
0.0
 10
12.27133428717205
 20
-11.91725081343966
 30
0.0
 10
12.13216551381628
 20
-11.39543415079729
 30
0.0
 10
12.06757555477606
 20
-11.09739354553496
 30
0.0
 10
12.00000000000001
 20
-10.74844500625423
 30
0.0
  0
SPLINE
  5
268
330
1F
100
AcDbEntity
  8
외형선
  6
Continuous
 62
     1
370
    15
100
AcDbSpline
210
0.0
220
0.0
230
1.0
 70
     8
 71
     3
 72
    12
 73
     8
 74
     0
 42
0.000000001
 43
0.00000001
 40
0.0
 40
0.0
 40
0.0
 40
0.0
 40
0.25
 40
0.25
 40
0.5
 40
0.5
 40
1.0
 40
1.0
 40
1.0
 40
1.0
 10
14.16964662311026
 20
-12.45511210866173
 30
0.0
 10
14.09444486840263
 20
-12.3592879136515
 30
0.0
 10
14.0191728648931
 20
-12.19994073003939
 30
0.0
 10
13.87184939175866
 20
-11.76388602282329
 30
0.0
 10
13.80106142898114
 20
-11.48924675056726
 30
0.0
 10
13.58945486549639
 20
-10.50511877653664
 30
0.0
 10
13.43736838568436
 20
-9.609175557283624
 30
0.0
 10
13.28730778563711
 20
-8.53946653261839
 30
0.0
  0
SPLINE
  5
269
330
1F
100
AcDbEntity
  8
외형선
  6
Continuous
 62
     1
370
    15
100
AcDbSpline
210
0.0
220
0.0
230
1.0
 70
     8
 71
     3
 72
    10
 73
     6
 74
     0
 42
0.000000001
 43
0.00000001
 40
0.0
 40
0.0
 40
0.0
 40
0.0
 40
0.5
 40
0.5
 40
1.0
 40
1.0
 40
1.0
 40
1.0
 10
14.60479483853258
 20
-12.62438252691814
 30
0.0
 10
14.45515989902938
 20
-12.45803107740084
 30
0.0
 10
14.30524258662569
 20
-12.0321569440791
 30
0.0
 10
14.0269114134105
 20
-10.76478290868954
 30
0.0
 10
13.87619242882191
 20
-9.889525935519998
 30
0.0
 10
13.72661281504097
 20
-8.833846428136443
 30
0.0
  0
SPLINE
  5
26A
330
1F
100
AcDbEntity
  8
외형선
  6
Continuous
 62
     1
370
    15
100
AcDbSpline
210
0.0
220
0.0
230
1.0
 70
     8
 71
     3
 72
    10
 73
     6
 74
     0
 42
0.000000001
 43
0.00000001
 40
0.0
 40
0.0
 40
0.0
 40
0.0
 40
0.1422482944389106
 40
0.5743059096230284
 40
1.0
 40
1.0
 40
1.0
 40
1.0
 10
20.28029743829257
 20
-12.63205337430693
 30
0.0
 10
20.24813353375585
 20
-12.65211571077168
 30
0.0
 10
20.11827664847753
 20
-12.73311435077644
 30
0.0
 10
19.88393022773865
 20
-12.2216912700725
 30
0.0
 10
19.69410046361457
 20
-11.35805038433202
 30
0.0
 10
19.59988974011339
 20
-10.92943354931545
 30
0.0
  0
SPLINE
  5
26B
330
1F
100
AcDbEntity
  8
외형선
  6
Continuous
 62
     1
370
    15
100
AcDbSpline
210
0.0
220
0.0
230
1.0
 70
     8
 71
     3
 72
    11
 73
     7
 74
     0
 42
0.000000001
 43
0.00000001
 40
0.0
 40
0.0
 40
0.0
 40
0.0
 40
0.1251399955406615
 40
0.4187081590551409
 40
0.7114394890800804
 40
1.0
 40
1.0
 40
1.0
 40
1.0
 10
20.78982987029561
 20
-12.48153953630177
 30
0.0
 10
20.75876073921113
 20
-12.51605698116796
 30
0.0
 10
20.65480597539935
 20
-12.63154952000632
 30
0.0
 10
20.47101479364176
 20
-12.42393357876341
 30
0.0
 10
20.24778577484799
 20
-11.90116357999656
 30
0.0
 10
20.10517331574926
 20
-11.24685728108824
 30
0.0
 10
20.0343787145483
 20
-10.9220514837039
 30
0.0
  0
SPLINE
  5
26C
330
1F
100
AcDbEntity
  8
외형선
  6
Continuous
 62
     1
370
    15
100
AcDbSpline
210
0.0
220
0.0
230
1.0
 70
     8
 71
     3
 72
    10
 73
     6
 74
     0
 42
0.000000001
 43
0.00000001
 40
0.0
 40
0.0
 40
0.0
 40
0.0
 40
0.1288858400849735
 40
0.5669187401228335
 40
1.0
 40
1.0
 40
1.0
 40
1.0
 10
22.22844458436942
 20
-12.48657343925392
 30
0.0
 10
22.2089987894207
 20
-12.47901717188093
 30
0.0
 10
22.12346429187026
 20
-12.44578008721508
 30
0.0
 10
21.97088489083145
 20
-12.1049186459828
 30
0.0
 10
21.84288799635186
 20
-11.62072472580096
 30
0.0
 10
21.77925333298351
 20
-11.38000390799487
 30
0.0
  0
SPLINE
  5
26D
330
1F
100
AcDbEntity
  8
외형선
  6
Continuous
 62
     1
370
    15
100
AcDbSpline
210
0.0
220
0.0
230
1.0
 70
     8
 71
     3
 72
    10
 73
     6
 74
     0
 42
0.000000001
 43
0.00000001
 40
0.0
 40
0.0
 40
0.0
 40
0.0
 40
0.2885911908020982
 40
0.6460280524100703
 40
1.0
 40
1.0
 40
1.0
 40
1.0
 10
22.75032410431252
 20
-12.68449443520007
 30
0.0
 10
22.69892024552926
 20
-12.67461432725039
 30
0.0
 10
22.58384973806222
 20
-12.65249713483508
 30
0.0
 10
22.40355114680644
 20
-12.30226425695849
 30
0.0
 10
22.27931446347728
 20
-11.84786296200378
 30
0.0
 10
22.21749866896986
 20
-11.62176889445371
 30
0.0
  0
SPLINE
  5
26E
330
1F
100
AcDbEntity
  8
외형선
  6
Continuous
 62
     1
370
    15
100
AcDbSpline
210
0.0
220
0.0
230
1.0
 70
    24
 71
     3
 72
     8
 73
     4
 74
     2
 42
0.000000001
 43
0.0000000001
 44
0.0
 40
0.0
 40
0.0
 40
0.0
 40
0.0
 40
0.5908864559678446
 40
0.5908864559678446
 40
0.5908864559678446
 40
0.5908864559678446
 10
12.42052374878676
 20
-12.28490172181451
 30
0.0
 10
12.28034916585784
 20
-12.42326781454301
 30
0.0
 10
12.14017458292892
 20
-12.56163390727151
 30
0.0
 10
12.0
 20
-12.70000000000002
 30
0.0
 11
12.42052374878676
 21
-12.28490172181451
 31
0.0
 11
12.0
 21
-12.70000000000002
 31
0.0
  0
LINE
  5
2AE
330
1F
100
AcDbEntity
  8
외형선
  6
Continuous
370
    15
100
AcDbLine
 10
-36.89499999999998
 20
12.69999999999998
 30
0.0
 11
-30.98632499999985
 21
12.69999999999998
 31
0.0
  0
LINE
  5
2AF
330
1F
100
AcDbEntity
  8
외형선
  6
Continuous
370
    15
100
AcDbLine
 10
-29.08132499999988
 20
10.79499999999997
 30
0.0
 11
-15.97492499999998
 21
10.79499999999997
 31
0.0
  0
LINE
  5
2B0
330
1F
100
AcDbEntity
  8
외형선
  6
Continuous
370
    15
100
AcDbLine
 10
-29.08132499999988
 20
10.79499999999999
 30
0.0
 11
-30.98632499999985
 21
12.69999999999998
 31
0.0
  0
LINE
  5
2B1
330
1F
100
AcDbEntity
  8
외형선
  6
Continuous
370
    15
100
AcDbLine
 10
-15.97492499999998
 20
10.79499999999999
 30
0.0
 11
-14.06992499999996
 21
12.69999999999998
 31
0.0
  0
LINE
  5
2B2
330
1F
100
AcDbEntity
  8
외형선
  6
Continuous
370
    15
100
AcDbLine
 10
-51.49999999999997
 20
10.79499999999997
 30
0.0
 11
-38.79999999999995
 21
10.79499999999997
 31
0.0
  0
LINE
  5
2B3
330
1F
100
AcDbEntity
  8
외형선
  6
Continuous
370
    15
100
AcDbLine
 10
-38.79999999999995
 20
10.79499999999999
 30
0.0
 11
-36.89499999999998
 21
12.69999999999997
 31
0.0
  0
LINE
  5
2B4
330
1F
100
AcDbEntity
  8
외형선
  6
Continuous
370
    15
100
AcDbLine
 10
-30.98632499999985
 20
12.69999999999998
 30
0.0
 11
-36.89499999999998
 21
12.69999999999998
 31
0.0
  0
ENDSEC
  0
SECTION
  2
OBJECTS
  0
DICTIONARY
  5
C
330
0
100
AcDbDictionary
281
     1
  3
ACAD_GROUP
350
D
  3
ACAD_IMAGE_VARS
350
1F5
  3
ACAD_LAYOUT
350
1A
  3
ACAD_MLINESTYLE
350
17
  3
ACAD_PLOTSETTINGS
350
19
  3
ACAD_PLOTSTYLENAME
350
E
  3
ACAD_SCALELIST
350
47
  3
APPDATA
350
1F3
  3
DWGPROPS
350
2B6
  0
DICTIONARY
  5
29E
330
2
100
AcDbDictionary
280
     1
281
     1
  3
ACAD_LAYERSTATES
360
29F
  0
DICTIONARY
  5
D
102
{ACAD_REACTORS
330
C
102
}
330
C
100
AcDbDictionary
281
     1
  0
RASTERVARIABLES
  5
1F5
102
{ACAD_REACTORS
330
C
102
}
330
C
100
AcDbRasterVariables
 90
        0
 70
     1
 71
     1
 72
     1
  0
DICTIONARY
  5
1A
102
{ACAD_REACTORS
330
C
102
}
330
C
100
AcDbDictionary
281
     1
  3
Layout1
350
1E
  3
Layout2
350
26
  3
Model
350
22
  0
DICTIONARY
  5
17
102
{ACAD_REACTORS
330
C
102
}
330
C
100
AcDbDictionary
281
     1
  3
Standard
350
18
  0
DICTIONARY
  5
19
102
{ACAD_REACTORS
330
C
102
}
330
C
100
AcDbDictionary
281
     1
  0
ACDBDICTIONARYWDFLT
  5
E
102
{ACAD_REACTORS
330
C
102
}
330
C
100
AcDbDictionary
281
     1
  3
Normal
350
F
100
AcDbDictionaryWithDefault
340
F
  0
DICTIONARY
  5
47
102
{ACAD_REACTORS
330
C
102
}
330
C
100
AcDbDictionary
281
     1
  3
A0
350
48
  3
A1
350
49
  3
A2
350
4A
  3
A3
350
4B
  3
A4
350
4C
  3
A5
350
4D
  3
A6
350
4E
  3
A7
350
4F
  3
A8
350
50
  3
A9
350
51
  3
B0
350
52
  3
B1
350
53
  3
B2
350
54
  3
B3
350
55
  3
B4
350
56
  3
B5
350
57
  3
B6
350
58
  3
B7
350
59
  3
B8
350
5A
  3
B9
350
5B
  3
C0
350
5C
  3
C1
350
5D
  3
C2
350
5E
  3
C3
350
5F
  3
C4
350
60
  3
C5
350
61
  3
C6
350
62
  3
C7
350
63
  3
C8
350
64
  3
C9
350
65
  3
D0
350
66
  3
D1
350
67
  3
D2
350
68
  0
DICTIONARY
  5
1F3
102
{ACAD_REACTORS
330
C
102
}
330
C
100
AcDbDictionary
281
     1
  0
XRECORD
  5
2B6
102
{ACAD_REACTORS
330
C
102
}
330
C
100
AcDbXrecord
280
     1
  1
DWGPROPS COOKIE
  2

  3

  4

  6

  7

  8
12016016
  9

300
=
301
=
302
=
303
=
304
=
305
=
306
=
307
=
308
=
309
=
 40
0.0
 41
2458298.969554676
 42
2458311.111052465
  1

 90
        0
  0
DICTIONARY
  5
29F
102
{ACAD_REACTORS
330
29E
102
}
330
29E
100
AcDbDictionary
281
     1
  0
LAYOUT
  5
1E
102
{ACAD_REACTORS
330
1A
102
}
330
1A
100
AcDbPlotSettings
  1

  2
none_device
  4

  6

 40
0.0
 41
0.0
 42
0.0
 43
0.0
 44
0.0
 45
0.0
 46
0.0
 47
0.0
 48
0.0
 49
0.0
140
0.0
141
0.0
142
1.0
143
1.0
 70
   688
 72
     1
 73
     0
 74
     5
  7

 75
    16
147
1.0
148
0.0
149
0.0
100
AcDbLayout
  1
Layout1
 70
     1
 71
     1
 10
0.0
 20
0.0
 11
420.0
 21
297.0
 12
0.0
 22
0.0
 32
0.0
 14
1.000000000000000E+20
 24
1.000000000000000E+20
 34
1.000000000000000E+20
 15
-1.000000000000000E+20
 25
-1.000000000000000E+20
 35
-1.000000000000000E+20
146
0.0
 13
0.0
 23
0.0
 33
0.0
 16
1.0
 26
0.0
 36
0.0
 17
0.0
 27
1.0
 37
0.0
 76
     0
330
1B
  0
LAYOUT
  5
26
102
{ACAD_REACTORS
330
1A
102
}
330
1A
100
AcDbPlotSettings
  1

  2
none_device
  4

  6

 40
0.0
 41
0.0
 42
0.0
 43
0.0
 44
0.0
 45
0.0
 46
0.0
 47
0.0
 48
0.0
 49
0.0
140
0.0
141
0.0
142
1.0
143
1.0
 70
   688
 72
     1
 73
     0
 74
     5
  7

 75
    16
147
1.0
148
0.0
149
0.0
100
AcDbLayout
  1
Layout2
 70
     1
 71
     2
 10
0.0
 20
0.0
 11
0.0
 21
0.0
 12
0.0
 22
0.0
 32
0.0
 14
0.0
 24
0.0
 34
0.0
 15
0.0
 25
0.0
 35
0.0
146
0.0
 13
0.0
 23
0.0
 33
0.0
 16
1.0
 26
0.0
 36
0.0
 17
0.0
 27
1.0
 37
0.0
 76
     0
330
23
  0
LAYOUT
  5
22
102
{ACAD_REACTORS
330
1A
102
}
330
1A
100
AcDbPlotSettings
  1

  2
none_device
  4
ANSI_A_(11.00_x_8.50_Inches)
  6

 40
6.35
 41
19.05
 42
6.35000508
 43
19.05000254
 44
279.4
 45
215.9
 46
98.76438513735204
 47
90.88064147516121
 48
0.0
 49
0.0
140
0.0
141
0.0
142
0.0787110341538491
143
1.0
 70
  1696
 72
     0
 73
     0
 74
     0
  7

 75
     0
147
0.0235690232323232
148
0.0
149
0.0
100
AcDbLayout
  1
Model
 70
     1
 71
     0
 10
0.0
 20
0.0
 11
420.0
 21
297.0
 12
0.0
 22
0.0
 32
0.0
 14
1.000000000000000E+20
 24
1.000000000000000E+20
 34
1.000000000000000E+20
 15
-1.000000000000000E+20
 25
-1.000000000000000E+20
 35
-1.000000000000000E+20
146
0.0
 13
0.0
 23
0.0
 33
0.0
 16
1.0
 26
0.0
 36
0.0
 17
0.0
 27
1.0
 37
0.0
 76
     0
330
1F
331
29
  0
MLINESTYLE
  5
18
102
{ACAD_REACTORS
330
17
102
}
330
17
100
AcDbMlineStyle
  2
Standard
 70
     0
  3

 62
   256
 51
90.0
 52
90.0
 71
     2
 49
0.5
 62
   256
  6
BYLAYER
 49
-0.5
 62
   256
  6
BYLAYER
  0
ACDBPLACEHOLDER
  5
F
102
{ACAD_REACTORS
330
E
102
}
330
E
  0
SCALE
  5
48
102
{ACAD_REACTORS
330
47
102
}
330
47
100
AcDbScale
 70
     0
300
1:1
140
1.0
141
1.0
290
     1
  0
SCALE
  5
49
102
{ACAD_REACTORS
330
47
102
}
330
47
100
AcDbScale
 70
     0
300
1:2
140
1.0
141
2.0
290
     0
  0
SCALE
  5
4A
102
{ACAD_REACTORS
330
47
102
}
330
47
100
AcDbScale
 70
     0
300
1:4
140
1.0
141
4.0
290
     0
  0
SCALE
  5
4B
102
{ACAD_REACTORS
330
47
102
}
330
47
100
AcDbScale
 70
     0
300
1:5
140
1.0
141
5.0
290
     0
  0
SCALE
  5
4C
102
{ACAD_REACTORS
330
47
102
}
330
47
100
AcDbScale
 70
     0
300
1:8
140
1.0
141
8.0
290
     0
  0
SCALE
  5
4D
102
{ACAD_REACTORS
330
47
102
}
330
47
100
AcDbScale
 70
     0
300
1:10
140
1.0
141
10.0
290
     0
  0
SCALE
  5
4E
102
{ACAD_REACTORS
330
47
102
}
330
47
100
AcDbScale
 70
     0
300
1:16
140
1.0
141
16.0
290
     0
  0
SCALE
  5
4F
102
{ACAD_REACTORS
330
47
102
}
330
47
100
AcDbScale
 70
     0
300
1:20
140
1.0
141
20.0
290
     0
  0
SCALE
  5
50
102
{ACAD_REACTORS
330
47
102
}
330
47
100
AcDbScale
 70
     0
300
1:30
140
1.0
141
30.0
290
     0
  0
SCALE
  5
51
102
{ACAD_REACTORS
330
47
102
}
330
47
100
AcDbScale
 70
     0
300
1:40
140
1.0
141
40.0
290
     0
  0
SCALE
  5
52
102
{ACAD_REACTORS
330
47
102
}
330
47
100
AcDbScale
 70
     0
300
1:50
140
1.0
141
50.0
290
     0
  0
SCALE
  5
53
102
{ACAD_REACTORS
330
47
102
}
330
47
100
AcDbScale
 70
     0
300
1:100
140
1.0
141
100.0
290
     0
  0
SCALE
  5
54
102
{ACAD_REACTORS
330
47
102
}
330
47
100
AcDbScale
 70
     0
300
2:1
140
2.0
141
1.0
290
     0
  0
SCALE
  5
55
102
{ACAD_REACTORS
330
47
102
}
330
47
100
AcDbScale
 70
     0
300
4:1
140
4.0
141
1.0
290
     0
  0
SCALE
  5
56
102
{ACAD_REACTORS
330
47
102
}
330
47
100
AcDbScale
 70
     0
300
8:1
140
8.0
141
1.0
290
     0
  0
SCALE
  5
57
102
{ACAD_REACTORS
330
47
102
}
330
47
100
AcDbScale
 70
     0
300
10:1
140
10.0
141
1.0
290
     0
  0
SCALE
  5
58
102
{ACAD_REACTORS
330
47
102
}
330
47
100
AcDbScale
 70
     0
300
100:1
140
100.0
141
1.0
290
     0
  0
SCALE
  5
59
102
{ACAD_REACTORS
330
47
102
}
330
47
100
AcDbScale
 70
     0
300
1/128" = 1'-0"
140
0.0078125
141
12.0
290
     0
  0
SCALE
  5
5A
102
{ACAD_REACTORS
330
47
102
}
330
47
100
AcDbScale
 70
     0
300
1/64" = 1'-0"
140
0.015625
141
12.0
290
     0
  0
SCALE
  5
5B
102
{ACAD_REACTORS
330
47
102
}
330
47
100
AcDbScale
 70
     0
300
1/32" = 1'-0"
140
0.03125
141
12.0
290
     0
  0
SCALE
  5
5C
102
{ACAD_REACTORS
330
47
102
}
330
47
100
AcDbScale
 70
     0
300
1/16" = 1'-0"
140
0.0625
141
12.0
290
     0
  0
SCALE
  5
5D
102
{ACAD_REACTORS
330
47
102
}
330
47
100
AcDbScale
 70
     0
300
3/32" = 1'-0"
140
0.09375
141
12.0
290
     0
  0
SCALE
  5
5E
102
{ACAD_REACTORS
330
47
102
}
330
47
100
AcDbScale
 70
     0
300
1/8" = 1'-0"
140
0.125
141
12.0
290
     0
  0
SCALE
  5
5F
102
{ACAD_REACTORS
330
47
102
}
330
47
100
AcDbScale
 70
     0
300
3/16" = 1'-0"
140
0.1875
141
12.0
290
     0
  0
SCALE
  5
60
102
{ACAD_REACTORS
330
47
102
}
330
47
100
AcDbScale
 70
     0
300
1/4" = 1'-0"
140
0.25
141
12.0
290
     0
  0
SCALE
  5
61
102
{ACAD_REACTORS
330
47
102
}
330
47
100
AcDbScale
 70
     0
300
3/8" = 1'-0"
140
0.375
141
12.0
290
     0
  0
SCALE
  5
62
102
{ACAD_REACTORS
330
47
102
}
330
47
100
AcDbScale
 70
     0
300
1/2" = 1'-0"
140
0.5
141
12.0
290
     0
  0
SCALE
  5
63
102
{ACAD_REACTORS
330
47
102
}
330
47
100
AcDbScale
 70
     0
300
3/4" = 1'-0"
140
0.75
141
12.0
290
     0
  0
SCALE
  5
64
102
{ACAD_REACTORS
330
47
102
}
330
47
100
AcDbScale
 70
     0
300
1" = 1'-0"
140
1.0
141
12.0
290
     0
  0
SCALE
  5
65
102
{ACAD_REACTORS
330
47
102
}
330
47
100
AcDbScale
 70
     0
300
1-1/2" = 1'-0"
140
1.5
141
12.0
290
     0
  0
SCALE
  5
66
102
{ACAD_REACTORS
330
47
102
}
330
47
100
AcDbScale
 70
     0
300
3" = 1'-0"
140
3.0
141
12.0
290
     0
  0
SCALE
  5
67
102
{ACAD_REACTORS
330
47
102
}
330
47
100
AcDbScale
 70
     0
300
6" = 1'-0"
140
6.0
141
12.0
290
     0
  0
SCALE
  5
68
102
{ACAD_REACTORS
330
47
102
}
330
47
100
AcDbScale
 70
     0
300
1'-0" = 1'-0"
140
12.0
141
12.0
290
     0
  0
ENDSEC
  0
EOF
