  0
SECTION
  2
HEADER
  9
$ACADVER
  1
AC1015
  9
$ACADMAINTVER
 70
     6
  9
$DWGCODEPAGE
  3
ANSI_949
  9
$INSBASE
 10
0.0
 20
0.0
 30
0.0
  9
$EXTMIN
 10
1.000000000000000E+20
 20
1.000000000000000E+20
 30
1.000000000000000E+20
  9
$EXTMAX
 10
-1.000000000000000E+20
 20
-1.000000000000000E+20
 30
-1.000000000000000E+20
  9
$LIMMIN
 10
0.0
 20
0.0
  9
$LIMMAX
 10
420.0
 20
297.0
  9
$ORTHOMODE
 70
     1
  9
$REGENMODE
 70
     1
  9
$FILLMODE
 70
     1
  9
$QTEXTMODE
 70
     0
  9
$MIRRTEXT
 70
     1
  9
$LTSCALE
 40
1.0
  9
$ATTMODE
 70
     1
  9
$TEXTSIZE
 40
3.5
  9
$TRACEWID
 40
1.0
  9
$TEXTSTYLE
  7
Standard
  9
$CLAYER
  8
0
  9
$CELTYPE
  6
ByLayer
  9
$CECOLOR
 62
   256
  9
$CELTSCALE
 40
1.0
  9
$DISPSILH
 70
     0
  9
$DIMSCALE
 40
1.0
  9
$DIMASZ
 40
3.302
  9
$DIMEXO
 40
1.0
  9
$DIMDLI
 40
3.75
  9
$DIMRND
 40
0.0
  9
$DIMDLE
 40
0.0
  9
$DIMEXE
 40
1.0
  9
$DIMTP
 40
0.0
  9
$DIMTM
 40
0.0
  9
$DIMTXT
 40
3.5
  9
$DIMCEN
 40
2.5
  9
$DIMTSZ
 40
0.0
  9
$DIMTOL
 70
     0
  9
$DIMLIM
 70
     0
  9
$DIMTIH
 70
     1
  9
$DIMTOH
 70
     1
  9
$DIMSE1
 70
     0
  9
$DIMSE2
 70
     0
  9
$DIMTAD
 70
     1
  9
$DIMZIN
 70
     0
  9
$DIMBLK
  1

  9
$DIMASO
 70
     1
  9
$DIMSHO
 70
     1
  9
$DIMPOST
  1

  9
$DIMAPOST
  1

  9
$DIMALT
 70
     0
  9
$DIMALTD
 70
     3
  9
$DIMALTF
 40
0.0393700787401575
  9
$DIMLFAC
 40
1.0
  9
$DIMTOFL
 70
     1
  9
$DIMTVP
 40
0.0
  9
$DIMTIX
 70
     0
  9
$DIMSOXD
 70
     0
  9
$DIMSAH
 70
     0
  9
$DIMBLK1
  1

  9
$DIMBLK2
  1

  9
$DIMSTYLE
  2
ISO-25
  9
$DIMCLRD
 70
     0
  9
$DIMCLRE
 70
     0
  9
$DIMCLRT
 70
     0
  9
$DIMTFAC
 40
1.0
  9
$DIMGAP
 40
1.524
  9
$DIMJUST
 70
     0
  9
$DIMSD1
 70
     0
  9
$DIMSD2
 70
     0
  9
$DIMTOLJ
 70
     0
  9
$DIMTZIN
 70
     0
  9
$DIMALTZ
 70
     0
  9
$DIMALTTZ
 70
     0
  9
$DIMUPT
 70
     0
  9
$DIMDEC
 70
     2
  9
$DIMTDEC
 70
     2
  9
$DIMALTU
 70
     2
  9
$DIMALTTD
 70
     3
  9
$DIMTXSTY
  7
Standard
  9
$DIMAUNIT
 70
     0
  9
$DIMADEC
 70
     2
  9
$DIMALTRND
 40
0.0
  9
$DIMAZIN
 70
     0
  9
$DIMDSEP
 70
    44
  9
$DIMATFIT
 70
     3
  9
$DIMFRAC
 70
     0
  9
$DIMLDRBLK
  1

  9
$DIMLUNIT
 70
     2
  9
$DIMLWD
 70
    -2
  9
$DIMLWE
 70
    -2
  9
$DIMTMOVE
 70
     0
  9
$LUNITS
 70
     2
  9
$LUPREC
 70
     2
  9
$SKETCHINC
 40
1.0
  9
$FILLETRAD
 40
10.0
  9
$AUNITS
 70
     0
  9
$AUPREC
 70
     2
  9
$MENU
  1
.
  9
$ELEVATION
 40
0.0
  9
$PELEVATION
 40
0.0
  9
$THICKNESS
 40
0.0
  9
$LIMCHECK
 70
     0
  9
$CHAMFERA
 40
0.0
  9
$CHAMFERB
 40
0.0
  9
$CHAMFERC
 40
0.0
  9
$CHAMFERD
 40
0.0
  9
$SKPOLY
 70
     0
  9
$TDCREATE
 40
2458299.343457072
  9
$TDUCREATE
 40
2458298.968457072
  9
$TDUPDATE
 40
2458311.507490868
  9
$TDUUPDATE
 40
2458311.132490868
  9
$TDINDWG
 40
0.0027558681
  9
$TDUSRTIMER
 40
2458311.132367755
  9
$USRTIMER
 70
     1
  9
$ANGBASE
 50
0.0
  9
$ANGDIR
 70
     0
  9
$PDMODE
 70
     0
  9
$PDSIZE
 40
-1.0
  9
$PLINEWID
 40
0.0
  9
$SPLFRAME
 70
     0
  9
$SPLINETYPE
 70
     6
  9
$SPLINESEGS
 70
     8
  9
$HANDSEED
  5
23A
  9
$SURFTAB1
 70
     6
  9
$SURFTAB2
 70
     6
  9
$SURFTYPE
 70
     6
  9
$SURFU
 70
     6
  9
$SURFV
 70
     6
  9
$UCSBASE
  2

  9
$UCSNAME
  2

  9
$UCSORG
 10
0.0
 20
0.0
 30
0.0
  9
$UCSXDIR
 10
1.0
 20
0.0
 30
0.0
  9
$UCSYDIR
 10
0.0
 20
1.0
 30
0.0
  9
$UCSORTHOREF
  2

  9
$UCSORTHOVIEW
 70
     0
  9
$UCSORGTOP
 10
0.0
 20
0.0
 30
0.0
  9
$UCSORGBOTTOM
 10
0.0
 20
0.0
 30
0.0
  9
$UCSORGLEFT
 10
0.0
 20
0.0
 30
0.0
  9
$UCSORGRIGHT
 10
0.0
 20
0.0
 30
0.0
  9
$UCSORGFRONT
 10
0.0
 20
0.0
 30
0.0
  9
$UCSORGBACK
 10
0.0
 20
0.0
 30
0.0
  9
$PUCSBASE
  2

  9
$PUCSNAME
  2

  9
$PUCSORG
 10
0.0
 20
0.0
 30
0.0
  9
$PUCSXDIR
 10
1.0
 20
0.0
 30
0.0
  9
$PUCSYDIR
 10
0.0
 20
1.0
 30
0.0
  9
$PUCSORTHOREF
  2

  9
$PUCSORTHOVIEW
 70
     0
  9
$PUCSORGTOP
 10
0.0
 20
0.0
 30
0.0
  9
$PUCSORGBOTTOM
 10
0.0
 20
0.0
 30
0.0
  9
$PUCSORGLEFT
 10
0.0
 20
0.0
 30
0.0
  9
$PUCSORGRIGHT
 10
0.0
 20
0.0
 30
0.0
  9
$PUCSORGFRONT
 10
0.0
 20
0.0
 30
0.0
  9
$PUCSORGBACK
 10
0.0
 20
0.0
 30
0.0
  9
$USERI1
 70
     0
  9
$USERI2
 70
     0
  9
$USERI3
 70
     0
  9
$USERI4
 70
     0
  9
$USERI5
 70
     0
  9
$USERR1
 40
0.0
  9
$USERR2
 40
0.0
  9
$USERR3
 40
0.0
  9
$USERR4
 40
0.0
  9
$USERR5
 40
0.0
  9
$WORLDVIEW
 70
     1
  9
$SHADEDGE
 70
     3
  9
$SHADEDIF
 70
    70
  9
$TILEMODE
 70
     1
  9
$MAXACTVP
 70
    64
  9
$PINSBASE
 10
0.0
 20
0.0
 30
0.0
  9
$PLIMCHECK
 70
     0
  9
$PEXTMIN
 10
1.000000000000000E+20
 20
1.000000000000000E+20
 30
1.000000000000000E+20
  9
$PEXTMAX
 10
-1.000000000000000E+20
 20
-1.000000000000000E+20
 30
-1.000000000000000E+20
  9
$PLIMMIN
 10
0.0
 20
0.0
  9
$PLIMMAX
 10
0.0
 20
0.0
  9
$UNITMODE
 70
     0
  9
$VISRETAIN
 70
     1
  9
$PLINEGEN
 70
     0
  9
$PSLTSCALE
 70
     1
  9
$TREEDEPTH
 70
  3020
  9
$CMLSTYLE
  2
Standard
  9
$CMLJUST
 70
     0
  9
$CMLSCALE
 40
20.0
  9
$PROXYGRAPHICS
 70
     1
  9
$MEASUREMENT
 70
     1
  9
$CELWEIGHT
370
    -1
  9
$ENDCAPS
280
     0
  9
$JOINSTYLE
280
     0
  9
$LWDISPLAY
290
     1
  9
$INSUNITS
 70
     4
  9
$HYPERLINKBASE
  1

  9
$STYLESHEET
  1

  9
$XEDIT
290
     1
  9
$CEPSNTYPE
380
     0
  9
$PSTYLEMODE
290
     1
  9
$FINGERPRINTGUID
  2
{1DC7A0FB-46A4-4F9A-B470-B0BFD2E5D60F}
  9
$VERSIONGUID
  2
{FAEB1C32-E019-11D5-929B-00C0DF256EC4}
  9
$EXTNAMES
290
     1
  9
$PSVPSCALE
 40
0.0
  9
$OLESTARTUP
290
     0
  0
ENDSEC
  0
SECTION
  2
CLASSES
  0
CLASS
  1
ACDBDICTIONARYWDFLT
  2
AcDbDictionaryWithDefault
  3
ObjectDBX Classes
 90
        0
280
     0
281
     0
  0
CLASS
  1
VISUALSTYLE
  2
AcDbVisualStyle
  3
ObjectDBX Classes
 90
     4095
280
     0
281
     0
  0
CLASS
  1
MATERIAL
  2
AcDbMaterial
  3
ObjectDBX Classes
 90
     1153
280
     0
281
     0
  0
CLASS
  1
SCALE
  2
AcDbScale
  3
ObjectDBX Classes
 90
     1153
280
     0
281
     0
  0
CLASS
  1
SUN
  2
AcDbSun
  3
SCENEOE
 90
     1153
280
     0
281
     0
  0
CLASS
  1
ACDBPLACEHOLDER
  2
AcDbPlaceHolder
  3
ObjectDBX Classes
 90
        0
280
     0
281
     0
  0
CLASS
  1
LAYOUT
  2
AcDbLayout
  3
ObjectDBX Classes
 90
        0
280
     0
281
     0
  0
CLASS
  1
TABLESTYLE
  2
AcDbTableStyle
  3
ObjectDBX Classes
 90
     4095
280
     0
281
     0
  0
CLASS
  1
MLEADERSTYLE
  2
AcDbMLeaderStyle
  3
ACDB_MLEADERSTYLE_CLASS
 90
     4095
280
     0
281
     0
  0
CLASS
  1
RASTERVARIABLES
  2
AcDbRasterVariables
  3
ISM
 90
        0
280
     0
281
     0
  0
ENDSEC
  0
SECTION
  2
TABLES
  0
TABLE
  2
VPORT
  5
8
330
0
100
AcDbSymbolTable
 70
     1
  0
VPORT
  5
29
330
8
100
AcDbSymbolTableRecord
100
AcDbViewportTableRecord
  2
*Active
 70
     0
 10
0.0
 20
0.0
 11
1.0
 21
1.0
 12
-48.27944021127158
 22
-4.018272008617437
 13
0.0
 23
0.0
 14
10.0
 24
10.0
 15
10.0
 25
10.0
 16
0.0
 26
0.0
 36
1.0
 17
0.0
 27
0.0
 37
0.0
 40
181.8230925746086
 41
1.719535783365571
 42
50.0
 43
0.0
 44
0.0
 50
0.0
 51
0.0
 71
    16
 72
  2000
 73
     1
 74
     3
 75
     0
 76
     0
 77
     0
 78
     0
281
     0
 65
     1
110
0.0
120
0.0
130
0.0
111
1.0
121
0.0
131
0.0
112
0.0
122
1.0
132
0.0
 79
     0
146
0.0
  0
ENDTAB
  0
TABLE
  2
LTYPE
  5
5
330
0
100
AcDbSymbolTable
 70
     6
  0
LTYPE
  5
14
330
5
100
AcDbSymbolTableRecord
100
AcDbLinetypeTableRecord
  2
ByBlock
 70
     0
  3

 72
    65
 73
     0
 40
0.0
  0
LTYPE
  5
15
330
5
100
AcDbSymbolTableRecord
100
AcDbLinetypeTableRecord
  2
ByLayer
 70
     0
  3

 72
    65
 73
     0
 40
0.0
  0
LTYPE
  5
16
330
5
100
AcDbSymbolTableRecord
100
AcDbLinetypeTableRecord
  2
Continuous
 70
     0
  3
Solid line
 72
    65
 73
     0
 40
0.0
  0
LTYPE
  5
6A
330
5
100
AcDbSymbolTableRecord
100
AcDbLinetypeTableRecord
  2
HIDDEN
 70
     0
  3
Hidden __ __ __ __ __ __ __ __ __ __ __ __ __ __
 72
    65
 73
     2
 40
1.905
 49
1.27
 74
     0
 49
-0.635
 74
     0
  0
LTYPE
  5
6B
330
5
100
AcDbSymbolTableRecord
100
AcDbLinetypeTableRecord
  2
PHANTOM
 70
     0
  3
Phantom ______  __  __  ______  __  __  ______
 72
    65
 73
     6
 40
12.7
 49
6.35
 74
     0
 49
-1.27
 74
     0
 49
1.27
 74
     0
 49
-1.27
 74
     0
 49
1.27
 74
     0
 49
-1.27
 74
     0
  0
LTYPE
  5
6C
330
5
100
AcDbSymbolTableRecord
100
AcDbLinetypeTableRecord
  2
CENTER
 70
     0
  3
Center ____ _ ____ _ ____ _ ____ _ ____ _ ____
 72
    65
 73
     4
 40
10.16
 49
6.35
 74
     0
 49
-1.27
 74
     0
 49
1.27
 74
     0
 49
-1.27
 74
     0
  0
LTYPE
  5
6D
330
5
100
AcDbSymbolTableRecord
100
AcDbLinetypeTableRecord
  2
CENTERX2
 70
     0
  3
Center (2x) ________  __  ________  __  _____
 72
    65
 73
     4
 40
20.32
 49
12.7
 74
     0
 49
-2.54
 74
     0
 49
2.54
 74
     0
 49
-2.54
 74
     0
  0
LTYPE
  5
6E
330
5
100
AcDbSymbolTableRecord
100
AcDbLinetypeTableRecord
  2
DOT2
 70
     0
  3
Dot (.5x) ........................................
 72
    65
 73
     2
 40
0.635
 49
0.0
 74
     0
 49
-0.635
 74
     0
  0
ENDTAB
  0
TABLE
  2
LAYER
  5
2
102
{ACAD_XDICTIONARY
360
226
102
}
330
0
100
AcDbSymbolTable
 70
    18
  0
LAYER
  5
10
330
2
100
AcDbSymbolTableRecord
100
AcDbLayerTableRecord
  2
0
 70
     0
 62
     7
  6
Continuous
370
    -3
390
F
  0
LAYER
  5
6F
330
2
100
AcDbSymbolTableRecord
100
AcDbLayerTableRecord
  2
FORMAT
 70
     0
 62
     2
  6
Continuous
370
    -3
390
F
  0
LAYER
  5
70
330
2
100
AcDbSymbolTableRecord
100
AcDbLayerTableRecord
  2
외형선
 70
     0
 62
     4
  6
Continuous
370
    30
390
F
  0
LAYER
  5
71
330
2
100
AcDbSymbolTableRecord
100
AcDbLayerTableRecord
  2
숨은선
 70
     0
 62
     2
  6
HIDDEN
370
    15
390
F
  0
LAYER
  5
72
330
2
100
AcDbSymbolTableRecord
100
AcDbLayerTableRecord
  2
중심선
 70
     0
 62
     1
  6
CENTERX2
370
    -3
390
F
  0
LAYER
  5
73
330
2
100
AcDbSymbolTableRecord
100
AcDbLayerTableRecord
  2
파단선
 70
     0
 62
     4
  6
Continuous
370
    -3
390
F
  0
LAYER
  5
74
330
2
100
AcDbSymbolTableRecord
100
AcDbLayerTableRecord
  2
해칭선
 70
     0
 62
   100
  6
Continuous
370
    -3
390
F
  0
LAYER
  5
75
330
2
100
AcDbSymbolTableRecord
100
AcDbLayerTableRecord
  2
가는실선
 70
     0
 62
     4
  6
Continuous
370
    -3
390
F
  0
LAYER
  5
76
330
2
100
AcDbSymbolTableRecord
100
AcDbLayerTableRecord
  2
치수_보조선
 70
     0
 62
     4
  6
Continuous
370
    -3
390
F
  0
LAYER
  5
77
330
2
100
AcDbSymbolTableRecord
100
AcDbLayerTableRecord
  2
치수문자_일반주서
 70
     0
 62
     7
  6
Continuous
370
    15
390
F
  0
LAYER
  5
78
330
2
100
AcDbSymbolTableRecord
100
AcDbLayerTableRecord
  2
개별주서
 70
     0
 62
   100
  6
Continuous
370
    30
390
F
  0
LAYER
  5
79
330
2
100
AcDbSymbolTableRecord
100
AcDbLayerTableRecord
  2
중간선
 70
     0
 62
     2
  6
Continuous
370
    15
390
F
  0
LAYER
  5
7A
330
2
100
AcDbSymbolTableRecord
100
AcDbLayerTableRecord
  2
윤곽선
 70
     0
 62
     3
  6
Continuous
370
    40
390
F
  0
LAYER
  5
7B
330
2
100
AcDbSymbolTableRecord
100
AcDbLayerTableRecord
  2
중심마크
 70
     0
 62
   100
  6
Continuous
370
    30
390
F
  0
LAYER
  5
7C
330
2
100
AcDbSymbolTableRecord
100
AcDbLayerTableRecord
  2
가상선
 70
     0
 62
     4
  6
PHANTOM
370
    -3
390
F
  0
LAYER
  5
7D
330
2
100
AcDbSymbolTableRecord
100
AcDbLayerTableRecord
  2
특수지정선
 70
     0
 62
     5
  6
CENTERX2
370
    60
390
F
  0
LAYER
  5
7E
330
2
100
AcDbSymbolTableRecord
100
AcDbLayerTableRecord
  2
참조1
 70
     0
 62
    -4
  6
Continuous
370
    -3
390
F
  0
LAYER
  5
1A3
330
2
100
AcDbSymbolTableRecord
100
AcDbLayerTableRecord
  2
Defpoints
 70
     0
 62
     7
  6
Continuous
290
     0
370
    -3
390
F
  0
ENDTAB
  0
TABLE
  2
STYLE
  5
3
330
0
100
AcDbSymbolTable
 70
     2
  0
STYLE
  5
11
330
3
100
AcDbSymbolTableRecord
100
AcDbTextStyleTableRecord
  2
Standard
 70
     0
 40
0.0
 41
1.0
 50
0.0
 71
     0
 42
3.5
  3
txt
  4

  0
STYLE
  5
94
330
3
100
AcDbSymbolTableRecord
100
AcDbTextStyleTableRecord
  2
SLDTEXTSTYLE0
 70
     0
 40
0.0
 41
0.75
 50
0.0
 71
     0
 42
3.5
  3
TXT
  4

  0
ENDTAB
  0
TABLE
  2
VIEW
  5
6
330
0
100
AcDbSymbolTable
 70
     0
  0
ENDTAB
  0
TABLE
  2
UCS
  5
7
330
0
100
AcDbSymbolTable
 70
     0
  0
ENDTAB
  0
TABLE
  2
APPID
  5
9
330
0
100
AcDbSymbolTable
 70
     1
  0
APPID
  5
12
330
9
100
AcDbSymbolTableRecord
100
AcDbRegAppTableRecord
  2
ACAD
 70
     0
  0
ENDTAB
  0
TABLE
  2
DIMSTYLE
  5
A
330
0
100
AcDbSymbolTable
 70
     3
100
AcDbDimStyleTable
  0
DIMSTYLE
105
27
330
A
100
AcDbSymbolTableRecord
100
AcDbDimStyleTableRecord
  2
ISO-25
 70
     0
 41
2.5
 42
0.625
 43
3.75
 44
1.25
 73
     0
 74
     0
 77
     1
 78
     8
140
2.5
141
2.5
143
0.03937007874016
147
0.625
171
     3
172
     1
178
     0
271
     2
272
     2
274
     3
278
    44
283
     0
284
     8
340
11
  0
DIMSTYLE
105
122
102
{ACAD_REACTORS
330
121
330
135
102
}
330
A
100
AcDbSymbolTableRecord
100
AcDbDimStyleTableRecord
  2
SLDDIMSTYLE0
 70
     0
 41
3.302
 44
0.0
 45
0.000000001
 73
     0
 74
     0
 77
     1
 78
    12
 79
     3
140
3.5
143
0.0393700787401575
147
0.875
148
0.000000001
170
     1
172
     1
173
     1
178
     0
271
     2
272
     2
276
     2
284
    12
289
     0
340
94
  0
DIMSTYLE
105
14A
102
{ACAD_REACTORS
330
149
330
15E
102
}
330
A
100
AcDbSymbolTableRecord
100
AcDbDimStyleTableRecord
  2
SLDDIMSTYLE1
 70
     0
 41
3.302
 44
0.0
 45
0.000000001
 73
     0
 74
     0
 77
     1
 78
    12
 79
     3
140
3.5
143
0.0393700787401575
147
0.875
148
0.000000001
170
     1
173
     1
178
     0
271
     2
272
     2
276
     2
284
    12
340
94
  0
ENDTAB
  0
TABLE
  2
BLOCK_RECORD
  5
1
330
0
100
AcDbSymbolTable
 70
     8
  0
BLOCK_RECORD
  5
1F
330
1
100
AcDbSymbolTableRecord
100
AcDbBlockTableRecord
  2
*Model_Space
340
22
  0
BLOCK_RECORD
  5
1B
330
1
100
AcDbSymbolTableRecord
100
AcDbBlockTableRecord
  2
*Paper_Space
340
1E
  0
BLOCK_RECORD
  5
23
330
1
100
AcDbSymbolTableRecord
100
AcDbBlockTableRecord
  2
*Paper_Space0
340
26
  0
BLOCK_RECORD
  5
7F
330
1
100
AcDbSymbolTableRecord
100
AcDbBlockTableRecord
  2
블럭10
340
0
102
{BLKREFS
331
119
102
}
  0
BLOCK_RECORD
  5
123
330
1
100
AcDbSymbolTableRecord
100
AcDbBlockTableRecord
  2
_D
340
0
  0
BLOCK_RECORD
  5
136
330
1
100
AcDbSymbolTableRecord
100
AcDbBlockTableRecord
  2
_D_1
340
0
  0
BLOCK_RECORD
  5
14B
330
1
100
AcDbSymbolTableRecord
100
AcDbBlockTableRecord
  2
_D_2
340
0
  0
BLOCK_RECORD
  5
15F
330
1
100
AcDbSymbolTableRecord
100
AcDbBlockTableRecord
  2
_D_3
340
0
  0
BLOCK_RECORD
  5
178
330
1
100
AcDbSymbolTableRecord
100
AcDbBlockTableRecord
  2
SW_DOWELSYMBOL_0
340
0
102
{BLKREFS
331
17E
102
}
  0
ENDTAB
  0
ENDSEC
  0
SECTION
  2
BLOCKS
  0
BLOCK
  5
20
330
1F
100
AcDbEntity
  8
0
100
AcDbBlockBegin
  2
*Model_Space
 70
     0
 10
0.0
 20
0.0
 30
0.0
  3
*Model_Space
  1
*Model_Space
  0
ENDBLK
  5
21
330
1F
100
AcDbEntity
  8
0
100
AcDbBlockEnd
  0
BLOCK
  5
1C
330
1B
100
AcDbEntity
 67
     1
  8
0
100
AcDbBlockBegin
  2
*Paper_Space
 70
     0
 10
0.0
 20
0.0
 30
0.0
  3
*Paper_Space
  1
*Paper_Space
  0
ENDBLK
  5
1D
330
1B
100
AcDbEntity
 67
     1
  8
0
100
AcDbBlockEnd
  0
BLOCK
  5
24
330
23
100
AcDbEntity
  8
0
100
AcDbBlockBegin
  2
*Paper_Space0
 70
     0
 10
0.0
 20
0.0
 30
0.0
  3
*Paper_Space0
  1
*Paper_Space0
  0
ENDBLK
  5
25
330
23
100
AcDbEntity
  8
0
100
AcDbBlockEnd
  0
BLOCK
  5
80
330
7F
100
AcDbEntity
  8
0
100
AcDbBlockBegin
  2
블럭10
 70
     2
 10
0.0
 20
0.0
 30
0.0
  3
블럭10
  1
블럭10
  0
ELLIPSE
  5
82
330
7F
100
AcDbEntity
  8
중심선
100
AcDbEllipse
 10
20.54032771741204
 20
12.0471743016438
 30
0.0
 11
6.600054785286829
 21
-1.261213355974178E-13
 31
0.0
210
0.0
220
0.0
230
1.0
 40
0.636358354079598
 41
0.9219305317359503
 42
6.513795318482858
  0
ELLIPSE
  5
83
330
7F
100
AcDbEntity
  8
중심선
100
AcDbEllipse
 10
20.54032771746488
 20
12.04717430159265
 30
0.0
 11
3.960054785062283
 21
1.540847449632565E-10
 31
0.0
210
0.0
220
0.0
230
1.0
 40
0.3939339440162632
 41
1.131841032648279
 42
5.62031148352944
  0
LINE
  5
84
330
7F
100
AcDbEntity
  8
중심선
100
AcDbLine
 10
2.268634060543552
 20
16.24717430164393
 30
0.0
 11
5.714909304380834
 21
16.24717430164393
 31
0.0
  0
LINE
  5
85
330
7F
100
AcDbEntity
  8
중심선
100
AcDbLine
 10
5.245725140726316
 20
7.84717430164391
 30
0.0
 11
8.692000384563599
 21
7.84717430164391
 31
0.0
  0
LINE
  5
86
330
7F
100
AcDbEntity
  8
중심선
100
AcDbLine
 10
15.74043728645272
 20
16.24717430164393
 30
0.0
 11
8.692000384563599
 21
7.84717430164391
 31
0.0
  0
LINE
  5
87
330
7F
100
AcDbEntity
  8
중심선
100
AcDbLine
 10
0.1404042013395286
 20
13.71084872107135
 30
0.0
 11
3.58671253028996
 21
13.71088815037384
 31
0.0
  0
LINE
  5
88
330
7F
100
AcDbEntity
  8
중심선
100
AcDbLine
 10
2.750260043222114
 20
10.84717430164391
 30
0.0
 11
6.196535287059397
 21
10.84717430164391
 31
0.0
  0
LINE
  5
89
330
7F
100
AcDbEntity
  8
중심선
100
AcDbLine
 10
12.29416204261559
 20
16.24717430164393
 30
0.0
 11
5.245725140726316
 21
7.84717430164391
 31
0.0
  0
LINE
  5
8A
330
7F
100
AcDbEntity
  8
중심선
100
AcDbLine
 10
10.72767329541681
 20
16.24717430164393
 30
0.0
 11
6.196535287059397
 21
10.84717430164391
 31
0.0
  0
LINE
  5
8B
330
7F
100
AcDbEntity
  8
중심선
100
AcDbLine
 10
7.28139805157953
 20
16.24717430164393
 30
0.0
 11
2.750260043222114
 21
10.84717430164391
 31
0.0
  0
LINE
  5
8C
330
7F
100
AcDbEntity
  8
중심선
100
AcDbLine
 10
5.714909304380834
 20
16.24717430164393
 30
0.0
 11
3.58671253028996
 21
13.71088815037384
 31
0.0
  0
LINE
  5
8D
330
7F
100
AcDbEntity
  8
중심선
100
AcDbLine
 10
2.268634060543552
 20
16.24717430164393
 30
0.0
 11
0.1404042013395286
 21
13.71084872107135
 31
0.0
  0
LINE
  5
8E
330
7F
100
AcDbEntity
  8
중심선
100
AcDbLine
 10
7.28139805157953
 20
16.24717430164393
 30
0.0
 11
10.72767329541681
 21
16.24717430164393
 31
0.0
  0
LINE
  5
8F
330
7F
100
AcDbEntity
  8
중심선
100
AcDbLine
 10
12.29416204261559
 20
16.24717430164393
 30
0.0
 11
15.74043728645272
 21
16.24717430164393
 31
0.0
  0
LINE
  5
90
330
7F
100
AcDbEntity
  8
중심선
100
AcDbLine
 10
19.22036997980202
 20
11.08717430171403
 30
0.0
 11
23.66174974927406
 21
11.08717430171406
 31
0.0
  0
LINE
  5
91
330
7F
100
AcDbEntity
  8
중심선
100
AcDbLine
 10
19.22039502424796
 20
13.00717430171391
 30
0.0
 11
19.22036997980202
 21
11.08717430171403
 31
0.0
  0
LINE
  5
92
330
7F
100
AcDbEntity
  8
중심선
100
AcDbLine
 10
19.22039502424796
 20
13.00717430171391
 30
0.0
 11
26.96566020931264
 21
13.00717430171391
 31
0.0
  0
LINE
  5
93
330
7F
100
AcDbEntity
  8
중심선
100
AcDbLine
 10
22.22332737316547
 20
13.45928029700563
 30
0.0
 11
24.52862924686651
 21
15.39360700705356
 31
0.0
  0
ATTDEF
  5
95
330
7F
100
AcDbEntity
  8
FORMAT
 62
     2
100
AcDbText
 10
-9.522313950597932
 20
2.075366912832191
 30
0.0
 40
4.233333333333333
  1
EH094016 [ 3 FLUTE ]
 41
0.75
  7
SLDTEXTSTYLE0
 11
-9.522313950597932
 21
-0.0412997538344756
 31
0.0
100
AcDbAttributeDefinition
  3

  2
AUTOATTR0
 70
     0
 74
     1
  0
ENDBLK
  5
81
330
7F
100
AcDbEntity
  8
0
100
AcDbBlockEnd
  0
BLOCK
  5
124
330
123
100
AcDbEntity
  8
0
100
AcDbBlockBegin
  2
_D
 70
     0
 10
0.0
 20
0.0
 30
0.0
  3
_D
  1
_D
  0
LINE
  5
126
330
123
100
AcDbEntity
  8
치수문자_일반주서
 62
     0
370
    -2
100
AcDbLine
 10
12.77412040338423
 20
3.175000000000001
 30
0.0
 11
26.94265468841245
 21
3.175000000000054
 31
0.0
  0
LINE
  5
127
330
123
100
AcDbEntity
  8
치수문자_일반주서
 62
     0
370
    -2
100
AcDbLine
 10
12.77412040338423
 20
-3.174999999999998
 30
0.0
 11
26.94265468841247
 21
-3.174999999999944
 31
0.0
  0
LINE
  5
128
330
123
100
AcDbEntity
  8
치수문자_일반주서
 62
     0
370
    -2
100
AcDbLine
 10
26.94265468841245
 20
3.175000000000054
 30
0.0
 11
26.94265468841234
 21
35.15400000000011
 31
0.0
  0
LINE
  5
129
330
123
100
AcDbEntity
  8
치수문자_일반주서
 62
     0
370
    -2
100
AcDbLine
 10
26.94265468841245
 20
3.175000000000054
 30
0.0
 11
26.94265468841247
 21
-3.174999999999944
 31
0.0
  0
LINE
  5
12A
330
123
100
AcDbEntity
  8
치수문자_일반주서
 62
     0
370
    -2
100
AcDbLine
 10
26.94265468841244
 20
6.477000000000054
 30
0.0
 11
26.94265468841242
 21
9.779000000000053
 31
0.0
  0
LINE
  5
12B
330
123
100
AcDbEntity
  8
치수문자_일반주서
 62
     0
370
    -2
100
AcDbLine
 10
26.94265468841248
 20
-6.476999999999943
 30
0.0
 11
26.94265468841249
 21
-9.778999999999943
 31
0.0
  0
SOLID
  5
12C
330
123
100
AcDbEntity
  8
치수문자_일반주서
 62
     0
100
AcDbTrace
 10
26.3923213550791
 20
6.477000000000052
 30
0.0
 11
27.49298802174577
 21
6.477000000000055
 31
0.0
 12
26.94265468841245
 22
3.175000000000054
 32
0.0
 13
26.94265468841245
 23
3.175000000000054
 33
0.0
  0
SOLID
  5
12D
330
123
100
AcDbEntity
  8
치수문자_일반주서
 62
     0
100
AcDbTrace
 10
27.49298802174581
 20
-6.476999999999942
 30
0.0
 11
26.39232135507914
 21
-6.476999999999945
 31
0.0
 12
26.94265468841247
 22
-3.174999999999944
 32
0.0
 13
26.94265468841247
 23
-3.174999999999944
 33
0.0
  0
MTEXT
  5
12E
330
123
100
AcDbEntity
  8
치수문자_일반주서
 62
     0
100
AcDbMText
 10
22.56765468841238
 20
22.4665000000001
 30
0.0
 40
3.5
 41
0.0
 71
     2
 72
     1
  1
\A1;%%c6.35 [1/4]
  7
SLDTEXTSTYLE0
 11
-3.356894814614647E-15
 21
1.0
 31
0.0
 73
     1
 44
1.0
  0
POINT
  5
12F
330
123
100
AcDbEntity
  8
Defpoints
 62
     0
100
AcDbPoint
 10
12.71162040338423
 20
3.175000000000001
 30
0.0
  0
POINT
  5
130
330
123
100
AcDbEntity
  8
Defpoints
 62
     0
100
AcDbPoint
 10
12.71162040338423
 20
-3.174999999999999
 30
0.0
  0
POINT
  5
131
330
123
100
AcDbEntity
  8
Defpoints
 62
     0
100
AcDbPoint
 10
26.94265468841247
 20
-3.174999999999946
 30
0.0
  0
ENDBLK
  5
125
330
123
100
AcDbEntity
  8
0
100
AcDbBlockEnd
  0
BLOCK
  5
137
330
136
100
AcDbEntity
  8
0
100
AcDbBlockBegin
  2
_D_1
 70
     0
 10
0.0
 20
0.0
 30
0.0
  3
_D_1
  1
_D_1
  0
LINE
  5
139
330
136
100
AcDbEntity
  8
치수문자_일반주서
 62
     0
370
    -2
100
AcDbLine
 10
-38.86587959661578
 20
4.762500000000006
 30
0.0
 11
-49.61337959661585
 21
4.762499999999966
 31
0.0
  0
LINE
  5
13A
330
136
100
AcDbEntity
  8
치수문자_일반주서
 62
     0
370
    -2
100
AcDbLine
 10
-38.86587959661578
 20
-4.762499999999996
 30
0.0
 11
-49.61337959661581
 21
-4.762500000000037
 31
0.0
  0
LINE
  5
13B
330
136
100
AcDbEntity
  8
치수문자_일반주서
 62
     0
370
    -2
100
AcDbLine
 10
-49.61337959661584
 20
1.460499999999965
 30
0.0
 11
-49.61337959661583
 21
-1.460500000000037
 31
0.0
  0
SOLID
  5
13C
330
136
100
AcDbEntity
  8
치수문자_일반주서
 62
     0
100
AcDbTrace
 10
-49.0630462632825
 20
1.460499999999967
 30
0.0
 11
-50.16371292994917
 21
1.460499999999963
 31
0.0
 12
-49.61337959661585
 22
4.762499999999966
 32
0.0
 13
-49.61337959661585
 23
4.762499999999966
 33
0.0
  0
SOLID
  5
13D
330
136
100
AcDbEntity
  8
치수문자_일반주서
 62
     0
100
AcDbTrace
 10
-50.16371292994916
 20
-1.460500000000039
 30
0.0
 11
-49.06304626328249
 21
-1.460500000000035
 31
0.0
 12
-49.61337959661581
 22
-4.762500000000037
 32
0.0
 13
-49.61337959661581
 23
-4.762500000000037
 33
0.0
  0
MTEXT
  5
13E
330
136
100
AcDbEntity
  8
치수문자_일반주서
 62
     0
100
AcDbMText
 10
-53.98837959661583
 20
-0.5086721738103303
 30
0.0
 40
3.5
 41
0.0
 71
     2
 72
     1
  1
\A1;%%c9.53 [3/8]
  7
SLDTEXTSTYLE0
 11
-3.729883127349607E-15
 21
1.0
 31
0.0
 73
     1
 44
1.0
  0
POINT
  5
13F
330
136
100
AcDbEntity
  8
Defpoints
 62
     0
100
AcDbPoint
 10
-38.80337959661578
 20
4.762500000000006
 30
0.0
  0
POINT
  5
140
330
136
100
AcDbEntity
  8
Defpoints
 62
     0
100
AcDbPoint
 10
-38.80337959661578
 20
-4.762499999999996
 30
0.0
  0
POINT
  5
141
330
136
100
AcDbEntity
  8
Defpoints
 62
     0
100
AcDbPoint
 10
-49.61337959661581
 20
-4.762500000000036
 30
0.0
  0
ENDBLK
  5
138
330
136
100
AcDbEntity
  8
0
100
AcDbBlockEnd
  0
BLOCK
  5
14C
330
14B
100
AcDbEntity
  8
0
100
AcDbBlockBegin
  2
_D_2
 70
     0
 10
0.0
 20
0.0
 30
0.0
  3
_D_2
  1
_D_2
  0
LINE
  5
14E
330
14B
100
AcDbEntity
  8
치수문자_일반주서
 62
     0
370
    -2
100
AcDbLine
 10
12.71162040338422
 20
2.082106629395931
 30
0.0
 11
12.71162040338422
 21
19.34732179202409
 31
0.0
  0
LINE
  5
14F
330
14B
100
AcDbEntity
  8
치수문자_일반주서
 62
     0
370
    -2
100
AcDbLine
 10
6.36162040338423
 20
3.237500000000001
 30
0.0
 11
6.361620403384229
 21
19.34732179202409
 31
0.0
  0
LINE
  5
150
330
14B
100
AcDbEntity
  8
치수문자_일반주서
 62
     0
370
    -2
100
AcDbLine
 10
6.361620403384229
 20
19.34732179202409
 30
0.0
 11
-25.89237959661578
 21
19.34732179202409
 31
0.0
  0
LINE
  5
151
330
14B
100
AcDbEntity
  8
치수문자_일반주서
 62
     0
370
    -2
100
AcDbLine
 10
16.01362040338422
 20
19.34732179202409
 30
0.0
 11
19.31562040338422
 21
19.34732179202409
 31
0.0
  0
LINE
  5
152
330
14B
100
AcDbEntity
  8
치수문자_일반주서
 62
     0
370
    -2
100
AcDbLine
 10
3.059620403384229
 20
19.34732179202409
 30
0.0
 11
-0.2423795966157707
 21
19.34732179202409
 31
0.0
  0
SOLID
  5
153
330
14B
100
AcDbEntity
  8
치수문자_일반주서
 62
     0
100
AcDbTrace
 10
16.01362040338422
 20
19.89765512535742
 30
0.0
 11
16.01362040338422
 21
18.79698845869076
 31
0.0
 12
12.71162040338422
 22
19.34732179202409
 32
0.0
 13
12.71162040338422
 23
19.34732179202409
 33
0.0
  0
SOLID
  5
154
330
14B
100
AcDbEntity
  8
치수문자_일반주서
 62
     0
100
AcDbTrace
 10
3.059620403384229
 20
18.79698845869076
 30
0.0
 11
3.059620403384229
 21
19.89765512535742
 31
0.0
 12
6.361620403384229
 22
19.34732179202409
 32
0.0
 13
6.361620403384229
 23
19.34732179202409
 33
0.0
  0
MTEXT
  5
155
330
14B
100
AcDbEntity
  8
치수문자_일반주서
 62
     0
100
AcDbMText
 10
-14.51737959661578
 20
23.72232179202409
 30
0.0
 40
3.5
 41
0.0
 71
     2
 72
     1
  1
\A1;6.35 [1/4]
  7
SLDTEXTSTYLE0
 73
     1
 44
1.0
  0
POINT
  5
156
330
14B
100
AcDbEntity
  8
Defpoints
 62
     0
100
AcDbPoint
 10
12.71162040338422
 20
2.019606629395931
 30
0.0
  0
POINT
  5
157
330
14B
100
AcDbEntity
  8
Defpoints
 62
     0
100
AcDbPoint
 10
6.36162040338423
 20
3.175000000000001
 30
0.0
  0
POINT
  5
158
330
14B
100
AcDbEntity
  8
Defpoints
 62
     0
100
AcDbPoint
 10
6.36162040338423
 20
19.34732179202409
 30
0.0
  0
ENDBLK
  5
14D
330
14B
100
AcDbEntity
  8
0
100
AcDbBlockEnd
  0
BLOCK
  5
160
330
15F
100
AcDbEntity
  8
0
100
AcDbBlockBegin
  2
_D_3
 70
     0
 10
0.0
 20
0.0
 30
0.0
  3
_D_3
  1
_D_3
  0
LINE
  5
162
330
15F
100
AcDbEntity
  8
치수문자_일반주서
 62
     0
370
    -2
100
AcDbLine
 10
12.71162040338422
 20
2.082106629395931
 30
0.0
 11
12.71162040338422
 21
36.01698679301992
 31
0.0
  0
LINE
  5
163
330
15F
100
AcDbEntity
  8
치수문자_일반주서
 62
     0
370
    -2
100
AcDbLine
 10
-39.67587959661577
 20
4.014999999999996
 30
0.0
 11
-39.67587959661577
 21
36.01698679301992
 31
0.0
  0
LINE
  5
164
330
15F
100
AcDbEntity
  8
치수문자_일반주서
 62
     0
370
    -2
100
AcDbLine
 10
9.409620403384224
 20
36.01698679301992
 30
0.0
 11
-36.37387959661577
 21
36.01698679301992
 31
0.0
  0
SOLID
  5
165
330
15F
100
AcDbEntity
  8
치수문자_일반주서
 62
     0
100
AcDbTrace
 10
9.409620403384224
 20
35.46665345968658
 30
0.0
 11
9.409620403384224
 21
36.56732012635325
 31
0.0
 12
12.71162040338422
 22
36.01698679301992
 32
0.0
 13
12.71162040338422
 23
36.01698679301992
 33
0.0
  0
SOLID
  5
166
330
15F
100
AcDbEntity
  8
치수문자_일반주서
 62
     0
100
AcDbTrace
 10
-36.37387959661577
 20
36.56732012635325
 30
0.0
 11
-36.37387959661577
 21
35.46665345968658
 31
0.0
 12
-39.67587959661577
 22
36.01698679301992
 32
0.0
 13
-39.67587959661577
 23
36.01698679301992
 33
0.0
  0
MTEXT
  5
167
330
15F
100
AcDbEntity
  8
치수문자_일반주서
 62
     0
100
AcDbMText
 10
-11.9160358797729
 20
40.39198679301992
 30
0.0
 40
3.5
 41
0.0
 71
     2
 72
     1
  1
\A1;52.39 [2 1/16]
  7
SLDTEXTSTYLE0
 73
     1
 44
1.0
  0
POINT
  5
168
330
15F
100
AcDbEntity
  8
Defpoints
 62
     0
100
AcDbPoint
 10
12.71162040338422
 20
2.019606629395931
 30
0.0
  0
POINT
  5
169
330
15F
100
AcDbEntity
  8
Defpoints
 62
     0
100
AcDbPoint
 10
-39.67587959661577
 20
3.952499999999996
 30
0.0
  0
POINT
  5
16A
330
15F
100
AcDbEntity
  8
Defpoints
 62
     0
100
AcDbPoint
 10
-39.67587959661577
 20
36.01698679301992
 30
0.0
  0
ENDBLK
  5
161
330
15F
100
AcDbEntity
  8
0
100
AcDbBlockEnd
  0
BLOCK
  5
179
330
178
100
AcDbEntity
  8
0
100
AcDbBlockBegin
  2
SW_DOWELSYMBOL_0
 70
     0
 10
0.0
 20
0.0
 30
0.0
  3
SW_DOWELSYMBOL_0
  1
SW_DOWELSYMBOL_0
  0
CIRCLE
  5
17B
330
178
100
AcDbEntity
  8
해칭선
 62
     0
100
AcDbCircle
 10
0.0
 20
0.0
 30
0.0
 40
3.000000000000004
  0
HATCH
  5
17C
330
178
100
AcDbEntity
  8
0
  6
Continuous
 62
     0
370
     0
100
AcDbHatch
 10
0.0
 20
0.0
 30
0.0
210
0.0
220
0.0
230
1.0
  2
SOLID
 70
     1
 71
     0
 91
        1
 92
        0
 93
        3
 72
     2
 10
0.0000000000000104
 20
-0.0000000000000035
 40
3.000000000000004
 50
0.0
 51
90.0
 73
     1
 72
     1
 10
0.0000000000000104
 20
3.000000000000001
 11
0.0000000000000104
 21
-0.0000000000000036
 72
     1
 10
0.0000000000000104
 20
-0.0000000000000035
 11
3.000000000000015
 21
-0.0000000000000035
 97
        0
 75
     0
 76
     1
 98
        1
 10
0.0
 20
0.0
  0
HATCH
  5
17D
330
178
100
AcDbEntity
  8
0
  6
Continuous
 62
     0
370
     0
100
AcDbHatch
 10
0.0
 20
0.0
 30
0.0
210
0.0
220
0.0
230
1.0
  2
SOLID
 70
     1
 71
     0
 91
        1
 92
        0
 93
        3
 72
     2
 10
0.0000000000000104
 20
-0.0000000000000035
 40
3.000000000000004
 50
180.0
 51
270.0000000000007
 73
     1
 72
     1
 10
0.0000000000000104
 20
-3.000000000000008
 11
0.0000000000000104
 21
-0.0000000000000036
 72
     1
 10
0.0000000000000104
 20
-0.0000000000000035
 11
-2.999999999999994
 21
-0.0000000000000035
 97
        0
 75
     0
 76
     1
 98
        1
 10
0.0
 20
0.0
  0
ENDBLK
  5
17A
330
178
100
AcDbEntity
  8
0
100
AcDbBlockEnd
  0
ENDSEC
  0
SECTION
  2
ENTITIES
  0
LINE
  5
96
330
1F
100
AcDbEntity
  8
외형선
  6
Continuous
370
    15
100
AcDbLine
 10
1.99999999999998
 20
4.762500000000014
 30
0.0
 11
-14.99342959661564
 21
4.762500000000011
 31
0.0
  0
LINE
  5
97
330
1F
100
AcDbEntity
  8
외형선
  6
Continuous
370
    15
100
AcDbLine
 10
-38.86587959661577
 20
-4.762500000000001
 30
0.0
 11
2.000000000000021
 21
-4.762499999999996
 31
0.0
  0
LINE
  5
98
330
1F
100
AcDbEntity
  8
외형선
  6
Continuous
370
    15
100
AcDbLine
 10
-38.86587959661577
 20
4.762499999999997
 30
0.0
 11
-39.67587959661577
 21
3.952499999999996
 31
0.0
  0
LINE
  5
99
330
1F
100
AcDbEntity
  8
외형선
  6
Continuous
370
    15
100
AcDbLine
 10
-39.67587959661577
 20
-3.952500000000005
 30
0.0
 11
-38.86587959661577
 21
-4.762500000000006
 31
0.0
  0
LINE
  5
9B
330
1F
100
AcDbEntity
  8
외형선
  6
Continuous
 62
     1
370
    15
100
AcDbLine
 10
6.608661925616114
 20
-3.174999999999999
 30
0.0
 11
7.248865373128685
 21
-3.174999999999999
 31
0.0
  0
SPLINE
  5
9C
330
1F
100
AcDbEntity
  8
외형선
  6
Continuous
 62
     1
370
    15
100
AcDbSpline
210
0.0
220
0.0
230
1.0
 70
     8
 71
     3
 72
     9
 73
     5
 74
     0
 42
0.000000001
 43
0.00000001
 40
0.0
 40
0.0
 40
0.0
 40
0.0
 40
0.5021816855565762
 40
1.0
 40
1.0
 40
1.0
 40
1.0
 10
7.246672624871445
 20
-3.174902927116598
 30
0.0
 10
7.276840740240375
 20
-3.172587258606801
 30
0.0
 10
7.336914845363284
 20
-3.167976042036388
 30
0.0
 10
7.388733450257605
 20
-3.135822783251558
 30
0.0
 10
7.414529700802894
 20
-3.119816302159431
 30
0.0
  0
SPLINE
  5
9D
330
1F
100
AcDbEntity
  8
외형선
  6
Continuous
 62
     1
370
    15
100
AcDbSpline
210
0.0
220
0.0
230
1.0
 70
     8
 71
     3
 72
    11
 73
     7
 74
     0
 42
0.000000001
 43
0.00000001
 40
0.0
 40
0.0
 40
0.0
 40
0.0
 40
0.2816888899689014
 40
0.5467117913934318
 40
0.7866901291100473
 40
1.0
 40
1.0
 40
1.0
 40
1.0
 10
7.428371595719674
 20
-3.112164683995312
 30
0.0
 10
7.478748205463854
 20
-3.081088219560382
 30
0.0
 10
7.576520916913744
 20
-3.020773914856101
 30
0.0
 10
7.749637566420675
 20
-3.007776585507919
 30
0.0
 10
7.895111707676844
 20
-3.044450999964413
 30
0.0
 10
7.961302444499684
 20
-3.088678220520905
 30
0.0
 10
7.992450701299025
 20
-3.10949081287959
 30
0.0
  0
SPLINE
  5
9E
330
1F
100
AcDbEntity
  8
외형선
  6
Continuous
 62
     1
370
    15
100
AcDbSpline
210
0.0
220
0.0
230
1.0
 70
     8
 71
     3
 72
     9
 73
     5
 74
     0
 42
0.000000001
 43
0.00000001
 40
0.0
 40
0.0
 40
0.0
 40
0.0
 40
0.4978804683456802
 40
0.9999999999999999
 40
0.9999999999999999
 40
0.9999999999999999
 40
0.9999999999999999
 10
7.994782617885325
 20
-3.111397675917515
 30
0.0
 10
8.022724541172654
 20
-3.129754989306714
 30
0.0
 10
8.078846291399504
 20
-3.166625914270282
 30
0.0
 10
8.143078100531262
 20
-3.172200689262377
 30
0.0
 10
8.175330146449813
 20
-3.174999892670487
 30
0.0
  0
LINE
  5
9F
330
1F
100
AcDbEntity
  8
외형선
  6
Continuous
 62
     1
370
    15
100
AcDbLine
 10
8.175176231592495
 20
-3.174999999999999
 30
0.0
 11
9.249171763703224
 21
-3.174999999999999
 31
0.0
  0
SPLINE
  5
A0
330
1F
100
AcDbEntity
  8
외형선
  6
Continuous
 62
     1
370
    15
100
AcDbSpline
210
0.0
220
0.0
230
1.0
 70
     8
 71
     3
 72
     9
 73
     5
 74
     0
 42
0.000000001
 43
0.00000001
 40
0.0
 40
0.0
 40
0.0
 40
0.0
 40
0.5030396842441898
 40
1.0
 40
1.0
 40
1.0
 40
1.0
 10
9.249169962994785
 20
-3.17499999848234
 30
0.0
 10
9.280922288638173
 20
-3.172295766768542
 30
0.0
 10
9.344043204617403
 20
-3.166919984701045
 30
0.0
 10
9.399176566314495
 20
-3.131232308680143
 30
0.0
 10
9.426575659152164
 20
-3.113496949936204
 30
0.0
  0
SPLINE
  5
A1
330
1F
100
AcDbEntity
  8
외형선
  6
Continuous
 62
     1
370
    15
100
AcDbSpline
210
0.0
220
0.0
230
1.0
 70
     8
 71
     3
 72
    10
 73
     6
 74
     0
 42
0.000000001
 43
0.00000001
 40
0.0
 40
0.0
 40
0.0
 40
0.0
 40
0.3772385214780509
 40
0.7706722663180553
 40
0.9999999999999999
 40
0.9999999999999999
 40
0.9999999999999999
 40
0.9999999999999999
 10
9.426222179640785
 20
-3.113747154919093
 30
0.0
 10
9.468975257397464
 20
-3.086566180939721
 30
0.0
 10
9.556316844883604
 20
-3.031037326846717
 30
0.0
 10
9.698780664721014
 20
-3.003577234438327
 30
0.0
 10
9.782827236763435
 20
-3.023976411185028
 30
0.0
 10
9.813776822688315
 20
-3.031488271076237
 30
0.0
  0
LINE
  5
A2
330
1F
100
AcDbEntity
  8
외형선
  6
Continuous
 62
     1
370
    15
100
AcDbLine
 10
12.71162040338422
 20
2.074999999999999
 30
0.0
 11
12.13509743471488
 21
2.651522968669354
 31
0.0
  0
LINE
  5
AB
330
1F
100
AcDbEntity
  8
외형선
  6
Continuous
370
    15
100
AcDbLine
 10
-38.86587959661577
 20
3.174999999999996
 30
0.0
 11
-38.86587959661577
 21
-3.175000000000004
 31
0.0
  0
LINE
  5
AD
330
1F
100
AcDbEntity
  8
외형선
  6
Continuous
370
    15
100
AcDbLine
 10
-39.67587959661577
 20
3.952499999999996
 30
0.0
 11
-39.67587959661577
 21
-3.952500000000005
 31
0.0
  0
SPLINE
  5
AF
330
1F
100
AcDbEntity
  8
외형선
  6
Continuous
 62
     1
370
    15
100
AcDbSpline
210
0.0
220
0.0
230
1.0
 70
     8
 71
     3
 72
    12
 73
     8
 74
     0
 42
0.000000001
 43
0.00000001
 40
0.0
 40
0.0
 40
0.0
 40
0.0
 40
0.5000000000000011
 40
0.5000000000000011
 40
0.7500000000000006
 40
0.7500000000000006
 40
1.0
 40
1.0
 40
1.0
 40
1.0
 10
11.61162040338423
 20
0.8240468249759444
 30
0.0
 10
11.79022529229941
 20
0.6998857724252204
 30
0.0
 10
11.97098558011593
 20
0.6046894078254405
 30
0.0
 10
12.25020601148319
 20
0.5154440827363396
 30
0.0
 10
12.34438902221547
 20
0.4950374531924314
 30
0.0
 10
12.52966386688248
 20
0.4769591173785803
 30
0.0
 10
12.62152396136048
 20
0.4788932740700951
 30
0.0
 10
12.71162040338422
 20
0.4950880597006297
 30
0.0
  0
LINE
  5
B0
330
1F
100
AcDbEntity
  8
외형선
  6
Continuous
 62
     1
370
    15
100
AcDbLine
 10
12.71162040338422
 20
0.4950880597006291
 30
0.0
 11
12.71162040338422
 21
-1.422247913250309
 31
0.0
  0
SPLINE
  5
B1
330
1F
100
AcDbEntity
  8
외형선
  6
Continuous
 62
     1
370
    15
100
AcDbSpline
210
0.0
220
0.0
230
1.0
 70
     8
 71
     3
 72
     8
 73
     4
 74
     0
 42
0.000000001
 43
0.00000001
 40
0.000000298923855
 40
0.000000298923855
 40
0.000000298923855
 40
0.000000298923855
 40
0.0000177306358404
 40
0.0000177306358404
 40
0.0000177306358404
 40
0.0000177306358404
 10
12.71162040338422
 20
-1.42224791325031
 30
0.0
 10
12.70773272757717
 20
-1.42628158026393
 30
0.0
 10
12.70384403813078
 20
-1.430314986366278
 30
0.0
 10
12.69995435003669
 20
-1.43434813340012
 30
0.0
  0
SPLINE
  5
B2
330
1F
100
AcDbEntity
  8
외형선
  6
Continuous
 62
     1
370
    15
100
AcDbSpline
210
0.0
220
0.0
230
1.0
 70
     8
 71
     3
 72
    10
 73
     6
 74
     0
 42
0.000000001
 43
0.00000001
 40
0.0
 40
0.0
 40
0.0
 40
0.0
 40
0.5
 40
0.5
 40
1.0
 40
1.0
 40
1.0
 40
1.0
 10
12.69995435003277
 20
-1.434348133390966
 30
0.0
 10
12.54189034156785
 20
-1.407918869277196
 30
0.0
 10
12.37122033917704
 20
-1.37655954279616
 30
0.0
 10
12.02034975306969
 20
-1.301564415943013
 30
0.0
 10
11.8396667505133
 20
-1.258084971001902
 30
0.0
 10
11.65627691607094
 20
-1.208606141972594
 30
0.0
  0
SPLINE
  5
B3
330
1F
100
AcDbEntity
  8
외형선
  6
Continuous
 62
     1
370
    15
100
AcDbSpline
210
0.0
220
0.0
230
1.0
 70
     8
 71
     3
 72
    10
 73
     6
 74
     0
 42
0.000000001
 43
0.00000001
 40
0.0
 40
0.0
 40
0.0
 40
0.0
 40
0.5
 40
0.5
 40
1.0
 40
1.0
 40
1.0
 40
1.0
 10
11.61162040338423
 20
0.6291552848821783
 30
0.0
 10
11.61162040338423
 20
0.3191889143805099
 30
0.0
 10
11.61684333689686
 20
0.0013664256617499
 30
0.0
 10
11.63297695517088
 20
-0.617505690312588
 30
0.0
 10
11.64425687695687
 20
-0.9244433221549714
 30
0.0
 10
11.65735589731876
 20
-1.208897192610662
 30
0.0
  0
LINE
  5
B4
330
1F
100
AcDbEntity
  8
외형선
  6
Continuous
 62
     1
370
    15
100
AcDbLine
 10
11.61162040338423
 20
0.6234275064024489
 30
0.0
 11
11.61162040338423
 21
0.8240468249759444
 31
0.0
  0
SPLINE
  5
B5
330
1F
100
AcDbEntity
  8
외형선
  6
Continuous
 62
     1
370
    15
100
AcDbSpline
210
0.0
220
0.0
230
1.0
 70
     8
 71
     3
 72
     8
 73
     4
 74
     0
 42
0.000000001
 43
0.00000001
 40
0.0
 40
0.0
 40
0.0
 40
0.0
 40
1.0
 40
1.0
 40
1.0
 40
1.0
 10
11.42586468422465
 20
0.9185081440762698
 30
0.0
 10
11.4740757169108
 20
0.8977506911516385
 30
0.0
 10
11.53160776708402
 20
0.8686081953074295
 30
0.0
 10
11.59049830427841
 20
0.8358136601257996
 30
0.0
  0
SPLINE
  5
B6
330
1F
100
AcDbEntity
  8
외형선
  6
Continuous
 62
     1
370
    15
100
AcDbSpline
210
0.0
220
0.0
230
1.0
 70
     8
 71
     3
 72
     8
 73
     4
 74
     0
 42
0.000000001
 43
0.00000001
 40
0.0
 40
0.0
 40
0.0
 40
0.0
 40
1.0
 40
1.0
 40
1.0
 40
1.0
 10
11.61219069657425
 20
0.6234862764961702
 30
0.0
 10
11.60504754155657
 20
0.6945228109779066
 30
0.0
 10
11.59780870731649
 20
0.7653858595250201
 30
0.0
 10
11.59049820544249
 20
0.8358146123026825
 30
0.0
  0
SPLINE
  5
B7
330
1F
100
AcDbEntity
  8
외형선
  6
Continuous
 62
     1
370
    15
100
AcDbSpline
210
0.0
220
0.0
230
1.0
 70
     8
 71
     3
 72
    10
 73
     6
 74
     0
 42
0.000000001
 43
0.00000001
 40
0.0
 40
0.0
 40
0.0
 40
0.0
 40
0.5
 40
0.5
 40
1.0
 40
1.0
 40
1.0
 40
1.0
 10
11.64703258683972
 20
-1.204888514901457
 30
0.0
 10
11.61061516299813
 20
-0.872677034200192
 30
0.0
 10
11.57203498195199
 20
-0.5093034117719146
 30
0.0
 10
11.49736505214824
 20
0.2160956581810172
 30
0.0
 10
11.46298070307349
 20
0.5721588507884675
 30
0.0
 10
11.42586468422546
 20
0.9185081440663591
 30
0.0
  0
SPLINE
  5
B8
330
1F
100
AcDbEntity
  8
외형선
  6
Continuous
 62
     1
370
    15
100
AcDbSpline
210
0.0
220
0.0
230
1.0
 70
     8
 71
     3
 72
    10
 73
     6
 74
     0
 42
0.000000001
 43
0.00000001
 40
0.0
 40
0.0
 40
0.0
 40
0.0
 40
0.5
 40
0.5
 40
1.0
 40
1.0
 40
1.0
 40
1.0
 10
9.685481574705594
 20
-0.1138699503318236
 30
0.0
 10
9.648558296483223
 20
0.2516697805279779
 30
0.0
 10
9.614499065552213
 20
0.6100124799251577
 30
0.0
 10
9.540787173283064
 20
1.307007078097473
 30
0.0
 10
9.502514776164993
 20
1.640088803959106
 30
0.0
 10
9.466158196569292
 20
1.929117659935429
 30
0.0
  0
SPLINE
  5
B9
330
1F
100
AcDbEntity
  8
외형선
  6
Continuous
 62
     1
370
    15
100
AcDbSpline
210
0.0
220
0.0
230
1.0
 70
     8
 71
     3
 72
    10
 73
     6
 74
     0
 42
0.000000001
 43
0.00000001
 40
0.0
 40
0.0
 40
0.0
 40
0.0
 40
0.5
 40
0.5
 40
1.0
 40
1.0
 40
1.0
 40
1.0
 10
10.60684632881915
 20
1.367935288951137
 30
0.0
 10
10.41572554275558
 20
1.467232981712523
 30
0.0
 10
10.22445883428227
 20
1.564083977842222
 30
0.0
 10
9.844715044324936
 20
1.751365052840094
 30
0.0
 10
9.656404929163973
 20
1.841786750512085
 30
0.0
 10
9.465859155806996
 20
1.929093930692736
 30
0.0
  0
SPLINE
  5
BA
330
1F
100
AcDbEntity
  8
외형선
  6
Continuous
 62
     1
370
    15
100
AcDbSpline
210
0.0
220
0.0
230
1.0
 70
     8
 71
     3
 72
    12
 73
     8
 74
     0
 42
0.000000001
 43
0.00000001
 40
0.0
 40
0.0
 40
0.0
 40
0.0
 40
0.5000000000000001
 40
0.5000000000000001
 40
0.75
 40
0.75
 40
1.0
 40
1.0
 40
1.0
 40
1.0
 10
10.82638612683914
 20
-0.76495172482466
 30
0.0
 10
10.78908834396501
 20
-0.4089497028404154
 30
0.0
 10
10.75115569468216
 20
-0.0355071187454664
 30
0.0
 10
10.6981659883523
 20
0.5020994530167392
 30
0.0
 10
10.68076690883485
 20
0.6789033039294186
 30
0.0
 10
10.64425227879832
 20
1.029700433331933
 30
0.0
 10
10.62556071506716
 20
1.202234807822968
 30
0.0
 10
10.60684643814981
 20
1.367936024086845
 30
0.0
  0
SPLINE
  5
BB
330
1F
100
AcDbEntity
  8
외형선
  6
Continuous
 62
     1
370
    15
100
AcDbSpline
210
0.0
220
0.0
230
1.0
 70
     8
 71
     3
 72
    10
 73
     6
 74
     0
 42
0.000000001
 43
0.00000001
 40
0.0
 40
0.0
 40
0.0
 40
0.0
 40
0.5
 40
0.5
 40
1.0
 40
1.0
 40
1.0
 40
1.0
 10
10.82638378421623
 20
-0.7649545709282832
 30
0.0
 10
10.63578794431501
 20
-0.6583282974559095
 30
0.0
 10
10.44445269993036
 20
-0.5501871843718485
 30
0.0
 10
10.06338952452058
 20
-0.3326202673037568
 30
0.0
 10
9.874883616224974
 20
-0.2234325450237942
 30
0.0
 10
9.685481388091514
 20
-0.1138700745732379
 30
0.0
  0
SPLINE
  5
BC
330
1F
100
AcDbEntity
  8
외형선
  6
Continuous
 62
     1
370
    15
100
AcDbSpline
210
0.0
220
0.0
230
1.0
 70
     8
 71
     3
 72
     8
 73
     4
 74
     0
 42
0.000000001
 43
0.00000001
 40
0.0
 40
0.0
 40
0.0
 40
0.0
 40
1.0
 40
1.0
 40
1.0
 40
1.0
 10
10.99112444447994
 20
-0.8493609697570124
 30
0.0
 10
10.94288029779753
 20
-0.8276494829092053
 30
0.0
 10
10.88530717017466
 20
-0.7979184616062491
 30
0.0
 10
10.82638658943918
 20
-0.7649561402723702
 30
0.0
  0
SPLINE
  5
BD
330
1F
100
AcDbEntity
  8
외형선
  6
Continuous
 62
     1
370
    15
100
AcDbSpline
210
0.0
220
0.0
230
1.0
 70
     8
 71
     3
 72
     8
 73
     4
 74
     0
 42
0.000000001
 43
0.00000001
 40
0.0
 40
0.0
 40
0.0
 40
0.0
 40
1.0
 40
1.0
 40
1.0
 40
1.0
 10
10.60684653317007
 20
1.367935182781385
 30
0.0
 10
10.66339144864492
 20
1.338557008585007
 30
0.0
 10
10.72087412785567
 20
1.303039313570944
 30
0.0
 10
10.77002231532967
 20
1.267565774895351
 30
0.0
  0
SPLINE
  5
BE
330
1F
100
AcDbEntity
  8
외형선
  6
Continuous
 62
     1
370
    15
100
AcDbSpline
210
0.0
220
0.0
230
1.0
 70
     8
 71
     3
 72
    12
 73
     8
 74
     0
 42
0.000000001
 43
0.00000001
 40
0.0
 40
0.0
 40
0.0
 40
0.0
 40
0.5
 40
0.5
 40
0.75
 40
0.75
 40
1.0
 40
1.0
 40
1.0
 40
1.0
 10
10.99112444447828
 20
-0.8493609697372294
 30
0.0
 10
10.95371254118928
 20
-0.5003029383537931
 30
0.0
 10
10.91532861763763
 20
-0.1308151828087646
 30
0.0
 10
10.86132939254092
 20
0.4049911178559025
 30
0.0
 10
10.84406567825837
 20
0.5800976210486651
 30
0.0
 10
10.80759500622571
 20
0.9291195194443523
 30
0.0
 10
10.78885433467968
 20
1.101447823328663
 30
0.0
 10
10.77002240046176
 20
1.267565023949596
 30
0.0
  0
SPLINE
  5
BF
330
1F
100
AcDbEntity
  8
외형선
  6
Continuous
 62
     1
370
    15
100
AcDbSpline
210
0.0
220
0.0
230
1.0
 70
     8
 71
     3
 72
     8
 73
     4
 74
     0
 42
0.000000001
 43
0.00000001
 40
0.0
 40
0.0
 40
0.0
 40
0.0
 40
1.0
 40
1.0
 40
1.0
 40
1.0
 10
11.61162040338423
 20
0.8240468249759451
 30
0.0
 10
11.60457802554998
 20
0.8279715427762887
 30
0.0
 10
11.59753704853588
 20
0.8318939753877767
 30
0.0
 10
11.59049754970788
 20
0.835814080325557
 30
0.0
  0
SPLINE
  5
C0
330
1F
100
AcDbEntity
  8
외형선
  6
Continuous
 62
     1
370
    15
100
AcDbSpline
210
0.0
220
0.0
230
1.0
 70
     8
 71
     3
 72
    10
 73
     6
 74
     0
 42
0.000000001
 43
0.00000001
 40
0.0
 40
0.0
 40
0.0
 40
0.0
 40
0.5
 40
0.5
 40
1.0
 40
1.0
 40
1.0
 40
1.0
 10
11.64664669562598
 20
-1.201367875824368
 30
0.0
 10
11.54637616977562
 20
-1.130083698271093
 30
0.0
 10
11.42785074635706
 20
-1.064977837599717
 30
0.0
 10
11.19729687929901
 20
-0.9457758902542502
 30
0.0
 10
11.08544381710905
 20
-0.8918078562527401
 30
0.0
 10
10.99112444448039
 20
-0.849360969756916
 30
0.0
  0
SPLINE
  5
C1
330
1F
100
AcDbEntity
  8
외형선
  6
Continuous
 62
     1
370
    15
100
AcDbSpline
210
0.0
220
0.0
230
1.0
 70
     8
 71
     3
 72
    10
 73
     6
 74
     0
 42
0.000000001
 43
0.00000001
 40
0.0
 40
0.0
 40
0.0
 40
0.0
 40
0.5
 40
0.5
 40
1.0
 40
1.0
 40
1.0
 40
1.0
 10
10.77002231533061
 20
1.267565774894664
 30
0.0
 10
10.87037408344719
 20
1.195135182630439
 30
0.0
 10
10.98898254835828
 20
1.129872938196213
 30
0.0
 10
11.2197473161741
 20
1.011963350727429
 30
0.0
 10
11.33156337741381
 20
0.9591099488447413
 30
0.0
 10
11.42586468422616
 20
0.9185081440744679
 30
0.0
  0
SPLINE
  5
C2
330
1F
100
AcDbEntity
  8
외형선
  6
Continuous
 62
     1
370
    15
100
AcDbSpline
210
0.0
220
0.0
230
1.0
 70
     8
 71
     3
 72
    12
 73
     8
 74
     0
 42
0.000000001
 43
0.00000001
 40
0.0
 40
0.0
 40
0.0
 40
0.0
 40
0.4999999999999997
 40
0.4999999999999997
 40
0.7499999999999998
 40
0.7499999999999998
 40
1.0
 40
1.0
 40
1.0
 40
1.0
 10
7.563807750088345
 20
1.088025867708324
 30
0.0
 10
7.526674089469894
 20
1.432155174744082
 30
0.0
 10
7.488551399817344
 20
1.75669321121956
 30
0.0
 10
7.434822179309465
 20
2.173509640778907
 30
0.0
 10
7.417702695439215
 20
2.300701513134148
 30
0.0
 10
7.381563475388384
 20
2.535927769744535
 30
0.0
 10
7.362980997492603
 20
2.642702586584186
 30
0.0
 10
7.344289258509684
 20
2.735850854694392
 30
0.0
  0
SPLINE
  5
C3
330
1F
100
AcDbEntity
  8
외형선
  6
Continuous
 62
     1
370
    15
100
AcDbSpline
210
0.0
220
0.0
230
1.0
 70
     8
 71
     3
 72
     8
 73
     4
 74
     0
 42
0.000000001
 43
0.00000001
 40
0.0
 40
0.0
 40
0.0
 40
0.0
 40
1.0
 40
1.0
 40
1.0
 40
1.0
 10
8.484468049676906
 20
2.345634214350548
 30
0.0
 10
8.106544249488593
 20
2.493225120485088
 30
0.0
 10
7.724604313814234
 20
2.624481713589764
 30
0.0
 10
7.343983216806063
 20
2.735870666203021
 30
0.0
  0
SPLINE
  5
C4
330
1F
100
AcDbEntity
  8
외형선
  6
Continuous
 62
     1
370
    15
100
AcDbSpline
210
0.0
220
0.0
230
1.0
 70
     8
 71
     3
 72
    12
 73
     8
 74
     0
 42
0.000000001
 43
0.00000001
 40
0.0
 40
0.0
 40
0.0
 40
0.0
 40
0.4999999999999999
 40
0.4999999999999999
 40
0.7499999999999999
 40
0.7499999999999999
 40
1.0
 40
1.0
 40
1.0
 40
1.0
 10
8.703262645253744
 20
0.4508555553231811
 30
0.0
 10
8.668426950540535
 20
0.806258797463082
 30
0.0
 10
8.630682914217793
 20
1.162435867659603
 30
0.0
 10
8.574487057608206
 20
1.649825897026188
 30
0.0
 10
8.555840611176365
 20
1.80448911746416
 30
0.0
 10
8.519534739118413
 20
2.091880511751065
 30
0.0
 10
8.502345067581043
 20
2.223607452962656
 30
0.0
 10
8.484468122176633
 20
2.345633841128483
 30
0.0
  0
SPLINE
  5
C5
330
1F
100
AcDbEntity
  8
외형선
  6
Continuous
 62
     1
370
    15
100
AcDbSpline
210
0.0
220
0.0
230
1.0
 70
     8
 71
     3
 72
    10
 73
     6
 74
     0
 42
0.000000001
 43
0.00000001
 40
0.0
 40
0.0
 40
0.0
 40
0.0
 40
0.5
 40
0.5
 40
1.0
 40
1.0
 40
1.0
 40
1.0
 10
8.703262331319944
 20
0.450856023473596
 30
0.0
 10
8.513202741943235
 20
0.5594643065555952
 30
0.0
 10
8.325360937624534
 20
0.6668459813079822
 30
0.0
 10
7.945683457882503
 20
0.8795970402098111
 30
0.0
 10
7.754599874714304
 20
0.9848168573762136
 30
0.0
 10
7.563808065976935
 20
1.088025613692468
 30
0.0
  0
SPLINE
  5
C6
330
1F
100
AcDbEntity
  8
외형선
  6
Continuous
 62
     1
370
    15
100
AcDbSpline
210
0.0
220
0.0
230
1.0
 70
     8
 71
     3
 72
    14
 73
    10
 74
     0
 42
0.000000001
 43
0.00000001
 40
0.0
 40
0.0
 40
0.0
 40
0.0
 40
0.0143871347630137
 40
0.159454162393434
 40
0.3055652665537825
 40
0.4548553415271229
 40
0.6051839277545922
 40
0.8015975285281002
 40
1.0
 40
1.0
 40
1.0
 40
1.0
 10
12.42018456698676
 20
-1.384146146645335
 30
0.0
 10
12.41735861583077
 20
-1.384117980458119
 30
0.0
 10
12.38603829514399
 20
-1.383805811574986
 30
0.0
 10
12.31934868492645
 20
-1.391510864575626
 30
0.0
 10
12.21961303984702
 20
-1.4080979538525
 30
0.0
 10
12.11222803099168
 20
-1.434607033672314
 30
0.0
 10
11.98749407214639
 20
-1.473447725018518
 30
0.0
 10
11.84491239713148
 20
-1.526765050655083
 30
0.0
 10
11.73777183842956
 20
-1.575773868120407
 30
0.0
 10
11.68393170086766
 20
-1.600401716864598
 30
0.0
  0
SPLINE
  5
C7
330
1F
100
AcDbEntity
  8
외형선
  6
Continuous
 62
     1
370
    15
100
AcDbSpline
210
0.0
220
0.0
230
1.0
 70
     8
 71
     3
 72
     8
 73
     4
 74
     0
 42
0.000000001
 43
0.00000001
 40
0.0
 40
0.0
 40
0.0
 40
0.0
 40
1.0
 40
1.0
 40
1.0
 40
1.0
 10
12.71162040338422
 20
-1.856130954124575
 30
0.0
 10
12.36001624123335
 20
-1.802465666754332
 30
0.0
 10
12.01781040015958
 20
-1.715975509577162
 30
0.0
 10
11.68393170086809
 20
-1.60040171686282
 30
0.0
  0
LINE
  5
C8
330
1F
100
AcDbEntity
  8
외형선
  6
Continuous
 62
     1
370
    15
100
AcDbLine
 10
12.71162040338422
 20
-1.99264706688176
 30
0.0
 11
12.71162040338422
 21
-1.856130954124574
 31
0.0
  0
SPLINE
  5
C9
330
1F
100
AcDbEntity
  8
외형선
  6
Continuous
 62
     1
370
    15
100
AcDbSpline
210
0.0
220
0.0
230
1.0
 70
     8
 71
     3
 72
    10
 73
     6
 74
     0
 42
0.000000001
 43
0.00000001
 40
0.0
 40
0.0
 40
0.0
 40
0.0
 40
0.5
 40
0.5
 40
1.0
 40
1.0
 40
1.0
 40
1.0
 10
11.77071820251748
 20
-2.896837087601353
 30
0.0
 10
11.9242462413339
 20
-2.733945599851224
 30
0.0
 10
12.08023076047863
 20
-2.573840745167555
 30
0.0
 10
12.39989133486964
 20
-2.264797062682319
 30
0.0
 10
12.55806992564979
 20
-2.12165293050932
 30
0.0
 10
12.71162040338422
 20
-1.99264706688176
 30
0.0
  0
SPLINE
  5
CA
330
1F
100
AcDbEntity
  8
외형선
  6
Continuous
 62
     1
370
    15
100
AcDbSpline
210
0.0
220
0.0
230
1.0
 70
     8
 71
     3
 72
     8
 73
     4
 74
     0
 42
0.000000001
 43
0.00000001
 40
0.0
 40
0.0
 40
0.0
 40
0.0
 40
1.0
 40
1.0
 40
1.0
 40
1.0
 10
11.47703832593949
 20
-3.036398190026677
 30
0.0
 10
11.56554602451419
 20
-2.962508419521939
 30
0.0
 10
11.66840683467557
 20
-2.917692722931509
 30
0.0
 10
11.77071820251734
 20
-2.896837087599885
 30
0.0
  0
SPLINE
  5
CB
330
1F
100
AcDbEntity
  8
외형선
  6
Continuous
 62
     1
370
    15
100
AcDbSpline
210
0.0
220
0.0
230
1.0
 70
     8
 71
     3
 72
     8
 73
     4
 74
     0
 42
0.000000001
 43
0.00000001
 40
0.0
 40
0.0
 40
0.0
 40
0.0
 40
1.0
 40
1.0
 40
1.0
 40
1.0
 10
11.31414020605472
 20
-3.107315170663052
 30
0.0
 10
11.37055933636366
 20
-3.100593304154197
 30
0.0
 10
11.42795159741391
 20
-3.07737775636939
 30
0.0
 10
11.47703832593949
 20
-3.036398190026671
 30
0.0
  0
SPLINE
  5
CC
330
1F
100
AcDbEntity
  8
외형선
  6
Continuous
 62
     1
370
    15
100
AcDbSpline
210
0.0
220
0.0
230
1.0
 70
     8
 71
     3
 72
     8
 73
     4
 74
     0
 42
0.000000001
 43
0.00000001
 40
0.0
 40
0.0
 40
0.0
 40
0.0
 40
1.0
 40
1.0
 40
1.0
 40
1.0
 10
11.31413741180782
 20
-3.107315503573699
 30
0.0
 10
10.93746071959922
 20
-3.152193268055415
 30
0.0
 10
10.55485906566206
 20
-3.175033392701708
 30
0.0
 10
10.17519779243121
 20
-3.174999963037989
 30
0.0
  0
SPLINE
  5
CD
330
1F
100
AcDbEntity
  8
외형선
  6
Continuous
 62
     1
370
    15
100
AcDbSpline
210
0.0
220
0.0
230
1.0
 70
     8
 71
     3
 72
     8
 73
     4
 74
     0
 42
0.000000001
 43
0.00000001
 40
0.0
 40
0.0
 40
0.0
 40
0.0
 40
1.0
 40
1.0
 40
1.0
 40
1.0
 10
10.01049019705409
 20
-3.120025949109031
 30
0.0
 10
10.05872682812043
 20
-3.156285223284204
 30
0.0
 10
10.11628454311644
 20
-3.174994776520331
 30
0.0
 10
10.17519793327929
 20
-3.174999963050393
 30
0.0
  0
SPLINE
  5
CE
330
1F
100
AcDbEntity
  8
외형선
  6
Continuous
 62
     1
370
    15
100
AcDbSpline
210
0.0
220
0.0
230
1.0
 70
     8
 71
     3
 72
    10
 73
     6
 74
     0
 42
0.000000001
 43
0.00000001
 40
0.0
 40
0.0
 40
0.0
 40
0.0
 40
0.5
 40
0.5
 40
1.0
 40
1.0
 40
1.0
 40
1.0
 10
9.354501026673315
 20
-3.085700961251432
 30
0.0
 10
9.454874555436803
 20
-3.018483854152209
 30
0.0
 10
9.573505866640655
 20
-2.99304226726235
 30
0.0
 10
9.804301113036523
 20
-3.008795497262865
 30
0.0
 10
9.916146358689016
 20
-3.049108079708781
 30
0.0
 10
10.01049019705608
 20
-3.120025949104163
 30
0.0
  0
SPLINE
  5
CF
330
1F
100
AcDbEntity
  8
외형선
  6
Continuous
 62
     1
370
    15
100
AcDbSpline
210
0.0
220
0.0
230
1.0
 70
     8
 71
     3
 72
     8
 73
     4
 74
     0
 42
0.000000001
 43
0.00000001
 40
0.0
 40
0.0
 40
0.0
 40
0.0
 40
1.0
 40
1.0
 40
1.0
 40
1.0
 10
9.191324929173174
 20
-3.12413181008511
 30
0.0
 10
9.247870473335656
 20
-3.129936260135549
 30
0.0
 10
9.305352446302035
 20
-3.118614274465318
 30
0.0
 10
9.354501026672935
 20
-3.085700961251689
 30
0.0
  0
SPLINE
  5
D0
330
1F
100
AcDbEntity
  8
외형선
  6
Continuous
 62
     1
370
    15
100
AcDbSpline
210
0.0
220
0.0
230
1.0
 70
     8
 71
     3
 72
    10
 73
     6
 74
     0
 42
0.000000001
 43
0.00000001
 40
0.0
 40
0.0
 40
0.0
 40
0.0
 40
0.5
 40
0.5
 40
1.0
 40
1.0
 40
1.0
 40
1.0
 10
9.191324929154984
 20
-3.124131810083296
 30
0.0
 10
9.000354289024862
 20
-3.104528505203781
 30
0.0
 10
8.809172392752306
 20
-3.079282843635883
 30
0.0
 10
8.429463753582333
 20
-3.017978632528313
 30
0.0
 10
8.241392719364296
 20
-2.981980104889856
 30
0.0
 10
8.051067389978975
 20
-2.940560127317433
 30
0.0
  0
SPLINE
  5
D1
330
1F
100
AcDbEntity
  8
외형선
  6
Continuous
 62
     1
370
    15
100
AcDbSpline
210
0.0
220
0.0
230
1.0
 70
     8
 71
     3
 72
     8
 73
     4
 74
     0
 42
0.000000001
 43
0.00000001
 40
0.0
 40
0.0
 40
0.0
 40
0.0
 40
1.0
 40
1.0
 40
1.0
 40
1.0
 10
7.886676725634534
 20
-2.851825200563299
 30
0.0
 10
7.934808620083364
 20
-2.89719500260388
 30
0.0
 10
7.992280921907065
 20
-2.927766589825383
 30
0.0
 10
8.051067344558124
 20
-2.94056011743262
 30
0.0
  0
SPLINE
  5
D2
330
1F
100
AcDbEntity
  8
외형선
  6
Continuous
 62
     1
370
    15
100
AcDbSpline
210
0.0
220
0.0
230
1.0
 70
     8
 71
     3
 72
    10
 73
     6
 74
     0
 42
0.000000001
 43
0.00000001
 40
0.0
 40
0.0
 40
0.0
 40
0.0
 40
0.5
 40
0.5
 40
1.0
 40
1.0
 40
1.0
 40
1.0
 10
7.232376381682784
 20
-2.68135377325564
 30
0.0
 10
7.332357223656595
 20
-2.640569990937584
 30
0.0
 10
7.450587963498225
 20
-2.63957766251789
 30
0.0
 10
7.680906310954515
 20
-2.701237320597188
 30
0.0
 10
7.792638042452794
 20
-2.763183012484403
 30
0.0
 10
7.886676725636284
 20
-2.851825200559578
 30
0.0
  0
SPLINE
  5
D3
330
1F
100
AcDbEntity
  8
외형선
  6
Continuous
 62
     1
370
    15
100
AcDbSpline
210
0.0
220
0.0
230
1.0
 70
     8
 71
     3
 72
     8
 73
     4
 74
     0
 42
0.000000001
 43
0.00000001
 40
0.0
 40
0.0
 40
0.0
 40
0.0
 40
1.0
 40
1.0
 40
1.0
 40
1.0
 10
7.069375817683174
 20
-2.681616547737221
 30
0.0
 10
7.125833477151324
 20
-2.699123369411128
 30
0.0
 10
7.183263836762815
 20
-2.701387564745533
 30
0.0
 10
7.232376381682394
 20
-2.681353773255794
 30
0.0
  0
SPLINE
  5
D4
330
1F
100
AcDbEntity
  8
외형선
  6
Continuous
 62
     1
370
    15
100
AcDbSpline
210
0.0
220
0.0
230
1.0
 70
     8
 71
     3
 72
    10
 73
     6
 74
     0
 42
0.000000001
 43
0.00000001
 40
0.0
 40
0.0
 40
0.0
 40
0.0
 40
0.5
 40
0.5
 40
0.6218243308514377
 40
0.6218243308514377
 40
0.6218243308514377
 40
0.6218243308514377
 10
7.069376445317714
 20
-2.681616742359062
 30
0.0
 10
6.880225879602555
 20
-2.622963503544281
 30
0.0
 10
6.691518637422484
 20
-2.559574909915039
 30
0.0
 10
6.454569969557101
 20
-2.474920896167903
 30
0.0
 10
6.408105467078999
 20
-2.45806474414784
 30
0.0
 10
6.36162040338423
 20
-2.440945876208043
 30
0.0
  0
SPLINE
  5
DC
330
1F
100
AcDbEntity
  8
외형선
  6
Continuous
 62
     1
370
    15
100
AcDbSpline
210
0.0
220
0.0
230
1.0
 70
     8
 71
     3
 72
     8
 73
     4
 74
     0
 42
0.000000001
 43
0.00000001
 40
0.0
 40
0.0
 40
0.0
 40
0.0
 40
0.1911801102553667
 40
0.1911801102553667
 40
0.1911801102553667
 40
0.1911801102553667
 10
6.579860823462394
 20
1.602029037613224
 30
0.0
 10
6.507168517025938
 20
1.63823193325552
 30
0.0
 10
6.434406257034321
 20
1.674023644410367
 30
0.0
 10
6.361620403384229
 20
1.709371213917303
 30
0.0
  0
SPLINE
  5
DD
330
1F
100
AcDbEntity
  8
외형선
  6
Continuous
 62
     1
370
    15
100
AcDbSpline
210
0.0
220
0.0
230
1.0
 70
     8
 71
     3
 72
     8
 73
     4
 74
     0
 42
0.000000001
 43
0.00000001
 40
0.0
 40
0.0
 40
0.0
 40
0.0
 40
1.0
 40
1.0
 40
1.0
 40
1.0
 10
6.744629031177054
 20
1.487344926150006
 30
0.0
 10
6.696371890655484
 20
1.532757005367635
 30
0.0
 10
6.638792621079124
 20
1.572679278081076
 30
0.0
 10
6.579860801996305
 20
1.602029048303967
 30
0.0
  0
SPLINE
  5
DE
330
1F
100
AcDbEntity
  8
외형선
  6
Continuous
 62
     1
370
    15
100
AcDbSpline
210
0.0
220
0.0
230
1.0
 70
     8
 71
     3
 72
    10
 73
     6
 74
     0
 42
0.000000001
 43
0.00000001
 40
0.0
 40
0.0
 40
0.0
 40
0.0
 40
0.5
 40
0.5
 40
1.0
 40
1.0
 40
1.0
 40
1.0
 10
7.400665045698575
 20
1.149402780334749
 30
0.0
 10
7.300289226765604
 20
1.164500117675256
 30
0.0
 10
7.181654744373184
 20
1.204121620239745
 30
0.0
 10
6.950867766064143
 20
1.321415444353359
 30
0.0
 10
6.839000724932855
 20
1.398537036034119
 30
0.0
 10
6.744629031177515
 20
1.487344926149837
 30
0.0
  0
SPLINE
  5
DF
330
1F
100
AcDbEntity
  8
외형선
  6
Continuous
 62
     1
370
    15
100
AcDbSpline
210
0.0
220
0.0
230
1.0
 70
     8
 71
     3
 72
     8
 73
     4
 74
     0
 42
0.000000001
 43
0.00000001
 40
0.0
 40
0.0
 40
0.0
 40
0.0
 40
1.0
 40
1.0
 40
1.0
 40
1.0
 10
7.563807759612025
 20
1.088025779418655
 30
0.0
 10
7.507272098500654
 20
1.118608723191
 30
0.0
 10
7.449802438915854
 20
1.142012117829371
 30
0.0
 10
7.400665045698564
 20
1.14940278033475
 30
0.0
  0
SPLINE
  5
E0
330
1F
100
AcDbEntity
  8
외형선
  6
Continuous
 62
     1
370
    15
100
AcDbSpline
210
0.0
220
0.0
230
1.0
 70
     8
 71
     3
 72
     8
 73
     4
 74
     0
 42
0.000000001
 43
0.00000001
 40
0.0
 40
0.0
 40
0.0
 40
0.0
 40
1.0
 40
1.0
 40
1.0
 40
1.0
 10
8.867541221110542
 20
0.3437527707297917
 30
0.0
 10
8.819439501742444
 20
0.379816611047684
 30
0.0
 10
8.762011347783613
 20
0.4172842902368914
 30
0.0
 10
8.703262615271733
 20
0.4508558612112418
 30
0.0
  0
SPLINE
  5
E1
330
1F
100
AcDbEntity
  8
외형선
  6
Continuous
 62
     1
370
    15
100
AcDbSpline
210
0.0
220
0.0
230
1.0
 70
     8
 71
     3
 72
    10
 73
     6
 74
     0
 42
0.000000001
 43
0.00000001
 40
0.0
 40
0.0
 40
0.0
 40
0.0
 40
0.5
 40
0.5
 40
1.0
 40
1.0
 40
1.0
 40
1.0
 10
9.522375087099675
 20
-0.0264653600991731
 30
0.0
 10
9.422298238355033
 20
0.0200726310383494
 30
0.0
 10
9.303968234718432
 20
0.0762886948045408
 30
0.0
 10
9.073474782231433
 20
0.2029411800493246
 30
0.0
 10
8.961643027663754
 20
0.2732007703078552
 30
0.0
 10
8.867541221110994
 20
0.3437527707297521
 30
0.0
  0
SPLINE
  5
E2
330
1F
100
AcDbEntity
  8
외형선
  6
Continuous
 62
     1
370
    15
100
AcDbSpline
210
0.0
220
0.0
230
1.0
 70
     8
 71
     3
 72
     8
 73
     4
 74
     0
 42
0.000000001
 43
0.00000001
 40
0.0
 40
0.0
 40
0.0
 40
0.0
 40
1.0
 40
1.0
 40
1.0
 40
1.0
 10
9.685481599611435
 20
-0.1138701969319218
 30
0.0
 10
9.628988589030055
 20
-0.0811909941589067
 30
0.0
 10
9.571522865474662
 20
-0.0493201851974397
 30
0.0
 10
9.522375087099675
 20
-0.0264653600991728
 30
0.0
  0
SPLINE
  5
E3
330
1F
100
AcDbEntity
  8
외형선
  6
Continuous
 62
     1
370
    15
100
AcDbSpline
210
0.0
220
0.0
230
1.0
 70
     8
 71
     3
 72
    10
 73
     6
 74
     0
 42
0.000000001
 43
0.00000001
 40
0.0
 40
0.0
 40
0.0
 40
0.0
 40
0.5
 40
0.5
 40
1.0
 40
1.0
 40
1.0
 40
1.0
 10
9.522375087098844
 20
-0.0264653600911079
 30
0.0
 10
9.485423602275095
 20
0.3349442117594065
 30
0.0
 10
9.451051511245375
 20
0.6885798190070643
 30
0.0
 10
9.376374216293883
 20
1.373236831399618
 30
0.0
 10
9.337898299483292
 20
1.697262472182535
 30
0.0
 10
9.301666141091694
 20
1.975309673054042
 30
0.0
  0
SPLINE
  5
E4
330
1F
100
AcDbEntity
  8
외형선
  6
Continuous
 62
     1
370
    15
100
AcDbSpline
210
0.0
220
0.0
230
1.0
 70
     8
 71
     3
 72
     8
 73
     4
 74
     0
 42
0.000000001
 43
0.00000001
 40
0.0
 40
0.0
 40
0.0
 40
0.0
 40
1.0
 40
1.0
 40
1.0
 40
1.0
 10
9.301666141087104
 20
1.975309673091282
 30
0.0
 10
9.349841579280273
 20
1.972508573626227
 30
0.0
 10
9.407353395081653
 20
1.955902294027259
 30
0.0
 10
9.466179653631926
 20
1.928947076546091
 30
0.0
  0
SPLINE
  5
E5
330
1F
100
AcDbEntity
  8
외형선
  6
Continuous
 62
     1
370
    15
100
AcDbSpline
210
0.0
220
0.0
230
1.0
 70
     8
 71
     3
 72
     8
 73
     4
 74
     0
 42
0.000000001
 43
0.00000001
 40
0.0
 40
0.0
 40
0.0
 40
0.0
 40
1.0
 40
1.0
 40
1.0
 40
1.0
 10
11.10088920460691
 20
3.09113334978708
 30
0.0
 10
11.04437763629906
 20
3.083668042745337
 30
0.0
 10
10.98689404058144
 20
3.059842902638157
 30
0.0
 10
10.93772883552364
 20
3.018547000029896
 30
0.0
  0
SPLINE
  5
E6
330
1F
100
AcDbEntity
  8
외형선
  6
Continuous
 62
     1
370
    15
100
AcDbSpline
210
0.0
220
0.0
230
1.0
 70
     8
 71
     3
 72
     8
 73
     4
 74
     0
 42
0.000000001
 43
0.00000001
 40
0.0
 40
0.0
 40
0.0
 40
0.0
 40
1.0
 40
1.0
 40
1.0
 40
1.0
 10
11.61162040338423
 20
3.145155137821787
 30
0.0
 10
11.44053532984156
 20
3.131649980179644
 30
0.0
 10
11.27131639907283
 20
3.113647061747872
 30
0.0
 10
11.10089558900786
 20
3.091134193178831
 30
0.0
  0
SPLINE
  5
E7
330
1F
100
AcDbEntity
  8
외형선
  6
Continuous
 62
     1
370
    15
100
AcDbSpline
210
0.0
220
0.0
230
1.0
 70
     8
 71
     3
 72
    10
 73
     6
 74
     0
 42
0.000000001
 43
0.00000001
 40
0.0
 40
0.0
 40
0.0
 40
0.0
 40
0.5
 40
0.5
 40
1.0
 40
1.0
 40
1.0
 40
1.0
 10
12.69995435003277
 20
2.029658538159969
 30
0.0
 10
12.53548349095714
 20
2.234562912375975
 30
0.0
 10
12.35742706894424
 20
2.427053062212657
 30
0.0
 10
11.99142374092751
 20
2.79692293664775
 30
0.0
 10
11.80292092577051
 20
2.974050624308008
 30
0.0
 10
11.61162040338423
 20
3.145155137821781
 30
0.0
  0
SPLINE
  5
E8
330
1F
100
AcDbEntity
  8
외형선
  6
Continuous
 62
     1
370
    15
100
AcDbSpline
210
0.0
220
0.0
230
1.0
 70
     8
 71
     3
 72
    12
 73
     8
 74
     0
 42
0.000000001
 43
0.00000001
 40
0.0
 40
0.0
 40
0.0
 40
0.0
 40
0.25
 40
0.25
 40
0.5
 40
0.5
 40
1.0
 40
1.0
 40
1.0
 40
1.0
 10
12.69995435004731
 20
2.029658538154124
 30
0.0
 10
12.64726445447594
 20
1.913636138623392
 30
0.0
 10
12.58553139693115
 20
1.806100820515126
 30
0.0
 10
12.44295837006223
 20
1.608962177165617
 30
0.0
 10
12.36125124996212
 20
1.518997752302607
 30
0.0
 10
12.09885341319877
 20
1.289585718270108
 30
0.0
 10
11.89480494410808
 20
1.185024027021099
 30
0.0
 10
11.68393170086782
 20
1.129538483747386
 30
0.0
  0
SPLINE
  5
E9
330
1F
100
AcDbEntity
  8
외형선
  6
Continuous
 62
     1
370
    15
100
AcDbSpline
210
0.0
220
0.0
230
1.0
 70
     8
 71
     3
 72
     8
 73
     4
 74
     0
 42
0.000000001
 43
0.00000001
 40
0.0
 40
0.0
 40
0.0
 40
0.0
 40
1.0
 40
1.0
 40
1.0
 40
1.0
 10
12.71162040338422
 20
0.6124588087644217
 30
0.0
 10
12.36001624123336
 20
0.8037185699819293
 30
0.0
 10
12.01781040015961
 20
0.9753320632429984
 30
0.0
 10
11.68393170086815
 20
1.12953848374882
 30
0.0
  0
LINE
  5
EA
330
1F
100
AcDbEntity
  8
외형선
  6
Continuous
 62
     1
370
    15
100
AcDbLine
 10
12.71162040338422
 20
0.4950880597006291
 30
0.0
 11
12.71162040338422
 21
0.6124588087644215
 31
0.0
  0
SPLINE
  5
EB
330
1F
100
AcDbEntity
  8
외형선
  6
Continuous
 62
     1
370
    15
100
AcDbSpline
210
0.0
220
0.0
230
1.0
 70
     8
 71
     3
 72
    10
 73
     6
 74
     0
 42
0.000000001
 43
0.00000001
 40
0.0
 40
0.0
 40
0.0
 40
0.0
 40
0.5
 40
0.5
 40
1.0
 40
1.0
 40
1.0
 40
1.0
 10
8.647365742615374
 20
2.247763177954807
 30
0.0
 10
8.747325318763224
 20
2.162021291490994
 30
0.0
 10
8.865554191863904
 20
2.098405098533551
 30
0.0
 10
9.095864631903606
 20
2.008000363036809
 30
0.0
 10
9.207598862061854
 20
1.980779095160045
 30
0.0
 10
9.301666141088443
 20
1.975309673088079
 30
0.0
  0
SPLINE
  5
EC
330
1F
100
AcDbEntity
  8
외형선
  6
Continuous
 62
     1
370
    15
100
AcDbSpline
210
0.0
220
0.0
230
1.0
 70
     8
 71
     3
 72
     8
 73
     4
 74
     0
 42
0.000000001
 43
0.00000001
 40
0.0
 40
0.0
 40
0.0
 40
0.0
 40
1.0
 40
1.0
 40
1.0
 40
1.0
 10
8.484468068584235
 20
2.345634206967945
 30
0.0
 10
8.540891671532552
 20
2.323599048793413
 30
0.0
 10
8.598287573160174
 20
2.289860743745151
 30
0.0
 10
8.647365742614426
 20
2.247763177955618
 30
0.0
  0
SPLINE
  5
ED
330
1F
100
AcDbEntity
  8
외형선
  6
Continuous
 62
     1
370
    15
100
AcDbSpline
210
0.0
220
0.0
230
1.0
 70
     8
 71
     3
 72
     8
 73
     4
 74
     0
 42
0.000000001
 43
0.00000001
 40
0.0
 40
0.0
 40
0.0
 40
0.0
 40
1.0
 40
1.0
 40
1.0
 40
1.0
 10
7.179523455301774
 20
2.739523745589819
 30
0.0
 10
7.227784531202695
 20
2.754830173494466
 30
0.0
 10
7.285368807626845
 20
2.753025844878644
 30
0.0
 10
7.344304128921155
 20
2.735776746628706
 30
0.0
  0
SPLINE
  5
F0
330
1F
100
AcDbEntity
  8
외형선
  6
Continuous
 62
     1
370
    15
100
AcDbSpline
210
0.0
220
0.0
230
1.0
 70
     8
 71
     3
 72
     8
 73
     4
 74
     0
 42
0.000000001
 43
0.00000001
 40
0.0
 40
0.0
 40
0.0
 40
0.0
 40
0.0002809123884775
 40
0.0002809123884775
 40
0.0002809123884775
 40
0.0002809123884775
 10
6.360735294109854
 20
2.979001903022655
 30
0.0
 10
6.360628129973207
 20
2.979023249464363
 30
0.0
 10
6.360520965728335
 20
2.979044594220515
 30
0.0
 10
6.360413801375514
 20
2.979065937291072
 30
0.0
  0
SPLINE
  5
F3
330
1F
100
AcDbEntity
  8
외형선
  6
Continuous
 62
     1
370
    15
100
AcDbSpline
210
0.0
220
0.0
230
1.0
 70
     8
 71
     3
 72
     9
 73
     5
 74
     0
 42
0.000000001
 43
0.00000001
 40
0.0
 40
0.0
 40
0.0
 40
0.0
 40
0.7279118529269241
 40
0.9999999999999999
 40
0.9999999999999999
 40
0.9999999999999999
 40
0.9999999999999999
 10
8.816103253028704
 20
2.497749100063947
 30
0.0
 10
8.747095045413403
 20
2.445331787543135
 30
0.0
 10
8.652292072583915
 20
2.373321265513519
 30
0.0
 10
8.549899703157504
 20
2.338251340236737
 30
0.0
 10
8.522039953085844
 20
2.328709229250186
 30
0.0
  0
SPLINE
  5
F4
330
1F
100
AcDbEntity
  8
외형선
  6
Continuous
 62
     1
370
    15
100
AcDbSpline
210
0.0
220
0.0
230
1.0
 70
     8
 71
     3
 72
     8
 73
     4
 74
     0
 42
0.000000001
 43
0.00000001
 40
0.0
 40
0.0
 40
0.0
 40
0.0
 40
1.0
 40
1.0
 40
1.0
 40
1.0
 10
8.979196283392145
 20
2.591453629376419
 30
0.0
 10
8.922675770343535
 20
2.572648362284656
 30
0.0
 10
8.865223708233465
 20
2.540634508543598
 30
0.0
 10
8.816103253029233
 20
2.497749100064329
 30
0.0
  0
SPLINE
  5
F5
330
1F
100
AcDbEntity
  8
외형선
  6
Continuous
 62
     1
370
    15
100
AcDbSpline
210
0.0
220
0.0
230
1.0
 70
     8
 71
     3
 72
    10
 73
     6
 74
     0
 42
0.000000001
 43
0.00000001
 40
0.0
 40
0.0
 40
0.0
 40
0.0
 40
0.5
 40
0.5
 40
1.0
 40
1.0
 40
1.0
 40
1.0
 10
10.11840139220902
 20
2.913438274814089
 30
0.0
 10
9.928502613073043
 20
2.869850595565533
 30
0.0
 10
9.740745521099075
 20
2.821234248756948
 30
0.0
 10
9.360987724052364
 20
2.713737860054916
 30
0.0
 10
9.169929926728184
 20
2.65491317749707
 30
0.0
 10
8.979229330575436
 20
2.591464624648403
 30
0.0
  0
SPLINE
  5
F6
330
1F
100
AcDbEntity
  8
외형선
  6
Continuous
 62
     1
370
    15
100
AcDbSpline
210
0.0
220
0.0
230
1.0
 70
     8
 71
     3
 72
     8
 73
     4
 74
     0
 42
0.000000001
 43
0.00000001
 40
0.0
 40
0.0
 40
0.0
 40
0.0
 40
1.0
 40
1.0
 40
1.0
 40
1.0
 10
10.28250629661909
 20
2.902864745106951
 30
0.0
 10
10.23435195968026
 20
2.923700233440307
 30
0.0
 10
10.17687498911554
 20
2.926861654649592
 30
0.0
 10
10.11808148292916
 20
2.913364840578502
 30
0.0
  0
SPLINE
  5
F7
330
1F
100
AcDbEntity
  8
외형선
  6
Continuous
 62
     1
370
    15
100
AcDbSpline
210
0.0
220
0.0
230
1.0
 70
     8
 71
     3
 72
    10
 73
     6
 74
     0
 42
0.000000001
 43
0.00000001
 40
0.0
 40
0.0
 40
0.0
 40
0.0
 40
0.5
 40
0.5
 40
1.0
 40
1.0
 40
1.0
 40
1.0
 10
10.93772883552311
 20
3.018547000029479
 30
0.0
 10
10.83758562264943
 20
2.93443254630469
 30
0.0
 10
10.71918274664806
 20
2.886871034683102
 30
0.0
 10
10.48856441837619
 20
2.85105698385221
 30
0.0
 10
10.37667905338508
 20
2.862117940151599
 30
0.0
 10
10.28250629662021
 20
2.902864745106138
 30
0.0
  0
SPLINE
  5
F8
330
1F
100
AcDbEntity
  8
외형선
  6
Continuous
 62
     1
370
    15
100
AcDbSpline
210
0.0
220
0.0
230
1.0
 70
     8
 71
     3
 72
    14
 73
    10
 74
     0
 42
0.000000001
 43
0.00000001
 40
0.0
 40
0.0
 40
0.0
 40
0.0
 40
0.2499999999999999
 40
0.2499999999999999
 40
0.4999999999999999
 40
0.4999999999999999
 40
0.7499999999999998
 40
0.7499999999999998
 40
1.0
 40
1.0
 40
1.0
 40
1.0
 10
8.867541274529035
 20
0.3437522370608475
 30
0.0
 10
8.849784331158133
 20
0.5211516673952905
 30
0.0
 10
8.832103400177264
 20
0.6966554480401218
 30
0.0
 10
8.795161906005283
 20
1.043962145898192
 30
0.0
 10
8.776272689786396
 20
1.214506377638767
 30
0.0
 10
8.738506848988084
 20
1.541402214917633
 30
0.0
 10
8.719634590211594
 20
1.697716154473103
 30
0.0
 10
8.682758413555206
 20
1.989389070552206
 30
0.0
 10
8.665173402355006
 20
2.123792968429937
 30
0.0
 10
8.647365702182835
 20
2.247763459430908
 30
0.0
  0
SPLINE
  5
F9
330
1F
100
AcDbEntity
  8
외형선
  6
Continuous
 62
     1
370
    15
100
AcDbSpline
210
0.0
220
0.0
230
1.0
 70
     8
 71
     3
 72
    12
 73
     8
 74
     0
 42
0.000000001
 43
0.00000001
 40
0.0
 40
0.0
 40
0.0
 40
0.0
 40
0.5000000000000006
 40
0.5000000000000006
 40
0.7500000000000003
 40
0.7500000000000003
 40
1.0
 40
1.0
 40
1.0
 40
1.0
 10
7.400664802384363
 20
1.149404969003797
 30
0.0
 10
7.363131878057664
 20
1.487022472022075
 30
0.0
 10
7.324874755427344
 20
1.802482488748388
 30
0.0
 10
7.271385413720274
 20
2.2033831797876
 30
0.0
 10
7.253922898754914
 20
2.326108417999277
 30
0.0
 10
7.217188682087284
 20
2.551188350673921
 30
0.0
 10
7.198371400979464
 20
2.652351041409655
 30
0.0
 10
7.179523654155363
 20
2.739522825881128
 30
0.0
  0
SPLINE
  5
FA
330
1F
100
AcDbEntity
  8
외형선
  6
Continuous
 62
     1
370
    15
100
AcDbSpline
210
0.0
220
0.0
230
1.0
 70
     8
 71
     3
 72
    12
 73
     8
 74
     0
 42
0.000000001
 43
0.00000001
 40
0.0
 40
0.0
 40
0.0
 40
0.0
 40
0.2499999999999999
 40
0.2499999999999999
 40
0.4999999999999998
 40
0.4999999999999998
 40
0.954909593510678
 40
0.954909593510678
 40
0.954909593510678
 40
0.954909593510678
 10
6.744629015447294
 20
1.487345059682725
 30
0.0
 10
6.725803623721034
 20
1.647152650496792
 30
0.0
 10
6.707087343486264
 20
1.799016982973687
 30
0.0
 10
6.670697554645325
 20
2.080636133166367
 30
0.0
 10
6.653461588173664
 20
2.209521622663068
 30
0.0
 10
6.602571602385219
 20
2.546068295235283
 30
0.0
 10
6.567809146317759
 20
2.728070017017275
 30
0.0
 10
6.504341947805247
 20
3.06685716331693
 30
0.0
  0
SPLINE
  5
FC
330
1F
100
AcDbEntity
  8
외형선
  6
Continuous
 62
     1
370
    15
100
AcDbSpline
210
0.0
220
0.0
230
1.0
 70
     8
 71
     3
 72
    12
 73
     8
 74
     0
 42
0.000000001
 43
0.00000001
 40
0.0
 40
0.0
 40
0.0
 40
0.0
 40
0.2500000000000002
 40
0.2500000000000002
 40
0.5000000000000003
 40
0.5000000000000003
 40
1.0
 40
1.0
 40
1.0
 40
1.0
 10
6.579860776981104
 20
1.602029260797316
 30
0.0
 10
6.561222086757364
 20
1.760359058755151
 30
0.0
 10
6.542769780141223
 20
1.910070954976041
 30
0.0
 10
6.507026433176564
 20
2.186438941811769
 30
0.0
 10
6.489883802204544
 20
2.312985353547136
 30
0.0
 10
6.435577567525073
 20
2.663679741138168
 30
0.0
 10
6.397354462645304
 20
2.852537748119679
 30
0.0
 10
6.36162040338423
 20
3.175000000000001
 30
0.0
  0
LINE
  5
106
330
1F
100
AcDbEntity
  8
외형선
  6
Continuous
 62
     1
370
    15
100
AcDbLine
 10
6.36162040338423
 20
-3.167044284418396
 30
0.0
 11
6.608661925616114
 21
-3.170666711150637
 31
0.0
  0
LINE
  5
108
330
1F
100
AcDbEntity
  8
외형선
  6
Continuous
 62
     1
370
    15
100
AcDbLine
 10
7.427808029146774
 20
-3.100855761040195
 30
0.0
 11
7.413359509723734
 21
-3.110750013656703
 31
0.0
  0
SPLINE
  5
109
330
1F
100
AcDbEntity
  8
외형선
  6
Continuous
 62
     1
370
    15
100
AcDbSpline
210
0.0
220
0.0
230
1.0
 70
     8
 71
     3
 72
     8
 73
     4
 74
     0
 42
0.000000001
 43
0.00000001
 40
0.000000298923855
 40
0.000000298923855
 40
0.000000298923855
 40
0.000000298923855
 40
0.0000177306358404
 40
0.0000177306358404
 40
0.0000177306358404
 40
0.0000177306358404
 10
12.71162040338422
 20
2.019606629395932
 30
0.0
 10
12.70773272757717
 20
2.022959009518261
 30
0.0
 10
12.70384403813078
 20
2.026309638481292
 30
0.0
 10
12.69995435003669
 20
2.029658538152361
 30
0.0
  0
LINE
  5
10A
330
1F
100
AcDbEntity
  8
외형선
  6
Continuous
 62
     1
370
    15
100
AcDbLine
 10
12.71162040338422
 20
0.6124588087644217
 30
0.0
 11
12.71162040338422
 21
2.019606629395931
 31
0.0
  0
LINE
  5
10B
330
1F
100
AcDbEntity
  8
외형선
  6
Continuous
 62
     1
370
    15
100
AcDbLine
 10
12.71162040338422
 20
2.074999999999999
 30
0.0
 11
12.71162040338422
 21
2.019606629395931
 31
0.0
  0
LINE
  5
10C
330
1F
100
AcDbEntity
  8
외형선
  6
Continuous
 62
     1
370
    15
100
AcDbLine
 10
12.71162040338422
 20
-1.42224791325031
 30
0.0
 11
12.71162040338422
 21
-1.856130954124576
 31
0.0
  0
SPLINE
  5
10D
330
1F
100
AcDbEntity
  8
외형선
  6
Continuous
 62
     1
370
    15
100
AcDbSpline
210
0.0
220
0.0
230
1.0
 70
     8
 71
     3
 72
    10
 73
     6
 74
     0
 42
0.000000001
 43
0.00000001
 40
0.0
 40
0.0
 40
0.0
 40
0.0
 40
0.1880482557635137
 40
0.5969236727479403
 40
1.0
 40
1.0
 40
1.0
 40
1.0
 10
7.248865373128685
 20
-3.154135777869461
 30
0.0
 10
7.237585615585835
 20
-3.158492215283106
 30
0.0
 10
7.201780155583845
 20
-3.172320903087154
 30
0.0
 10
7.140347669751384
 20
-3.024814646071806
 30
0.0
 10
7.092920244938743
 20
-2.795470202046767
 30
0.0
 10
7.069375899674134
 20
-2.68161698745677
 30
0.0
  0
SPLINE
  5
10E
330
1F
100
AcDbEntity
  8
외형선
  6
Continuous
 62
     1
370
    15
100
AcDbSpline
210
0.0
220
0.0
230
1.0
 70
     8
 71
     3
 72
    11
 73
     7
 74
     0
 42
0.000000001
 43
0.00000001
 40
0.0
 40
0.0
 40
0.0
 40
0.0
 40
0.0849648121092457
 40
0.3922742960752363
 40
0.6981664513682775
 40
1.0
 40
1.0
 40
1.0
 40
1.0
 10
7.413359509723734
 20
-3.110750013656703
 30
0.0
 10
7.408278436449144
 20
-3.115082132495718
 30
0.0
 10
7.384819613995254
 20
-3.135083104967758
 30
0.0
 10
7.341518426875255
 20
-3.074700975673783
 30
0.0
 10
7.285837743427254
 20
-2.935227767386792
 30
0.0
 10
7.250117317729964
 20
-2.765600828455295
 30
0.0
 10
7.232376381683944
 20
-2.681353773261512
 30
0.0
  0
SPLINE
  5
10F
330
1F
100
AcDbEntity
  8
외형선
  6
Continuous
 62
     1
370
    15
100
AcDbSpline
210
0.0
220
0.0
230
1.0
 70
     8
 71
     3
 72
     9
 73
     5
 74
     0
 42
0.000000001
 43
0.00000001
 40
0.0
 40
0.0
 40
0.0
 40
0.0
 40
0.4060691217714237
 40
1.0
 40
1.0
 40
1.0
 40
1.0
 10
7.993052973995264
 20
-3.096622551120434
 30
0.0
 10
7.978469944961044
 20
-3.085082049657353
 30
0.0
 10
7.942557268393565
 20
-3.056662007737549
 30
0.0
 10
7.907499226617275
 20
-2.928152682891326
 30
0.0
 10
7.886677173076115
 20
-2.851827026724847
 30
0.0
  0
SPLINE
  5
110
330
1F
100
AcDbEntity
  8
외형선
  6
Continuous
 62
     1
370
    15
100
AcDbSpline
210
0.0
220
0.0
230
1.0
 70
     8
 71
     3
 72
    10
 73
     6
 74
     0
 42
0.000000001
 43
0.00000001
 40
0.0
 40
0.0
 40
0.0
 40
0.0
 40
0.028759775608285
 40
0.515765474502898
 40
1.0
 40
1.0
 40
1.0
 40
1.0
 10
8.175091916900524
 20
-3.171922716015904
 30
0.0
 10
8.173924899611123
 20
-3.17293186020325
 30
0.0
 10
8.152996112327845
 20
-3.191029419020019
 30
0.0
 10
8.110554467562224
 20
-3.128353272518711
 30
0.0
 10
8.070858624190784
 20
-3.003038623045706
 30
0.0
 10
8.051067333224402
 20
-2.94056007417444
 30
0.0
  0
SPLINE
  5
111
330
1F
100
AcDbEntity
  8
외형선
  6
Continuous
 62
     1
370
    15
100
AcDbSpline
210
0.0
220
0.0
230
1.0
 70
     8
 71
     3
 72
     9
 73
     5
 74
     0
 42
0.000000001
 43
0.00000001
 40
0.0
 40
0.0
 40
0.0
 40
0.0
 40
0.007129988193638
 40
1.0
 40
1.0
 40
1.0
 40
1.0
 10
9.249171763703224
 20
-3.174646739414889
 30
0.0
 10
9.249037577452135
 20
-3.174764474688166
 30
0.0
 10
9.230217595224584
 20
-3.191277163079736
 30
0.0
 10
9.210701653167664
 20
-3.157584310819831
 30
0.0
 10
9.191324859547194
 20
-3.124131688198749
 30
0.0
  0
SPLINE
  5
112
330
1F
100
AcDbEntity
  8
외형선
  6
Continuous
 62
     1
370
    15
100
AcDbSpline
210
0.0
220
0.0
230
1.0
 70
     8
 71
     3
 72
     9
 73
     5
 74
     0
 42
0.000000001
 43
0.00000001
 40
0.0
 40
0.0
 40
0.0
 40
0.0
 40
0.250244511779547
 40
1.0
 40
1.0
 40
1.0
 40
1.0
 10
9.424707858808095
 20
-3.105482512960018
 30
0.0
 10
9.418977379189855
 20
-3.111961048763459
 30
0.0
 10
9.396077857528063
 20
-3.137849871488762
 30
0.0
 10
9.372316348486624
 20
-3.108046330030063
 30
0.0
 10
9.354501026674395
 20
-3.085700961252998
 30
0.0
  0
LINE
  5
113
330
1F
100
AcDbEntity
  8
중심선
100
AcDbLine
 10
-42.67587959661577
 20
-0.0000000000000046
 30
0.0
 11
15.71162040338423
 21
0.0000000000000026
 31
0.0
  0
LINE
  5
114
330
1F
100
AcDbEntity
  8
참조1
100
AcDbLine
 10
-14.27587959661577
 20
-0.3168705809327335
 30
0.0
 11
-14.27587959661576
 21
-40.31687058093274
 31
0.0
  0
LINE
  5
115
330
1F
100
AcDbEntity
  8
참조1
100
AcDbLine
 10
-24.95448725181224
 20
-3.174999999999992
 30
0.0
 11
43.18809309178023
 21
-3.174999999999992
 31
0.0
  0
LINE
  5
116
330
1F
100
AcDbEntity
  8
참조1
100
AcDbLine
 10
43.18809309178023
 20
-3.174999999999992
 30
0.0
 11
43.18809309178023
 21
-6.927248606176843
 31
0.0
  0
LINE
  5
117
330
1F
100
AcDbEntity
  8
참조1
100
AcDbLine
 10
-14.27587959661576
 20
-40.31687058093274
 30
0.0
 11
-29.42192940388146
 21
-40.31687058093273
 31
0.0
  0
CIRCLE
  5
118
330
1F
100
AcDbEntity
  8
해칭선
100
AcDbCircle
 10
0.0
 20
0.0
 30
0.0
 40
3.000000000000005
  0
INSERT
  5
119
330
1F
100
AcDbEntity
  8
0
  6
Continuous
 62
     7
100
AcDbBlockReference
 66
     1
  2
블럭10
 10
-28.21615252874097
 20
-52.36404488257666
 30
0.0
  0
ATTRIB
  5
11A
330
119
100
AcDbEntity
  8
FORMAT
 62
     2
100
AcDbText
 10
-37.7384664793389
 20
-50.28867796974447
 30
0.0
 40
4.233333333333333
  1
E2241016 [ 3 FLUTE ]
 41
0.75
  7
SLDTEXTSTYLE0
 11
-37.7384664793389
 21
-52.40534463641114
 31
0.0
100
AcDbAttribute
  2
AUTOATTR0
 70
     0
 74
     1
  0
SEQEND
  5
11B
330
119
100
AcDbEntity
  8
0
  6
Continuous
 62
     7
  0
HATCH
  5
11C
330
1F
100
AcDbEntity
  8
중심선
100
AcDbHatch
 10
0.0
 20
0.0
 30
0.0
210
0.0
220
0.0
230
1.0
  2
SOLID
 70
     1
 71
     0
 91
        1
 92
        0
 93
        4
 72
     1
 10
-22.50124322436015
 20
-36.11687058093273
 11
-25.94751846819743
 21
-36.11687058093273
 72
     1
 10
-25.94751846819743
 20
-36.11687058093273
 11
-28.07574832740145
 21
-38.65319616150532
 72
     1
 10
-28.07574832740145
 20
-38.65319616150532
 11
-24.62943999845102
 21
-38.65315673220283
 72
     1
 10
-24.62943999845102
 20
-38.65315673220283
 11
-22.50124322436015
 21
-36.11687058093273
 97
        0
 75
     0
 76
     1
 98
        1
 10
-5.22587959661577
 20
-0.31687058093273
  0
HATCH
  5
11D
330
1F
100
AcDbEntity
  8
중심선
100
AcDbHatch
 10
0.0
 20
0.0
 30
0.0
210
0.0
220
0.0
230
1.0
  2
SOLID
 70
     1
 71
     0
 91
        1
 92
        0
 93
        4
 72
     1
 10
-17.48847923332417
 20
-36.11687058093275
 11
-20.93475447716145
 21
-36.1168705809327
 72
     1
 10
-20.93475447716144
 20
-36.1168705809327
 11
-25.46589248551886
 21
-41.51687058093275
 72
     1
 10
-25.46589248551886
 20
-41.51687058093275
 11
-22.01961724168158
 21
-41.51687058093275
 72
     1
 10
-22.01961724168158
 20
-41.51687058093275
 11
-17.48847923332416
 21
-36.11687058093275
 97
        0
 75
     0
 76
     1
 98
        1
 10
-5.22587959661577
 20
-0.31687058093273
  0
HATCH
  5
11E
330
1F
100
AcDbEntity
  8
중심선
100
AcDbHatch
 10
0.0
 20
0.0
 30
0.0
210
0.0
220
0.0
230
1.0
  2
SOLID
 70
     1
 71
     0
 91
        1
 92
        0
 93
        4
 72
     1
 10
-12.4757152422883
 20
-36.11687058093273
 11
-15.92199048612542
 21
-36.11687058093273
 72
     1
 10
-15.92199048612542
 20
-36.11687058093273
 11
-22.97042738801466
 21
-44.51687058093275
 72
     1
 10
-22.97042738801466
 20
-44.51687058093275
 11
-19.52415214417737
 21
-44.51687058093275
 72
     1
 10
-19.52415214417737
 20
-44.51687058093275
 11
-12.47571524228829
 21
-36.11687058093273
 97
        0
 75
     0
 76
     1
 98
        1
 10
-5.22587959661577
 20
-0.31687058093273
  0
HATCH
  5
11F
330
1F
100
AcDbEntity
  8
중심선
100
AcDbHatch
 10
0.0
 20
0.0
 30
0.0
210
0.0
220
0.0
230
1.0
  2
SOLID
 70
     1
 71
     0
 91
        1
 92
        0
 93
        6
 72
     3
 10
-7.675824811276097
 20
-40.316870580984
 11
3.960054785062284
 21
1.540882976769353E-10
 40
0.3939339440162627
 50
17.09539180608438
 51
320.0019657685082
 73
     0
 72
     1
 10
-5.992825155575528
 20
-38.90476458557106
 11
-3.687523281874463
 21
-36.97043787552313
 72
     3
 10
-7.675824811328942
 20
-40.31687058093288
 11
6.600054785286829
 21
-1.278976924368180E-13
 40
0.6363583540795982
 50
39.99873849337394
 51
368.4976242363724
 73
     1
 72
     1
 10
-1.250492319428334
 20
-39.35687058086275
 11
-8.995757504493021
 21
-39.35687058086272
 72
     1
 10
-8.995757504493021
 20
-39.35687058086272
 11
-8.995782548938955
 21
-41.27687058086264
 72
     1
 10
-8.995782548938955
 20
-41.27687058086264
 11
-4.554402779466918
 21
-41.27687058086261
 97
        0
 75
     0
 76
     1
 98
        1
 10
-5.22587959661577
 20
-0.31687058093273
  0
POINT
  5
120
330
1F
100
AcDbEntity
  8
치수문자_일반주서
100
AcDbPoint
 10
-5.225879596615759
 20
-0.3168705809327335
 30
0.0
  0
DIMENSION
  5
121
330
1F
100
AcDbEntity
  8
치수문자_일반주서
100
AcDbDimension
  2
_D
 10
26.94265468841247
 20
-3.174999999999944
 30
0.0
 11
26.94265468841238
 21
22.46650000000011
 31
0.0
 70
   160
  1
%%c<>
 71
     2
 42
6.35
 52
-270.0
  3
SLDDIMSTYLE0
100
AcDbAlignedDimension
 13
12.71162040338423
 23
3.175000000000001
 33
0.0
 14
12.71162040338423
 24
-3.174999999999999
 34
0.0
 50
90.0000000000002
100
AcDbRotatedDimension
1001
ACAD
1000
DSTYLE
1002
{
1070
   171
1070
     6
1070
   273
1070
     7
1002
}
  0
DIMENSION
  5
135
330
1F
100
AcDbEntity
  8
치수문자_일반주서
100
AcDbDimension
  2
_D_1
 10
-49.61337959661581
 20
-4.762500000000037
 30
0.0
 11
-49.61337959661583
 21
-0.5086721738103139
 31
0.0
 70
   160
  1
%%c<>
 71
     2
 42
9.525000000000002
 52
-270.0
  3
SLDDIMSTYLE0
100
AcDbAlignedDimension
 13
-38.80337959661578
 23
4.762500000000006
 33
0.0
 14
-38.80337959661578
 24
-4.762499999999996
 34
0.0
 50
90.0000000000002
100
AcDbRotatedDimension
1001
ACAD
1000
DSTYLE
1002
{
1070
   171
1070
     6
1070
   273
1070
     7
1002
}
  0
DIMENSION
  5
149
330
1F
100
AcDbEntity
  8
치수문자_일반주서
100
AcDbDimension
  2
_D_2
 10
6.361620403384229
 20
19.34732179202409
 30
0.0
 11
-14.51737959661578
 21
19.34732179202409
 31
0.0
 70
   160
  1
<>
 71
     2
 42
6.349999999999993
  3
SLDDIMSTYLE1
100
AcDbAlignedDimension
 13
12.71162040338422
 23
2.019606629395931
 33
0.0
 14
6.36162040338423
 24
3.175000000000001
 34
0.0
100
AcDbRotatedDimension
1001
ACAD
1000
DSTYLE
1002
{
1070
   171
1070
     6
1070
   273
1070
     7
1002
}
  0
DIMENSION
  5
15E
330
1F
100
AcDbEntity
  8
치수문자_일반주서
100
AcDbDimension
  2
_D_3
 10
-39.67587959661577
 20
36.01698679301992
 30
0.0
 11
-11.9160358797729
 21
36.01698679301992
 31
0.0
 70
   160
  1
<>
 71
     2
 42
52.3875
  3
SLDDIMSTYLE1
100
AcDbAlignedDimension
 13
12.71162040338422
 23
2.019606629395931
 33
0.0
 14
-39.67587959661577
 24
3.952499999999996
 34
0.0
100
AcDbRotatedDimension
1001
ACAD
1000
DSTYLE
1002
{
1070
   171
1070
     6
1070
   273
1070
     7
1002
}
  0
LINE
  5
171
330
1F
100
AcDbEntity
  8
참조1
100
AcDbLine
 10
68.5504112257728
 20
7.123129419067272
 30
0.0
 11
68.5504112257728
 21
-7.756870580932732
 31
0.0
  0
LINE
  5
172
330
1F
100
AcDbEntity
  8
참조1
100
AcDbLine
 10
81.25041122577281
 20
5.123129419067272
 30
0.0
 11
68.5504112257728
 21
5.123129419067272
 31
0.0
  0
SOLID
  5
173
330
1F
100
AcDbEntity
  8
참조1
100
AcDbTrace
 10
68.5504112257728
 20
5.123129419067272
 30
0.0
 11
74.9004112257728
 21
4.107129419067272
 31
0.0
 12
74.9004112257728
 22
6.139129419067272
 32
0.0
 13
74.9004112257728
 23
6.139129419067272
 33
0.0
  0
LINE
  5
174
330
1F
100
AcDbEntity
  8
참조1
100
AcDbLine
 10
81.25041122577281
 20
-5.756870580932732
 30
0.0
 11
68.5504112257728
 21
-5.756870580932732
 31
0.0
  0
SOLID
  5
175
330
1F
100
AcDbEntity
  8
참조1
100
AcDbTrace
 10
68.5504112257728
 20
-5.756870580932732
 30
0.0
 11
74.9004112257728
 21
-6.772870580932732
 31
0.0
 12
74.9004112257728
 22
-4.740870580932732
 32
0.0
 13
74.9004112257728
 23
-4.740870580932732
 33
0.0
  0
MTEXT
  5
176
330
1F
100
AcDbEntity
  8
참조1
100
AcDbMText
 10
78.15052603633536
 20
10.74884698508335
 30
0.0
 40
3.5
 41
0.0
 71
     1
 72
     1
  1
A
  7
SLDTEXTSTYLE0
 73
     1
 44
1.0
  0
MTEXT
  5
177
330
1F
100
AcDbEntity
  8
참조1
100
AcDbMText
 10
78.15052603633536
 20
-0.1311530149166564
 30
0.0
 40
3.5
 41
0.0
 71
     1
 72
     1
  1
A
  7
SLDTEXTSTYLE0
 73
     1
 44
1.0
  0
INSERT
  5
17E
330
1F
100
AcDbEntity
  8
해칭선
100
AcDbBlockReference
  2
SW_DOWELSYMBOL_0
 10
0.0
 20
0.0
 30
0.0
  0
LINE
  5
1CA
330
1F
100
AcDbEntity
  8
외형선
  6
Continuous
370
    15
100
AcDbLine
 10
6.36162040338423
 20
3.175000000000001
 30
0.0
 11
6.36162040338423
 21
-3.174999999999999
 31
0.0
  0
SPLINE
  5
1CB
330
1F
100
AcDbEntity
  8
외형선
  6
Continuous
 62
     1
370
    15
100
AcDbSpline
210
0.0
220
0.0
230
1.0
 70
  1064
 71
     3
 72
    10
 73
     6
 74
     4
 42
0.000000001
 43
0.0000000001
 44
0.0
 40
0.0
 40
0.0
 40
0.0
 40
0.0
 40
0.3769287422802397
 40
0.6664203429894581
 40
0.9552069331950059
 40
0.9552069331950059
 40
0.9552069331950059
 40
0.9552069331950059
 10
7.179523654155363
 20
2.739522825881128
 30
0.0
 10
7.047604752601174
 20
2.745009275066432
 30
0.0
 10
6.814368520498788
 20
2.754709467537153
 30
0.0
 10
6.593096178508263
 20
3.004761136897025
 30
0.0
 10
6.438716257429743
 20
3.118299852714056
 30
0.0
 10
6.36162040338423
 20
3.175000000000001
 30
0.0
 11
7.179523654155363
 21
2.739522825881128
 31
0.0
 11
6.808995002444502
 21
2.808687809928654
 31
0.0
 11
6.587814759116253
 21
2.995462237628064
 31
0.0
 11
6.36162040338423
 21
3.175000000000001
 31
0.0
  0
LINE
  5
1CE
330
1F
100
AcDbEntity
  8
외형선
  6
Continuous
370
    15
100
AcDbLine
 10
-38.86587959661577
 20
4.762499999999997
 30
0.0
 11
-38.86587959661577
 21
-4.762500000000006
 31
0.0
  0
LINE
  5
1D0
330
1F
100
AcDbEntity
  8
외형선
  6
Continuous
370
    15
100
AcDbLine
 10
6.36162040338423
 20
3.175
 30
0.0
 11
1.999999999999977
 21
4.762500000000014
 31
0.0
  0
LINE
  5
1D1
330
1F
100
AcDbEntity
  8
외형선
  6
Continuous
370
    15
100
AcDbLine
 10
6.36162040338423
 20
-3.174999999999998
 30
0.0
 11
1.999999999999977
 21
-4.762500000000013
 31
0.0
  0
LINE
  5
1D2
330
1F
100
AcDbEntity
  8
외형선
  6
Continuous
370
    15
100
AcDbLine
 10
2.00000000000002
 20
-4.762499999999996
 30
0.0
 11
1.99999999999998
 21
4.762500000000014
 31
0.0
  0
LINE
  5
235
330
1F
100
AcDbEntity
  8
외형선
  6
Continuous
370
    15
100
AcDbLine
 10
-23.40082959661589
 20
3.4925
 30
0.0
 11
-16.26342959661577
 21
3.4925
 31
0.0
  0
LINE
  5
236
330
1F
100
AcDbEntity
  8
외형선
  6
Continuous
370
    15
100
AcDbLine
 10
-23.40082959661589
 20
3.4925
 30
0.0
 11
-24.67082959661587
 21
4.762499999999982
 31
0.0
  0
LINE
  5
237
330
1F
100
AcDbEntity
  8
외형선
  6
Continuous
370
    15
100
AcDbLine
 10
-16.26342959661577
 20
3.4925
 30
0.0
 11
-14.99342959661567
 21
4.762499999999982
 31
0.0
  0
LINE
  5
238
330
1F
100
AcDbEntity
  8
외형선
  6
Continuous
370
    15
100
AcDbLine
 10
-24.6708295966159
 20
4.762500000000009
 30
0.0
 11
-38.86587959661578
 21
4.762500000000006
 31
0.0
  0
ENDSEC
  0
SECTION
  2
OBJECTS
  0
DICTIONARY
  5
C
330
0
100
AcDbDictionary
281
     1
  3
ACAD_GROUP
350
D
  3
ACAD_IMAGE_VARS
350
1A2
  3
ACAD_LAYOUT
350
1A
  3
ACAD_MLINESTYLE
350
17
  3
ACAD_PLOTSETTINGS
350
19
  3
ACAD_PLOTSTYLENAME
350
E
  3
ACAD_SCALELIST
350
47
  3
APPDATA
350
1A0
  3
DWGPROPS
350
239
  0
DICTIONARY
  5
226
330
2
100
AcDbDictionary
280
     1
281
     1
  3
ACAD_LAYERSTATES
360
227
  0
DICTIONARY
  5
D
102
{ACAD_REACTORS
330
C
102
}
330
C
100
AcDbDictionary
281
     1
  0
RASTERVARIABLES
  5
1A2
102
{ACAD_REACTORS
330
C
102
}
330
C
100
AcDbRasterVariables
 90
        0
 70
     1
 71
     1
 72
     1
  0
DICTIONARY
  5
1A
102
{ACAD_REACTORS
330
C
102
}
330
C
100
AcDbDictionary
281
     1
  3
Layout1
350
1E
  3
Layout2
350
26
  3
Model
350
22
  0
DICTIONARY
  5
17
102
{ACAD_REACTORS
330
C
102
}
330
C
100
AcDbDictionary
281
     1
  3
Standard
350
18
  0
DICTIONARY
  5
19
102
{ACAD_REACTORS
330
C
102
}
330
C
100
AcDbDictionary
281
     1
  0
ACDBDICTIONARYWDFLT
  5
E
102
{ACAD_REACTORS
330
C
102
}
330
C
100
AcDbDictionary
281
     1
  3
Normal
350
F
100
AcDbDictionaryWithDefault
340
F
  0
DICTIONARY
  5
47
102
{ACAD_REACTORS
330
C
102
}
330
C
100
AcDbDictionary
281
     1
  3
A0
350
48
  3
A1
350
49
  3
A2
350
4A
  3
A3
350
4B
  3
A4
350
4C
  3
A5
350
4D
  3
A6
350
4E
  3
A7
350
4F
  3
A8
350
50
  3
A9
350
51
  3
B0
350
52
  3
B1
350
53
  3
B2
350
54
  3
B3
350
55
  3
B4
350
56
  3
B5
350
57
  3
B6
350
58
  3
B7
350
59
  3
B8
350
5A
  3
B9
350
5B
  3
C0
350
5C
  3
C1
350
5D
  3
C2
350
5E
  3
C3
350
5F
  3
C4
350
60
  3
C5
350
61
  3
C6
350
62
  3
C7
350
63
  3
C8
350
64
  3
C9
350
65
  3
D0
350
66
  3
D1
350
67
  3
D2
350
68
  0
DICTIONARY
  5
1A0
102
{ACAD_REACTORS
330
C
102
}
330
C
100
AcDbDictionary
281
     1
  0
XRECORD
  5
239
102
{ACAD_REACTORS
330
C
102
}
330
C
100
AcDbXrecord
280
     1
  1
DWGPROPS COOKIE
  2

  3

  4

  6

  7

  8
12016016
  9

300
=
301
=
302
=
303
=
304
=
305
=
306
=
307
=
308
=
309
=
 40
0.0
 41
2458298.968457072
 42
2458311.132490868
  1

 90
        0
  0
DICTIONARY
  5
227
102
{ACAD_REACTORS
330
226
102
}
330
226
100
AcDbDictionary
281
     1
  0
LAYOUT
  5
1E
102
{ACAD_REACTORS
330
1A
102
}
330
1A
100
AcDbPlotSettings
  1

  2
none_device
  4

  6

 40
0.0
 41
0.0
 42
0.0
 43
0.0
 44
0.0
 45
0.0
 46
0.0
 47
0.0
 48
0.0
 49
0.0
140
0.0
141
0.0
142
1.0
143
1.0
 70
   688
 72
     1
 73
     0
 74
     5
  7

 75
    16
147
1.0
148
0.0
149
0.0
100
AcDbLayout
  1
Layout1
 70
     1
 71
     1
 10
0.0
 20
0.0
 11
420.0
 21
297.0
 12
0.0
 22
0.0
 32
0.0
 14
1.000000000000000E+20
 24
1.000000000000000E+20
 34
1.000000000000000E+20
 15
-1.000000000000000E+20
 25
-1.000000000000000E+20
 35
-1.000000000000000E+20
146
0.0
 13
0.0
 23
0.0
 33
0.0
 16
1.0
 26
0.0
 36
0.0
 17
0.0
 27
1.0
 37
0.0
 76
     0
330
1B
  0
LAYOUT
  5
26
102
{ACAD_REACTORS
330
1A
102
}
330
1A
100
AcDbPlotSettings
  1

  2
none_device
  4

  6

 40
0.0
 41
0.0
 42
0.0
 43
0.0
 44
0.0
 45
0.0
 46
0.0
 47
0.0
 48
0.0
 49
0.0
140
0.0
141
0.0
142
1.0
143
1.0
 70
   688
 72
     1
 73
     0
 74
     5
  7

 75
    16
147
1.0
148
0.0
149
0.0
100
AcDbLayout
  1
Layout2
 70
     1
 71
     2
 10
0.0
 20
0.0
 11
0.0
 21
0.0
 12
0.0
 22
0.0
 32
0.0
 14
0.0
 24
0.0
 34
0.0
 15
0.0
 25
0.0
 35
0.0
146
0.0
 13
0.0
 23
0.0
 33
0.0
 16
1.0
 26
0.0
 36
0.0
 17
0.0
 27
1.0
 37
0.0
 76
     0
330
23
  0
LAYOUT
  5
22
102
{ACAD_REACTORS
330
1A
102
}
330
1A
100
AcDbPlotSettings
  1

  2
none_device
  4
ANSI_A_(11.00_x_8.50_Inches)
  6

 40
6.35
 41
19.05
 42
6.35000508
 43
19.05000254
 44
279.4
 45
215.9
 46
104.7392001083598
 47
92.36371863629591
 48
0.0
 49
0.0
140
0.0
141
0.0
142
0.0759908789109562
143
1.0
 70
  1696
 72
     0
 73
     0
 74
     0
  7

 75
     0
147
0.0235690232323232
148
0.0
149
0.0
100
AcDbLayout
  1
Model
 70
     1
 71
     0
 10
0.0
 20
0.0
 11
420.0
 21
297.0
 12
0.0
 22
0.0
 32
0.0
 14
1.000000000000000E+20
 24
1.000000000000000E+20
 34
1.000000000000000E+20
 15
-1.000000000000000E+20
 25
-1.000000000000000E+20
 35
-1.000000000000000E+20
146
0.0
 13
0.0
 23
0.0
 33
0.0
 16
1.0
 26
0.0
 36
0.0
 17
0.0
 27
1.0
 37
0.0
 76
     0
330
1F
331
29
  0
MLINESTYLE
  5
18
102
{ACAD_REACTORS
330
17
102
}
330
17
100
AcDbMlineStyle
  2
Standard
 70
     0
  3

 62
   256
 51
90.0
 52
90.0
 71
     2
 49
0.5
 62
   256
  6
BYLAYER
 49
-0.5
 62
   256
  6
BYLAYER
  0
ACDBPLACEHOLDER
  5
F
102
{ACAD_REACTORS
330
E
102
}
330
E
  0
SCALE
  5
48
102
{ACAD_REACTORS
330
47
102
}
330
47
100
AcDbScale
 70
     0
300
1:1
140
1.0
141
1.0
290
     1
  0
SCALE
  5
49
102
{ACAD_REACTORS
330
47
102
}
330
47
100
AcDbScale
 70
     0
300
1:2
140
1.0
141
2.0
290
     0
  0
SCALE
  5
4A
102
{ACAD_REACTORS
330
47
102
}
330
47
100
AcDbScale
 70
     0
300
1:4
140
1.0
141
4.0
290
     0
  0
SCALE
  5
4B
102
{ACAD_REACTORS
330
47
102
}
330
47
100
AcDbScale
 70
     0
300
1:5
140
1.0
141
5.0
290
     0
  0
SCALE
  5
4C
102
{ACAD_REACTORS
330
47
102
}
330
47
100
AcDbScale
 70
     0
300
1:8
140
1.0
141
8.0
290
     0
  0
SCALE
  5
4D
102
{ACAD_REACTORS
330
47
102
}
330
47
100
AcDbScale
 70
     0
300
1:10
140
1.0
141
10.0
290
     0
  0
SCALE
  5
4E
102
{ACAD_REACTORS
330
47
102
}
330
47
100
AcDbScale
 70
     0
300
1:16
140
1.0
141
16.0
290
     0
  0
SCALE
  5
4F
102
{ACAD_REACTORS
330
47
102
}
330
47
100
AcDbScale
 70
     0
300
1:20
140
1.0
141
20.0
290
     0
  0
SCALE
  5
50
102
{ACAD_REACTORS
330
47
102
}
330
47
100
AcDbScale
 70
     0
300
1:30
140
1.0
141
30.0
290
     0
  0
SCALE
  5
51
102
{ACAD_REACTORS
330
47
102
}
330
47
100
AcDbScale
 70
     0
300
1:40
140
1.0
141
40.0
290
     0
  0
SCALE
  5
52
102
{ACAD_REACTORS
330
47
102
}
330
47
100
AcDbScale
 70
     0
300
1:50
140
1.0
141
50.0
290
     0
  0
SCALE
  5
53
102
{ACAD_REACTORS
330
47
102
}
330
47
100
AcDbScale
 70
     0
300
1:100
140
1.0
141
100.0
290
     0
  0
SCALE
  5
54
102
{ACAD_REACTORS
330
47
102
}
330
47
100
AcDbScale
 70
     0
300
2:1
140
2.0
141
1.0
290
     0
  0
SCALE
  5
55
102
{ACAD_REACTORS
330
47
102
}
330
47
100
AcDbScale
 70
     0
300
4:1
140
4.0
141
1.0
290
     0
  0
SCALE
  5
56
102
{ACAD_REACTORS
330
47
102
}
330
47
100
AcDbScale
 70
     0
300
8:1
140
8.0
141
1.0
290
     0
  0
SCALE
  5
57
102
{ACAD_REACTORS
330
47
102
}
330
47
100
AcDbScale
 70
     0
300
10:1
140
10.0
141
1.0
290
     0
  0
SCALE
  5
58
102
{ACAD_REACTORS
330
47
102
}
330
47
100
AcDbScale
 70
     0
300
100:1
140
100.0
141
1.0
290
     0
  0
SCALE
  5
59
102
{ACAD_REACTORS
330
47
102
}
330
47
100
AcDbScale
 70
     0
300
1/128" = 1'-0"
140
0.0078125
141
12.0
290
     0
  0
SCALE
  5
5A
102
{ACAD_REACTORS
330
47
102
}
330
47
100
AcDbScale
 70
     0
300
1/64" = 1'-0"
140
0.015625
141
12.0
290
     0
  0
SCALE
  5
5B
102
{ACAD_REACTORS
330
47
102
}
330
47
100
AcDbScale
 70
     0
300
1/32" = 1'-0"
140
0.03125
141
12.0
290
     0
  0
SCALE
  5
5C
102
{ACAD_REACTORS
330
47
102
}
330
47
100
AcDbScale
 70
     0
300
1/16" = 1'-0"
140
0.0625
141
12.0
290
     0
  0
SCALE
  5
5D
102
{ACAD_REACTORS
330
47
102
}
330
47
100
AcDbScale
 70
     0
300
3/32" = 1'-0"
140
0.09375
141
12.0
290
     0
  0
SCALE
  5
5E
102
{ACAD_REACTORS
330
47
102
}
330
47
100
AcDbScale
 70
     0
300
1/8" = 1'-0"
140
0.125
141
12.0
290
     0
  0
SCALE
  5
5F
102
{ACAD_REACTORS
330
47
102
}
330
47
100
AcDbScale
 70
     0
300
3/16" = 1'-0"
140
0.1875
141
12.0
290
     0
  0
SCALE
  5
60
102
{ACAD_REACTORS
330
47
102
}
330
47
100
AcDbScale
 70
     0
300
1/4" = 1'-0"
140
0.25
141
12.0
290
     0
  0
SCALE
  5
61
102
{ACAD_REACTORS
330
47
102
}
330
47
100
AcDbScale
 70
     0
300
3/8" = 1'-0"
140
0.375
141
12.0
290
     0
  0
SCALE
  5
62
102
{ACAD_REACTORS
330
47
102
}
330
47
100
AcDbScale
 70
     0
300
1/2" = 1'-0"
140
0.5
141
12.0
290
     0
  0
SCALE
  5
63
102
{ACAD_REACTORS
330
47
102
}
330
47
100
AcDbScale
 70
     0
300
3/4" = 1'-0"
140
0.75
141
12.0
290
     0
  0
SCALE
  5
64
102
{ACAD_REACTORS
330
47
102
}
330
47
100
AcDbScale
 70
     0
300
1" = 1'-0"
140
1.0
141
12.0
290
     0
  0
SCALE
  5
65
102
{ACAD_REACTORS
330
47
102
}
330
47
100
AcDbScale
 70
     0
300
1-1/2" = 1'-0"
140
1.5
141
12.0
290
     0
  0
SCALE
  5
66
102
{ACAD_REACTORS
330
47
102
}
330
47
100
AcDbScale
 70
     0
300
3" = 1'-0"
140
3.0
141
12.0
290
     0
  0
SCALE
  5
67
102
{ACAD_REACTORS
330
47
102
}
330
47
100
AcDbScale
 70
     0
300
6" = 1'-0"
140
6.0
141
12.0
290
     0
  0
SCALE
  5
68
102
{ACAD_REACTORS
330
47
102
}
330
47
100
AcDbScale
 70
     0
300
1'-0" = 1'-0"
140
12.0
141
12.0
290
     0
  0
ENDSEC
  0
EOF
