  0
SECTION
  2
HEADER
  9
$ACADVER
  1
AC1015
  9
$ACADMAINTVER
 70
     6
  9
$DWGCODEPAGE
  3
ANSI_949
  9
$INSBASE
 10
0.0
 20
0.0
 30
0.0
  9
$EXTMIN
 10
-55.60500001266715
 20
-49.97073246008785
 30
0.0
  9
$EXTMAX
 10
83.28848381534635
 20
45.9776203453229
 30
0.0
  9
$LIMMIN
 10
0.0
 20
0.0
  9
$LIMMAX
 10
420.0
 20
297.0
  9
$ORTHOMODE
 70
     0
  9
$REGENMODE
 70
     1
  9
$FILLMODE
 70
     1
  9
$QTEXTMODE
 70
     0
  9
$MIRRTEXT
 70
     1
  9
$LTSCALE
 40
1.0
  9
$ATTMODE
 70
     1
  9
$TEXTSIZE
 40
3.5
  9
$TRACEWID
 40
1.0
  9
$TEXTSTYLE
  7
Standard
  9
$CLAYER
  8
0
  9
$CELTYPE
  6
ByLayer
  9
$CECOLOR
 62
   256
  9
$CELTSCALE
 40
1.0
  9
$DISPSILH
 70
     0
  9
$DIMSCALE
 40
1.0
  9
$DIMASZ
 40
3.302
  9
$DIMEXO
 40
1.0
  9
$DIMDLI
 40
3.75
  9
$DIMRND
 40
0.0
  9
$DIMDLE
 40
0.0
  9
$DIMEXE
 40
1.0
  9
$DIMTP
 40
0.0
  9
$DIMTM
 40
0.0
  9
$DIMTXT
 40
3.5
  9
$DIMCEN
 40
2.5
  9
$DIMTSZ
 40
0.0
  9
$DIMTOL
 70
     0
  9
$DIMLIM
 70
     0
  9
$DIMTIH
 70
     1
  9
$DIMTOH
 70
     1
  9
$DIMSE1
 70
     0
  9
$DIMSE2
 70
     0
  9
$DIMTAD
 70
     1
  9
$DIMZIN
 70
     0
  9
$DIMBLK
  1

  9
$DIMASO
 70
     1
  9
$DIMSHO
 70
     1
  9
$DIMPOST
  1

  9
$DIMAPOST
  1

  9
$DIMALT
 70
     0
  9
$DIMALTD
 70
     3
  9
$DIMALTF
 40
0.0393700787401575
  9
$DIMLFAC
 40
1.0
  9
$DIMTOFL
 70
     1
  9
$DIMTVP
 40
0.0
  9
$DIMTIX
 70
     0
  9
$DIMSOXD
 70
     0
  9
$DIMSAH
 70
     0
  9
$DIMBLK1
  1

  9
$DIMBLK2
  1

  9
$DIMSTYLE
  2
ISO-25
  9
$DIMCLRD
 70
     0
  9
$DIMCLRE
 70
     0
  9
$DIMCLRT
 70
     0
  9
$DIMTFAC
 40
1.0
  9
$DIMGAP
 40
1.524
  9
$DIMJUST
 70
     0
  9
$DIMSD1
 70
     0
  9
$DIMSD2
 70
     0
  9
$DIMTOLJ
 70
     0
  9
$DIMTZIN
 70
     0
  9
$DIMALTZ
 70
     0
  9
$DIMALTTZ
 70
     0
  9
$DIMUPT
 70
     0
  9
$DIMDEC
 70
     2
  9
$DIMTDEC
 70
     2
  9
$DIMALTU
 70
     2
  9
$DIMALTTD
 70
     3
  9
$DIMTXSTY
  7
Standard
  9
$DIMAUNIT
 70
     0
  9
$DIMADEC
 70
     2
  9
$DIMALTRND
 40
0.0
  9
$DIMAZIN
 70
     0
  9
$DIMDSEP
 70
    44
  9
$DIMATFIT
 70
     3
  9
$DIMFRAC
 70
     0
  9
$DIMLDRBLK
  1

  9
$DIMLUNIT
 70
     2
  9
$DIMLWD
 70
    -2
  9
$DIMLWE
 70
    -2
  9
$DIMTMOVE
 70
     0
  9
$LUNITS
 70
     2
  9
$LUPREC
 70
     2
  9
$SKETCHINC
 40
1.0
  9
$FILLETRAD
 40
10.0
  9
$AUNITS
 70
     0
  9
$AUPREC
 70
     2
  9
$MENU
  1
.
  9
$ELEVATION
 40
0.0
  9
$PELEVATION
 40
0.0
  9
$THICKNESS
 40
0.0
  9
$LIMCHECK
 70
     0
  9
$CHAMFERA
 40
0.0
  9
$CHAMFERB
 40
0.0
  9
$CHAMFERC
 40
0.0
  9
$CHAMFERD
 40
0.0
  9
$SKPOLY
 70
     0
  9
$TDCREATE
 40
2458288.464650683
  9
$TDUCREATE
 40
2458288.089650683
  9
$TDUPDATE
 40
2459719.579437245
  9
$TDUUPDATE
 40
2459719.204437245
  9
$TDINDWG
 40
0.0030958912
  9
$TDUSRTIMER
 40
0.0001883218
  9
$USRTIMER
 70
     1
  9
$ANGBASE
 50
0.0
  9
$ANGDIR
 70
     0
  9
$PDMODE
 70
     0
  9
$PDSIZE
 40
-1.0
  9
$PLINEWID
 40
0.0
  9
$SPLFRAME
 70
     0
  9
$SPLINETYPE
 70
     6
  9
$SPLINESEGS
 70
     8
  9
$HANDSEED
  5
1F0
  9
$SURFTAB1
 70
     6
  9
$SURFTAB2
 70
     6
  9
$SURFTYPE
 70
     6
  9
$SURFU
 70
     6
  9
$SURFV
 70
     6
  9
$UCSBASE
  2

  9
$UCSNAME
  2

  9
$UCSORG
 10
0.0
 20
0.0
 30
0.0
  9
$UCSXDIR
 10
1.0
 20
0.0
 30
0.0
  9
$UCSYDIR
 10
0.0
 20
1.0
 30
0.0
  9
$UCSORTHOREF
  2

  9
$UCSORTHOVIEW
 70
     0
  9
$UCSORGTOP
 10
0.0
 20
0.0
 30
0.0
  9
$UCSORGBOTTOM
 10
0.0
 20
0.0
 30
0.0
  9
$UCSORGLEFT
 10
0.0
 20
0.0
 30
0.0
  9
$UCSORGRIGHT
 10
0.0
 20
0.0
 30
0.0
  9
$UCSORGFRONT
 10
0.0
 20
0.0
 30
0.0
  9
$UCSORGBACK
 10
0.0
 20
0.0
 30
0.0
  9
$PUCSBASE
  2

  9
$PUCSNAME
  2

  9
$PUCSORG
 10
0.0
 20
0.0
 30
0.0
  9
$PUCSXDIR
 10
1.0
 20
0.0
 30
0.0
  9
$PUCSYDIR
 10
0.0
 20
1.0
 30
0.0
  9
$PUCSORTHOREF
  2

  9
$PUCSORTHOVIEW
 70
     0
  9
$PUCSORGTOP
 10
0.0
 20
0.0
 30
0.0
  9
$PUCSORGBOTTOM
 10
0.0
 20
0.0
 30
0.0
  9
$PUCSORGLEFT
 10
0.0
 20
0.0
 30
0.0
  9
$PUCSORGRIGHT
 10
0.0
 20
0.0
 30
0.0
  9
$PUCSORGFRONT
 10
0.0
 20
0.0
 30
0.0
  9
$PUCSORGBACK
 10
0.0
 20
0.0
 30
0.0
  9
$USERI1
 70
     0
  9
$USERI2
 70
     0
  9
$USERI3
 70
     0
  9
$USERI4
 70
     0
  9
$USERI5
 70
     0
  9
$USERR1
 40
0.0
  9
$USERR2
 40
0.0
  9
$USERR3
 40
0.0
  9
$USERR4
 40
0.0
  9
$USERR5
 40
0.0
  9
$WORLDVIEW
 70
     1
  9
$SHADEDGE
 70
     3
  9
$SHADEDIF
 70
    70
  9
$TILEMODE
 70
     1
  9
$MAXACTVP
 70
    64
  9
$PINSBASE
 10
0.0
 20
0.0
 30
0.0
  9
$PLIMCHECK
 70
     0
  9
$PEXTMIN
 10
1.000000000000000E+20
 20
1.000000000000000E+20
 30
1.000000000000000E+20
  9
$PEXTMAX
 10
-1.000000000000000E+20
 20
-1.000000000000000E+20
 30
-1.000000000000000E+20
  9
$PLIMMIN
 10
0.0
 20
0.0
  9
$PLIMMAX
 10
0.0
 20
0.0
  9
$UNITMODE
 70
     0
  9
$VISRETAIN
 70
     1
  9
$PLINEGEN
 70
     0
  9
$PSLTSCALE
 70
     1
  9
$TREEDEPTH
 70
  3020
  9
$CMLSTYLE
  2
Standard
  9
$CMLJUST
 70
     0
  9
$CMLSCALE
 40
20.0
  9
$PROXYGRAPHICS
 70
     1
  9
$MEASUREMENT
 70
     1
  9
$CELWEIGHT
370
    -1
  9
$ENDCAPS
280
     0
  9
$JOINSTYLE
280
     0
  9
$LWDISPLAY
290
     1
  9
$INSUNITS
 70
     4
  9
$HYPERLINKBASE
  1

  9
$STYLESHEET
  1

  9
$XEDIT
290
     1
  9
$CEPSNTYPE
380
     0
  9
$PSTYLEMODE
290
     1
  9
$FINGERPRINTGUID
  2
{86590011-7A36-45B4-ACAB-8113DBA021F3}
  9
$VERSIONGUID
  2
{FAEB1C32-E019-11D5-929B-00C0DF256EC4}
  9
$EXTNAMES
290
     1
  9
$PSVPSCALE
 40
0.0
  9
$OLESTARTUP
290
     0
  0
ENDSEC
  0
SECTION
  2
CLASSES
  0
CLASS
  1
ACDBDICTIONARYWDFLT
  2
AcDbDictionaryWithDefault
  3
ObjectDBX Classes
 90
        0
280
     0
281
     0
  0
CLASS
  1
VISUALSTYLE
  2
AcDbVisualStyle
  3
ObjectDBX Classes
 90
     4095
280
     0
281
     0
  0
CLASS
  1
MATERIAL
  2
AcDbMaterial
  3
ObjectDBX Classes
 90
     1153
280
     0
281
     0
  0
CLASS
  1
SCALE
  2
AcDbScale
  3
ObjectDBX Classes
 90
     1153
280
     0
281
     0
  0
CLASS
  1
SUN
  2
AcDbSun
  3
SCENEOE
 90
     1153
280
     0
281
     0
  0
CLASS
  1
ACDBPLACEHOLDER
  2
AcDbPlaceHolder
  3
ObjectDBX Classes
 90
        0
280
     0
281
     0
  0
CLASS
  1
LAYOUT
  2
AcDbLayout
  3
ObjectDBX Classes
 90
        0
280
     0
281
     0
  0
CLASS
  1
TABLESTYLE
  2
AcDbTableStyle
  3
ObjectDBX Classes
 90
     4095
280
     0
281
     0
  0
CLASS
  1
MLEADERSTYLE
  2
AcDbMLeaderStyle
  3
ACDB_MLEADERSTYLE_CLASS
 90
     4095
280
     0
281
     0
  0
CLASS
  1
RASTERVARIABLES
  2
AcDbRasterVariables
  3
ISM
 90
        0
280
     0
281
     0
  0
ENDSEC
  0
SECTION
  2
TABLES
  0
TABLE
  2
VPORT
  5
8
330
0
100
AcDbSymbolTable
 70
     1
  0
VPORT
  5
29
330
8
100
AcDbSymbolTableRecord
100
AcDbViewportTableRecord
  2
*Active
 70
     0
 10
0.0
 20
0.0
 11
1.0
 21
1.0
 12
13.8417419013396
 22
-1.996556057382477
 13
0.0
 23
0.0
 14
10.0
 24
10.0
 15
10.0
 25
10.0
 16
0.0
 26
0.0
 36
1.0
 17
0.0
 27
0.0
 37
0.0
 40
97.86731986151896
 41
1.519944979367263
 42
50.0
 43
0.0
 44
0.0
 50
0.0
 51
0.0
 71
    16
 72
  2000
 73
     1
 74
     3
 75
     0
 76
     0
 77
     0
 78
     0
281
     0
 65
     1
110
0.0
120
0.0
130
0.0
111
1.0
121
0.0
131
0.0
112
0.0
122
1.0
132
0.0
 79
     0
146
0.0
  0
ENDTAB
  0
TABLE
  2
LTYPE
  5
5
330
0
100
AcDbSymbolTable
 70
     6
  0
LTYPE
  5
14
330
5
100
AcDbSymbolTableRecord
100
AcDbLinetypeTableRecord
  2
ByBlock
 70
     0
  3

 72
    65
 73
     0
 40
0.0
  0
LTYPE
  5
15
330
5
100
AcDbSymbolTableRecord
100
AcDbLinetypeTableRecord
  2
ByLayer
 70
     0
  3

 72
    65
 73
     0
 40
0.0
  0
LTYPE
  5
16
330
5
100
AcDbSymbolTableRecord
100
AcDbLinetypeTableRecord
  2
Continuous
 70
     0
  3
Solid line
 72
    65
 73
     0
 40
0.0
  0
LTYPE
  5
6A
330
5
100
AcDbSymbolTableRecord
100
AcDbLinetypeTableRecord
  2
HIDDEN
 70
     0
  3
Hidden __ __ __ __ __ __ __ __ __ __ __ __ __ __
 72
    65
 73
     2
 40
1.905
 49
1.27
 74
     0
 49
-0.635
 74
     0
  0
LTYPE
  5
6B
330
5
100
AcDbSymbolTableRecord
100
AcDbLinetypeTableRecord
  2
PHANTOM
 70
     0
  3
Phantom ______  __  __  ______  __  __  ______
 72
    65
 73
     6
 40
12.7
 49
6.35
 74
     0
 49
-1.27
 74
     0
 49
1.27
 74
     0
 49
-1.27
 74
     0
 49
1.27
 74
     0
 49
-1.27
 74
     0
  0
LTYPE
  5
6C
330
5
100
AcDbSymbolTableRecord
100
AcDbLinetypeTableRecord
  2
CENTER
 70
     0
  3
Center ____ _ ____ _ ____ _ ____ _ ____ _ ____
 72
    65
 73
     4
 40
10.16
 49
6.35
 74
     0
 49
-1.27
 74
     0
 49
1.27
 74
     0
 49
-1.27
 74
     0
  0
LTYPE
  5
6D
330
5
100
AcDbSymbolTableRecord
100
AcDbLinetypeTableRecord
  2
CENTERX2
 70
     0
  3
Center (2x) ________  __  ________  __  _____
 72
    65
 73
     4
 40
20.32
 49
12.7
 74
     0
 49
-2.54
 74
     0
 49
2.54
 74
     0
 49
-2.54
 74
     0
  0
LTYPE
  5
6E
330
5
100
AcDbSymbolTableRecord
100
AcDbLinetypeTableRecord
  2
DOT2
 70
     0
  3
Dot (.5x) ........................................
 72
    65
 73
     2
 40
0.635
 49
0.0
 74
     0
 49
-0.635
 74
     0
  0
ENDTAB
  0
TABLE
  2
LAYER
  5
2
102
{ACAD_XDICTIONARY
360
170
102
}
330
0
100
AcDbSymbolTable
 70
    18
  0
LAYER
  5
10
330
2
100
AcDbSymbolTableRecord
100
AcDbLayerTableRecord
  2
0
 70
     0
 62
     7
  6
Continuous
370
    -3
390
F
  0
LAYER
  5
6F
330
2
100
AcDbSymbolTableRecord
100
AcDbLayerTableRecord
  2
FORMAT
 70
     0
 62
     2
  6
Continuous
370
    -3
390
F
  0
LAYER
  5
70
330
2
100
AcDbSymbolTableRecord
100
AcDbLayerTableRecord
  2
외형선
 70
     0
 62
     4
  6
Continuous
370
    30
390
F
  0
LAYER
  5
71
330
2
100
AcDbSymbolTableRecord
100
AcDbLayerTableRecord
  2
숨은선
 70
     0
 62
     2
  6
HIDDEN
370
    15
390
F
  0
LAYER
  5
72
330
2
100
AcDbSymbolTableRecord
100
AcDbLayerTableRecord
  2
중심선
 70
     0
 62
     1
  6
CENTERX2
370
    -3
390
F
  0
LAYER
  5
73
330
2
100
AcDbSymbolTableRecord
100
AcDbLayerTableRecord
  2
파단선
 70
     0
 62
     4
  6
Continuous
370
    -3
390
F
  0
LAYER
  5
74
330
2
100
AcDbSymbolTableRecord
100
AcDbLayerTableRecord
  2
해칭선
 70
     0
 62
   100
  6
Continuous
370
    -3
390
F
  0
LAYER
  5
75
330
2
100
AcDbSymbolTableRecord
100
AcDbLayerTableRecord
  2
가는실선
 70
     0
 62
     4
  6
Continuous
370
    -3
390
F
  0
LAYER
  5
76
330
2
100
AcDbSymbolTableRecord
100
AcDbLayerTableRecord
  2
치수_보조선
 70
     0
 62
     4
  6
Continuous
370
    -3
390
F
  0
LAYER
  5
77
330
2
100
AcDbSymbolTableRecord
100
AcDbLayerTableRecord
  2
치수문자_일반주서
 70
     0
 62
     7
  6
Continuous
370
    15
390
F
  0
LAYER
  5
78
330
2
100
AcDbSymbolTableRecord
100
AcDbLayerTableRecord
  2
개별주서
 70
     0
 62
   100
  6
Continuous
370
    30
390
F
  0
LAYER
  5
79
330
2
100
AcDbSymbolTableRecord
100
AcDbLayerTableRecord
  2
중간선
 70
     0
 62
     2
  6
Continuous
370
    15
390
F
  0
LAYER
  5
7A
330
2
100
AcDbSymbolTableRecord
100
AcDbLayerTableRecord
  2
윤곽선
 70
     0
 62
     3
  6
Continuous
370
    40
390
F
  0
LAYER
  5
7B
330
2
100
AcDbSymbolTableRecord
100
AcDbLayerTableRecord
  2
중심마크
 70
     0
 62
   100
  6
Continuous
370
    30
390
F
  0
LAYER
  5
7C
330
2
100
AcDbSymbolTableRecord
100
AcDbLayerTableRecord
  2
가상선
 70
     0
 62
     4
  6
PHANTOM
370
    -3
390
F
  0
LAYER
  5
7D
330
2
100
AcDbSymbolTableRecord
100
AcDbLayerTableRecord
  2
특수지정선
 70
     0
 62
     5
  6
CENTERX2
370
    60
390
F
  0
LAYER
  5
7E
330
2
100
AcDbSymbolTableRecord
100
AcDbLayerTableRecord
  2
참조1
 70
     0
 62
    -4
  6
Continuous
370
    -3
390
F
  0
LAYER
  5
177
330
2
100
AcDbSymbolTableRecord
100
AcDbLayerTableRecord
  2
Defpoints
 70
     0
 62
     7
  6
Continuous
290
     0
370
    -3
390
F
  0
ENDTAB
  0
TABLE
  2
STYLE
  5
3
330
0
100
AcDbSymbolTable
 70
     2
  0
STYLE
  5
11
330
3
100
AcDbSymbolTableRecord
100
AcDbTextStyleTableRecord
  2
Standard
 70
     0
 40
0.0
 41
1.0
 50
0.0
 71
     0
 42
3.5
  3
txt
  4

  0
STYLE
  5
94
330
3
100
AcDbSymbolTableRecord
100
AcDbTextStyleTableRecord
  2
SLDTEXTSTYLE0
 70
     0
 40
0.0
 41
0.75
 50
0.0
 71
     0
 42
3.5
  3
TXT
  4

  0
ENDTAB
  0
TABLE
  2
VIEW
  5
6
330
0
100
AcDbSymbolTable
 70
     0
  0
ENDTAB
  0
TABLE
  2
UCS
  5
7
330
0
100
AcDbSymbolTable
 70
     0
  0
ENDTAB
  0
TABLE
  2
APPID
  5
9
330
0
100
AcDbSymbolTable
 70
     1
  0
APPID
  5
12
330
9
100
AcDbSymbolTableRecord
100
AcDbRegAppTableRecord
  2
ACAD
 70
     0
  0
ENDTAB
  0
TABLE
  2
DIMSTYLE
  5
A
330
0
100
AcDbSymbolTable
 70
     3
100
AcDbDimStyleTable
  0
DIMSTYLE
105
27
330
A
100
AcDbSymbolTableRecord
100
AcDbDimStyleTableRecord
  2
ISO-25
 70
     0
 41
2.5
 42
0.625
 43
3.75
 44
1.25
 73
     0
 74
     0
 77
     1
 78
     8
140
2.5
141
2.5
143
0.03937007874016
147
0.625
171
     3
172
     1
178
     0
271
     2
272
     2
274
     3
278
    44
283
     0
284
     8
340
11
  0
DIMSTYLE
105
C9
330
A
100
AcDbSymbolTableRecord
100
AcDbDimStyleTableRecord
  2
SLDDIMSTYLE0
 70
     0
 41
3.302
 44
0.0
 45
0.000000001
 73
     0
 74
     0
 77
     1
 78
     4
 79
     1
140
3.5
143
0.0393700787401575
147
0.875
148
0.000000001
170
     1
173
     1
178
     0
271
     2
272
     2
276
     2
284
    12
340
94
  0
DIMSTYLE
105
F1
102
{ACAD_REACTORS
330
F0
330
C8
330
DD
330
105
102
}
330
A
100
AcDbSymbolTableRecord
100
AcDbDimStyleTableRecord
  2
SLDDIMSTYLE1
 70
     0
 41
3.302
 44
0.0
 45
0.000000001
 73
     0
 74
     0
 77
     1
 78
     4
 79
     1
140
3.5
143
0.0393700787401575
147
0.875
148
0.000000001
170
     1
172
     1
173
     1
178
     0
271
     2
272
     2
276
     2
284
    12
289
     0
340
94
  0
ENDTAB
  0
TABLE
  2
BLOCK_RECORD
  5
1
330
0
100
AcDbSymbolTable
 70
     7
  0
BLOCK_RECORD
  5
1F
102
{ACAD_XDICTIONARY
360
1ED
102
}
330
1
100
AcDbSymbolTableRecord
100
AcDbBlockTableRecord
  2
*Model_Space
340
22
  0
BLOCK_RECORD
  5
1B
330
1
100
AcDbSymbolTableRecord
100
AcDbBlockTableRecord
  2
*Paper_Space
340
1E
  0
BLOCK_RECORD
  5
23
330
1
100
AcDbSymbolTableRecord
100
AcDbBlockTableRecord
  2
*Paper_Space0
340
26
  0
BLOCK_RECORD
  5
7F
330
1
100
AcDbSymbolTableRecord
100
AcDbBlockTableRecord
  2
블럭10
340
0
102
{BLKREFS
331
C1
102
}
  0
BLOCK_RECORD
  5
CA
330
1
100
AcDbSymbolTableRecord
100
AcDbBlockTableRecord
  2
_D
340
0
  0
BLOCK_RECORD
  5
DE
330
1
100
AcDbSymbolTableRecord
100
AcDbBlockTableRecord
  2
_D_1
340
0
  0
BLOCK_RECORD
  5
F2
330
1
100
AcDbSymbolTableRecord
100
AcDbBlockTableRecord
  2
_D_2
340
0
  0
BLOCK_RECORD
  5
106
330
1
100
AcDbSymbolTableRecord
100
AcDbBlockTableRecord
  2
_D_3
340
0
  0
BLOCK_RECORD
  5
11F
330
1
100
AcDbSymbolTableRecord
100
AcDbBlockTableRecord
  2
SW_DOWELSYMBOL_0
340
0
102
{BLKREFS
331
125
102
}
  0
ENDTAB
  0
ENDSEC
  0
SECTION
  2
BLOCKS
  0
BLOCK
  5
20
330
1F
100
AcDbEntity
  8
0
100
AcDbBlockBegin
  2
*Model_Space
 70
     0
 10
0.0
 20
0.0
 30
0.0
  3
*Model_Space
  1
*Model_Space
  0
ENDBLK
  5
21
330
1F
100
AcDbEntity
  8
0
100
AcDbBlockEnd
  0
BLOCK
  5
1C
330
1B
100
AcDbEntity
 67
     1
  8
0
100
AcDbBlockBegin
  2
*Paper_Space
 70
     0
 10
0.0
 20
0.0
 30
0.0
  3
*Paper_Space
  1
*Paper_Space
  0
ENDBLK
  5
1D
330
1B
100
AcDbEntity
 67
     1
  8
0
100
AcDbBlockEnd
  0
BLOCK
  5
24
330
23
100
AcDbEntity
  8
0
100
AcDbBlockBegin
  2
*Paper_Space0
 70
     0
 10
0.0
 20
0.0
 30
0.0
  3
*Paper_Space0
  1
*Paper_Space0
  0
ENDBLK
  5
25
330
23
100
AcDbEntity
  8
0
100
AcDbBlockEnd
  0
BLOCK
  5
80
330
7F
100
AcDbEntity
  8
0
100
AcDbBlockBegin
  2
블럭10
 70
     2
 10
0.0
 20
0.0
 30
0.0
  3
블럭10
  1
블럭10
  0
ELLIPSE
  5
82
330
7F
100
AcDbEntity
  8
중심선
100
AcDbEllipse
 10
20.54032771741204
 20
12.0471743016438
 30
0.0
 11
6.600054785286829
 21
-1.261213355974178E-13
 31
0.0
210
0.0
220
0.0
230
1.0
 40
0.636358354079598
 41
0.9219305317359503
 42
6.513795318482858
  0
ELLIPSE
  5
83
330
7F
100
AcDbEntity
  8
중심선
100
AcDbEllipse
 10
20.54032771746488
 20
12.04717430159265
 30
0.0
 11
3.960054785062283
 21
1.540847449632565E-10
 31
0.0
210
0.0
220
0.0
230
1.0
 40
0.3939339440162632
 41
1.131841032648279
 42
5.62031148352944
  0
LINE
  5
84
330
7F
100
AcDbEntity
  8
중심선
100
AcDbLine
 10
2.268634060543552
 20
16.24717430164393
 30
0.0
 11
5.714909304380834
 21
16.24717430164393
 31
0.0
  0
LINE
  5
85
330
7F
100
AcDbEntity
  8
중심선
100
AcDbLine
 10
5.245725140726316
 20
7.84717430164391
 30
0.0
 11
8.692000384563599
 21
7.84717430164391
 31
0.0
  0
LINE
  5
86
330
7F
100
AcDbEntity
  8
중심선
100
AcDbLine
 10
15.74043728645272
 20
16.24717430164393
 30
0.0
 11
8.692000384563599
 21
7.84717430164391
 31
0.0
  0
LINE
  5
87
330
7F
100
AcDbEntity
  8
중심선
100
AcDbLine
 10
0.1404042013395286
 20
13.71084872107135
 30
0.0
 11
3.58671253028996
 21
13.71088815037384
 31
0.0
  0
LINE
  5
88
330
7F
100
AcDbEntity
  8
중심선
100
AcDbLine
 10
2.750260043222114
 20
10.84717430164391
 30
0.0
 11
6.196535287059397
 21
10.84717430164391
 31
0.0
  0
LINE
  5
89
330
7F
100
AcDbEntity
  8
중심선
100
AcDbLine
 10
12.29416204261559
 20
16.24717430164393
 30
0.0
 11
5.245725140726316
 21
7.84717430164391
 31
0.0
  0
LINE
  5
8A
330
7F
100
AcDbEntity
  8
중심선
100
AcDbLine
 10
10.72767329541681
 20
16.24717430164393
 30
0.0
 11
6.196535287059397
 21
10.84717430164391
 31
0.0
  0
LINE
  5
8B
330
7F
100
AcDbEntity
  8
중심선
100
AcDbLine
 10
7.28139805157953
 20
16.24717430164393
 30
0.0
 11
2.750260043222114
 21
10.84717430164391
 31
0.0
  0
LINE
  5
8C
330
7F
100
AcDbEntity
  8
중심선
100
AcDbLine
 10
5.714909304380834
 20
16.24717430164393
 30
0.0
 11
3.58671253028996
 21
13.71088815037384
 31
0.0
  0
LINE
  5
8D
330
7F
100
AcDbEntity
  8
중심선
100
AcDbLine
 10
2.268634060543552
 20
16.24717430164393
 30
0.0
 11
0.1404042013395286
 21
13.71084872107135
 31
0.0
  0
LINE
  5
8E
330
7F
100
AcDbEntity
  8
중심선
100
AcDbLine
 10
7.28139805157953
 20
16.24717430164393
 30
0.0
 11
10.72767329541681
 21
16.24717430164393
 31
0.0
  0
LINE
  5
8F
330
7F
100
AcDbEntity
  8
중심선
100
AcDbLine
 10
12.29416204261559
 20
16.24717430164393
 30
0.0
 11
15.74043728645272
 21
16.24717430164393
 31
0.0
  0
LINE
  5
90
330
7F
100
AcDbEntity
  8
중심선
100
AcDbLine
 10
19.22036997980202
 20
11.08717430171403
 30
0.0
 11
23.66174974927406
 21
11.08717430171406
 31
0.0
  0
LINE
  5
91
330
7F
100
AcDbEntity
  8
중심선
100
AcDbLine
 10
19.22039502424796
 20
13.00717430171391
 30
0.0
 11
19.22036997980202
 21
11.08717430171403
 31
0.0
  0
LINE
  5
92
330
7F
100
AcDbEntity
  8
중심선
100
AcDbLine
 10
19.22039502424796
 20
13.00717430171391
 30
0.0
 11
26.96566020931264
 21
13.00717430171391
 31
0.0
  0
LINE
  5
93
330
7F
100
AcDbEntity
  8
중심선
100
AcDbLine
 10
22.22332737316547
 20
13.45928029700563
 30
0.0
 11
24.52862924686651
 21
15.39360700705356
 31
0.0
  0
ATTDEF
  5
95
330
7F
100
AcDbEntity
  8
FORMAT
 62
     2
100
AcDbText
 10
3.448148490846466
 20
2.075366912832191
 30
0.0
 40
4.233333333333333
  1
EM209909
 41
0.75
  7
SLDTEXTSTYLE0
 11
3.448148490846466
 21
-0.0412997538344756
 31
0.0
100
AcDbAttributeDefinition
  3

  2
AUTOATTR0
 70
     0
 74
     1
  0
ENDBLK
  5
81
330
7F
100
AcDbEntity
  8
0
100
AcDbBlockEnd
  0
BLOCK
  5
CB
330
CA
100
AcDbEntity
  8
0
100
AcDbBlockBegin
  2
_D
 70
     0
 10
0.0
 20
0.0
 30
0.0
  3
_D
  1
_D
  0
LINE
  5
CD
330
CA
100
AcDbEntity
  8
치수문자_일반주서
 62
     0
370
    -2
100
AcDbLine
 10
62.79999998733292
 20
6.413349832358207
 30
0.0
 11
62.79999998733292
 21
24.68163191286406
 31
0.0
  0
LINE
  5
CE
330
CA
100
AcDbEntity
  8
치수문자_일반주서
 62
     0
370
    -2
100
AcDbLine
 10
11.99999998733291
 20
5.619599832358183
 30
0.0
 11
11.99999998733291
 21
24.68163191286406
 31
0.0
  0
LINE
  5
CF
330
CA
100
AcDbEntity
  8
치수문자_일반주서
 62
     0
370
    -2
100
AcDbLine
 10
59.49799998733292
 20
24.68163191286406
 30
0.0
 11
15.30199998733291
 21
24.68163191286406
 31
0.0
  0
SOLID
  5
D0
330
CA
100
AcDbEntity
  8
치수문자_일반주서
 62
     0
100
AcDbTrace
 10
59.49799998733292
 20
24.13129857953072
 30
0.0
 11
59.49799998733292
 21
25.23196524619739
 31
0.0
 12
62.79999998733292
 22
24.68163191286406
 32
0.0
 13
62.79999998733292
 23
24.68163191286406
 33
0.0
  0
SOLID
  5
D1
330
CA
100
AcDbEntity
  8
치수문자_일반주서
 62
     0
100
AcDbTrace
 10
15.30199998733291
 20
25.23196524619739
 30
0.0
 11
15.30199998733291
 21
24.13129857953072
 31
0.0
 12
11.99999998733291
 22
24.68163191286406
 32
0.0
 13
11.99999998733291
 23
24.68163191286406
 33
0.0
  0
MTEXT
  5
D2
330
CA
100
AcDbEntity
  8
치수문자_일반주서
 62
     0
100
AcDbMText
 10
37.39999998733292
 20
29.05663191286406
 30
0.0
 40
3.5
 41
0.0
 71
     2
 72
     1
  1
\A1;50.80 [2]
  7
SLDTEXTSTYLE0
 73
     1
 44
1.0
  0
POINT
  5
D3
330
CA
100
AcDbEntity
  8
Defpoints
 62
     0
100
AcDbPoint
 10
62.79999998733292
 20
6.350849832358207
 30
0.0
  0
POINT
  5
D4
330
CA
100
AcDbEntity
  8
Defpoints
 62
     0
100
AcDbPoint
 10
11.99999998733291
 20
5.557099832358183
 30
0.0
  0
POINT
  5
D5
330
CA
100
AcDbEntity
  8
Defpoints
 62
     0
100
AcDbPoint
 10
11.99999998733291
 20
24.68163191286406
 30
0.0
  0
ENDBLK
  5
CC
330
CA
100
AcDbEntity
  8
0
100
AcDbBlockEnd
  0
BLOCK
  5
DF
330
DE
100
AcDbEntity
  8
0
100
AcDbBlockBegin
  2
_D_1
 70
     0
 10
0.0
 20
0.0
 30
0.0
  3
_D_1
  1
_D_1
  0
LINE
  5
E1
330
DE
100
AcDbEntity
  8
치수문자_일반주서
 62
     0
370
    -2
100
AcDbLine
 10
62.79999998733292
 20
6.413349832358207
 30
0.0
 11
62.79999998733291
 21
41.6026203453229
 31
0.0
  0
LINE
  5
E2
330
DE
100
AcDbEntity
  8
치수문자_일반주서
 62
     0
370
    -2
100
AcDbLine
 10
-38.80000001266711
 20
5.413349832358179
 30
0.0
 11
-38.80000001266711
 21
41.6026203453229
 31
0.0
  0
LINE
  5
E3
330
DE
100
AcDbEntity
  8
치수문자_일반주서
 62
     0
370
    -2
100
AcDbLine
 10
59.49799998733291
 20
41.6026203453229
 30
0.0
 11
-35.49800001266711
 21
41.6026203453229
 31
0.0
  0
SOLID
  5
E4
330
DE
100
AcDbEntity
  8
치수문자_일반주서
 62
     0
100
AcDbTrace
 10
59.49799998733291
 20
41.05228701198956
 30
0.0
 11
59.49799998733291
 21
42.15295367865623
 31
0.0
 12
62.79999998733291
 22
41.6026203453229
 32
0.0
 13
62.79999998733291
 23
41.6026203453229
 33
0.0
  0
SOLID
  5
E5
330
DE
100
AcDbEntity
  8
치수문자_일반주서
 62
     0
100
AcDbTrace
 10
-35.49800001266711
 20
42.15295367865623
 30
0.0
 11
-35.49800001266711
 21
41.05228701198956
 31
0.0
 12
-38.80000001266711
 22
41.6026203453229
 32
0.0
 13
-38.80000001266711
 23
41.6026203453229
 33
0.0
  0
MTEXT
  5
E6
330
DE
100
AcDbEntity
  8
치수문자_일반주서
 62
     0
100
AcDbMText
 10
11.99999998733371
 20
45.9776203453229
 30
0.0
 40
3.5
 41
0.0
 71
     2
 72
     1
  1
\A1;101.60 [4]
  7
SLDTEXTSTYLE0
 73
     1
 44
1.0
  0
POINT
  5
E7
330
DE
100
AcDbEntity
  8
Defpoints
 62
     0
100
AcDbPoint
 10
62.79999998733292
 20
6.350849832358207
 30
0.0
  0
POINT
  5
E8
330
DE
100
AcDbEntity
  8
Defpoints
 62
     0
100
AcDbPoint
 10
-38.80000001266711
 20
5.350849832358179
 30
0.0
  0
POINT
  5
E9
330
DE
100
AcDbEntity
  8
Defpoints
 62
     0
100
AcDbPoint
 10
-38.80000001266711
 20
41.6026203453229
 30
0.0
  0
ENDBLK
  5
E0
330
DE
100
AcDbEntity
  8
0
100
AcDbBlockEnd
  0
BLOCK
  5
F3
330
F2
100
AcDbEntity
  8
0
100
AcDbBlockBegin
  2
_D_2
 70
     0
 10
0.0
 20
0.0
 30
0.0
  3
_D_2
  1
_D_2
  0
LINE
  5
F5
330
F2
100
AcDbEntity
  8
치수문자_일반주서
 62
     0
370
    -2
100
AcDbLine
 10
-37.86250001266709
 20
5.557099832358177
 30
0.0
 11
-51.23000001266713
 21
5.557099832358127
 31
0.0
  0
LINE
  5
F6
330
F2
100
AcDbEntity
  8
치수문자_일반주서
 62
     0
370
    -2
100
AcDbLine
 10
-37.86250001266709
 20
-5.555400167641822
 30
0.0
 11
-51.23000001266709
 21
-5.555400167641872
 31
0.0
  0
LINE
  5
F7
330
F2
100
AcDbEntity
  8
치수문자_일반주서
 62
     0
370
    -2
100
AcDbLine
 10
-51.23000001266712
 20
2.255099832358127
 30
0.0
 11
-51.2300000126671
 21
-2.253400167641872
 31
0.0
  0
SOLID
  5
F8
330
F2
100
AcDbEntity
  8
치수문자_일반주서
 62
     0
100
AcDbTrace
 10
-50.67966667933378
 20
2.255099832358129
 30
0.0
 11
-51.78033334600045
 21
2.255099832358126
 31
0.0
 12
-51.23000001266713
 22
5.557099832358127
 32
0.0
 13
-51.23000001266713
 23
5.557099832358127
 33
0.0
  0
SOLID
  5
F9
330
F2
100
AcDbEntity
  8
치수문자_일반주서
 62
     0
100
AcDbTrace
 10
-51.78033334600043
 20
-2.253400167641873
 30
0.0
 11
-50.67966667933376
 21
-2.25340016764187
 31
0.0
 12
-51.23000001266709
 22
-5.555400167641872
 32
0.0
 13
-51.23000001266709
 23
-5.555400167641872
 33
0.0
  0
MTEXT
  5
FA
330
F2
100
AcDbEntity
  8
치수문자_일반주서
 62
     0
100
AcDbMText
 10
-55.60500001266711
 20
0.0008498323581661
 30
0.0
 40
3.5
 41
0.0
 71
     2
 72
     1
  1
\A1;%%c11.11 [7/16]
  7
SLDTEXTSTYLE0
 11
-3.197042680585378E-15
 21
1.0
 31
0.0
 73
     1
 44
1.0
  0
POINT
  5
FB
330
F2
100
AcDbEntity
  8
Defpoints
 62
     0
100
AcDbPoint
 10
-37.80000001266709
 20
5.557099832358177
 30
0.0
  0
POINT
  5
FC
330
F2
100
AcDbEntity
  8
Defpoints
 62
     0
100
AcDbPoint
 10
-37.80000001266709
 20
-5.555400167641822
 30
0.0
  0
POINT
  5
FD
330
F2
100
AcDbEntity
  8
Defpoints
 62
     0
100
AcDbPoint
 10
-51.23000001266709
 20
-5.555400167641872
 30
0.0
  0
ENDBLK
  5
F4
330
F2
100
AcDbEntity
  8
0
100
AcDbBlockEnd
  0
BLOCK
  5
107
330
106
100
AcDbEntity
  8
0
100
AcDbBlockBegin
  2
_D_3
 70
     0
 10
0.0
 20
0.0
 30
0.0
  3
_D_3
  1
_D_3
  0
LINE
  5
109
330
106
100
AcDbEntity
  8
치수문자_일반주서
 62
     0
370
    -2
100
AcDbLine
 10
62.86249998733291
 20
5.557099832358183
 30
0.0
 11
77.03749998733299
 21
5.557099832358237
 31
0.0
  0
LINE
  5
10A
330
106
100
AcDbEntity
  8
치수문자_일반주서
 62
     0
370
    -2
100
AcDbLine
 10
62.86249998733291
 20
-5.555400167641817
 30
0.0
 11
77.03749998733304
 21
-5.555400167641764
 31
0.0
  0
LINE
  5
10B
330
106
100
AcDbEntity
  8
치수문자_일반주서
 62
     0
370
    -2
100
AcDbLine
 10
77.03749998733299
 20
5.557099832358237
 30
0.0
 11
77.03749998733285
 21
42.29114500248827
 31
0.0
  0
LINE
  5
10C
330
106
100
AcDbEntity
  8
치수문자_일반주서
 62
     0
370
    -2
100
AcDbLine
 10
77.03749998733299
 20
5.557099832358237
 30
0.0
 11
77.03749998733304
 21
-5.555400167641764
 31
0.0
  0
LINE
  5
10D
330
106
100
AcDbEntity
  8
치수문자_일반주서
 62
     0
370
    -2
100
AcDbLine
 10
77.03749998733298
 20
8.859099832358236
 30
0.0
 11
77.03749998733296
 21
12.16109983235824
 31
0.0
  0
LINE
  5
10E
330
106
100
AcDbEntity
  8
치수문자_일반주서
 62
     0
370
    -2
100
AcDbLine
 10
77.03749998733305
 20
-8.857400167641764
 30
0.0
 11
77.03749998733306
 21
-12.15940016764176
 31
0.0
  0
SOLID
  5
10F
330
106
100
AcDbEntity
  8
치수문자_일반주서
 62
     0
100
AcDbTrace
 10
76.48716665399965
 20
8.859099832358234
 30
0.0
 11
77.5878333206663
 21
8.859099832358238
 31
0.0
 12
77.03749998733299
 22
5.557099832358237
 32
0.0
 13
77.03749998733299
 23
5.557099832358237
 33
0.0
  0
SOLID
  5
110
330
106
100
AcDbEntity
  8
치수문자_일반주서
 62
     0
100
AcDbTrace
 10
77.58783332066638
 20
-8.857400167641762
 30
0.0
 11
76.48716665399972
 21
-8.857400167641766
 31
0.0
 12
77.03749998733304
 22
-5.555400167641764
 32
0.0
 13
77.03749998733304
 23
-5.555400167641764
 33
0.0
  0
MTEXT
  5
111
330
106
100
AcDbEntity
  8
치수문자_일반주서
 62
     0
100
AcDbMText
 10
72.66249998733291
 20
28.72864500248825
 30
0.0
 40
3.5
 41
0.0
 71
     2
 72
     1
  1
\A1;%%c11.11 [7/16]
  7
SLDTEXTSTYLE0
 11
-3.836451216702453E-15
 21
1.0
 31
0.0
 73
     1
 44
1.0
  0
POINT
  5
112
330
106
100
AcDbEntity
  8
Defpoints
 62
     0
100
AcDbPoint
 10
62.79999998733291
 20
5.557099832358183
 30
0.0
  0
POINT
  5
17A
330
106
100
AcDbEntity
  8
Defpoints
 62
     0
100
AcDbPoint
 10
62.79999998733291
 20
-5.555400167641817
 30
0.0
  0
POINT
  5
17B
330
106
100
AcDbEntity
  8
Defpoints
 62
     0
100
AcDbPoint
 10
77.03749998733304
 20
-5.555400167641764
 30
0.0
  0
ENDBLK
  5
108
330
106
100
AcDbEntity
  8
0
100
AcDbBlockEnd
  0
BLOCK
  5
120
330
11F
100
AcDbEntity
  8
0
100
AcDbBlockBegin
  2
SW_DOWELSYMBOL_0
 70
     0
 10
0.0
 20
0.0
 30
0.0
  3
SW_DOWELSYMBOL_0
  1
SW_DOWELSYMBOL_0
  0
CIRCLE
  5
122
330
11F
100
AcDbEntity
  8
해칭선
 62
     0
100
AcDbCircle
 10
0.0
 20
0.0
 30
0.0
 40
3.000000000000001
  0
HATCH
  5
123
330
11F
100
AcDbEntity
  8
0
  6
Continuous
 62
     0
370
     0
100
AcDbHatch
 10
0.0
 20
0.0
 30
0.0
210
0.0
220
0.0
230
1.0
  2
SOLID
 70
     1
 71
     0
 91
        1
 92
        0
 93
        3
 72
     2
 10
0.0000000000007581
 20
0.0
 40
3.000000000000001
 50
0.0
 51
90.0
 73
     1
 72
     1
 10
0.0000000000007581
 20
3.000000000000001
 11
0.0000000000007581
 21
0.0
 72
     1
 10
0.0000000000007581
 20
0.0
 11
3.000000000000759
 21
0.0
 97
        0
 75
     0
 76
     1
 98
        1
 10
0.0
 20
0.0
  0
HATCH
  5
124
330
11F
100
AcDbEntity
  8
0
  6
Continuous
 62
     0
370
     0
100
AcDbHatch
 10
0.0
 20
0.0
 30
0.0
210
0.0
220
0.0
230
1.0
  2
SOLID
 70
     1
 71
     0
 91
        1
 92
        0
 93
        3
 72
     2
 10
0.0000000000007581
 20
0.0
 40
3.000000000000001
 50
180.0
 51
270.0000000000007
 73
     1
 72
     1
 10
0.0000000000007581
 20
-3.000000000000001
 11
0.0000000000007581
 21
0.0
 72
     1
 10
0.0000000000007581
 20
0.0
 11
-2.999999999999243
 21
0.0
 97
        0
 75
     0
 76
     1
 98
        1
 10
0.0
 20
0.0
  0
ENDBLK
  5
121
330
11F
100
AcDbEntity
  8
0
100
AcDbBlockEnd
  0
ENDSEC
  0
SECTION
  2
ENTITIES
  0
LINE
  5
96
330
1F
100
AcDbEntity
  8
외형선
  6
Continuous
370
    15
100
AcDbLine
 10
11.99999998733291
 20
5.557099832358183
 30
0.0
 11
-37.8000000126671
 21
5.557099832358177
 31
0.0
  0
LINE
  5
97
330
1F
100
AcDbEntity
  8
외형선
  6
Continuous
370
    15
100
AcDbLine
 10
-37.80000001266709
 20
-5.555400167641824
 30
0.0
 11
11.99999998733291
 21
-5.555400167641817
 31
0.0
  0
LINE
  5
98
330
1F
100
AcDbEntity
  8
외형선
  6
Continuous
370
    15
100
AcDbLine
 10
-37.8000000126671
 20
5.557099832358177
 30
0.0
 11
-38.8000000126671
 21
4.557099832358177
 31
0.0
  0
LINE
  5
99
330
1F
100
AcDbEntity
  8
외형선
  6
Continuous
370
    15
100
AcDbLine
 10
-38.80000001266709
 20
-4.555400167641824
 30
0.0
 11
-37.80000001266709
 21
-5.555400167641824
 31
0.0
  0
LINE
  5
9A
330
1F
100
AcDbEntity
  8
0
  6
Continuous
 62
     1
370
    15
100
AcDbLine
 10
56.13190558313692
 20
-5.555400167641815
 30
0.0
 11
57.24374998733291
 21
-5.555400167641815
 31
0.0
  0
LINE
  5
9B
330
1F
100
AcDbEntity
  8
0
  6
Continuous
 62
     1
370
    15
100
AcDbLine
 10
37.97552052591899
 20
5.557099832358186
 30
0.0
 11
25.89817078356256
 21
5.557099832358186
 31
0.0
  0
LINE
  5
9C
330
1F
100
AcDbEntity
  8
0
  6
Continuous
 62
     1
370
    15
100
AcDbLine
 10
25.89817078356256
 20
-5.555400167641815
 30
0.0
 11
37.97552052591903
 21
-5.555400167641815
 31
0.0
  0
LINE
  5
9D
330
1F
100
AcDbEntity
  8
0
  6
Continuous
 62
     1
370
    15
100
AcDbLine
 10
57.24374998733291
 20
5.557099832358186
 30
0.0
 11
56.13190558313687
 21
5.557099832358186
 31
0.0
  0
ARC
  5
9E
330
1F
100
AcDbEntity
  8
0
  6
Continuous
 62
     1
370
    15
100
AcDbCircle
 10
57.24374998733291
 20
0.0008498323581854
 30
0.0
 40
5.556249999999999
100
AcDbArc
 50
270.0000000000007
 51
0.0
  0
ARC
  5
9F
330
1F
100
AcDbEntity
  8
0
  6
Continuous
 62
     1
370
    15
100
AcDbCircle
 10
57.24374998733291
 20
0.0008498323581854
 30
0.0
 40
5.556249999999999
100
AcDbArc
 50
0.0
 51
90.0
  0
LINE
  5
A6
330
1F
100
AcDbEntity
  8
외형선
  6
Continuous
370
    15
100
AcDbLine
 10
-37.80000001266709
 20
5.557099832358177
 30
0.0
 11
-37.80000001266709
 21
-5.555400167641822
 31
0.0
  0
LINE
  5
A7
330
1F
100
AcDbEntity
  8
외형선
  6
Continuous
370
    15
100
AcDbLine
 10
-38.80000001266709
 20
4.557099832358184
 30
0.0
 11
-38.80000001266709
 21
-4.555400167641824
 31
0.0
  0
SPLINE
  5
AC
330
1F
100
AcDbEntity
  8
0
  6
Continuous
 62
     1
370
    15
100
AcDbSpline
210
0.0
220
0.0
230
1.0
 70
     8
 71
     3
 72
    23
 73
    19
 74
     0
 42
0.000000001
 43
0.00000001
 40
0.0
 40
0.0
 40
0.0
 40
0.0
 40
0.0266510112157097
 40
0.0912006529916985
 40
0.155749490437002
 40
0.2202978794608198
 40
0.2848461761623756
 40
0.3493947366800207
 40
0.4139439170403022
 40
0.4784940730071327
 40
0.5430455599311946
 40
0.6075987325997172
 40
0.6721539450867565
 40
0.736711550604114
 40
0.801271901353029
 40
0.8658353483767702
 40
0.9329176305169157
 40
1.0
 40
1.0
 40
1.0
 40
1.0
 10
48.18580436107446
 20
-3.759411350577609
 30
0.0
 10
47.92075444789189
 20
-3.769315097299888
 30
0.0
 10
47.01374476777158
 20
-3.803206050285714
 30
0.0
 10
45.46478711443292
 20
-3.701793543371889
 30
0.0
 10
43.53893446008188
 20
-3.462064782704058
 30
0.0
 10
41.61309672986806
 20
-3.07494617373067
 30
0.0
 10
39.68726196041268
 20
-2.567498726795817
 30
0.0
 10
37.76141856666766
 20
-1.956867752023618
 30
0.0
 10
35.83555486505767
 20
-1.268260104467797
 30
0.0
 10
33.90965921024484
 20
-0.5289402704982844
 30
0.0
 10
31.98371995522091
 20
0.2315259000334969
 30
0.0
 10
30.05772550442211
 20
0.982778792956801
 30
0.0
 10
28.13166417134438
 20
1.694896244454624
 30
0.0
 10
26.20552472506161
 20
2.339180397960248
 30
0.0
 10
24.27929437636778
 20
2.890912141495723
 30
0.0
 10
22.32794980949138
 20
3.329936688225609
 30
0.0
 10
20.35149785328904
 20
3.647349474269132
 30
0.0
 10
19.01716623220727
 20
3.727818273465081
 30
0.0
 10
18.34999998733272
 20
3.768052699256174
 30
0.0
  0
SPLINE
  5
AE
330
1F
100
AcDbEntity
  8
0
  6
Continuous
 62
     1
370
    15
100
AcDbSpline
210
0.0
220
0.0
230
1.0
 70
     8
 71
     3
 72
    33
 73
    29
 74
     0
 42
0.000000001
 43
0.00000001
 40
0.0
 40
0.0
 40
0.0
 40
0.0
 40
0.0259187318669528
 40
0.0519048077583226
 40
0.0780950728309844
 40
0.1043547960344988
 40
0.1466784003035913
 40
0.1892965282601278
 40
0.2315895380976551
 40
0.2741755493091477
 40
0.3164686262463996
 40
0.3590553125902717
 40
0.4013483403789332
 40
0.4439347218495314
 40
0.4862277138671143
 40
0.5288136112920754
 40
0.5711066858763234
 40
0.6136935366124733
 40
0.6559805036382098
 40
0.6985602718911376
 40
0.7408473667029548
 40
0.7834282046332043
 40
0.8257151899381379
 40
0.8682953087475764
 40
0.9079611356613979
 40
0.9478685213653284
 40
0.9885193751023036
 40
0.9999999999999999
 40
0.9999999999999999
 40
0.9999999999999999
 40
0.9999999999999999
 10
18.3499999873329
 20
3.933555649696963
 30
0.0
 10
18.6762815854252
 20
4.062837020544902
 30
0.0
 10
19.32969255132407
 20
4.321735670951123
 30
0.0
 10
20.31352127033057
 20
4.654650784340558
 30
0.0
 10
21.30069030606506
 20
4.944012698863903
 30
0.0
 10
22.49455316162859
 20
5.228706264561028
 30
0.0
 10
23.89502652169547
 20
5.462339402138817
 30
0.0
 10
25.49728955235557
 20
5.578038384415874
 30
0.0
 10
27.10282853202354
 20
5.539195050182824
 30
0.0
 10
28.70448453604557
 20
5.34714544466534
 30
0.0
 10
30.31023664456247
 20
5.006799664580383
 30
0.0
 10
31.91183371468994
 20
4.528463491658618
 30
0.0
 10
33.51697531066991
 20
3.923280627958846
 30
0.0
 10
35.11845817833945
 20
3.21087122296644
 30
0.0
 10
36.72384414570978
 20
2.408165997405443
 30
0.0
 10
38.32588347729484
 20
1.541237612286229
 30
0.0
 10
39.9311177540074
 20
0.6288741744436752
 30
0.0
 10
41.53251776025736
 20
-0.298968305526857
 30
0.0
 10
43.13752230205441
 20
-1.220486958350072
 30
0.0
 10
44.73905928607957
 20
-2.105617386376845
 30
0.0
 10
46.34452446658132
 20
-2.93402989647495
 30
0.0
 10
47.94583348114582
 20
-3.68012916924732
 30
0.0
 10
49.55075186724417
 20
-4.326075253026705
 30
0.0
 10
51.11897316366093
 20
-4.839183564774784
 30
0.0
 10
52.65769983962397
 20
-5.219954307727847
 30
0.0
 10
54.17193008040574
 20
-5.456508352748792
 30
0.0
 10
55.33084448714933
 20
-5.564405229001077
 30
0.0
 10
55.9873311790144
 20
-5.545171640615079
 30
0.0
 10
56.13190558313691
 20
-5.540935934675414
 30
0.0
  0
SPLINE
  5
AF
330
1F
100
AcDbEntity
  8
0
  6
Continuous
 62
     1
370
    15
100
AcDbSpline
210
0.0
220
0.0
230
1.0
 70
     8
 71
     3
 72
    17
 73
    13
 74
     0
 42
0.000000001
 43
0.00000001
 40
0.0
 40
0.0
 40
0.0
 40
0.0
 40
0.1038154400403798
 40
0.2076307991533302
 40
0.3114460797782245
 40
0.4114022116215593
 40
0.5113561970416032
 40
0.6113085391326487
 40
0.7112597416691693
 40
0.8112103088975062
 40
0.911160745327146
 40
1.0
 40
1.0
 40
1.0
 40
1.0
 10
57.24374998733289
 20
-2.322530807555881
 30
0.0
 10
56.57694674746067
 20
-1.963133725145173
 30
0.0
 10
55.24334078751052
 20
-1.244339840485187
 30
0.0
 10
53.24294250939006
 20
-0.0857396928347108
 30
0.0
 10
51.26729506790787
 20
1.055094169167224
 30
0.0
 10
49.31658612188996
 20
2.139415782328396
 30
0.0
 10
47.39066284920197
 20
3.124217777277785
 30
0.0
 10
45.46478633549488
 20
3.984060814824185
 30
0.0
 10
43.53893383816509
 20
4.68634099634212
 30
0.0
 10
41.61309658313142
 20
5.196060148028744
 30
0.0
 10
39.75862776004131
 20
5.507056608093237
 30
0.0
 10
38.54610194436152
 20
5.533627362195232
 30
0.0
 10
37.97552052591899
 20
5.546130830878992
 30
0.0
  0
SPLINE
  5
B0
330
1F
100
AcDbEntity
  8
0
  6
Continuous
 62
     1
370
    15
100
AcDbSpline
210
0.0
220
0.0
230
1.0
 70
     8
 71
     3
 72
    15
 73
    11
 74
     0
 42
0.000000001
 43
0.00000001
 40
0.0
 40
0.0
 40
0.0
 40
0.0
 40
0.1402938673533203
 40
0.2805777495594892
 40
0.4065107812518868
 40
0.5324387884874994
 40
0.6583624592786633
 40
0.784282483469878
 40
0.9101995524477452
 40
1.0
 40
1.0
 40
1.0
 40
1.0
 10
61.31255338874837
 20
0.5830792714470102
 30
0.0
 10
60.59723990634529
 20
0.8581637065583649
 30
0.0
 10
59.16666385260542
 20
1.408312998173574
 30
0.0
 10
57.09397855901814
 20
2.130637020660824
 30
0.0
 10
55.09468253093937
 20
2.735018571688784
 30
0.0
 10
53.1685752344973
 20
3.207329475454656
 30
0.0
 10
51.24254938627053
 20
3.553161193730325
 30
0.0
 10
49.31658254401393
 20
3.751836434345867
 30
0.0
 10
47.57478975845257
 20
3.814027382574439
 30
0.0
 10
46.47498541675986
 20
3.742516684347787
 30
0.0
 10
46.01715091313426
 20
3.712747693823408
 30
0.0
  0
SPLINE
  5
B1
330
1F
100
AcDbEntity
  8
0
  6
Continuous
 62
     1
370
    15
100
AcDbSpline
210
0.0
220
0.0
230
1.0
 70
     8
 71
     3
 72
    32
 73
    28
 74
     0
 42
0.000000001
 43
0.00000001
 40
0.0
 40
0.0
 40
0.0
 40
0.0
 40
0.125
 40
0.125
 40
0.1875
 40
0.1875
 40
0.25
 40
0.25
 40
0.3749999999999999
 40
0.3749999999999999
 40
0.4374999999999999
 40
0.4374999999999999
 40
0.5
 40
0.5
 40
0.5625
 40
0.5625
 40
0.625
 40
0.625
 40
0.6875
 40
0.6875
 40
0.7499999999999999
 40
0.7499999999999999
 40
0.8124999999999999
 40
0.8124999999999999
 40
0.8749999999999999
 40
0.8749999999999999
 40
1.0
 40
1.0
 40
1.0
 40
1.0
 10
57.24374998733291
 20
-2.322530807555888
 30
0.0
 10
57.55238762120601
 20
-2.484333382534213
 30
0.0
 10
57.85630258305548
 20
-2.628947156120229
 30
0.0
 10
58.31079153616096
 20
-2.81213084925493
 30
0.0
 10
58.46206585726436
 20
-2.867514294158978
 30
0.0
 10
58.76538932508785
 20
-2.964629592772905
 30
0.0
 10
58.91812400403735
 20
-3.006458815825253
 30
0.0
 10
59.37038941736648
 20
-3.103413578240646
 30
0.0
 10
59.66613572325582
 20
-3.132622995134867
 30
0.0
 10
60.1108398234511
 20
-3.09927455802362
 30
0.0
 10
60.25630943213124
 20
-3.075202495062555
 30
0.0
 10
60.54202682410269
 20
-2.996456804902371
 30
0.0
 10
60.68394906344773
 20
-2.941068647005344
 30
0.0
 10
60.95638420745422
 20
-2.794154354479393
 30
0.0
 10
61.08613508369087
 20
-2.703499798102788
 30
0.0
 10
61.33185702667962
 20
-2.47848356818672
 30
0.0
 10
61.44223728471727
 20
-2.349162364183136
 30
0.0
 10
61.63481962014125
 20
-2.052606557762167
 30
0.0
 10
61.71214210041335
 20
-1.892473427865205
 30
0.0
 10
61.82658584317087
 20
-1.553790241011552
 30
0.0
 10
61.86159271947263
 20
-1.381043639911037
 30
0.0
 10
61.89078911468832
 20
-1.037455135981501
 30
0.0
 10
61.88481595831827
 20
-0.8714791869703644
 30
0.0
 10
61.84047499668166
 20
-0.5501555705372154
 30
0.0
 10
61.80152809998243
 20
-0.3936665395590745
 30
0.0
 10
61.64843255711231
 20
0.0511078930370209
 30
0.0
 10
61.49726845232268
 20
0.3234501802857863
 30
0.0
 10
61.31255338867723
 20
0.5830792714746323
 30
0.0
  0
SPLINE
  5
B2
330
1F
100
AcDbEntity
  8
0
  6
Continuous
 62
     1
370
    15
100
AcDbSpline
210
0.0
220
0.0
230
1.0
 70
     8
 71
     3
 72
    22
 73
    18
 74
     0
 42
0.000000001
 43
0.00000001
 40
0.0
 40
0.0
 40
0.0
 40
0.0
 40
0.0199651962065239
 40
0.0895742169429614
 40
0.1591827952316902
 40
0.2287912824282762
 40
0.2984000299260181
 40
0.3680093890103909
 40
0.4376197107135805
 40
0.5072313456692441
 40
0.5768446439676237
 40
0.6464599550111401
 40
0.717165481852167
 40
0.7878721486583734
 40
0.8585800566574299
 40
0.9292893068516765
 40
1.0
 40
1.0
 40
1.0
 40
1.0
 10
46.01715091313427
 20
-3.71104802910703
 30
0.0
 10
45.83302701714465
 20
-3.794157149519789
 30
0.0
 10
45.00695179939307
 20
-4.167027734150384
 30
0.0
 10
43.53893417467531
 20
-4.676907589825722
 30
0.0
 10
41.61309653617172
 20
-5.199646265488004
 30
0.0
 10
39.68726231783634
 20
-5.503915552421683
 30
0.0
 10
37.76141933885478
 20
-5.591354531919182
 30
0.0
 10
35.83555613694114
 20
-5.454777441033811
 30
0.0
 10
33.90966077589862
 20
-5.100623443101126
 30
0.0
 10
31.98372254942627
 20
-4.542757681057298
 30
0.0
 10
30.05772638842456
 20
-3.80352464256181
 30
0.0
 10
28.12164098761879
 20
-2.907732596350907
 30
0.0
 10
26.17542031338983
 20
-1.888966676678194
 30
0.0
 10
24.21912933550194
 20
-0.786586414620619
 30
0.0
 10
22.26279363736669
 20
0.3462398852302024
 30
0.0
 10
20.30641489568438
 20
1.472271077732602
 30
0.0
 10
19.00214272608901
 20
2.164102236626377
 30
0.0
 10
18.3499999873329
 20
2.510021345563406
 30
0.0
  0
SPLINE
  5
B4
330
1F
100
AcDbEntity
  8
0
  6
Continuous
 62
     1
370
    15
100
AcDbSpline
210
0.0
220
0.0
230
1.0
 70
     8
 71
     3
 72
    12
 73
     8
 74
     0
 42
0.000000001
 43
0.00000001
 40
0.0
 40
0.0
 40
0.0
 40
0.0
 40
0.2597448055016477
 40
0.522216024934282
 40
0.7340826731419382
 40
0.9474236699442884
 40
1.0
 40
1.0
 40
1.0
 40
1.0
 10
18.3499999873329
 20
-3.931855984980592
 30
0.0
 10
19.00359072173472
 20
-4.182418093122514
 30
0.0
 10
20.31763261217412
 20
-4.686172337063296
 30
0.0
 10
22.16489883582939
 20
-5.173342001768941
 30
0.0
 10
23.89503770294376
 20
-5.453330279484243
 30
0.0
 10
25.09694909194009
 20
-5.567121079772868
 30
0.0
 10
25.76590662321871
 20
-5.545402868703935
 30
0.0
 10
25.89817078356256
 20
-5.54110881292776
 30
0.0
  0
SPLINE
  5
B5
330
1F
100
AcDbEntity
  8
0
  6
Continuous
 62
     1
370
    15
100
AcDbSpline
210
0.0
220
0.0
230
1.0
 70
     8
 71
     3
 72
    13
 73
     9
 74
     0
 42
0.000000001
 43
0.00000001
 40
0.0
 40
0.0
 40
0.0
 40
0.0
 40
0.1502933910801633
 40
0.3278970140241718
 40
0.4933449921872348
 40
0.6598005231114685
 40
0.8293570932038329
 40
1.0
 40
1.0
 40
1.0
 40
1.0
 10
48.18580436107446
 20
3.761111015293987
 30
0.0
 10
48.6395575033652
 20
3.949255449585951
 30
0.0
 10
49.62951653876859
 20
4.359732568814016
 30
0.0
 10
51.11897190296009
 20
4.83960137690186
 30
0.0
 10
52.65770120966066
 20
5.220780716836408
 30
0.0
 10
54.1719257410228
 20
5.463051477846616
 30
0.0
 10
55.70143943372643
 20
5.581683434749184
 30
0.0
 10
56.72855319776453
 20
5.540638250737397
 30
0.0
 10
57.24374998733291
 20
5.520050125282843
 30
0.0
  0
SPLINE
  5
B6
330
1F
100
AcDbEntity
  8
0
  6
Continuous
 62
     1
370
    15
100
AcDbSpline
210
0.0
220
0.0
230
1.0
 70
     8
 71
     3
 72
    12
 73
     8
 74
     0
 42
0.000000001
 43
0.00000001
 40
0.0
 40
0.0
 40
0.0
 40
0.0
 40
0.2499999999999991
 40
0.2499999999999991
 40
0.4999999999999982
 40
0.4999999999999982
 40
1.0
 40
1.0
 40
1.0
 40
1.0
 10
61.31255338867721
 20
0.5830792714746352
 30
0.0
 10
61.37646142040764
 20
0.6215879584312238
 30
0.0
 10
61.43339007797772
 20
0.6693302830621145
 30
0.0
 10
61.53324242258101
 20
0.7838181924659965
 30
0.0
 10
61.57649337152925
 20
0.8516508893131645
 30
0.0
 10
61.67880778261124
 20
1.074581058754396
 30
0.0
 10
61.71257256180063
 20
1.25364800297139
 30
0.0
 10
61.71568040879273
 20
1.439864670786848
 30
0.0
  0
ARC
  5
B7
330
1F
100
AcDbEntity
  8
0
  6
Continuous
 62
     1
370
    15
100
AcDbCircle
 10
60.14169967829503
 20
-0.9650097485384976
 30
0.0
 40
2.87416706416031
100
AcDbArc
 50
23.84125279482005
 51
56.79541269262877
  0
ARC
  5
B8
330
1F
100
AcDbEntity
  8
0
  6
Continuous
 62
     1
370
    15
100
AcDbCircle
 10
57.79047432762214
 20
0.0948534764525319
 30
0.0
 40
4.981178635083184
100
AcDbArc
 50
1.172026359248183
 51
71.06103325457978
  0
SPLINE
  5
B9
330
1F
100
AcDbEntity
  8
0
  6
Continuous
 62
     1
370
    15
100
AcDbSpline
210
0.0
220
0.0
230
1.0
 70
     8
 71
     3
 72
    10
 73
     6
 74
     0
 42
0.000000001
 43
0.00000001
 40
0.0
 40
0.0
 40
0.0
 40
0.0
 40
0.5
 40
0.5
 40
1.0
 40
1.0
 40
1.0
 40
1.0
 10
59.40716952087514
 20
4.806375231334025
 30
0.0
 10
59.06333808541399
 20
5.015888202838508
 30
0.0
 10
58.70981384662816
 20
5.180665352877668
 30
0.0
 10
57.98810081057511
 20
5.420218560960675
 30
0.0
 10
57.61620032583281
 20
5.495268430770542
 30
0.0
 10
57.24374998733293
 20
5.520050125282846
 30
0.0
  0
SPLINE
  5
BA
330
1F
100
AcDbEntity
  8
0
  6
Continuous
 62
     1
370
    15
100
AcDbSpline
210
0.0
220
0.0
230
1.0
 70
     8
 71
     3
 72
     8
 73
     4
 74
     0
 42
0.000000001
 43
0.00000001
 40
0.0
 40
0.0
 40
0.0
 40
0.0
 40
1.0
 40
1.0
 40
1.0
 40
1.0
 10
58.28012905934359
 20
2.488086647179646
 30
0.0
 10
59.40967530679067
 20
2.174153620064694
 30
0.0
 10
60.56136269011947
 20
1.820436011543338
 30
0.0
 10
61.71568040879276
 20
1.439864670786889
 30
0.0
  0
SPLINE
  5
BB
330
1F
100
AcDbEntity
  8
0
  6
Continuous
 62
     1
370
    15
100
AcDbSpline
210
0.0
220
0.0
230
1.0
 70
     8
 71
     3
 72
    18
 73
    14
 74
     0
 42
0.000000001
 43
0.00000001
 40
0.0
 40
0.0
 40
0.0
 40
0.0
 40
0.2500000000000004
 40
0.2500000000000004
 40
0.3750000000000004
 40
0.3750000000000004
 40
0.5000000000000004
 40
0.5000000000000004
 40
0.6250000000000004
 40
0.6250000000000004
 40
0.7500000000000004
 40
0.7500000000000004
 40
1.0
 40
1.0
 40
1.0
 40
1.0
 10
59.40716952087515
 20
4.806375231334027
 30
0.0
 10
59.44665184363571
 20
4.573145700057856
 30
0.0
 10
59.46442201116682
 20
4.335785480507075
 30
0.0
 10
59.43860917488578
 20
3.975104472077879
 30
0.0
 10
59.42126659743541
 20
3.856879184062623
 30
0.0
 10
59.3660690889083
 20
3.625127449669341
 30
0.0
 10
59.32751798042462
 20
3.510277863729069
 30
0.0
 10
59.22957063448589
 20
3.294689242992147
 30
0.0
 10
59.1704494790255
 20
3.193678785374827
 30
0.0
 10
59.03157436057758
 20
3.005451432063561
 30
0.0
 10
58.95130350037653
 20
2.918215179418312
 30
0.0
 10
58.69230734249669
 20
2.688102790804709
 30
0.0
 10
58.48989788735388
 20
2.571442941551217
 30
0.0
 10
58.28012905934357
 20
2.488086647179641
 30
0.0
  0
LINE
  5
BC
330
1F
100
AcDbEntity
  8
중심선
 48
0.8
100
AcDbLine
 10
-41.8000000126671
 20
0.0008498323581811
 30
0.0
 11
65.79999998733291
 21
0.0008498323581942
 31
0.0
  0
LINE
  5
BD
330
1F
100
AcDbEntity
  8
참조1
100
AcDbLine
 10
10.00000000000076
 20
0.0010749287238892
 30
0.0
 11
10.00000000000077
 21
-39.99892507127611
 31
0.0
  0
LINE
  5
BE
330
1F
100
AcDbEntity
  8
참조1
100
AcDbLine
 10
60.80000000000074
 20
0.0010749287238931
 30
0.0
 11
60.80000000000076
 21
2.59334205705217
 31
0.0
  0
LINE
  5
BF
330
1F
100
AcDbEntity
  8
참조1
100
AcDbLine
 10
10.00000000000077
 20
-39.99892507127611
 30
0.0
 11
-27.38385681430791
 21
-39.9989250712761
 31
0.0
  0
CIRCLE
  5
C0
330
1F
100
AcDbEntity
  8
해칭선
100
AcDbCircle
 10
0.0
 20
0.0
 30
0.0
 40
3.000000000000001
  0
INSERT
  5
C1
330
1F
100
AcDbEntity
  8
0
  6
Continuous
 62
     7
100
AcDbBlockReference
 66
     1
  2
블럭10
 10
-3.940272932124445
 20
-52.04609937292004
 30
0.0
  0
ATTRIB
  5
C2
330
C1
100
AcDbEntity
  8
FORMAT
 62
     2
100
AcDbText
 10
-14.08190894426107
 20
-49.97073246008785
 30
0.0
 40
4.233333333333333
  1
E5014028 [ 2 FLUTE ]
 41
0.75
  7
SLDTEXTSTYLE0
 11
-14.08190894426107
 21
-52.08739912675452
 31
0.0
100
AcDbAttribute
  2
AUTOATTR0
 70
     0
 74
     1
  0
SEQEND
  5
C3
330
C1
100
AcDbEntity
  8
0
  6
Continuous
 62
     7
  0
HATCH
  5
C4
330
1F
100
AcDbEntity
  8
중심선
100
AcDbHatch
 10
0.0
 20
0.0
 30
0.0
210
0.0
220
0.0
230
1.0
  2
SOLID
 70
     1
 71
     0
 91
        1
 92
        0
 93
        4
 72
     1
 10
1.774636372256388
 20
-35.7989250712761
 11
-1.671638871580894
 21
-35.7989250712761
 72
     1
 10
-1.671638871580894
 20
-35.7989250712761
 11
-3.799868730784917
 21
-38.33525065184867
 72
     1
 10
-3.799868730784917
 20
-38.33525065184867
 11
-0.3535604018344576
 21
-38.33521122254619
 72
     1
 10
-0.3535604018344574
 20
-38.33521122254619
 11
1.774636372256388
 21
-35.7989250712761
 97
        0
 75
     0
 76
     1
 98
        1
 10
0.0
 20
0.0
  0
HATCH
  5
C5
330
1F
100
AcDbEntity
  8
중심선
100
AcDbHatch
 10
0.0
 20
0.0
 30
0.0
210
0.0
220
0.0
230
1.0
  2
SOLID
 70
     1
 71
     0
 91
        1
 92
        0
 93
        4
 72
     1
 10
6.787400363292395
 20
-35.79892507127608
 11
3.341125119455085
 21
-35.79892507127608
 72
     1
 10
3.341125119455085
 20
-35.79892507127608
 11
-1.190012888902331
 21
-41.19892507127612
 72
     1
 10
-1.190012888902331
 20
-41.19892507127612
 11
2.256262354934951
 21
-41.19892507127612
 72
     1
 10
2.256262354934951
 20
-41.19892507127612
 11
6.787400363292395
 21
-35.79892507127608
 97
        0
 75
     0
 76
     1
 98
        1
 10
0.0
 20
0.0
  0
HATCH
  5
C6
330
1F
100
AcDbEntity
  8
중심선
100
AcDbHatch
 10
0.0
 20
0.0
 30
0.0
210
0.0
220
0.0
230
1.0
  2
SOLID
 70
     1
 71
     0
 91
        1
 92
        0
 93
        4
 72
     1
 10
11.80016435432826
 20
-35.79892507127608
 11
8.353889110491147
 21
-35.7989250712761
 72
     1
 10
8.353889110491147
 20
-35.7989250712761
 11
1.305452208601871
 21
-44.19892507127612
 72
     1
 10
1.305452208601871
 20
-44.19892507127612
 11
4.751727452439153
 21
-44.19892507127612
 72
     1
 10
4.751727452439153
 20
-44.19892507127612
 11
11.80016435432826
 21
-35.79892507127608
 97
        0
 75
     0
 76
     1
 98
        1
 10
0.0
 20
0.0
  0
HATCH
  5
C7
330
1F
100
AcDbEntity
  8
중심선
100
AcDbHatch
 10
0.0
 20
0.0
 30
0.0
210
0.0
220
0.0
230
1.0
  2
SOLID
 70
     1
 71
     0
 91
        1
 92
        0
 93
        6
 72
     3
 10
16.60005478534043
 20
-39.99892507132738
 11
3.960054785062284
 21
1.540850780301639E-10
 40
0.3939339440162633
 50
17.09539180608432
 51
320.0019657685075
 73
     0
 72
     1
 10
18.28305444104103
 20
-38.58681907591438
 11
20.58835631474212
 21
-36.65249236586643
 72
     3
 10
16.60005478528759
 20
-39.99892507127625
 11
6.600054785286829
 21
-1.249000902703301E-13
 40
0.6363583540795982
 50
39.99873849337417
 51
368.4976242363724
 73
     1
 72
     1
 10
23.0253872771882
 20
-39.03892507120613
 11
15.28012209212351
 21
-39.0389250712061
 72
     1
 10
15.28012209212351
 20
-39.0389250712061
 11
15.28009704767758
 21
-40.95892507120602
 72
     1
 10
15.28009704767758
 20
-40.95892507120602
 11
19.72147681714961
 21
-40.95892507120599
 97
        0
 75
     0
 76
     1
 98
        1
 10
0.0
 20
0.0
  0
DIMENSION
  5
C8
330
1F
100
AcDbEntity
  8
치수문자_일반주서
100
AcDbDimension
  2
_D
 10
11.99999998733291
 20
24.68163191286406
 30
0.0
 11
37.39999998733292
 21
24.68163191286406
 31
0.0
 70
   160
  1
<>
 71
     2
 42
50.79999999999999
  3
SLDDIMSTYLE1
100
AcDbAlignedDimension
 13
62.79999998733292
 23
6.350849832358207
 33
0.0
 14
11.99999998733291
 24
5.557099832358183
 34
0.0
 50
-0.0000000000012261
100
AcDbRotatedDimension
1001
ACAD
1000
DSTYLE
1002
{
1070
   171
1070
     6
1070
   273
1070
     7
1002
}
  0
DIMENSION
  5
DD
330
1F
100
AcDbEntity
  8
치수문자_일반주서
100
AcDbDimension
  2
_D_1
 10
-38.80000001266711
 20
41.6026203453229
 30
0.0
 11
11.99999998733371
 21
41.6026203453229
 31
0.0
 70
   160
  1
<>
 71
     2
 42
101.6
  3
SLDDIMSTYLE1
100
AcDbAlignedDimension
 13
62.79999998733292
 23
6.350849832358207
 33
0.0
 14
-38.80000001266711
 24
5.350849832358179
 34
0.0
 50
-0.0000000000012261
100
AcDbRotatedDimension
1001
ACAD
1000
DSTYLE
1002
{
1070
   171
1070
     6
1070
   273
1070
     7
1002
}
  0
DIMENSION
  5
F0
330
1F
100
AcDbEntity
  8
치수문자_일반주서
100
AcDbDimension
  2
_D_2
 10
-51.23000001266709
 20
-5.555400167641872
 30
0.0
 11
-51.23000001266711
 21
0.0008498323581802
 31
0.0
 70
   160
  1
%%c<>
 71
     2
 42
11.1125
 52
-270.0
  3
SLDDIMSTYLE1
100
AcDbAlignedDimension
 13
-37.80000001266709
 23
5.557099832358177
 33
0.0
 14
-37.80000001266709
 24
-5.555400167641822
 34
0.0
 50
90.0000000000002
100
AcDbRotatedDimension
1001
ACAD
1000
DSTYLE
1002
{
1070
   171
1070
     6
1070
   273
1070
     7
1002
}
  0
DIMENSION
  5
105
330
1F
100
AcDbEntity
  8
치수문자_일반주서
100
AcDbDimension
  2
_D_3
 10
77.03749998733304
 20
-5.555400167641764
 30
0.0
 11
77.03749998733291
 21
28.72864500248827
 31
0.0
 70
   160
  1
%%c<>
 71
     2
 42
11.1125
 52
-270.0
  3
SLDDIMSTYLE1
100
AcDbAlignedDimension
 13
62.79999998733291
 23
5.557099832358183
 33
0.0
 14
62.79999998733291
 24
-5.555400167641817
 34
0.0
 50
90.0000000000002
100
AcDbRotatedDimension
1001
ACAD
1000
DSTYLE
1002
{
1070
   171
1070
     6
1070
   273
1070
     7
1002
}
  0
LINE
  5
118
330
1F
100
AcDbEntity
  8
참조1
100
AcDbLine
 10
70.58848381534635
 20
7.441074928723896
 30
0.0
 11
70.58848381534635
 21
-7.438925071276109
 31
0.0
  0
LINE
  5
119
330
1F
100
AcDbEntity
  8
참조1
100
AcDbLine
 10
83.28848381534635
 20
5.441074928723896
 30
0.0
 11
70.58848381534635
 21
5.441074928723896
 31
0.0
  0
SOLID
  5
11A
330
1F
100
AcDbEntity
  8
참조1
100
AcDbTrace
 10
70.58848381534635
 20
5.441074928723896
 30
0.0
 11
76.93848381534634
 21
4.425074928723896
 31
0.0
 12
76.93848381534634
 22
6.457074928723896
 32
0.0
 13
76.93848381534634
 23
6.457074928723896
 33
0.0
  0
LINE
  5
11B
330
1F
100
AcDbEntity
  8
참조1
100
AcDbLine
 10
83.28848381534635
 20
-5.438925071276109
 30
0.0
 11
70.58848381534635
 21
-5.438925071276109
 31
0.0
  0
SOLID
  5
11C
330
1F
100
AcDbEntity
  8
참조1
100
AcDbTrace
 10
70.58848381534635
 20
-5.438925071276109
 30
0.0
 11
76.93848381534634
 21
-6.454925071276109
 31
0.0
 12
76.93848381534634
 22
-4.422925071276109
 32
0.0
 13
76.93848381534634
 23
-4.422925071276109
 33
0.0
  0
MTEXT
  5
11D
330
1F
100
AcDbEntity
  8
참조1
100
AcDbMText
 10
79.98597390781663
 20
10.98929157337383
 30
0.0
 40
3.5
 41
0.0
 71
     1
 72
     1
  1
A
  7
SLDTEXTSTYLE0
 73
     1
 44
1.0
  0
MTEXT
  5
11E
330
1F
100
AcDbEntity
  8
참조1
100
AcDbMText
 10
79.98597390781663
 20
0.1092915733738251
 30
0.0
 40
3.5
 41
0.0
 71
     1
 72
     1
  1
A
  7
SLDTEXTSTYLE0
 73
     1
 44
1.0
  0
INSERT
  5
125
330
1F
100
AcDbEntity
  8
해칭선
100
AcDbBlockReference
  2
SW_DOWELSYMBOL_0
 10
0.0
 20
0.0
 30
0.0
  0
LINE
  5
1C4
330
1F
100
AcDbEntity
  8
외형선
  6
Continuous
370
    15
100
AcDbLine
 10
11.99999998733291
 20
5.557099832358183
 30
0.0
 11
11.99999998733291
 21
-5.555400167641817
 31
0.0
  0
SPLINE
  5
1C5
330
1F
100
AcDbEntity
  8
0
  6
Continuous
 62
     1
370
    15
100
AcDbSpline
210
0.0
220
0.0
230
1.0
 70
  1080
 71
     3
 72
     8
 73
     4
 74
     2
 42
0.000000001
 43
0.0000000001
 44
0.0
 40
0.0
 40
0.0
 40
0.0
 40
0.0
 40
7.07050057390117
 40
7.07050057390117
 40
7.07050057390117
 40
7.07050057390117
 10
18.3499999873329
 20
2.510021345563406
 30
0.0
 10
16.23333332066624
 20
3.546547507828332
 30
0.0
 10
14.11666665399958
 20
4.583073670093258
 30
0.0
 10
11.99999998733291
 20
5.619599832358183
 30
0.0
 11
18.3499999873329
 21
2.510021345563406
 31
0.0
 11
11.99999998733291
 21
5.619599832358183
 31
0.0
  0
SPLINE
  5
1C6
330
1F
100
AcDbEntity
  8
0
  6
Continuous
 62
     1
370
    15
100
AcDbSpline
210
0.0
220
0.0
230
1.0
 70
    24
 71
     3
 72
     8
 73
     4
 74
     0
 42
0.000000001
 43
0.0000000001
 40
0.0
 40
0.0
 40
0.0
 40
0.0
 40
7.150963152012997
 40
7.150963152012997
 40
7.150963152012997
 40
7.150963152012997
 10
18.3499999873329
 20
-3.931855984980592
 30
0.0
 10
16.23333332066623
 20
-2.835712543361144
 30
0.0
 10
14.11666665399957
 20
-1.739569101741696
 30
0.0
 10
11.99999998733292
 20
-0.6434256601222477
 30
0.0
  0
SPLINE
  5
1C7
330
1F
100
AcDbEntity
  8
0
  6
Continuous
 62
     1
370
    15
100
AcDbSpline
210
0.0
220
0.0
230
1.0
 70
     8
 71
     3
 72
     9
 73
     5
 74
     0
 42
0.000000001
 43
0.0000000001
 40
0.0
 40
0.0
 40
0.0
 40
0.0
 40
5.210134937557772
 40
8.182685811101383
 40
8.182685811101383
 40
8.182685811101383
 40
8.182685811101383
 10
11.99999998733291
 20
-5.555400167641817
 30
0.0
 10
13.73993535548599
 20
-5.47353526052954
 30
0.0
 10
16.47256025289284
 20
-5.344963770177937
 30
0.0
 10
19.14095066577962
 20
-4.804217258367428
 30
0.0
 10
20.10549882391501
 20
-4.576935236074286
 30
0.0
  0
SPLINE
  5
1C8
330
1F
100
AcDbEntity
  8
0
  6
Continuous
 62
     1
370
    15
100
AcDbSpline
210
0.0
220
0.0
230
1.0
 70
    24
 71
     3
 72
     8
 73
     4
 74
     0
 42
0.000000001
 43
0.0000000001
 40
0.0
 40
0.0
 40
0.0
 40
0.0
 40
3.021732607155441
 40
3.021732607155441
 40
3.021732607155441
 40
3.021732607155441
 10
18.3499999873329
 20
3.933555649696963
 30
0.0
 10
17.34292843953294
 20
3.952204533049068
 30
0.0
 10
16.33585689173297
 20
3.970853416401172
 30
0.0
 10
15.32878534393301
 20
3.989502299753276
 30
0.0
  0
ENDSEC
  0
SECTION
  2
OBJECTS
  0
DICTIONARY
  5
C
330
0
100
AcDbDictionary
281
     1
  3
ACAD_GROUP
350
D
  3
ACAD_IMAGE_VARS
350
149
  3
ACAD_LAYOUT
350
1A
  3
ACAD_MLINESTYLE
350
17
  3
ACAD_PLOTSETTINGS
350
19
  3
ACAD_PLOTSTYLENAME
350
E
  3
ACAD_SCALELIST
350
47
  3
APPDATA
350
147
  3
DWGPROPS
350
1EF
  0
DICTIONARY
  5
170
330
2
100
AcDbDictionary
280
     1
281
     1
  3
ACAD_LAYERSTATES
360
171
  0
DICTIONARY
  5
1ED
330
1F
100
AcDbDictionary
280
     1
281
     1
  3
DIM_BOUNDING_BOXES_V1
360
1EE
  0
DICTIONARY
  5
D
102
{ACAD_REACTORS
330
C
102
}
330
C
100
AcDbDictionary
281
     1
  0
RASTERVARIABLES
  5
149
102
{ACAD_REACTORS
330
C
102
}
330
C
100
AcDbRasterVariables
 90
        0
 70
     1
 71
     1
 72
     1
  0
DICTIONARY
  5
1A
102
{ACAD_REACTORS
330
C
102
}
330
C
100
AcDbDictionary
281
     1
  3
Layout1
350
1E
  3
Layout2
350
26
  3
Model
350
22
  0
DICTIONARY
  5
17
102
{ACAD_REACTORS
330
C
102
}
330
C
100
AcDbDictionary
281
     1
  3
Standard
350
18
  0
DICTIONARY
  5
19
102
{ACAD_REACTORS
330
C
102
}
330
C
100
AcDbDictionary
281
     1
  0
ACDBDICTIONARYWDFLT
  5
E
102
{ACAD_REACTORS
330
C
102
}
330
C
100
AcDbDictionary
281
     1
  3
Normal
350
F
100
AcDbDictionaryWithDefault
340
F
  0
DICTIONARY
  5
47
102
{ACAD_REACTORS
330
C
102
}
330
C
100
AcDbDictionary
281
     1
  3
A0
350
48
  3
A1
350
49
  3
A2
350
4A
  3
A3
350
4B
  3
A4
350
4C
  3
A5
350
4D
  3
A6
350
4E
  3
A7
350
4F
  3
A8
350
50
  3
A9
350
51
  3
B0
350
52
  3
B1
350
53
  3
B2
350
54
  3
B3
350
55
  3
B4
350
56
  3
B5
350
57
  3
B6
350
58
  3
B7
350
59
  3
B8
350
5A
  3
B9
350
5B
  3
C0
350
5C
  3
C1
350
5D
  3
C2
350
5E
  3
C3
350
5F
  3
C4
350
60
  3
C5
350
61
  3
C6
350
62
  3
C7
350
63
  3
C8
350
64
  3
C9
350
65
  3
D0
350
66
  3
D1
350
67
  3
D2
350
68
  0
DICTIONARY
  5
147
102
{ACAD_REACTORS
330
C
102
}
330
C
100
AcDbDictionary
281
     1
  0
XRECORD
  5
1EF
102
{ACAD_REACTORS
330
C
102
}
330
C
100
AcDbXrecord
280
     1
  1
DWGPROPS COOKIE
  2

  3

  4

  6

  7

  8
12011056
  9

300
=
301
=
302
=
303
=
304
=
305
=
306
=
307
=
308
=
309
=
 40
0.0
 41
2458288.089650683
 42
2459719.204437245
  1

 90
        0
  0
DICTIONARY
  5
171
102
{ACAD_REACTORS
330
170
102
}
330
170
100
AcDbDictionary
281
     1
  0
DICTIONARY
  5
1EE
102
{ACAD_REACTORS
330
1ED
102
}
330
1ED
100
AcDbDictionary
281
     1
  0
LAYOUT
  5
1E
102
{ACAD_REACTORS
330
1A
102
}
330
1A
100
AcDbPlotSettings
  1

  2
none_device
  4

  6

 40
0.0
 41
0.0
 42
0.0
 43
0.0
 44
0.0
 45
0.0
 46
0.0
 47
0.0
 48
0.0
 49
0.0
140
0.0
141
0.0
142
1.0
143
1.0
 70
   688
 72
     1
 73
     0
 74
     5
  7

 75
    16
147
1.0
148
0.0
149
0.0
100
AcDbLayout
  1
Layout1
 70
     1
 71
     1
 10
0.0
 20
0.0
 11
420.0
 21
297.0
 12
0.0
 22
0.0
 32
0.0
 14
1.000000000000000E+20
 24
1.000000000000000E+20
 34
1.000000000000000E+20
 15
-1.000000000000000E+20
 25
-1.000000000000000E+20
 35
-1.000000000000000E+20
146
0.0
 13
0.0
 23
0.0
 33
0.0
 16
1.0
 26
0.0
 36
0.0
 17
0.0
 27
1.0
 37
0.0
 76
     0
330
1B
  0
LAYOUT
  5
26
102
{ACAD_REACTORS
330
1A
102
}
330
1A
100
AcDbPlotSettings
  1

  2
none_device
  4

  6

 40
0.0
 41
0.0
 42
0.0
 43
0.0
 44
0.0
 45
0.0
 46
0.0
 47
0.0
 48
0.0
 49
0.0
140
0.0
141
0.0
142
1.0
143
1.0
 70
   688
 72
     1
 73
     0
 74
     5
  7

 75
    16
147
1.0
148
0.0
149
0.0
100
AcDbLayout
  1
Layout2
 70
     1
 71
     2
 10
0.0
 20
0.0
 11
0.0
 21
0.0
 12
0.0
 22
0.0
 32
0.0
 14
0.0
 24
0.0
 34
0.0
 15
0.0
 25
0.0
 35
0.0
146
0.0
 13
0.0
 23
0.0
 33
0.0
 16
1.0
 26
0.0
 36
0.0
 17
0.0
 27
1.0
 37
0.0
 76
     0
330
23
  0
LAYOUT
  5
22
102
{ACAD_REACTORS
330
1A
102
}
330
1A
100
AcDbPlotSettings
  1

  2
none_device
  4
ANSI_A_(11.00_x_8.50_Inches)
  6

 40
6.35
 41
19.05
 42
6.35000508
 43
19.05000254
 44
279.4
 45
215.9
 46
115.2625229631843
 47
85.00243857474634
 48
0.0
 49
0.0
140
0.0
141
0.0
142
0.0739250495758904
143
1.0
 70
  1696
 72
     0
 73
     0
 74
     0
  7

 75
     0
147
0.0235690232323232
148
0.0
149
0.0
100
AcDbLayout
  1
Model
 70
     1
 71
     0
 10
0.0
 20
0.0
 11
420.0
 21
297.0
 12
0.0
 22
0.0
 32
0.0
 14
-55.60500001266715
 24
-49.97073246008785
 34
0.0
 15
83.28848381534635
 25
45.9776203453229
 35
0.0
146
0.0
 13
0.0
 23
0.0
 33
0.0
 16
1.0
 26
0.0
 36
0.0
 17
0.0
 27
1.0
 37
0.0
 76
     0
330
1F
331
29
  0
MLINESTYLE
  5
18
102
{ACAD_REACTORS
330
17
102
}
330
17
100
AcDbMlineStyle
  2
Standard
 70
     0
  3

 62
   256
 51
90.0
 52
90.0
 71
     2
 49
0.5
 62
   256
  6
BYLAYER
 49
-0.5
 62
   256
  6
BYLAYER
  0
ACDBPLACEHOLDER
  5
F
102
{ACAD_REACTORS
330
E
102
}
330
E
  0
SCALE
  5
48
102
{ACAD_REACTORS
330
47
102
}
330
47
100
AcDbScale
 70
     0
300
1:1
140
1.0
141
1.0
290
     1
  0
SCALE
  5
49
102
{ACAD_REACTORS
330
47
102
}
330
47
100
AcDbScale
 70
     0
300
1:2
140
1.0
141
2.0
290
     0
  0
SCALE
  5
4A
102
{ACAD_REACTORS
330
47
102
}
330
47
100
AcDbScale
 70
     0
300
1:4
140
1.0
141
4.0
290
     0
  0
SCALE
  5
4B
102
{ACAD_REACTORS
330
47
102
}
330
47
100
AcDbScale
 70
     0
300
1:5
140
1.0
141
5.0
290
     0
  0
SCALE
  5
4C
102
{ACAD_REACTORS
330
47
102
}
330
47
100
AcDbScale
 70
     0
300
1:8
140
1.0
141
8.0
290
     0
  0
SCALE
  5
4D
102
{ACAD_REACTORS
330
47
102
}
330
47
100
AcDbScale
 70
     0
300
1:10
140
1.0
141
10.0
290
     0
  0
SCALE
  5
4E
102
{ACAD_REACTORS
330
47
102
}
330
47
100
AcDbScale
 70
     0
300
1:16
140
1.0
141
16.0
290
     0
  0
SCALE
  5
4F
102
{ACAD_REACTORS
330
47
102
}
330
47
100
AcDbScale
 70
     0
300
1:20
140
1.0
141
20.0
290
     0
  0
SCALE
  5
50
102
{ACAD_REACTORS
330
47
102
}
330
47
100
AcDbScale
 70
     0
300
1:30
140
1.0
141
30.0
290
     0
  0
SCALE
  5
51
102
{ACAD_REACTORS
330
47
102
}
330
47
100
AcDbScale
 70
     0
300
1:40
140
1.0
141
40.0
290
     0
  0
SCALE
  5
52
102
{ACAD_REACTORS
330
47
102
}
330
47
100
AcDbScale
 70
     0
300
1:50
140
1.0
141
50.0
290
     0
  0
SCALE
  5
53
102
{ACAD_REACTORS
330
47
102
}
330
47
100
AcDbScale
 70
     0
300
1:100
140
1.0
141
100.0
290
     0
  0
SCALE
  5
54
102
{ACAD_REACTORS
330
47
102
}
330
47
100
AcDbScale
 70
     0
300
2:1
140
2.0
141
1.0
290
     0
  0
SCALE
  5
55
102
{ACAD_REACTORS
330
47
102
}
330
47
100
AcDbScale
 70
     0
300
4:1
140
4.0
141
1.0
290
     0
  0
SCALE
  5
56
102
{ACAD_REACTORS
330
47
102
}
330
47
100
AcDbScale
 70
     0
300
8:1
140
8.0
141
1.0
290
     0
  0
SCALE
  5
57
102
{ACAD_REACTORS
330
47
102
}
330
47
100
AcDbScale
 70
     0
300
10:1
140
10.0
141
1.0
290
     0
  0
SCALE
  5
58
102
{ACAD_REACTORS
330
47
102
}
330
47
100
AcDbScale
 70
     0
300
100:1
140
100.0
141
1.0
290
     0
  0
SCALE
  5
59
102
{ACAD_REACTORS
330
47
102
}
330
47
100
AcDbScale
 70
     0
300
1/128" = 1'-0"
140
0.0078125
141
12.0
290
     0
  0
SCALE
  5
5A
102
{ACAD_REACTORS
330
47
102
}
330
47
100
AcDbScale
 70
     0
300
1/64" = 1'-0"
140
0.015625
141
12.0
290
     0
  0
SCALE
  5
5B
102
{ACAD_REACTORS
330
47
102
}
330
47
100
AcDbScale
 70
     0
300
1/32" = 1'-0"
140
0.03125
141
12.0
290
     0
  0
SCALE
  5
5C
102
{ACAD_REACTORS
330
47
102
}
330
47
100
AcDbScale
 70
     0
300
1/16" = 1'-0"
140
0.0625
141
12.0
290
     0
  0
SCALE
  5
5D
102
{ACAD_REACTORS
330
47
102
}
330
47
100
AcDbScale
 70
     0
300
3/32" = 1'-0"
140
0.09375
141
12.0
290
     0
  0
SCALE
  5
5E
102
{ACAD_REACTORS
330
47
102
}
330
47
100
AcDbScale
 70
     0
300
1/8" = 1'-0"
140
0.125
141
12.0
290
     0
  0
SCALE
  5
5F
102
{ACAD_REACTORS
330
47
102
}
330
47
100
AcDbScale
 70
     0
300
3/16" = 1'-0"
140
0.1875
141
12.0
290
     0
  0
SCALE
  5
60
102
{ACAD_REACTORS
330
47
102
}
330
47
100
AcDbScale
 70
     0
300
1/4" = 1'-0"
140
0.25
141
12.0
290
     0
  0
SCALE
  5
61
102
{ACAD_REACTORS
330
47
102
}
330
47
100
AcDbScale
 70
     0
300
3/8" = 1'-0"
140
0.375
141
12.0
290
     0
  0
SCALE
  5
62
102
{ACAD_REACTORS
330
47
102
}
330
47
100
AcDbScale
 70
     0
300
1/2" = 1'-0"
140
0.5
141
12.0
290
     0
  0
SCALE
  5
63
102
{ACAD_REACTORS
330
47
102
}
330
47
100
AcDbScale
 70
     0
300
3/4" = 1'-0"
140
0.75
141
12.0
290
     0
  0
SCALE
  5
64
102
{ACAD_REACTORS
330
47
102
}
330
47
100
AcDbScale
 70
     0
300
1" = 1'-0"
140
1.0
141
12.0
290
     0
  0
SCALE
  5
65
102
{ACAD_REACTORS
330
47
102
}
330
47
100
AcDbScale
 70
     0
300
1-1/2" = 1'-0"
140
1.5
141
12.0
290
     0
  0
SCALE
  5
66
102
{ACAD_REACTORS
330
47
102
}
330
47
100
AcDbScale
 70
     0
300
3" = 1'-0"
140
3.0
141
12.0
290
     0
  0
SCALE
  5
67
102
{ACAD_REACTORS
330
47
102
}
330
47
100
AcDbScale
 70
     0
300
6" = 1'-0"
140
6.0
141
12.0
290
     0
  0
SCALE
  5
68
102
{ACAD_REACTORS
330
47
102
}
330
47
100
AcDbScale
 70
     0
300
1'-0" = 1'-0"
140
12.0
141
12.0
290
     0
  0
ENDSEC
  0
EOF
