  0
SECTION
  2
HEADER
  9
$ACADVER
  1
AC1015
  9
$ACADMAINTVER
 70
     6
  9
$DWGCODEPAGE
  3
ANSI_949
  9
$INSBASE
 10
0.0
 20
0.0
 30
0.0
  9
$EXTMIN
 10
-74.65500000000004
 20
-49.97073246008785
 30
0.0
  9
$EXTMAX
 10
83.28848381534635
 20
46.52877605973327
 30
0.0
  9
$LIMMIN
 10
0.0
 20
0.0
  9
$LIMMAX
 10
420.0
 20
297.0
  9
$ORTHOMODE
 70
     1
  9
$REGENMODE
 70
     1
  9
$FILLMODE
 70
     1
  9
$QTEXTMODE
 70
     0
  9
$MIRRTEXT
 70
     1
  9
$LTSCALE
 40
1.0
  9
$ATTMODE
 70
     1
  9
$TEXTSIZE
 40
3.5
  9
$TRACEWID
 40
1.0
  9
$TEXTSTYLE
  7
Standard
  9
$CLAYER
  8
0
  9
$CELTYPE
  6
ByLayer
  9
$CECOLOR
 62
   256
  9
$CELTSCALE
 40
1.0
  9
$DISPSILH
 70
     0
  9
$DIMSCALE
 40
1.0
  9
$DIMASZ
 40
3.302
  9
$DIMEXO
 40
1.0
  9
$DIMDLI
 40
3.75
  9
$DIMRND
 40
0.0
  9
$DIMDLE
 40
0.0
  9
$DIMEXE
 40
1.0
  9
$DIMTP
 40
0.0
  9
$DIMTM
 40
0.0
  9
$DIMTXT
 40
3.5
  9
$DIMCEN
 40
2.5
  9
$DIMTSZ
 40
0.0
  9
$DIMTOL
 70
     0
  9
$DIMLIM
 70
     0
  9
$DIMTIH
 70
     1
  9
$DIMTOH
 70
     1
  9
$DIMSE1
 70
     0
  9
$DIMSE2
 70
     0
  9
$DIMTAD
 70
     1
  9
$DIMZIN
 70
     0
  9
$DIMBLK
  1

  9
$DIMASO
 70
     1
  9
$DIMSHO
 70
     1
  9
$DIMPOST
  1

  9
$DIMAPOST
  1

  9
$DIMALT
 70
     0
  9
$DIMALTD
 70
     3
  9
$DIMALTF
 40
0.0393700787401575
  9
$DIMLFAC
 40
1.0
  9
$DIMTOFL
 70
     1
  9
$DIMTVP
 40
0.0
  9
$DIMTIX
 70
     0
  9
$DIMSOXD
 70
     0
  9
$DIMSAH
 70
     0
  9
$DIMBLK1
  1

  9
$DIMBLK2
  1

  9
$DIMSTYLE
  2
ISO-25
  9
$DIMCLRD
 70
     0
  9
$DIMCLRE
 70
     0
  9
$DIMCLRT
 70
     0
  9
$DIMTFAC
 40
1.0
  9
$DIMGAP
 40
1.524
  9
$DIMJUST
 70
     0
  9
$DIMSD1
 70
     0
  9
$DIMSD2
 70
     0
  9
$DIMTOLJ
 70
     0
  9
$DIMTZIN
 70
     0
  9
$DIMALTZ
 70
     0
  9
$DIMALTTZ
 70
     0
  9
$DIMUPT
 70
     0
  9
$DIMDEC
 70
     2
  9
$DIMTDEC
 70
     2
  9
$DIMALTU
 70
     2
  9
$DIMALTTD
 70
     3
  9
$DIMTXSTY
  7
Standard
  9
$DIMAUNIT
 70
     0
  9
$DIMADEC
 70
     2
  9
$DIMALTRND
 40
0.0
  9
$DIMAZIN
 70
     0
  9
$DIMDSEP
 70
    44
  9
$DIMATFIT
 70
     3
  9
$DIMFRAC
 70
     0
  9
$DIMLDRBLK
  1

  9
$DIMLUNIT
 70
     2
  9
$DIMLWD
 70
    -2
  9
$DIMLWE
 70
    -2
  9
$DIMTMOVE
 70
     0
  9
$LUNITS
 70
     2
  9
$LUPREC
 70
     2
  9
$SKETCHINC
 40
1.0
  9
$FILLETRAD
 40
10.0
  9
$AUNITS
 70
     0
  9
$AUPREC
 70
     2
  9
$MENU
  1
.
  9
$ELEVATION
 40
0.0
  9
$PELEVATION
 40
0.0
  9
$THICKNESS
 40
0.0
  9
$LIMCHECK
 70
     0
  9
$CHAMFERA
 40
0.0
  9
$CHAMFERB
 40
0.0
  9
$CHAMFERC
 40
0.0
  9
$CHAMFERD
 40
0.0
  9
$SKPOLY
 70
     0
  9
$TDCREATE
 40
2458288.465217836
  9
$TDUCREATE
 40
2458288.090217836
  9
$TDUPDATE
 40
2459719.580353183
  9
$TDUUPDATE
 40
2459719.205353183
  9
$TDINDWG
 40
0.0030237963
  9
$TDUSRTIMER
 40
0.0002121412
  9
$USRTIMER
 70
     1
  9
$ANGBASE
 50
0.0
  9
$ANGDIR
 70
     0
  9
$PDMODE
 70
     0
  9
$PDSIZE
 40
-1.0
  9
$PLINEWID
 40
0.0
  9
$SPLFRAME
 70
     0
  9
$SPLINETYPE
 70
     6
  9
$SPLINESEGS
 70
     8
  9
$HANDSEED
  5
1C3
  9
$SURFTAB1
 70
     6
  9
$SURFTAB2
 70
     6
  9
$SURFTYPE
 70
     6
  9
$SURFU
 70
     6
  9
$SURFV
 70
     6
  9
$UCSBASE
  2

  9
$UCSNAME
  2

  9
$UCSORG
 10
0.0
 20
0.0
 30
0.0
  9
$UCSXDIR
 10
1.0
 20
0.0
 30
0.0
  9
$UCSYDIR
 10
0.0
 20
1.0
 30
0.0
  9
$UCSORTHOREF
  2

  9
$UCSORTHOVIEW
 70
     0
  9
$UCSORGTOP
 10
0.0
 20
0.0
 30
0.0
  9
$UCSORGBOTTOM
 10
0.0
 20
0.0
 30
0.0
  9
$UCSORGLEFT
 10
0.0
 20
0.0
 30
0.0
  9
$UCSORGRIGHT
 10
0.0
 20
0.0
 30
0.0
  9
$UCSORGFRONT
 10
0.0
 20
0.0
 30
0.0
  9
$UCSORGBACK
 10
0.0
 20
0.0
 30
0.0
  9
$PUCSBASE
  2

  9
$PUCSNAME
  2

  9
$PUCSORG
 10
0.0
 20
0.0
 30
0.0
  9
$PUCSXDIR
 10
1.0
 20
0.0
 30
0.0
  9
$PUCSYDIR
 10
0.0
 20
1.0
 30
0.0
  9
$PUCSORTHOREF
  2

  9
$PUCSORTHOVIEW
 70
     0
  9
$PUCSORGTOP
 10
0.0
 20
0.0
 30
0.0
  9
$PUCSORGBOTTOM
 10
0.0
 20
0.0
 30
0.0
  9
$PUCSORGLEFT
 10
0.0
 20
0.0
 30
0.0
  9
$PUCSORGRIGHT
 10
0.0
 20
0.0
 30
0.0
  9
$PUCSORGFRONT
 10
0.0
 20
0.0
 30
0.0
  9
$PUCSORGBACK
 10
0.0
 20
0.0
 30
0.0
  9
$USERI1
 70
     0
  9
$USERI2
 70
     0
  9
$USERI3
 70
     0
  9
$USERI4
 70
     0
  9
$USERI5
 70
     0
  9
$USERR1
 40
0.0
  9
$USERR2
 40
0.0
  9
$USERR3
 40
0.0
  9
$USERR4
 40
0.0
  9
$USERR5
 40
0.0
  9
$WORLDVIEW
 70
     1
  9
$SHADEDGE
 70
     3
  9
$SHADEDIF
 70
    70
  9
$TILEMODE
 70
     1
  9
$MAXACTVP
 70
    64
  9
$PINSBASE
 10
0.0
 20
0.0
 30
0.0
  9
$PLIMCHECK
 70
     0
  9
$PEXTMIN
 10
1.000000000000000E+20
 20
1.000000000000000E+20
 30
1.000000000000000E+20
  9
$PEXTMAX
 10
-1.000000000000000E+20
 20
-1.000000000000000E+20
 30
-1.000000000000000E+20
  9
$PLIMMIN
 10
0.0
 20
0.0
  9
$PLIMMAX
 10
0.0
 20
0.0
  9
$UNITMODE
 70
     0
  9
$VISRETAIN
 70
     1
  9
$PLINEGEN
 70
     0
  9
$PSLTSCALE
 70
     1
  9
$TREEDEPTH
 70
  3020
  9
$CMLSTYLE
  2
Standard
  9
$CMLJUST
 70
     0
  9
$CMLSCALE
 40
20.0
  9
$PROXYGRAPHICS
 70
     1
  9
$MEASUREMENT
 70
     1
  9
$CELWEIGHT
370
    -1
  9
$ENDCAPS
280
     0
  9
$JOINSTYLE
280
     0
  9
$LWDISPLAY
290
     1
  9
$INSUNITS
 70
     4
  9
$HYPERLINKBASE
  1

  9
$STYLESHEET
  1

  9
$XEDIT
290
     1
  9
$CEPSNTYPE
380
     0
  9
$PSTYLEMODE
290
     1
  9
$FINGERPRINTGUID
  2
{136B27A5-19AA-439C-9F48-55DDDDD41ED2}
  9
$VERSIONGUID
  2
{FAEB1C32-E019-11D5-929B-00C0DF256EC4}
  9
$EXTNAMES
290
     1
  9
$PSVPSCALE
 40
0.0
  9
$OLESTARTUP
290
     0
  0
ENDSEC
  0
SECTION
  2
CLASSES
  0
CLASS
  1
ACDBDICTIONARYWDFLT
  2
AcDbDictionaryWithDefault
  3
ObjectDBX Classes
 90
        0
280
     0
281
     0
  0
CLASS
  1
VISUALSTYLE
  2
AcDbVisualStyle
  3
ObjectDBX Classes
 90
     4095
280
     0
281
     0
  0
CLASS
  1
MATERIAL
  2
AcDbMaterial
  3
ObjectDBX Classes
 90
     1153
280
     0
281
     0
  0
CLASS
  1
SCALE
  2
AcDbScale
  3
ObjectDBX Classes
 90
     1153
280
     0
281
     0
  0
CLASS
  1
SUN
  2
AcDbSun
  3
SCENEOE
 90
     1153
280
     0
281
     0
  0
CLASS
  1
ACDBPLACEHOLDER
  2
AcDbPlaceHolder
  3
ObjectDBX Classes
 90
        0
280
     0
281
     0
  0
CLASS
  1
LAYOUT
  2
AcDbLayout
  3
ObjectDBX Classes
 90
        0
280
     0
281
     0
  0
CLASS
  1
TABLESTYLE
  2
AcDbTableStyle
  3
ObjectDBX Classes
 90
     4095
280
     0
281
     0
  0
CLASS
  1
MLEADERSTYLE
  2
AcDbMLeaderStyle
  3
ACDB_MLEADERSTYLE_CLASS
 90
     4095
280
     0
281
     0
  0
CLASS
  1
RASTERVARIABLES
  2
AcDbRasterVariables
  3
ISM
 90
        0
280
     0
281
     0
  0
ENDSEC
  0
SECTION
  2
TABLES
  0
TABLE
  2
VPORT
  5
8
330
0
100
AcDbSymbolTable
 70
     1
  0
VPORT
  5
29
330
8
100
AcDbSymbolTableRecord
100
AcDbViewportTableRecord
  2
*Active
 70
     0
 10
0.0
 20
0.0
 11
1.0
 21
1.0
 12
1.10927423634611
 22
-2.158360155358253
 13
0.0
 23
0.0
 14
10.0
 24
10.0
 15
10.0
 25
10.0
 16
0.0
 26
0.0
 36
1.0
 17
0.0
 27
0.0
 37
0.0
 40
105.9922271388524
 41
1.519944979367263
 42
50.0
 43
0.0
 44
0.0
 50
0.0
 51
0.0
 71
    16
 72
  2000
 73
     1
 74
     3
 75
     0
 76
     0
 77
     0
 78
     0
281
     0
 65
     1
110
0.0
120
0.0
130
0.0
111
1.0
121
0.0
131
0.0
112
0.0
122
1.0
132
0.0
 79
     0
146
0.0
  0
ENDTAB
  0
TABLE
  2
LTYPE
  5
5
330
0
100
AcDbSymbolTable
 70
     6
  0
LTYPE
  5
14
330
5
100
AcDbSymbolTableRecord
100
AcDbLinetypeTableRecord
  2
ByBlock
 70
     0
  3

 72
    65
 73
     0
 40
0.0
  0
LTYPE
  5
15
330
5
100
AcDbSymbolTableRecord
100
AcDbLinetypeTableRecord
  2
ByLayer
 70
     0
  3

 72
    65
 73
     0
 40
0.0
  0
LTYPE
  5
16
330
5
100
AcDbSymbolTableRecord
100
AcDbLinetypeTableRecord
  2
Continuous
 70
     0
  3
Solid line
 72
    65
 73
     0
 40
0.0
  0
LTYPE
  5
6A
330
5
100
AcDbSymbolTableRecord
100
AcDbLinetypeTableRecord
  2
HIDDEN
 70
     0
  3
Hidden __ __ __ __ __ __ __ __ __ __ __ __ __ __
 72
    65
 73
     2
 40
1.905
 49
1.27
 74
     0
 49
-0.635
 74
     0
  0
LTYPE
  5
6B
330
5
100
AcDbSymbolTableRecord
100
AcDbLinetypeTableRecord
  2
PHANTOM
 70
     0
  3
Phantom ______  __  __  ______  __  __  ______
 72
    65
 73
     6
 40
12.7
 49
6.35
 74
     0
 49
-1.27
 74
     0
 49
1.27
 74
     0
 49
-1.27
 74
     0
 49
1.27
 74
     0
 49
-1.27
 74
     0
  0
LTYPE
  5
6C
330
5
100
AcDbSymbolTableRecord
100
AcDbLinetypeTableRecord
  2
CENTER
 70
     0
  3
Center ____ _ ____ _ ____ _ ____ _ ____ _ ____
 72
    65
 73
     4
 40
10.16
 49
6.35
 74
     0
 49
-1.27
 74
     0
 49
1.27
 74
     0
 49
-1.27
 74
     0
  0
LTYPE
  5
6D
330
5
100
AcDbSymbolTableRecord
100
AcDbLinetypeTableRecord
  2
CENTERX2
 70
     0
  3
Center (2x) ________  __  ________  __  _____
 72
    65
 73
     4
 40
20.32
 49
12.7
 74
     0
 49
-2.54
 74
     0
 49
2.54
 74
     0
 49
-2.54
 74
     0
  0
LTYPE
  5
6E
330
5
100
AcDbSymbolTableRecord
100
AcDbLinetypeTableRecord
  2
DOT2
 70
     0
  3
Dot (.5x) ........................................
 72
    65
 73
     2
 40
0.635
 49
0.0
 74
     0
 49
-0.635
 74
     0
  0
ENDTAB
  0
TABLE
  2
LAYER
  5
2
102
{ACAD_XDICTIONARY
360
16E
102
}
330
0
100
AcDbSymbolTable
 70
    18
  0
LAYER
  5
10
330
2
100
AcDbSymbolTableRecord
100
AcDbLayerTableRecord
  2
0
 70
     0
 62
     7
  6
Continuous
370
    -3
390
F
  0
LAYER
  5
6F
330
2
100
AcDbSymbolTableRecord
100
AcDbLayerTableRecord
  2
FORMAT
 70
     0
 62
     2
  6
Continuous
370
    -3
390
F
  0
LAYER
  5
70
330
2
100
AcDbSymbolTableRecord
100
AcDbLayerTableRecord
  2
외형선
 70
     0
 62
     4
  6
Continuous
370
    30
390
F
  0
LAYER
  5
71
330
2
100
AcDbSymbolTableRecord
100
AcDbLayerTableRecord
  2
숨은선
 70
     0
 62
     2
  6
HIDDEN
370
    15
390
F
  0
LAYER
  5
72
330
2
100
AcDbSymbolTableRecord
100
AcDbLayerTableRecord
  2
중심선
 70
     0
 62
     1
  6
CENTERX2
370
    -3
390
F
  0
LAYER
  5
73
330
2
100
AcDbSymbolTableRecord
100
AcDbLayerTableRecord
  2
파단선
 70
     0
 62
     4
  6
Continuous
370
    -3
390
F
  0
LAYER
  5
74
330
2
100
AcDbSymbolTableRecord
100
AcDbLayerTableRecord
  2
해칭선
 70
     0
 62
   100
  6
Continuous
370
    -3
390
F
  0
LAYER
  5
75
330
2
100
AcDbSymbolTableRecord
100
AcDbLayerTableRecord
  2
가는실선
 70
     0
 62
     4
  6
Continuous
370
    -3
390
F
  0
LAYER
  5
76
330
2
100
AcDbSymbolTableRecord
100
AcDbLayerTableRecord
  2
치수_보조선
 70
     0
 62
     4
  6
Continuous
370
    -3
390
F
  0
LAYER
  5
77
330
2
100
AcDbSymbolTableRecord
100
AcDbLayerTableRecord
  2
치수문자_일반주서
 70
     0
 62
     7
  6
Continuous
370
    15
390
F
  0
LAYER
  5
78
330
2
100
AcDbSymbolTableRecord
100
AcDbLayerTableRecord
  2
개별주서
 70
     0
 62
   100
  6
Continuous
370
    30
390
F
  0
LAYER
  5
79
330
2
100
AcDbSymbolTableRecord
100
AcDbLayerTableRecord
  2
중간선
 70
     0
 62
     2
  6
Continuous
370
    15
390
F
  0
LAYER
  5
7A
330
2
100
AcDbSymbolTableRecord
100
AcDbLayerTableRecord
  2
윤곽선
 70
     0
 62
     3
  6
Continuous
370
    40
390
F
  0
LAYER
  5
7B
330
2
100
AcDbSymbolTableRecord
100
AcDbLayerTableRecord
  2
중심마크
 70
     0
 62
   100
  6
Continuous
370
    30
390
F
  0
LAYER
  5
7C
330
2
100
AcDbSymbolTableRecord
100
AcDbLayerTableRecord
  2
가상선
 70
     0
 62
     4
  6
PHANTOM
370
    -3
390
F
  0
LAYER
  5
7D
330
2
100
AcDbSymbolTableRecord
100
AcDbLayerTableRecord
  2
특수지정선
 70
     0
 62
     5
  6
CENTERX2
370
    60
390
F
  0
LAYER
  5
7E
330
2
100
AcDbSymbolTableRecord
100
AcDbLayerTableRecord
  2
참조1
 70
     0
 62
    -4
  6
Continuous
370
    -3
390
F
  0
LAYER
  5
175
330
2
100
AcDbSymbolTableRecord
100
AcDbLayerTableRecord
  2
Defpoints
 70
     0
 62
     7
  6
Continuous
290
     0
370
    -3
390
F
  0
ENDTAB
  0
TABLE
  2
STYLE
  5
3
330
0
100
AcDbSymbolTable
 70
     2
  0
STYLE
  5
11
330
3
100
AcDbSymbolTableRecord
100
AcDbTextStyleTableRecord
  2
Standard
 70
     0
 40
0.0
 41
1.0
 50
0.0
 71
     0
 42
3.5
  3
txt
  4

  0
STYLE
  5
94
330
3
100
AcDbSymbolTableRecord
100
AcDbTextStyleTableRecord
  2
SLDTEXTSTYLE0
 70
     0
 40
0.0
 41
0.75
 50
0.0
 71
     0
 42
3.5
  3
TXT
  4

  0
ENDTAB
  0
TABLE
  2
VIEW
  5
6
330
0
100
AcDbSymbolTable
 70
     0
  0
ENDTAB
  0
TABLE
  2
UCS
  5
7
330
0
100
AcDbSymbolTable
 70
     0
  0
ENDTAB
  0
TABLE
  2
APPID
  5
9
330
0
100
AcDbSymbolTable
 70
     1
  0
APPID
  5
12
330
9
100
AcDbSymbolTableRecord
100
AcDbRegAppTableRecord
  2
ACAD
 70
     0
  0
ENDTAB
  0
TABLE
  2
DIMSTYLE
  5
A
330
0
100
AcDbSymbolTable
 70
     4
100
AcDbDimStyleTable
  0
DIMSTYLE
105
27
330
A
100
AcDbSymbolTableRecord
100
AcDbDimStyleTableRecord
  2
ISO-25
 70
     0
 41
2.5
 42
0.625
 43
3.75
 44
1.25
 73
     0
 74
     0
 77
     1
 78
     8
140
2.5
141
2.5
143
0.03937007874016
147
0.625
171
     3
172
     1
178
     0
271
     2
272
     2
274
     3
278
    44
283
     0
284
     8
340
11
  0
DIMSTYLE
105
C6
330
A
100
AcDbSymbolTableRecord
100
AcDbDimStyleTableRecord
  2
SLDDIMSTYLE0
 70
     0
 41
3.302
 44
0.0
 45
0.000000001
 73
     0
 74
     0
 77
     1
 78
    12
 79
     3
140
3.5
143
0.0393700787401575
147
0.875
148
0.000000001
170
     1
173
     1
178
     0
271
     2
272
     2
276
     2
284
    12
340
94
  0
DIMSTYLE
105
EE
102
{ACAD_REACTORS
330
ED
330
C5
330
DA
330
102
102
}
330
A
100
AcDbSymbolTableRecord
100
AcDbDimStyleTableRecord
  2
SLDDIMSTYLE1
 70
     0
 41
3.302
 44
0.0
 45
0.000000001
 73
     0
 74
     0
 77
     1
 78
     4
 79
     1
140
3.5
143
0.0393700787401575
147
0.875
148
0.000000001
170
     1
172
     1
173
     1
178
     0
271
     2
272
     2
276
     2
284
    12
289
     0
340
94
  0
DIMSTYLE
105
103
330
A
100
AcDbSymbolTableRecord
100
AcDbDimStyleTableRecord
  2
SLDDIMSTYLE2
 70
     0
 41
3.302
 44
0.0
 45
0.000000001
 73
     0
 74
     0
 77
     1
 78
     4
 79
     1
140
3.5
143
0.0393700787401575
147
0.875
148
0.000000001
170
     1
173
     1
178
     0
271
     2
272
     2
276
     2
284
    12
340
94
  0
ENDTAB
  0
TABLE
  2
BLOCK_RECORD
  5
1
330
0
100
AcDbSymbolTable
 70
     7
  0
BLOCK_RECORD
  5
1F
102
{ACAD_XDICTIONARY
360
1C0
102
}
330
1
100
AcDbSymbolTableRecord
100
AcDbBlockTableRecord
  2
*Model_Space
340
22
  0
BLOCK_RECORD
  5
1B
330
1
100
AcDbSymbolTableRecord
100
AcDbBlockTableRecord
  2
*Paper_Space
340
1E
  0
BLOCK_RECORD
  5
23
330
1
100
AcDbSymbolTableRecord
100
AcDbBlockTableRecord
  2
*Paper_Space0
340
26
  0
BLOCK_RECORD
  5
7F
330
1
100
AcDbSymbolTableRecord
100
AcDbBlockTableRecord
  2
블럭10
340
0
102
{BLKREFS
331
BE
102
}
  0
BLOCK_RECORD
  5
C7
330
1
100
AcDbSymbolTableRecord
100
AcDbBlockTableRecord
  2
_D
340
0
  0
BLOCK_RECORD
  5
DB
330
1
100
AcDbSymbolTableRecord
100
AcDbBlockTableRecord
  2
_D_1
340
0
  0
BLOCK_RECORD
  5
EF
330
1
100
AcDbSymbolTableRecord
100
AcDbBlockTableRecord
  2
_D_2
340
0
  0
BLOCK_RECORD
  5
104
330
1
100
AcDbSymbolTableRecord
100
AcDbBlockTableRecord
  2
_D_3
340
0
  0
BLOCK_RECORD
  5
11D
330
1
100
AcDbSymbolTableRecord
100
AcDbBlockTableRecord
  2
SW_DOWELSYMBOL_0
340
0
102
{BLKREFS
331
123
102
}
  0
ENDTAB
  0
ENDSEC
  0
SECTION
  2
BLOCKS
  0
BLOCK
  5
20
330
1F
100
AcDbEntity
  8
0
100
AcDbBlockBegin
  2
*Model_Space
 70
     0
 10
0.0
 20
0.0
 30
0.0
  3
*Model_Space
  1
*Model_Space
  0
ENDBLK
  5
21
330
1F
100
AcDbEntity
  8
0
100
AcDbBlockEnd
  0
BLOCK
  5
1C
330
1B
100
AcDbEntity
 67
     1
  8
0
100
AcDbBlockBegin
  2
*Paper_Space
 70
     0
 10
0.0
 20
0.0
 30
0.0
  3
*Paper_Space
  1
*Paper_Space
  0
ENDBLK
  5
1D
330
1B
100
AcDbEntity
 67
     1
  8
0
100
AcDbBlockEnd
  0
BLOCK
  5
24
330
23
100
AcDbEntity
  8
0
100
AcDbBlockBegin
  2
*Paper_Space0
 70
     0
 10
0.0
 20
0.0
 30
0.0
  3
*Paper_Space0
  1
*Paper_Space0
  0
ENDBLK
  5
25
330
23
100
AcDbEntity
  8
0
100
AcDbBlockEnd
  0
BLOCK
  5
80
330
7F
100
AcDbEntity
  8
0
100
AcDbBlockBegin
  2
블럭10
 70
     2
 10
0.0
 20
0.0
 30
0.0
  3
블럭10
  1
블럭10
  0
ELLIPSE
  5
82
330
7F
100
AcDbEntity
  8
중심선
100
AcDbEllipse
 10
20.54032771741204
 20
12.0471743016438
 30
0.0
 11
6.600054785286829
 21
-1.261213355974178E-13
 31
0.0
210
0.0
220
0.0
230
1.0
 40
0.636358354079598
 41
0.9219305317359503
 42
6.513795318482858
  0
ELLIPSE
  5
83
330
7F
100
AcDbEntity
  8
중심선
100
AcDbEllipse
 10
20.54032771746488
 20
12.04717430159265
 30
0.0
 11
3.960054785062283
 21
1.540847449632565E-10
 31
0.0
210
0.0
220
0.0
230
1.0
 40
0.3939339440162632
 41
1.131841032648279
 42
5.62031148352944
  0
LINE
  5
84
330
7F
100
AcDbEntity
  8
중심선
100
AcDbLine
 10
2.268634060543552
 20
16.24717430164393
 30
0.0
 11
5.714909304380834
 21
16.24717430164393
 31
0.0
  0
LINE
  5
85
330
7F
100
AcDbEntity
  8
중심선
100
AcDbLine
 10
5.245725140726316
 20
7.84717430164391
 30
0.0
 11
8.692000384563599
 21
7.84717430164391
 31
0.0
  0
LINE
  5
86
330
7F
100
AcDbEntity
  8
중심선
100
AcDbLine
 10
15.74043728645272
 20
16.24717430164393
 30
0.0
 11
8.692000384563599
 21
7.84717430164391
 31
0.0
  0
LINE
  5
87
330
7F
100
AcDbEntity
  8
중심선
100
AcDbLine
 10
0.1404042013395286
 20
13.71084872107135
 30
0.0
 11
3.58671253028996
 21
13.71088815037384
 31
0.0
  0
LINE
  5
88
330
7F
100
AcDbEntity
  8
중심선
100
AcDbLine
 10
2.750260043222114
 20
10.84717430164391
 30
0.0
 11
6.196535287059397
 21
10.84717430164391
 31
0.0
  0
LINE
  5
89
330
7F
100
AcDbEntity
  8
중심선
100
AcDbLine
 10
12.29416204261559
 20
16.24717430164393
 30
0.0
 11
5.245725140726316
 21
7.84717430164391
 31
0.0
  0
LINE
  5
8A
330
7F
100
AcDbEntity
  8
중심선
100
AcDbLine
 10
10.72767329541681
 20
16.24717430164393
 30
0.0
 11
6.196535287059397
 21
10.84717430164391
 31
0.0
  0
LINE
  5
8B
330
7F
100
AcDbEntity
  8
중심선
100
AcDbLine
 10
7.28139805157953
 20
16.24717430164393
 30
0.0
 11
2.750260043222114
 21
10.84717430164391
 31
0.0
  0
LINE
  5
8C
330
7F
100
AcDbEntity
  8
중심선
100
AcDbLine
 10
5.714909304380834
 20
16.24717430164393
 30
0.0
 11
3.58671253028996
 21
13.71088815037384
 31
0.0
  0
LINE
  5
8D
330
7F
100
AcDbEntity
  8
중심선
100
AcDbLine
 10
2.268634060543552
 20
16.24717430164393
 30
0.0
 11
0.1404042013395286
 21
13.71084872107135
 31
0.0
  0
LINE
  5
8E
330
7F
100
AcDbEntity
  8
중심선
100
AcDbLine
 10
7.28139805157953
 20
16.24717430164393
 30
0.0
 11
10.72767329541681
 21
16.24717430164393
 31
0.0
  0
LINE
  5
8F
330
7F
100
AcDbEntity
  8
중심선
100
AcDbLine
 10
12.29416204261559
 20
16.24717430164393
 30
0.0
 11
15.74043728645272
 21
16.24717430164393
 31
0.0
  0
LINE
  5
90
330
7F
100
AcDbEntity
  8
중심선
100
AcDbLine
 10
19.22036997980202
 20
11.08717430171403
 30
0.0
 11
23.66174974927406
 21
11.08717430171406
 31
0.0
  0
LINE
  5
91
330
7F
100
AcDbEntity
  8
중심선
100
AcDbLine
 10
19.22039502424796
 20
13.00717430171391
 30
0.0
 11
19.22036997980202
 21
11.08717430171403
 31
0.0
  0
LINE
  5
92
330
7F
100
AcDbEntity
  8
중심선
100
AcDbLine
 10
19.22039502424796
 20
13.00717430171391
 30
0.0
 11
26.96566020931264
 21
13.00717430171391
 31
0.0
  0
LINE
  5
93
330
7F
100
AcDbEntity
  8
중심선
100
AcDbLine
 10
22.22332737316547
 20
13.45928029700563
 30
0.0
 11
24.52862924686651
 21
15.39360700705356
 31
0.0
  0
ATTDEF
  5
95
330
7F
100
AcDbEntity
  8
FORMAT
 62
     2
100
AcDbText
 10
3.448148490846466
 20
2.075366912832191
 30
0.0
 40
4.233333333333333
  1
EM209912
 41
0.75
  7
SLDTEXTSTYLE0
 11
3.448148490846466
 21
-0.0412997538344756
 31
0.0
100
AcDbAttributeDefinition
  3

  2
AUTOATTR0
 70
     0
 74
     1
  0
ENDBLK
  5
81
330
7F
100
AcDbEntity
  8
0
100
AcDbBlockEnd
  0
BLOCK
  5
C8
330
C7
100
AcDbEntity
  8
0
100
AcDbBlockBegin
  2
_D
 70
     0
 10
0.0
 20
0.0
 30
0.0
  3
_D
  1
_D
  0
LINE
  5
CA
330
C7
100
AcDbEntity
  8
치수문자_일반주서
 62
     0
370
    -2
100
AcDbLine
 10
69.15
 20
12.76357492872394
 30
0.0
 11
69.15
 21
24.68185700922992
 31
0.0
  0
LINE
  5
CB
330
C7
100
AcDbEntity
  8
치수문자_일반주서
 62
     0
370
    -2
100
AcDbLine
 10
12.0
 20
12.76357492872388
 30
0.0
 11
12.0
 21
24.68185700922992
 31
0.0
  0
LINE
  5
CC
330
C7
100
AcDbEntity
  8
치수문자_일반주서
 62
     0
370
    -2
100
AcDbLine
 10
65.84800000000001
 20
24.68185700922992
 30
0.0
 11
15.302
 21
24.68185700922992
 31
0.0
  0
SOLID
  5
CD
330
C7
100
AcDbEntity
  8
치수문자_일반주서
 62
     0
100
AcDbTrace
 10
65.84800000000001
 20
24.13152367589658
 30
0.0
 11
65.84800000000001
 21
25.23219034256325
 31
0.0
 12
69.15
 22
24.68185700922992
 32
0.0
 13
69.15
 23
24.68185700922992
 33
0.0
  0
SOLID
  5
CE
330
C7
100
AcDbEntity
  8
치수문자_일반주서
 62
     0
100
AcDbTrace
 10
15.302
 20
25.23219034256325
 30
0.0
 11
15.302
 21
24.13152367589658
 31
0.0
 12
12.0
 22
24.68185700922992
 32
0.0
 13
12.0
 23
24.68185700922992
 33
0.0
  0
MTEXT
  5
CF
330
C7
100
AcDbEntity
  8
치수문자_일반주서
 62
     0
100
AcDbMText
 10
42.29193435451074
 20
29.05685700922992
 30
0.0
 40
3.5
 41
0.0
 71
     2
 72
     1
  1
\A1;57.15 [2 1/4]
  7
SLDTEXTSTYLE0
 73
     1
 44
1.0
  0
POINT
  5
D0
330
C7
100
AcDbEntity
  8
Defpoints
 62
     0
100
AcDbPoint
 10
69.15
 20
12.70107492872394
 30
0.0
  0
POINT
  5
D1
330
C7
100
AcDbEntity
  8
Defpoints
 62
     0
100
AcDbPoint
 10
12.0
 20
12.70107492872388
 30
0.0
  0
POINT
  5
D2
330
C7
100
AcDbEntity
  8
Defpoints
 62
     0
100
AcDbPoint
 10
12.0
 20
24.68185700922992
 30
0.0
  0
ENDBLK
  5
C9
330
C7
100
AcDbEntity
  8
0
100
AcDbBlockEnd
  0
BLOCK
  5
DC
330
DB
100
AcDbEntity
  8
0
100
AcDbBlockBegin
  2
_D_1
 70
     0
 10
0.0
 20
0.0
 30
0.0
  3
_D_1
  1
_D_1
  0
LINE
  5
DE
330
DB
100
AcDbEntity
  8
치수문자_일반주서
 62
     0
370
    -2
100
AcDbLine
 10
69.15
 20
12.76357492872394
 30
0.0
 11
69.15
 21
41.60284544168752
 31
0.0
  0
LINE
  5
DF
330
DB
100
AcDbEntity
  8
치수문자_일반주서
 62
     0
370
    -2
100
AcDbLine
 10
-57.85000000000002
 20
11.76357492872388
 30
0.0
 11
-57.85000000000002
 21
41.60284544168752
 31
0.0
  0
LINE
  5
E0
330
DB
100
AcDbEntity
  8
치수문자_일반주서
 62
     0
370
    -2
100
AcDbLine
 10
65.84800000000001
 20
41.60284544168752
 30
0.0
 11
-54.54800000000002
 21
41.60284544168752
 31
0.0
  0
SOLID
  5
E1
330
DB
100
AcDbEntity
  8
치수문자_일반주서
 62
     0
100
AcDbTrace
 10
65.84800000000001
 20
41.05251210835419
 30
0.0
 11
65.84800000000001
 21
42.15317877502086
 31
0.0
 12
69.15
 22
41.60284544168752
 32
0.0
 13
69.15
 23
41.60284544168752
 33
0.0
  0
SOLID
  5
E2
330
DB
100
AcDbEntity
  8
치수문자_일반주서
 62
     0
100
AcDbTrace
 10
-54.54800000000002
 20
42.15317877502086
 30
0.0
 11
-54.54800000000002
 21
41.05251210835419
 31
0.0
 12
-57.85000000000002
 22
41.60284544168752
 32
0.0
 13
-57.85000000000002
 23
41.60284544168752
 33
0.0
  0
MTEXT
  5
E3
330
DB
100
AcDbEntity
  8
치수문자_일반주서
 62
     0
100
AcDbMText
 10
5.650000000000002
 20
45.97784544168752
 30
0.0
 40
3.5
 41
0.0
 71
     2
 72
     1
  1
\A1;127.00 [5]
  7
SLDTEXTSTYLE0
 73
     1
 44
1.0
  0
POINT
  5
E4
330
DB
100
AcDbEntity
  8
Defpoints
 62
     0
100
AcDbPoint
 10
69.15
 20
12.70107492872394
 30
0.0
  0
POINT
  5
E5
330
DB
100
AcDbEntity
  8
Defpoints
 62
     0
100
AcDbPoint
 10
-57.85000000000002
 20
11.70107492872388
 30
0.0
  0
POINT
  5
E6
330
DB
100
AcDbEntity
  8
Defpoints
 62
     0
100
AcDbPoint
 10
-57.85000000000002
 20
41.60284544168752
 30
0.0
  0
ENDBLK
  5
DD
330
DB
100
AcDbEntity
  8
0
100
AcDbBlockEnd
  0
BLOCK
  5
F0
330
EF
100
AcDbEntity
  8
0
100
AcDbBlockBegin
  2
_D_2
 70
     0
 10
0.0
 20
0.0
 30
0.0
  3
_D_2
  1
_D_2
  0
LINE
  5
F2
330
EF
100
AcDbEntity
  8
치수문자_일반주서
 62
     0
370
    -2
100
AcDbLine
 10
-56.91250000000002
 20
12.70107492872388
 30
0.0
 11
-70.28000000000006
 21
12.70107492872383
 31
0.0
  0
LINE
  5
F3
330
EF
100
AcDbEntity
  8
치수문자_일반주서
 62
     0
370
    -2
100
AcDbLine
 10
-56.91250000000002
 20
-12.69892507127612
 30
0.0
 11
-70.27999999999997
 21
-12.69892507127617
 31
0.0
  0
LINE
  5
F4
330
EF
100
AcDbEntity
  8
치수문자_일반주서
 62
     0
370
    -2
100
AcDbLine
 10
-70.28000000000004
 20
9.399074928723833
 30
0.0
 11
-70.27999999999999
 21
-9.396925071276174
 31
0.0
  0
SOLID
  5
F5
330
EF
100
AcDbEntity
  8
치수문자_일반주서
 62
     0
100
AcDbTrace
 10
-69.72966666666672
 20
9.399074928723834
 30
0.0
 11
-70.83033333333337
 21
9.39907492872383
 31
0.0
 12
-70.28000000000006
 22
12.70107492872383
 32
0.0
 13
-70.28000000000006
 23
12.70107492872383
 33
0.0
  0
SOLID
  5
F6
330
EF
100
AcDbEntity
  8
치수문자_일반주서
 62
     0
100
AcDbTrace
 10
-70.83033333333331
 20
-9.396925071276176
 30
0.0
 11
-69.72966666666666
 21
-9.396925071276172
 31
0.0
 12
-70.27999999999997
 22
-12.69892507127617
 32
0.0
 13
-70.27999999999997
 23
-12.69892507127617
 33
0.0
  0
MTEXT
  5
F7
330
EF
100
AcDbEntity
  8
치수문자_일반주서
 62
     0
100
AcDbMText
 10
-74.65500000000002
 20
0.0010749287238691
 30
0.0
 40
3.5
 41
0.0
 71
     2
 72
     1
  1
\A1;%%c25.40 [1]
  7
SLDTEXTSTYLE0
 11
-3.356894814614646E-15
 21
1.0
 31
0.0
 73
     1
 44
1.0
  0
POINT
  5
F8
330
EF
100
AcDbEntity
  8
Defpoints
 62
     0
100
AcDbPoint
 10
-56.85000000000002
 20
12.70107492872388
 30
0.0
  0
POINT
  5
F9
330
EF
100
AcDbEntity
  8
Defpoints
 62
     0
100
AcDbPoint
 10
-56.85000000000002
 20
-12.69892507127612
 30
0.0
  0
POINT
  5
FA
330
EF
100
AcDbEntity
  8
Defpoints
 62
     0
100
AcDbPoint
 10
-70.27999999999997
 20
-12.69892507127617
 30
0.0
  0
ENDBLK
  5
F1
330
EF
100
AcDbEntity
  8
0
100
AcDbBlockEnd
  0
BLOCK
  5
105
330
104
100
AcDbEntity
  8
0
100
AcDbBlockBegin
  2
_D_3
 70
     0
 10
0.0
 20
0.0
 30
0.0
  3
_D_3
  1
_D_3
  0
LINE
  5
107
330
104
100
AcDbEntity
  8
치수문자_일반주서
 62
     0
370
    -2
100
AcDbLine
 10
69.21250000000005
 20
12.70107492872394
 30
0.0
 11
77.03750000000008
 21
12.70107492872397
 31
0.0
  0
LINE
  5
108
330
104
100
AcDbEntity
  8
치수문자_일반주서
 62
     0
370
    -2
100
AcDbLine
 10
69.21250000000002
 20
-12.69892507127606
 30
0.0
 11
77.03750000000016
 21
-12.69892507127603
 31
0.0
  0
LINE
  5
109
330
104
100
AcDbEntity
  8
치수문자_일반주서
 62
     0
370
    -2
100
AcDbLine
 10
77.03750000000008
 20
12.70107492872397
 30
0.0
 11
77.03749999999997
 21
46.52877605973327
 31
0.0
  0
LINE
  5
10A
330
104
100
AcDbEntity
  8
치수문자_일반주서
 62
     0
370
    -2
100
AcDbLine
 10
77.03750000000008
 20
12.70107492872397
 30
0.0
 11
77.03750000000016
 21
-12.69892507127603
 31
0.0
  0
LINE
  5
10B
330
104
100
AcDbEntity
  8
치수문자_일반주서
 62
     0
370
    -2
100
AcDbLine
 10
77.03750000000007
 20
16.00307492872397
 30
0.0
 11
77.03750000000005
 21
19.30507492872397
 31
0.0
  0
LINE
  5
10C
330
104
100
AcDbEntity
  8
치수문자_일반주서
 62
     0
370
    -2
100
AcDbLine
 10
77.03750000000018
 20
-16.00092507127603
 30
0.0
 11
77.0375000000002
 21
-19.30292507127603
 31
0.0
  0
SOLID
  5
10D
330
104
100
AcDbEntity
  8
치수문자_일반주서
 62
     0
100
AcDbTrace
 10
76.48716666666674
 20
16.00307492872397
 30
0.0
 11
77.58783333333339
 21
16.00307492872397
 31
0.0
 12
77.03750000000008
 22
12.70107492872397
 32
0.0
 13
77.03750000000008
 23
12.70107492872397
 33
0.0
  0
SOLID
  5
10E
330
104
100
AcDbEntity
  8
치수문자_일반주서
 62
     0
100
AcDbTrace
 10
77.5878333333335
 20
-16.00092507127603
 30
0.0
 11
76.48716666666685
 21
-16.00092507127603
 31
0.0
 12
77.03750000000016
 22
-12.69892507127603
 32
0.0
 13
77.03750000000016
 23
-12.69892507127603
 33
0.0
  0
MTEXT
  5
10F
330
104
100
AcDbEntity
  8
치수문자_일반주서
 62
     0
100
AcDbMText
 10
72.66250000000001
 20
35.37252605973325
 30
0.0
 40
3.5
 41
0.0
 71
     2
 72
     1
  1
\A1;%%c25.40 [1]
  7
SLDTEXTSTYLE0
 11
-3.356894814614647E-15
 21
1.0
 31
0.0
 73
     1
 44
1.0
  0
POINT
  5
110
330
104
100
AcDbEntity
  8
Defpoints
 62
     0
100
AcDbPoint
 10
69.15000000000005
 20
12.70107492872394
 30
0.0
  0
POINT
  5
178
330
104
100
AcDbEntity
  8
Defpoints
 62
     0
100
AcDbPoint
 10
69.15000000000002
 20
-12.69892507127606
 30
0.0
  0
POINT
  5
179
330
104
100
AcDbEntity
  8
Defpoints
 62
     0
100
AcDbPoint
 10
77.03750000000016
 20
-12.69892507127603
 30
0.0
  0
ENDBLK
  5
106
330
104
100
AcDbEntity
  8
0
100
AcDbBlockEnd
  0
BLOCK
  5
11E
330
11D
100
AcDbEntity
  8
0
100
AcDbBlockBegin
  2
SW_DOWELSYMBOL_0
 70
     0
 10
0.0
 20
0.0
 30
0.0
  3
SW_DOWELSYMBOL_0
  1
SW_DOWELSYMBOL_0
  0
CIRCLE
  5
120
330
11D
100
AcDbEntity
  8
해칭선
 62
     0
100
AcDbCircle
 10
0.0
 20
0.0
 30
0.0
 40
3.000000000000001
  0
HATCH
  5
121
330
11D
100
AcDbEntity
  8
0
  6
Continuous
 62
     0
370
     0
100
AcDbHatch
 10
0.0
 20
0.0
 30
0.0
210
0.0
220
0.0
230
1.0
  2
SOLID
 70
     1
 71
     0
 91
        1
 92
        0
 93
        3
 72
     2
 10
0.0000000000007581
 20
0.0
 40
3.000000000000001
 50
0.0
 51
90.0
 73
     1
 72
     1
 10
0.0000000000007581
 20
3.000000000000001
 11
0.0000000000007581
 21
0.0
 72
     1
 10
0.0000000000007581
 20
0.0
 11
3.000000000000759
 21
0.0
 97
        0
 75
     0
 76
     1
 98
        1
 10
0.0
 20
0.0
  0
HATCH
  5
122
330
11D
100
AcDbEntity
  8
0
  6
Continuous
 62
     0
370
     0
100
AcDbHatch
 10
0.0
 20
0.0
 30
0.0
210
0.0
220
0.0
230
1.0
  2
SOLID
 70
     1
 71
     0
 91
        1
 92
        0
 93
        3
 72
     2
 10
0.0000000000007581
 20
0.0
 40
3.000000000000001
 50
180.0
 51
270.0000000000007
 73
     1
 72
     1
 10
0.0000000000007581
 20
-3.000000000000001
 11
0.0000000000007581
 21
0.0
 72
     1
 10
0.0000000000007581
 20
0.0
 11
-2.999999999999243
 21
0.0
 97
        0
 75
     0
 76
     1
 98
        1
 10
0.0
 20
0.0
  0
ENDBLK
  5
11F
330
11D
100
AcDbEntity
  8
0
100
AcDbBlockEnd
  0
ENDSEC
  0
SECTION
  2
ENTITIES
  0
LINE
  5
96
330
1F
100
AcDbEntity
  8
외형선
  6
Continuous
370
    15
100
AcDbLine
 10
11.99999999999999
 20
12.70107492872389
 30
0.0
 11
-56.85000000000002
 21
12.70107492872388
 31
0.0
  0
LINE
  5
97
330
1F
100
AcDbEntity
  8
외형선
  6
Continuous
370
    15
100
AcDbLine
 10
-56.85000000000002
 20
-12.69892507127611
 30
0.0
 11
12.0
 21
-12.69892507127611
 31
0.0
  0
LINE
  5
98
330
1F
100
AcDbEntity
  8
외형선
  6
Continuous
370
    15
100
AcDbLine
 10
-56.85000000000002
 20
12.70107492872388
 30
0.0
 11
-57.85000000000002
 21
11.70107492872388
 31
0.0
  0
LINE
  5
99
330
1F
100
AcDbEntity
  8
외형선
  6
Continuous
370
    15
100
AcDbLine
 10
-57.85000000000002
 20
-11.69892507127612
 30
0.0
 11
-56.85000000000002
 21
-12.69892507127611
 31
0.0
  0
LINE
  5
9A
330
1F
100
AcDbEntity
  8
0
  6
Continuous
 62
     1
370
    15
100
AcDbLine
 10
53.90965550410164
 20
-12.69892507127611
 30
0.0
 11
56.44999999999999
 21
-12.69892507127611
 31
0.0
  0
LINE
  5
9B
330
1F
100
AcDbEntity
  8
외형선
  6
Continuous
370
    15
100
AcDbLine
 10
12.40764734301395
 20
12.70107492872389
 30
0.0
 11
12.0
 21
12.70107492872389
 31
0.0
  0
ARC
  5
9C
330
1F
100
AcDbEntity
  8
0
  6
Continuous
 62
     1
370
    15
100
AcDbCircle
 10
56.44999999999999
 20
0.0010749287238931
 30
0.0
 40
12.70000000000001
100
AcDbArc
 50
270.0000000000007
 51
0.0
  0
ARC
  5
9D
330
1F
100
AcDbEntity
  8
0
  6
Continuous
 62
     1
370
    15
100
AcDbCircle
 10
56.44999999999999
 20
0.0010749287238931
 30
0.0
 40
12.70000000000001
100
AcDbArc
 50
0.0
 51
90.0
  0
LINE
  5
9E
330
1F
100
AcDbEntity
  8
외형선
  6
Continuous
370
    15
100
AcDbLine
 10
12.0
 20
-12.69892507127611
 30
0.0
 11
12.40764734301393
 21
-12.69892507127611
 31
0.0
  0
LINE
  5
9F
330
1F
100
AcDbEntity
  8
0
  6
Continuous
 62
     1
370
    15
100
AcDbLine
 10
56.44999999999999
 20
12.70107492872389
 30
0.0
 11
53.91027339649472
 21
12.70107492872389
 31
0.0
  0
LINE
  5
A0
330
1F
100
AcDbEntity
  8
외형선
  6
Continuous
370
    15
100
AcDbLine
 10
11.99999999999999
 20
12.70107492872389
 30
0.0
 11
12.0
 21
4.169514233832997
 31
0.0
  0
SPLINE
  5
A1
330
1F
100
AcDbEntity
  8
외형선
  6
Continuous
370
    15
100
AcDbSpline
210
0.0
220
0.0
230
1.0
 70
     8
 71
     3
 72
    10
 73
     6
 74
     0
 42
0.000000001
 43
0.00000001
 40
0.0
 40
0.0
 40
0.0
 40
0.0
 40
0.4999999999999999
 40
0.4999999999999999
 40
1.0
 40
1.0
 40
1.0
 40
1.0
 10
8.949971796765952
 20
5.787825108578438
 30
0.0
 10
9.459279903815773
 20
5.526363160026403
 30
0.0
 10
9.968812209951068
 20
5.260214698923233
 30
0.0
 10
10.98465559515961
 20
4.720486378604133
 30
0.0
 10
11.49113654173057
 20
4.446886061334285
 30
0.0
 10
11.99999999999999
 20
4.169514233833111
 30
0.0
  0
SPLINE
  5
A2
330
1F
100
AcDbEntity
  8
외형선
  6
Continuous
370
    15
100
AcDbSpline
210
0.0
220
0.0
230
1.0
 70
     8
 71
     3
 72
    10
 73
     6
 74
     0
 42
0.000000001
 43
0.00000001
 40
0.0
 40
0.0
 40
0.0
 40
0.0
 40
0.5
 40
0.5
 40
1.0
 40
1.0
 40
1.0
 40
1.0
 10
12.0
 20
-12.69673901072683
 30
0.0
 10
11.49112577141142
 20
-12.69129086007518
 30
0.0
 10
10.98463416248987
 20
-12.67568152293491
 30
0.0
 10
9.968769140298871
 20
-12.6241748315445
 30
0.0
 10
9.459225986093966
 20
-12.58824951411827
 30
0.0
 10
8.949907118385118
 20
-12.54225418471387
 30
0.0
  0
LINE
  5
A3
330
1F
100
AcDbEntity
  8
외형선
  6
Continuous
370
    15
100
AcDbLine
 10
12.0
 20
-12.69673901072683
 30
0.0
 11
12.0
 21
-12.69892507127611
 31
0.0
  0
LINE
  5
A4
330
1F
100
AcDbEntity
  8
외형선
  6
Continuous
370
    15
100
AcDbLine
 10
-56.85000000000002
 20
12.70107492872388
 30
0.0
 11
-56.85000000000002
 21
-12.69892507127613
 31
0.0
  0
LINE
  5
A5
330
1F
100
AcDbEntity
  8
외형선
  6
Continuous
370
    15
100
AcDbLine
 10
8.949907118385118
 20
-12.54226022802285
 30
0.0
 11
8.949907118385115
 21
5.788421740939943
 31
0.0
  0
LINE
  5
A6
330
1F
100
AcDbEntity
  8
외형선
  6
Continuous
370
    15
100
AcDbLine
 10
-57.85000000000002
 20
11.70107492872389
 30
0.0
 11
-57.85000000000002
 21
-11.69892507127612
 31
0.0
  0
SPLINE
  5
A7
330
1F
100
AcDbEntity
  8
외형선
  6
Continuous
370
    15
100
AcDbSpline
210
0.0
220
0.0
230
1.0
 70
     8
 71
     3
 72
    10
 73
     6
 74
     0
 42
0.000000001
 43
0.00000001
 40
0.0
 40
0.0
 40
0.0
 40
0.0
 40
0.5
 40
0.5
 40
1.0
 40
1.0
 40
1.0
 40
1.0
 10
12.00000000000001
 20
-4.471765498498925
 30
0.0
 10
11.49112577141143
 20
-4.300615792886623
 30
0.0
 10
10.98463416248987
 20
-4.126151057438683
 30
0.0
 10
9.96876914029887
 20
-3.770567597055338
 30
0.0
 10
9.459225986093966
 20
-3.58942106972962
 30
0.0
 10
8.949907118385115
 20
-3.405564494673678
 30
0.0
  0
SPLINE
  5
A8
330
1F
100
AcDbEntity
  8
외형선
  6
Continuous
370
    15
100
AcDbSpline
210
0.0
220
0.0
230
1.0
 70
    24
 71
     3
 72
    18
 73
    14
 74
     0
 42
0.000000001
 43
0.00000001
 40
0.0
 40
0.0
 40
0.0
 40
0.0
 40
0.125
 40
0.125
 40
0.2499999999999999
 40
0.2499999999999999
 40
0.3749999999999999
 40
0.3749999999999999
 40
0.4999999999999998
 40
0.4999999999999998
 40
0.7499999999999999
 40
0.7499999999999999
 40
1.0
 40
1.0
 40
1.0
 40
1.0
 10
11.99999999999999
 20
4.169514233833104
 30
0.0
 10
11.99999999999999
 20
3.982184351129315
 30
0.0
 10
11.99999999999999
 20
3.749829908264052
 30
0.0
 10
11.99999999999999
 20
3.205266863732864
 30
0.0
 10
11.99999999999999
 20
2.893147276773964
 30
0.0
 10
11.99999999999999
 20
2.208043617553629
 30
0.0
 10
11.99999999999999
 20
1.835205363987532
 30
0.0
 10
11.99999999999999
 20
1.05276581953042
 30
0.0
 10
11.99999999999999
 20
0.6433114268835796
 30
0.0
 10
12.0
 20
-0.6032943550619956
 30
0.0
 10
12.0
 20
-1.455604746276242
 30
0.0
 10
12.0
 20
-3.055862266272114
 30
0.0
 10
12.0
 20
-3.804013724057905
 30
0.0
 10
12.0
 20
-4.47176549849893
 30
0.0
  0
SPLINE
  5
A9
330
1F
100
AcDbEntity
  8
외형선
  6
Continuous
370
    15
100
AcDbSpline
210
0.0
220
0.0
230
1.0
 70
    24
 71
     3
 72
    20
 73
    16
 74
     0
 42
0.000000001
 43
0.00000001
 40
0.0
 40
0.0
 40
0.0
 40
0.0
 40
0.2499999999999998
 40
0.2499999999999998
 40
0.3749999999999998
 40
0.3749999999999998
 40
0.4999999999999998
 40
0.4999999999999998
 40
0.6249999999999997
 40
0.6249999999999997
 40
0.7499999999999998
 40
0.7499999999999998
 40
0.8749999999999999
 40
0.8749999999999999
 40
1.0
 40
1.0
 40
1.0
 40
1.0
 10
12.0
 20
-4.471765498498923
 30
0.0
 10
12.0
 20
-4.570984693484011
 30
0.0
 10
12.0
 20
-4.782364731842223
 30
0.0
 10
12.0
 20
-5.346178409679165
 30
0.0
 10
12.0
 20
-5.575129553719048
 30
0.0
 10
12.0
 20
-6.12235189007865
 30
0.0
 10
12.0
 20
-6.44073827723943
 30
0.0
 10
12.0
 20
-7.165933216661545
 30
0.0
 10
12.0
 20
-7.572799913690771
 30
0.0
 10
12.0
 20
-8.462807490696678
 30
0.0
 10
12.0
 20
-8.945898612819043
 30
0.0
 10
12.0
 20
-9.964658448993234
 30
0.0
 10
12.0
 20
-10.50016150254888
 30
0.0
 10
12.0
 20
-11.59176167394599
 30
0.0
 10
12.0
 20
-12.14763273042589
 30
0.0
 10
12.0
 20
-12.69673901071971
 30
0.0
  0
SPLINE
  5
AA
330
1F
100
AcDbEntity
  8
0
  6
Continuous
 62
     1
370
    15
100
AcDbSpline
210
0.0
220
0.0
230
1.0
 70
     8
 71
     3
 72
    14
 73
    10
 74
     0
 42
0.000000001
 43
0.00000001
 40
0.0
 40
0.0
 40
0.0
 40
0.0
 40
0.0218946248321792
 40
0.1799244834337732
 40
0.3379553973442715
 40
0.4959871326938782
 40
0.6639940613049496
 40
0.8320002386213048
 40
0.9999999999999999
 40
0.9999999999999999
 40
0.9999999999999999
 40
0.9999999999999999
 10
35.80993761112056
 20
-8.619346612156082
 30
0.0
 10
35.63617052968416
 20
-8.62794115732811
 30
0.0
 10
34.20819665002732
 20
-8.69856895352365
 30
0.0
 10
31.52600714561281
 20
-8.589974276051757
 30
0.0
 10
27.76334734229006
 20
-8.277634327122044
 30
0.0
 10
23.92155338960448
 20
-7.687897162777775
 30
0.0
 10
20.00038759740238
 20
-6.848424200153199
 30
0.0
 10
16.00016087623866
 20
-5.774856247982281
 30
0.0
 10
13.33336998487549
 20
-4.906123552258951
 30
0.0
 10
12.00000000000002
 20
-4.471765498498931
 30
0.0
  0
SPLINE
  5
AB
330
1F
100
AcDbEntity
  8
외형선
  6
Continuous
370
    15
100
AcDbSpline
210
0.0
220
0.0
230
1.0
 70
    24
 71
     3
 72
    18
 73
    14
 74
     0
 42
0.000000001
 43
0.00000001
 40
0.0
 40
0.0
 40
0.0
 40
0.0
 40
0.125
 40
0.125
 40
0.2499999999999999
 40
0.2499999999999999
 40
0.3749999999999999
 40
0.3749999999999999
 40
0.4999999999999998
 40
0.4999999999999998
 40
0.7499999999999999
 40
0.7499999999999999
 40
1.0
 40
1.0
 40
1.0
 40
1.0
 10
12.0
 20
4.169514233833098
 30
0.0
 10
12.0
 20
3.982184351129307
 30
0.0
 10
12.0
 20
3.749829908264044
 30
0.0
 10
12.0
 20
3.205266863732855
 30
0.0
 10
12.0
 20
2.893147276773956
 30
0.0
 10
12.0
 20
2.208043617553621
 30
0.0
 10
12.0
 20
1.835205363987524
 30
0.0
 10
12.0
 20
1.052765819530412
 30
0.0
 10
12.0
 20
0.6433114268835719
 30
0.0
 10
12.0
 20
-0.6032943550620021
 30
0.0
 10
12.0
 20
-1.455604746276248
 30
0.0
 10
12.00000000000001
 20
-3.055862266272119
 30
0.0
 10
12.00000000000001
 20
-3.804013724057908
 30
0.0
 10
12.00000000000001
 20
-4.471765498498933
 30
0.0
  0
SPLINE
  5
AC
330
1F
100
AcDbEntity
  8
0
  6
Continuous
 62
     1
370
    15
100
AcDbSpline
210
0.0
220
0.0
230
1.0
 70
     8
 71
     3
 72
    24
 73
    20
 74
     0
 42
0.000000001
 43
0.00000001
 40
0.0
 40
0.0
 40
0.0
 40
0.0
 40
0.0535423230241538
 40
0.1070846653231057
 40
0.161189407992005
 40
0.2152941182094054
 40
0.2687670688136734
 40
0.3223790969558531
 40
0.4096133125685029
 40
0.4974549944327755
 40
0.5845248322624761
 40
0.6721985769835195
 40
0.7197367697029442
 40
0.7672749949114614
 40
0.8152068298294579
 40
0.8631386886076163
 40
0.9122909027280764
 40
0.9614431348512126
 40
1.0
 40
1.0
 40
1.0
 40
1.0
 10
11.99999999999999
 20
4.16951423383311
 30
0.0
 10
12.74792869043578
 20
3.757409847466159
 30
0.0
 10
14.24378634055555
 20
2.933200926378051
 30
0.0
 10
16.49566668992643
 20
1.650834816690958
 30
0.0
 10
18.75548185640022
 20
0.3497667222734253
 30
0.0
 10
21.01402741677544
 20
-0.9557473062853443
 30
0.0
 10
23.26517820465787
 20
-2.24790925289706
 30
0.0
 10
25.97987137803205
 20
-3.775622760644057
 30
0.0
 10
29.17507940708659
 20
-5.506614744754049
 30
0.0
 10
32.83766937558978
 20
-7.337814273202508
 30
0.0
 10
36.50623266889414
 20
-8.968558676042187
 30
0.0
 10
39.61235480590113
 20
-10.13862662594479
 30
0.0
 10
42.16455466077933
 20
-10.94646794712692
 30
0.0
 10
44.16251974291572
 20
-11.48828311465675
 30
0.0
 10
46.16532538265035
 20
-11.93656973707373
 30
0.0
 10
48.19130936529215
 20
-12.29036851231437
 30
0.0
 10
50.23383630599974
 20
-12.53809377463343
 30
0.0
 10
52.14586448250013
 20
-12.68043876031357
 30
0.0
 10
53.37106021470815
 20
-12.68642058069481
 30
0.0
 10
53.90965550410164
 20
-12.68905018525075
 30
0.0
  0
SPLINE
  5
AD
330
1F
100
AcDbEntity
  8
0
  6
Continuous
 62
     1
370
    15
100
AcDbSpline
210
0.0
220
0.0
230
1.0
 70
     8
 71
     3
 72
    20
 73
    16
 74
     0
 42
0.000000001
 43
0.00000001
 40
0.0
 40
0.0
 40
0.0
 40
0.0
 40
0.0807346126101081
 40
0.1614692683816762
 40
0.2422039988449461
 40
0.3229388355252744
 40
0.4036738099410712
 40
0.4844089536017386
 40
0.5651442980056126
 40
0.6391514297161172
 40
0.7131667331665088
 40
0.7871933527147942
 40
0.8612254523658402
 40
0.9352455977359461
 40
1.0
 40
1.0
 40
1.0
 40
1.0
 10
56.44999999999999
 20
-5.308656079318799
 30
0.0
 10
55.26474302455942
 20
-4.673632012837541
 30
0.0
 10
52.89422844002907
 20
-3.40358354038537
 30
0.0
 10
49.33845486890095
 20
-1.372638785524788
 30
0.0
 10
45.7826768507592
 20
0.6841852137485647
 30
0.0
 10
42.22689511761092
 20
2.725862958839409
 30
0.0
 10
38.67109900986633
 20
4.695777155988432
 30
0.0
 10
35.11532043958768
 20
6.5434853031836
 30
0.0
 10
31.65821441458161
 20
8.173915176560861
 30
0.0
 10
28.30009605498251
 20
9.564013981064853
 30
0.0
 10
25.04029691870105
 20
10.70312765105525
 30
0.0
 10
21.7800452331915
 20
11.60958178649861
 30
0.0
 10
18.51963245742014
 20
12.25438414120815
 30
0.0
 10
15.3954984110314
 20
12.64057957445124
 30
0.0
 10
13.35825663009691
 20
12.67143767932559
 30
0.0
 10
12.40764734301395
 20
12.68583655988551
 30
0.0
  0
SPLINE
  5
AE
330
1F
100
AcDbEntity
  8
0
  6
Continuous
 62
     1
370
    15
100
AcDbSpline
210
0.0
220
0.0
230
1.0
 70
     8
 71
     3
 72
    17
 73
    13
 74
     0
 42
0.000000001
 43
0.00000001
 40
0.0
 40
0.0
 40
0.0
 40
0.0
 40
0.1110744515291924
 40
0.2221494651293665
 40
0.3332321376985409
 40
0.4408594452675301
 40
0.5484882658127961
 40
0.6561184408731975
 40
0.763749811771841
 40
0.8713822196412686
 40
0.9790155054487021
 40
1.0
 40
1.0
 40
1.0
 40
1.0
 10
65.75012206022353
 20
1.332316499624124
 30
0.0
 10
64.45582605604945
 20
1.831183317985733
 30
0.0
 10
61.8672274981643
 20
2.828919479128911
 30
0.0
 10
57.98424742380495
 20
4.226566303881795
 30
0.0
 10
54.14138298701168
 20
5.482661235247456
 30
0.0
 10
50.33871739407483
 20
6.560014030885971
 30
0.0
 10
46.57626449127542
 20
7.435180299602197
 30
0.0
 10
42.81376290901132
 20
8.091763681501588
 30
0.0
 10
39.05121459446934
 20
8.518063217135225
 30
0.0
 10
35.28862652143366
 20
8.674038365699767
 30
0.0
 10
32.53569752762622
 20
8.662343319748327
 30
0.0
 10
31.03696471433393
 20
8.52375520256267
 30
0.0
 10
30.79244058659152
 20
8.501144008512783
 30
0.0
  0
SPLINE
  5
AF
330
1F
100
AcDbEntity
  8
0
  6
Continuous
 62
     1
370
    15
100
AcDbSpline
210
0.0
220
0.0
230
1.0
 70
     8
 71
     3
 72
    38
 73
    34
 74
     0
 42
0.000000001
 43
0.00000001
 40
0.0
 40
0.0
 40
0.0
 40
0.0
 40
0.1249999999999988
 40
0.1249999999999988
 40
0.1874999999999978
 40
0.1874999999999978
 40
0.2499999999999968
 40
0.2499999999999968
 40
0.3749999999999947
 40
0.3749999999999947
 40
0.4374999999999935
 40
0.4374999999999935
 40
0.4687499999999933
 40
0.4687499999999933
 40
0.4999999999999932
 40
0.4999999999999932
 40
0.5624999999999938
 40
0.5624999999999938
 40
0.6249999999999942
 40
0.6249999999999942
 40
0.6874999999999948
 40
0.6874999999999948
 40
0.7187499999999952
 40
0.7187499999999952
 40
0.7499999999999957
 40
0.7499999999999957
 40
0.8124999999999968
 40
0.8124999999999968
 40
0.8749999999999979
 40
0.8749999999999979
 40
0.9374999999999989
 40
0.9374999999999989
 40
1.0
 40
1.0
 40
1.0
 40
1.0
 10
56.44999999999999
 20
-5.30865607931893
 30
0.0
 10
57.15548047883181
 20
-5.678237348328219
 30
0.0
 10
57.84942989171517
 20
-6.009777670531927
 30
0.0
 10
58.88756783607016
 20
-6.429380771622505
 30
0.0
 10
59.23332165612186
 20
-6.555918667517805
 30
0.0
 10
59.92702633629761
 20
-6.777093474337603
 30
0.0
 10
60.2765443853875
 20
-6.871941685864006
 30
0.0
 10
61.31070956807324
 20
-7.092977096901985
 30
0.0
 10
61.98610089883068
 20
-7.161308057613716
 30
0.0
 10
63.00235873733252
 20
-7.08584265055978
 30
0.0
 10
63.33498698830837
 20
-7.030843206177237
 30
0.0
 10
63.8248761250199
 20
-6.895649389929771
 30
0.0
 10
63.98678247050808
 20
-6.841742516309426
 30
0.0
 10
64.30819443298701
 20
-6.713887393057147
 30
0.0
 10
64.46835680725829
 20
-6.639496651594651
 30
0.0
 10
64.93549025838352
 20
-6.387157350126266
 30
0.0
 10
65.23210856129349
 20
-6.17997327461255
 30
0.0
 10
65.79378817782016
 20
-5.666179244666965
 30
0.0
 10
66.04631811678851
 20
-5.370521686161608
 30
0.0
 10
66.48658119159701
 20
-4.692863332136602
 30
0.0
 10
66.66344072123465
 20
-4.32668956915653
 30
0.0
 10
66.85966030325888
 20
-3.746063735663512
 30
0.0
 10
66.91274994419364
 20
-3.548960013486929
 30
0.0
 10
66.99355518728161
 20
-3.157298827786936
 30
0.0
 10
67.021768432612
 20
-2.961274388846104
 30
0.0
 10
67.0718078626915
 20
-2.372223559273565
 30
0.0
 10
67.05813890958966
 20
-1.992839343065805
 30
0.0
 10
66.95675568774368
 20
-1.258345192528301
 30
0.0
 10
66.86771806009408
 20
-0.9006399882175441
 30
0.0
 10
66.63441004135227
 20
-0.2228364808138243
 30
0.0
 10
66.48972601641209
 20
0.1010749452657495
 30
0.0
 10
66.15348731412455
 20
0.7298711190497054
 30
0.0
 10
65.96118192236966
 20
1.035481916221664
 30
0.0
 10
65.75012206021563
 20
1.332316499627217
 30
0.0
  0
SPLINE
  5
B0
330
1F
100
AcDbEntity
  8
0
  6
Continuous
 62
     1
370
    15
100
AcDbSpline
210
0.0
220
0.0
230
1.0
 70
     8
 71
     3
 72
    14
 73
    10
 74
     0
 42
0.000000001
 43
0.00000001
 40
0.0
 40
0.0
 40
0.0
 40
0.0
 40
0.25
 40
0.25
 40
0.5
 40
0.5
 40
0.75
 40
0.75
 40
1.0
 40
1.0
 40
1.0
 40
1.0
 10
65.75012206021555
 20
1.332316499627233
 30
0.0
 10
65.89621988132524
 20
1.420225560382973
 30
0.0
 10
66.02635432612668
 20
1.529274701441863
 30
0.0
 10
66.25460300557856
 20
1.790855187937589
 30
0.0
 10
66.35346477313963
 20
1.945873314746389
 30
0.0
 10
66.50936337027044
 20
2.285531781550532
 30
0.0
 10
66.567685494037
 20
2.4706131782305
 30
0.0
 10
66.64747993448918
 20
2.868210060191721
 30
0.0
 10
66.66801078085886
 20
3.077446070586337
 30
0.0
 10
66.67155694983843
 20
3.290250384897481
 30
0.0
  0
ARC
  5
B1
330
1F
100
AcDbEntity
  8
0
  6
Continuous
 62
     1
370
    15
100
AcDbCircle
 10
63.07388734995059
 20
-2.206602520914839
 30
0.0
 40
6.569521932233433
100
AcDbArc
 50
23.8412483480307
 51
56.79540347456499
  0
ARC
  5
B2
330
1F
100
AcDbEntity
  8
0
  6
Continuous
 62
     1
370
    15
100
AcDbCircle
 10
57.72019735392615
 20
0.2309609913395393
 30
0.0
 40
11.36471588359075
100
AcDbArc
 50
1.098433418891709
 51
71.1276855602209
  0
SPLINE
  5
B3
330
1F
100
AcDbEntity
  8
0
  6
Continuous
 62
     1
370
    15
100
AcDbSpline
210
0.0
220
0.0
230
1.0
 70
     8
 71
     3
 72
    12
 73
     8
 74
     0
 42
0.000000001
 43
0.00000001
 40
0.0
 40
0.0
 40
0.0
 40
0.0
 40
0.25
 40
0.25
 40
0.5
 40
0.5
 40
1.0
 40
1.0
 40
1.0
 40
1.0
 10
61.3962309447845
 20
10.98472982620021
 30
0.0
 10
61.00332419883395
 20
11.22432452140099
 30
0.0
 10
60.60320949798369
 20
11.43860292690658
 30
0.0
 10
59.79633016331475
 20
11.81473792187611
 30
0.0
 10
59.3884807168759
 20
11.97724920676057
 30
0.0
 10
58.15090955706466
 20
12.38807344132127
 30
0.0
 10
57.30170968827296
 20
12.5599066794543
 30
0.0
 10
56.44999999999999
 20
12.6164981489624
 30
0.0
  0
SPLINE
  5
B4
330
1F
100
AcDbEntity
  8
0
  6
Continuous
 62
     1
370
    15
100
AcDbSpline
210
0.0
220
0.0
230
1.0
 70
     8
 71
     3
 72
    10
 73
     6
 74
     0
 42
0.000000001
 43
0.00000001
 40
0.0
 40
0.0
 40
0.0
 40
0.0
 40
0.5
 40
0.5
 40
1.0
 40
1.0
 40
1.0
 40
1.0
 10
58.81878049782791
 20
5.686231507069651
 30
0.0
 10
60.10965976739188
 20
5.327461543758889
 30
0.0
 10
61.41151327237275
 20
4.94621246347852
 30
0.0
 10
64.03428784646003
 20
4.144657185221296
 30
0.0
 10
65.35217156833336
 20
3.725247122348228
 30
0.0
 10
66.67155694983852
 20
3.290250384897581
 30
0.0
  0
SPLINE
  5
B5
330
1F
100
AcDbEntity
  8
0
  6
Continuous
 62
     1
370
    15
100
AcDbSpline
210
0.0
220
0.0
230
1.0
 70
     8
 71
     3
 72
    17
 73
    13
 74
     0
 42
0.000000001
 43
0.00000001
 40
0.0
 40
0.0
 40
0.0
 40
0.0
 40
0.0333273416227005
 40
0.2113429402343545
 40
0.3077670508875796
 40
0.4043891802122577
 40
0.5016101911609908
 40
0.5990340083125494
 40
0.698725094277941
 40
0.7986346919737493
 40
0.89920526468852
 40
1.0
 40
1.0
 40
1.0
 40
1.0
 10
35.80993761112053
 20
8.621496469603875
 30
0.0
 10
36.03926464876775
 20
8.724027688379088
 30
0.0
 10
37.4935255664338
 20
9.37422203892418
 30
0.0
 10
39.6113458521292
 20
10.13406893723108
 30
0.0
 10
42.16449773491573
 20
10.94924018606618
 30
0.0
 10
44.16076267495026
 20
11.48992713339295
 30
0.0
 10
46.1655226690836
 20
11.93840661726036
 30
0.0
 10
48.18941853291714
 20
12.29175238267331
 30
0.0
 10
50.2339577650225
 20
12.54261768750868
 30
0.0
 10
52.29812355307308
 20
12.68443179865398
 30
0.0
 10
54.37146768158983
 20
12.72220158596843
 30
0.0
 10
55.75664189561179
 20
12.65175876726536
 30
0.0
 10
56.44999999999999
 20
12.6164981489624
 30
0.0
  0
SPLINE
  5
B6
330
1F
100
AcDbEntity
  8
0
  6
Continuous
 62
     1
370
    15
100
AcDbSpline
210
0.0
220
0.0
230
1.0
 70
     8
 71
     3
 72
    20
 73
    16
 74
     0
 42
0.000000001
 43
0.00000001
 40
0.0
 40
0.0
 40
0.0
 40
0.0
 40
0.2500000000000006
 40
0.2500000000000006
 40
0.3750000000000005
 40
0.3750000000000005
 40
0.5000000000000004
 40
0.5000000000000004
 40
0.6250000000000004
 40
0.6250000000000004
 40
0.7500000000000002
 40
0.7500000000000002
 40
0.8750000000000001
 40
0.8750000000000001
 40
1.0
 40
1.0
 40
1.0
 40
1.0
 10
61.39623094478454
 20
10.98472982620022
 30
0.0
 10
61.48632651365528
 20
10.45159082591587
 30
0.0
 10
61.52682232005889
 20
9.909136665792978
 30
0.0
 10
61.46775367528903
 20
9.084607531019131
 30
0.0
 10
61.42810399865724
 20
8.81434883891525
 30
0.0
 10
61.30191265241487
 20
8.284601397477529
 30
0.0
 10
61.21377756938661
 20
8.0220818462832
 30
0.0
 10
60.98977848460342
 20
7.529310382295188
 30
0.0
 10
60.85455482911953
 20
7.298469630181623
 30
0.0
 10
60.5368893269962
 20
6.868393459109067
 30
0.0
 10
60.35326761806267
 20
6.669118734254302
 30
0.0
 10
59.95833720160955
 20
6.318723280655736
 30
0.0
 10
59.74463092021919
 20
6.164362174110701
 30
0.0
 10
59.29223681877271
 20
5.89443777780898
 30
0.0
 10
59.05850359601649
 20
5.781558647011448
 30
0.0
 10
58.81878049782792
 20
5.686231507069664
 30
0.0
  0
SPLINE
  5
B7
330
1F
100
AcDbEntity
  8
0
  6
Continuous
 62
     1
370
    15
100
AcDbSpline
210
0.0
220
0.0
230
1.0
 70
     8
 71
     3
 72
    13
 73
     9
 74
     0
 42
0.000000001
 43
0.00000001
 40
0.0
 40
0.0
 40
0.0
 40
0.0
 40
0.1326242011650732
 40
0.3060861576043843
 40
0.4795746344035183
 40
0.6530759543486243
 40
0.8265492582907814
 40
1.0
 40
1.0
 40
1.0
 40
1.0
 10
30.79244058659152
 20
-8.498994151064991
 30
0.0
 10
29.96169298845353
 20
-8.851190909207226
 30
0.0
 10
28.0443932948883
 20
-9.664033146698243
 30
0.0
 10
25.04030006617409
 20
-10.69723979423274
 30
0.0
 10
21.78004445983784
 20
-11.60815248415249
 30
0.0
 10
18.51963240284669
 20
-12.25309067942815
 30
0.0
 10
15.25961385902361
 20
-12.6510824513337
 30
0.0
 10
13.08649084326507
 20
-12.68152081744964
 30
0.0
 10
12.0
 20
-12.69673901072683
 30
0.0
  0
SPLINE
  5
B8
330
1F
100
AcDbEntity
  8
외형선
  6
Continuous
370
    15
100
AcDbSpline
210
0.0
220
0.0
230
1.0
 70
    24
 71
     3
 72
    20
 73
    16
 74
     0
 42
0.000000001
 43
0.00000001
 40
0.0
 40
0.0
 40
0.0
 40
0.0
 40
0.2499999999999998
 40
0.2499999999999998
 40
0.3749999999999998
 40
0.3749999999999998
 40
0.4999999999999998
 40
0.4999999999999998
 40
0.6249999999999997
 40
0.6249999999999997
 40
0.7499999999999998
 40
0.7499999999999998
 40
0.8749999999999999
 40
0.8749999999999999
 40
1.0
 40
1.0
 40
1.0
 40
1.0
 10
12.0
 20
-4.471765498498923
 30
0.0
 10
12.0
 20
-4.570984693484011
 30
0.0
 10
12.0
 20
-4.782364731842223
 30
0.0
 10
12.0
 20
-5.346178409679165
 30
0.0
 10
12.0
 20
-5.575129553719048
 30
0.0
 10
12.0
 20
-6.12235189007865
 30
0.0
 10
12.0
 20
-6.44073827723943
 30
0.0
 10
12.0
 20
-7.165933216661545
 30
0.0
 10
12.0
 20
-7.572799913690771
 30
0.0
 10
12.0
 20
-8.462807490696678
 30
0.0
 10
12.0
 20
-8.945898612819043
 30
0.0
 10
12.0
 20
-9.964658448993234
 30
0.0
 10
12.0
 20
-10.50016150254888
 30
0.0
 10
12.0
 20
-11.59176167394599
 30
0.0
 10
12.0
 20
-12.14763273042589
 30
0.0
 10
12.0
 20
-12.69673901071971
 30
0.0
  0
LINE
  5
B9
330
1F
100
AcDbEntity
  8
중심선
100
AcDbLine
 10
-60.85
 20
0.0010749287238888
 30
0.0
 11
72.15000000000002
 21
0.0010749287239051
 31
0.0
  0
LINE
  5
BA
330
1F
100
AcDbEntity
  8
참조1
100
AcDbLine
 10
3.650000000000764
 20
0.0010749287238892
 30
0.0
 11
3.650000000000771
 21
-39.99892507127611
 31
0.0
  0
LINE
  5
BB
330
1F
100
AcDbEntity
  8
참조1
100
AcDbLine
 10
67.15000000000077
 20
0.0010749287238931
 30
0.0
 11
67.15000000000076
 21
2.59334205705217
 31
0.0
  0
LINE
  5
BC
330
1F
100
AcDbEntity
  8
참조1
100
AcDbLine
 10
3.650000000000771
 20
-39.99892507127611
 30
0.0
 11
-27.38385681430791
 21
-39.9989250712761
 31
0.0
  0
CIRCLE
  5
BD
330
1F
100
AcDbEntity
  8
해칭선
100
AcDbCircle
 10
0.0
 20
0.0
 30
0.0
 40
3.000000000000001
  0
INSERT
  5
BE
330
1F
100
AcDbEntity
  8
0
  6
Continuous
 62
     7
100
AcDbBlockReference
 66
     1
  2
블럭10
 10
-10.29027293212444
 20
-52.04609937292004
 30
0.0
  0
ATTRIB
  5
BF
330
BE
100
AcDbEntity
  8
FORMAT
 62
     2
100
AcDbText
 10
-20.43190894426107
 20
-49.97073246008785
 30
0.0
 40
4.233333333333333
  1
E5014064 [ 2 FLUTE ]
 41
0.75
  7
SLDTEXTSTYLE0
 11
-20.43190894426107
 21
-52.08739912675452
 31
0.0
100
AcDbAttribute
  2
AUTOATTR0
 70
     0
 74
     1
  0
SEQEND
  5
C0
330
BE
100
AcDbEntity
  8
0
  6
Continuous
 62
     7
  0
HATCH
  5
C1
330
1F
100
AcDbEntity
  8
중심선
100
AcDbHatch
 10
0.0
 20
0.0
 30
0.0
210
0.0
220
0.0
230
1.0
  2
SOLID
 70
     1
 71
     0
 91
        1
 92
        0
 93
        4
 72
     1
 10
-4.575363627743606
 20
-35.7989250712761
 11
-8.021638871580889
 21
-35.7989250712761
 72
     1
 10
-8.021638871580889
 20
-35.7989250712761
 11
-10.14986873078491
 21
-38.3352506518487
 72
     1
 10
-10.14986873078491
 20
-38.3352506518487
 11
-6.70356040183448
 21
-38.33521122254621
 72
     1
 10
-6.70356040183448
 20
-38.33521122254621
 11
-4.575363627743606
 21
-35.7989250712761
 97
        0
 75
     0
 76
     1
 98
        1
 10
0.0
 20
0.0
  0
HATCH
  5
C2
330
1F
100
AcDbEntity
  8
중심선
100
AcDbHatch
 10
0.0
 20
0.0
 30
0.0
210
0.0
220
0.0
230
1.0
  2
SOLID
 70
     1
 71
     0
 91
        1
 92
        0
 93
        4
 72
     1
 10
0.4374003632924006
 20
-35.7989250712761
 11
-3.008874880544909
 21
-35.7989250712761
 72
     1
 10
-3.008874880544909
 20
-35.7989250712761
 11
-7.540012888902325
 21
-41.19892507127612
 72
     1
 10
-7.540012888902325
 20
-41.19892507127612
 11
-4.093737645065043
 21
-41.19892507127612
 72
     1
 10
-4.093737645065043
 20
-41.19892507127612
 11
0.4374003632924008
 21
-35.7989250712761
 97
        0
 75
     0
 76
     1
 98
        1
 10
0.0
 20
0.0
  0
HATCH
  5
C3
330
1F
100
AcDbEntity
  8
중심선
100
AcDbHatch
 10
0.0
 20
0.0
 30
0.0
210
0.0
220
0.0
230
1.0
  2
SOLID
 70
     1
 71
     0
 91
        1
 92
        0
 93
        4
 72
     1
 10
5.450164354328241
 20
-35.79892507127608
 11
2.003889110491153
 21
-35.79892507127608
 72
     1
 10
2.003889110491153
 20
-35.79892507127608
 11
-5.044547791398124
 21
-44.19892507127612
 72
     1
 10
-5.044547791398124
 20
-44.19892507127612
 11
-1.598272547560842
 21
-44.19892507127612
 72
     1
 10
-1.598272547560842
 20
-44.19892507127612
 11
5.450164354328241
 21
-35.79892507127608
 97
        0
 75
     0
 76
     1
 98
        1
 10
0.0
 20
0.0
  0
HATCH
  5
C4
330
1F
100
AcDbEntity
  8
중심선
100
AcDbHatch
 10
0.0
 20
0.0
 30
0.0
210
0.0
220
0.0
230
1.0
  2
SOLID
 70
     1
 71
     0
 91
        1
 92
        0
 93
        6
 72
     3
 10
10.25005478534044
 20
-39.99892507132738
 11
3.960054785062284
 21
1.540850780301639E-10
 40
0.3939339440162633
 50
17.09539180608434
 51
320.0019657685079
 73
     0
 72
     1
 10
11.93305444104104
 20
-38.58681907591441
 11
14.23835631474207
 21
-36.65249236586646
 72
     3
 10
10.25005478528759
 20
-39.99892507127625
 11
6.600054785286829
 21
-1.249000902703301E-13
 40
0.6363583540795982
 50
39.9987384933743
 51
368.4976242363724
 73
     1
 72
     1
 10
16.6753872771882
 20
-39.03892507120613
 11
8.930122092123515
 21
-39.03892507120613
 72
     1
 10
8.930122092123515
 20
-39.03892507120613
 11
8.930097047677583
 21
-40.95892507120602
 72
     1
 10
8.930097047677583
 20
-40.95892507120602
 11
13.37147681714962
 21
-40.95892507120599
 97
        0
 75
     0
 76
     1
 98
        1
 10
0.0
 20
0.0
  0
DIMENSION
  5
C5
330
1F
100
AcDbEntity
  8
치수문자_일반주서
100
AcDbDimension
  2
_D
 10
12.0
 20
24.68185700922992
 30
0.0
 11
42.29193435451074
 21
24.68185700922992
 31
0.0
 70
   160
  1
<>
 71
     2
 42
57.15000000000001
  3
SLDDIMSTYLE1
100
AcDbAlignedDimension
 13
69.15
 23
12.70107492872394
 33
0.0
 14
12.0
 24
12.70107492872388
 34
0.0
 50
0.0000000000000071
100
AcDbRotatedDimension
1001
ACAD
1000
DSTYLE
1002
{
1070
   171
1070
     6
1070
   273
1070
     7
1002
}
  0
DIMENSION
  5
DA
330
1F
100
AcDbEntity
  8
치수문자_일반주서
100
AcDbDimension
  2
_D_1
 10
-57.85000000000002
 20
41.60284544168752
 30
0.0
 11
5.650000000000002
 21
41.60284544168752
 31
0.0
 70
   160
  1
<>
 71
     2
 42
127.0
  3
SLDDIMSTYLE1
100
AcDbAlignedDimension
 13
69.15
 23
12.70107492872394
 33
0.0
 14
-57.85000000000002
 24
11.70107492872388
 34
0.0
 50
0.0000000000000064
100
AcDbRotatedDimension
1001
ACAD
1000
DSTYLE
1002
{
1070
   171
1070
     6
1070
   273
1070
     7
1002
}
  0
DIMENSION
  5
ED
330
1F
100
AcDbEntity
  8
치수문자_일반주서
100
AcDbDimension
  2
_D_2
 10
-70.27999999999997
 20
-12.69892507127617
 30
0.0
 11
-70.28000000000002
 21
0.0010749287238836
 31
0.0
 70
   160
  1
%%c<>
 71
     2
 42
25.40000000000001
 52
-270.0
  3
SLDDIMSTYLE1
100
AcDbAlignedDimension
 13
-56.85000000000002
 23
12.70107492872388
 33
0.0
 14
-56.85000000000002
 24
-12.69892507127612
 34
0.0
 50
90.0000000000002
100
AcDbRotatedDimension
1001
ACAD
1000
DSTYLE
1002
{
1070
   171
1070
     6
1070
   273
1070
     7
1002
}
  0
DIMENSION
  5
102
330
1F
100
AcDbEntity
  8
치수문자_일반주서
100
AcDbDimension
  2
_D_3
 10
77.03750000000016
 20
-12.69892507127603
 30
0.0
 11
77.03750000000001
 21
35.37252605973327
 31
0.0
 70
   160
  1
%%c<>
 71
     2
 42
25.4
 52
-270.0
  3
SLDDIMSTYLE1
100
AcDbAlignedDimension
 13
69.15000000000005
 23
12.70107492872394
 33
0.0
 14
69.15000000000002
 24
-12.69892507127606
 34
0.0
 50
90.0000000000002
100
AcDbRotatedDimension
1001
ACAD
1000
DSTYLE
1002
{
1070
   171
1070
     6
1070
   273
1070
     7
1002
}
  0
LINE
  5
116
330
1F
100
AcDbEntity
  8
참조1
100
AcDbLine
 10
70.58848381534635
 20
7.441074928723896
 30
0.0
 11
70.58848381534635
 21
-7.438925071276109
 31
0.0
  0
LINE
  5
117
330
1F
100
AcDbEntity
  8
참조1
100
AcDbLine
 10
83.28848381534635
 20
5.441074928723896
 30
0.0
 11
70.58848381534635
 21
5.441074928723896
 31
0.0
  0
SOLID
  5
118
330
1F
100
AcDbEntity
  8
참조1
100
AcDbTrace
 10
70.58848381534635
 20
5.441074928723896
 30
0.0
 11
76.93848381534634
 21
4.425074928723896
 31
0.0
 12
76.93848381534634
 22
6.457074928723896
 32
0.0
 13
76.93848381534634
 23
6.457074928723896
 33
0.0
  0
LINE
  5
119
330
1F
100
AcDbEntity
  8
참조1
100
AcDbLine
 10
83.28848381534635
 20
-5.438925071276109
 30
0.0
 11
70.58848381534635
 21
-5.438925071276109
 31
0.0
  0
SOLID
  5
11A
330
1F
100
AcDbEntity
  8
참조1
100
AcDbTrace
 10
70.58848381534635
 20
-5.438925071276109
 30
0.0
 11
76.93848381534634
 21
-6.454925071276109
 31
0.0
 12
76.93848381534634
 22
-4.422925071276109
 32
0.0
 13
76.93848381534634
 23
-4.422925071276109
 33
0.0
  0
MTEXT
  5
11B
330
1F
100
AcDbEntity
  8
참조1
100
AcDbMText
 10
79.98597390781663
 20
10.98929157337383
 30
0.0
 40
3.5
 41
0.0
 71
     1
 72
     1
  1
A
  7
SLDTEXTSTYLE0
 73
     1
 44
1.0
  0
MTEXT
  5
11C
330
1F
100
AcDbEntity
  8
참조1
100
AcDbMText
 10
79.98597390781663
 20
0.1092915733738251
 30
0.0
 40
3.5
 41
0.0
 71
     1
 72
     1
  1
A
  7
SLDTEXTSTYLE0
 73
     1
 44
1.0
  0
INSERT
  5
123
330
1F
100
AcDbEntity
  8
해칭선
100
AcDbBlockReference
  2
SW_DOWELSYMBOL_0
 10
0.0
 20
0.0
 30
0.0
  0
ENDSEC
  0
SECTION
  2
OBJECTS
  0
DICTIONARY
  5
C
330
0
100
AcDbDictionary
281
     1
  3
ACAD_GROUP
350
D
  3
ACAD_IMAGE_VARS
350
147
  3
ACAD_LAYOUT
350
1A
  3
ACAD_MLINESTYLE
350
17
  3
ACAD_PLOTSETTINGS
350
19
  3
ACAD_PLOTSTYLENAME
350
E
  3
ACAD_SCALELIST
350
47
  3
APPDATA
350
145
  3
DWGPROPS
350
1C2
  0
DICTIONARY
  5
16E
330
2
100
AcDbDictionary
280
     1
281
     1
  3
ACAD_LAYERSTATES
360
16F
  0
DICTIONARY
  5
1C0
330
1F
100
AcDbDictionary
280
     1
281
     1
  3
DIM_BOUNDING_BOXES_V1
360
1C1
  0
DICTIONARY
  5
D
102
{ACAD_REACTORS
330
C
102
}
330
C
100
AcDbDictionary
281
     1
  0
RASTERVARIABLES
  5
147
102
{ACAD_REACTORS
330
C
102
}
330
C
100
AcDbRasterVariables
 90
        0
 70
     1
 71
     1
 72
     1
  0
DICTIONARY
  5
1A
102
{ACAD_REACTORS
330
C
102
}
330
C
100
AcDbDictionary
281
     1
  3
Layout1
350
1E
  3
Layout2
350
26
  3
Model
350
22
  0
DICTIONARY
  5
17
102
{ACAD_REACTORS
330
C
102
}
330
C
100
AcDbDictionary
281
     1
  3
Standard
350
18
  0
DICTIONARY
  5
19
102
{ACAD_REACTORS
330
C
102
}
330
C
100
AcDbDictionary
281
     1
  0
ACDBDICTIONARYWDFLT
  5
E
102
{ACAD_REACTORS
330
C
102
}
330
C
100
AcDbDictionary
281
     1
  3
Normal
350
F
100
AcDbDictionaryWithDefault
340
F
  0
DICTIONARY
  5
47
102
{ACAD_REACTORS
330
C
102
}
330
C
100
AcDbDictionary
281
     1
  3
A0
350
48
  3
A1
350
49
  3
A2
350
4A
  3
A3
350
4B
  3
A4
350
4C
  3
A5
350
4D
  3
A6
350
4E
  3
A7
350
4F
  3
A8
350
50
  3
A9
350
51
  3
B0
350
52
  3
B1
350
53
  3
B2
350
54
  3
B3
350
55
  3
B4
350
56
  3
B5
350
57
  3
B6
350
58
  3
B7
350
59
  3
B8
350
5A
  3
B9
350
5B
  3
C0
350
5C
  3
C1
350
5D
  3
C2
350
5E
  3
C3
350
5F
  3
C4
350
60
  3
C5
350
61
  3
C6
350
62
  3
C7
350
63
  3
C8
350
64
  3
C9
350
65
  3
D0
350
66
  3
D1
350
67
  3
D2
350
68
  0
DICTIONARY
  5
145
102
{ACAD_REACTORS
330
C
102
}
330
C
100
AcDbDictionary
281
     1
  0
XRECORD
  5
1C2
102
{ACAD_REACTORS
330
C
102
}
330
C
100
AcDbXrecord
280
     1
  1
DWGPROPS COOKIE
  2

  3

  4

  6

  7

  8
12011056
  9

300
=
301
=
302
=
303
=
304
=
305
=
306
=
307
=
308
=
309
=
 40
0.0
 41
2458288.090217836
 42
2459719.205353183
  1

 90
        0
  0
DICTIONARY
  5
16F
102
{ACAD_REACTORS
330
16E
102
}
330
16E
100
AcDbDictionary
281
     1
  0
DICTIONARY
  5
1C1
102
{ACAD_REACTORS
330
1C0
102
}
330
1C0
100
AcDbDictionary
281
     1
  0
LAYOUT
  5
1E
102
{ACAD_REACTORS
330
1A
102
}
330
1A
100
AcDbPlotSettings
  1

  2
none_device
  4

  6

 40
0.0
 41
0.0
 42
0.0
 43
0.0
 44
0.0
 45
0.0
 46
0.0
 47
0.0
 48
0.0
 49
0.0
140
0.0
141
0.0
142
1.0
143
1.0
 70
   688
 72
     1
 73
     0
 74
     5
  7

 75
    16
147
1.0
148
0.0
149
0.0
100
AcDbLayout
  1
Layout1
 70
     1
 71
     1
 10
0.0
 20
0.0
 11
420.0
 21
297.0
 12
0.0
 22
0.0
 32
0.0
 14
1.000000000000000E+20
 24
1.000000000000000E+20
 34
1.000000000000000E+20
 15
-1.000000000000000E+20
 25
-1.000000000000000E+20
 35
-1.000000000000000E+20
146
0.0
 13
0.0
 23
0.0
 33
0.0
 16
1.0
 26
0.0
 36
0.0
 17
0.0
 27
1.0
 37
0.0
 76
     0
330
1B
  0
LAYOUT
  5
26
102
{ACAD_REACTORS
330
1A
102
}
330
1A
100
AcDbPlotSettings
  1

  2
none_device
  4

  6

 40
0.0
 41
0.0
 42
0.0
 43
0.0
 44
0.0
 45
0.0
 46
0.0
 47
0.0
 48
0.0
 49
0.0
140
0.0
141
0.0
142
1.0
143
1.0
 70
   688
 72
     1
 73
     0
 74
     5
  7

 75
    16
147
1.0
148
0.0
149
0.0
100
AcDbLayout
  1
Layout2
 70
     1
 71
     2
 10
0.0
 20
0.0
 11
0.0
 21
0.0
 12
0.0
 22
0.0
 32
0.0
 14
0.0
 24
0.0
 34
0.0
 15
0.0
 25
0.0
 35
0.0
146
0.0
 13
0.0
 23
0.0
 33
0.0
 16
1.0
 26
0.0
 36
0.0
 17
0.0
 27
1.0
 37
0.0
 76
     0
330
23
  0
LAYOUT
  5
22
102
{ACAD_REACTORS
330
1A
102
}
330
1A
100
AcDbPlotSettings
  1

  2
none_device
  4
ANSI_A_(11.00_x_8.50_Inches)
  6

 40
6.35
 41
19.05
 42
6.35000508
 43
19.05000254
 44
279.4
 45
215.9
 46
133.1983965548106
 47
53.34971479493363
 48
0.0
 49
0.0
140
0.0
141
0.0
142
0.0553662473013459
143
1.0
 70
  1696
 72
     0
 73
     0
 74
     0
  7

 75
     0
147
0.0235690232323232
148
0.0
149
0.0
100
AcDbLayout
  1
Model
 70
     1
 71
     0
 10
0.0
 20
0.0
 11
420.0
 21
297.0
 12
0.0
 22
0.0
 32
0.0
 14
-74.65500000000004
 24
-49.97073246008785
 34
0.0
 15
83.28848381534635
 25
46.52877605973327
 35
0.0
146
0.0
 13
0.0
 23
0.0
 33
0.0
 16
1.0
 26
0.0
 36
0.0
 17
0.0
 27
1.0
 37
0.0
 76
     0
330
1F
331
29
  0
MLINESTYLE
  5
18
102
{ACAD_REACTORS
330
17
102
}
330
17
100
AcDbMlineStyle
  2
Standard
 70
     0
  3

 62
   256
 51
90.0
 52
90.0
 71
     2
 49
0.5
 62
   256
  6
BYLAYER
 49
-0.5
 62
   256
  6
BYLAYER
  0
ACDBPLACEHOLDER
  5
F
102
{ACAD_REACTORS
330
E
102
}
330
E
  0
SCALE
  5
48
102
{ACAD_REACTORS
330
47
102
}
330
47
100
AcDbScale
 70
     0
300
1:1
140
1.0
141
1.0
290
     1
  0
SCALE
  5
49
102
{ACAD_REACTORS
330
47
102
}
330
47
100
AcDbScale
 70
     0
300
1:2
140
1.0
141
2.0
290
     0
  0
SCALE
  5
4A
102
{ACAD_REACTORS
330
47
102
}
330
47
100
AcDbScale
 70
     0
300
1:4
140
1.0
141
4.0
290
     0
  0
SCALE
  5
4B
102
{ACAD_REACTORS
330
47
102
}
330
47
100
AcDbScale
 70
     0
300
1:5
140
1.0
141
5.0
290
     0
  0
SCALE
  5
4C
102
{ACAD_REACTORS
330
47
102
}
330
47
100
AcDbScale
 70
     0
300
1:8
140
1.0
141
8.0
290
     0
  0
SCALE
  5
4D
102
{ACAD_REACTORS
330
47
102
}
330
47
100
AcDbScale
 70
     0
300
1:10
140
1.0
141
10.0
290
     0
  0
SCALE
  5
4E
102
{ACAD_REACTORS
330
47
102
}
330
47
100
AcDbScale
 70
     0
300
1:16
140
1.0
141
16.0
290
     0
  0
SCALE
  5
4F
102
{ACAD_REACTORS
330
47
102
}
330
47
100
AcDbScale
 70
     0
300
1:20
140
1.0
141
20.0
290
     0
  0
SCALE
  5
50
102
{ACAD_REACTORS
330
47
102
}
330
47
100
AcDbScale
 70
     0
300
1:30
140
1.0
141
30.0
290
     0
  0
SCALE
  5
51
102
{ACAD_REACTORS
330
47
102
}
330
47
100
AcDbScale
 70
     0
300
1:40
140
1.0
141
40.0
290
     0
  0
SCALE
  5
52
102
{ACAD_REACTORS
330
47
102
}
330
47
100
AcDbScale
 70
     0
300
1:50
140
1.0
141
50.0
290
     0
  0
SCALE
  5
53
102
{ACAD_REACTORS
330
47
102
}
330
47
100
AcDbScale
 70
     0
300
1:100
140
1.0
141
100.0
290
     0
  0
SCALE
  5
54
102
{ACAD_REACTORS
330
47
102
}
330
47
100
AcDbScale
 70
     0
300
2:1
140
2.0
141
1.0
290
     0
  0
SCALE
  5
55
102
{ACAD_REACTORS
330
47
102
}
330
47
100
AcDbScale
 70
     0
300
4:1
140
4.0
141
1.0
290
     0
  0
SCALE
  5
56
102
{ACAD_REACTORS
330
47
102
}
330
47
100
AcDbScale
 70
     0
300
8:1
140
8.0
141
1.0
290
     0
  0
SCALE
  5
57
102
{ACAD_REACTORS
330
47
102
}
330
47
100
AcDbScale
 70
     0
300
10:1
140
10.0
141
1.0
290
     0
  0
SCALE
  5
58
102
{ACAD_REACTORS
330
47
102
}
330
47
100
AcDbScale
 70
     0
300
100:1
140
100.0
141
1.0
290
     0
  0
SCALE
  5
59
102
{ACAD_REACTORS
330
47
102
}
330
47
100
AcDbScale
 70
     0
300
1/128" = 1'-0"
140
0.0078125
141
12.0
290
     0
  0
SCALE
  5
5A
102
{ACAD_REACTORS
330
47
102
}
330
47
100
AcDbScale
 70
     0
300
1/64" = 1'-0"
140
0.015625
141
12.0
290
     0
  0
SCALE
  5
5B
102
{ACAD_REACTORS
330
47
102
}
330
47
100
AcDbScale
 70
     0
300
1/32" = 1'-0"
140
0.03125
141
12.0
290
     0
  0
SCALE
  5
5C
102
{ACAD_REACTORS
330
47
102
}
330
47
100
AcDbScale
 70
     0
300
1/16" = 1'-0"
140
0.0625
141
12.0
290
     0
  0
SCALE
  5
5D
102
{ACAD_REACTORS
330
47
102
}
330
47
100
AcDbScale
 70
     0
300
3/32" = 1'-0"
140
0.09375
141
12.0
290
     0
  0
SCALE
  5
5E
102
{ACAD_REACTORS
330
47
102
}
330
47
100
AcDbScale
 70
     0
300
1/8" = 1'-0"
140
0.125
141
12.0
290
     0
  0
SCALE
  5
5F
102
{ACAD_REACTORS
330
47
102
}
330
47
100
AcDbScale
 70
     0
300
3/16" = 1'-0"
140
0.1875
141
12.0
290
     0
  0
SCALE
  5
60
102
{ACAD_REACTORS
330
47
102
}
330
47
100
AcDbScale
 70
     0
300
1/4" = 1'-0"
140
0.25
141
12.0
290
     0
  0
SCALE
  5
61
102
{ACAD_REACTORS
330
47
102
}
330
47
100
AcDbScale
 70
     0
300
3/8" = 1'-0"
140
0.375
141
12.0
290
     0
  0
SCALE
  5
62
102
{ACAD_REACTORS
330
47
102
}
330
47
100
AcDbScale
 70
     0
300
1/2" = 1'-0"
140
0.5
141
12.0
290
     0
  0
SCALE
  5
63
102
{ACAD_REACTORS
330
47
102
}
330
47
100
AcDbScale
 70
     0
300
3/4" = 1'-0"
140
0.75
141
12.0
290
     0
  0
SCALE
  5
64
102
{ACAD_REACTORS
330
47
102
}
330
47
100
AcDbScale
 70
     0
300
1" = 1'-0"
140
1.0
141
12.0
290
     0
  0
SCALE
  5
65
102
{ACAD_REACTORS
330
47
102
}
330
47
100
AcDbScale
 70
     0
300
1-1/2" = 1'-0"
140
1.5
141
12.0
290
     0
  0
SCALE
  5
66
102
{ACAD_REACTORS
330
47
102
}
330
47
100
AcDbScale
 70
     0
300
3" = 1'-0"
140
3.0
141
12.0
290
     0
  0
SCALE
  5
67
102
{ACAD_REACTORS
330
47
102
}
330
47
100
AcDbScale
 70
     0
300
6" = 1'-0"
140
6.0
141
12.0
290
     0
  0
SCALE
  5
68
102
{ACAD_REACTORS
330
47
102
}
330
47
100
AcDbScale
 70
     0
300
1'-0" = 1'-0"
140
12.0
141
12.0
290
     0
  0
ENDSEC
  0
EOF
