  0
SECTION
  2
HEADER
  9
$ACADVER
  1
AC1015
  9
$ACADMAINTVER
 70
     6
  9
$DWGCODEPAGE
  3
ANSI_949
  9
$INSBASE
 10
0.0
 20
0.0
 30
0.0
  9
$EXTMIN
 10
-37.67065394505691
 20
-39.9989250712761
 30
0.0
  9
$EXTMAX
 10
90.52153940838579
 20
35.21866774155153
 30
0.0
  9
$LIMMIN
 10
0.0
 20
0.0
  9
$LIMMAX
 10
420.0
 20
297.0
  9
$ORTHOMODE
 70
     0
  9
$REGENMODE
 70
     1
  9
$FILLMODE
 70
     1
  9
$QTEXTMODE
 70
     0
  9
$MIRRTEXT
 70
     1
  9
$LTSCALE
 40
1.0
  9
$ATTMODE
 70
     1
  9
$TEXTSIZE
 40
3.5
  9
$TRACEWID
 40
1.0
  9
$TEXTSTYLE
  7
Standard
  9
$CLAYER
  8
0
  9
$CELTYPE
  6
ByLayer
  9
$CECOLOR
 62
   256
  9
$CELTSCALE
 40
1.0
  9
$DISPSILH
 70
     0
  9
$DIMSCALE
 40
1.0
  9
$DIMASZ
 40
3.302
  9
$DIMEXO
 40
1.0
  9
$DIMDLI
 40
3.75
  9
$DIMRND
 40
0.0
  9
$DIMDLE
 40
0.0
  9
$DIMEXE
 40
1.0
  9
$DIMTP
 40
0.0
  9
$DIMTM
 40
0.0
  9
$DIMTXT
 40
3.5
  9
$DIMCEN
 40
2.5
  9
$DIMTSZ
 40
0.0
  9
$DIMTOL
 70
     0
  9
$DIMLIM
 70
     0
  9
$DIMTIH
 70
     1
  9
$DIMTOH
 70
     1
  9
$DIMSE1
 70
     0
  9
$DIMSE2
 70
     0
  9
$DIMTAD
 70
     1
  9
$DIMZIN
 70
     0
  9
$DIMBLK
  1

  9
$DIMASO
 70
     1
  9
$DIMSHO
 70
     1
  9
$DIMPOST
  1

  9
$DIMAPOST
  1

  9
$DIMALT
 70
     0
  9
$DIMALTD
 70
     3
  9
$DIMALTF
 40
0.0393700787401575
  9
$DIMLFAC
 40
1.0
  9
$DIMTOFL
 70
     1
  9
$DIMTVP
 40
0.0
  9
$DIMTIX
 70
     0
  9
$DIMSOXD
 70
     0
  9
$DIMSAH
 70
     0
  9
$DIMBLK1
  1

  9
$DIMBLK2
  1

  9
$DIMSTYLE
  2
ISO-25
  9
$DIMCLRD
 70
     0
  9
$DIMCLRE
 70
     0
  9
$DIMCLRT
 70
     0
  9
$DIMTFAC
 40
1.0
  9
$DIMGAP
 40
1.524
  9
$DIMJUST
 70
     0
  9
$DIMSD1
 70
     0
  9
$DIMSD2
 70
     0
  9
$DIMTOLJ
 70
     0
  9
$DIMTZIN
 70
     0
  9
$DIMALTZ
 70
     0
  9
$DIMALTTZ
 70
     0
  9
$DIMUPT
 70
     0
  9
$DIMDEC
 70
     2
  9
$DIMTDEC
 70
     2
  9
$DIMALTU
 70
     2
  9
$DIMALTTD
 70
     3
  9
$DIMTXSTY
  7
Standard
  9
$DIMAUNIT
 70
     0
  9
$DIMADEC
 70
     2
  9
$DIMALTRND
 40
0.0
  9
$DIMAZIN
 70
     0
  9
$DIMDSEP
 70
    44
  9
$DIMATFIT
 70
     3
  9
$DIMFRAC
 70
     0
  9
$DIMLDRBLK
  1

  9
$DIMLUNIT
 70
     2
  9
$DIMLWD
 70
    -2
  9
$DIMLWE
 70
    -2
  9
$DIMTMOVE
 70
     0
  9
$LUNITS
 70
     2
  9
$LUPREC
 70
     2
  9
$SKETCHINC
 40
1.0
  9
$FILLETRAD
 40
10.0
  9
$AUNITS
 70
     0
  9
$AUPREC
 70
     2
  9
$MENU
  1
.
  9
$ELEVATION
 40
0.0
  9
$PELEVATION
 40
0.0
  9
$THICKNESS
 40
0.0
  9
$LIMCHECK
 70
     0
  9
$CHAMFERA
 40
0.0
  9
$CHAMFERB
 40
0.0
  9
$CHAMFERC
 40
0.0
  9
$CHAMFERD
 40
0.0
  9
$SKPOLY
 70
     0
  9
$TDCREATE
 40
2458311.488676829
  9
$TDUCREATE
 40
2458311.113676829
  9
$TDUPDATE
 40
2459719.590866493
  9
$TDUUPDATE
 40
2459719.215866493
  9
$TDINDWG
 40
0.0014609954
  9
$TDUSRTIMER
 40
0.0006780903
  9
$USRTIMER
 70
     1
  9
$ANGBASE
 50
0.0
  9
$ANGDIR
 70
     0
  9
$PDMODE
 70
     0
  9
$PDSIZE
 40
-1.0
  9
$PLINEWID
 40
0.0
  9
$SPLFRAME
 70
     0
  9
$SPLINETYPE
 70
     6
  9
$SPLINESEGS
 70
     8
  9
$HANDSEED
  5
30C
  9
$SURFTAB1
 70
     6
  9
$SURFTAB2
 70
     6
  9
$SURFTYPE
 70
     6
  9
$SURFU
 70
     6
  9
$SURFV
 70
     6
  9
$UCSBASE
  2

  9
$UCSNAME
  2

  9
$UCSORG
 10
0.0
 20
0.0
 30
0.0
  9
$UCSXDIR
 10
1.0
 20
0.0
 30
0.0
  9
$UCSYDIR
 10
0.0
 20
1.0
 30
0.0
  9
$UCSORTHOREF
  2

  9
$UCSORTHOVIEW
 70
     0
  9
$UCSORGTOP
 10
0.0
 20
0.0
 30
0.0
  9
$UCSORGBOTTOM
 10
0.0
 20
0.0
 30
0.0
  9
$UCSORGLEFT
 10
0.0
 20
0.0
 30
0.0
  9
$UCSORGRIGHT
 10
0.0
 20
0.0
 30
0.0
  9
$UCSORGFRONT
 10
0.0
 20
0.0
 30
0.0
  9
$UCSORGBACK
 10
0.0
 20
0.0
 30
0.0
  9
$PUCSBASE
  2

  9
$PUCSNAME
  2

  9
$PUCSORG
 10
0.0
 20
0.0
 30
0.0
  9
$PUCSXDIR
 10
1.0
 20
0.0
 30
0.0
  9
$PUCSYDIR
 10
0.0
 20
1.0
 30
0.0
  9
$PUCSORTHOREF
  2

  9
$PUCSORTHOVIEW
 70
     0
  9
$PUCSORGTOP
 10
0.0
 20
0.0
 30
0.0
  9
$PUCSORGBOTTOM
 10
0.0
 20
0.0
 30
0.0
  9
$PUCSORGLEFT
 10
0.0
 20
0.0
 30
0.0
  9
$PUCSORGRIGHT
 10
0.0
 20
0.0
 30
0.0
  9
$PUCSORGFRONT
 10
0.0
 20
0.0
 30
0.0
  9
$PUCSORGBACK
 10
0.0
 20
0.0
 30
0.0
  9
$USERI1
 70
     0
  9
$USERI2
 70
     0
  9
$USERI3
 70
     0
  9
$USERI4
 70
     0
  9
$USERI5
 70
     0
  9
$USERR1
 40
0.0
  9
$USERR2
 40
0.0
  9
$USERR3
 40
0.0
  9
$USERR4
 40
0.0
  9
$USERR5
 40
0.0
  9
$WORLDVIEW
 70
     1
  9
$SHADEDGE
 70
     3
  9
$SHADEDIF
 70
    70
  9
$TILEMODE
 70
     1
  9
$MAXACTVP
 70
    64
  9
$PINSBASE
 10
0.0
 20
0.0
 30
0.0
  9
$PLIMCHECK
 70
     0
  9
$PEXTMIN
 10
1.000000000000000E+20
 20
1.000000000000000E+20
 30
1.000000000000000E+20
  9
$PEXTMAX
 10
-1.000000000000000E+20
 20
-1.000000000000000E+20
 30
-1.000000000000000E+20
  9
$PLIMMIN
 10
0.0
 20
0.0
  9
$PLIMMAX
 10
0.0
 20
0.0
  9
$UNITMODE
 70
     0
  9
$VISRETAIN
 70
     1
  9
$PLINEGEN
 70
     0
  9
$PSLTSCALE
 70
     1
  9
$TREEDEPTH
 70
  3020
  9
$CMLSTYLE
  2
Standard
  9
$CMLJUST
 70
     0
  9
$CMLSCALE
 40
20.0
  9
$PROXYGRAPHICS
 70
     1
  9
$MEASUREMENT
 70
     1
  9
$CELWEIGHT
370
    -1
  9
$ENDCAPS
280
     0
  9
$JOINSTYLE
280
     0
  9
$LWDISPLAY
290
     1
  9
$INSUNITS
 70
     4
  9
$HYPERLINKBASE
  1

  9
$STYLESHEET
  1

  9
$XEDIT
290
     1
  9
$CEPSNTYPE
380
     0
  9
$PSTYLEMODE
290
     1
  9
$FINGERPRINTGUID
  2
{8878FEB7-D0D2-4190-ACE7-DBDFAD80B7E9}
  9
$VERSIONGUID
  2
{FAEB1C32-E019-11D5-929B-00C0DF256EC4}
  9
$EXTNAMES
290
     1
  9
$PSVPSCALE
 40
0.0
  9
$OLESTARTUP
290
     0
  0
ENDSEC
  0
SECTION
  2
CLASSES
  0
CLASS
  1
ACDBDICTIONARYWDFLT
  2
AcDbDictionaryWithDefault
  3
ObjectDBX Classes
 90
        0
280
     0
281
     0
  0
CLASS
  1
VISUALSTYLE
  2
AcDbVisualStyle
  3
ObjectDBX Classes
 90
     4095
280
     0
281
     0
  0
CLASS
  1
MATERIAL
  2
AcDbMaterial
  3
ObjectDBX Classes
 90
     1153
280
     0
281
     0
  0
CLASS
  1
SCALE
  2
AcDbScale
  3
ObjectDBX Classes
 90
     1153
280
     0
281
     0
  0
CLASS
  1
SUN
  2
AcDbSun
  3
SCENEOE
 90
     1153
280
     0
281
     0
  0
CLASS
  1
ACDBPLACEHOLDER
  2
AcDbPlaceHolder
  3
ObjectDBX Classes
 90
        0
280
     0
281
     0
  0
CLASS
  1
LAYOUT
  2
AcDbLayout
  3
ObjectDBX Classes
 90
        0
280
     0
281
     0
  0
CLASS
  1
TABLESTYLE
  2
AcDbTableStyle
  3
ObjectDBX Classes
 90
     4095
280
     0
281
     0
  0
CLASS
  1
MLEADERSTYLE
  2
AcDbMLeaderStyle
  3
ACDB_MLEADERSTYLE_CLASS
 90
     4095
280
     0
281
     0
  0
CLASS
  1
RASTERVARIABLES
  2
AcDbRasterVariables
  3
ISM
 90
        0
280
     0
281
     0
  0
ENDSEC
  0
SECTION
  2
TABLES
  0
TABLE
  2
VPORT
  5
8
330
0
100
AcDbSymbolTable
 70
     1
  0
VPORT
  5
29
330
8
100
AcDbSymbolTableRecord
100
AcDbViewportTableRecord
  2
*Active
 70
     0
 10
0.0
 20
0.0
 11
1.0
 21
1.0
 12
-3.275702374533203
 22
-0.0235035567987225
 13
0.0
 23
0.0
 14
10.0
 24
10.0
 15
10.0
 25
10.0
 16
0.0
 26
0.0
 36
1.0
 17
0.0
 27
0.0
 37
0.0
 40
86.02682267811032
 41
1.519944979367263
 42
50.0
 43
0.0
 44
0.0
 50
0.0
 51
0.0
 71
    16
 72
  2000
 73
     1
 74
     3
 75
     0
 76
     0
 77
     0
 78
     0
281
     0
 65
     1
110
0.0
120
0.0
130
0.0
111
1.0
121
0.0
131
0.0
112
0.0
122
1.0
132
0.0
 79
     0
146
0.0
  0
ENDTAB
  0
TABLE
  2
LTYPE
  5
5
330
0
100
AcDbSymbolTable
 70
     6
  0
LTYPE
  5
14
330
5
100
AcDbSymbolTableRecord
100
AcDbLinetypeTableRecord
  2
ByBlock
 70
     0
  3

 72
    65
 73
     0
 40
0.0
  0
LTYPE
  5
15
330
5
100
AcDbSymbolTableRecord
100
AcDbLinetypeTableRecord
  2
ByLayer
 70
     0
  3

 72
    65
 73
     0
 40
0.0
  0
LTYPE
  5
16
330
5
100
AcDbSymbolTableRecord
100
AcDbLinetypeTableRecord
  2
Continuous
 70
     0
  3
Solid line
 72
    65
 73
     0
 40
0.0
  0
LTYPE
  5
6A
330
5
100
AcDbSymbolTableRecord
100
AcDbLinetypeTableRecord
  2
HIDDEN
 70
     0
  3
Hidden __ __ __ __ __ __ __ __ __ __ __ __ __ __
 72
    65
 73
     2
 40
1.905
 49
1.27
 74
     0
 49
-0.635
 74
     0
  0
LTYPE
  5
6B
330
5
100
AcDbSymbolTableRecord
100
AcDbLinetypeTableRecord
  2
PHANTOM
 70
     0
  3
Phantom ______  __  __  ______  __  __  ______
 72
    65
 73
     6
 40
12.7
 49
6.35
 74
     0
 49
-1.27
 74
     0
 49
1.27
 74
     0
 49
-1.27
 74
     0
 49
1.27
 74
     0
 49
-1.27
 74
     0
  0
LTYPE
  5
6C
330
5
100
AcDbSymbolTableRecord
100
AcDbLinetypeTableRecord
  2
CENTER
 70
     0
  3
Center ____ _ ____ _ ____ _ ____ _ ____ _ ____
 72
    65
 73
     4
 40
10.16
 49
6.35
 74
     0
 49
-1.27
 74
     0
 49
1.27
 74
     0
 49
-1.27
 74
     0
  0
LTYPE
  5
6D
330
5
100
AcDbSymbolTableRecord
100
AcDbLinetypeTableRecord
  2
CENTERX2
 70
     0
  3
Center (2x) ________  __  ________  __  _____
 72
    65
 73
     4
 40
20.32
 49
12.7
 74
     0
 49
-2.54
 74
     0
 49
2.54
 74
     0
 49
-2.54
 74
     0
  0
LTYPE
  5
6E
330
5
100
AcDbSymbolTableRecord
100
AcDbLinetypeTableRecord
  2
DOT2
 70
     0
  3
Dot (.5x) ........................................
 72
    65
 73
     2
 40
0.635
 49
0.0
 74
     0
 49
-0.635
 74
     0
  0
ENDTAB
  0
TABLE
  2
LAYER
  5
2
330
0
100
AcDbSymbolTable
 70
    18
  0
LAYER
  5
10
330
2
100
AcDbSymbolTableRecord
100
AcDbLayerTableRecord
  2
0
 70
     0
 62
     7
  6
Continuous
370
    -3
390
F
  0
LAYER
  5
6F
330
2
100
AcDbSymbolTableRecord
100
AcDbLayerTableRecord
  2
FORMAT
 70
     0
 62
     2
  6
Continuous
370
    -3
390
F
  0
LAYER
  5
70
330
2
100
AcDbSymbolTableRecord
100
AcDbLayerTableRecord
  2
외형선
 70
     0
 62
     4
  6
Continuous
370
    30
390
F
  0
LAYER
  5
71
330
2
100
AcDbSymbolTableRecord
100
AcDbLayerTableRecord
  2
숨은선
 70
     0
 62
     2
  6
HIDDEN
370
    15
390
F
  0
LAYER
  5
72
330
2
100
AcDbSymbolTableRecord
100
AcDbLayerTableRecord
  2
중심선
 70
     0
 62
     1
  6
CENTERX2
370
    -3
390
F
  0
LAYER
  5
73
330
2
100
AcDbSymbolTableRecord
100
AcDbLayerTableRecord
  2
파단선
 70
     0
 62
     4
  6
Continuous
370
    -3
390
F
  0
LAYER
  5
74
330
2
100
AcDbSymbolTableRecord
100
AcDbLayerTableRecord
  2
해칭선
 70
     0
 62
   100
  6
Continuous
370
    -3
390
F
  0
LAYER
  5
75
330
2
100
AcDbSymbolTableRecord
100
AcDbLayerTableRecord
  2
가는실선
 70
     0
 62
     4
  6
Continuous
370
    -3
390
F
  0
LAYER
  5
76
330
2
100
AcDbSymbolTableRecord
100
AcDbLayerTableRecord
  2
치수_보조선
 70
     0
 62
     4
  6
Continuous
370
    -3
390
F
  0
LAYER
  5
77
330
2
100
AcDbSymbolTableRecord
100
AcDbLayerTableRecord
  2
치수문자_일반주서
 70
     0
 62
     7
  6
Continuous
370
    15
390
F
  0
LAYER
  5
78
330
2
100
AcDbSymbolTableRecord
100
AcDbLayerTableRecord
  2
개별주서
 70
     0
 62
   100
  6
Continuous
370
    30
390
F
  0
LAYER
  5
79
330
2
100
AcDbSymbolTableRecord
100
AcDbLayerTableRecord
  2
중간선
 70
     0
 62
     2
  6
Continuous
370
    15
390
F
  0
LAYER
  5
7A
330
2
100
AcDbSymbolTableRecord
100
AcDbLayerTableRecord
  2
윤곽선
 70
     0
 62
     3
  6
Continuous
370
    40
390
F
  0
LAYER
  5
7B
330
2
100
AcDbSymbolTableRecord
100
AcDbLayerTableRecord
  2
중심마크
 70
     0
 62
   100
  6
Continuous
370
    30
390
F
  0
LAYER
  5
7C
330
2
100
AcDbSymbolTableRecord
100
AcDbLayerTableRecord
  2
가상선
 70
     0
 62
     4
  6
PHANTOM
370
    -3
390
F
  0
LAYER
  5
7D
330
2
100
AcDbSymbolTableRecord
100
AcDbLayerTableRecord
  2
특수지정선
 70
     0
 62
     5
  6
CENTERX2
370
    60
390
F
  0
LAYER
  5
7E
330
2
100
AcDbSymbolTableRecord
100
AcDbLayerTableRecord
  2
참조1
 70
     0
 62
    -4
  6
Continuous
370
    -3
390
F
  0
LAYER
  5
167
330
2
100
AcDbSymbolTableRecord
100
AcDbLayerTableRecord
  2
Defpoints
 70
     0
 62
     7
  6
Continuous
290
     0
370
    -3
390
F
  0
ENDTAB
  0
TABLE
  2
STYLE
  5
3
330
0
100
AcDbSymbolTable
 70
     2
  0
STYLE
  5
11
330
3
100
AcDbSymbolTableRecord
100
AcDbTextStyleTableRecord
  2
Standard
 70
     0
 40
0.0
 41
1.0
 50
0.0
 71
     0
 42
3.5
  3
txt
  4

  0
STYLE
  5
94
330
3
100
AcDbSymbolTableRecord
100
AcDbTextStyleTableRecord
  2
SLDTEXTSTYLE0
 70
     0
 40
0.0
 41
0.75
 50
0.0
 71
     0
 42
3.5
  3
TXT
  4

  0
ENDTAB
  0
TABLE
  2
VIEW
  5
6
330
0
100
AcDbSymbolTable
 70
     0
  0
ENDTAB
  0
TABLE
  2
UCS
  5
7
330
0
100
AcDbSymbolTable
 70
     0
  0
ENDTAB
  0
TABLE
  2
APPID
  5
9
330
0
100
AcDbSymbolTable
 70
     1
  0
APPID
  5
12
330
9
100
AcDbSymbolTableRecord
100
AcDbRegAppTableRecord
  2
ACAD
 70
     0
  0
ENDTAB
  0
TABLE
  2
DIMSTYLE
  5
A
330
0
100
AcDbSymbolTable
 70
     4
100
AcDbDimStyleTable
  0
DIMSTYLE
105
27
330
A
100
AcDbSymbolTableRecord
100
AcDbDimStyleTableRecord
  2
ISO-25
 70
     0
 41
2.5
 42
0.625
 43
3.75
 44
1.25
 73
     0
 74
     0
 77
     1
 78
     8
140
2.5
141
2.5
143
0.03937007874016
147
0.625
171
     3
172
     1
178
     0
271
     2
272
     2
274
     3
278
    44
283
     0
284
     8
340
11
  0
DIMSTYLE
105
E3
102
{ACAD_REACTORS
330
E2
330
120
330
F7
330
10C
102
}
330
A
100
AcDbSymbolTableRecord
100
AcDbDimStyleTableRecord
  2
SLDDIMSTYLE0
 70
     0
 41
3.302
 44
0.0
 45
0.000000001
 73
     0
 74
     0
 77
     1
 78
    12
 79
     3
140
3.5
143
0.0393700787401575
147
0.875
148
0.000000001
170
     1
172
     1
173
     1
178
     0
271
     2
272
     2
276
     2
284
    12
289
     0
340
94
  0
DIMSTYLE
105
F8
330
A
100
AcDbSymbolTableRecord
100
AcDbDimStyleTableRecord
  2
SLDDIMSTYLE1
 70
     0
 41
3.302
 44
0.0
 45
0.000000001
 73
     0
 74
     0
 77
     1
 78
    12
 79
     3
140
3.5
143
0.0393700787401575
147
0.875
148
0.000000001
170
     1
173
     1
178
     0
271
     2
272
     2
276
     2
284
    12
340
94
  0
DIMSTYLE
105
10D
330
A
100
AcDbSymbolTableRecord
100
AcDbDimStyleTableRecord
  2
SLDDIMSTYLE2
 70
     0
 41
3.302
 44
0.0
 45
0.000000001
 73
     0
 74
     0
 77
     1
 78
     4
 79
     1
140
3.5
143
0.0393700787401575
147
0.875
148
0.000000001
170
     1
173
     1
178
     0
271
     2
272
     2
276
     2
284
    12
340
94
  0
ENDTAB
  0
TABLE
  2
BLOCK_RECORD
  5
1
330
0
100
AcDbSymbolTable
 70
    15
  0
BLOCK_RECORD
  5
1F
102
{ACAD_XDICTIONARY
360
309
102
}
330
1
100
AcDbSymbolTableRecord
100
AcDbBlockTableRecord
  2
*Model_Space
340
22
  0
BLOCK_RECORD
  5
1B
330
1
100
AcDbSymbolTableRecord
100
AcDbBlockTableRecord
  2
*Paper_Space
340
1E
  0
BLOCK_RECORD
  5
23
330
1
100
AcDbSymbolTableRecord
100
AcDbBlockTableRecord
  2
*Paper_Space0
340
26
  0
BLOCK_RECORD
  5
7F
330
1
100
AcDbSymbolTableRecord
100
AcDbBlockTableRecord
  2
블럭10
340
0
102
{BLKREFS
331
DB
102
}
  0
BLOCK_RECORD
  5
E4
330
1
100
AcDbSymbolTableRecord
100
AcDbBlockTableRecord
  2
_D
340
0
  0
BLOCK_RECORD
  5
F9
330
1
100
AcDbSymbolTableRecord
100
AcDbBlockTableRecord
  2
_D_1
340
0
  0
BLOCK_RECORD
  5
10E
330
1
100
AcDbSymbolTableRecord
100
AcDbBlockTableRecord
  2
_D_2
340
0
  0
BLOCK_RECORD
  5
121
330
1
100
AcDbSymbolTableRecord
100
AcDbBlockTableRecord
  2
_D_3
340
0
  0
BLOCK_RECORD
  5
13B
330
1
100
AcDbSymbolTableRecord
100
AcDbBlockTableRecord
  2
SW_DOWELSYMBOL_0
340
0
102
{BLKREFS
331
141
102
}
  0
BLOCK_RECORD
  5
221
330
1
100
AcDbSymbolTableRecord
100
AcDbBlockTableRecord
  2
*D7
340
0
  0
BLOCK_RECORD
  5
230
330
1
100
AcDbSymbolTableRecord
100
AcDbBlockTableRecord
  2
*D8
340
0
  0
BLOCK_RECORD
  5
23C
330
1
100
AcDbSymbolTableRecord
100
AcDbBlockTableRecord
  2
*D9
340
0
  0
BLOCK_RECORD
  5
24B
330
1
100
AcDbSymbolTableRecord
100
AcDbBlockTableRecord
  2
*D10
340
0
  0
BLOCK_RECORD
  5
2AC
330
1
100
AcDbSymbolTableRecord
100
AcDbBlockTableRecord
  2
*D11
340
0
  0
BLOCK_RECORD
  5
2BB
330
1
100
AcDbSymbolTableRecord
100
AcDbBlockTableRecord
  2
*D12
340
0
  0
BLOCK_RECORD
  5
2C7
330
1
100
AcDbSymbolTableRecord
100
AcDbBlockTableRecord
  2
*D13
340
0
  0
BLOCK_RECORD
  5
2D6
330
1
100
AcDbSymbolTableRecord
100
AcDbBlockTableRecord
  2
*D14
340
0
  0
ENDTAB
  0
ENDSEC
  0
SECTION
  2
BLOCKS
  0
BLOCK
  5
20
330
1F
100
AcDbEntity
  8
0
100
AcDbBlockBegin
  2
*Model_Space
 70
     0
 10
0.0
 20
0.0
 30
0.0
  3
*Model_Space
  1
*Model_Space
  0
ENDBLK
  5
21
330
1F
100
AcDbEntity
  8
0
100
AcDbBlockEnd
  0
BLOCK
  5
1C
330
1B
100
AcDbEntity
 67
     1
  8
0
100
AcDbBlockBegin
  2
*Paper_Space
 70
     0
 10
0.0
 20
0.0
 30
0.0
  3
*Paper_Space
  1
*Paper_Space
  0
ENDBLK
  5
1D
330
1B
100
AcDbEntity
 67
     1
  8
0
100
AcDbBlockEnd
  0
BLOCK
  5
24
330
23
100
AcDbEntity
  8
0
100
AcDbBlockBegin
  2
*Paper_Space0
 70
     0
 10
0.0
 20
0.0
 30
0.0
  3
*Paper_Space0
  1
*Paper_Space0
  0
ENDBLK
  5
25
330
23
100
AcDbEntity
  8
0
100
AcDbBlockEnd
  0
BLOCK
  5
80
330
7F
100
AcDbEntity
  8
0
100
AcDbBlockBegin
  2
블럭10
 70
     2
 10
0.0
 20
0.0
 30
0.0
  3
블럭10
  1
블럭10
  0
ELLIPSE
  5
82
330
7F
100
AcDbEntity
  8
중심선
100
AcDbEllipse
 10
20.54032771741204
 20
12.0471743016438
 30
0.0
 11
6.600054785286829
 21
-1.261213355974178E-13
 31
0.0
210
0.0
220
0.0
230
1.0
 40
0.636358354079598
 41
0.9219305317359503
 42
6.513795318482858
  0
ELLIPSE
  5
83
330
7F
100
AcDbEntity
  8
중심선
100
AcDbEllipse
 10
20.54032771746488
 20
12.04717430159265
 30
0.0
 11
3.960054785062283
 21
1.540847449632565E-10
 31
0.0
210
0.0
220
0.0
230
1.0
 40
0.3939339440162632
 41
1.131841032648279
 42
5.62031148352944
  0
LINE
  5
84
330
7F
100
AcDbEntity
  8
중심선
100
AcDbLine
 10
2.268634060543552
 20
16.24717430164393
 30
0.0
 11
5.714909304380834
 21
16.24717430164393
 31
0.0
  0
LINE
  5
85
330
7F
100
AcDbEntity
  8
중심선
100
AcDbLine
 10
5.245725140726316
 20
7.84717430164391
 30
0.0
 11
8.692000384563599
 21
7.84717430164391
 31
0.0
  0
LINE
  5
86
330
7F
100
AcDbEntity
  8
중심선
100
AcDbLine
 10
15.74043728645272
 20
16.24717430164393
 30
0.0
 11
8.692000384563599
 21
7.84717430164391
 31
0.0
  0
LINE
  5
87
330
7F
100
AcDbEntity
  8
중심선
100
AcDbLine
 10
0.1404042013395286
 20
13.71084872107135
 30
0.0
 11
3.58671253028996
 21
13.71088815037384
 31
0.0
  0
LINE
  5
88
330
7F
100
AcDbEntity
  8
중심선
100
AcDbLine
 10
2.750260043222114
 20
10.84717430164391
 30
0.0
 11
6.196535287059397
 21
10.84717430164391
 31
0.0
  0
LINE
  5
89
330
7F
100
AcDbEntity
  8
중심선
100
AcDbLine
 10
12.29416204261559
 20
16.24717430164393
 30
0.0
 11
5.245725140726316
 21
7.84717430164391
 31
0.0
  0
LINE
  5
8A
330
7F
100
AcDbEntity
  8
중심선
100
AcDbLine
 10
10.72767329541681
 20
16.24717430164393
 30
0.0
 11
6.196535287059397
 21
10.84717430164391
 31
0.0
  0
LINE
  5
8B
330
7F
100
AcDbEntity
  8
중심선
100
AcDbLine
 10
7.28139805157953
 20
16.24717430164393
 30
0.0
 11
2.750260043222114
 21
10.84717430164391
 31
0.0
  0
LINE
  5
8C
330
7F
100
AcDbEntity
  8
중심선
100
AcDbLine
 10
5.714909304380834
 20
16.24717430164393
 30
0.0
 11
3.58671253028996
 21
13.71088815037384
 31
0.0
  0
LINE
  5
8D
330
7F
100
AcDbEntity
  8
중심선
100
AcDbLine
 10
2.268634060543552
 20
16.24717430164393
 30
0.0
 11
0.1404042013395286
 21
13.71084872107135
 31
0.0
  0
LINE
  5
8E
330
7F
100
AcDbEntity
  8
중심선
100
AcDbLine
 10
7.28139805157953
 20
16.24717430164393
 30
0.0
 11
10.72767329541681
 21
16.24717430164393
 31
0.0
  0
LINE
  5
8F
330
7F
100
AcDbEntity
  8
중심선
100
AcDbLine
 10
12.29416204261559
 20
16.24717430164393
 30
0.0
 11
15.74043728645272
 21
16.24717430164393
 31
0.0
  0
LINE
  5
90
330
7F
100
AcDbEntity
  8
중심선
100
AcDbLine
 10
19.22036997980202
 20
11.08717430171403
 30
0.0
 11
23.66174974927406
 21
11.08717430171406
 31
0.0
  0
LINE
  5
91
330
7F
100
AcDbEntity
  8
중심선
100
AcDbLine
 10
19.22039502424796
 20
13.00717430171391
 30
0.0
 11
19.22036997980202
 21
11.08717430171403
 31
0.0
  0
LINE
  5
92
330
7F
100
AcDbEntity
  8
중심선
100
AcDbLine
 10
19.22039502424796
 20
13.00717430171391
 30
0.0
 11
26.96566020931264
 21
13.00717430171391
 31
0.0
  0
LINE
  5
93
330
7F
100
AcDbEntity
  8
중심선
100
AcDbLine
 10
22.22332737316547
 20
13.45928029700563
 30
0.0
 11
24.52862924686651
 21
15.39360700705356
 31
0.0
  0
ATTDEF
  5
95
330
7F
100
AcDbEntity
  8
FORMAT
 62
     2
100
AcDbText
 10
4.408487351596664
 20
2.075366912832191
 30
0.0
 40
4.233333333333333
  1
E5020007
 41
0.75
  7
SLDTEXTSTYLE0
 11
4.408487351596664
 21
-0.0412997538344756
 31
0.0
100
AcDbAttributeDefinition
  3

  2
AUTOATTR0
 70
     0
 74
     1
  0
ENDBLK
  5
81
330
7F
100
AcDbEntity
  8
0
100
AcDbBlockEnd
  0
BLOCK
  5
E5
330
E4
100
AcDbEntity
  8
0
100
AcDbBlockBegin
  2
_D
 70
     0
 10
0.0
 20
0.0
 30
0.0
  3
_D
  1
_D
  0
LINE
  5
E7
330
E4
100
AcDbEntity
  8
치수문자_일반주서
 62
     0
370
    -2
100
AcDbLine
 10
-26.46692116787306
 20
1.587499999999992
 30
0.0
 11
-34.29565394505681
 21
1.587499999999963
 31
0.0
  0
LINE
  5
E8
330
E4
100
AcDbEntity
  8
치수문자_일반주서
 62
     0
370
    -2
100
AcDbLine
 10
-26.46692116787306
 20
-1.587499999999991
 30
0.0
 11
-34.29565394505679
 21
-1.587500000000018
 31
0.0
  0
LINE
  5
E9
330
E4
100
AcDbEntity
  8
치수문자_일반주서
 62
     0
370
    -2
100
AcDbLine
 10
-34.29565394505681
 20
1.587499999999963
 30
0.0
 11
-34.29565394505691
 21
24.74374999999996
 31
0.0
  0
LINE
  5
EA
330
E4
100
AcDbEntity
  8
치수문자_일반주서
 62
     0
370
    -2
100
AcDbLine
 10
-34.29565394505681
 20
1.587499999999963
 30
0.0
 11
-34.29565394505679
 21
-1.587500000000018
 31
0.0
  0
LINE
  5
EB
330
E4
100
AcDbEntity
  8
치수문자_일반주서
 62
     0
370
    -2
100
AcDbLine
 10
-34.29565394505682
 20
4.087499999999963
 30
0.0
 11
-34.29565394505683
 21
6.587499999999963
 31
0.0
  0
LINE
  5
EC
330
E4
100
AcDbEntity
  8
치수문자_일반주서
 62
     0
370
    -2
100
AcDbLine
 10
-34.29565394505678
 20
-4.087500000000018
 30
0.0
 11
-34.29565394505676
 21
-6.587500000000018
 31
0.0
  0
SOLID
  5
ED
330
E4
100
AcDbEntity
  8
치수문자_일반주서
 62
     0
100
AcDbTrace
 10
-34.71232061172348
 20
4.087499999999961
 30
0.0
 11
-33.87898727839016
 21
4.087499999999965
 31
0.0
 12
-34.29565394505681
 22
1.587499999999963
 32
0.0
 13
-34.29565394505681
 23
1.587499999999963
 33
0.0
  0
SOLID
  5
EE
330
E4
100
AcDbEntity
  8
치수문자_일반주서
 62
     0
100
AcDbTrace
 10
-33.87898727839011
 20
-4.087500000000016
 30
0.0
 11
-34.71232061172344
 21
-4.08750000000002
 31
0.0
 12
-34.29565394505679
 22
-1.587500000000018
 32
0.0
 13
-34.29565394505679
 23
-1.587500000000018
 33
0.0
  0
MTEXT
  5
EF
330
E4
100
AcDbEntity
  8
치수문자_일반주서
 62
     0
100
AcDbMText
 10
-37.67065394505687
 20
15.74374999999995
 30
0.0
 40
2.5
 41
0.0
 71
     2
 72
     1
  1
\A1;%%c3.18 [1/8]
  7
SLDTEXTSTYLE0
 11
-4.475859752819552E-15
 21
1.0
 31
0.0
 73
     1
 44
1.0
  0
POINT
  5
2E4
330
E4
100
AcDbEntity
  8
Defpoints
 62
     0
100
AcDbPoint
 10
-26.40442116787306
 20
1.587499999999992
 30
0.0
  0
POINT
  5
2E5
330
E4
100
AcDbEntity
  8
Defpoints
 62
     0
100
AcDbPoint
 10
-26.40442116787306
 20
-1.587499999999991
 30
0.0
  0
POINT
  5
2E6
330
E4
100
AcDbEntity
  8
Defpoints
 62
     0
100
AcDbPoint
 10
-34.29565394505681
 20
-1.587500000000021
 30
0.0
  0
ENDBLK
  5
E6
330
E4
100
AcDbEntity
  8
0
100
AcDbBlockEnd
  0
BLOCK
  5
FA
330
F9
100
AcDbEntity
  8
0
100
AcDbBlockBegin
  2
_D_1
 70
     0
 10
0.0
 20
0.0
 30
0.0
  3
_D_1
  1
_D_1
  0
LINE
  5
FC
330
F9
100
AcDbEntity
  8
치수문자_일반주서
 62
     0
370
    -2
100
AcDbLine
 10
11.26557883212694
 20
1.450388485529928
 30
0.0
 11
11.26557883212694
 21
14.56423021635286
 31
0.0
  0
LINE
  5
FD
330
F9
100
AcDbEntity
  8
치수문자_일반주서
 62
     0
370
    -2
100
AcDbLine
 10
1.740578832126946
 20
0.9970931728987993
 30
0.0
 11
1.740578832126946
 21
14.56423021635286
 31
0.0
  0
LINE
  5
FE
330
F9
100
AcDbEntity
  8
치수문자_일반주서
 62
     0
370
    -2
100
AcDbLine
 10
8.765578832126945
 20
14.56423021635286
 30
0.0
 11
4.240578832126946
 21
14.56423021635286
 31
0.0
  0
SOLID
  5
FF
330
F9
100
AcDbEntity
  8
치수문자_일반주서
 62
     0
100
AcDbTrace
 10
8.765578832126945
 20
14.1475635496862
 30
0.0
 11
8.765578832126945
 21
14.98089688301953
 31
0.0
 12
11.26557883212694
 22
14.56423021635286
 32
0.0
 13
11.26557883212694
 23
14.56423021635286
 33
0.0
  0
SOLID
  5
100
330
F9
100
AcDbEntity
  8
치수문자_일반주서
 62
     0
100
AcDbTrace
 10
4.240578832126946
 20
14.98089688301953
 30
0.0
 11
4.240578832126946
 21
14.1475635496862
 31
0.0
 12
1.740578832126946
 22
14.56423021635286
 32
0.0
 13
1.740578832126946
 23
14.56423021635286
 33
0.0
  0
MTEXT
  5
101
330
F9
100
AcDbEntity
  8
치수문자_일반주서
 62
     0
100
AcDbMText
 10
6.503078832126945
 20
17.93923021635286
 30
0.0
 40
2.5
 41
0.0
 71
     2
 72
     1
  1
\A1;9.53 [3/8]
  7
SLDTEXTSTYLE0
 73
     1
 44
1.0
  0
POINT
  5
102
330
F9
100
AcDbEntity
  8
Defpoints
 62
     0
100
AcDbPoint
 10
11.26557883212694
 20
1.387888485529928
 30
0.0
  0
POINT
  5
103
330
F9
100
AcDbEntity
  8
Defpoints
 62
     0
100
AcDbPoint
 10
1.740578832126946
 20
0.9345931728987993
 30
0.0
  0
POINT
  5
104
330
F9
100
AcDbEntity
  8
Defpoints
 62
     0
100
AcDbPoint
 10
1.740578832126946
 20
14.56423021635286
 30
0.0
  0
ENDBLK
  5
FB
330
F9
100
AcDbEntity
  8
0
100
AcDbBlockEnd
  0
BLOCK
  5
10F
330
10E
100
AcDbEntity
  8
0
100
AcDbBlockBegin
  2
_D_2
 70
     0
 10
0.0
 20
0.0
 30
0.0
  3
_D_2
  1
_D_2
  0
LINE
  5
111
330
10E
100
AcDbEntity
  8
치수문자_일반주서
 62
     0
370
    -2
100
AcDbLine
 10
11.26557883212694
 20
1.380638176167438
 30
0.0
 11
11.26557883212694
 21
31.84366774155154
 31
0.0
  0
LINE
  5
112
330
10E
100
AcDbEntity
  8
치수문자_일반주서
 62
     0
370
    -2
100
AcDbLine
 10
-26.83442116787306
 20
1.219999999999998
 30
0.0
 11
-26.83442116787306
 21
31.84366774155154
 31
0.0
  0
LINE
  5
113
330
10E
100
AcDbEntity
  8
치수문자_일반주서
 62
     0
370
    -2
100
AcDbLine
 10
8.765578832126938
 20
31.84366774155154
 30
0.0
 11
-24.33442116787306
 21
31.84366774155154
 31
0.0
  0
SOLID
  5
114
330
10E
100
AcDbEntity
  8
치수문자_일반주서
 62
     0
100
AcDbTrace
 10
8.765578832126938
 20
31.42700107488487
 30
0.0
 11
8.765578832126938
 21
32.26033440821821
 31
0.0
 12
11.26557883212694
 22
31.84366774155154
 32
0.0
 13
11.26557883212694
 23
31.84366774155154
 33
0.0
  0
SOLID
  5
115
330
10E
100
AcDbEntity
  8
치수문자_일반주서
 62
     0
100
AcDbTrace
 10
-24.33442116787306
 20
32.26033440821821
 30
0.0
 11
-24.33442116787306
 21
31.42700107488487
 31
0.0
 12
-26.83442116787306
 22
31.84366774155154
 32
0.0
 13
-26.83442116787306
 23
31.84366774155154
 33
0.0
  0
MTEXT
  5
116
330
10E
100
AcDbEntity
  8
치수문자_일반주서
 62
     0
100
AcDbMText
 10
-7.784421167873059
 20
35.21866774155154
 30
0.0
 40
2.5
 41
0.0
 71
     2
 72
     1
  1
\A1;38.1 [1 1/2]
  7
SLDTEXTSTYLE0
 73
     1
 44
1.0
  0
POINT
  5
117
330
10E
100
AcDbEntity
  8
Defpoints
 62
     0
100
AcDbPoint
 10
11.26557883212694
 20
1.318138176167438
 30
0.0
  0
POINT
  5
118
330
10E
100
AcDbEntity
  8
Defpoints
 62
     0
100
AcDbPoint
 10
-26.83442116787306
 20
1.157499999999998
 30
0.0
  0
POINT
  5
119
330
10E
100
AcDbEntity
  8
Defpoints
 62
     0
100
AcDbPoint
 10
-26.83442116787306
 20
31.84366774155154
 30
0.0
  0
ENDBLK
  5
110
330
10E
100
AcDbEntity
  8
0
100
AcDbBlockEnd
  0
BLOCK
  5
122
330
121
100
AcDbEntity
  8
0
100
AcDbBlockBegin
  2
_D_3
 70
     0
 10
0.0
 20
0.0
 30
0.0
  3
_D_3
  1
_D_3
  0
LINE
  5
124
330
121
100
AcDbEntity
  8
치수문자_일반주서
 62
     0
370
    -2
100
AcDbLine
 10
11.32807883212694
 20
-1.387888485529927
 30
0.0
 11
20.31918371821878
 21
-1.387888485529896
 31
0.0
  0
LINE
  5
125
330
121
100
AcDbEntity
  8
치수문자_일반주서
 62
     0
370
    -2
100
AcDbLine
 10
11.32807883212694
 20
1.387888485529928
 30
0.0
 11
20.31918371821877
 21
1.387888485529961
 31
0.0
  0
LINE
  5
126
330
121
100
AcDbEntity
  8
치수문자_일반주서
 62
     0
370
    -2
100
AcDbLine
 10
20.31918371821877
 20
1.387888485529961
 30
0.0
 11
20.31918371821867
 21
27.51288848552996
 31
0.0
  0
LINE
  5
127
330
121
100
AcDbEntity
  8
치수문자_일반주서
 62
     0
370
    -2
100
AcDbLine
 10
20.31918371821878
 20
-1.387888485529896
 30
0.0
 11
20.31918371821877
 21
1.387888485529961
 31
0.0
  0
LINE
  5
128
330
121
100
AcDbEntity
  8
치수문자_일반주서
 62
     0
370
    -2
100
AcDbLine
 10
20.3191837182188
 20
-3.887888485529896
 30
0.0
 11
20.31918371821881
 21
-6.387888485529896
 31
0.0
  0
LINE
  5
129
330
121
100
AcDbEntity
  8
치수문자_일반주서
 62
     0
370
    -2
100
AcDbLine
 10
20.31918371821876
 20
3.887888485529961
 30
0.0
 11
20.31918371821875
 21
6.387888485529961
 31
0.0
  0
SOLID
  5
12A
330
121
100
AcDbEntity
  8
치수문자_일반주서
 62
     0
100
AcDbTrace
 10
20.73585038488546
 20
-3.887888485529894
 30
0.0
 11
19.90251705155213
 21
-3.887888485529897
 31
0.0
 12
20.31918371821878
 22
-1.387888485529896
 32
0.0
 13
20.31918371821878
 23
-1.387888485529896
 33
0.0
  0
SOLID
  5
12B
330
121
100
AcDbEntity
  8
치수문자_일반주서
 62
     0
100
AcDbTrace
 10
19.9025170515521
 20
3.88788848552996
 30
0.0
 11
20.73585038488543
 21
3.887888485529963
 31
0.0
 12
20.31918371821877
 22
1.387888485529961
 32
0.0
 13
20.31918371821877
 23
1.387888485529961
 33
0.0
  0
MTEXT
  5
12C
330
121
100
AcDbEntity
  8
치수문자_일반주서
 62
     0
100
AcDbMText
 10
16.94418371821871
 20
16.95038848552995
 30
0.0
 40
2.5
 41
0.0
 71
     2
 72
     1
  1
\A1;%%c2.78 [7/64]
  7
SLDTEXTSTYLE0
 11
-3.839696469681416E-15
 21
1.0
 31
0.0
 73
     1
 44
1.0
  0
POINT
  5
12D
330
121
100
AcDbEntity
  8
Defpoints
 62
     0
100
AcDbPoint
 10
11.26557883212694
 20
-1.387888485529927
 30
0.0
  0
POINT
  5
12E
330
121
100
AcDbEntity
  8
Defpoints
 62
     0
100
AcDbPoint
 10
11.26557883212694
 20
1.387888485529928
 30
0.0
  0
POINT
  5
12F
330
121
100
AcDbEntity
  8
Defpoints
 62
     0
100
AcDbPoint
 10
20.31918371821875
 20
1.387888485529962
 30
0.0
  0
ENDBLK
  5
123
330
121
100
AcDbEntity
  8
0
100
AcDbBlockEnd
  0
BLOCK
  5
13C
330
13B
100
AcDbEntity
  8
0
100
AcDbBlockBegin
  2
SW_DOWELSYMBOL_0
 70
     0
 10
0.0
 20
0.0
 30
0.0
  3
SW_DOWELSYMBOL_0
  1
SW_DOWELSYMBOL_0
  0
CIRCLE
  5
13E
330
13B
100
AcDbEntity
  8
해칭선
 62
     0
100
AcDbCircle
 10
0.0
 20
0.0
 30
0.0
 40
2.999999999999994
  0
HATCH
  5
13F
330
13B
100
AcDbEntity
  8
0
  6
Continuous
 62
     0
370
     0
100
AcDbHatch
 10
0.0
 20
0.0
 30
0.0
210
0.0
220
0.0
230
1.0
  2
SOLID
 70
     1
 71
     0
 91
        1
 92
        0
 93
        3
 72
     2
 10
0.0
 20
0.0
 40
2.999999999999994
 50
0.0
 51
90.0
 73
     1
 72
     1
 10
0.0
 20
2.999999999999994
 11
0.0
 21
0.0
 72
     1
 10
0.0
 20
0.0
 11
2.999999999999994
 21
0.0
 97
        0
 75
     0
 76
     1
 98
        1
 10
0.0
 20
0.0
  0
HATCH
  5
140
330
13B
100
AcDbEntity
  8
0
  6
Continuous
 62
     0
370
     0
100
AcDbHatch
 10
0.0
 20
0.0
 30
0.0
210
0.0
220
0.0
230
1.0
  2
SOLID
 70
     1
 71
     0
 91
        1
 92
        0
 93
        3
 72
     2
 10
0.0
 20
0.0
 40
2.999999999999994
 50
180.0
 51
270.0000000000007
 73
     1
 72
     1
 10
0.0
 20
-2.999999999999994
 11
0.0
 21
0.0
 72
     1
 10
0.0
 20
0.0
 11
-2.999999999999994
 21
0.0
 97
        0
 75
     0
 76
     1
 98
        1
 10
0.0
 20
0.0
  0
ENDBLK
  5
13D
330
13B
100
AcDbEntity
  8
0
100
AcDbBlockEnd
  0
BLOCK
  5
222
330
221
100
AcDbEntity
  8
0
100
AcDbBlockBegin
  2
*D7
 70
     1
 10
0.0
 20
0.0
 30
0.0
  3
*D7
  1
*D8
  0
LINE
  5
224
330
221
100
AcDbEntity
  8
치수문자_일반주서
 62
     0
370
    -2
100
AcDbLine
 10
71.43750000000006
 20
10.20053740206972
 30
0.0
 11
79.375
 21
10.20053740206975
 31
0.0
  0
LINE
  5
225
330
221
100
AcDbEntity
  8
치수문자_일반주서
 62
     0
370
    -2
100
AcDbLine
 10
71.43750000000006
 20
11.70053740206973
 30
0.0
 11
79.375
 21
11.70053740206976
 31
0.0
  0
LINE
  5
226
330
221
100
AcDbEntity
  8
치수문자_일반주서
 62
     0
370
    -2
100
AcDbLine
 10
79.375
 20
11.70053740206976
 30
0.0
 11
79.375
 21
35.42953740206976
 31
0.0
  0
LINE
  5
227
330
221
100
AcDbEntity
  8
치수문자_일반주서
 62
     0
370
    -2
100
AcDbLine
 10
79.375
 20
10.20053740206975
 30
0.0
 11
79.375
 21
11.70053740206976
 31
0.0
  0
LINE
  5
228
330
221
100
AcDbEntity
  8
치수문자_일반주서
 62
     0
370
    -2
100
AcDbLine
 10
79.375
 20
7.700537402069752
 30
0.0
 11
79.375
 21
5.200537402069752
 31
0.0
  0
LINE
  5
229
330
221
100
AcDbEntity
  8
치수문자_일반주서
 62
     0
370
    -2
100
AcDbLine
 10
79.375
 20
14.20053740206976
 30
0.0
 11
79.375
 21
16.70053740206976
 31
0.0
  0
SOLID
  5
22A
330
221
100
AcDbEntity
  8
치수문자_일반주서
 62
     0
100
AcDbTrace
 10
79.79166666666667
 20
7.700537402069752
 30
0.0
 11
78.95833333333333
 21
7.700537402069752
 31
0.0
 12
79.375
 22
10.20053740206975
 32
0.0
 13
79.375
 23
10.20053740206975
 33
0.0
  0
SOLID
  5
22B
330
221
100
AcDbEntity
  8
치수문자_일반주서
 62
     0
100
AcDbTrace
 10
78.95833333333333
 20
14.20053740206976
 30
0.0
 11
79.79166666666667
 21
14.20053740206976
 31
0.0
 12
79.375
 22
11.70053740206976
 32
0.0
 13
79.375
 23
11.70053740206976
 33
0.0
  0
MTEXT
  5
22C
330
221
100
AcDbEntity
  8
치수문자_일반주서
 62
     0
100
AcDbMText
 10
76.0
 20
27.05453740206976
 30
0.0
 40
2.5
 41
0.0
 71
     2
 72
     1
  1
\A1;%%c1.5 [0.06]
  7
SLDTEXTSTYLE0
 11
0.0
 21
1.0
 31
0.0
 73
     1
 44
1.0
  0
POINT
  5
22D
330
221
100
AcDbEntity
  8
Defpoints
 62
     0
100
AcDbPoint
 10
71.37500000000006
 20
10.20053740206972
 30
0.0
  0
POINT
  5
22E
330
221
100
AcDbEntity
  8
Defpoints
 62
     0
100
AcDbPoint
 10
71.37500000000006
 20
11.70053740206973
 30
0.0
  0
POINT
  5
22F
330
221
100
AcDbEntity
  8
Defpoints
 62
     0
100
AcDbPoint
 10
79.37500000000003
 20
11.70053740206976
 30
0.0
  0
ENDBLK
  5
223
330
221
100
AcDbEntity
  8
0
100
AcDbBlockEnd
  0
BLOCK
  5
231
330
230
100
AcDbEntity
  8
0
100
AcDbBlockBegin
  2
*D8
 70
     1
 10
0.0
 20
0.0
 30
0.0
  3
*D8
  1
*D9
  0
LINE
  5
233
330
230
100
AcDbEntity
  8
치수문자_일반주서
 62
     0
370
    -2
100
AcDbLine
 10
11.37500000000006
 20
13.51303740206972
 30
0.0
 11
11.37500000000006
 21
31.33967000365137
 31
0.0
  0
LINE
  5
234
330
230
100
AcDbEntity
  8
치수문자_일반주서
 62
     0
370
    -2
100
AcDbLine
 10
71.37500000000006
 20
11.76303740206973
 30
0.0
 11
71.37500000000006
 21
31.33967000365137
 31
0.0
  0
LINE
  5
235
330
230
100
AcDbEntity
  8
치수문자_일반주서
 62
     0
370
    -2
100
AcDbLine
 10
13.87500000000006
 20
31.33967000365137
 30
0.0
 11
68.87500000000006
 21
31.33967000365137
 31
0.0
  0
SOLID
  5
236
330
230
100
AcDbEntity
  8
치수문자_일반주서
 62
     0
100
AcDbTrace
 10
13.87500000000006
 20
31.75633667031804
 30
0.0
 11
13.87500000000006
 21
30.9230033369847
 31
0.0
 12
11.37500000000006
 22
31.33967000365137
 32
0.0
 13
11.37500000000006
 23
31.33967000365137
 33
0.0
  0
SOLID
  5
237
330
230
100
AcDbEntity
  8
치수문자_일반주서
 62
     0
100
AcDbTrace
 10
68.87500000000006
 20
30.9230033369847
 30
0.0
 11
68.87500000000006
 21
31.75633667031804
 31
0.0
 12
71.37500000000006
 22
31.33967000365137
 32
0.0
 13
71.37500000000006
 23
31.33967000365137
 33
0.0
  0
MTEXT
  5
238
330
230
100
AcDbEntity
  8
치수문자_일반주서
 62
     0
100
AcDbMText
 10
41.37500000000006
 20
34.71467000365137
 30
0.0
 40
2.5
 41
0.0
 71
     2
 72
     1
  1
\A1;60 [2.36]
  7
SLDTEXTSTYLE0
 73
     1
 44
1.0
  0
POINT
  5
239
330
230
100
AcDbEntity
  8
Defpoints
 62
     0
100
AcDbPoint
 10
11.37500000000006
 20
13.45053740206972
 30
0.0
  0
POINT
  5
23A
330
230
100
AcDbEntity
  8
Defpoints
 62
     0
100
AcDbPoint
 10
71.37500000000006
 20
11.70053740206973
 30
0.0
  0
POINT
  5
23B
330
230
100
AcDbEntity
  8
Defpoints
 62
     0
100
AcDbPoint
 10
71.37500000000006
 20
31.33967000365137
 30
0.0
  0
ENDBLK
  5
232
330
230
100
AcDbEntity
  8
0
100
AcDbBlockEnd
  0
BLOCK
  5
23D
330
23C
100
AcDbEntity
  8
0
100
AcDbBlockBegin
  2
*D9
 70
     1
 10
0.0
 20
0.0
 30
0.0
  3
*D9
  1
*D10
  0
LINE
  5
23F
330
23C
100
AcDbEntity
  8
치수문자_일반주서
 62
     0
370
    -2
100
AcDbLine
 10
11.81250000000006
 20
13.95053740206973
 30
0.0
 11
3.375000000000041
 21
13.9505374020697
 31
0.0
  0
LINE
  5
240
330
23C
100
AcDbEntity
  8
치수문자_일반주서
 62
     0
370
    -2
100
AcDbLine
 10
11.81250000000006
 20
7.950537402069727
 30
0.0
 11
3.375000000000062
 21
7.950537402069696
 31
0.0
  0
LINE
  5
241
330
23C
100
AcDbEntity
  8
치수문자_일반주서
 62
     0
370
    -2
100
AcDbLine
 10
3.375000000000041
 20
13.9505374020697
 30
0.0
 11
3.374999999999971
 21
34.1380374020697
 31
0.0
  0
LINE
  5
242
330
23C
100
AcDbEntity
  8
치수문자_일반주서
 62
     0
370
    -2
100
AcDbLine
 10
3.375000000000041
 20
13.9505374020697
 30
0.0
 11
3.375000000000062
 21
7.950537402069696
 31
0.0
  0
LINE
  5
243
330
23C
100
AcDbEntity
  8
치수문자_일반주서
 62
     0
370
    -2
100
AcDbLine
 10
3.375000000000032
 20
16.4505374020697
 30
0.0
 11
3.375000000000023
 21
18.9505374020697
 31
0.0
  0
LINE
  5
244
330
23C
100
AcDbEntity
  8
치수문자_일반주서
 62
     0
370
    -2
100
AcDbLine
 10
3.375000000000071
 20
5.450537402069696
 30
0.0
 11
3.375000000000079
 21
2.950537402069696
 31
0.0
  0
SOLID
  5
245
330
23C
100
AcDbEntity
  8
치수문자_일반주서
 62
     0
100
AcDbTrace
 10
2.958333333333365
 20
16.4505374020697
 30
0.0
 11
3.791666666666698
 21
16.4505374020697
 31
0.0
 12
3.375000000000041
 22
13.9505374020697
 32
0.0
 13
3.375000000000041
 23
13.9505374020697
 33
0.0
  0
SOLID
  5
246
330
23C
100
AcDbEntity
  8
치수문자_일반주서
 62
     0
100
AcDbTrace
 10
3.791666666666737
 20
5.450537402069697
 30
0.0
 11
2.958333333333404
 21
5.450537402069694
 31
0.0
 12
3.375000000000062
 22
7.950537402069696
 32
0.0
 13
3.375000000000062
 23
7.950537402069696
 33
0.0
  0
MTEXT
  5
247
330
23C
100
AcDbEntity
  8
치수문자_일반주서
 62
     0
100
AcDbMText
 10
-0.0000000000000031
 20
26.54428740206969
 30
0.0
 40
2.5
 41
0.0
 71
     2
 72
     1
  1
\A1;%%c6 [0.24]
  7
SLDTEXTSTYLE0
 11
-3.478698810492154E-15
 21
1.0
 31
0.0
 73
     1
 44
1.0
  0
POINT
  5
248
330
23C
100
AcDbEntity
  8
Defpoints
 62
     0
100
AcDbPoint
 10
11.87500000000006
 20
13.95053740206973
 30
0.0
  0
POINT
  5
249
330
23C
100
AcDbEntity
  8
Defpoints
 62
     0
100
AcDbPoint
 10
11.87500000000006
 20
7.950537402069727
 30
0.0
  0
POINT
  5
24A
330
23C
100
AcDbEntity
  8
Defpoints
 62
     0
100
AcDbPoint
 10
3.375000000000057
 20
7.950537402069696
 30
0.0
  0
ENDBLK
  5
23E
330
23C
100
AcDbEntity
  8
0
100
AcDbBlockEnd
  0
BLOCK
  5
24C
330
24B
100
AcDbEntity
  8
0
100
AcDbBlockBegin
  2
*D10
 70
     1
 10
0.0
 20
0.0
 30
0.0
  3
*D10
  1
*D11
  0
LINE
  5
24E
330
24B
100
AcDbEntity
  8
치수문자_일반주서
 62
     0
370
    -2
100
AcDbLine
 10
65.37500000000006
 20
11.72584006941095
 30
0.0
 11
65.37500000000006
 21
22.5092583719986
 31
0.0
  0
LINE
  5
24F
330
24B
100
AcDbEntity
  8
치수문자_일반주서
 62
     0
370
    -2
100
AcDbLine
 10
71.37500000000006
 20
11.76303740206973
 30
0.0
 11
71.37500000000006
 21
22.5092583719986
 31
0.0
  0
LINE
  5
250
330
24B
100
AcDbEntity
  8
치수문자_일반주서
 62
     0
370
    -2
100
AcDbLine
 10
65.37500000000006
 20
22.5092583719986
 30
0.0
 11
71.37500000000006
 21
22.5092583719986
 31
0.0
  0
LINE
  5
251
330
24B
100
AcDbEntity
  8
치수문자_일반주서
 62
     0
370
    -2
100
AcDbLine
 10
62.87500000000006
 20
22.5092583719986
 30
0.0
 11
60.37500000000006
 21
22.5092583719986
 31
0.0
  0
LINE
  5
252
330
24B
100
AcDbEntity
  8
치수문자_일반주서
 62
     0
370
    -2
100
AcDbLine
 10
73.87500000000006
 20
22.5092583719986
 30
0.0
 11
76.37500000000006
 21
22.5092583719986
 31
0.0
  0
SOLID
  5
253
330
24B
100
AcDbEntity
  8
치수문자_일반주서
 62
     0
100
AcDbTrace
 10
62.87500000000006
 20
22.09259170533193
 30
0.0
 11
62.87500000000006
 21
22.92592503866527
 31
0.0
 12
65.37500000000006
 22
22.5092583719986
 32
0.0
 13
65.37500000000006
 23
22.5092583719986
 33
0.0
  0
SOLID
  5
254
330
24B
100
AcDbEntity
  8
치수문자_일반주서
 62
     0
100
AcDbTrace
 10
73.87500000000006
 20
22.92592503866527
 30
0.0
 11
73.87500000000006
 21
22.09259170533193
 31
0.0
 12
71.37500000000006
 22
22.5092583719986
 32
0.0
 13
71.37500000000006
 23
22.5092583719986
 33
0.0
  0
MTEXT
  5
255
330
24B
100
AcDbEntity
  8
치수문자_일반주서
 62
     0
100
AcDbMText
 10
68.37500000000006
 20
25.8842583719986
 30
0.0
 40
2.5
 41
0.0
 71
     2
 72
     1
  1
\A1;6 [0.24]
  7
SLDTEXTSTYLE0
 73
     1
 44
1.0
  0
POINT
  5
256
330
24B
100
AcDbEntity
  8
Defpoints
 62
     0
100
AcDbPoint
 10
65.37500000000006
 20
11.66334006941095
 30
0.0
  0
POINT
  5
257
330
24B
100
AcDbEntity
  8
Defpoints
 62
     0
100
AcDbPoint
 10
71.37500000000006
 20
11.70053740206973
 30
0.0
  0
POINT
  5
258
330
24B
100
AcDbEntity
  8
Defpoints
 62
     0
100
AcDbPoint
 10
71.37500000000006
 20
22.5092583719986
 30
0.0
  0
ENDBLK
  5
24D
330
24B
100
AcDbEntity
  8
0
100
AcDbBlockEnd
  0
BLOCK
  5
2AD
330
2AC
100
AcDbEntity
  8
0
100
AcDbBlockBegin
  2
*D11
 70
     1
 10
0.0
 20
0.0
 30
0.0
  3
*D11
  1
*D12
  0
LINE
  5
2AF
330
2AC
100
AcDbEntity
  8
치수문자_일반주서
 62
     0
370
    -2
100
AcDbLine
 10
35.01125072397333
 20
63.98747356213157
 30
0.0
 11
42.94875072397335
 21
63.9874735621316
 31
0.0
  0
LINE
  5
2B0
330
2AC
100
AcDbEntity
  8
치수문자_일반주서
 62
     0
370
    -2
100
AcDbLine
 10
35.01125072397333
 20
65.48747356213158
 30
0.0
 11
42.94875072397335
 21
65.48747356213161
 31
0.0
  0
LINE
  5
2B1
330
2AC
100
AcDbEntity
  8
치수문자_일반주서
 62
     0
370
    -2
100
AcDbLine
 10
42.94875072397335
 20
65.48747356213161
 30
0.0
 11
42.94875072397323
 21
89.2164735621316
 31
0.0
  0
LINE
  5
2B2
330
2AC
100
AcDbEntity
  8
치수문자_일반주서
 62
     0
370
    -2
100
AcDbLine
 10
42.94875072397335
 20
63.9874735621316
 30
0.0
 11
42.94875072397335
 21
65.48747356213161
 31
0.0
  0
LINE
  5
2B3
330
2AC
100
AcDbEntity
  8
치수문자_일반주서
 62
     0
370
    -2
100
AcDbLine
 10
42.94875072397337
 20
61.4874735621316
 30
0.0
 11
42.94875072397338
 21
58.9874735621316
 31
0.0
  0
LINE
  5
2B4
330
2AC
100
AcDbEntity
  8
치수문자_일반주서
 62
     0
370
    -2
100
AcDbLine
 10
42.94875072397333
 20
67.98747356213161
 30
0.0
 11
42.94875072397332
 21
70.48747356213161
 31
0.0
  0
SOLID
  5
2B5
330
2AC
100
AcDbEntity
  8
치수문자_일반주서
 62
     0
100
AcDbTrace
 10
43.36541739064003
 20
61.4874735621316
 30
0.0
 11
42.5320840573067
 21
61.4874735621316
 31
0.0
 12
42.94875072397335
 22
63.9874735621316
 32
0.0
 13
42.94875072397335
 23
63.9874735621316
 33
0.0
  0
SOLID
  5
2B6
330
2AC
100
AcDbEntity
  8
치수문자_일반주서
 62
     0
100
AcDbTrace
 10
42.53208405730667
 20
67.98747356213161
 30
0.0
 11
43.36541739064
 21
67.98747356213161
 31
0.0
 12
42.94875072397335
 22
65.48747356213161
 32
0.0
 13
42.94875072397335
 23
65.48747356213161
 33
0.0
  0
MTEXT
  5
2B7
330
2AC
100
AcDbEntity
  8
치수문자_일반주서
 62
     0
100
AcDbMText
 10
39.57375072397328
 20
80.84147356213158
 30
0.0
 40
2.5
 41
0.0
 71
     2
 72
     1
  1
\A1;%%c1.5 [0.06]
  7
SLDTEXTSTYLE0
 11
-4.736951571733956E-15
 21
1.0
 31
0.0
 73
     1
 44
1.0
  0
POINT
  5
2B8
330
2AC
100
AcDbEntity
  8
Defpoints
 62
     0
100
AcDbPoint
 10
34.94875072397333
 20
63.98747356213157
 30
0.0
  0
POINT
  5
2B9
330
2AC
100
AcDbEntity
  8
Defpoints
 62
     0
100
AcDbPoint
 10
34.94875072397333
 20
65.48747356213158
 30
0.0
  0
POINT
  5
2BA
330
2AC
100
AcDbEntity
  8
Defpoints
 62
     0
100
AcDbPoint
 10
42.94875072397328
 20
65.48747356213161
 30
0.0
  0
ENDBLK
  5
2AE
330
2AC
100
AcDbEntity
  8
0
100
AcDbBlockEnd
  0
BLOCK
  5
2BC
330
2BB
100
AcDbEntity
  8
0
100
AcDbBlockBegin
  2
*D12
 70
     1
 10
0.0
 20
0.0
 30
0.0
  3
*D12
  1
*D13
  0
LINE
  5
2BE
330
2BB
100
AcDbEntity
  8
치수문자_일반주서
 62
     0
370
    -2
100
AcDbLine
 10
-25.05124927602667
 20
67.29997356213157
 30
0.0
 11
-25.05124927602667
 21
85.1266061637132
 31
0.0
  0
LINE
  5
2BF
330
2BB
100
AcDbEntity
  8
치수문자_일반주서
 62
     0
370
    -2
100
AcDbLine
 10
34.94875072397333
 20
65.54997356213157
 30
0.0
 11
34.94875072397333
 21
85.1266061637132
 31
0.0
  0
LINE
  5
2C0
330
2BB
100
AcDbEntity
  8
치수문자_일반주서
 62
     0
370
    -2
100
AcDbLine
 10
-22.55124927602667
 20
85.1266061637132
 30
0.0
 11
32.44875072397333
 21
85.1266061637132
 31
0.0
  0
SOLID
  5
2C1
330
2BB
100
AcDbEntity
  8
치수문자_일반주서
 62
     0
100
AcDbTrace
 10
-22.55124927602667
 20
85.54327283037988
 30
0.0
 11
-22.55124927602667
 21
84.70993949704653
 31
0.0
 12
-25.05124927602667
 22
85.1266061637132
 32
0.0
 13
-25.05124927602667
 23
85.1266061637132
 33
0.0
  0
SOLID
  5
2C2
330
2BB
100
AcDbEntity
  8
치수문자_일반주서
 62
     0
100
AcDbTrace
 10
32.44875072397333
 20
84.70993949704653
 30
0.0
 11
32.44875072397333
 21
85.54327283037988
 31
0.0
 12
34.94875072397333
 22
85.1266061637132
 32
0.0
 13
34.94875072397333
 23
85.1266061637132
 33
0.0
  0
MTEXT
  5
2C3
330
2BB
100
AcDbEntity
  8
치수문자_일반주서
 62
     0
100
AcDbMText
 10
4.948750723973333
 20
88.5016061637132
 30
0.0
 40
2.5
 41
0.0
 71
     2
 72
     1
  1
\A1;60 [2.36]
  7
SLDTEXTSTYLE0
 73
     1
 44
1.0
  0
POINT
  5
2C4
330
2BB
100
AcDbEntity
  8
Defpoints
 62
     0
100
AcDbPoint
 10
-25.05124927602667
 20
67.23747356213157
 30
0.0
  0
POINT
  5
2C5
330
2BB
100
AcDbEntity
  8
Defpoints
 62
     0
100
AcDbPoint
 10
34.94875072397333
 20
65.48747356213157
 30
0.0
  0
POINT
  5
2C6
330
2BB
100
AcDbEntity
  8
Defpoints
 62
     0
100
AcDbPoint
 10
34.94875072397333
 20
85.1266061637132
 30
0.0
  0
ENDBLK
  5
2BD
330
2BB
100
AcDbEntity
  8
0
100
AcDbBlockEnd
  0
BLOCK
  5
2C8
330
2C7
100
AcDbEntity
  8
0
100
AcDbBlockBegin
  2
*D13
 70
     1
 10
0.0
 20
0.0
 30
0.0
  3
*D13
  1
*D14
  0
LINE
  5
2CA
330
2C7
100
AcDbEntity
  8
치수문자_일반주서
 62
     0
370
    -2
100
AcDbLine
 10
-24.61374927602666
 20
67.73747356213157
 30
0.0
 11
-33.05124927602668
 21
67.73747356213154
 31
0.0
  0
LINE
  5
2CB
330
2C7
100
AcDbEntity
  8
치수문자_일반주서
 62
     0
370
    -2
100
AcDbLine
 10
-24.61374927602666
 20
61.73747356213157
 30
0.0
 11
-33.05124927602666
 21
61.73747356213154
 31
0.0
  0
LINE
  5
2CC
330
2C7
100
AcDbEntity
  8
치수문자_일반주서
 62
     0
370
    -2
100
AcDbLine
 10
-33.05124927602668
 20
67.73747356213154
 30
0.0
 11
-33.05124927602675
 21
87.92497356213154
 31
0.0
  0
LINE
  5
2CD
330
2C7
100
AcDbEntity
  8
치수문자_일반주서
 62
     0
370
    -2
100
AcDbLine
 10
-33.05124927602668
 20
67.73747356213154
 30
0.0
 11
-33.05124927602666
 21
61.73747356213154
 31
0.0
  0
LINE
  5
2CE
330
2C7
100
AcDbEntity
  8
치수문자_일반주서
 62
     0
370
    -2
100
AcDbLine
 10
-33.05124927602669
 20
70.23747356213154
 30
0.0
 11
-33.0512492760267
 21
72.73747356213154
 31
0.0
  0
LINE
  5
2CF
330
2C7
100
AcDbEntity
  8
치수문자_일반주서
 62
     0
370
    -2
100
AcDbLine
 10
-33.05124927602665
 20
59.23747356213154
 30
0.0
 11
-33.05124927602665
 21
56.73747356213154
 31
0.0
  0
SOLID
  5
2D0
330
2C7
100
AcDbEntity
  8
치수문자_일반주서
 62
     0
100
AcDbTrace
 10
-33.46791594269335
 20
70.23747356213154
 30
0.0
 11
-32.63458260936002
 21
70.23747356213154
 31
0.0
 12
-33.05124927602668
 22
67.73747356213154
 32
0.0
 13
-33.05124927602668
 23
67.73747356213154
 33
0.0
  0
SOLID
  5
2D1
330
2C7
100
AcDbEntity
  8
치수문자_일반주서
 62
     0
100
AcDbTrace
 10
-32.63458260935999
 20
59.23747356213154
 30
0.0
 11
-33.46791594269332
 21
59.23747356213154
 31
0.0
 12
-33.05124927602666
 22
61.73747356213154
 32
0.0
 13
-33.05124927602666
 23
61.73747356213154
 33
0.0
  0
MTEXT
  5
2D2
330
2C7
100
AcDbEntity
  8
치수문자_일반주서
 62
     0
100
AcDbMText
 10
-36.42624927602672
 20
80.33122356213153
 30
0.0
 40
2.5
 41
0.0
 71
     2
 72
     1
  1
\A1;%%c6 [0.24]
  7
SLDTEXTSTYLE0
 11
-3.552713678800501E-15
 21
1.0
 31
0.0
 73
     1
 44
1.0
  0
POINT
  5
2D3
330
2C7
100
AcDbEntity
  8
Defpoints
 62
     0
100
AcDbPoint
 10
-24.55124927602666
 20
67.73747356213157
 30
0.0
  0
POINT
  5
2D4
330
2C7
100
AcDbEntity
  8
Defpoints
 62
     0
100
AcDbPoint
 10
-24.55124927602666
 20
61.73747356213157
 30
0.0
  0
POINT
  5
2D5
330
2C7
100
AcDbEntity
  8
Defpoints
 62
     0
100
AcDbPoint
 10
-33.05124927602666
 20
61.73747356213154
 30
0.0
  0
ENDBLK
  5
2C9
330
2C7
100
AcDbEntity
  8
0
100
AcDbBlockEnd
  0
BLOCK
  5
2D7
330
2D6
100
AcDbEntity
  8
0
100
AcDbBlockBegin
  2
*D14
 70
     1
 10
0.0
 20
0.0
 30
0.0
  3
*D14
  1
*D15
  0
LINE
  5
2D9
330
2D6
100
AcDbEntity
  8
치수문자_일반주서
 62
     0
370
    -2
100
AcDbLine
 10
28.94875072397333
 20
65.51277622947279
 30
0.0
 11
28.94875072397333
 21
76.29619453206044
 31
0.0
  0
LINE
  5
2DA
330
2D6
100
AcDbEntity
  8
치수문자_일반주서
 62
     0
370
    -2
100
AcDbLine
 10
34.94875072397333
 20
65.54997356213157
 30
0.0
 11
34.94875072397333
 21
76.29619453206044
 31
0.0
  0
LINE
  5
2DB
330
2D6
100
AcDbEntity
  8
치수문자_일반주서
 62
     0
370
    -2
100
AcDbLine
 10
28.94875072397333
 20
76.29619453206044
 30
0.0
 11
34.94875072397333
 21
76.29619453206044
 31
0.0
  0
LINE
  5
2DC
330
2D6
100
AcDbEntity
  8
치수문자_일반주서
 62
     0
370
    -2
100
AcDbLine
 10
26.44875072397333
 20
76.29619453206044
 30
0.0
 11
23.94875072397333
 21
76.29619453206044
 31
0.0
  0
LINE
  5
2DD
330
2D6
100
AcDbEntity
  8
치수문자_일반주서
 62
     0
370
    -2
100
AcDbLine
 10
37.44875072397333
 20
76.29619453206044
 30
0.0
 11
39.94875072397333
 21
76.29619453206044
 31
0.0
  0
SOLID
  5
2DE
330
2D6
100
AcDbEntity
  8
치수문자_일반주서
 62
     0
100
AcDbTrace
 10
26.44875072397333
 20
75.87952786539377
 30
0.0
 11
26.44875072397333
 21
76.71286119872711
 31
0.0
 12
28.94875072397333
 22
76.29619453206044
 32
0.0
 13
28.94875072397333
 23
76.29619453206044
 33
0.0
  0
SOLID
  5
2DF
330
2D6
100
AcDbEntity
  8
치수문자_일반주서
 62
     0
100
AcDbTrace
 10
37.44875072397333
 20
76.71286119872711
 30
0.0
 11
37.44875072397333
 21
75.87952786539377
 31
0.0
 12
34.94875072397333
 22
76.29619453206044
 32
0.0
 13
34.94875072397333
 23
76.29619453206044
 33
0.0
  0
MTEXT
  5
2E0
330
2D6
100
AcDbEntity
  8
치수문자_일반주서
 62
     0
100
AcDbMText
 10
31.94875072397333
 20
79.67119453206044
 30
0.0
 40
2.5
 41
0.0
 71
     2
 72
     1
  1
\A1;6 [0.24]
  7
SLDTEXTSTYLE0
 73
     1
 44
1.0
  0
POINT
  5
2E1
330
2D6
100
AcDbEntity
  8
Defpoints
 62
     0
100
AcDbPoint
 10
28.94875072397333
 20
65.45027622947279
 30
0.0
  0
POINT
  5
2E2
330
2D6
100
AcDbEntity
  8
Defpoints
 62
     0
100
AcDbPoint
 10
34.94875072397333
 20
65.48747356213157
 30
0.0
  0
POINT
  5
2E3
330
2D6
100
AcDbEntity
  8
Defpoints
 62
     0
100
AcDbPoint
 10
34.94875072397333
 20
76.29619453206044
 30
0.0
  0
ENDBLK
  5
2D8
330
2D6
100
AcDbEntity
  8
0
100
AcDbBlockEnd
  0
ENDSEC
  0
SECTION
  2
ENTITIES
  0
LINE
  5
96
330
1F
100
AcDbEntity
  8
외형선
  6
Continuous
370
    15
100
AcDbLine
 10
0.0
 20
1.5875
 30
0.0
 11
-26.40442116787305
 21
1.587499999999998
 31
0.0
  0
LINE
  5
97
330
1F
100
AcDbEntity
  8
외형선
  6
Continuous
370
    15
100
AcDbLine
 10
-26.40442116787305
 20
-1.587500000000001
 30
0.0
 11
0.0
 21
-1.587499999999999
 31
0.0
  0
LINE
  5
98
330
1F
100
AcDbEntity
  8
외형선
  6
Continuous
370
    15
100
AcDbLine
 10
0.0
 20
-1.5875
 30
0.0
 11
0.7405788321269462
 21
-1.3890625
 31
0.0
  0
LINE
  5
99
330
1F
100
AcDbEntity
  8
외형선
  6
Continuous
370
    15
100
AcDbLine
 10
0.7405788321269462
 20
1.389062500000001
 30
0.0
 11
0.0
 21
1.587500000000001
 31
0.0
  0
LINE
  5
9A
330
1F
100
AcDbEntity
  8
외형선
  6
Continuous
370
    15
100
AcDbLine
 10
-26.40442116787305
 20
1.587499999999997
 30
0.0
 11
-26.83442116787306
 21
1.157499999999997
 31
0.0
  0
LINE
  5
9B
330
1F
100
AcDbEntity
  8
외형선
  6
Continuous
370
    15
100
AcDbLine
 10
-26.83442116787306
 20
-1.1575
 30
0.0
 11
-26.40442116787305
 21
-1.5875
 31
0.0
  0
LINE
  5
9C
330
1F
100
AcDbEntity
  8
외형선
  6
Continuous
370
    15
100
AcDbLine
 10
0.8506353412923264
 20
1.389062500000001
 30
0.0
 11
0.7405788321269462
 21
1.389062500000001
 31
0.0
  0
LINE
  5
9D
330
1F
100
AcDbEntity
  8
외형선
  6
Continuous
370
    15
100
AcDbLine
 10
0.7405788321269462
 20
-1.3890625
 30
0.0
 11
0.8506353412923264
 21
-1.3890625
 31
0.0
  0
ARC
  5
9E
330
1F
100
AcDbEntity
  8
외형선
  6
Continuous
370
    15
100
AcDbCircle
 10
1.200619314689613
 20
-1.336654839356491
 30
0.0
 40
0.3500163571261828
100
AcDbArc
 50
96.72820733344714
 51
142.8312050989113
  0
SPLINE
  5
9F
330
1F
100
AcDbEntity
  8
외형선
  6
Continuous
370
    15
100
AcDbSpline
210
0.0
220
0.0
230
1.0
 70
     8
 71
     3
 72
     9
 73
     5
 74
     0
 42
0.000000001
 43
0.00000001
 40
0.0
 40
0.0
 40
0.0
 40
0.0
 40
0.4356010054119224
 40
0.9999999999999999
 40
0.9999999999999999
 40
0.9999999999999999
 40
0.9999999999999999
 10
1.142309467033625
 20
-0.9914889571095858
 30
0.0
 10
1.228815963651433
 20
-0.9812236186363117
 30
0.0
 10
1.427407095313315
 20
-0.9576576985724524
 30
0.0
 10
1.627593708764888
 20
-0.9429143204334278
 30
0.0
 10
1.740578832126946
 20
-0.9345931726349308
 30
0.0
  0
SPLINE
  5
A0
330
1F
100
AcDbEntity
  8
외형선
  6
Continuous
370
    15
100
AcDbSpline
210
0.0
220
0.0
230
1.0
 70
     8
 71
     3
 72
     9
 73
     5
 74
     0
 42
0.000000001
 43
0.00000001
 40
0.0
 40
0.0
 40
0.0
 40
0.0
 40
0.4417292284412189
 40
1.0
 40
1.0
 40
1.0
 40
1.0
 10
1.740578832126946
 20
0.9345931726349317
 30
0.0
 10
1.610361696636549
 20
0.9444110425794087
 30
0.0
 10
1.315572203195257
 20
0.9666370337802229
 30
0.0
 10
1.017214183137337
 20
1.00750772094645
 30
0.0
 10
0.850649621078853
 20
1.030324631004877
 30
0.0
  0
LINE
  5
A1
330
1F
100
AcDbEntity
  8
0
  6
Continuous
 62
     1
370
    25
100
AcDbLine
 10
7.295520271936599
 20
0.5410841058088613
 30
0.0
 11
7.280746452617215
 21
0.5486760095226931
 31
0.0
  0
SPLINE
  5
A2
330
1F
100
AcDbEntity
  8
0
  6
Continuous
 62
     1
370
    25
100
AcDbSpline
210
0.0
220
0.0
230
1.0
 70
     8
 71
     3
 72
     9
 73
     5
 74
     0
 42
0.000000001
 43
0.00000001
 40
0.0
 40
0.0
 40
0.0
 40
0.0
 40
0.5191200324690111
 40
0.9999999999999999
 40
0.9999999999999999
 40
0.9999999999999999
 40
0.9999999999999999
 10
7.667565942174782
 20
0.3559506608918813
 30
0.0
 10
7.603191474098608
 20
0.3864902927266478
 30
0.0
 10
7.479184570011327
 20
0.4453199080846132
 30
0.0
 10
7.355160812447135
 20
0.5099869978041887
 30
0.0
 10
7.295520271936599
 20
0.5410841058088615
 30
0.0
  0
LINE
  5
A3
330
1F
100
AcDbEntity
  8
0
  6
Continuous
 62
     1
370
    25
100
AcDbLine
 10
6.914605920063593
 20
0.382762969266124
 30
0.0
 11
6.884577098609238
 21
0.3993122860539702
 31
0.0
  0
LINE
  5
A4
330
1F
100
AcDbEntity
  8
0
  6
Continuous
 62
     1
370
    25
100
AcDbLine
 10
4.478940893724726
 20
1.389062500000001
 30
0.0
 11
3.806449326913647
 21
1.389062500000001
 31
0.0
  0
LINE
  5
A5
330
1F
100
AcDbEntity
  8
0
  6
Continuous
 62
     1
370
    25
100
AcDbLine
 10
3.80644932691364
 20
-1.389062500000001
 30
0.0
 11
4.478940893724733
 21
-1.389062500000001
 31
0.0
  0
SPLINE
  5
A6
330
1F
100
AcDbEntity
  8
0
  6
Continuous
 62
     1
370
    25
100
AcDbSpline
210
0.0
220
0.0
230
1.0
 70
     8
 71
     3
 72
    16
 73
    12
 74
     0
 42
0.000000001
 43
0.00000001
 40
0.0
 40
0.0
 40
0.0
 40
0.0
 40
0.2279462069828174
 40
0.4101382600077399
 40
0.5445895305636409
 40
0.6310189967392068
 40
0.7060207151157134
 40
0.7890067516830873
 40
0.8796728591625222
 40
0.9780753999090032
 40
1.0
 40
1.0
 40
1.0
 40
1.0
 10
7.206697029427414
 20
1.103793667052541
 30
0.0
 10
7.119784035586026
 20
1.099598577627593
 30
0.0
 10
6.963403525736794
 20
1.092050451689903
 30
0.0
 10
6.756161397991928
 20
1.086882216260676
 30
0.0
 10
6.602905683229793
 20
1.084971289119232
 30
0.0
 10
6.490773400079938
 20
1.084674849688
 30
0.0
 10
6.398210597576213
 20
1.085077802580585
 30
0.0
 10
6.30393234096611
 20
1.086100409535576
 30
0.0
 10
6.200699193068107
 20
1.088170991418719
 30
0.0
 10
6.120774997348953
 20
1.089979509894109
 30
0.0
 10
6.074781240690523
 20
1.091841133944374
 30
0.0
 10
6.066400797887674
 20
1.092180337240802
 30
0.0
  0
SPLINE
  5
A7
330
1F
100
AcDbEntity
  8
0
  6
Continuous
 62
     1
370
    25
100
AcDbSpline
210
0.0
220
0.0
230
1.0
 70
     8
 71
     3
 72
    17
 73
    13
 74
     0
 42
0.000000001
 43
0.00000001
 40
0.0
 40
0.0
 40
0.0
 40
0.0
 40
0.1432889112231135
 40
0.2585308714093529
 40
0.3598440520114461
 40
0.4660842785624791
 40
0.5692925159612358
 40
0.6555352196991777
 40
0.7027159024227247
 40
0.7761110420501066
 40
0.8755672325009374
 40
1.0
 40
1.0
 40
1.0
 40
1.0
 10
5.119323549888488
 20
-1.15587480206839
 30
0.0
 10
5.216913836412854
 20
-1.146505751875487
 30
0.0
 10
5.392992373131914
 20
-1.129601521883276
 30
0.0
 10
5.644321546469865
 20
-1.111642046207473
 30
0.0
 10
5.872288459962526
 20
-1.099264329795842
 30
0.0
 10
6.089668990786024
 20
-1.090649836426579
 30
0.0
 10
6.295072686177292
 20
-1.0858797764164
 30
0.0
 10
6.459342438802363
 20
-1.084593828656139
 30
0.0
 10
6.602899738564098
 20
-1.084970598954937
 30
0.0
 10
6.756163987668899
 20
-1.086882516917208
 30
0.0
 10
6.963402585212691
 20
-1.092050342496855
 30
0.0
 10
7.119783699597747
 20
-1.099598538619997
 30
0.0
 10
7.206697029427414
 20
-1.103793667052541
 30
0.0
  0
SPLINE
  5
A8
330
1F
100
AcDbEntity
  8
0
  6
Continuous
 62
     1
370
    25
100
AcDbSpline
210
0.0
220
0.0
230
1.0
 70
     8
 71
     3
 72
    14
 73
    10
 74
     0
 42
0.000000001
 43
0.00000001
 40
0.0
 40
0.0
 40
0.0
 40
0.0
 40
0.2665101910156234
 40
0.4627002463012306
 40
0.5972501977334312
 40
0.7237350940163522
 40
0.8564234942808058
 40
0.9907125999567075
 40
1.0
 40
1.0
 40
1.0
 40
1.0
 10
8.322912948142253
 20
-1.044746696330954
 30
0.0
 10
8.415786022435029
 20
-1.030811606027976
 30
0.0
 10
8.577027114891049
 20
-1.006618273342099
 30
0.0
 10
8.783964497258289
 20
-0.9809493321949324
 30
0.0
 10
8.941133308711052
 20
-0.9640098693519771
 30
0.0
 10
9.076876893437689
 20
-0.9512006046241325
 30
0.0
 10
9.213168081620342
 20
-0.9403664522815274
 30
0.0
 10
9.308903734804321
 20
-0.9335344372191995
 30
0.0
 10
9.358621663178504
 20
-0.9309303815939063
 30
0.0
 10
9.361837720623427
 20
-0.9307619354668332
 30
0.0
  0
SPLINE
  5
A9
330
1F
100
AcDbEntity
  8
0
  6
Continuous
 62
     1
370
    25
100
AcDbSpline
210
0.0
220
0.0
230
1.0
 70
     8
 71
     3
 72
    15
 73
    11
 74
     0
 42
0.000000001
 43
0.00000001
 40
0.0
 40
0.0
 40
0.0
 40
0.0
 40
0.180685451522014
 40
0.3169713183904944
 40
0.4122748729485614
 40
0.4938194891634737
 40
0.5737801754814709
 40
0.672914569924422
 40
0.8143854984941549
 40
1.0
 40
1.0
 40
1.0
 40
1.0
 10
3.190436288774652
 20
0.9500463597600001
 30
0.0
 10
3.102479099661494
 20
0.9431407231661237
 30
0.0
 10
2.94817831915995
 20
0.931026362452251
 30
0.0
 10
2.748800512356222
 20
0.9214244012192802
 30
0.0
 10
2.598440942669352
 20
0.9167113477844778
 30
0.0
 10
2.475136275586449
 20
0.914521635651829
 30
0.0
 10
2.349290641387602
 20
0.9138032377817028
 30
0.0
 10
2.19417581399272
 20
0.9150896426113102
 30
0.0
 10
1.988465140402674
 20
0.9203116721687442
 30
0.0
 10
1.830321956138681
 20
0.9294227924056812
 30
0.0
 10
1.740578832126936
 20
0.9345931726349319
 30
0.0
  0
LINE
  5
AA
330
1F
100
AcDbEntity
  8
0
  6
Continuous
 62
     1
370
    25
100
AcDbLine
 10
1.740578832126936
 20
-0.934593172634931
 30
0.0
 11
1.802219045254038
 21
-0.9314325160676312
 31
0.0
  0
SPLINE
  5
AB
330
1F
100
AcDbEntity
  8
0
  6
Continuous
 62
     1
370
    25
100
AcDbSpline
210
0.0
220
0.0
230
1.0
 70
     8
 71
     3
 72
    19
 73
    15
 74
     0
 42
0.000000001
 43
0.00000001
 40
0.0
 40
0.0
 40
0.0
 40
0.0
 40
0.113298515542071
 40
0.1971866467750675
 40
0.2531221978335003
 40
0.298457910500778
 40
0.3444384460939015
 40
0.5265265529385567
 40
0.5958965037464246
 40
0.6642156636573926
 40
0.7256307584377801
 40
0.7885538894280418
 40
0.8789007323555608
 40
1.0
 40
1.0
 40
1.0
 40
1.0
 10
10.74903173170518
 20
0.9500595023651143
 30
0.0
 10
10.65715420272312
 20
0.9428770574436101
 30
0.0
 10
10.49724900213622
 20
0.9303766091990597
 30
0.0
 10
10.29305356049656
 20
0.920867557919851
 30
0.0
 10
10.14339649360323
 20
0.9164109544864829
 30
0.0
 10
10.02427329659086
 20
0.9144388191325028
 30
0.0
 10
9.803109763762695
 20
0.9133232139103621
 30
0.0
 10
9.56284722004791
 20
0.919219229622767
 30
0.0
 10
9.304294809926727
 20
0.9337870281414359
 30
0.0
 10
9.143229903927047
 20
0.9455455930873559
 30
0.0
 10
8.98737629404216
 20
0.959364477521446
 30
0.0
 10
8.81389080232363
 20
0.9774250618541035
 30
0.0
 10
8.59256791243595
 20
1.004398710394987
 30
0.0
 10
8.421110129133908
 20
1.030053629255476
 30
0.0
 10
8.322912948142253
 20
1.044746696330955
 30
0.0
  0
LINE
  5
AC
330
1F
100
AcDbEntity
  8
외형선
  6
Continuous
370
    15
100
AcDbLine
 10
0.0
 20
1.587500000000001
 30
0.0
 11
0.0
 21
-1.587500000000001
 31
0.0
  0
LINE
  5
AD
330
1F
100
AcDbEntity
  8
외형선
  6
Continuous
370
    15
100
AcDbLine
 10
-26.40442116787305
 20
1.587499999999997
 30
0.0
 11
-26.40442116787305
 21
-1.587500000000001
 31
0.0
  0
LINE
  5
AE
330
1F
100
AcDbEntity
  8
외형선
  6
Continuous
370
    15
100
AcDbLine
 10
0.7405788321269462
 20
1.389062500000001
 30
0.0
 11
0.7405788321269462
 21
-1.3890625
 31
0.0
  0
LINE
  5
AF
330
1F
100
AcDbEntity
  8
외형선
  6
Continuous
370
    15
100
AcDbLine
 10
-26.83442116787306
 20
1.157499999999998
 30
0.0
 11
-26.83442116787306
 21
-1.1575
 31
0.0
  0
SPLINE
  5
B0
330
1F
100
AcDbEntity
  8
외형선
  6
Continuous
370
    15
100
AcDbSpline
210
0.0
220
0.0
230
1.0
 70
     8
 71
     3
 72
    10
 73
     6
 74
     0
 42
0.000000001
 43
0.00000001
 40
0.0
 40
0.0
 40
0.0
 40
0.0
 40
0.5000000000000001
 40
0.5000000000000001
 40
1.0
 40
1.0
 40
1.0
 40
1.0
 10
1.740578832126513
 20
-0.5818714898578762
 30
0.0
 10
1.591519783537942
 20
-0.5040049373956271
 30
0.0
 10
1.441326086797774
 20
-0.4225915613236465
 30
0.0
 10
1.146307694528261
 20
-0.2568718977948047
 30
0.0
 10
0.9999609272618688
 20
-0.1723033822085467
 30
0.0
 10
0.8506946629526286
 20
-0.0866780258895585
 30
0.0
  0
LINE
  5
B1
330
1F
100
AcDbEntity
  8
외형선
  6
Continuous
370
    15
100
AcDbLine
 10
1.740578832126943
 20
-0.5818714898581016
 30
0.0
 11
1.740578832126946
 21
-0.9075914749445488
 31
0.0
  0
SPLINE
  5
B2
330
1F
100
AcDbEntity
  8
외형선
  6
Continuous
370
    15
100
AcDbSpline
210
0.0
220
0.0
230
1.0
 70
     8
 71
     3
 72
    10
 73
     6
 74
     0
 42
0.000000001
 43
0.00000001
 40
0.0
 40
0.0
 40
0.0
 40
0.0
 40
0.5000000000000001
 40
0.5000000000000001
 40
1.0
 40
1.0
 40
1.0
 40
1.0
 10
1.740578832126516
 20
-0.9075914749443602
 30
0.0
 10
1.591734025411782
 20
-0.8427676053422198
 30
0.0
 10
1.441757782682927
 20
-0.7725665650616829
 30
0.0
 10
1.147148117359844
 20
-0.6250695222257745
 30
0.0
 10
1.001029489385942
 20
-0.5475726156380322
 30
0.0
 10
0.8519818834376238
 20
-0.4668883530838756
 30
0.0
  0
SPLINE
  5
B3
330
1F
100
AcDbEntity
  8
외형선
  6
Continuous
370
    15
100
AcDbSpline
210
0.0
220
0.0
230
1.0
 70
     8
 71
     3
 72
     8
 73
     4
 74
     0
 42
0.000000001
 43
0.00000001
 40
0.0
 40
0.0
 40
0.0
 40
0.0
 40
0.0000777781223568
 40
0.0000777781223568
 40
0.0000777781223568
 40
0.0000777781223568
 10
0.8506353412923264
 20
-0.539369981434232
 30
0.0
 10
0.8506353412923264
 20
-0.5154782552358823
 30
0.0
 10
0.8510202064721941
 20
-0.4912892135802908
 30
0.0
 10
0.8519818834376203
 20
-0.4668883530838757
 30
0.0
  0
LINE
  5
B4
330
1F
100
AcDbEntity
  8
외형선
  6
Continuous
370
    15
100
AcDbLine
 10
0.8506353412923264
 20
-1.3890625
 30
0.0
 11
0.8506353412923264
 21
-0.539369981434232
 31
0.0
  0
LINE
  5
B5
330
1F
100
AcDbEntity
  8
외형선
  6
Continuous
370
    15
100
AcDbLine
 10
0.8506353412923264
 20
-0.0866186105138469
 30
0.0
 11
0.8506353412923264
 21
1.389062500000001
 31
0.0
  0
SPLINE
  5
B6
330
1F
100
AcDbEntity
  8
외형선
  6
Continuous
370
    15
100
AcDbSpline
210
0.0
220
0.0
230
1.0
 70
    24
 71
     3
 72
     8
 73
     4
 74
     0
 42
0.000000001
 43
0.00000001
 40
0.0
 40
0.0
 40
0.0
 40
0.0
 40
1.0
 40
1.0
 40
1.0
 40
1.0
 10
1.74057883212696
 20
-0.429072884402225
 30
0.0
 10
1.74057883212696
 20
-0.4754382879084568
 30
0.0
 10
1.74057883212696
 20
-0.5266782361994341
 30
0.0
 10
1.74057883212696
 20
-0.5818714898578257
 30
0.0
  0
SPLINE
  5
B7
330
1F
100
AcDbEntity
  8
외형선
  6
Continuous
370
    15
100
AcDbSpline
210
0.0
220
0.0
230
1.0
 70
     8
 71
     3
 72
    10
 73
     6
 74
     0
 42
0.000000001
 43
0.00000001
 40
0.0
 40
0.0
 40
0.0
 40
0.0
 40
0.5
 40
0.5
 40
1.0
 40
1.0
 40
1.0
 40
1.0
 10
1.74057883212542
 20
-0.4290728844015239
 30
0.0
 10
1.591519783537027
 20
-0.3611663453265717
 30
0.0
 10
1.441326086797044
 20
-0.2906184950420463
 30
0.0
 10
1.146307694527907
 20
-0.1478713767525145
 30
0.0
 10
0.9999609272616894
 20
-0.0754412925463347
 30
0.0
 10
0.8506946629526286
 20
-0.0025177916532189
 30
0.0
  0
LINE
  5
B8
330
1F
100
AcDbEntity
  8
외형선
  6
Continuous
370
    15
100
AcDbLine
 10
1.159400565356673
 20
-0.9888740755652831
 30
0.0
 11
1.157276225310612
 21
-0.9862264485322825
 31
0.0
  0
SPLINE
  5
B9
330
1F
100
AcDbEntity
  8
외형선
  6
Continuous
370
    15
100
AcDbSpline
210
0.0
220
0.0
230
1.0
 70
     8
 71
     3
 72
    10
 73
     6
 74
     0
 42
0.000000001
 43
0.00000001
 40
0.0
 40
0.0
 40
0.0
 40
0.0
 40
0.065553001437293
 40
0.5176548897906088
 40
1.0
 40
1.0
 40
1.0
 40
1.0
 10
0.9227734366004423
 20
-1.125973535898257
 30
0.0
 10
0.919387384679963
 20
-1.129625744960229
 30
0.0
 10
0.8926486191728209
 20
-1.158466283730617
 30
0.0
 10
0.8633980267502182
 20
-1.214691297982485
 30
0.0
 10
0.8549803816730837
 20
-1.270869061101345
 30
0.0
 10
0.8506353412923229
 20
-1.299867034645658
 30
0.0
  0
SPLINE
  5
BA
330
1F
100
AcDbEntity
  8
외형선
  6
Continuous
370
    15
100
AcDbSpline
210
0.0
220
0.0
230
1.0
 70
     8
 71
     3
 72
    10
 73
     6
 74
     0
 42
0.000000001
 43
0.00000001
 40
0.0
 40
0.0
 40
0.0
 40
0.0
 40
0.5
 40
0.5
 40
1.0
 40
1.0
 40
1.0
 40
1.0
 10
1.740578832124791
 20
0.8106891354448286
 30
0.0
 10
1.591513513062244
 20
0.8576116252659086
 30
0.0
 10
1.441313451771133
 20
0.8999756055758019
 30
0.0
 10
1.146283097922311
 20
0.9735323345812038
 30
0.0
 10
0.9999296510593378
 20
1.004914745807511
 30
0.0
 10
0.850656987790261
 20
1.03058764381594
 30
0.0
  0
SPLINE
  5
BB
330
1F
100
AcDbEntity
  8
외형선
  6
Continuous
370
    15
100
AcDbSpline
210
0.0
220
0.0
230
1.0
 70
    24
 71
     3
 72
    10
 73
     6
 74
     0
 42
0.000000001
 43
0.00000001
 40
0.0
 40
0.0
 40
0.0
 40
0.0
 40
0.5
 40
0.5
 40
1.0
 40
1.0
 40
1.0
 40
1.0
 10
1.740578832126888
 20
0.8106891354441687
 30
0.0
 10
1.740578832126888
 20
0.6470671990462695
 30
0.0
 10
1.740578832126888
 20
0.4449766846813266
 30
0.0
 10
1.740578832126888
 20
0.0116184253900375
 30
0.0
 10
1.740578832126888
 20
-0.2177839761766837
 30
0.0
 10
1.740578832126888
 20
-0.4290728844021923
 30
0.0
  0
SPLINE
  5
BC
330
1F
100
AcDbEntity
  8
외형선
  6
Continuous
370
    15
100
AcDbSpline
210
0.0
220
0.0
230
1.0
 70
    24
 71
     3
 72
    10
 73
     6
 74
     0
 42
0.000000001
 43
0.00000001
 40
0.0
 40
0.0
 40
0.0
 40
0.0
 40
0.1732597000133959
 40
0.586629850006698
 40
0.9999999999999999
 40
0.9999999999999999
 40
0.9999999999999999
 40
0.9999999999999999
 10
1.740578832126946
 20
0.9291886095301556
 30
0.0
 10
1.740578832126946
 20
0.9304256122962308
 30
0.0
 10
1.740578832126946
 20
0.9346139073646422
 30
0.0
 10
1.740578832126946
 20
0.898253196259439
 30
0.0
 10
1.740578832126946
 20
0.8398771557159137
 30
0.0
 10
1.740578832126946
 20
0.810689135444151
 30
0.0
  0
SPLINE
  5
BD
330
1F
100
AcDbEntity
  8
0
  6
Continuous
 62
     1
370
    25
100
AcDbSpline
210
0.0
220
0.0
230
1.0
 70
     8
 71
     3
 72
    19
 73
    15
 74
     0
 42
0.000000001
 43
0.00000001
 40
0.0
 40
0.0
 40
0.0
 40
0.0
 40
0.0881732079707893
 40
0.1760132343685812
 40
0.2639753218401429
 40
0.3522873501964021
 40
0.4402261888917023
 40
0.5265014276997282
 40
0.6131761569578059
 40
0.6996899189355698
 40
0.78594007781628
 40
0.8741923278759329
 40
0.9626550985535341
 40
1.0
 40
1.0
 40
1.0
 40
1.0
 10
11.26557883212694
 20
-1.318138176167436
 30
0.0
 10
11.06601152495437
 20
-1.274020808066552
 30
0.0
 10
10.66763101892457
 20
-1.185952778900161
 30
0.0
 10
10.07089191729888
 20
-0.958859579889991
 30
0.0
 10
9.473628125176528
 20
-0.6786298260270047
 30
0.0
 10
8.875253862295615
 20
-0.3565357491780694
 30
0.0
 10
8.281613116640845
 20
-0.0136992689575128
 30
0.0
 10
7.69190982548017
 20
0.3281401533282555
 30
0.0
 10
7.104448835908748
 20
0.6471466296588976
 30
0.0
 10
6.517477602952923
 20
0.928254425747042
 30
0.0
 10
5.927492529247257
 20
1.157709336850272
 30
0.0
 10
5.332601982968995
 20
1.313061626134683
 30
0.0
 10
4.847833155341984
 20
1.389426896963526
 30
0.0
 10
4.563378698492205
 20
1.381067257533976
 30
0.0
 10
4.478940893724726
 20
1.378585772062116
 30
0.0
  0
SPLINE
  5
BE
330
1F
100
AcDbEntity
  8
0
  6
Continuous
 62
     1
370
    25
100
AcDbSpline
210
0.0
220
0.0
230
1.0
 70
     8
 71
     3
 72
    13
 73
     9
 74
     0
 42
0.000000001
 43
0.00000001
 40
0.0
 40
0.0
 40
0.0
 40
0.0
 40
0.1809422573883195
 40
0.3613671935026976
 40
0.5416969849959701
 40
0.7223565838117807
 40
0.9034780122912094
 40
1.0
 40
1.0
 40
1.0
 40
1.0
 10
11.26557883212694
 20
-1.095931785973975
 30
0.0
 10
11.04815638869557
 20
-1.048540219686208
 30
0.0
 10
10.61393312144254
 20
-0.953892581526406
 30
0.0
 10
9.96343567000605
 20
-0.7209138082928993
 30
0.0
 10
9.313286454624567
 20
-0.4409025580156348
 30
0.0
 10
8.66216053700309
 20
-0.1284057092980557
 30
0.0
 10
8.111264391027419
 20
0.1464504193679489
 30
0.0
 10
7.77780430268156
 20
0.3010313194843502
 30
0.0
 10
7.6618777988567
 20
0.3547709541059552
 30
0.0
  0
LINE
  5
BF
330
1F
100
AcDbEntity
  8
0
  6
Continuous
 62
     1
370
    25
100
AcDbLine
 10
11.26557883212694
 20
-1.318138176167437
 30
0.0
 11
11.26557883212694
 21
-1.095931785973975
 31
0.0
  0
SPLINE
  5
C0
330
1F
100
AcDbEntity
  8
0
  6
Continuous
 62
     1
370
    25
100
AcDbSpline
210
0.0
220
0.0
230
1.0
 70
     8
 71
     3
 72
    23
 73
    19
 74
     0
 42
0.000000001
 43
0.00000001
 40
0.0
 40
0.0
 40
0.0
 40
0.0
 40
0.0564711039994439
 40
0.1196037776239167
 40
0.1829153962157753
 40
0.2459416439725903
 40
0.3089645422120496
 40
0.3711543556610215
 40
0.4331478346795959
 40
0.4950032396941108
 40
0.5570921955310268
 40
0.6204741579807563
 40
0.6836083859255534
 40
0.7468153969132877
 40
0.8102841237249955
 40
0.8734987884887483
 40
0.9366303448632184
 40
1.0
 40
1.0
 40
1.0
 40
1.0
 10
1.802183925648745
 20
0.9314189325981468
 30
0.0
 10
1.980226792061039
 20
1.004339796181012
 30
0.0
 10
2.357315212399181
 20
1.158783575997941
 30
0.0
 10
2.934258044777899
 20
1.311560690855321
 30
0.0
 10
3.532559568020602
 20
1.39447912947758
 30
0.0
 10
4.129540330854791
 20
1.390732275036364
 30
0.0
 10
4.722966199223251
 20
1.30215554343554
 30
0.0
 10
5.314125452281807
 20
1.136533105849693
 30
0.0
 10
5.900900401112665
 20
0.904224037429103
 30
0.0
 10
6.486953615377718
 20
0.61780463876575
 30
0.0
 10
7.078127512993454
 20
0.293544690214375
 30
0.0
 10
7.673441497539034
 20
-0.0506679952377938
 30
0.0
 10
8.27151265915921
 20
-0.3951484854254997
 30
0.0
 10
8.870027318848436
 20
-0.7149319620700709
 30
0.0
 10
9.4697190734266
 20
-0.9899817373343475
 30
0.0
 10
10.06827144944436
 20
-1.203533317773079
 30
0.0
 10
10.66631855748808
 20
-1.348835472313552
 30
0.0
 10
11.06557491572078
 20
-1.374854490250591
 30
0.0
 10
11.26557883212694
 20
-1.387888485529927
 30
0.0
  0
SPLINE
  5
C1
330
1F
100
AcDbEntity
  8
0
  6
Continuous
 62
     1
370
    25
100
AcDbSpline
210
0.0
220
0.0
230
1.0
 70
     8
 71
     3
 72
    15
 73
    11
 74
     0
 42
0.000000001
 43
0.00000001
 40
0.0
 40
0.0
 40
0.0
 40
0.0
 40
0.0996057157742937
 40
0.2398996335655621
 40
0.3803072300260811
 40
0.5211611660786281
 40
0.6618989864560519
 40
0.8022536523569985
 40
0.9425678477494099
 40
1.0
 40
1.0
 40
1.0
 40
1.0
 10
7.820171065404352
 20
-0.1340010960543343
 30
0.0
 10
7.666399179057933
 20
-0.0722734507026552
 30
0.0
 10
7.296040722212101
 20
0.0763971289485034
 30
0.0
 10
6.709081293872707
 20
0.3128111138079286
 30
0.0
 10
6.058409332311307
 20
0.5508861159867102
 30
0.0
 10
5.406718213629265
 20
0.7485000689023089
 30
0.0
 10
4.755218314098268
 20
0.8927561169249851
 30
0.0
 10
4.104778615496294
 20
0.968671814883395
 30
0.0
 10
3.582985638259274
 20
0.9833852951539117
 30
0.0
 10
3.277659651845873
 20
0.9522413500163363
 30
0.0
 10
3.188982774893319
 20
0.9431961068543517
 30
0.0
  0
LINE
  5
C2
330
1F
100
AcDbEntity
  8
0
  6
Continuous
 62
     1
370
    25
100
AcDbLine
 10
11.26557883212694
 20
-1.387888485529927
 30
0.0
 11
11.26557883212694
 21
-1.318138176167437
 31
0.0
  0
SPLINE
  5
C3
330
1F
100
AcDbEntity
  8
0
  6
Continuous
 62
     1
370
    25
100
AcDbSpline
210
0.0
220
0.0
230
1.0
 70
     8
 71
     3
 72
    15
 73
    11
 74
     0
 42
0.000000001
 43
0.00000001
 40
0.0
 40
0.0
 40
0.0
 40
0.0
 40
0.0310998309010035
 40
0.1695524182023367
 40
0.3083352761111108
 40
0.4465020995149405
 40
0.5846914551154342
 40
0.7235011748629928
 40
0.8619096664998062
 40
1.0
 40
1.0
 40
1.0
 40
1.0
 10
6.066400797887674
 20
-1.092180337240801
 30
0.0
 10
6.021581308797714
 20
-1.109752087454956
 30
0.0
 10
5.777231016926795
 20
-1.205551088753102
 30
0.0
 10
5.332578742849364
 20
-1.31289774037306
 30
0.0
 10
4.733028384246321
 20
-1.396481756586156
 30
0.0
 10
4.134783874229171
 20
-1.388880757608209
 30
0.0
 10
3.536483266967366
 20
-1.296927551254388
 30
0.0
 10
2.936859718300362
 20
-1.12468517432162
 30
0.0
 10
2.338081378580451
 20
-0.8853383589886067
 30
0.0
 10
1.939593505299035
 20
-0.6829494854867993
 30
0.0
 10
1.740578832126564
 20
-0.581871489857904
 30
0.0
  0
SPLINE
  5
C4
330
1F
100
AcDbEntity
  8
외형선
  6
Continuous
370
    15
100
AcDbSpline
210
0.0
220
0.0
230
1.0
 70
    24
 71
     3
 72
     8
 73
     4
 74
     0
 42
0.000000001
 43
0.00000001
 40
0.0
 40
0.0
 40
0.0
 40
0.0
 40
1.0
 40
1.0
 40
1.0
 40
1.0
 10
1.740578832126946
 20
-0.4290728844022179
 30
0.0
 10
1.740578832126946
 20
-0.4754382879084502
 30
0.0
 10
1.740578832126946
 20
-0.526678236199428
 30
0.0
 10
1.740578832126943
 20
-0.5818714898578202
 30
0.0
  0
SPLINE
  5
C5
330
1F
100
AcDbEntity
  8
0
  6
Continuous
 62
     1
370
    25
100
AcDbSpline
210
0.0
220
0.0
230
1.0
 70
     8
 71
     3
 72
    13
 73
     9
 74
     0
 42
0.000000001
 43
0.00000001
 40
0.0
 40
0.0
 40
0.0
 40
0.0
 40
0.108346902011227
 40
0.3006265360772229
 40
0.4928529958715312
 40
0.6854787657102631
 40
0.8785156247055765
 40
0.9999999999999999
 40
0.9999999999999999
 40
0.9999999999999999
 40
0.9999999999999999
 10
5.121062721810144
 20
-1.145157108583242
 30
0.0
 10
4.998930465271268
 20
-1.158925137362282
 30
0.0
 10
4.660054165672292
 20
-1.197126827707114
 30
0.0
 10
4.104830745993326
 20
-1.164956071070248
 30
0.0
 10
3.454601372280496
 20
-1.057251114289322
 30
0.0
 10
2.803421178385314
 20
-0.8680459718572738
 30
0.0
 10
2.231293390127588
 20
-0.6499431717867473
 30
0.0
 10
1.87730677831884
 20
-0.4906140395942362
 30
0.0
 10
1.740578832126946
 20
-0.429072884402218
 30
0.0
  0
SPLINE
  5
C6
330
1F
100
AcDbEntity
  8
0
  6
Continuous
 62
     1
370
    25
100
AcDbSpline
210
0.0
220
0.0
230
1.0
 70
     8
 71
     3
 72
    11
 73
     7
 74
     0
 42
0.000000001
 43
0.00000001
 40
0.0
 40
0.0
 40
0.0
 40
0.0
 40
0.2885179380228738
 40
0.577717340443771
 40
0.8677364575173699
 40
1.0
 40
1.0
 40
1.0
 40
1.0
 10
1.740578832126516
 20
-0.9075914749443617
 30
0.0
 10
1.939156142629715
 20
-0.9894136603188922
 30
0.0
 10
2.33677979293908
 20
-1.153251290823944
 30
0.0
 10
2.934239360012562
 20
-1.308783907041605
 30
0.0
 10
3.424765280247538
 20
-1.388224697170255
 30
0.0
 10
3.715414740551747
 20
-1.380787684522194
 30
0.0
 10
3.80644932691364
 20
-1.378458330910198
 30
0.0
  0
SPLINE
  5
C7
330
1F
100
AcDbEntity
  8
0
  6
Continuous
 62
     1
370
    25
100
AcDbSpline
210
0.0
220
0.0
230
1.0
 70
     8
 71
     3
 72
    11
 73
     7
 74
     0
 42
0.000000001
 43
0.00000001
 40
0.0
 40
0.0
 40
0.0
 40
0.0
 40
0.0567180818605166
 40
0.3710262536576988
 40
0.6849212041557722
 40
1.0
 40
1.0
 40
1.0
 40
1.0
 10
9.362349211702114
 20
0.9309942937830774
 30
0.0
 10
9.398358404766586
 20
0.94758808956945
 30
0.0
 10
9.633915665549942
 20
1.056137844473356
 30
0.0
 10
10.06825967369363
 20
1.20044543562605
 30
0.0
 10
10.66632151276232
 20
1.349610415564547
 30
0.0
 10
11.06557590204751
 20
1.375113128594815
 30
0.0
 10
11.26557883212694
 20
1.387888485529928
 30
0.0
  0
SPLINE
  5
C8
330
1F
100
AcDbEntity
  8
0
  6
Continuous
 62
     1
370
    25
100
AcDbSpline
210
0.0
220
0.0
230
1.0
 70
     8
 71
     3
 72
     8
 73
     4
 74
     0
 42
0.000000001
 43
0.00000001
 40
0.0
 40
0.0
 40
0.0
 40
0.0
 40
1.0
 40
1.0
 40
1.0
 40
1.0
 10
10.40588394792014
 20
0.3887621309163136
 30
0.0
 10
10.35658171397393
 20
0.4471223139970758
 30
0.0
 10
10.312582681454
 20
0.5033065058620646
 30
0.0
 10
10.27513110922505
 20
0.5568041665294464
 30
0.0
  0
LINE
  5
C9
330
1F
100
AcDbEntity
  8
0
  6
Continuous
 62
     1
370
    25
100
AcDbLine
 10
10.29274401544799
 20
0.5715831496581958
 30
0.0
 11
11.26557883212694
 21
0.0000000000000017
 31
0.0
  0
LINE
  5
CA
330
1F
100
AcDbEntity
  8
0
  6
Continuous
 62
     1
370
    25
100
AcDbLine
 10
11.26557883212694
 20
0.0000000000000017
 30
0.0
 11
11.26557883212694
 21
-0.3712171547193019
 31
0.0
  0
SPLINE
  5
CB
330
1F
100
AcDbEntity
  8
0
  6
Continuous
 62
     1
370
    25
100
AcDbSpline
210
0.0
220
0.0
230
1.0
 70
     8
 71
     3
 72
    10
 73
     6
 74
     0
 42
0.000000001
 43
0.00000001
 40
0.0
 40
0.0
 40
0.0
 40
0.0
 40
0.5
 40
0.5
 40
1.0
 40
1.0
 40
1.0
 40
1.0
 10
11.26557883212694
 20
-0.3712171547193029
 30
0.0
 10
11.11675926615879
 20
-0.2542174094430067
 30
0.0
 10
10.97042768836397
 20
-0.1324167157505181
 30
0.0
 10
10.68285576972258
 20
0.1210089811809821
 30
0.0
 10
10.54026376697668
 20
0.2539670538550284
 30
0.0
 10
10.40588394792013
 20
0.3887621309163189
 30
0.0
  0
SPLINE
  5
CC
330
1F
100
AcDbEntity
  8
0
  6
Continuous
 62
     1
370
    25
100
AcDbSpline
210
0.0
220
0.0
230
1.0
 70
     8
 71
     3
 72
    13
 73
     9
 74
     0
 42
0.000000001
 43
0.00000001
 40
0.0
 40
0.0
 40
0.0
 40
0.0
 40
0.1383227617318075
 40
0.3413958553969723
 40
0.5448455325118466
 40
0.7488225832061762
 40
0.9522094587414243
 40
0.9999999999999999
 40
0.9999999999999999
 40
0.9999999999999999
 40
0.9999999999999999
 10
10.40588394784148
 20
0.3887621309506476
 30
0.0
 10
10.25835740384101
 20
0.4512222474379983
 30
0.0
 10
9.894245597134532
 20
0.6053807144135046
 30
0.0
 10
9.313281579040531
 20
0.8156172480604784
 30
0.0
 10
8.662124421616518
 20
0.9945920521201184
 30
0.0
 10
8.010236613994167
 20
1.094067510932296
 30
0.0
 10
7.524797876199706
 20
1.127338881185886
 30
0.0
 10
7.256949141558778
 20
1.101457738617924
 30
0.0
 10
7.205986614085926
 20
1.096533435201233
 30
0.0
  0
SPLINE
  5
CD
330
1F
100
AcDbEntity
  8
0
  6
Continuous
 62
     1
370
    25
100
AcDbSpline
210
0.0
220
0.0
230
1.0
 70
    24
 71
     3
 72
    10
 73
     6
 74
     0
 42
0.000000001
 43
0.00000001
 40
0.0
 40
0.0
 40
0.0
 40
0.0
 40
0.5
 40
0.5
 40
1.0
 40
1.0
 40
1.0
 40
1.0
 10
11.26557883212694
 20
-1.095931785973974
 30
0.0
 10
11.26557883212694
 20
-1.011920070038097
 30
0.0
 10
11.26557883212694
 20
-0.9057680456138287
 30
0.0
 10
11.26557883212694
 20
-0.658974804820241
 30
0.0
 10
11.26557883212695
 20
-0.5185473701134599
 30
0.0
 10
11.26557883212694
 20
-0.3712171547193476
 30
0.0
  0
SPLINE
  5
CE
330
1F
100
AcDbEntity
  8
0
  6
Continuous
 62
     1
370
    25
100
AcDbSpline
210
0.0
220
0.0
230
1.0
 70
     8
 71
     3
 72
    18
 73
    14
 74
     0
 42
0.000000001
 43
0.00000001
 40
0.0
 40
0.0
 40
0.0
 40
0.0
 40
0.0482751091000831
 40
0.1470721619752834
 40
0.2457111809058491
 40
0.344428040943661
 40
0.4434505409790879
 40
0.5423935105881539
 40
0.6410741209736359
 40
0.7397270271506635
 40
0.8385876965560661
 40
0.9376623603035801
 40
1.0
 40
1.0
 40
1.0
 40
1.0
 10
8.327802416711972
 20
-1.034424773353315
 30
0.0
 10
8.22175508826788
 20
-1.053090981358022
 30
0.0
 10
7.898677416218693
 20
-1.109958373650002
 30
0.0
 10
7.359206801130345
 20
-1.120807681083209
 30
0.0
 10
6.709083886484848
 20
-1.067331526299968
 30
0.0
 10
6.058446579268541
 20
-0.932021740628357
 30
0.0
 10
5.406713934516912
 20
-0.7303308952228686
 30
0.0
 10
4.755192754480071
 20
-0.4751123123239638
 30
0.0
 10
4.104798398534328
 20
-0.1851755186631643
 30
0.0
 10
3.45456713888785
 20
0.1184208991205598
 30
0.0
 10
2.803372161373243
 20
0.4125612328486122
 30
0.0
 10
2.231314720732865
 20
0.6464397873854248
 30
0.0
 10
1.87729983674784
 20
0.7649286023420988
 30
0.0
 10
1.740578832126939
 20
0.8106891354441528
 30
0.0
  0
SPLINE
  5
CF
330
1F
100
AcDbEntity
  8
외형선
  6
Continuous
370
    15
100
AcDbSpline
210
0.0
220
0.0
230
1.0
 70
    24
 71
     3
 72
    10
 73
     6
 74
     0
 42
0.000000001
 43
0.00000001
 40
0.0
 40
0.0
 40
0.0
 40
0.0
 40
0.5
 40
0.5
 40
1.0
 40
1.0
 40
1.0
 40
1.0
 10
1.740578832126888
 20
0.8106891354441687
 30
0.0
 10
1.740578832126888
 20
0.6470671990462695
 30
0.0
 10
1.740578832126888
 20
0.4449766846813266
 30
0.0
 10
1.740578832126888
 20
0.0116184253900375
 30
0.0
 10
1.740578832126888
 20
-0.2177839761766837
 30
0.0
 10
1.740578832126888
 20
-0.4290728844021923
 30
0.0
  0
SPLINE
  5
D0
330
1F
100
AcDbEntity
  8
외형선
  6
Continuous
370
    15
100
AcDbSpline
210
0.0
220
0.0
230
1.0
 70
    24
 71
     3
 72
    10
 73
     6
 74
     0
 42
0.000000001
 43
0.00000001
 40
0.0
 40
0.0
 40
0.0
 40
0.0
 40
0.1767701825922004
 40
0.5883850912961002
 40
1.0
 40
1.0
 40
1.0
 40
1.0
 10
1.740578832126946
 20
0.9291520601515783
 30
0.0
 10
1.740578832126946
 20
0.9304320594109066
 30
0.0
 10
1.740578832126946
 20
0.9346925770503343
 30
0.0
 10
1.740578832126946
 20
0.8982782471832361
 30
0.0
 10
1.740578832126946
 20
0.8398855060238459
 30
0.0
 10
1.740578832126946
 20
0.810689135444151
 30
0.0
  0
SPLINE
  5
D1
330
1F
100
AcDbEntity
  8
0
  6
Continuous
 62
     1
370
    25
100
AcDbSpline
210
0.0
220
0.0
230
1.0
 70
    24
 71
     3
 72
     8
 73
     4
 74
     0
 42
0.000000001
 43
0.00000001
 40
0.0
 40
0.0
 40
0.0
 40
0.0
 40
1.0
 40
1.0
 40
1.0
 40
1.0
 10
10.42012071731618
 20
0.6784648932163851
 30
0.0
 10
10.37432014154955
 20
0.6400336469828936
 30
0.0
 10
10.32570980669314
 20
0.5992447329334637
 30
0.0
 10
10.27513110921927
 20
0.556804166537704
 30
0.0
  0
LINE
  5
D2
330
1F
100
AcDbEntity
  8
0
  6
Continuous
 62
     1
370
    25
100
AcDbLine
 10
11.26557883212694
 20
0.97234375
 30
0.0
 11
10.74731956459406
 21
0.9441984657044566
 31
0.0
  0
SPLINE
  5
D3
330
1F
100
AcDbEntity
  8
0
  6
Continuous
 62
     1
370
    25
100
AcDbSpline
210
0.0
220
0.0
230
1.0
 70
     8
 71
     3
 72
     8
 73
     4
 74
     0
 42
0.000000001
 43
0.00000001
 40
0.0
 40
0.0
 40
0.0
 40
0.0
 40
1.0
 40
1.0
 40
1.0
 40
1.0
 10
11.26557883212694
 20
0.9723437500000013
 30
0.0
 10
10.97984542534858
 20
0.8946824946203058
 30
0.0
 10
10.69688167078557
 20
0.7992376002766697
 30
0.0
 10
10.42012071733266
 20
0.6784648932235733
 30
0.0
  0
LINE
  5
D4
330
1F
100
AcDbEntity
  8
외형선
  6
Continuous
370
    15
100
AcDbLine
 10
1.740578832126946
 20
-0.9344386452902301
 30
0.0
 11
1.740578832126946
 21
-0.933816414586002
 31
0.0
  0
SPLINE
  5
D5
330
1F
100
AcDbEntity
  8
0
  6
Continuous
 62
     1
370
    25
100
AcDbSpline
210
0.0
220
0.0
230
1.0
 70
    24
 71
     3
 72
    10
 73
     6
 74
     0
 42
0.000000001
 43
0.00000001
 40
0.0
 40
0.0
 40
0.0
 40
0.0
 40
0.5
 40
0.5
 40
1.0
 40
1.0
 40
1.0
 40
1.0
 10
11.26557883212694
 20
0.9723437500000003
 30
0.0
 10
11.26557883212694
 20
1.03128480672141
 30
0.0
 10
11.26557883212694
 20
1.09977977316073
 30
0.0
 10
11.26557883212694
 20
1.243482028272189
 30
0.0
 10
11.26557883212694
 20
1.318322319417984
 30
0.0
 10
11.26557883212694
 20
1.387888485529928
 30
0.0
  0
LINE
  5
D6
330
1F
100
AcDbEntity
  8
0
  6
Continuous
 62
     1
370
    25
100
AcDbLine
 10
11.26557883212694
 20
0.0000000000000017
 30
0.0
 11
11.26557883212694
 21
0.9723437500000014
 31
0.0
  0
LINE
  5
D7
330
1F
100
AcDbEntity
  8
중심선
 62
     1
100
AcDbLine
 10
-29.83442116787306
 20
-0.0000000000000043
 30
0.0
 11
14.26557883212694
 21
0.0000000000000011
 31
0.0
  0
LINE
  5
D8
330
1F
100
AcDbEntity
  8
참조1
100
AcDbLine
 10
5.324261314031163
 20
0.0010749287238892
 30
0.0
 11
5.324261314031166
 21
-39.99892507127611
 31
0.0
  0
LINE
  5
D9
330
1F
100
AcDbEntity
  8
참조1
100
AcDbLine
 10
5.324261314031166
 20
-39.99892507127611
 30
0.0
 11
-20.15080122126847
 21
-39.9989250712761
 31
0.0
  0
CIRCLE
  5
DA
330
1F
100
AcDbEntity
  8
해칭선
100
AcDbCircle
 10
0.0
 20
0.0
 30
0.0
 40
2.999999999999993
  0
INSERT
  5
DB
330
1F
100
AcDbEntity
  8
0
  6
Continuous
 62
     7
100
AcDbBlockReference
 66
     1
  2
블럭10
 10
-20.76846727438295
 20
-23.84039982499023
 30
0.0
  0
ATTRIB
  5
DC
330
DB
100
AcDbEntity
  8
FORMAT
 62
     2
100
AcDbText
 10
-29.94976256312423
 20
-21.76503291215804
 30
0.0
 40
4.233333333333333
  1
E5020007 [ 2 FLUTE ]
 41
0.75
  7
SLDTEXTSTYLE0
 11
-29.94976256312423
 21
-23.88169957882471
 31
0.0
100
AcDbAttribute
  2
AUTOATTR0
 70
     0
 74
     1
  0
SEQEND
  5
DD
330
DB
100
AcDbEntity
  8
0
  6
Continuous
 62
     7
  0
HATCH
  5
DE
330
1F
100
AcDbEntity
  8
중심선
100
AcDbHatch
 10
0.0
 20
0.0
 30
0.0
210
0.0
220
0.0
230
1.0
  2
SOLID
 70
     1
 71
     0
 91
        1
 92
        0
 93
        4
 72
     1
 10
-15.05355797000212
 20
-7.593225523346291
 11
-18.4998332138394
 21
-7.593225523346291
 72
     1
 10
-18.4998332138394
 20
-7.593225523346291
 11
-20.62806307304345
 21
-10.12955110391889
 72
     1
 10
-20.62806307304345
 20
-10.12955110391889
 11
-17.18175474409299
 21
-10.1295116746164
 72
     1
 10
-17.18175474409299
 20
-10.1295116746164
 11
-15.05355797000212
 21
-7.593225523346291
 97
        0
 75
     0
 76
     1
 98
        1
 10
-12.15245565628891
 20
28.20569954792981
  0
HATCH
  5
DF
330
1F
100
AcDbEntity
  8
중심선
100
AcDbHatch
 10
0.0
 20
0.0
 30
0.0
210
0.0
220
0.0
230
1.0
  2
SOLID
 70
     1
 71
     0
 91
        1
 92
        0
 93
        4
 72
     1
 10
-10.04079397896617
 20
-7.593225523346291
 11
-13.48706922280342
 21
-7.593225523346291
 72
     1
 10
-13.48706922280342
 20
-7.593225523346291
 11
-18.01820723116084
 21
-12.99322552334631
 72
     1
 10
-18.01820723116084
 20
-12.99322552334631
 11
-14.57193198732356
 21
-12.99322552334631
 72
     1
 10
-14.57193198732356
 20
-12.99322552334631
 11
-10.04079397896617
 21
-7.593225523346291
 97
        0
 75
     0
 76
     1
 98
        1
 10
-12.15245565628891
 20
28.20569954792981
  0
HATCH
  5
E0
330
1F
100
AcDbEntity
  8
중심선
100
AcDbHatch
 10
0.0
 20
0.0
 30
0.0
210
0.0
220
0.0
230
1.0
  2
SOLID
 70
     1
 71
     0
 91
        1
 92
        0
 93
        4
 72
     1
 10
-5.028029987930271
 20
-7.593225523346291
 11
-8.474305231767387
 21
-7.59322552334632
 72
     1
 10
-8.474305231767387
 20
-7.59322552334632
 11
-15.52274213365664
 21
-15.99322552334631
 72
     1
 10
-15.52274213365664
 20
-15.99322552334631
 11
-12.07646688981935
 21
-15.99322552334631
 72
     1
 10
-12.07646688981935
 20
-15.99322552334631
 11
-5.028029987930271
 21
-7.593225523346291
 97
        0
 75
     0
 76
     1
 98
        1
 10
-12.15245565628891
 20
28.20569954792981
  0
HATCH
  5
E1
330
1F
100
AcDbEntity
  8
중심선
100
AcDbHatch
 10
0.0
 20
0.0
 30
0.0
210
0.0
220
0.0
230
1.0
  2
SOLID
 70
     1
 71
     0
 91
        1
 92
        0
 93
        6
 72
     3
 10
-0.2281395569180731
 20
-11.79322552339757
 11
3.960054785062283
 21
1.540882976769353E-10
 40
0.3939339440162628
 50
17.09539180608436
 51
320.0019657685081
 73
     0
 72
     1
 10
1.454860098782524
 20
-10.38111952798459
 11
3.760161972483589
 21
-8.446792817936647
 72
     3
 10
-0.2281395569709197
 20
-11.79322552334644
 11
6.600054785286829
 21
-1.278976924368180E-13
 40
0.636358354079598
 50
39.99873849337411
 51
368.4976242363724
 73
     1
 72
     1
 10
6.197192934929692
 20
-10.83322552327632
 11
-1.548072250134968
 21
-10.83322552327632
 72
     1
 10
-1.548072250134968
 20
-10.83322552327632
 11
-1.548097294580931
 21
-12.75322552327621
 72
     1
 10
-1.548097294580931
 20
-12.75322552327621
 11
2.893282474891107
 21
-12.75322552327618
 97
        0
 75
     0
 76
     1
 98
        1
 10
-12.15245565628891
 20
28.20569954792981
  0
DIMENSION
  5
E2
330
1F
100
AcDbEntity
  8
치수문자_일반주서
100
AcDbDimension
  2
_D
 10
-34.29565394505679
 20
-1.587500000000018
 30
0.0
 11
-34.29565394505687
 21
15.74374999999996
 31
0.0
 70
   160
  1
%%c<>
 71
     2
 42
3.174999999999983
 52
-270.0
  3
SLDDIMSTYLE0
100
AcDbAlignedDimension
 13
-26.40442116787306
 23
1.587499999999992
 33
0.0
 14
-26.40442116787306
 24
-1.587499999999991
 34
0.0
 50
90.0000000000002
100
AcDbRotatedDimension
1001
ACAD
1000
DSTYLE
1002
{
1070
   171
1070
     6
1070
   273
1070
     5
1070
    41
1040
2.5
1070
   140
1040
2.5
1002
}
  0
DIMENSION
  5
F7
330
1F
100
AcDbEntity
  8
치수문자_일반주서
100
AcDbDimension
  2
_D_1
 10
1.740578832126946
 20
14.56423021635286
 30
0.0
 11
6.503078832126945
 21
14.56423021635286
 31
0.0
 70
   160
  1
<>
 71
     2
 42
9.524999999999999
  3
SLDDIMSTYLE0
100
AcDbAlignedDimension
 13
11.26557883212694
 23
1.387888485529928
 33
0.0
 14
1.740578832126946
 24
0.9345931728987993
 34
0.0
 50
0.0000000000000107
100
AcDbRotatedDimension
1001
ACAD
1000
DSTYLE
1002
{
1070
   171
1070
     6
1070
   273
1070
     5
1070
    41
1040
2.5
1070
   140
1040
2.5
1002
}
  0
DIMENSION
  5
10C
330
1F
100
AcDbEntity
  8
치수문자_일반주서
100
AcDbDimension
  2
_D_2
 10
-26.83442116787306
 20
31.84366774155154
 30
0.0
 11
-7.784421167873059
 21
31.84366774155154
 31
0.0
 70
   160
  1
<>
 71
     2
 42
38.09999999999999
  3
SLDDIMSTYLE0
100
AcDbAlignedDimension
 13
11.26557883212694
 23
1.318138176167438
 33
0.0
 14
-26.83442116787306
 24
1.157499999999998
 34
0.0
100
AcDbRotatedDimension
1001
ACAD
1000
DSTYLE
1002
{
1070
   171
1070
     6
1070
   273
1070
     5
1070
    41
1040
2.5
1070
   140
1040
2.5
1002
}
  0
DIMENSION
  5
120
330
1F
100
AcDbEntity
  8
치수문자_일반주서
100
AcDbDimension
  2
_D_3
 10
20.31918371821877
 20
1.387888485529961
 30
0.0
 11
20.31918371821871
 21
16.95038848552996
 31
0.0
 70
   160
  1
%%c<>
 71
     2
 42
2.775776971059856
 52
-270.0
  3
SLDDIMSTYLE0
100
AcDbAlignedDimension
 13
11.26557883212694
 23
-1.387888485529927
 33
0.0
 14
11.26557883212694
 24
1.387888485529928
 34
0.0
 50
90.0000000000002
100
AcDbRotatedDimension
1001
ACAD
1000
DSTYLE
1002
{
1070
   171
1070
     6
1070
   273
1070
     5
1070
    41
1040
2.5
1070
   140
1040
2.5
1002
}
  0
LINE
  5
134
330
1F
100
AcDbEntity
  8
참조1
100
AcDbLine
 10
77.82153940838579
 20
7.441074928723896
 30
0.0
 11
77.82153940838579
 21
-7.438925071276109
 31
0.0
  0
LINE
  5
135
330
1F
100
AcDbEntity
  8
참조1
100
AcDbLine
 10
90.52153940838579
 20
5.441074928723896
 30
0.0
 11
77.82153940838579
 21
5.441074928723896
 31
0.0
  0
SOLID
  5
136
330
1F
100
AcDbEntity
  8
참조1
100
AcDbTrace
 10
77.82153940838579
 20
5.441074928723896
 30
0.0
 11
84.17153940838578
 21
4.425074928723896
 31
0.0
 12
84.17153940838578
 22
6.457074928723896
 32
0.0
 13
84.17153940838578
 23
6.457074928723896
 33
0.0
  0
LINE
  5
137
330
1F
100
AcDbEntity
  8
참조1
100
AcDbLine
 10
90.52153940838579
 20
-5.438925071276109
 30
0.0
 11
77.82153940838579
 21
-5.438925071276109
 31
0.0
  0
SOLID
  5
138
330
1F
100
AcDbEntity
  8
참조1
100
AcDbTrace
 10
77.82153940838579
 20
-5.438925071276109
 30
0.0
 11
84.17153940838578
 21
-6.454925071276109
 31
0.0
 12
84.17153940838578
 22
-4.422925071276109
 32
0.0
 13
84.17153940838578
 23
-4.422925071276109
 33
0.0
  0
MTEXT
  5
139
330
1F
100
AcDbEntity
  8
참조1
100
AcDbMText
 10
87.20588954101179
 20
11.01136670591222
 30
0.0
 40
3.5
 41
0.0
 71
     1
 72
     1
  1
A
  7
SLDTEXTSTYLE0
 73
     1
 44
1.0
  0
MTEXT
  5
13A
330
1F
100
AcDbEntity
  8
참조1
100
AcDbMText
 10
87.20588954101179
 20
0.1313667059122192
 30
0.0
 40
3.5
 41
0.0
 71
     1
 72
     1
  1
A
  7
SLDTEXTSTYLE0
 73
     1
 44
1.0
  0
INSERT
  5
141
330
1F
100
AcDbEntity
  8
해칭선
100
AcDbBlockReference
  2
SW_DOWELSYMBOL_0
 10
0.0
 20
0.0
 30
0.0
  0
ENDSEC
  0
SECTION
  2
OBJECTS
  0
DICTIONARY
  5
C
330
0
100
AcDbDictionary
281
     1
  3
ACAD_GROUP
350
D
  3
ACAD_IMAGE_VARS
350
165
  3
ACAD_LAYOUT
350
1A
  3
ACAD_MLINESTYLE
350
17
  3
ACAD_PLOTSETTINGS
350
19
  3
ACAD_PLOTSTYLENAME
350
E
  3
ACAD_SCALELIST
350
47
  3
APPDATA
350
163
  3
DWGPROPS
350
30B
  0
DICTIONARY
  5
309
330
1F
100
AcDbDictionary
280
     1
281
     1
  3
DIM_BOUNDING_BOXES_V1
360
30A
  0
DICTIONARY
  5
D
102
{ACAD_REACTORS
330
C
102
}
330
C
100
AcDbDictionary
281
     1
  0
RASTERVARIABLES
  5
165
102
{ACAD_REACTORS
330
C
102
}
330
C
100
AcDbRasterVariables
 90
        0
 70
     1
 71
     1
 72
     1
  0
DICTIONARY
  5
1A
102
{ACAD_REACTORS
330
C
102
}
330
C
100
AcDbDictionary
281
     1
  3
Layout1
350
1E
  3
Layout2
350
26
  3
Model
350
22
  0
DICTIONARY
  5
17
102
{ACAD_REACTORS
330
C
102
}
330
C
100
AcDbDictionary
281
     1
  3
Standard
350
18
  0
DICTIONARY
  5
19
102
{ACAD_REACTORS
330
C
102
}
330
C
100
AcDbDictionary
281
     1
  0
ACDBDICTIONARYWDFLT
  5
E
102
{ACAD_REACTORS
330
C
102
}
330
C
100
AcDbDictionary
281
     1
  3
Normal
350
F
100
AcDbDictionaryWithDefault
340
F
  0
DICTIONARY
  5
47
102
{ACAD_REACTORS
330
C
102
}
330
C
100
AcDbDictionary
281
     1
  3
A0
350
48
  3
A1
350
49
  3
A2
350
4A
  3
A3
350
4B
  3
A4
350
4C
  3
A5
350
4D
  3
A6
350
4E
  3
A7
350
4F
  3
A8
350
50
  3
A9
350
51
  3
B0
350
52
  3
B1
350
53
  3
B2
350
54
  3
B3
350
55
  3
B4
350
56
  3
B5
350
57
  3
B6
350
58
  3
B7
350
59
  3
B8
350
5A
  3
B9
350
5B
  3
C0
350
5C
  3
C1
350
5D
  3
C2
350
5E
  3
C3
350
5F
  3
C4
350
60
  3
C5
350
61
  3
C6
350
62
  3
C7
350
63
  3
C8
350
64
  3
C9
350
65
  3
D0
350
66
  3
D1
350
67
  3
D2
350
68
  0
DICTIONARY
  5
163
102
{ACAD_REACTORS
330
C
102
}
330
C
100
AcDbDictionary
281
     1
  0
XRECORD
  5
30B
102
{ACAD_REACTORS
330
C
102
}
330
C
100
AcDbXrecord
280
     1
  1
DWGPROPS COOKIE
  2

  3

  4

  6

  7

  8
12011056
  9

300
=
301
=
302
=
303
=
304
=
305
=
306
=
307
=
308
=
309
=
 40
0.0
 41
2458311.113676829
 42
2459719.215866493
  1

 90
        0
  0
DICTIONARY
  5
30A
102
{ACAD_REACTORS
330
309
102
}
330
309
100
AcDbDictionary
281
     1
  0
LAYOUT
  5
1E
102
{ACAD_REACTORS
330
1A
102
}
330
1A
100
AcDbPlotSettings
  1

  2
none_device
  4

  6

 40
0.0
 41
0.0
 42
0.0
 43
0.0
 44
0.0
 45
0.0
 46
0.0
 47
0.0
 48
0.0
 49
0.0
140
0.0
141
0.0
142
1.0
143
1.0
 70
   688
 72
     1
 73
     0
 74
     5
  7

 75
    16
147
1.0
148
0.0
149
0.0
100
AcDbLayout
  1
Layout1
 70
     1
 71
     1
 10
0.0
 20
0.0
 11
420.0
 21
297.0
 12
0.0
 22
0.0
 32
0.0
 14
1.000000000000000E+20
 24
1.000000000000000E+20
 34
1.000000000000000E+20
 15
-1.000000000000000E+20
 25
-1.000000000000000E+20
 35
-1.000000000000000E+20
146
0.0
 13
0.0
 23
0.0
 33
0.0
 16
1.0
 26
0.0
 36
0.0
 17
0.0
 27
1.0
 37
0.0
 76
     0
330
1B
  0
LAYOUT
  5
26
102
{ACAD_REACTORS
330
1A
102
}
330
1A
100
AcDbPlotSettings
  1

  2
none_device
  4

  6

 40
0.0
 41
0.0
 42
0.0
 43
0.0
 44
0.0
 45
0.0
 46
0.0
 47
0.0
 48
0.0
 49
0.0
140
0.0
141
0.0
142
1.0
143
1.0
 70
   688
 72
     1
 73
     0
 74
     5
  7

 75
    16
147
1.0
148
0.0
149
0.0
100
AcDbLayout
  1
Layout2
 70
     1
 71
     2
 10
0.0
 20
0.0
 11
0.0
 21
0.0
 12
0.0
 22
0.0
 32
0.0
 14
0.0
 24
0.0
 34
0.0
 15
0.0
 25
0.0
 35
0.0
146
0.0
 13
0.0
 23
0.0
 33
0.0
 16
1.0
 26
0.0
 36
0.0
 17
0.0
 27
1.0
 37
0.0
 76
     0
330
23
  0
LAYOUT
  5
22
102
{ACAD_REACTORS
330
1A
102
}
330
1A
100
AcDbPlotSettings
  1

  2
none_device
  4
ANSI_A_(11.00_x_8.50_Inches)
  6

 40
6.35
 41
19.05
 42
6.35000508
 43
19.05000254
 44
279.4
 45
215.9
 46
76.20557184868785
 47
97.61970949318261
 48
0.0
 49
0.0
140
0.0
141
0.0
142
0.0850049677255665
143
1.0
 70
  1696
 72
     0
 73
     0
 74
     0
  7

 75
     0
147
0.0235690232323232
148
0.0
149
0.0
100
AcDbLayout
  1
Model
 70
     1
 71
     0
 10
0.0
 20
0.0
 11
420.0
 21
297.0
 12
0.0
 22
0.0
 32
0.0
 14
-37.67065394505691
 24
-39.9989250712761
 34
0.0
 15
90.52153940838579
 25
35.21866774155153
 35
0.0
146
0.0
 13
0.0
 23
0.0
 33
0.0
 16
1.0
 26
0.0
 36
0.0
 17
0.0
 27
1.0
 37
0.0
 76
     0
330
1F
331
29
  0
MLINESTYLE
  5
18
102
{ACAD_REACTORS
330
17
102
}
330
17
100
AcDbMlineStyle
  2
Standard
 70
     0
  3

 62
   256
 51
90.0
 52
90.0
 71
     2
 49
0.5
 62
   256
  6
BYLAYER
 49
-0.5
 62
   256
  6
BYLAYER
  0
ACDBPLACEHOLDER
  5
F
102
{ACAD_REACTORS
330
E
102
}
330
E
  0
SCALE
  5
48
102
{ACAD_REACTORS
330
47
102
}
330
47
100
AcDbScale
 70
     0
300
1:1
140
1.0
141
1.0
290
     1
  0
SCALE
  5
49
102
{ACAD_REACTORS
330
47
102
}
330
47
100
AcDbScale
 70
     0
300
1:2
140
1.0
141
2.0
290
     0
  0
SCALE
  5
4A
102
{ACAD_REACTORS
330
47
102
}
330
47
100
AcDbScale
 70
     0
300
1:4
140
1.0
141
4.0
290
     0
  0
SCALE
  5
4B
102
{ACAD_REACTORS
330
47
102
}
330
47
100
AcDbScale
 70
     0
300
1:5
140
1.0
141
5.0
290
     0
  0
SCALE
  5
4C
102
{ACAD_REACTORS
330
47
102
}
330
47
100
AcDbScale
 70
     0
300
1:8
140
1.0
141
8.0
290
     0
  0
SCALE
  5
4D
102
{ACAD_REACTORS
330
47
102
}
330
47
100
AcDbScale
 70
     0
300
1:10
140
1.0
141
10.0
290
     0
  0
SCALE
  5
4E
102
{ACAD_REACTORS
330
47
102
}
330
47
100
AcDbScale
 70
     0
300
1:16
140
1.0
141
16.0
290
     0
  0
SCALE
  5
4F
102
{ACAD_REACTORS
330
47
102
}
330
47
100
AcDbScale
 70
     0
300
1:20
140
1.0
141
20.0
290
     0
  0
SCALE
  5
50
102
{ACAD_REACTORS
330
47
102
}
330
47
100
AcDbScale
 70
     0
300
1:30
140
1.0
141
30.0
290
     0
  0
SCALE
  5
51
102
{ACAD_REACTORS
330
47
102
}
330
47
100
AcDbScale
 70
     0
300
1:40
140
1.0
141
40.0
290
     0
  0
SCALE
  5
52
102
{ACAD_REACTORS
330
47
102
}
330
47
100
AcDbScale
 70
     0
300
1:50
140
1.0
141
50.0
290
     0
  0
SCALE
  5
53
102
{ACAD_REACTORS
330
47
102
}
330
47
100
AcDbScale
 70
     0
300
1:100
140
1.0
141
100.0
290
     0
  0
SCALE
  5
54
102
{ACAD_REACTORS
330
47
102
}
330
47
100
AcDbScale
 70
     0
300
2:1
140
2.0
141
1.0
290
     0
  0
SCALE
  5
55
102
{ACAD_REACTORS
330
47
102
}
330
47
100
AcDbScale
 70
     0
300
4:1
140
4.0
141
1.0
290
     0
  0
SCALE
  5
56
102
{ACAD_REACTORS
330
47
102
}
330
47
100
AcDbScale
 70
     0
300
8:1
140
8.0
141
1.0
290
     0
  0
SCALE
  5
57
102
{ACAD_REACTORS
330
47
102
}
330
47
100
AcDbScale
 70
     0
300
10:1
140
10.0
141
1.0
290
     0
  0
SCALE
  5
58
102
{ACAD_REACTORS
330
47
102
}
330
47
100
AcDbScale
 70
     0
300
100:1
140
100.0
141
1.0
290
     0
  0
SCALE
  5
59
102
{ACAD_REACTORS
330
47
102
}
330
47
100
AcDbScale
 70
     0
300
1/128" = 1'-0"
140
0.0078125
141
12.0
290
     0
  0
SCALE
  5
5A
102
{ACAD_REACTORS
330
47
102
}
330
47
100
AcDbScale
 70
     0
300
1/64" = 1'-0"
140
0.015625
141
12.0
290
     0
  0
SCALE
  5
5B
102
{ACAD_REACTORS
330
47
102
}
330
47
100
AcDbScale
 70
     0
300
1/32" = 1'-0"
140
0.03125
141
12.0
290
     0
  0
SCALE
  5
5C
102
{ACAD_REACTORS
330
47
102
}
330
47
100
AcDbScale
 70
     0
300
1/16" = 1'-0"
140
0.0625
141
12.0
290
     0
  0
SCALE
  5
5D
102
{ACAD_REACTORS
330
47
102
}
330
47
100
AcDbScale
 70
     0
300
3/32" = 1'-0"
140
0.09375
141
12.0
290
     0
  0
SCALE
  5
5E
102
{ACAD_REACTORS
330
47
102
}
330
47
100
AcDbScale
 70
     0
300
1/8" = 1'-0"
140
0.125
141
12.0
290
     0
  0
SCALE
  5
5F
102
{ACAD_REACTORS
330
47
102
}
330
47
100
AcDbScale
 70
     0
300
3/16" = 1'-0"
140
0.1875
141
12.0
290
     0
  0
SCALE
  5
60
102
{ACAD_REACTORS
330
47
102
}
330
47
100
AcDbScale
 70
     0
300
1/4" = 1'-0"
140
0.25
141
12.0
290
     0
  0
SCALE
  5
61
102
{ACAD_REACTORS
330
47
102
}
330
47
100
AcDbScale
 70
     0
300
3/8" = 1'-0"
140
0.375
141
12.0
290
     0
  0
SCALE
  5
62
102
{ACAD_REACTORS
330
47
102
}
330
47
100
AcDbScale
 70
     0
300
1/2" = 1'-0"
140
0.5
141
12.0
290
     0
  0
SCALE
  5
63
102
{ACAD_REACTORS
330
47
102
}
330
47
100
AcDbScale
 70
     0
300
3/4" = 1'-0"
140
0.75
141
12.0
290
     0
  0
SCALE
  5
64
102
{ACAD_REACTORS
330
47
102
}
330
47
100
AcDbScale
 70
     0
300
1" = 1'-0"
140
1.0
141
12.0
290
     0
  0
SCALE
  5
65
102
{ACAD_REACTORS
330
47
102
}
330
47
100
AcDbScale
 70
     0
300
1-1/2" = 1'-0"
140
1.5
141
12.0
290
     0
  0
SCALE
  5
66
102
{ACAD_REACTORS
330
47
102
}
330
47
100
AcDbScale
 70
     0
300
3" = 1'-0"
140
3.0
141
12.0
290
     0
  0
SCALE
  5
67
102
{ACAD_REACTORS
330
47
102
}
330
47
100
AcDbScale
 70
     0
300
6" = 1'-0"
140
6.0
141
12.0
290
     0
  0
SCALE
  5
68
102
{ACAD_REACTORS
330
47
102
}
330
47
100
AcDbScale
 70
     0
300
1'-0" = 1'-0"
140
12.0
141
12.0
290
     0
  0
ENDSEC
  0
EOF
