  0
SECTION
  2
HEADER
  9
$ACADVER
  1
AC1015
  9
$ACADMAINTVER
 70
     6
  9
$DWGCODEPAGE
  3
ANSI_949
  9
$INSBASE
 10
0.0
 20
0.0
 30
0.0
  9
$EXTMIN
 10
1.000000000000000E+20
 20
1.000000000000000E+20
 30
1.000000000000000E+20
  9
$EXTMAX
 10
-1.000000000000000E+20
 20
-1.000000000000000E+20
 30
-1.000000000000000E+20
  9
$LIMMIN
 10
0.0
 20
0.0
  9
$LIMMAX
 10
420.0
 20
297.0
  9
$ORTHOMODE
 70
     0
  9
$REGENMODE
 70
     1
  9
$FILLMODE
 70
     1
  9
$QTEXTMODE
 70
     0
  9
$MIRRTEXT
 70
     1
  9
$LTSCALE
 40
1.0
  9
$ATTMODE
 70
     1
  9
$TEXTSIZE
 40
3.5
  9
$TRACEWID
 40
1.0
  9
$TEXTSTYLE
  7
Standard
  9
$CLAYER
  8
0
  9
$CELTYPE
  6
ByLayer
  9
$CECOLOR
 62
   256
  9
$CELTSCALE
 40
1.0
  9
$DISPSILH
 70
     0
  9
$DIMSCALE
 40
1.0
  9
$DIMASZ
 40
3.302
  9
$DIMEXO
 40
1.0
  9
$DIMDLI
 40
3.75
  9
$DIMRND
 40
0.0
  9
$DIMDLE
 40
0.0
  9
$DIMEXE
 40
1.0
  9
$DIMTP
 40
0.0
  9
$DIMTM
 40
0.0
  9
$DIMTXT
 40
3.5
  9
$DIMCEN
 40
2.5
  9
$DIMTSZ
 40
0.0
  9
$DIMTOL
 70
     0
  9
$DIMLIM
 70
     0
  9
$DIMTIH
 70
     1
  9
$DIMTOH
 70
     1
  9
$DIMSE1
 70
     0
  9
$DIMSE2
 70
     0
  9
$DIMTAD
 70
     1
  9
$DIMZIN
 70
     0
  9
$DIMBLK
  1

  9
$DIMASO
 70
     1
  9
$DIMSHO
 70
     1
  9
$DIMPOST
  1

  9
$DIMAPOST
  1

  9
$DIMALT
 70
     0
  9
$DIMALTD
 70
     3
  9
$DIMALTF
 40
0.0393700787401575
  9
$DIMLFAC
 40
1.0
  9
$DIMTOFL
 70
     1
  9
$DIMTVP
 40
0.0
  9
$DIMTIX
 70
     0
  9
$DIMSOXD
 70
     0
  9
$DIMSAH
 70
     0
  9
$DIMBLK1
  1

  9
$DIMBLK2
  1

  9
$DIMSTYLE
  2
ISO-25
  9
$DIMCLRD
 70
     0
  9
$DIMCLRE
 70
     0
  9
$DIMCLRT
 70
     0
  9
$DIMTFAC
 40
1.0
  9
$DIMGAP
 40
1.524
  9
$DIMJUST
 70
     0
  9
$DIMSD1
 70
     0
  9
$DIMSD2
 70
     0
  9
$DIMTOLJ
 70
     0
  9
$DIMTZIN
 70
     0
  9
$DIMALTZ
 70
     0
  9
$DIMALTTZ
 70
     0
  9
$DIMUPT
 70
     0
  9
$DIMDEC
 70
     2
  9
$DIMTDEC
 70
     2
  9
$DIMALTU
 70
     2
  9
$DIMALTTD
 70
     3
  9
$DIMTXSTY
  7
Standard
  9
$DIMAUNIT
 70
     0
  9
$DIMADEC
 70
     2
  9
$DIMALTRND
 40
0.0
  9
$DIMAZIN
 70
     0
  9
$DIMDSEP
 70
    44
  9
$DIMATFIT
 70
     3
  9
$DIMFRAC
 70
     0
  9
$DIMLDRBLK
  1

  9
$DIMLUNIT
 70
     2
  9
$DIMLWD
 70
    -2
  9
$DIMLWE
 70
    -2
  9
$DIMTMOVE
 70
     0
  9
$LUNITS
 70
     2
  9
$LUPREC
 70
     2
  9
$SKETCHINC
 40
1.0
  9
$FILLETRAD
 40
10.0
  9
$AUNITS
 70
     0
  9
$AUPREC
 70
     2
  9
$MENU
  1
.
  9
$ELEVATION
 40
0.0
  9
$PELEVATION
 40
0.0
  9
$THICKNESS
 40
0.0
  9
$LIMCHECK
 70
     0
  9
$CHAMFERA
 40
0.0
  9
$CHAMFERB
 40
0.0
  9
$CHAMFERC
 40
0.0
  9
$CHAMFERD
 40
0.0
  9
$SKPOLY
 70
     0
  9
$TDCREATE
 40
2458311.489947581
  9
$TDUCREATE
 40
2458311.114947581
  9
$TDUPDATE
 40
2458319.432083519
  9
$TDUUPDATE
 40
2458319.057083519
  9
$TDINDWG
 40
0.0008410648
  9
$TDUSRTIMER
 40
2458319.056242616
  9
$USRTIMER
 70
     1
  9
$ANGBASE
 50
0.0
  9
$ANGDIR
 70
     0
  9
$PDMODE
 70
     0
  9
$PDSIZE
 40
-1.0
  9
$PLINEWID
 40
0.0
  9
$SPLFRAME
 70
     0
  9
$SPLINETYPE
 70
     6
  9
$SPLINESEGS
 70
     8
  9
$HANDSEED
  5
2D3
  9
$SURFTAB1
 70
     6
  9
$SURFTAB2
 70
     6
  9
$SURFTYPE
 70
     6
  9
$SURFU
 70
     6
  9
$SURFV
 70
     6
  9
$UCSBASE
  2

  9
$UCSNAME
  2

  9
$UCSORG
 10
0.0
 20
0.0
 30
0.0
  9
$UCSXDIR
 10
1.0
 20
0.0
 30
0.0
  9
$UCSYDIR
 10
0.0
 20
1.0
 30
0.0
  9
$UCSORTHOREF
  2

  9
$UCSORTHOVIEW
 70
     0
  9
$UCSORGTOP
 10
0.0
 20
0.0
 30
0.0
  9
$UCSORGBOTTOM
 10
0.0
 20
0.0
 30
0.0
  9
$UCSORGLEFT
 10
0.0
 20
0.0
 30
0.0
  9
$UCSORGRIGHT
 10
0.0
 20
0.0
 30
0.0
  9
$UCSORGFRONT
 10
0.0
 20
0.0
 30
0.0
  9
$UCSORGBACK
 10
0.0
 20
0.0
 30
0.0
  9
$PUCSBASE
  2

  9
$PUCSNAME
  2

  9
$PUCSORG
 10
0.0
 20
0.0
 30
0.0
  9
$PUCSXDIR
 10
1.0
 20
0.0
 30
0.0
  9
$PUCSYDIR
 10
0.0
 20
1.0
 30
0.0
  9
$PUCSORTHOREF
  2

  9
$PUCSORTHOVIEW
 70
     0
  9
$PUCSORGTOP
 10
0.0
 20
0.0
 30
0.0
  9
$PUCSORGBOTTOM
 10
0.0
 20
0.0
 30
0.0
  9
$PUCSORGLEFT
 10
0.0
 20
0.0
 30
0.0
  9
$PUCSORGRIGHT
 10
0.0
 20
0.0
 30
0.0
  9
$PUCSORGFRONT
 10
0.0
 20
0.0
 30
0.0
  9
$PUCSORGBACK
 10
0.0
 20
0.0
 30
0.0
  9
$USERI1
 70
     0
  9
$USERI2
 70
     0
  9
$USERI3
 70
     0
  9
$USERI4
 70
     0
  9
$USERI5
 70
     0
  9
$USERR1
 40
0.0
  9
$USERR2
 40
0.0
  9
$USERR3
 40
0.0
  9
$USERR4
 40
0.0
  9
$USERR5
 40
0.0
  9
$WORLDVIEW
 70
     1
  9
$SHADEDGE
 70
     3
  9
$SHADEDIF
 70
    70
  9
$TILEMODE
 70
     1
  9
$MAXACTVP
 70
    64
  9
$PINSBASE
 10
0.0
 20
0.0
 30
0.0
  9
$PLIMCHECK
 70
     0
  9
$PEXTMIN
 10
1.000000000000000E+20
 20
1.000000000000000E+20
 30
1.000000000000000E+20
  9
$PEXTMAX
 10
-1.000000000000000E+20
 20
-1.000000000000000E+20
 30
-1.000000000000000E+20
  9
$PLIMMIN
 10
0.0
 20
0.0
  9
$PLIMMAX
 10
0.0
 20
0.0
  9
$UNITMODE
 70
     0
  9
$VISRETAIN
 70
     1
  9
$PLINEGEN
 70
     0
  9
$PSLTSCALE
 70
     1
  9
$TREEDEPTH
 70
  3020
  9
$CMLSTYLE
  2
Standard
  9
$CMLJUST
 70
     0
  9
$CMLSCALE
 40
20.0
  9
$PROXYGRAPHICS
 70
     1
  9
$MEASUREMENT
 70
     1
  9
$CELWEIGHT
370
    -1
  9
$ENDCAPS
280
     0
  9
$JOINSTYLE
280
     0
  9
$LWDISPLAY
290
     1
  9
$INSUNITS
 70
     4
  9
$HYPERLINKBASE
  1

  9
$STYLESHEET
  1

  9
$XEDIT
290
     1
  9
$CEPSNTYPE
380
     0
  9
$PSTYLEMODE
290
     1
  9
$FINGERPRINTGUID
  2
{091D9D86-80B6-4E2D-A6BB-EDE9FF0337E6}
  9
$VERSIONGUID
  2
{FAEB1C32-E019-11D5-929B-00C0DF256EC4}
  9
$EXTNAMES
290
     1
  9
$PSVPSCALE
 40
0.0
  9
$OLESTARTUP
290
     0
  0
ENDSEC
  0
SECTION
  2
CLASSES
  0
CLASS
  1
ACDBDICTIONARYWDFLT
  2
AcDbDictionaryWithDefault
  3
ObjectDBX Classes
 90
        0
280
     0
281
     0
  0
CLASS
  1
VISUALSTYLE
  2
AcDbVisualStyle
  3
ObjectDBX Classes
 90
     4095
280
     0
281
     0
  0
CLASS
  1
MATERIAL
  2
AcDbMaterial
  3
ObjectDBX Classes
 90
     1153
280
     0
281
     0
  0
CLASS
  1
SCALE
  2
AcDbScale
  3
ObjectDBX Classes
 90
     1153
280
     0
281
     0
  0
CLASS
  1
SUN
  2
AcDbSun
  3
SCENEOE
 90
     1153
280
     0
281
     0
  0
CLASS
  1
ACDBPLACEHOLDER
  2
AcDbPlaceHolder
  3
ObjectDBX Classes
 90
        0
280
     0
281
     0
  0
CLASS
  1
LAYOUT
  2
AcDbLayout
  3
ObjectDBX Classes
 90
        0
280
     0
281
     0
  0
CLASS
  1
TABLESTYLE
  2
AcDbTableStyle
  3
ObjectDBX Classes
 90
     4095
280
     0
281
     0
  0
CLASS
  1
MLEADERSTYLE
  2
AcDbMLeaderStyle
  3
ACDB_MLEADERSTYLE_CLASS
 90
     4095
280
     0
281
     0
  0
CLASS
  1
RASTERVARIABLES
  2
AcDbRasterVariables
  3
ISM
 90
        0
280
     0
281
     0
  0
ENDSEC
  0
SECTION
  2
TABLES
  0
TABLE
  2
VPORT
  5
8
330
0
100
AcDbSymbolTable
 70
     1
  0
VPORT
  5
29
330
8
100
AcDbSymbolTableRecord
100
AcDbViewportTableRecord
  2
*Active
 70
     0
 10
0.0
 20
0.0
 11
1.0
 21
1.0
 12
0.8131693351415592
 22
-1.188780560001643
 13
0.0
 23
0.0
 14
10.0
 24
10.0
 15
10.0
 25
10.0
 16
0.0
 26
0.0
 36
1.0
 17
0.0
 27
0.0
 37
0.0
 40
97.77195336021188
 41
1.970186335403727
 42
50.0
 43
0.0
 44
0.0
 50
0.0
 51
0.0
 71
    16
 72
  2000
 73
     1
 74
     3
 75
     0
 76
     0
 77
     0
 78
     0
281
     0
 65
     1
110
0.0
120
0.0
130
0.0
111
1.0
121
0.0
131
0.0
112
0.0
122
1.0
132
0.0
 79
     0
146
0.0
  0
ENDTAB
  0
TABLE
  2
LTYPE
  5
5
330
0
100
AcDbSymbolTable
 70
     6
  0
LTYPE
  5
14
330
5
100
AcDbSymbolTableRecord
100
AcDbLinetypeTableRecord
  2
ByBlock
 70
     0
  3

 72
    65
 73
     0
 40
0.0
  0
LTYPE
  5
15
330
5
100
AcDbSymbolTableRecord
100
AcDbLinetypeTableRecord
  2
ByLayer
 70
     0
  3

 72
    65
 73
     0
 40
0.0
  0
LTYPE
  5
16
330
5
100
AcDbSymbolTableRecord
100
AcDbLinetypeTableRecord
  2
Continuous
 70
     0
  3
Solid line
 72
    65
 73
     0
 40
0.0
  0
LTYPE
  5
6A
330
5
100
AcDbSymbolTableRecord
100
AcDbLinetypeTableRecord
  2
HIDDEN
 70
     0
  3
Hidden __ __ __ __ __ __ __ __ __ __ __ __ __ __
 72
    65
 73
     2
 40
1.905
 49
1.27
 74
     0
 49
-0.635
 74
     0
  0
LTYPE
  5
6B
330
5
100
AcDbSymbolTableRecord
100
AcDbLinetypeTableRecord
  2
PHANTOM
 70
     0
  3
Phantom ______  __  __  ______  __  __  ______
 72
    65
 73
     6
 40
12.7
 49
6.35
 74
     0
 49
-1.27
 74
     0
 49
1.27
 74
     0
 49
-1.27
 74
     0
 49
1.27
 74
     0
 49
-1.27
 74
     0
  0
LTYPE
  5
6C
330
5
100
AcDbSymbolTableRecord
100
AcDbLinetypeTableRecord
  2
CENTER
 70
     0
  3
Center ____ _ ____ _ ____ _ ____ _ ____ _ ____
 72
    65
 73
     4
 40
10.16
 49
6.35
 74
     0
 49
-1.27
 74
     0
 49
1.27
 74
     0
 49
-1.27
 74
     0
  0
LTYPE
  5
6D
330
5
100
AcDbSymbolTableRecord
100
AcDbLinetypeTableRecord
  2
CENTERX2
 70
     0
  3
Center (2x) ________  __  ________  __  _____
 72
    65
 73
     4
 40
20.32
 49
12.7
 74
     0
 49
-2.54
 74
     0
 49
2.54
 74
     0
 49
-2.54
 74
     0
  0
LTYPE
  5
6E
330
5
100
AcDbSymbolTableRecord
100
AcDbLinetypeTableRecord
  2
DOT2
 70
     0
  3
Dot (.5x) ........................................
 72
    65
 73
     2
 40
0.635
 49
0.0
 74
     0
 49
-0.635
 74
     0
  0
ENDTAB
  0
TABLE
  2
LAYER
  5
2
102
{ACAD_XDICTIONARY
360
21A
102
}
330
0
100
AcDbSymbolTable
 70
    18
  0
LAYER
  5
10
330
2
100
AcDbSymbolTableRecord
100
AcDbLayerTableRecord
  2
0
 70
     0
 62
     7
  6
Continuous
370
    -3
390
F
  0
LAYER
  5
6F
330
2
100
AcDbSymbolTableRecord
100
AcDbLayerTableRecord
  2
FORMAT
 70
     0
 62
     2
  6
Continuous
370
    -3
390
F
  0
LAYER
  5
70
330
2
100
AcDbSymbolTableRecord
100
AcDbLayerTableRecord
  2
외형선
 70
     0
 62
     4
  6
Continuous
370
    30
390
F
  0
LAYER
  5
71
330
2
100
AcDbSymbolTableRecord
100
AcDbLayerTableRecord
  2
숨은선
 70
     0
 62
     2
  6
HIDDEN
370
    15
390
F
  0
LAYER
  5
72
330
2
100
AcDbSymbolTableRecord
100
AcDbLayerTableRecord
  2
중심선
 70
     0
 62
     1
  6
CENTERX2
370
    -3
390
F
  0
LAYER
  5
73
330
2
100
AcDbSymbolTableRecord
100
AcDbLayerTableRecord
  2
파단선
 70
     0
 62
     4
  6
Continuous
370
    -3
390
F
  0
LAYER
  5
74
330
2
100
AcDbSymbolTableRecord
100
AcDbLayerTableRecord
  2
해칭선
 70
     0
 62
   100
  6
Continuous
370
    -3
390
F
  0
LAYER
  5
75
330
2
100
AcDbSymbolTableRecord
100
AcDbLayerTableRecord
  2
가는실선
 70
     0
 62
     4
  6
Continuous
370
    -3
390
F
  0
LAYER
  5
76
330
2
100
AcDbSymbolTableRecord
100
AcDbLayerTableRecord
  2
치수_보조선
 70
     0
 62
     4
  6
Continuous
370
    -3
390
F
  0
LAYER
  5
77
330
2
100
AcDbSymbolTableRecord
100
AcDbLayerTableRecord
  2
치수문자_일반주서
 70
     0
 62
     7
  6
Continuous
370
    15
390
F
  0
LAYER
  5
78
330
2
100
AcDbSymbolTableRecord
100
AcDbLayerTableRecord
  2
개별주서
 70
     0
 62
   100
  6
Continuous
370
    30
390
F
  0
LAYER
  5
79
330
2
100
AcDbSymbolTableRecord
100
AcDbLayerTableRecord
  2
중간선
 70
     0
 62
     2
  6
Continuous
370
    15
390
F
  0
LAYER
  5
7A
330
2
100
AcDbSymbolTableRecord
100
AcDbLayerTableRecord
  2
윤곽선
 70
     0
 62
     3
  6
Continuous
370
    40
390
F
  0
LAYER
  5
7B
330
2
100
AcDbSymbolTableRecord
100
AcDbLayerTableRecord
  2
중심마크
 70
     0
 62
   100
  6
Continuous
370
    30
390
F
  0
LAYER
  5
7C
330
2
100
AcDbSymbolTableRecord
100
AcDbLayerTableRecord
  2
가상선
 70
     0
 62
     4
  6
PHANTOM
370
    -3
390
F
  0
LAYER
  5
7D
330
2
100
AcDbSymbolTableRecord
100
AcDbLayerTableRecord
  2
특수지정선
 70
     0
 62
     5
  6
CENTERX2
370
    60
390
F
  0
LAYER
  5
7E
330
2
100
AcDbSymbolTableRecord
100
AcDbLayerTableRecord
  2
참조1
 70
     0
 62
    -4
  6
Continuous
370
    -3
390
F
  0
LAYER
  5
162
330
2
100
AcDbSymbolTableRecord
100
AcDbLayerTableRecord
  2
Defpoints
 70
     0
 62
     7
  6
Continuous
290
     0
370
    -3
390
F
  0
ENDTAB
  0
TABLE
  2
STYLE
  5
3
330
0
100
AcDbSymbolTable
 70
     2
  0
STYLE
  5
11
330
3
100
AcDbSymbolTableRecord
100
AcDbTextStyleTableRecord
  2
Standard
 70
     0
 40
0.0
 41
1.0
 50
0.0
 71
     0
 42
3.5
  3
txt
  4

  0
STYLE
  5
94
330
3
100
AcDbSymbolTableRecord
100
AcDbTextStyleTableRecord
  2
SLDTEXTSTYLE0
 70
     0
 40
0.0
 41
0.75
 50
0.0
 71
     0
 42
3.5
  3
TXT
  4

  0
ENDTAB
  0
TABLE
  2
VIEW
  5
6
330
0
100
AcDbSymbolTable
 70
     0
  0
ENDTAB
  0
TABLE
  2
UCS
  5
7
330
0
100
AcDbSymbolTable
 70
     0
  0
ENDTAB
  0
TABLE
  2
APPID
  5
9
330
0
100
AcDbSymbolTable
 70
     3
  0
APPID
  5
12
330
9
100
AcDbSymbolTableRecord
100
AcDbRegAppTableRecord
  2
ACAD
 70
     0
  0
APPID
  5
16E
330
9
100
AcDbSymbolTableRecord
100
AcDbRegAppTableRecord
  2
PE_URL
 70
     0
  0
APPID
  5
16F
330
9
100
AcDbSymbolTableRecord
100
AcDbRegAppTableRecord
  2
ACAD_DSTYLE_DIMRADIAL_EXTENSION
 70
     0
  0
ENDTAB
  0
TABLE
  2
DIMSTYLE
  5
A
330
0
100
AcDbSymbolTable
 70
     4
100
AcDbDimStyleTable
  0
DIMSTYLE
105
27
330
A
100
AcDbSymbolTableRecord
100
AcDbDimStyleTableRecord
  2
ISO-25
 70
     0
 41
2.5
 42
0.625
 43
3.75
 44
1.25
 73
     0
 74
     0
 77
     1
 78
     8
140
2.5
141
2.5
143
0.03937007874016
147
0.625
171
     3
172
     1
178
     0
271
     2
272
     2
274
     3
278
    44
283
     0
284
     8
340
11
  0
DIMSTYLE
105
DE
102
{ACAD_REACTORS
330
DD
330
11B
330
1CE
330
1DB
330
F2
330
107
102
}
330
A
100
AcDbSymbolTableRecord
100
AcDbDimStyleTableRecord
  2
SLDDIMSTYLE0
 70
     0
 41
3.302
 44
0.0
 45
0.000000001
 73
     0
 74
     0
 77
     1
 78
    12
 79
     3
140
3.5
143
0.0393700787401575
147
0.875
148
0.000000001
170
     1
172
     1
173
     1
178
     0
271
     2
272
     2
276
     2
284
    12
289
     0
340
94
  0
DIMSTYLE
105
F3
102
{ACAD_REACTORS
330
211
102
}
330
A
100
AcDbSymbolTableRecord
100
AcDbDimStyleTableRecord
  2
SLDDIMSTYLE1
 70
     0
 41
3.302
 44
0.0
 45
0.000000001
 73
     0
 74
     0
 77
     1
 78
    12
 79
     3
140
3.5
143
0.0393700787401575
147
0.875
148
0.000000001
170
     1
173
     1
178
     0
271
     2
272
     2
276
     2
284
    12
340
94
  0
DIMSTYLE
105
108
102
{ACAD_REACTORS
330
1E8
330
1F7
102
}
330
A
100
AcDbSymbolTableRecord
100
AcDbDimStyleTableRecord
  2
SLDDIMSTYLE2
 70
     0
 41
3.302
 44
0.0
 45
0.000000001
 73
     0
 74
     0
 77
     1
 78
     4
 79
     1
140
3.5
143
0.0393700787401575
147
0.875
148
0.000000001
170
     1
173
     1
178
     0
271
     2
272
     2
276
     2
284
    12
340
94
  0
ENDTAB
  0
TABLE
  2
BLOCK_RECORD
  5
1
330
0
100
AcDbSymbolTable
 70
    18
  0
BLOCK_RECORD
  5
1F
330
1
100
AcDbSymbolTableRecord
100
AcDbBlockTableRecord
  2
*Model_Space
340
22
  0
BLOCK_RECORD
  5
1B
330
1
100
AcDbSymbolTableRecord
100
AcDbBlockTableRecord
  2
*Paper_Space
340
1E
  0
BLOCK_RECORD
  5
23
330
1
100
AcDbSymbolTableRecord
100
AcDbBlockTableRecord
  2
*Paper_Space0
340
26
  0
BLOCK_RECORD
  5
7F
330
1
100
AcDbSymbolTableRecord
100
AcDbBlockTableRecord
  2
블럭10
340
0
102
{BLKREFS
331
D6
102
}
  0
BLOCK_RECORD
  5
DF
330
1
100
AcDbSymbolTableRecord
100
AcDbBlockTableRecord
  2
_D
340
0
  0
BLOCK_RECORD
  5
F4
330
1
100
AcDbSymbolTableRecord
100
AcDbBlockTableRecord
  2
_D_1
340
0
  0
BLOCK_RECORD
  5
109
330
1
100
AcDbSymbolTableRecord
100
AcDbBlockTableRecord
  2
_D_2
340
0
  0
BLOCK_RECORD
  5
11C
330
1
100
AcDbSymbolTableRecord
100
AcDbBlockTableRecord
  2
_D_3
340
0
  0
BLOCK_RECORD
  5
136
330
1
100
AcDbSymbolTableRecord
100
AcDbBlockTableRecord
  2
SW_DOWELSYMBOL_0
340
0
102
{BLKREFS
331
13C
331
206
331
0
102
}
  0
BLOCK_RECORD
  5
1F8
330
1
100
AcDbSymbolTableRecord
100
AcDbBlockTableRecord
  2
_D_4
340
0
  0
BLOCK_RECORD
  5
212
330
1
100
AcDbSymbolTableRecord
100
AcDbBlockTableRecord
  2
*D9
340
0
  0
BLOCK_RECORD
  5
21E
330
1
100
AcDbSymbolTableRecord
100
AcDbBlockTableRecord
  2
*D10
340
0
  0
BLOCK_RECORD
  5
22A
330
1
100
AcDbSymbolTableRecord
100
AcDbBlockTableRecord
  2
*D11
340
0
  0
BLOCK_RECORD
  5
236
330
1
100
AcDbSymbolTableRecord
100
AcDbBlockTableRecord
  2
*D12
340
0
  0
BLOCK_RECORD
  5
291
330
1
100
AcDbSymbolTableRecord
100
AcDbBlockTableRecord
  2
*D13
340
0
  0
BLOCK_RECORD
  5
29D
330
1
100
AcDbSymbolTableRecord
100
AcDbBlockTableRecord
  2
*D14
340
0
  0
BLOCK_RECORD
  5
2A9
330
1
100
AcDbSymbolTableRecord
100
AcDbBlockTableRecord
  2
*D15
340
0
  0
BLOCK_RECORD
  5
2B7
330
1
100
AcDbSymbolTableRecord
100
AcDbBlockTableRecord
  2
*D16
340
0
  0
BLOCK_RECORD
  5
2C5
330
1
100
AcDbSymbolTableRecord
100
AcDbBlockTableRecord
  2
*D17
340
0
  0
ENDTAB
  0
ENDSEC
  0
SECTION
  2
BLOCKS
  0
BLOCK
  5
20
330
1F
100
AcDbEntity
  8
0
100
AcDbBlockBegin
  2
*Model_Space
 70
     0
 10
0.0
 20
0.0
 30
0.0
  3
*Model_Space
  1
*Model_Space
  0
ENDBLK
  5
21
330
1F
100
AcDbEntity
  8
0
100
AcDbBlockEnd
  0
BLOCK
  5
1C
330
1B
100
AcDbEntity
 67
     1
  8
0
100
AcDbBlockBegin
  2
*Paper_Space
 70
     0
 10
0.0
 20
0.0
 30
0.0
  3
*Paper_Space
  1
*Paper_Space
  0
ENDBLK
  5
1D
330
1B
100
AcDbEntity
 67
     1
  8
0
100
AcDbBlockEnd
  0
BLOCK
  5
24
330
23
100
AcDbEntity
  8
0
100
AcDbBlockBegin
  2
*Paper_Space0
 70
     0
 10
0.0
 20
0.0
 30
0.0
  3
*Paper_Space0
  1
*Paper_Space0
  0
ENDBLK
  5
25
330
23
100
AcDbEntity
  8
0
100
AcDbBlockEnd
  0
BLOCK
  5
80
330
7F
100
AcDbEntity
  8
0
100
AcDbBlockBegin
  2
블럭10
 70
     2
 10
0.0
 20
0.0
 30
0.0
  3
블럭10
  1
블럭10
  0
ELLIPSE
  5
82
330
7F
100
AcDbEntity
  8
중심선
100
AcDbEllipse
 10
20.54032771741204
 20
12.0471743016438
 30
0.0
 11
6.600054785286829
 21
-1.261213355974178E-13
 31
0.0
210
0.0
220
0.0
230
1.0
 40
0.636358354079598
 41
0.9219305317359503
 42
6.513795318482858
  0
ELLIPSE
  5
83
330
7F
100
AcDbEntity
  8
중심선
100
AcDbEllipse
 10
20.54032771746488
 20
12.04717430159265
 30
0.0
 11
3.960054785062283
 21
1.540847449632565E-10
 31
0.0
210
0.0
220
0.0
230
1.0
 40
0.3939339440162632
 41
1.131841032648279
 42
5.62031148352944
  0
LINE
  5
84
330
7F
100
AcDbEntity
  8
중심선
100
AcDbLine
 10
2.268634060543552
 20
16.24717430164393
 30
0.0
 11
5.714909304380834
 21
16.24717430164393
 31
0.0
  0
LINE
  5
85
330
7F
100
AcDbEntity
  8
중심선
100
AcDbLine
 10
5.245725140726316
 20
7.84717430164391
 30
0.0
 11
8.692000384563599
 21
7.84717430164391
 31
0.0
  0
LINE
  5
86
330
7F
100
AcDbEntity
  8
중심선
100
AcDbLine
 10
15.74043728645272
 20
16.24717430164393
 30
0.0
 11
8.692000384563599
 21
7.84717430164391
 31
0.0
  0
LINE
  5
87
330
7F
100
AcDbEntity
  8
중심선
100
AcDbLine
 10
0.1404042013395286
 20
13.71084872107135
 30
0.0
 11
3.58671253028996
 21
13.71088815037384
 31
0.0
  0
LINE
  5
88
330
7F
100
AcDbEntity
  8
중심선
100
AcDbLine
 10
2.750260043222114
 20
10.84717430164391
 30
0.0
 11
6.196535287059397
 21
10.84717430164391
 31
0.0
  0
LINE
  5
89
330
7F
100
AcDbEntity
  8
중심선
100
AcDbLine
 10
12.29416204261559
 20
16.24717430164393
 30
0.0
 11
5.245725140726316
 21
7.84717430164391
 31
0.0
  0
LINE
  5
8A
330
7F
100
AcDbEntity
  8
중심선
100
AcDbLine
 10
10.72767329541681
 20
16.24717430164393
 30
0.0
 11
6.196535287059397
 21
10.84717430164391
 31
0.0
  0
LINE
  5
8B
330
7F
100
AcDbEntity
  8
중심선
100
AcDbLine
 10
7.28139805157953
 20
16.24717430164393
 30
0.0
 11
2.750260043222114
 21
10.84717430164391
 31
0.0
  0
LINE
  5
8C
330
7F
100
AcDbEntity
  8
중심선
100
AcDbLine
 10
5.714909304380834
 20
16.24717430164393
 30
0.0
 11
3.58671253028996
 21
13.71088815037384
 31
0.0
  0
LINE
  5
8D
330
7F
100
AcDbEntity
  8
중심선
100
AcDbLine
 10
2.268634060543552
 20
16.24717430164393
 30
0.0
 11
0.1404042013395286
 21
13.71084872107135
 31
0.0
  0
LINE
  5
8E
330
7F
100
AcDbEntity
  8
중심선
100
AcDbLine
 10
7.28139805157953
 20
16.24717430164393
 30
0.0
 11
10.72767329541681
 21
16.24717430164393
 31
0.0
  0
LINE
  5
8F
330
7F
100
AcDbEntity
  8
중심선
100
AcDbLine
 10
12.29416204261559
 20
16.24717430164393
 30
0.0
 11
15.74043728645272
 21
16.24717430164393
 31
0.0
  0
LINE
  5
90
330
7F
100
AcDbEntity
  8
중심선
100
AcDbLine
 10
19.22036997980202
 20
11.08717430171403
 30
0.0
 11
23.66174974927406
 21
11.08717430171406
 31
0.0
  0
LINE
  5
91
330
7F
100
AcDbEntity
  8
중심선
100
AcDbLine
 10
19.22039502424796
 20
13.00717430171391
 30
0.0
 11
19.22036997980202
 21
11.08717430171403
 31
0.0
  0
LINE
  5
92
330
7F
100
AcDbEntity
  8
중심선
100
AcDbLine
 10
19.22039502424796
 20
13.00717430171391
 30
0.0
 11
26.96566020931264
 21
13.00717430171391
 31
0.0
  0
LINE
  5
93
330
7F
100
AcDbEntity
  8
중심선
100
AcDbLine
 10
22.22332737316547
 20
13.45928029700563
 30
0.0
 11
24.52862924686651
 21
15.39360700705356
 31
0.0
  0
ATTDEF
  5
95
330
7F
100
AcDbEntity
  8
FORMAT
 62
     2
100
AcDbText
 10
4.408487351596664
 20
2.075366912832191
 30
0.0
 40
4.233333333333333
  1
E5020013
 41
0.75
  7
SLDTEXTSTYLE0
 11
4.408487351596664
 21
-0.0412997538344756
 31
0.0
100
AcDbAttributeDefinition
  3

  2
AUTOATTR0
 70
     0
 74
     1
  0
ENDBLK
  5
81
330
7F
100
AcDbEntity
  8
0
100
AcDbBlockEnd
  0
BLOCK
  5
E0
330
DF
100
AcDbEntity
  8
0
100
AcDbBlockBegin
  2
_D
 70
     0
 10
0.0
 20
0.0
 30
0.0
  3
_D
  1
_D
  0
LINE
  5
E2
330
DF
100
AcDbEntity
  8
치수문자_일반주서
 62
     0
370
    -2
100
AcDbLine
 10
-43.65576350361916
 20
3.174999999999982
 30
0.0
 11
-55.0098939723467
 21
3.17499999999994
 31
0.0
  0
LINE
  5
E3
330
DF
100
AcDbEntity
  8
치수문자_일반주서
 62
     0
370
    -2
100
AcDbLine
 10
-43.65576350361916
 20
-3.175000000000012
 30
0.0
 11
-55.00989397234667
 21
-3.175000000000054
 31
0.0
  0
LINE
  5
E4
330
DF
100
AcDbEntity
  8
치수문자_일반주서
 62
     0
370
    -2
100
AcDbLine
 10
-55.0098939723467
 20
3.17499999999994
 30
0.0
 11
-55.0098939723468
 21
35.81024999999994
 31
0.0
  0
LINE
  5
E5
330
DF
100
AcDbEntity
  8
치수문자_일반주서
 62
     0
370
    -2
100
AcDbLine
 10
-55.0098939723467
 20
3.17499999999994
 30
0.0
 11
-55.00989397234667
 21
-3.175000000000054
 31
0.0
  0
LINE
  5
E6
330
DF
100
AcDbEntity
  8
치수문자_일반주서
 62
     0
370
    -2
100
AcDbLine
 10
-55.00989397234671
 20
6.47699999999994
 30
0.0
 11
-55.00989397234672
 21
9.77899999999994
 31
0.0
  0
LINE
  5
E7
330
DF
100
AcDbEntity
  8
치수문자_일반주서
 62
     0
370
    -2
100
AcDbLine
 10
-55.00989397234666
 20
-6.477000000000054
 30
0.0
 11
-55.00989397234665
 21
-9.779000000000053
 31
0.0
  0
SOLID
  5
E8
330
DF
100
AcDbEntity
  8
치수문자_일반주서
 62
     0
100
AcDbTrace
 10
-55.56022730568004
 20
6.476999999999938
 30
0.0
 11
-54.45956063901338
 21
6.476999999999942
 31
0.0
 12
-55.0098939723467
 22
3.17499999999994
 32
0.0
 13
-55.0098939723467
 23
3.17499999999994
 33
0.0
  0
SOLID
  5
E9
330
DF
100
AcDbEntity
  8
치수문자_일반주서
 62
     0
100
AcDbTrace
 10
-54.45956063901333
 20
-6.477000000000052
 30
0.0
 11
-55.56022730567999
 21
-6.477000000000055
 31
0.0
 12
-55.00989397234667
 22
-3.175000000000054
 32
0.0
 13
-55.00989397234667
 23
-3.175000000000054
 33
0.0
  0
MTEXT
  5
EA
330
DF
100
AcDbEntity
  8
치수문자_일반주서
 62
     0
100
AcDbMText
 10
-59.38489397234676
 20
23.12274999999993
 30
0.0
 40
3.5
 41
0.0
 71
     2
 72
     1
  1
\A1;%%c6.35 [1/4]
  7
SLDTEXTSTYLE0
 11
-3.356894814614650E-15
 21
1.0
 31
0.0
 73
     1
 44
1.0
  0
POINT
  5
2CF
330
DF
100
AcDbEntity
  8
Defpoints
 62
     0
100
AcDbPoint
 10
-43.59326350361916
 20
3.174999999999983
 30
0.0
  0
POINT
  5
2D0
330
DF
100
AcDbEntity
  8
Defpoints
 62
     0
100
AcDbPoint
 10
-43.59326350361916
 20
-3.175000000000012
 30
0.0
  0
POINT
  5
2D1
330
DF
100
AcDbEntity
  8
Defpoints
 62
     0
100
AcDbPoint
 10
-55.00989397234667
 20
-3.175000000000054
 30
0.0
  0
ENDBLK
  5
E1
330
DF
100
AcDbEntity
  8
0
100
AcDbBlockEnd
  0
BLOCK
  5
F5
330
F4
100
AcDbEntity
  8
0
100
AcDbBlockBegin
  2
_D_1
 70
     0
 10
0.0
 20
0.0
 30
0.0
  3
_D_1
  1
_D_1
  0
LINE
  5
F7
330
F4
100
AcDbEntity
  8
치수문자_일반주서
 62
     0
370
    -2
100
AcDbLine
 10
19.09673649638084
 20
2.640007187412722
 30
0.0
 11
19.09673649638084
 21
15.75384891823566
 31
0.0
  0
LINE
  5
F8
330
F4
100
AcDbEntity
  8
치수문자_일반주서
 62
     0
370
    -2
100
AcDbLine
 10
3.221736496380835
 20
1.77242135284369
 30
0.0
 11
3.221736496380835
 21
15.75384891823566
 31
0.0
  0
LINE
  5
F9
330
F4
100
AcDbEntity
  8
치수문자_일반주서
 62
     0
370
    -2
100
AcDbLine
 10
15.79473649638084
 20
15.75384891823566
 30
0.0
 11
6.523736496380835
 21
15.75384891823566
 31
0.0
  0
SOLID
  5
FA
330
F4
100
AcDbEntity
  8
치수문자_일반주서
 62
     0
100
AcDbTrace
 10
15.79473649638084
 20
15.20351558490232
 30
0.0
 11
15.79473649638084
 21
16.30418225156899
 31
0.0
 12
19.09673649638084
 22
15.75384891823566
 32
0.0
 13
19.09673649638084
 23
15.75384891823566
 33
0.0
  0
SOLID
  5
FB
330
F4
100
AcDbEntity
  8
치수문자_일반주서
 62
     0
100
AcDbTrace
 10
6.523736496380835
 20
16.30418225156899
 30
0.0
 11
6.523736496380835
 21
15.20351558490232
 31
0.0
 12
3.221736496380835
 22
15.75384891823566
 32
0.0
 13
3.221736496380835
 23
15.75384891823566
 33
0.0
  0
MTEXT
  5
FC
330
F4
100
AcDbEntity
  8
치수문자_일반주서
 62
     0
100
AcDbMText
 10
11.15923649638084
 20
20.12884891823565
 30
0.0
 40
3.5
 41
0.0
 71
     2
 72
     1
  1
\A1;15.88 [5/8]
  7
SLDTEXTSTYLE0
 73
     1
 44
1.0
  0
POINT
  5
FD
330
F4
100
AcDbEntity
  8
Defpoints
 62
     0
100
AcDbPoint
 10
19.09673649638084
 20
2.577507187412722
 30
0.0
  0
POINT
  5
FE
330
F4
100
AcDbEntity
  8
Defpoints
 62
     0
100
AcDbPoint
 10
3.221736496380835
 20
1.70992135284369
 30
0.0
  0
POINT
  5
FF
330
F4
100
AcDbEntity
  8
Defpoints
 62
     0
100
AcDbPoint
 10
3.221736496380835
 20
15.75384891823566
 30
0.0
  0
ENDBLK
  5
F6
330
F4
100
AcDbEntity
  8
0
100
AcDbBlockEnd
  0
BLOCK
  5
10A
330
109
100
AcDbEntity
  8
0
100
AcDbBlockBegin
  2
_D_2
 70
     0
 10
0.0
 20
0.0
 30
0.0
  3
_D_2
  1
_D_2
  0
LINE
  5
10C
330
109
100
AcDbEntity
  8
치수문자_일반주서
 62
     0
370
    -2
100
AcDbLine
 10
19.09673649638084
 20
2.510470898596668
 30
0.0
 11
19.09673649638084
 21
32.97350046398077
 31
0.0
  0
LINE
  5
10D
330
109
100
AcDbEntity
  8
치수문자_일반주서
 62
     0
370
    -2
100
AcDbLine
 10
-44.40326350361916
 20
2.427499999999993
 30
0.0
 11
-44.40326350361916
 21
32.97350046398077
 31
0.0
  0
LINE
  5
10E
330
109
100
AcDbEntity
  8
치수문자_일반주서
 62
     0
370
    -2
100
AcDbLine
 10
15.79473649638084
 20
32.97350046398077
 30
0.0
 11
-41.10126350361916
 21
32.97350046398077
 31
0.0
  0
SOLID
  5
10F
330
109
100
AcDbEntity
  8
치수문자_일반주서
 62
     0
100
AcDbTrace
 10
15.79473649638084
 20
32.42316713064744
 30
0.0
 11
15.79473649638084
 21
33.5238337973141
 31
0.0
 12
19.09673649638084
 22
32.97350046398077
 32
0.0
 13
19.09673649638084
 23
32.97350046398077
 33
0.0
  0
SOLID
  5
110
330
109
100
AcDbEntity
  8
치수문자_일반주서
 62
     0
100
AcDbTrace
 10
-41.10126350361916
 20
33.5238337973141
 30
0.0
 11
-41.10126350361916
 21
32.42316713064744
 31
0.0
 12
-44.40326350361916
 22
32.97350046398077
 32
0.0
 13
-44.40326350361916
 23
32.97350046398077
 33
0.0
  0
MTEXT
  5
111
330
109
100
AcDbEntity
  8
치수문자_일반주서
 62
     0
100
AcDbMText
 10
-12.65326350361916
 20
37.34850046398077
 30
0.0
 40
3.5
 41
0.0
 71
     2
 72
     1
  1
\A1;63.5 [2 1/2]
  7
SLDTEXTSTYLE0
 73
     1
 44
1.0
  0
POINT
  5
112
330
109
100
AcDbEntity
  8
Defpoints
 62
     0
100
AcDbPoint
 10
19.09673649638084
 20
2.447970898596668
 30
0.0
  0
POINT
  5
113
330
109
100
AcDbEntity
  8
Defpoints
 62
     0
100
AcDbPoint
 10
-44.40326350361916
 20
2.364999999999993
 30
0.0
  0
POINT
  5
114
330
109
100
AcDbEntity
  8
Defpoints
 62
     0
100
AcDbPoint
 10
-44.40326350361916
 20
32.97350046398077
 30
0.0
  0
ENDBLK
  5
10B
330
109
100
AcDbEntity
  8
0
100
AcDbBlockEnd
  0
BLOCK
  5
11D
330
11C
100
AcDbEntity
  8
0
100
AcDbBlockBegin
  2
_D_3
 70
     0
 10
0.0
 20
0.0
 30
0.0
  3
_D_3
  1
_D_3
  0
LINE
  5
11F
330
11C
100
AcDbEntity
  8
치수문자_일반주서
 62
     0
370
    -2
100
AcDbLine
 10
19.15923649638084
 20
-2.577507187412723
 30
0.0
 11
30.02093517972505
 21
-2.577507187412682
 31
0.0
  0
LINE
  5
120
330
11C
100
AcDbEntity
  8
치수문자_일반주서
 62
     0
370
    -2
100
AcDbLine
 10
19.15923649638084
 20
2.577507187412722
 30
0.0
 11
30.02093517972504
 21
2.577507187412763
 31
0.0
  0
LINE
  5
121
330
11C
100
AcDbEntity
  8
치수문자_일반주서
 62
     0
370
    -2
100
AcDbLine
 10
30.02093517972504
 20
2.577507187412763
 30
0.0
 11
30.02093517972491
 21
38.93150718741276
 31
0.0
  0
LINE
  5
122
330
11C
100
AcDbEntity
  8
치수문자_일반주서
 62
     0
370
    -2
100
AcDbLine
 10
30.02093517972505
 20
-2.577507187412682
 30
0.0
 11
30.02093517972504
 21
2.577507187412763
 31
0.0
  0
LINE
  5
123
330
11C
100
AcDbEntity
  8
치수문자_일반주서
 62
     0
370
    -2
100
AcDbLine
 10
30.02093517972506
 20
-5.879507187412681
 30
0.0
 11
30.02093517972508
 21
-9.18150718741268
 31
0.0
  0
LINE
  5
124
330
11C
100
AcDbEntity
  8
치수문자_일반주서
 62
     0
370
    -2
100
AcDbLine
 10
30.02093517972503
 20
5.879507187412763
 30
0.0
 11
30.02093517972502
 21
9.181507187412763
 31
0.0
  0
SOLID
  5
125
330
11C
100
AcDbEntity
  8
치수문자_일반주서
 62
     0
100
AcDbTrace
 10
30.5712685130584
 20
-5.879507187412679
 30
0.0
 11
29.47060184639173
 21
-5.879507187412683
 31
0.0
 12
30.02093517972505
 22
-2.577507187412682
 32
0.0
 13
30.02093517972505
 23
-2.577507187412682
 33
0.0
  0
SOLID
  5
126
330
11C
100
AcDbEntity
  8
치수문자_일반주서
 62
     0
100
AcDbTrace
 10
29.47060184639169
 20
5.879507187412761
 30
0.0
 11
30.57126851305836
 21
5.879507187412765
 31
0.0
 12
30.02093517972504
 22
2.577507187412763
 32
0.0
 13
30.02093517972504
 23
2.577507187412763
 33
0.0
  0
MTEXT
  5
127
330
11C
100
AcDbEntity
  8
치수문자_일반주서
 62
     0
100
AcDbMText
 10
25.64593517972496
 20
24.05650718741274
 30
0.0
 40
3.5
 41
0.0
 71
     2
 72
     1
  1
\A1;%%c5.16 [13/64]
  7
SLDTEXTSTYLE0
 11
-3.445881447149990E-15
 21
1.0
 31
0.0
 73
     1
 44
1.0
  0
POINT
  5
128
330
11C
100
AcDbEntity
  8
Defpoints
 62
     0
100
AcDbPoint
 10
19.09673649638084
 20
-2.577507187412723
 30
0.0
  0
POINT
  5
129
330
11C
100
AcDbEntity
  8
Defpoints
 62
     0
100
AcDbPoint
 10
19.09673649638084
 20
2.577507187412722
 30
0.0
  0
POINT
  5
12A
330
11C
100
AcDbEntity
  8
Defpoints
 62
     0
100
AcDbPoint
 10
30.02093517972505
 20
2.577507187412763
 30
0.0
  0
ENDBLK
  5
11E
330
11C
100
AcDbEntity
  8
0
100
AcDbBlockEnd
  0
BLOCK
  5
137
330
136
100
AcDbEntity
  8
0
100
AcDbBlockBegin
  2
SW_DOWELSYMBOL_0
 70
     0
 10
0.0
 20
0.0
 30
0.0
  3
SW_DOWELSYMBOL_0
  1
SW_DOWELSYMBOL_0
  0
CIRCLE
  5
139
330
136
100
AcDbEntity
  8
해칭선
 62
     0
100
AcDbCircle
 10
0.0
 20
0.0
 30
0.0
 40
2.999999999999996
  0
HATCH
  5
13A
330
136
100
AcDbEntity
  8
0
  6
Continuous
 62
     0
370
     0
100
AcDbHatch
 10
0.0
 20
0.0
 30
0.0
210
0.0
220
0.0
230
1.0
  2
SOLID
 70
     1
 71
     0
 91
        1
 92
        0
 93
        3
 72
     2
 10
0.0
 20
0.0
 40
2.999999999999996
 50
0.0
 51
90.0
 73
     1
 72
     1
 10
0.0
 20
2.999999999999996
 11
0.0
 21
0.0
 72
     1
 10
0.0
 20
0.0
 11
2.999999999999996
 21
0.0
 97
        0
 75
     0
 76
     1
 98
        1
 10
0.0
 20
0.0
  0
HATCH
  5
13B
330
136
100
AcDbEntity
  8
0
  6
Continuous
 62
     0
370
     0
100
AcDbHatch
 10
0.0
 20
0.0
 30
0.0
210
0.0
220
0.0
230
1.0
  2
SOLID
 70
     1
 71
     0
 91
        1
 92
        0
 93
        3
 72
     2
 10
0.0
 20
0.0
 40
2.999999999999996
 50
180.0
 51
270.0000000000008
 73
     1
 72
     1
 10
0.0
 20
-2.999999999999996
 11
0.0
 21
0.0
 72
     1
 10
0.0
 20
0.0
 11
-2.999999999999996
 21
0.0
 97
        0
 75
     0
 76
     1
 98
        1
 10
0.0
 20
0.0
  0
ENDBLK
  5
138
330
136
100
AcDbEntity
  8
0
100
AcDbBlockEnd
  0
BLOCK
  5
1F9
330
1F8
100
AcDbEntity
  8
0
100
AcDbBlockBegin
  2
_D_4
 70
     0
 10
0.0
 20
0.0
 30
0.0
  3
_D_4
  1
_D_4
  0
LINE
  5
1FA
330
1F8
100
AcDbEntity
  8
치수문자_일반주서
 62
     0
370
    -2
100
AcDbLine
 10
102.4375000000001
 20
36.22143424691529
 30
0.0
 11
117.3750000000001
 21
36.22143424691535
 31
0.0
  0
LINE
  5
1FB
330
1F8
100
AcDbEntity
  8
치수문자_일반주서
 62
     0
370
    -2
100
AcDbLine
 10
102.4375000000001
 20
22.22143424691529
 30
0.0
 11
117.3750000000001
 21
22.22143424691535
 31
0.0
  0
LINE
  5
1FC
330
1F8
100
AcDbEntity
  8
치수문자_일반주서
 62
     0
370
    -2
100
AcDbLine
 10
117.3750000000001
 20
36.22143424691535
 30
0.0
 11
117.3750000000001
 21
22.22143424691535
 31
0.0
  0
LINE
  5
1FD
330
1F8
100
AcDbEntity
  8
치수문자_일반주서
 62
     0
370
    -2
100
AcDbLine
 10
117.3750000000001
 20
39.52343424691535
 30
0.0
 11
117.375
 21
42.82543424691535
 31
0.0
  0
LINE
  5
1FE
330
1F8
100
AcDbEntity
  8
치수문자_일반주서
 62
     0
370
    -2
100
AcDbLine
 10
117.3750000000001
 20
18.91943424691535
 30
0.0
 11
117.3750000000001
 21
15.61743424691535
 31
0.0
  0
SOLID
  5
1FF
330
1F8
100
AcDbEntity
  8
치수문자_일반주서
 62
     0
100
AcDbTrace
 10
116.8246666666667
 20
39.52343424691535
 30
0.0
 11
117.9253333333334
 21
39.52343424691535
 31
0.0
 12
117.3750000000001
 22
36.22143424691535
 32
0.0
 13
117.3750000000001
 23
36.22143424691535
 33
0.0
  0
SOLID
  5
200
330
1F8
100
AcDbEntity
  8
치수문자_일반주서
 62
     0
100
AcDbTrace
 10
117.9253333333335
 20
18.91943424691535
 30
0.0
 11
116.8246666666668
 21
18.91943424691535
 31
0.0
 12
117.3750000000001
 22
22.22143424691535
 32
0.0
 13
117.3750000000001
 23
22.22143424691535
 33
0.0
  0
MTEXT
  5
201
330
1F8
100
AcDbEntity
  8
치수문자_일반주서
 62
     0
100
AcDbMText
 10
113.0000000000001
 20
29.28713862862833
 30
0.0
 40
3.5
 41
0.0
 71
     2
 72
     1
  1
\A1;%%c14.00 [0.55]
  7
SLDTEXTSTYLE0
 11
-3.045183153257572E-15
 21
1.0
 31
0.0
 73
     1
 44
1.0
  0
POINT
  5
202
330
1F8
100
AcDbEntity
  8
Defpoints
 62
     0
100
AcDbPoint
 10
102.3750000000001
 20
36.22143424691529
 30
0.0
  0
POINT
  5
203
330
1F8
100
AcDbEntity
  8
Defpoints
 62
     0
100
AcDbPoint
 10
102.3750000000001
 20
22.22143424691529
 30
0.0
  0
POINT
  5
204
330
1F8
100
AcDbEntity
  8
Defpoints
 62
     0
100
AcDbPoint
 10
117.3750000000001
 20
22.22143424691535
 30
0.0
  0
ENDBLK
  5
205
330
1F8
100
AcDbEntity
  8
0
100
AcDbBlockEnd
  0
BLOCK
  5
213
330
212
100
AcDbEntity
  8
0
100
AcDbBlockBegin
  2
*D9
 70
     1
 10
0.0
 20
0.0
 30
0.0
  3
*D9
  1
*D8
  0
LINE
  5
214
330
212
100
AcDbEntity
  8
치수문자_일반주서
 62
     0
370
    -2
100
AcDbLine
 10
103.8657751816695
 20
19.48229575403651
 30
0.0
 11
119.6194267469468
 21
-6.150060756304035
 31
0.0
  0
MTEXT
  5
215
330
212
100
AcDbEntity
  8
치수문자_일반주서
 62
     0
100
AcDbMText
 10
115.6706384014277
 20
5.288158154535728
 30
0.0
 40
3.5
 41
0.0
 71
     5
 72
     1
  1
\A1;R.5 [R0.02]
  7
SLDTEXTSTYLE0
 11
0.5236126201129557
 21
-0.8519564684057781
 31
0.0
 73
     1
 44
1.0
  0
SOLID
  5
216
330
212
100
AcDbEntity
  8
치수문자_일반주서
 62
     0
100
AcDbTrace
 10
104.3346352247821
 20
19.77045723263868
 30
0.0
 11
103.3969151385569
 21
19.19413427543435
 31
0.0
 12
102.1368063100565
 22
22.29545601271239
 32
0.0
 13
102.1368063100565
 23
22.29545601271239
 33
0.0
  0
LINE
  5
217
330
212
100
AcDbEntity
  8
치수문자_일반주서
 62
     0
100
AcDbLine
 10
101.785
 20
22.72143424691529
 30
0.0
 11
101.965
 21
22.72143424691529
 31
0.0
  0
LINE
  5
218
330
212
100
AcDbEntity
  8
치수문자_일반주서
 62
     0
100
AcDbLine
 10
101.875
 20
22.63143424691529
 30
0.0
 11
101.875
 21
22.81143424691529
 31
0.0
  0
POINT
  5
244
330
212
100
AcDbEntity
  8
Defpoints
 62
     0
100
AcDbPoint
 10
102.1368063100565
 20
22.29545601271239
 30
0.0
  0
POINT
  5
245
330
212
100
AcDbEntity
  8
Defpoints
 62
     0
100
AcDbPoint
 10
101.875
 20
22.72143424691529
 30
0.0
  0
ENDBLK
  5
219
330
212
100
AcDbEntity
  8
0
100
AcDbBlockEnd
  0
BLOCK
  5
21F
330
21E
100
AcDbEntity
  8
0
100
AcDbBlockBegin
  2
*D10
 70
     1
 10
0.0
 20
0.0
 30
0.0
  3
*D10
  1
*D10
  0
LINE
  5
221
330
21E
100
AcDbEntity
  8
치수문자_일반주서
 62
     0
370
    -2
100
AcDbLine
 10
19.37500000000004
 20
35.78393424691529
 30
0.0
 11
19.37500000000004
 21
70.88391841499404
 31
0.0
  0
LINE
  5
222
330
21E
100
AcDbEntity
  8
치수문자_일반주서
 62
     0
370
    -2
100
AcDbLine
 10
102.3750000000001
 20
36.34643424691529
 30
0.0
 11
102.3750000000001
 21
70.88391841499404
 31
0.0
  0
LINE
  5
223
330
21E
100
AcDbEntity
  8
치수문자_일반주서
 62
     0
370
    -2
100
AcDbLine
 10
22.67700000000004
 20
70.88391841499404
 30
0.0
 11
99.07300000000006
 21
70.88391841499404
 31
0.0
  0
SOLID
  5
224
330
21E
100
AcDbEntity
  8
치수문자_일반주서
 62
     0
100
AcDbTrace
 10
22.67700000000004
 20
71.43425174832737
 30
0.0
 11
22.67700000000004
 21
70.33358508166071
 31
0.0
 12
19.37500000000004
 22
70.88391841499404
 32
0.0
 13
19.37500000000004
 23
70.88391841499404
 33
0.0
  0
SOLID
  5
225
330
21E
100
AcDbEntity
  8
치수문자_일반주서
 62
     0
100
AcDbTrace
 10
99.07300000000006
 20
70.33358508166071
 30
0.0
 11
99.07300000000006
 21
71.43425174832737
 31
0.0
 12
102.3750000000001
 22
70.88391841499404
 32
0.0
 13
102.3750000000001
 23
70.88391841499404
 33
0.0
  0
MTEXT
  5
226
330
21E
100
AcDbEntity
  8
치수문자_일반주서
 62
     0
100
AcDbMText
 10
60.87500000000005
 20
75.25891841499404
 30
0.0
 40
3.5
 41
0.0
 71
     2
 72
     1
  1
\A1;83 [3.27]
  7
SLDTEXTSTYLE0
 73
     1
 44
1.0
  0
POINT
  5
227
330
21E
100
AcDbEntity
  8
Defpoints
 62
     0
100
AcDbPoint
 10
19.37500000000004
 20
35.72143424691529
 30
0.0
  0
POINT
  5
228
330
21E
100
AcDbEntity
  8
Defpoints
 62
     0
100
AcDbPoint
 10
102.3750000000001
 20
36.28393424691529
 30
0.0
  0
POINT
  5
229
330
21E
100
AcDbEntity
  8
Defpoints
 62
     0
100
AcDbPoint
 10
102.3750000000001
 20
70.88391841499404
 30
0.0
  0
ENDBLK
  5
220
330
21E
100
AcDbEntity
  8
0
100
AcDbBlockEnd
  0
BLOCK
  5
22B
330
22A
100
AcDbEntity
  8
0
100
AcDbBlockBegin
  2
*D11
 70
     1
 10
0.0
 20
0.0
 30
0.0
  3
*D11
  1
*D11
  0
LINE
  5
22D
330
22A
100
AcDbEntity
  8
치수문자_일반주서
 62
     0
370
    -2
100
AcDbLine
 10
76.37504186422882
 20
28.62038676313042
 30
0.0
 11
76.37504186422882
 21
61.90091383617725
 31
0.0
  0
LINE
  5
22E
330
22A
100
AcDbEntity
  8
치수문자_일반주서
 62
     0
370
    -2
100
AcDbLine
 10
102.3750000000001
 20
36.28393424691529
 30
0.0
 11
102.3750000000001
 21
61.90091383617725
 31
0.0
  0
LINE
  5
22F
330
22A
100
AcDbEntity
  8
치수문자_일반주서
 62
     0
370
    -2
100
AcDbLine
 10
79.67704186422881
 20
61.90091383617725
 30
0.0
 11
99.07300000000006
 21
61.90091383617725
 31
0.0
  0
SOLID
  5
230
330
22A
100
AcDbEntity
  8
치수문자_일반주서
 62
     0
100
AcDbTrace
 10
79.67704186422881
 20
62.45124716951059
 30
0.0
 11
79.67704186422881
 21
61.35058050284392
 31
0.0
 12
76.37504186422882
 22
61.90091383617725
 32
0.0
 13
76.37504186422882
 23
61.90091383617725
 33
0.0
  0
SOLID
  5
231
330
22A
100
AcDbEntity
  8
치수문자_일반주서
 62
     0
100
AcDbTrace
 10
99.07300000000006
 20
61.35058050284392
 30
0.0
 11
99.07300000000006
 21
62.45124716951059
 31
0.0
 12
102.3750000000001
 22
61.90091383617725
 32
0.0
 13
102.3750000000001
 23
61.90091383617725
 33
0.0
  0
MTEXT
  5
232
330
22A
100
AcDbEntity
  8
치수문자_일반주서
 62
     0
100
AcDbMText
 10
89.42159572693208
 20
66.27591383617725
 30
0.0
 40
3.5
 41
0.0
 71
     2
 72
     1
  1
\A1;26 [1.02]
  7
SLDTEXTSTYLE0
 73
     1
 44
1.0
  0
POINT
  5
233
330
22A
100
AcDbEntity
  8
Defpoints
 62
     0
100
AcDbPoint
 10
76.37504186422882
 20
28.55788676313042
 30
0.0
  0
POINT
  5
234
330
22A
100
AcDbEntity
  8
Defpoints
 62
     0
100
AcDbPoint
 10
102.3750000000001
 20
36.22143424691529
 30
0.0
  0
POINT
  5
235
330
22A
100
AcDbEntity
  8
Defpoints
 62
     0
100
AcDbPoint
 10
102.3750000000001
 20
61.90091383617725
 30
0.0
  0
ENDBLK
  5
22C
330
22A
100
AcDbEntity
  8
0
100
AcDbBlockEnd
  0
BLOCK
  5
237
330
236
100
AcDbEntity
  8
0
100
AcDbBlockBegin
  2
*D12
 70
     1
 10
0.0
 20
0.0
 30
0.0
  3
*D12
  1
*D12
  0
LINE
  5
239
330
236
100
AcDbEntity
  8
치수문자_일반주서
 62
     0
370
    -2
100
AcDbLine
 10
19.81250000000005
 20
36.22143424691529
 30
0.0
 11
4.374999999999983
 21
36.22143424691524
 31
0.0
  0
LINE
  5
23A
330
236
100
AcDbEntity
  8
치수문자_일반주서
 62
     0
370
    -2
100
AcDbLine
 10
19.81250000000005
 20
22.22143424691529
 30
0.0
 11
4.375000000000032
 21
22.22143424691524
 31
0.0
  0
LINE
  5
23B
330
236
100
AcDbEntity
  8
치수문자_일반주서
 62
     0
370
    -2
100
AcDbLine
 10
4.374999999999983
 20
36.22143424691524
 30
0.0
 11
4.375000000000032
 21
22.22143424691524
 31
0.0
  0
LINE
  5
23C
330
236
100
AcDbEntity
  8
치수문자_일반주서
 62
     0
370
    -2
100
AcDbLine
 10
4.374999999999972
 20
39.52343424691524
 30
0.0
 11
4.37499999999996
 21
42.82543424691524
 31
0.0
  0
LINE
  5
23D
330
236
100
AcDbEntity
  8
치수문자_일반주서
 62
     0
370
    -2
100
AcDbLine
 10
4.375000000000044
 20
18.91943424691524
 30
0.0
 11
4.375000000000055
 21
15.61743424691524
 31
0.0
  0
SOLID
  5
23E
330
236
100
AcDbEntity
  8
치수문자_일반주서
 62
     0
100
AcDbTrace
 10
3.824666666666638
 20
39.52343424691524
 30
0.0
 11
4.925333333333305
 21
39.52343424691524
 31
0.0
 12
4.374999999999983
 22
36.22143424691524
 32
0.0
 13
4.374999999999983
 23
36.22143424691524
 33
0.0
  0
SOLID
  5
23F
330
236
100
AcDbEntity
  8
치수문자_일반주서
 62
     0
100
AcDbTrace
 10
4.925333333333377
 20
18.91943424691524
 30
0.0
 11
3.82466666666671
 21
18.91943424691523
 31
0.0
 12
4.375000000000032
 22
22.22143424691524
 32
0.0
 13
4.375000000000032
 23
22.22143424691524
 33
0.0
  0
MTEXT
  5
240
330
236
100
AcDbEntity
  8
치수문자_일반주서
 62
     0
100
AcDbMText
 10
0.0000000000000071
 20
29.22143424691528
 30
0.0
 40
3.5
 41
0.0
 71
     2
 72
     1
  1
\A1;%%c14.00 [0.55]
  7
SLDTEXTSTYLE0
 11
-3.489272363107635E-15
 21
1.0
 31
0.0
 73
     1
 44
1.0
  0
POINT
  5
241
330
236
100
AcDbEntity
  8
Defpoints
 62
     0
100
AcDbPoint
 10
19.87500000000005
 20
36.22143424691529
 30
0.0
  0
POINT
  5
242
330
236
100
AcDbEntity
  8
Defpoints
 62
     0
100
AcDbPoint
 10
19.87500000000005
 20
22.22143424691529
 30
0.0
  0
POINT
  5
243
330
236
100
AcDbEntity
  8
Defpoints
 62
     0
100
AcDbPoint
 10
4.375000000000043
 20
22.22143424691524
 30
0.0
  0
ENDBLK
  5
238
330
236
100
AcDbEntity
  8
0
100
AcDbBlockEnd
  0
BLOCK
  5
292
330
291
100
AcDbEntity
  8
0
100
AcDbBlockBegin
  2
*D13
 70
     1
 10
0.0
 20
0.0
 30
0.0
  3
*D13
  1
*D13
  0
LINE
  5
294
330
291
100
AcDbEntity
  8
치수문자_일반주서
 62
     0
370
    -2
100
AcDbLine
 10
-52.45425201984578
 20
94.71078477427679
 30
0.0
 11
-52.45425201984578
 21
129.8107689423555
 31
0.0
  0
LINE
  5
295
330
291
100
AcDbEntity
  8
치수문자_일반주서
 62
     0
370
    -2
100
AcDbLine
 10
30.54574798015423
 20
95.27328477427679
 30
0.0
 11
30.54574798015423
 21
129.8107689423555
 31
0.0
  0
LINE
  5
296
330
291
100
AcDbEntity
  8
치수문자_일반주서
 62
     0
370
    -2
100
AcDbLine
 10
-49.15225201984578
 20
129.8107689423555
 30
0.0
 11
27.24374798015423
 21
129.8107689423555
 31
0.0
  0
SOLID
  5
297
330
291
100
AcDbEntity
  8
치수문자_일반주서
 62
     0
100
AcDbTrace
 10
-49.15225201984578
 20
130.3611022756889
 30
0.0
 11
-49.15225201984578
 21
129.2604356090222
 31
0.0
 12
-52.45425201984578
 22
129.8107689423555
 32
0.0
 13
-52.45425201984578
 23
129.8107689423555
 33
0.0
  0
SOLID
  5
298
330
291
100
AcDbEntity
  8
치수문자_일반주서
 62
     0
100
AcDbTrace
 10
27.24374798015423
 20
129.2604356090222
 30
0.0
 11
27.24374798015423
 21
130.3611022756889
 31
0.0
 12
30.54574798015423
 22
129.8107689423555
 32
0.0
 13
30.54574798015423
 23
129.8107689423555
 33
0.0
  0
MTEXT
  5
299
330
291
100
AcDbEntity
  8
치수문자_일반주서
 62
     0
100
AcDbMText
 10
-10.95425201984578
 20
134.1857689423555
 30
0.0
 40
3.5
 41
0.0
 71
     2
 72
     1
  1
\A1;83 [3.27]
  7
SLDTEXTSTYLE0
 73
     1
 44
1.0
  0
POINT
  5
29A
330
291
100
AcDbEntity
  8
Defpoints
 62
     0
100
AcDbPoint
 10
-52.45425201984578
 20
94.64828477427679
 30
0.0
  0
POINT
  5
29B
330
291
100
AcDbEntity
  8
Defpoints
 62
     0
100
AcDbPoint
 10
30.54574798015423
 20
95.21078477427679
 30
0.0
  0
POINT
  5
29C
330
291
100
AcDbEntity
  8
Defpoints
 62
     0
100
AcDbPoint
 10
30.54574798015423
 20
129.8107689423555
 30
0.0
  0
ENDBLK
  5
293
330
291
100
AcDbEntity
  8
0
100
AcDbBlockEnd
  0
BLOCK
  5
29E
330
29D
100
AcDbEntity
  8
0
100
AcDbBlockBegin
  2
*D14
 70
     1
 10
0.0
 20
0.0
 30
0.0
  3
*D14
  1
*D14
  0
LINE
  5
2A0
330
29D
100
AcDbEntity
  8
치수문자_일반주서
 62
     0
370
    -2
100
AcDbLine
 10
4.545789844382995
 20
87.54723729049192
 30
0.0
 11
4.545789844382995
 21
120.8277643635387
 31
0.0
  0
LINE
  5
2A1
330
29D
100
AcDbEntity
  8
치수문자_일반주서
 62
     0
370
    -2
100
AcDbLine
 10
30.54574798015423
 20
95.21078477427679
 30
0.0
 11
30.54574798015423
 21
120.8277643635387
 31
0.0
  0
LINE
  5
2A2
330
29D
100
AcDbEntity
  8
치수문자_일반주서
 62
     0
370
    -2
100
AcDbLine
 10
7.847789844382994
 20
120.8277643635387
 30
0.0
 11
27.24374798015423
 21
120.8277643635387
 31
0.0
  0
SOLID
  5
2A3
330
29D
100
AcDbEntity
  8
치수문자_일반주서
 62
     0
100
AcDbTrace
 10
7.847789844382994
 20
121.3780976968721
 30
0.0
 11
7.847789844382994
 21
120.2774310302054
 31
0.0
 12
4.545789844382995
 22
120.8277643635387
 32
0.0
 13
4.545789844382995
 23
120.8277643635387
 33
0.0
  0
SOLID
  5
2A4
330
29D
100
AcDbEntity
  8
치수문자_일반주서
 62
     0
100
AcDbTrace
 10
27.24374798015423
 20
120.2774310302054
 30
0.0
 11
27.24374798015423
 21
121.3780976968721
 31
0.0
 12
30.54574798015423
 22
120.8277643635387
 32
0.0
 13
30.54574798015423
 23
120.8277643635387
 33
0.0
  0
MTEXT
  5
2A5
330
29D
100
AcDbEntity
  8
치수문자_일반주서
 62
     0
100
AcDbMText
 10
17.59234370708626
 20
125.2027643635387
 30
0.0
 40
3.5
 41
0.0
 71
     2
 72
     1
  1
\A1;26 [1.02]
  7
SLDTEXTSTYLE0
 73
     1
 44
1.0
  0
POINT
  5
2A6
330
29D
100
AcDbEntity
  8
Defpoints
 62
     0
100
AcDbPoint
 10
4.545789844382995
 20
87.48473729049192
 30
0.0
  0
POINT
  5
2A7
330
29D
100
AcDbEntity
  8
Defpoints
 62
     0
100
AcDbPoint
 10
30.54574798015423
 20
95.14828477427679
 30
0.0
  0
POINT
  5
2A8
330
29D
100
AcDbEntity
  8
Defpoints
 62
     0
100
AcDbPoint
 10
30.54574798015423
 20
120.8277643635387
 30
0.0
  0
ENDBLK
  5
29F
330
29D
100
AcDbEntity
  8
0
100
AcDbBlockEnd
  0
BLOCK
  5
2AA
330
2A9
100
AcDbEntity
  8
0
100
AcDbBlockBegin
  2
*D15
 70
     1
 10
0.0
 20
0.0
 30
0.0
  3
*D15
  1
*D15
  0
LINE
  5
2AC
330
2A9
100
AcDbEntity
  8
치수문자_일반주서
 62
     0
370
    -2
100
AcDbLine
 10
-52.01675201984578
 20
95.14828477427679
 30
0.0
 11
-67.45425201984584
 21
95.14828477427673
 31
0.0
  0
LINE
  5
2AD
330
2A9
100
AcDbEntity
  8
치수문자_일반주서
 62
     0
370
    -2
100
AcDbLine
 10
-52.01675201984578
 20
81.14828477427679
 30
0.0
 11
-67.4542520198458
 21
81.14828477427673
 31
0.0
  0
LINE
  5
2AE
330
2A9
100
AcDbEntity
  8
치수문자_일반주서
 62
     0
370
    -2
100
AcDbLine
 10
-67.45425201984584
 20
95.14828477427673
 30
0.0
 11
-67.4542520198458
 21
81.14828477427673
 31
0.0
  0
LINE
  5
2AF
330
2A9
100
AcDbEntity
  8
치수문자_일반주서
 62
     0
370
    -2
100
AcDbLine
 10
-67.45425201984585
 20
98.45028477427672
 30
0.0
 11
-67.45425201984587
 21
101.7522847742767
 31
0.0
  0
LINE
  5
2B0
330
2A9
100
AcDbEntity
  8
치수문자_일반주서
 62
     0
370
    -2
100
AcDbLine
 10
-67.45425201984578
 20
77.84628477427674
 30
0.0
 11
-67.45425201984577
 21
74.54428477427675
 31
0.0
  0
SOLID
  5
2B1
330
2A9
100
AcDbEntity
  8
치수문자_일반주서
 62
     0
100
AcDbTrace
 10
-68.00458535317918
 20
98.45028477427672
 30
0.0
 11
-66.90391868651253
 21
98.45028477427672
 31
0.0
 12
-67.45425201984584
 22
95.14828477427673
 32
0.0
 13
-67.45425201984584
 23
95.14828477427673
 33
0.0
  0
SOLID
  5
2B2
330
2A9
100
AcDbEntity
  8
치수문자_일반주서
 62
     0
100
AcDbTrace
 10
-66.90391868651245
 20
77.84628477427674
 30
0.0
 11
-68.00458535317911
 21
77.84628477427674
 31
0.0
 12
-67.4542520198458
 22
81.14828477427673
 32
0.0
 13
-67.4542520198458
 23
81.14828477427673
 33
0.0
  0
MTEXT
  5
2B3
330
2A9
100
AcDbEntity
  8
치수문자_일반주서
 62
     0
100
AcDbMText
 10
-71.82925201984582
 20
88.14828477427677
 30
0.0
 40
3.5
 41
0.0
 71
     2
 72
     1
  1
\A1;%%c14.00 [0.55]
  7
SLDTEXTSTYLE0
 11
-3.045183153257572E-15
 21
1.0
 31
0.0
 73
     1
 44
1.0
  0
POINT
  5
2B4
330
2A9
100
AcDbEntity
  8
Defpoints
 62
     0
100
AcDbPoint
 10
-51.95425201984578
 20
95.14828477427679
 30
0.0
  0
POINT
  5
2B5
330
2A9
100
AcDbEntity
  8
Defpoints
 62
     0
100
AcDbPoint
 10
-51.95425201984578
 20
81.14828477427679
 30
0.0
  0
POINT
  5
2B6
330
2A9
100
AcDbEntity
  8
Defpoints
 62
     0
100
AcDbPoint
 10
-67.4542520198458
 20
81.14828477427673
 30
0.0
  0
ENDBLK
  5
2AB
330
2A9
100
AcDbEntity
  8
0
100
AcDbBlockEnd
  0
BLOCK
  5
2B8
330
2B7
100
AcDbEntity
  8
0
100
AcDbBlockBegin
  2
*D16
 70
     1
 10
0.0
 20
0.0
 30
0.0
  3
*D16
  1
*D16
  0
LINE
  5
2BA
330
2B7
100
AcDbEntity
  8
치수문자_일반주서
 62
     0
370
    -2
100
AcDbLine
 10
30.60824798015425
 20
95.14828477427679
 30
0.0
 11
45.54574798015424
 21
95.14828477427685
 31
0.0
  0
LINE
  5
2BB
330
2B7
100
AcDbEntity
  8
치수문자_일반주서
 62
     0
370
    -2
100
AcDbLine
 10
30.60824798015423
 20
81.14828477427679
 30
0.0
 11
45.54574798015429
 21
81.14828477427685
 31
0.0
  0
LINE
  5
2BC
330
2B7
100
AcDbEntity
  8
치수문자_일반주서
 62
     0
370
    -2
100
AcDbLine
 10
45.54574798015424
 20
95.14828477427685
 30
0.0
 11
45.54574798015429
 21
81.14828477427685
 31
0.0
  0
LINE
  5
2BD
330
2B7
100
AcDbEntity
  8
치수문자_일반주서
 62
     0
370
    -2
100
AcDbLine
 10
45.54574798015422
 20
98.45028477427684
 30
0.0
 11
45.54574798015421
 21
101.7522847742768
 31
0.0
  0
LINE
  5
2BE
330
2B7
100
AcDbEntity
  8
치수문자_일반주서
 62
     0
370
    -2
100
AcDbLine
 10
45.5457479801543
 20
77.84628477427685
 30
0.0
 11
45.54574798015432
 21
74.54428477427686
 31
0.0
  0
SOLID
  5
2BF
330
2B7
100
AcDbEntity
  8
치수문자_일반주서
 62
     0
100
AcDbTrace
 10
44.99541464682089
 20
98.45028477427684
 30
0.0
 11
46.09608131348756
 21
98.45028477427684
 31
0.0
 12
45.54574798015424
 22
95.14828477427685
 32
0.0
 13
45.54574798015424
 23
95.14828477427685
 33
0.0
  0
SOLID
  5
2C0
330
2B7
100
AcDbEntity
  8
치수문자_일반주서
 62
     0
100
AcDbTrace
 10
46.09608131348764
 20
77.84628477427685
 30
0.0
 11
44.99541464682097
 21
77.84628477427685
 31
0.0
 12
45.54574798015429
 22
81.14828477427685
 32
0.0
 13
45.54574798015429
 23
81.14828477427685
 33
0.0
  0
MTEXT
  5
2C1
330
2B7
100
AcDbEntity
  8
치수문자_일반주서
 62
     0
100
AcDbMText
 10
41.17074798015426
 20
88.21398915598982
 30
0.0
 40
3.5
 41
0.0
 71
     2
 72
     1
  1
\A1;%%c14.00 [0.55]
  7
SLDTEXTSTYLE0
 11
-3.552713678800501E-15
 21
1.0
 31
0.0
 73
     1
 44
1.0
  0
POINT
  5
2C2
330
2B7
100
AcDbEntity
  8
Defpoints
 62
     0
100
AcDbPoint
 10
30.54574798015425
 20
95.14828477427679
 30
0.0
  0
POINT
  5
2C3
330
2B7
100
AcDbEntity
  8
Defpoints
 62
     0
100
AcDbPoint
 10
30.54574798015423
 20
81.14828477427679
 30
0.0
  0
POINT
  5
2C4
330
2B7
100
AcDbEntity
  8
Defpoints
 62
     0
100
AcDbPoint
 10
45.54574798015429
 20
81.14828477427685
 30
0.0
  0
ENDBLK
  5
2B9
330
2B7
100
AcDbEntity
  8
0
100
AcDbBlockEnd
  0
BLOCK
  5
2C6
330
2C5
100
AcDbEntity
  8
0
100
AcDbBlockBegin
  2
*D17
 70
     1
 10
0.0
 20
0.0
 30
0.0
  3
*D17
  1
*D17
  0
LINE
  5
2C8
330
2C5
100
AcDbEntity
  8
치수문자_일반주서
 62
     0
370
    -2
100
AcDbLine
 10
32.03652316182368
 20
78.40914628139801
 30
0.0
 11
47.79017472710097
 21
52.77678977105745
 31
0.0
  0
MTEXT
  5
2C9
330
2C5
100
AcDbEntity
  8
치수문자_일반주서
 62
     0
100
AcDbMText
 10
43.84138638158184
 20
64.21500868189722
 30
0.0
 40
3.5
 41
0.0
 71
     5
 72
     1
  1
\A1;R.5 [R0.02]
  7
SLDTEXTSTYLE0
 11
0.5236126201129557
 21
-0.8519564684057781
 31
0.0
 73
     1
 44
1.0
  0
SOLID
  5
2CA
330
2C5
100
AcDbEntity
  8
치수문자_일반주서
 62
     0
100
AcDbTrace
 10
32.50538320493633
 20
78.69730776000017
 30
0.0
 11
31.56766311871104
 21
78.12098480279585
 31
0.0
 12
30.3075542902107
 22
81.22230654007389
 32
0.0
 13
30.3075542902107
 23
81.22230654007389
 33
0.0
  0
LINE
  5
2CB
330
2C5
100
AcDbEntity
  8
치수문자_일반주서
 62
     0
100
AcDbLine
 10
29.95574798015422
 20
81.64828477427679
 30
0.0
 11
30.13574798015422
 21
81.64828477427679
 31
0.0
  0
LINE
  5
2CC
330
2C5
100
AcDbEntity
  8
치수문자_일반주서
 62
     0
100
AcDbLine
 10
30.04574798015422
 20
81.55828477427679
 30
0.0
 11
30.04574798015422
 21
81.73828477427679
 31
0.0
  0
POINT
  5
2CD
330
2C5
100
AcDbEntity
  8
Defpoints
 62
     0
100
AcDbPoint
 10
30.3075542902107
 20
81.22230654007389
 30
0.0
  0
POINT
  5
2CE
330
2C5
100
AcDbEntity
  8
Defpoints
 62
     0
100
AcDbPoint
 10
30.04574798015422
 20
81.64828477427679
 30
0.0
  0
ENDBLK
  5
2C7
330
2C5
100
AcDbEntity
  8
0
100
AcDbBlockEnd
  0
ENDSEC
  0
SECTION
  2
ENTITIES
  0
LINE
  5
96
330
1F
100
AcDbEntity
  8
외형선
  6
Continuous
370
    15
100
AcDbLine
 10
0.0
 20
3.174999999999997
 30
0.0
 11
-43.59326350361917
 21
3.174999999999994
 31
0.0
  0
LINE
  5
97
330
1F
100
AcDbEntity
  8
외형선
  6
Continuous
370
    15
100
AcDbLine
 10
-43.59326350361917
 20
-3.175000000000001
 30
0.0
 11
0.0
 21
-3.174999999999998
 31
0.0
  0
LINE
  5
98
330
1F
100
AcDbEntity
  8
외형선
  6
Continuous
370
    15
100
AcDbLine
 10
0.0
 20
-3.175
 30
0.0
 11
2.221736496380839
 21
-2.579687500000001
 31
0.0
  0
LINE
  5
99
330
1F
100
AcDbEntity
  8
외형선
  6
Continuous
370
    15
100
AcDbLine
 10
2.221736496380839
 20
2.579687499999999
 30
0.0
 11
0.0
 21
3.174999999999998
 31
0.0
  0
LINE
  5
9A
330
1F
100
AcDbEntity
  8
외형선
  6
Continuous
370
    15
100
AcDbLine
 10
-43.59326350361917
 20
3.174999999999993
 30
0.0
 11
-44.40326350361916
 21
2.364999999999994
 31
0.0
  0
LINE
  5
9B
330
1F
100
AcDbEntity
  8
외형선
  6
Continuous
370
    15
100
AcDbLine
 10
-44.40326350361916
 20
-2.365000000000001
 30
0.0
 11
-43.59326350361917
 21
-3.174999999999999
 31
0.0
  0
LINE
  5
9C
330
1F
100
AcDbEntity
  8
외형선
  6
Continuous
370
    15
100
AcDbLine
 10
2.331841815162235
 20
2.579687499999999
 30
0.0
 11
2.221736496380839
 21
2.579687499999999
 31
0.0
  0
LINE
  5
9D
330
1F
100
AcDbEntity
  8
외형선
  6
Continuous
370
    15
100
AcDbLine
 10
2.221736496380839
 20
-2.579687500000001
 30
0.0
 11
2.331841815162235
 21
-2.579687500000001
 31
0.0
  0
SPLINE
  5
9E
330
1F
100
AcDbEntity
  8
외형선
  6
Continuous
370
    15
100
AcDbSpline
210
0.0
220
0.0
230
1.0
 70
     8
 71
     3
 72
     9
 73
     5
 74
     0
 42
0.000000001
 43
0.00000001
 40
0.0
 40
0.0
 40
0.0
 40
0.0
 40
0.5401233909725199
 40
1.0
 40
1.0
 40
1.0
 40
1.0
 10
3.221736496380839
 20
1.709921251025127
 30
0.0
 10
3.061334565078862
 20
1.705019541335577
 30
0.0
 10
2.764361810365969
 20
1.695944374861629
 30
0.0
 10
2.468108388281616
 20
1.69814625712794
 30
0.0
 10
2.331868369120677
 20
1.699158851278048
 30
0.0
  0
LINE
  5
9F
330
1F
100
AcDbEntity
  8
0
  6
Continuous
 62
     1
370
    15
100
AcDbLine
 10
11.72172702274795
 20
1.006229498583602
 30
0.0
 11
11.69693461213954
 21
1.01899111954508
 31
0.0
  0
SPLINE
  5
A0
330
1F
100
AcDbEntity
  8
0
  6
Continuous
 62
     1
370
    15
100
AcDbSpline
210
0.0
220
0.0
230
1.0
 70
     8
 71
     3
 72
     9
 73
     5
 74
     0
 42
0.000000001
 43
0.00000001
 40
0.0
 40
0.0
 40
0.0
 40
0.0
 40
0.5170667462246444
 40
0.9999999999999999
 40
0.9999999999999999
 40
0.9999999999999999
 40
0.9999999999999999
 10
12.41417195430324
 20
0.6610396816626636
 30
0.0
 10
12.29483446724676
 20
0.7177526227219155
 30
0.0
 10
12.06403740298413
 20
0.8274346733920481
 30
0.0
 10
11.83320410056495
 20
0.9480030298817049
 30
0.0
 10
11.72172702274795
 20
1.006229498583602
 30
0.0
  0
LINE
  5
A1
330
1F
100
AcDbEntity
  8
0
  6
Continuous
 62
     1
370
    15
100
AcDbLine
 10
6.493876133227744
 20
2.5796875
 30
0.0
 11
5.242574488371815
 21
2.5796875
 31
0.0
  0
SPLINE
  5
A2
330
1F
100
AcDbEntity
  8
0
  6
Continuous
 62
     1
370
    15
100
AcDbSpline
210
0.0
220
0.0
230
1.0
 70
     8
 71
     3
 72
    13
 73
     9
 74
     0
 42
0.000000001
 43
0.00000001
 40
0.0
 40
0.0
 40
0.0
 40
0.0
 40
0.2877027443995624
 40
0.5111569738418033
 40
0.699172234150262
 40
0.8796183083049771
 40
0.9871771973181294
 40
0.9999999999999999
 40
0.9999999999999999
 40
0.9999999999999999
 40
0.9999999999999999
 10
11.55999660646077
 20
2.049919189120256
 30
0.0
 10
11.36130418765819
 20
2.040404670840879
 30
0.0
 10
11.00829046951519
 20
2.023500374771688
 30
0.0
 10
10.51075434457533
 20
2.01457455770714
 30
0.0
 10
10.08732759110211
 20
2.014018757407692
 30
0.0
 10
9.75060727962168
 20
2.019226011963462
 30
0.0
 10
9.538402937556484
 20
2.024549604773281
 30
0.0
 10
9.454058781144749
 20
2.02757179937572
 30
0.0
 10
9.445074620349128
 20
2.027893717140022
 30
0.0
  0
SPLINE
  5
A3
330
1F
100
AcDbEntity
  8
0
  6
Continuous
 62
     1
370
    15
100
AcDbSpline
210
0.0
220
0.0
230
1.0
 70
     8
 71
     3
 72
    18
 73
    14
 74
     0
 42
0.000000001
 43
0.00000001
 40
0.0
 40
0.0
 40
0.0
 40
0.0
 40
0.1423570163035788
 40
0.2499005922301361
 40
0.3280113373671989
 40
0.4085519584370157
 40
0.4954296003050878
 40
0.5608362844879103
 40
0.6136154050537603
 40
0.6617244843725223
 40
0.7402622679624181
 40
0.8535604143624814
 40
1.0
 40
1.0
 40
1.0
 40
1.0
 10
7.680289622650328
 20
-2.146657554095118
 30
0.0
 10
7.862713305836699
 20
-2.12933819292086
 30
0.0
 10
8.182948919428522
 20
-2.09893492424554
 30
0.0
 10
8.605888396486272
 20
-2.068571077569073
 30
0.0
 10
8.953942436943002
 20
-2.048134653390195
 30
0.0
 10
9.273260269366357
 20
-2.033316834987005
 30
0.0
 10
9.57476146370228
 20
-2.023310256580886
 30
0.0
 10
9.83953604448569
 20
-2.017675653787752
 30
0.0
 10
10.0534208017473
 20
-2.015113572894427
 30
0.0
 10
10.28279389280525
 20
-2.014120317208894
 30
0.0
 10
10.5933090521521
 20
-2.016110585842834
 30
0.0
 10
11.03178027081697
 20
-2.024998892752106
 30
0.0
 10
11.3695581502678
 20
-2.040934645386983
 30
0.0
 10
11.55999660646077
 20
-2.049919189120258
 30
0.0
  0
SPLINE
  5
A4
330
1F
100
AcDbEntity
  8
0
  6
Continuous
 62
     1
370
    15
100
AcDbSpline
210
0.0
220
0.0
230
1.0
 70
     8
 71
     3
 72
    13
 73
     9
 74
     0
 42
0.000000001
 43
0.00000001
 40
0.0
 40
0.0
 40
0.0
 40
0.0
 40
0.2340111622972865
 40
0.4119380357895535
 40
0.5335207876481634
 40
0.6330578387818387
 40
0.7361684315419277
 40
1.0
 40
1.0
 40
1.0
 40
1.0
 10
13.63239597613313
 20
-1.940273225308216
 30
0.0
 10
13.78491094804179
 20
-1.917077048993548
 30
0.0
 10
14.05338838877487
 20
-1.876244008316825
 30
0.0
 10
14.39990586556986
 20
-1.832389950907624
 30
0.0
 10
14.65725580326678
 20
-1.803389044825765
 30
0.0
 10
14.86563643475073
 20
-1.782385193384231
 30
0.0
 10
15.16726274161103
 20
-1.754044599578003
 30
0.0
 10
15.40520276528737
 20
-1.741039700242761
 30
0.0
 10
15.57628174252203
 20
-1.731689172143548
 30
0.0
  0
SPLINE
  5
A5
330
1F
100
AcDbEntity
  8
0
  6
Continuous
 62
     1
370
    15
100
AcDbSpline
210
0.0
220
0.0
230
1.0
 70
     8
 71
     3
 72
     9
 73
     5
 74
     0
 42
0.000000001
 43
0.00000001
 40
0.0
 40
0.0
 40
0.0
 40
0.0
 40
0.4978749158595932
 40
1.0
 40
1.0
 40
1.0
 40
1.0
 10
4.099960093462995
 20
1.76436061440576
 30
0.0
 10
3.95394517074417
 20
1.752614255616001
 30
0.0
 10
3.660668851597368
 20
1.729021263851235
 30
0.0
 10
3.368461258600721
 20
1.716305936061446
 30
0.0
 10
3.221736496380815
 20
1.709921251025126
 30
0.0
  0
SPLINE
  5
A6
330
1F
100
AcDbEntity
  8
0
  6
Continuous
 62
     1
370
    15
100
AcDbSpline
210
0.0
220
0.0
230
1.0
 70
     8
 71
     3
 72
    19
 73
    15
 74
     0
 42
0.000000001
 43
0.00000001
 40
0.0
 40
0.0
 40
0.0
 40
0.0
 40
0.1043715254478431
 40
0.1832543513658804
 40
0.2362030202657016
 40
0.2791212777394475
 40
0.323510901571848
 40
0.5029078757070512
 40
0.6173481939745742
 40
0.7299375923056709
 40
0.7720250570379282
 40
0.8245631888567878
 40
0.9006034636289736
 40
0.9999999999999999
 40
0.9999999999999999
 40
0.9999999999999999
 40
0.9999999999999999
 10
18.13736187319061
 20
1.764385990469863
 30
0.0
 10
17.97970393749608
 20
1.751903823601563
 30
0.0
 10
17.7028899058968
 20
1.729987775299347
 30
0.0
 10
17.34746169577548
 20
1.712634885980646
 30
0.0
 10
17.08625342252609
 20
1.703871375371115
 30
0.0
 10
16.87719905264063
 20
1.699435911315627
 30
0.0
 10
16.47755318748805
 20
1.695318848143316
 30
0.0
 10
15.969060298466
 20
1.704853262559318
 30
0.0
 10
15.35877639400244
 20
1.738900406873989
 30
0.0
 10
14.95436317080459
 20
1.773180386722709
 30
0.0
 10
14.64581279588193
 20
1.80465398969376
 30
0.0
 10
14.39060922232053
 20
1.833504454962835
 30
0.0
 10
14.04749721916835
 20
1.877113209785831
 30
0.0
 10
13.78252195674715
 20
1.917430703333184
 30
0.0
 10
13.63239597613313
 20
1.940273225308214
 30
0.0
  0
LINE
  5
A7
330
1F
100
AcDbEntity
  8
0
  6
Continuous
 62
     1
370
    15
100
AcDbLine
 10
5.242574488371826
 20
-2.579687500000002
 30
0.0
 11
6.493876133227747
 21
-2.579687500000002
 31
0.0
  0
LINE
  5
A8
330
1F
100
AcDbEntity
  8
외형선
  6
Continuous
370
    15
100
AcDbLine
 10
0.0
 20
3.174999999999998
 30
0.0
 11
0.0
 21
-3.174999999999998
 31
0.0
  0
LINE
  5
A9
330
1F
100
AcDbEntity
  8
외형선
  6
Continuous
370
    15
100
AcDbLine
 10
-43.59326350361917
 20
3.174999999999993
 30
0.0
 11
-43.59326350361917
 21
-3.175000000000001
 31
0.0
  0
LINE
  5
AA
330
1F
100
AcDbEntity
  8
외형선
  6
Continuous
370
    15
100
AcDbLine
 10
2.221736496380839
 20
2.579687499999999
 30
0.0
 11
2.221736496380839
 21
-2.579687500000003
 31
0.0
  0
LINE
  5
AB
330
1F
100
AcDbEntity
  8
외형선
  6
Continuous
370
    15
100
AcDbLine
 10
-44.40326350361916
 20
2.364999999999993
 30
0.0
 11
-44.40326350361916
 21
-2.365000000000003
 31
0.0
  0
SPLINE
  5
AC
330
1F
100
AcDbEntity
  8
외형선
  6
Continuous
370
    15
100
AcDbSpline
210
0.0
220
0.0
230
1.0
 70
     8
 71
     3
 72
    10
 73
     6
 74
     0
 42
0.000000001
 43
0.00000001
 40
0.0
 40
0.0
 40
0.0
 40
0.0
 40
0.5000000000000001
 40
0.5000000000000001
 40
1.0
 40
1.0
 40
1.0
 40
1.0
 10
3.221736496380812
 20
2.320052692123707
 30
0.0
 10
3.072570353641233
 20
2.282521156043368
 30
0.0
 10
2.923215289406686
 20
2.241111058345735
 30
0.0
 10
2.626349104439344
 20
2.151187241709009
 30
0.0
 10
2.479848655770567
 20
2.102800518370152
 30
0.0
 10
2.331841815162232
 20
2.050864150120123
 30
0.0
  0
LINE
  5
AD
330
1F
100
AcDbEntity
  8
외형선
  6
Continuous
370
    15
100
AcDbLine
 10
2.331841815162235
 20
-1.53887919327422
 30
0.0
 11
2.331841815162235
 21
2.579687499999999
 31
0.0
  0
SPLINE
  5
AE
330
1F
100
AcDbEntity
  8
외형선
  6
Continuous
370
    15
100
AcDbSpline
210
0.0
220
0.0
230
1.0
 70
     8
 71
     3
 72
    10
 73
     6
 74
     0
 42
0.000000001
 43
0.00000001
 40
0.0
 40
0.0
 40
0.0
 40
0.0
 40
0.5000000000000001
 40
0.5000000000000001
 40
1.0
 40
1.0
 40
1.0
 40
1.0
 10
3.221736496380812
 20
-1.918313460099972
 30
0.0
 10
3.07258885632649
 20
-1.860927212752599
 30
0.0
 10
2.923252341151352
 20
-1.800323865845669
 30
0.0
 10
2.626422523322375
 20
-1.673615040202424
 30
0.0
 10
2.47993988179096
 20
-1.607673196151769
 30
0.0
 10
2.331951968257849
 20
-1.538967924232017
 30
0.0
  0
LINE
  5
AF
330
1F
100
AcDbEntity
  8
외형선
  6
Continuous
370
    15
100
AcDbLine
 10
3.221736496380835
 20
-1.91831346009998
 30
0.0
 11
3.221736496380835
 21
-2.320052692123717
 31
0.0
  0
SPLINE
  5
B0
330
1F
100
AcDbEntity
  8
외형선
  6
Continuous
370
    15
100
AcDbSpline
210
0.0
220
0.0
230
1.0
 70
     8
 71
     3
 72
    10
 73
     6
 74
     0
 42
0.000000001
 43
0.00000001
 40
0.0
 40
0.0
 40
0.0
 40
0.0
 40
0.5000000000000001
 40
0.5000000000000001
 40
1.0
 40
1.0
 40
1.0
 40
1.0
 10
3.221736496380812
 20
-2.320052692123708
 30
0.0
 10
3.072570353641233
 20
-2.28252115604337
 30
0.0
 10
2.923215289406686
 20
-2.241111058345737
 30
0.0
 10
2.626349104439344
 20
-2.15118724170901
 30
0.0
 10
2.479848655770567
 20
-2.102800518370153
 30
0.0
 10
2.331841815162232
 20
-2.050864150120125
 30
0.0
  0
LINE
  5
B1
330
1F
100
AcDbEntity
  8
외형선
  6
Continuous
370
    15
100
AcDbLine
 10
2.331841815162235
 20
-2.579687500000001
 30
0.0
 11
2.331841815162232
 21
-2.050447696913699
 31
0.0
  0
SPLINE
  5
B2
330
1F
100
AcDbEntity
  8
외형선
  6
Continuous
370
    15
100
AcDbSpline
210
0.0
220
0.0
230
1.0
 70
     8
 71
     3
 72
    10
 73
     6
 74
     0
 42
0.000000001
 43
0.00000001
 40
0.0
 40
0.0
 40
0.0
 40
0.0
 40
0.5
 40
0.5
 40
1.0
 40
1.0
 40
1.0
 40
1.0
 10
3.221736496380798
 20
-1.539239672282448
 30
0.0
 10
3.07258885632648
 20
-1.487280188802246
 30
0.0
 10
2.923252341151345
 20
-1.432736874353622
 30
0.0
 10
2.626422523322372
 20
-1.319318396717618
 30
0.0
 10
2.479939881790957
 20
-1.260587689045336
 30
0.0
 10
2.331951968257849
 20
-1.199677948369558
 30
0.0
  0
SPLINE
  5
B3
330
1F
100
AcDbEntity
  8
외형선
  6
Continuous
370
    15
100
AcDbSpline
210
0.0
220
0.0
230
1.0
 70
     8
 71
     3
 72
    10
 73
     6
 74
     0
 42
0.000000001
 43
0.00000001
 40
0.0
 40
0.0
 40
0.0
 40
0.0
 40
0.5
 40
0.5
 40
1.0
 40
1.0
 40
1.0
 40
1.0
 10
3.221736496380794
 20
0.8252585647406
 30
0.0
 10
3.072577113424291
 20
0.8881989783558889
 30
0.0
 10
2.923228825915816
 20
0.9497915689769466
 30
0.0
 10
2.626375927321526
 20
1.069378911811897
 30
0.0
 10
2.479881984392401
 20
1.127249110727987
 30
0.0
 10
2.331882058614898
 20
1.183362388383264
 30
0.0
  0
SPLINE
  5
B4
330
1F
100
AcDbEntity
  8
외형선
  6
Continuous
370
    15
100
AcDbSpline
210
0.0
220
0.0
230
1.0
 70
    24
 71
     3
 72
    10
 73
     6
 74
     0
 42
0.000000001
 43
0.00000001
 40
0.0
 40
0.0
 40
0.0
 40
0.0
 40
0.5
 40
0.5
 40
1.0
 40
1.0
 40
1.0
 40
1.0
 10
3.221736496380835
 20
0.8252585647405831
 30
0.0
 10
3.221736496380835
 20
0.444611153496879
 30
0.0
 10
3.221736496380835
 20
0.0198831443203591
 30
0.0
 10
3.221736496380835
 20
-0.8066261564086734
 30
0.0
 10
3.221736496380835
 20
-1.204849828825682
 30
0.0
 10
3.221736496380835
 20
-1.539239672282461
 30
0.0
  0
SPLINE
  5
B5
330
1F
100
AcDbEntity
  8
외형선
  6
Continuous
370
    15
100
AcDbSpline
210
0.0
220
0.0
230
1.0
 70
    24
 71
     3
 72
     8
 73
     4
 74
     0
 42
0.000000001
 43
0.00000001
 40
0.0
 40
0.0
 40
0.0
 40
0.0
 40
1.0
 40
1.0
 40
1.0
 40
1.0
 10
3.221736496380933
 20
-1.539239672282495
 30
0.0
 10
3.221736496380933
 20
-1.660575191022296
 30
0.0
 10
3.221736496380933
 20
-1.787722940542007
 30
0.0
 10
3.221736496380933
 20
-1.918313460090582
 30
0.0
  0
SPLINE
  5
B6
330
1F
100
AcDbEntity
  8
외형선
  6
Continuous
370
    15
100
AcDbSpline
210
0.0
220
0.0
230
1.0
 70
    24
 71
     3
 72
    12
 73
     8
 74
     0
 42
0.000000001
 43
0.00000001
 40
0.0
 40
0.0
 40
0.0
 40
0.0
 40
0.1734114756243468
 40
0.378176000167515
 40
0.5888787097941716
 40
0.7944393548970858
 40
1.0
 40
1.0
 40
1.0
 40
1.0
 10
3.221736496380835
 20
1.703879113423832
 30
0.0
 10
3.221736496380835
 20
1.700931963180878
 30
0.0
 10
3.221736496380835
 20
1.694504813612139
 30
0.0
 10
3.221736496380835
 20
1.587593336770405
 30
0.0
 10
3.221736496380835
 20
1.405666546737798
 30
0.0
 10
3.221736496380835
 20
1.152702967588381
 30
0.0
 10
3.221736496380835
 20
0.9344066990231816
 30
0.0
 10
3.221736496380835
 20
0.8252585647405821
 30
0.0
  0
SPLINE
  5
B7
330
1F
100
AcDbEntity
  8
외형선
  6
Continuous
370
    15
100
AcDbSpline
210
0.0
220
0.0
230
1.0
 70
    24
 71
     3
 72
    11
 73
     7
 74
     0
 42
0.000000001
 43
0.00000001
 40
0.0
 40
0.0
 40
0.0
 40
0.0
 40
0.0928101011436559
 40
0.5777779666305349
 40
0.8416845141819841
 40
0.9999999999999999
 40
0.9999999999999999
 40
0.9999999999999999
 40
0.9999999999999999
 10
3.221736496380835
 20
2.320052692123714
 30
0.0
 10
3.221736496380835
 20
2.298305078363512
 30
0.0
 10
3.221736496380835
 20
2.162917960985125
 30
0.0
 10
3.221736496380839
 20
1.975188266465069
 30
0.0
 10
3.221736496380835
 20
1.799270202071719
 30
0.0
 10
3.221736496380835
 20
1.734287156973926
 30
0.0
 10
3.221736496380835
 20
1.709921251025127
 30
0.0
  0
SPLINE
  5
B8
330
1F
100
AcDbEntity
  8
0
  6
Continuous
 62
     1
370
    15
100
AcDbSpline
210
0.0
220
0.0
230
1.0
 70
     8
 71
     3
 72
    20
 73
    16
 74
     0
 42
0.000000001
 43
0.00000001
 40
0.0
 40
0.0
 40
0.0
 40
0.0
 40
0.0790876491498813
 40
0.1580353664614654
 40
0.2369527126496655
 40
0.3159498064936075
 40
0.3950854758223741
 40
0.4726836836794279
 40
0.5501869274938097
 40
0.6277275875445328
 40
0.7054315907067871
 40
0.7846638351614386
 40
0.863773708058537
 40
0.9428684365171668
 40
1.0
 40
1.0
 40
1.0
 40
1.0
 10
19.09673649638084
 20
-2.447970898596667
 30
0.0
 10
18.7643884995586
 20
-2.375774526968676
 30
0.0
 10
18.10028053788434
 20
-2.231509522634117
 30
0.0
 10
17.10506313642405
 20
-1.872027291035611
 30
0.0
 10
16.11024740370228
 20
-1.428709587035703
 30
0.0
 10
15.11449485242233
 20
-0.9122124424474809
 30
0.0
 10
14.1236466184792
 20
-0.3553804378184061
 30
0.0
 10
13.13968466686838
 20
0.2160730035178645
 30
0.0
 10
12.16264008251501
 20
0.7736656327706789
 30
0.0
 10
11.1851226759589
 20
1.294590602950896
 30
0.0
 10
10.19966740717119
 20
1.755866048718293
 30
0.0
 10
9.207871471553744
 20
2.136259444748725
 30
0.0
 10
8.210612636738077
 20
2.408671211109673
 30
0.0
 10
7.306241284979095
 20
2.562351457190283
 30
0.0
 10
6.733906160126214
 20
2.565471313206741
 30
0.0
 10
6.493876133227747
 20
2.566779740893654
 30
0.0
  0
SPLINE
  5
B9
330
1F
100
AcDbEntity
  8
0
  6
Continuous
 62
     1
370
    15
100
AcDbSpline
210
0.0
220
0.0
230
1.0
 70
     8
 71
     3
 72
    14
 73
    10
 74
     0
 42
0.000000001
 43
0.00000001
 40
0.0
 40
0.0
 40
0.0
 40
0.0
 40
0.1566715258819003
 40
0.3131343570242187
 40
0.4695042177803707
 40
0.6258979889731365
 40
0.782432253603599
 40
0.9391680363766194
 40
1.0
 40
1.0
 40
1.0
 40
1.0
 10
19.09673649638084
 20
-2.035301888237383
 30
0.0
 10
18.74702084527761
 20
-1.960695725856337
 30
0.0
 10
18.04805538277189
 20
-1.811582780439289
 30
0.0
 10
17.00034010277072
 20
-1.458644048133446
 30
0.0
 10
15.95331751220187
 20
-1.034095878523267
 30
0.0
 10
14.9061074235937
 20
-0.5501441357110483
 30
0.0
 10
13.85797721588298
 20
-0.0388599908700278
 30
0.0
 10
13.02279232929178
 20
0.3767464227311623
 30
0.0
 10
12.53722958721592
 20
0.5994503848247348
 30
0.0
 10
12.40146619603288
 20
0.6617184348700564
 30
0.0
  0
LINE
  5
BA
330
1F
100
AcDbEntity
  8
0
  6
Continuous
 62
     1
370
    15
100
AcDbLine
 10
19.09673649638084
 20
-2.447970898596669
 30
0.0
 11
19.09673649638084
 21
-2.035301888237383
 31
0.0
  0
SPLINE
  5
BB
330
1F
100
AcDbEntity
  8
0
  6
Continuous
 62
     1
370
    15
100
AcDbSpline
210
0.0
220
0.0
230
1.0
 70
     8
 71
     3
 72
    52
 73
    48
 74
     0
 42
0.000000001
 43
0.00000001
 40
0.0
 40
0.0
 40
0.0
 40
0.0
 40
0.0625000000000001
 40
0.0625000000000001
 40
0.0937500000000001
 40
0.0937500000000001
 40
0.1250000000000001
 40
0.1250000000000001
 40
0.1875000000000002
 40
0.1875000000000002
 40
0.2187500000000004
 40
0.2187500000000004
 40
0.2500000000000006
 40
0.2500000000000006
 40
0.3125000000000009
 40
0.3125000000000009
 40
0.3437500000000012
 40
0.3437500000000012
 40
0.3750000000000013
 40
0.3750000000000013
 40
0.4375000000000017
 40
0.4375000000000017
 40
0.4687500000000018
 40
0.4687500000000018
 40
0.5000000000000018
 40
0.5000000000000018
 40
0.5625000000000017
 40
0.5625000000000017
 40
0.6250000000000014
 40
0.6250000000000014
 40
0.6562500000000013
 40
0.6562500000000013
 40
0.6875000000000013
 40
0.6875000000000013
 40
0.7500000000000011
 40
0.7500000000000011
 40
0.781250000000001
 40
0.781250000000001
 40
0.812500000000001
 40
0.812500000000001
 40
0.8750000000000007
 40
0.8750000000000007
 40
0.9062500000000004
 40
0.9062500000000004
 40
0.9375000000000002
 40
0.9375000000000002
 40
1.0
 40
1.0
 40
1.0
 40
1.0
 10
19.09673649638084
 20
-2.577507187412722
 30
0.0
 10
18.76936578589634
 20
-2.569684709007001
 30
0.0
 10
18.43413490744433
 20
-2.540499804502884
 30
0.0
 10
17.93784291493503
 20
-2.465949927402626
 30
0.0
 10
17.77470729502461
 20
-2.436119710062614
 30
0.0
 10
17.44454201642698
 20
-2.366375680890282
 30
0.0
 10
17.27814213404238
 20
-2.326467768405247
 30
0.0
 10
16.77959150141703
 20
-2.192645675122817
 30
0.0
 10
16.45292963166433
 20
-2.08518743171259
 30
0.0
 10
15.95514309226636
 20
-1.898876219928636
 30
0.0
 10
15.78855127818998
 20
-1.832639518288989
 30
0.0
 10
15.45712061067826
 20
-1.693134273613011
 30
0.0
 10
15.29355711453395
 20
-1.620069112103114
 30
0.0
 10
14.79954199908039
 20
-1.390906348406023
 30
0.0
 10
14.46405109266072
 20
-1.224390576393302
 30
0.0
 10
13.96998426427426
 20
-0.9631323491439479
 30
0.0
 10
13.80644552326219
 20
-0.8741031099399645
 30
0.0
 10
13.47503472072903
 20
-0.6920384098109881
 30
0.0
 10
13.30844417432429
 20
-0.5992284552027468
 30
0.0
 10
12.81063532716365
 20
-0.3180333080246156
 30
0.0
 10
12.48398752867474
 20
-0.127402337322427
 30
0.0
 10
11.98544444273053
 20
0.1594051387685143
 30
0.0
 10
11.81903832894107
 20
0.254917830389506
 30
0.0
 10
11.48884347429182
 20
0.4440057694354738
 30
0.0
 10
11.32571589157953
 20
0.5374608145697087
 30
0.0
 10
10.82946114792832
 20
0.8152415364173157
 30
0.0
 10
10.49422010986793
 20
0.9959829421941957
 30
0.0
 10
9.839390790996088
 20
1.335525014250373
 30
0.0
 10
9.504257985966124
 20
1.496980472834265
 30
0.0
 10
9.007929035019124
 20
1.717728667015763
 30
0.0
 10
8.844784724115854
 20
1.787607164394167
 30
0.0
 10
8.514649213820253
 20
1.920304175134351
 30
0.0
 10
8.348255661549931
 20
1.983013491584158
 30
0.0
 10
7.849697777105217
 20
2.158406407998443
 30
0.0
 10
7.523021275359316
 20
2.257885351539435
 30
0.0
 10
7.025257337080518
 20
2.378928600115059
 30
0.0
 10
6.858664354423375
 20
2.414499895499252
 30
0.0
 10
6.527214016664274
 20
2.475443740358463
 30
0.0
 10
6.363625112427275
 20
2.500770114741399
 30
0.0
 10
5.869661995874672
 20
2.561435190037085
 30
0.0
 10
5.534171292142922
 20
2.581212563604844
 30
0.0
 10
5.04005303689247
 20
2.578785697534111
 30
0.0
 10
4.876538398003909
 20
2.572711132545168
 30
0.0
 10
4.545147655141481
 20
2.549959687707958
 30
0.0
 10
4.3785584754967
 20
2.533277655297534
 30
0.0
 10
3.880727613973797
 20
2.467751715863941
 30
0.0
 10
3.554093325991589
 20
2.403676644000384
 30
0.0
 10
3.221736496380812
 20
2.320052692123709
 30
0.0
  0
SPLINE
  5
BC
330
1F
100
AcDbEntity
  8
0
  6
Continuous
 62
     1
370
    15
100
AcDbSpline
210
0.0
220
0.0
230
1.0
 70
     8
 71
     3
 72
    16
 73
    12
 74
     0
 42
0.000000001
 43
0.00000001
 40
0.0
 40
0.0
 40
0.0
 40
0.0
 40
0.1085741274483775
 40
0.2303972421561788
 40
0.3521836430102838
 40
0.4740281506772837
 40
0.5960248527808935
 40
0.7180916068394221
 40
0.8460904434474129
 40
0.9740214433321214
 40
1.0
 40
1.0
 40
1.0
 40
1.0
 10
12.69371998630462
 20
-0.2478225123008803
 30
0.0
 10
12.38260406884482
 20
-0.1224427680011364
 30
0.0
 10
11.72240765688004
 20
0.1436164487551073
 30
0.0
 10
10.7134006598849
 20
0.5481054467515822
 30
0.0
 10
9.666387392527376
 20
0.9367113132476388
 30
0.0
 10
8.618838206462659
 20
1.27457930321725
 30
0.0
 10
7.570316637741172
 20
1.541889930941429
 30
0.0
 10
6.504063691974231
 20
1.730117810138258
 30
0.0
 10
5.420989824323055
 20
1.812411787907079
 30
0.0
 10
4.613260799264793
 20
1.818447648682989
 30
0.0
 10
4.172286353069055
 20
1.764666522436116
 30
0.0
 10
4.097853810372019
 20
1.755588749312981
 30
0.0
  0
SPLINE
  5
BD
330
1F
100
AcDbEntity
  8
외형선
  6
Continuous
370
    15
100
AcDbSpline
210
0.0
220
0.0
230
1.0
 70
    24
 71
     3
 72
    11
 73
     7
 74
     0
 42
0.000000001
 43
0.00000001
 40
0.0
 40
0.0
 40
0.0
 40
0.0
 40
0.0928101011436559
 40
0.5777779666305362
 40
0.8416845141819843
 40
1.0
 40
1.0
 40
1.0
 40
1.0
 10
3.221736496380835
 20
2.320052692123713
 30
0.0
 10
3.221736496380835
 20
2.298305078363511
 30
0.0
 10
3.221736496380835
 20
2.162917960985124
 30
0.0
 10
3.221736496380835
 20
1.975188266465068
 30
0.0
 10
3.221736496380835
 20
1.799270202071718
 30
0.0
 10
3.221736496380835
 20
1.734287156973926
 30
0.0
 10
3.221736496380835
 20
1.709921251025127
 30
0.0
  0
LINE
  5
BE
330
1F
100
AcDbEntity
  8
0
  6
Continuous
 62
     1
370
    15
100
AcDbLine
 10
19.09673649638084
 20
-2.577507187412723
 30
0.0
 11
19.09673649638084
 21
-2.447970898596669
 31
0.0
  0
SPLINE
  5
BF
330
1F
100
AcDbEntity
  8
0
  6
Continuous
 62
     1
370
    15
100
AcDbSpline
210
0.0
220
0.0
230
1.0
 70
     8
 71
     3
 72
     8
 73
     4
 74
     0
 42
0.000000001
 43
0.00000001
 40
0.0
 40
0.0
 40
0.0
 40
0.0
 40
1.0
 40
1.0
 40
1.0
 40
1.0
 10
17.49982875810591
 20
0.7223294314596034
 30
0.0
 10
17.4084294115965
 20
0.8306337022151618
 30
0.0
 10
17.32684944081811
 20
0.9348849063443948
 30
0.0
 10
17.25740677005479
 20
1.034126292439118
 30
0.0
  0
LINE
  5
C0
330
1F
100
AcDbEntity
  8
0
  6
Continuous
 62
     1
370
    15
100
AcDbLine
 10
17.29004326540563
 20
1.061511563650933
 30
0.0
 11
19.09673649638084
 21
0.0000000000000014
 31
0.0
  0
LINE
  5
C1
330
1F
100
AcDbEntity
  8
0
  6
Continuous
 62
     1
370
    15
100
AcDbLine
 10
19.09673649638084
 20
0.0000000000000014
 30
0.0
 11
19.09673649638084
 21
-0.6894032873358483
 31
0.0
  0
SPLINE
  5
C2
330
1F
100
AcDbEntity
  8
0
  6
Continuous
 62
     1
370
    15
100
AcDbSpline
210
0.0
220
0.0
230
1.0
 70
     8
 71
     3
 72
    10
 73
     6
 74
     0
 42
0.000000001
 43
0.00000001
 40
0.0
 40
0.0
 40
0.0
 40
0.0
 40
0.5
 40
0.5
 40
1.0
 40
1.0
 40
1.0
 40
1.0
 10
19.09673649638084
 20
-0.689403287335848
 30
0.0
 10
18.82029699655665
 20
-0.472073209682501
 30
0.0
 10
18.54847919943241
 20
-0.2458267837234287
 30
0.0
 10
18.01431325712554
 20
0.2249352474402216
 30
0.0
 10
17.74948155675755
 20
0.4719394539584326
 30
0.0
 10
17.49982875810588
 20
0.7223294314596199
 30
0.0
  0
SPLINE
  5
C3
330
1F
100
AcDbEntity
  8
0
  6
Continuous
 62
     1
370
    15
100
AcDbSpline
210
0.0
220
0.0
230
1.0
 70
     8
 71
     3
 72
    14
 73
    10
 74
     0
 42
0.000000001
 43
0.00000001
 40
0.0
 40
0.0
 40
0.0
 40
0.0
 40
0.1458140857044725
 40
0.2913292505551712
 40
0.4365845408510481
 40
0.612989065875551
 40
0.7896238703233311
 40
0.9660719920150062
 40
0.9999999999999999
 40
0.9999999999999999
 40
0.9999999999999999
 40
0.9999999999999999
 10
17.49982875810588
 20
0.7223294314596157
 30
0.0
 10
17.21101284684855
 20
0.8444465185978514
 30
0.0
 10
16.63397310086997
 20
1.088430351189078
 30
0.0
 10
15.76948294163975
 20
1.4069140186634
 30
0.0
 10
14.84482054983179
 20
1.693488785002573
 30
0.0
 10
13.8579034827208
 20
1.921486200493006
 30
0.0
 10
12.80908272583926
 20
2.048722048123382
 30
0.0
 10
12.04261270630205
 20
2.086628825462195
 30
0.0
 10
11.62603475217235
 20
2.047488851406679
 30
0.0
 10
11.55885193929426
 20
2.041176626943149
 30
0.0
  0
SPLINE
  5
C4
330
1F
100
AcDbEntity
  8
0
  6
Continuous
 62
     1
370
    15
100
AcDbSpline
210
0.0
220
0.0
230
1.0
 70
    24
 71
     3
 72
    10
 73
     6
 74
     0
 42
0.000000001
 43
0.00000001
 40
0.0
 40
0.0
 40
0.0
 40
0.0
 40
0.5
 40
0.5
 40
1.0
 40
1.0
 40
1.0
 40
1.0
 10
19.09673649638084
 20
-2.035301888237382
 30
0.0
 10
19.09673649638084
 20
-1.879280130070753
 30
0.0
 10
19.09673649638085
 20
-1.682140656139968
 30
0.0
 10
19.09673649638084
 20
-1.223810351809019
 30
0.0
 10
19.09673649638084
 20
-0.963016544496425
 30
0.0
 10
19.09673649638084
 20
-0.6894032873359304
 30
0.0
  0
SPLINE
  5
C5
330
1F
100
AcDbEntity
  8
0
  6
Continuous
 62
     1
370
    15
100
AcDbSpline
210
0.0
220
0.0
230
1.0
 70
     8
 71
     3
 72
    12
 73
     8
 74
     0
 42
0.000000001
 43
0.00000001
 40
0.0
 40
0.0
 40
0.0
 40
0.0
 40
0.0250255542271331
 40
0.2602590208254238
 40
0.4951639831875753
 40
0.7298974930083957
 40
1.0
 40
1.0
 40
1.0
 40
1.0
 10
7.682191536578078
 20
-2.14101122172317
 30
0.0
 10
7.644980884994791
 20
-2.146536144625625
 30
0.0
 10
7.25800013494035
 20
-2.203993854120417
 30
0.0
 10
6.521580087647521
 20
-2.202600598773947
 30
0.0
 10
5.473661953716931
 20
-2.122413748501701
 30
0.0
 10
4.374082158070202
 20
-1.910639238025417
 30
0.0
 10
3.623383133607387
 20
-1.668689881197529
 30
0.0
 10
3.221736496380835
 20
-1.539239672282461
 30
0.0
  0
SPLINE
  5
C6
330
1F
100
AcDbEntity
  8
0
  6
Continuous
 62
     1
370
    15
100
AcDbSpline
210
0.0
220
0.0
230
1.0
 70
     8
 71
     3
 72
    17
 73
    13
 74
     0
 42
0.000000001
 43
0.00000001
 40
0.0
 40
0.0
 40
0.0
 40
0.0
 40
0.0794926012624182
 40
0.1801449913129852
 40
0.2806920222705783
 40
0.3812095441882848
 40
0.4817737762985286
 40
0.5824603537549055
 40
0.6832032338911569
 40
0.7888451107058703
 40
0.8944324619599779
 40
1.0
 40
1.0
 40
1.0
 40
1.0
 10
13.63681005353242
 20
-1.930504056269844
 30
0.0
 10
13.36078060594197
 20
-1.971222031372289
 30
0.0
 10
12.73524663613064
 20
-2.063496521760368
 30
0.0
 10
11.76074136475519
 20
-2.075481166023987
 30
0.0
 10
10.71340124617205
 20
-1.986939653953406
 30
0.0
 10
9.666401904955276
 20
-1.786372340690309
 30
0.0
 10
8.618865047403588
 20
-1.488801555036979
 30
0.0
 10
7.570335209764227
 20
-1.109577868634766
 30
0.0
 10
6.504055564279369
 20
-0.6623318028247803
 30
0.0
 10
5.420989306192055
 20
-0.1693875688812635
 30
0.0
 10
4.321218996343635
 20
0.3450325669438033
 30
0.0
 10
3.588207736248874
 20
0.6651932459788867
 30
0.0
 10
3.221736496380835
 20
0.8252585647405827
 30
0.0
  0
SPLINE
  5
C7
330
1F
100
AcDbEntity
  8
외형선
  6
Continuous
370
    15
100
AcDbSpline
210
0.0
220
0.0
230
1.0
 70
    24
 71
     3
 72
    10
 73
     6
 74
     0
 42
0.000000001
 43
0.00000001
 40
0.0
 40
0.0
 40
0.0
 40
0.0
 40
0.5
 40
0.5
 40
1.0
 40
1.0
 40
1.0
 40
1.0
 10
3.221736496380835
 20
0.8252585647405831
 30
0.0
 10
3.221736496380835
 20
0.444611153496879
 30
0.0
 10
3.221736496380835
 20
0.0198831443203591
 30
0.0
 10
3.221736496380835
 20
-0.8066261564086734
 30
0.0
 10
3.221736496380835
 20
-1.204849828825682
 30
0.0
 10
3.221736496380835
 20
-1.539239672282461
 30
0.0
  0
SPLINE
  5
C8
330
1F
100
AcDbEntity
  8
외형선
  6
Continuous
370
    15
100
AcDbSpline
210
0.0
220
0.0
230
1.0
 70
    24
 71
     3
 72
    12
 73
     8
 74
     0
 42
0.000000001
 43
0.00000001
 40
0.0
 40
0.0
 40
0.0
 40
0.0
 40
0.1745658441562402
 40
0.3790444057122508
 40
0.5894528594057495
 40
0.7947264297028748
 40
1.0
 40
1.0
 40
1.0
 40
1.0
 10
3.221736496380835
 20
1.704055942324658
 30
0.0
 10
3.221736496380835
 20
1.701102898384726
 30
0.0
 10
3.221736496380835
 20
1.694690791877501
 30
0.0
 10
3.221736496380835
 20
1.587613368479925
 30
0.0
 10
3.221736496380835
 20
1.405661287587859
 30
0.0
 10
3.221736496380835
 20
1.152704268813398
 30
0.0
 10
3.221736496380835
 20
0.9344071327648542
 30
0.0
 10
3.221736496380835
 20
0.8252585647405821
 30
0.0
  0
SPLINE
  5
C9
330
1F
100
AcDbEntity
  8
0
  6
Continuous
 62
     1
370
    15
100
AcDbSpline
210
0.0
220
0.0
230
1.0
 70
    24
 71
     3
 72
     8
 73
     4
 74
     0
 42
0.000000001
 43
0.00000001
 40
0.0
 40
0.0
 40
0.0
 40
0.0
 40
1.0
 40
1.0
 40
1.0
 40
1.0
 10
17.52679982426596
 20
1.260173904866539
 30
0.0
 10
17.44163364939615
 20
1.188710998944498
 30
0.0
 10
17.35155413348383
 20
1.113125310368739
 30
0.0
 10
17.25740677005484
 20
1.034126292439155
 30
0.0
  0
LINE
  5
CA
330
1F
100
AcDbEntity
  8
0
  6
Continuous
 62
     1
370
    15
100
AcDbLine
 10
19.09673649638084
 20
1.805781249999999
 30
0.0
 11
18.13630180308559
 21
1.760492109942613
 31
0.0
  0
SPLINE
  5
CB
330
1F
100
AcDbEntity
  8
0
  6
Continuous
 62
     1
370
    15
100
AcDbSpline
210
0.0
220
0.0
230
1.0
 70
     8
 71
     3
 72
     8
 73
     4
 74
     0
 42
0.000000001
 43
0.00000001
 40
0.0
 40
0.0
 40
0.0
 40
0.0
 40
1.0
 40
1.0
 40
1.0
 40
1.0
 10
19.09673649638084
 20
1.805781250000001
 30
0.0
 10
18.56613444159621
 20
1.661725704879807
 30
0.0
 10
18.04058777564734
 20
1.484894655775178
 30
0.0
 10
17.52679982428037
 20
1.260173904874907
 30
0.0
  0
SPLINE
  5
CC
330
1F
100
AcDbEntity
  8
0
  6
Continuous
 62
     1
370
    15
100
AcDbSpline
210
0.0
220
0.0
230
1.0
 70
     8
 71
     3
 72
    14
 73
    10
 74
     0
 42
0.000000001
 43
0.00000001
 40
0.0
 40
0.0
 40
0.0
 40
0.0
 40
0.0379625406814524
 40
0.1982011571696334
 40
0.358409098297346
 40
0.5188041099498708
 40
0.679442618895617
 40
0.839800516948384
 40
1.0
 40
1.0
 40
1.0
 40
1.0
 10
9.443662562489802
 20
-2.028429406133614
 30
0.0
 10
9.364912875463741
 20
-2.058983051383306
 30
0.0
 10
8.953763389282543
 20
-2.218502612917765
 30
0.0
 10
8.210639491477323
 20
-2.406482961335015
 30
0.0
 10
7.21357220930749
 20
-2.568877538582528
 30
0.0
 10
6.21548997237921
 20
-2.596088548506969
 30
0.0
 10
5.216532970760962
 20
-2.494814519644845
 30
0.0
 10
4.218609903057857
 20
-2.275745844471359
 30
0.0
 10
3.553918138127898
 20
-2.037418328841316
 30
0.0
 10
3.221736496377551
 20
-1.918313460098717
 30
0.0
  0
SPLINE
  5
CD
330
1F
100
AcDbEntity
  8
외형선
  6
Continuous
370
    15
100
AcDbSpline
210
0.0
220
0.0
230
1.0
 70
    24
 71
     3
 72
     8
 73
     4
 74
     0
 42
0.000000001
 43
0.00000001
 40
0.0
 40
0.0
 40
0.0
 40
0.0
 40
1.0
 40
1.0
 40
1.0
 40
1.0
 10
3.221736496380933
 20
-1.539239672282495
 30
0.0
 10
3.221736496380933
 20
-1.660575191022296
 30
0.0
 10
3.221736496380933
 20
-1.787722940542007
 30
0.0
 10
3.221736496380933
 20
-1.918313460090582
 30
0.0
  0
SPLINE
  5
CE
330
1F
100
AcDbEntity
  8
0
  6
Continuous
 62
     1
370
    15
100
AcDbSpline
210
0.0
220
0.0
230
1.0
 70
     8
 71
     3
 72
    10
 73
     6
 74
     0
 42
0.000000001
 43
0.00000001
 40
0.0
 40
0.0
 40
0.0
 40
0.0
 40
0.492118272444965
 40
0.9847372126298046
 40
1.0
 40
1.0
 40
1.0
 40
1.0
 10
3.221736496380812
 20
-2.32005269212371
 30
0.0
 10
3.553194281522655
 20
-2.389914330968472
 30
0.0
 10
4.216447067938001
 20
-2.529708683988424
 30
0.0
 10
4.890019803294972
 20
-2.599530920336496
 30
0.0
 10
5.232288674335404
 20
-2.578407167519104
 30
0.0
 10
5.242574488371826
 20
-2.577772359589972
 30
0.0
  0
SPLINE
  5
CF
330
1F
100
AcDbEntity
  8
0
  6
Continuous
 62
     1
370
    15
100
AcDbSpline
210
0.0
220
0.0
230
1.0
 70
     8
 71
     3
 72
    11
 73
     7
 74
     0
 42
0.000000001
 43
0.00000001
 40
0.0
 40
0.0
 40
0.0
 40
0.0
 40
0.1511208252678151
 40
0.4338401269403724
 40
0.7166723393343474
 40
1.0
 40
1.0
 40
1.0
 40
1.0
 10
15.57121254735958
 20
1.72954814457495
 30
0.0
 10
15.74881571164807
 20
1.807101477883175
 30
0.0
 10
16.25868176884684
 20
2.029742850489912
 30
0.0
 10
17.10068005897752
 20
2.293644608797641
 30
0.0
 10
18.09810118935489
 20
2.517283319554681
 30
0.0
 10
18.76366391536603
 20
2.557420856632058
 30
0.0
 10
19.09673649638084
 20
2.57750718741272
 30
0.0
  0
LINE
  5
D0
330
1F
100
AcDbEntity
  8
0
  6
Continuous
 62
     1
370
    15
100
AcDbLine
 10
19.09673649638084
 20
0.0000000000000014
 30
0.0
 11
19.09673649638084
 21
1.805781250000001
 31
0.0
  0
SPLINE
  5
D1
330
1F
100
AcDbEntity
  8
0
  6
Continuous
 62
     1
370
    15
100
AcDbSpline
210
0.0
220
0.0
230
1.0
 70
    24
 71
     3
 72
    10
 73
     6
 74
     0
 42
0.000000001
 43
0.00000001
 40
0.0
 40
0.0
 40
0.0
 40
0.0
 40
0.5
 40
0.5
 40
1.0
 40
1.0
 40
1.0
 40
1.0
 10
19.09673649638084
 20
1.805781249999999
 30
0.0
 10
19.09673649638084
 20
1.915243212482616
 30
0.0
 10
19.09673649638084
 20
2.042448150155641
 30
0.0
 10
19.09673649638084
 20
2.309323766791206
 30
0.0
 10
19.09673649638085
 20
2.448312878919111
 30
0.0
 10
19.09673649638085
 20
2.577507187412722
 30
0.0
  0
LINE
  5
D2
330
1F
100
AcDbEntity
  8
중심선
 62
     1
100
AcDbLine
 10
-47.40326350361916
 20
-0.0000000000000055
 30
0.0
 11
22.09673649638084
 21
0.0000000000000015
 31
0.0
  0
LINE
  5
D3
330
1F
100
AcDbEntity
  8
참조1
100
AcDbLine
 10
-1.025738685968832
 20
0.0010749287238892
 30
0.0
 11
-1.025738685968825
 21
-39.99892507127611
 31
0.0
  0
LINE
  5
D4
330
1F
100
AcDbEntity
  8
참조1
100
AcDbLine
 10
-1.025738685968825
 20
-39.99892507127611
 30
0.0
 11
-20.15080122126847
 21
-39.9989250712761
 31
0.0
  0
CIRCLE
  5
D5
330
1F
100
AcDbEntity
  8
해칭선
100
AcDbCircle
 10
0.0
 20
0.0
 30
0.0
 40
2.999999999999997
  0
INSERT
  5
D6
330
1F
100
AcDbEntity
  8
0
  6
Continuous
 62
     7
100
AcDbBlockReference
 66
     1
  2
블럭10
 10
-26.74722835839285
 20
-31.15569443135924
 30
0.0
  0
ATTRIB
  5
D7
330
D6
100
AcDbEntity
  8
FORMAT
 62
     2
100
AcDbText
 10
-35.92852364713413
 20
-29.08032751852705
 30
0.0
 40
4.233333333333333
  1
E5020013 [ 2 FLUTE ]
 41
0.75
  7
SLDTEXTSTYLE0
 11
-35.92852364713413
 21
-31.19699418519372
 31
0.0
100
AcDbAttribute
  2
AUTOATTR0
 70
     0
 74
     1
  0
SEQEND
  5
D8
330
D6
100
AcDbEntity
  8
0
  6
Continuous
 62
     7
  0
HATCH
  5
D9
330
1F
100
AcDbEntity
  8
중심선
100
AcDbHatch
 10
0.0
 20
0.0
 30
0.0
210
0.0
220
0.0
230
1.0
  2
SOLID
 70
     1
 71
     0
 91
        1
 92
        0
 93
        4
 72
     1
 10
-21.03231905401202
 20
-14.9085201297153
 11
-24.4785942978493
 21
-14.9085201297153
 72
     1
 10
-24.47859429784931
 20
-14.9085201297153
 11
-26.60682415705333
 21
-17.44484571028788
 72
     1
 10
-26.60682415705332
 20
-17.44484571028788
 11
-23.16051582810289
 21
-17.44480628098539
 72
     1
 10
-23.16051582810289
 20
-17.44480628098539
 11
-21.03231905401202
 21
-14.9085201297153
 97
        0
 75
     0
 76
     1
 98
        1
 10
-11.78121674029882
 20
20.8904049415608
  0
HATCH
  5
DA
330
1F
100
AcDbEntity
  8
중심선
100
AcDbHatch
 10
0.0
 20
0.0
 30
0.0
210
0.0
220
0.0
230
1.0
  2
SOLID
 70
     1
 71
     0
 91
        1
 92
        0
 93
        4
 72
     1
 10
-16.01955506297604
 20
-14.9085201297153
 11
-19.4658303068133
 21
-14.90852012971528
 72
     1
 10
-19.4658303068133
 20
-14.90852012971528
 11
-23.99696831517074
 21
-20.30852012971532
 72
     1
 10
-23.99696831517074
 20
-20.30852012971532
 11
-20.55069307133346
 21
-20.30852012971532
 72
     1
 10
-20.55069307133346
 20
-20.30852012971532
 11
-16.01955506297604
 21
-14.9085201297153
 97
        0
 75
     0
 76
     1
 98
        1
 10
-11.78121674029882
 20
20.8904049415608
  0
HATCH
  5
DB
330
1F
100
AcDbEntity
  8
중심선
100
AcDbHatch
 10
0.0
 20
0.0
 30
0.0
210
0.0
220
0.0
230
1.0
  2
SOLID
 70
     1
 71
     0
 91
        1
 92
        0
 93
        4
 72
     1
 10
-11.00679107194015
 20
-14.9085201297153
 11
-14.45306631577729
 21
-14.90852012971528
 72
     1
 10
-14.45306631577729
 20
-14.90852012971528
 11
-21.50150321766654
 21
-23.30852012971532
 72
     1
 10
-21.50150321766654
 20
-23.30852012971532
 11
-18.05522797382925
 21
-23.30852012971532
 72
     1
 10
-18.05522797382926
 20
-23.30852012971532
 11
-11.00679107194015
 21
-14.9085201297153
 97
        0
 75
     0
 76
     1
 98
        1
 10
-11.78121674029882
 20
20.8904049415608
  0
HATCH
  5
DC
330
1F
100
AcDbEntity
  8
중심선
100
AcDbHatch
 10
0.0
 20
0.0
 30
0.0
210
0.0
220
0.0
230
1.0
  2
SOLID
 70
     1
 71
     0
 91
        1
 92
        0
 93
        6
 72
     3
 10
-6.206900640927976
 20
-19.10852012976658
 11
3.960054785062284
 21
1.540882976769353E-10
 40
0.3939339440162627
 50
17.09539180608437
 51
320.0019657685077
 73
     0
 72
     1
 10
-4.523900985227408
 20
-17.69641413435361
 11
-2.218599111526343
 21
-15.76208742430569
 72
     3
 10
-6.206900640980822
 20
-19.10852012971545
 11
6.600054785286829
 21
-1.278976924368180E-13
 40
0.6363583540795981
 50
39.99873849337411
 51
368.4976242363725
 73
     1
 72
     1
 10
0.2184318509197869
 20
-18.14852012964533
 11
-7.5268333341449
 21
-18.14852012964533
 72
     1
 10
-7.5268333341449
 20
-18.14852012964533
 11
-7.526858378590834
 21
-20.06852012964522
 72
     1
 10
-7.526858378590834
 20
-20.06852012964522
 11
-3.085478609118796
 21
-20.06852012964519
 97
        0
 75
     0
 76
     1
 98
        1
 10
-11.78121674029882
 20
20.8904049415608
  0
DIMENSION
  5
DD
330
1F
100
AcDbEntity
  8
치수문자_일반주서
100
AcDbDimension
  2
_D
 10
-55.00989397234667
 20
-3.175000000000054
 30
0.0
 11
-55.00989397234676
 21
23.12274999999994
 31
0.0
 70
   160
  1
%%c<>
 71
     2
 42
6.349999999999994
 52
-270.0
  3
SLDDIMSTYLE0
100
AcDbAlignedDimension
 13
-43.59326350361916
 23
3.174999999999983
 33
0.0
 14
-43.59326350361916
 24
-3.175000000000012
 34
0.0
 50
90.0000000000002
100
AcDbRotatedDimension
1001
ACAD
1000
DSTYLE
1002
{
1070
   171
1070
     6
1070
   273
1070
     5
1002
}
  0
DIMENSION
  5
F2
330
1F
100
AcDbEntity
  8
치수문자_일반주서
100
AcDbDimension
  2
_D_1
 10
3.221736496380835
 20
15.75384891823566
 30
0.0
 11
11.15923649638084
 21
15.75384891823566
 31
0.0
 70
   160
  1
<>
 71
     2
 42
15.875
  3
SLDDIMSTYLE0
100
AcDbAlignedDimension
 13
19.09673649638084
 23
2.577507187412722
 33
0.0
 14
3.221736496380835
 24
1.70992135284369
 34
0.0
100
AcDbRotatedDimension
1001
ACAD
1000
DSTYLE
1002
{
1070
   171
1070
     6
1070
   273
1070
     5
1002
}
  0
DIMENSION
  5
107
330
1F
100
AcDbEntity
  8
치수문자_일반주서
100
AcDbDimension
  2
_D_2
 10
-44.40326350361916
 20
32.97350046398077
 30
0.0
 11
-12.65326350361916
 21
32.97350046398077
 31
0.0
 70
   160
  1
<>
 71
     2
 42
63.5
  3
SLDDIMSTYLE0
100
AcDbAlignedDimension
 13
19.09673649638084
 23
2.447970898596668
 33
0.0
 14
-44.40326350361916
 24
2.364999999999993
 34
0.0
100
AcDbRotatedDimension
1001
ACAD
1000
DSTYLE
1002
{
1070
   171
1070
     6
1070
   273
1070
     5
1002
}
  0
DIMENSION
  5
11B
330
1F
100
AcDbEntity
  8
치수문자_일반주서
100
AcDbDimension
  2
_D_3
 10
30.02093517972504
 20
2.577507187412763
 30
0.0
 11
30.02093517972496
 21
24.05650718741276
 31
0.0
 70
   160
  1
%%c<>
 71
     2
 42
5.155014374825445
 52
-270.0
  3
SLDDIMSTYLE0
100
AcDbAlignedDimension
 13
19.09673649638084
 23
-2.577507187412723
 33
0.0
 14
19.09673649638084
 24
2.577507187412722
 34
0.0
 50
90.0000000000002
100
AcDbRotatedDimension
1001
ACAD
1000
DSTYLE
1002
{
1070
   171
1070
     6
1070
   273
1070
     5
1002
}
  0
LINE
  5
12F
330
1F
100
AcDbEntity
  8
참조1
100
AcDbLine
 10
77.82153940838579
 20
7.441074928723896
 30
0.0
 11
77.82153940838579
 21
-7.438925071276109
 31
0.0
  0
LINE
  5
130
330
1F
100
AcDbEntity
  8
참조1
100
AcDbLine
 10
90.52153940838579
 20
5.441074928723896
 30
0.0
 11
77.82153940838579
 21
5.441074928723896
 31
0.0
  0
SOLID
  5
131
330
1F
100
AcDbEntity
  8
참조1
100
AcDbTrace
 10
77.82153940838579
 20
5.441074928723896
 30
0.0
 11
84.17153940838578
 21
4.425074928723896
 31
0.0
 12
84.17153940838578
 22
6.457074928723896
 32
0.0
 13
84.17153940838578
 23
6.457074928723896
 33
0.0
  0
LINE
  5
132
330
1F
100
AcDbEntity
  8
참조1
100
AcDbLine
 10
90.52153940838579
 20
-5.438925071276109
 30
0.0
 11
77.82153940838579
 21
-5.438925071276109
 31
0.0
  0
SOLID
  5
133
330
1F
100
AcDbEntity
  8
참조1
100
AcDbTrace
 10
77.82153940838579
 20
-5.438925071276109
 30
0.0
 11
84.17153940838578
 21
-6.454925071276109
 31
0.0
 12
84.17153940838578
 22
-4.422925071276109
 32
0.0
 13
84.17153940838578
 23
-4.422925071276109
 33
0.0
  0
MTEXT
  5
134
330
1F
100
AcDbEntity
  8
참조1
100
AcDbMText
 10
87.20588954101179
 20
11.01136670591222
 30
0.0
 40
3.5
 41
0.0
 71
     1
 72
     1
  1
A
  7
SLDTEXTSTYLE0
 73
     1
 44
1.0
  0
MTEXT
  5
135
330
1F
100
AcDbEntity
  8
참조1
100
AcDbMText
 10
87.20588954101179
 20
0.1313667059122192
 30
0.0
 40
3.5
 41
0.0
 71
     1
 72
     1
  1
A
  7
SLDTEXTSTYLE0
 73
     1
 44
1.0
  0
INSERT
  5
13C
330
1F
100
AcDbEntity
  8
해칭선
100
AcDbBlockReference
  2
SW_DOWELSYMBOL_0
 10
0.0
 20
0.0
 30
0.0
  0
ENDSEC
  0
SECTION
  2
OBJECTS
  0
DICTIONARY
  5
C
330
0
100
AcDbDictionary
281
     1
  3
ACAD_GROUP
350
D
  3
ACAD_IMAGE_VARS
350
160
  3
ACAD_LAYOUT
350
1A
  3
ACAD_MLINESTYLE
350
17
  3
ACAD_PLOTSETTINGS
350
19
  3
ACAD_PLOTSTYLENAME
350
E
  3
ACAD_SCALELIST
350
47
  3
APPDATA
350
15E
  3
DWGPROPS
350
2D2
  0
DICTIONARY
  5
21A
330
2
100
AcDbDictionary
280
     1
281
     1
  3
ACAD_LAYERSTATES
360
21B
  0
DICTIONARY
  5
D
102
{ACAD_REACTORS
330
C
102
}
330
C
100
AcDbDictionary
281
     1
  0
RASTERVARIABLES
  5
160
102
{ACAD_REACTORS
330
C
102
}
330
C
100
AcDbRasterVariables
 90
        0
 70
     1
 71
     1
 72
     1
  0
DICTIONARY
  5
1A
102
{ACAD_REACTORS
330
C
102
}
330
C
100
AcDbDictionary
281
     1
  3
Layout1
350
1E
  3
Layout2
350
26
  3
Model
350
22
  0
DICTIONARY
  5
17
102
{ACAD_REACTORS
330
C
102
}
330
C
100
AcDbDictionary
281
     1
  3
Standard
350
18
  0
DICTIONARY
  5
19
102
{ACAD_REACTORS
330
C
102
}
330
C
100
AcDbDictionary
281
     1
  0
ACDBDICTIONARYWDFLT
  5
E
102
{ACAD_REACTORS
330
C
102
}
330
C
100
AcDbDictionary
281
     1
  3
Normal
350
F
100
AcDbDictionaryWithDefault
340
F
  0
DICTIONARY
  5
47
102
{ACAD_REACTORS
330
C
102
}
330
C
100
AcDbDictionary
281
     1
  3
A0
350
48
  3
A1
350
49
  3
A2
350
4A
  3
A3
350
4B
  3
A4
350
4C
  3
A5
350
4D
  3
A6
350
4E
  3
A7
350
4F
  3
A8
350
50
  3
A9
350
51
  3
B0
350
52
  3
B1
350
53
  3
B2
350
54
  3
B3
350
55
  3
B4
350
56
  3
B5
350
57
  3
B6
350
58
  3
B7
350
59
  3
B8
350
5A
  3
B9
350
5B
  3
C0
350
5C
  3
C1
350
5D
  3
C2
350
5E
  3
C3
350
5F
  3
C4
350
60
  3
C5
350
61
  3
C6
350
62
  3
C7
350
63
  3
C8
350
64
  3
C9
350
65
  3
D0
350
66
  3
D1
350
67
  3
D2
350
68
  0
DICTIONARY
  5
15E
102
{ACAD_REACTORS
330
C
102
}
330
C
100
AcDbDictionary
281
     1
  0
XRECORD
  5
2D2
102
{ACAD_REACTORS
330
C
102
}
330
C
100
AcDbXrecord
280
     1
  1
DWGPROPS COOKIE
  2

  3

  4

  6

  7

  8
12014074
  9

300
=
301
=
302
=
303
=
304
=
305
=
306
=
307
=
308
=
309
=
 40
0.0
 41
2458311.114947581
 42
2458319.057083519
  1

 90
        0
  0
DICTIONARY
  5
21B
102
{ACAD_REACTORS
330
21A
102
}
330
21A
100
AcDbDictionary
281
     1
  0
LAYOUT
  5
1E
102
{ACAD_REACTORS
330
1A
102
}
330
1A
100
AcDbPlotSettings
  1

  2
none_device
  4

  6

 40
0.0
 41
0.0
 42
0.0
 43
0.0
 44
0.0
 45
0.0
 46
0.0
 47
0.0
 48
0.0
 49
0.0
140
0.0
141
0.0
142
1.0
143
1.0
 70
   688
 72
     1
 73
     0
 74
     5
  7

 75
    16
147
1.0
148
0.0
149
0.0
100
AcDbLayout
  1
Layout1
 70
     1
 71
     1
 10
0.0
 20
0.0
 11
420.0
 21
297.0
 12
0.0
 22
0.0
 32
0.0
 14
1.000000000000000E+20
 24
1.000000000000000E+20
 34
1.000000000000000E+20
 15
-1.000000000000000E+20
 25
-1.000000000000000E+20
 35
-1.000000000000000E+20
146
0.0
 13
0.0
 23
0.0
 33
0.0
 16
1.0
 26
0.0
 36
0.0
 17
0.0
 27
1.0
 37
0.0
 76
     0
330
1B
  0
LAYOUT
  5
26
102
{ACAD_REACTORS
330
1A
102
}
330
1A
100
AcDbPlotSettings
  1

  2
none_device
  4

  6

 40
0.0
 41
0.0
 42
0.0
 43
0.0
 44
0.0
 45
0.0
 46
0.0
 47
0.0
 48
0.0
 49
0.0
140
0.0
141
0.0
142
1.0
143
1.0
 70
   688
 72
     1
 73
     0
 74
     5
  7

 75
    16
147
1.0
148
0.0
149
0.0
100
AcDbLayout
  1
Layout2
 70
     1
 71
     2
 10
0.0
 20
0.0
 11
0.0
 21
0.0
 12
0.0
 22
0.0
 32
0.0
 14
0.0
 24
0.0
 34
0.0
 15
0.0
 25
0.0
 35
0.0
146
0.0
 13
0.0
 23
0.0
 33
0.0
 16
1.0
 26
0.0
 36
0.0
 17
0.0
 27
1.0
 37
0.0
 76
     0
330
23
  0
LAYOUT
  5
22
102
{ACAD_REACTORS
330
1A
102
}
330
1A
100
AcDbPlotSettings
  1

  2
none_device
  4
ANSI_A_(11.00_x_8.50_Inches)
  6

 40
6.35
 41
19.05
 42
6.35000508
 43
19.05000254
 44
279.4
 45
215.9
 46
101.0659033872063
 47
95.44600798358562
 48
0.0
 49
0.0
140
0.0
141
0.0
142
0.0741925885219576
143
1.0
 70
  1696
 72
     0
 73
     0
 74
     0
  7

 75
     0
147
0.0235690232323232
148
0.0
149
0.0
100
AcDbLayout
  1
Model
 70
     1
 71
     0
 10
0.0
 20
0.0
 11
420.0
 21
297.0
 12
0.0
 22
0.0
 32
0.0
 14
1.000000000000000E+20
 24
1.000000000000000E+20
 34
1.000000000000000E+20
 15
-1.000000000000000E+20
 25
-1.000000000000000E+20
 35
-1.000000000000000E+20
146
0.0
 13
0.0
 23
0.0
 33
0.0
 16
1.0
 26
0.0
 36
0.0
 17
0.0
 27
1.0
 37
0.0
 76
     0
330
1F
331
29
  0
MLINESTYLE
  5
18
102
{ACAD_REACTORS
330
17
102
}
330
17
100
AcDbMlineStyle
  2
Standard
 70
     0
  3

 62
   256
 51
90.0
 52
90.0
 71
     2
 49
0.5
 62
   256
  6
BYLAYER
 49
-0.5
 62
   256
  6
BYLAYER
  0
ACDBPLACEHOLDER
  5
F
102
{ACAD_REACTORS
330
E
102
}
330
E
  0
SCALE
  5
48
102
{ACAD_REACTORS
330
47
102
}
330
47
100
AcDbScale
 70
     0
300
1:1
140
1.0
141
1.0
290
     1
  0
SCALE
  5
49
102
{ACAD_REACTORS
330
47
102
}
330
47
100
AcDbScale
 70
     0
300
1:2
140
1.0
141
2.0
290
     0
  0
SCALE
  5
4A
102
{ACAD_REACTORS
330
47
102
}
330
47
100
AcDbScale
 70
     0
300
1:4
140
1.0
141
4.0
290
     0
  0
SCALE
  5
4B
102
{ACAD_REACTORS
330
47
102
}
330
47
100
AcDbScale
 70
     0
300
1:5
140
1.0
141
5.0
290
     0
  0
SCALE
  5
4C
102
{ACAD_REACTORS
330
47
102
}
330
47
100
AcDbScale
 70
     0
300
1:8
140
1.0
141
8.0
290
     0
  0
SCALE
  5
4D
102
{ACAD_REACTORS
330
47
102
}
330
47
100
AcDbScale
 70
     0
300
1:10
140
1.0
141
10.0
290
     0
  0
SCALE
  5
4E
102
{ACAD_REACTORS
330
47
102
}
330
47
100
AcDbScale
 70
     0
300
1:16
140
1.0
141
16.0
290
     0
  0
SCALE
  5
4F
102
{ACAD_REACTORS
330
47
102
}
330
47
100
AcDbScale
 70
     0
300
1:20
140
1.0
141
20.0
290
     0
  0
SCALE
  5
50
102
{ACAD_REACTORS
330
47
102
}
330
47
100
AcDbScale
 70
     0
300
1:30
140
1.0
141
30.0
290
     0
  0
SCALE
  5
51
102
{ACAD_REACTORS
330
47
102
}
330
47
100
AcDbScale
 70
     0
300
1:40
140
1.0
141
40.0
290
     0
  0
SCALE
  5
52
102
{ACAD_REACTORS
330
47
102
}
330
47
100
AcDbScale
 70
     0
300
1:50
140
1.0
141
50.0
290
     0
  0
SCALE
  5
53
102
{ACAD_REACTORS
330
47
102
}
330
47
100
AcDbScale
 70
     0
300
1:100
140
1.0
141
100.0
290
     0
  0
SCALE
  5
54
102
{ACAD_REACTORS
330
47
102
}
330
47
100
AcDbScale
 70
     0
300
2:1
140
2.0
141
1.0
290
     0
  0
SCALE
  5
55
102
{ACAD_REACTORS
330
47
102
}
330
47
100
AcDbScale
 70
     0
300
4:1
140
4.0
141
1.0
290
     0
  0
SCALE
  5
56
102
{ACAD_REACTORS
330
47
102
}
330
47
100
AcDbScale
 70
     0
300
8:1
140
8.0
141
1.0
290
     0
  0
SCALE
  5
57
102
{ACAD_REACTORS
330
47
102
}
330
47
100
AcDbScale
 70
     0
300
10:1
140
10.0
141
1.0
290
     0
  0
SCALE
  5
58
102
{ACAD_REACTORS
330
47
102
}
330
47
100
AcDbScale
 70
     0
300
100:1
140
100.0
141
1.0
290
     0
  0
SCALE
  5
59
102
{ACAD_REACTORS
330
47
102
}
330
47
100
AcDbScale
 70
     0
300
1/128" = 1'-0"
140
0.0078125
141
12.0
290
     0
  0
SCALE
  5
5A
102
{ACAD_REACTORS
330
47
102
}
330
47
100
AcDbScale
 70
     0
300
1/64" = 1'-0"
140
0.015625
141
12.0
290
     0
  0
SCALE
  5
5B
102
{ACAD_REACTORS
330
47
102
}
330
47
100
AcDbScale
 70
     0
300
1/32" = 1'-0"
140
0.03125
141
12.0
290
     0
  0
SCALE
  5
5C
102
{ACAD_REACTORS
330
47
102
}
330
47
100
AcDbScale
 70
     0
300
1/16" = 1'-0"
140
0.0625
141
12.0
290
     0
  0
SCALE
  5
5D
102
{ACAD_REACTORS
330
47
102
}
330
47
100
AcDbScale
 70
     0
300
3/32" = 1'-0"
140
0.09375
141
12.0
290
     0
  0
SCALE
  5
5E
102
{ACAD_REACTORS
330
47
102
}
330
47
100
AcDbScale
 70
     0
300
1/8" = 1'-0"
140
0.125
141
12.0
290
     0
  0
SCALE
  5
5F
102
{ACAD_REACTORS
330
47
102
}
330
47
100
AcDbScale
 70
     0
300
3/16" = 1'-0"
140
0.1875
141
12.0
290
     0
  0
SCALE
  5
60
102
{ACAD_REACTORS
330
47
102
}
330
47
100
AcDbScale
 70
     0
300
1/4" = 1'-0"
140
0.25
141
12.0
290
     0
  0
SCALE
  5
61
102
{ACAD_REACTORS
330
47
102
}
330
47
100
AcDbScale
 70
     0
300
3/8" = 1'-0"
140
0.375
141
12.0
290
     0
  0
SCALE
  5
62
102
{ACAD_REACTORS
330
47
102
}
330
47
100
AcDbScale
 70
     0
300
1/2" = 1'-0"
140
0.5
141
12.0
290
     0
  0
SCALE
  5
63
102
{ACAD_REACTORS
330
47
102
}
330
47
100
AcDbScale
 70
     0
300
3/4" = 1'-0"
140
0.75
141
12.0
290
     0
  0
SCALE
  5
64
102
{ACAD_REACTORS
330
47
102
}
330
47
100
AcDbScale
 70
     0
300
1" = 1'-0"
140
1.0
141
12.0
290
     0
  0
SCALE
  5
65
102
{ACAD_REACTORS
330
47
102
}
330
47
100
AcDbScale
 70
     0
300
1-1/2" = 1'-0"
140
1.5
141
12.0
290
     0
  0
SCALE
  5
66
102
{ACAD_REACTORS
330
47
102
}
330
47
100
AcDbScale
 70
     0
300
3" = 1'-0"
140
3.0
141
12.0
290
     0
  0
SCALE
  5
67
102
{ACAD_REACTORS
330
47
102
}
330
47
100
AcDbScale
 70
     0
300
6" = 1'-0"
140
6.0
141
12.0
290
     0
  0
SCALE
  5
68
102
{ACAD_REACTORS
330
47
102
}
330
47
100
AcDbScale
 70
     0
300
1'-0" = 1'-0"
140
12.0
141
12.0
290
     0
  0
ENDSEC
  0
EOF
