  0
SECTION
  2
HEADER
  9
$ACADVER
  1
AC1015
  9
$ACADMAINTVER
 70
     6
  9
$DWGCODEPAGE
  3
ANSI_949
  9
$INSBASE
 10
0.0
 20
0.0
 30
0.0
  9
$EXTMIN
 10
-57.30405311993672
 20
-39.99892507127611
 30
0.0
  9
$EXTMAX
 10
90.5215394083858
 20
38.2547769710599
 30
0.0
  9
$LIMMIN
 10
0.0
 20
0.0
  9
$LIMMAX
 10
420.0
 20
297.0
  9
$ORTHOMODE
 70
     0
  9
$REGENMODE
 70
     1
  9
$FILLMODE
 70
     1
  9
$QTEXTMODE
 70
     0
  9
$MIRRTEXT
 70
     1
  9
$LTSCALE
 40
1.0
  9
$ATTMODE
 70
     1
  9
$TEXTSIZE
 40
3.5
  9
$TRACEWID
 40
1.0
  9
$TEXTSTYLE
  7
Standard
  9
$CLAYER
  8
0
  9
$CELTYPE
  6
ByLayer
  9
$CECOLOR
 62
   256
  9
$CELTSCALE
 40
1.0
  9
$DISPSILH
 70
     0
  9
$DIMSCALE
 40
1.0
  9
$DIMASZ
 40
3.302
  9
$DIMEXO
 40
1.0
  9
$DIMDLI
 40
3.75
  9
$DIMRND
 40
0.0
  9
$DIMDLE
 40
0.0
  9
$DIMEXE
 40
1.0
  9
$DIMTP
 40
0.0
  9
$DIMTM
 40
0.0
  9
$DIMTXT
 40
3.5
  9
$DIMCEN
 40
2.5
  9
$DIMTSZ
 40
0.0
  9
$DIMTOL
 70
     0
  9
$DIMLIM
 70
     0
  9
$DIMTIH
 70
     1
  9
$DIMTOH
 70
     1
  9
$DIMSE1
 70
     0
  9
$DIMSE2
 70
     0
  9
$DIMTAD
 70
     1
  9
$DIMZIN
 70
     0
  9
$DIMBLK
  1

  9
$DIMASO
 70
     1
  9
$DIMSHO
 70
     1
  9
$DIMPOST
  1

  9
$DIMAPOST
  1

  9
$DIMALT
 70
     0
  9
$DIMALTD
 70
     3
  9
$DIMALTF
 40
0.0393700787401575
  9
$DIMLFAC
 40
1.0
  9
$DIMTOFL
 70
     1
  9
$DIMTVP
 40
0.0
  9
$DIMTIX
 70
     0
  9
$DIMSOXD
 70
     0
  9
$DIMSAH
 70
     0
  9
$DIMBLK1
  1

  9
$DIMBLK2
  1

  9
$DIMSTYLE
  2
ISO-25
  9
$DIMCLRD
 70
     0
  9
$DIMCLRE
 70
     0
  9
$DIMCLRT
 70
     0
  9
$DIMTFAC
 40
1.0
  9
$DIMGAP
 40
1.524
  9
$DIMJUST
 70
     0
  9
$DIMSD1
 70
     0
  9
$DIMSD2
 70
     0
  9
$DIMTOLJ
 70
     0
  9
$DIMTZIN
 70
     0
  9
$DIMALTZ
 70
     0
  9
$DIMALTTZ
 70
     0
  9
$DIMUPT
 70
     0
  9
$DIMDEC
 70
     2
  9
$DIMTDEC
 70
     2
  9
$DIMALTU
 70
     2
  9
$DIMALTTD
 70
     3
  9
$DIMTXSTY
  7
Standard
  9
$DIMAUNIT
 70
     0
  9
$DIMADEC
 70
     2
  9
$DIMALTRND
 40
0.0
  9
$DIMAZIN
 70
     0
  9
$DIMDSEP
 70
    44
  9
$DIMATFIT
 70
     3
  9
$DIMFRAC
 70
     0
  9
$DIMLDRBLK
  1

  9
$DIMLUNIT
 70
     2
  9
$DIMLWD
 70
    -2
  9
$DIMLWE
 70
    -2
  9
$DIMTMOVE
 70
     0
  9
$LUNITS
 70
     2
  9
$LUPREC
 70
     2
  9
$SKETCHINC
 40
1.0
  9
$FILLETRAD
 40
10.0
  9
$AUNITS
 70
     0
  9
$AUPREC
 70
     2
  9
$MENU
  1
.
  9
$ELEVATION
 40
0.0
  9
$PELEVATION
 40
0.0
  9
$THICKNESS
 40
0.0
  9
$LIMCHECK
 70
     0
  9
$CHAMFERA
 40
0.0
  9
$CHAMFERB
 40
0.0
  9
$CHAMFERC
 40
0.0
  9
$CHAMFERD
 40
0.0
  9
$SKPOLY
 70
     0
  9
$TDCREATE
 40
2458311.490159375
  9
$TDUCREATE
 40
2458311.115159375
  9
$TDUPDATE
 40
2459719.597355266
  9
$TDUUPDATE
 40
2459719.222355266
  9
$TDINDWG
 40
0.0015113889
  9
$TDUSRTIMER
 40
0.0002274884
  9
$USRTIMER
 70
     1
  9
$ANGBASE
 50
0.0
  9
$ANGDIR
 70
     0
  9
$PDMODE
 70
     0
  9
$PDSIZE
 40
-1.0
  9
$PLINEWID
 40
0.0
  9
$SPLFRAME
 70
     0
  9
$SPLINETYPE
 70
     6
  9
$SPLINESEGS
 70
     8
  9
$HANDSEED
  5
2F6
  9
$SURFTAB1
 70
     6
  9
$SURFTAB2
 70
     6
  9
$SURFTYPE
 70
     6
  9
$SURFU
 70
     6
  9
$SURFV
 70
     6
  9
$UCSBASE
  2

  9
$UCSNAME
  2

  9
$UCSORG
 10
0.0
 20
0.0
 30
0.0
  9
$UCSXDIR
 10
1.0
 20
0.0
 30
0.0
  9
$UCSYDIR
 10
0.0
 20
1.0
 30
0.0
  9
$UCSORTHOREF
  2

  9
$UCSORTHOVIEW
 70
     0
  9
$UCSORGTOP
 10
0.0
 20
0.0
 30
0.0
  9
$UCSORGBOTTOM
 10
0.0
 20
0.0
 30
0.0
  9
$UCSORGLEFT
 10
0.0
 20
0.0
 30
0.0
  9
$UCSORGRIGHT
 10
0.0
 20
0.0
 30
0.0
  9
$UCSORGFRONT
 10
0.0
 20
0.0
 30
0.0
  9
$UCSORGBACK
 10
0.0
 20
0.0
 30
0.0
  9
$PUCSBASE
  2

  9
$PUCSNAME
  2

  9
$PUCSORG
 10
0.0
 20
0.0
 30
0.0
  9
$PUCSXDIR
 10
1.0
 20
0.0
 30
0.0
  9
$PUCSYDIR
 10
0.0
 20
1.0
 30
0.0
  9
$PUCSORTHOREF
  2

  9
$PUCSORTHOVIEW
 70
     0
  9
$PUCSORGTOP
 10
0.0
 20
0.0
 30
0.0
  9
$PUCSORGBOTTOM
 10
0.0
 20
0.0
 30
0.0
  9
$PUCSORGLEFT
 10
0.0
 20
0.0
 30
0.0
  9
$PUCSORGRIGHT
 10
0.0
 20
0.0
 30
0.0
  9
$PUCSORGFRONT
 10
0.0
 20
0.0
 30
0.0
  9
$PUCSORGBACK
 10
0.0
 20
0.0
 30
0.0
  9
$USERI1
 70
     0
  9
$USERI2
 70
     0
  9
$USERI3
 70
     0
  9
$USERI4
 70
     0
  9
$USERI5
 70
     0
  9
$USERR1
 40
0.0
  9
$USERR2
 40
0.0
  9
$USERR3
 40
0.0
  9
$USERR4
 40
0.0
  9
$USERR5
 40
0.0
  9
$WORLDVIEW
 70
     1
  9
$SHADEDGE
 70
     3
  9
$SHADEDIF
 70
    70
  9
$TILEMODE
 70
     1
  9
$MAXACTVP
 70
    64
  9
$PINSBASE
 10
0.0
 20
0.0
 30
0.0
  9
$PLIMCHECK
 70
     0
  9
$PEXTMIN
 10
1.000000000000000E+20
 20
1.000000000000000E+20
 30
1.000000000000000E+20
  9
$PEXTMAX
 10
-1.000000000000000E+20
 20
-1.000000000000000E+20
 30
-1.000000000000000E+20
  9
$PLIMMIN
 10
0.0
 20
0.0
  9
$PLIMMAX
 10
0.0
 20
0.0
  9
$UNITMODE
 70
     0
  9
$VISRETAIN
 70
     1
  9
$PLINEGEN
 70
     0
  9
$PSLTSCALE
 70
     1
  9
$TREEDEPTH
 70
  3020
  9
$CMLSTYLE
  2
Standard
  9
$CMLJUST
 70
     0
  9
$CMLSCALE
 40
20.0
  9
$PROXYGRAPHICS
 70
     1
  9
$MEASUREMENT
 70
     1
  9
$CELWEIGHT
370
    -1
  9
$ENDCAPS
280
     0
  9
$JOINSTYLE
280
     0
  9
$LWDISPLAY
290
     1
  9
$INSUNITS
 70
     4
  9
$HYPERLINKBASE
  1

  9
$STYLESHEET
  1

  9
$XEDIT
290
     1
  9
$CEPSNTYPE
380
     0
  9
$PSTYLEMODE
290
     1
  9
$FINGERPRINTGUID
  2
{C9FB71E1-A60A-43BC-860E-E5D0912C3E0E}
  9
$VERSIONGUID
  2
{FAEB1C32-E019-11D5-929B-00C0DF256EC4}
  9
$EXTNAMES
290
     1
  9
$PSVPSCALE
 40
0.0
  9
$OLESTARTUP
290
     0
  0
ENDSEC
  0
SECTION
  2
CLASSES
  0
CLASS
  1
ACDBDICTIONARYWDFLT
  2
AcDbDictionaryWithDefault
  3
ObjectDBX Classes
 90
        0
280
     0
281
     0
  0
CLASS
  1
VISUALSTYLE
  2
AcDbVisualStyle
  3
ObjectDBX Classes
 90
     4095
280
     0
281
     0
  0
CLASS
  1
MATERIAL
  2
AcDbMaterial
  3
ObjectDBX Classes
 90
     1153
280
     0
281
     0
  0
CLASS
  1
SCALE
  2
AcDbScale
  3
ObjectDBX Classes
 90
     1153
280
     0
281
     0
  0
CLASS
  1
SUN
  2
AcDbSun
  3
SCENEOE
 90
     1153
280
     0
281
     0
  0
CLASS
  1
ACDBPLACEHOLDER
  2
AcDbPlaceHolder
  3
ObjectDBX Classes
 90
        0
280
     0
281
     0
  0
CLASS
  1
LAYOUT
  2
AcDbLayout
  3
ObjectDBX Classes
 90
        0
280
     0
281
     0
  0
CLASS
  1
TABLESTYLE
  2
AcDbTableStyle
  3
ObjectDBX Classes
 90
     4095
280
     0
281
     0
  0
CLASS
  1
MLEADERSTYLE
  2
AcDbMLeaderStyle
  3
ACDB_MLEADERSTYLE_CLASS
 90
     4095
280
     0
281
     0
  0
CLASS
  1
RASTERVARIABLES
  2
AcDbRasterVariables
  3
ISM
 90
        0
280
     0
281
     0
  0
ENDSEC
  0
SECTION
  2
TABLES
  0
TABLE
  2
VPORT
  5
8
330
0
100
AcDbSymbolTable
 70
     1
  0
VPORT
  5
29
330
8
100
AcDbSymbolTableRecord
100
AcDbViewportTableRecord
  2
*Active
 70
     0
 10
0.0
 20
0.0
 11
1.0
 21
1.0
 12
-9.044682759152039
 22
3.767375315396173
 13
0.0
 23
0.0
 14
10.0
 24
10.0
 15
10.0
 25
10.0
 16
0.0
 26
0.0
 36
1.0
 17
0.0
 27
0.0
 37
0.0
 40
99.20234378592964
 41
1.519944979367263
 42
50.0
 43
0.0
 44
0.0
 50
0.0
 51
0.0
 71
    16
 72
  2000
 73
     1
 74
     3
 75
     0
 76
     0
 77
     0
 78
     0
281
     0
 65
     1
110
0.0
120
0.0
130
0.0
111
1.0
121
0.0
131
0.0
112
0.0
122
1.0
132
0.0
 79
     0
146
0.0
  0
ENDTAB
  0
TABLE
  2
LTYPE
  5
5
330
0
100
AcDbSymbolTable
 70
     6
  0
LTYPE
  5
14
330
5
100
AcDbSymbolTableRecord
100
AcDbLinetypeTableRecord
  2
ByBlock
 70
     0
  3

 72
    65
 73
     0
 40
0.0
  0
LTYPE
  5
15
330
5
100
AcDbSymbolTableRecord
100
AcDbLinetypeTableRecord
  2
ByLayer
 70
     0
  3

 72
    65
 73
     0
 40
0.0
  0
LTYPE
  5
16
330
5
100
AcDbSymbolTableRecord
100
AcDbLinetypeTableRecord
  2
Continuous
 70
     0
  3
Solid line
 72
    65
 73
     0
 40
0.0
  0
LTYPE
  5
6A
330
5
100
AcDbSymbolTableRecord
100
AcDbLinetypeTableRecord
  2
HIDDEN
 70
     0
  3
Hidden __ __ __ __ __ __ __ __ __ __ __ __ __ __
 72
    65
 73
     2
 40
1.905
 49
1.27
 74
     0
 49
-0.635
 74
     0
  0
LTYPE
  5
6B
330
5
100
AcDbSymbolTableRecord
100
AcDbLinetypeTableRecord
  2
PHANTOM
 70
     0
  3
Phantom ______  __  __  ______  __  __  ______
 72
    65
 73
     6
 40
12.7
 49
6.35
 74
     0
 49
-1.27
 74
     0
 49
1.27
 74
     0
 49
-1.27
 74
     0
 49
1.27
 74
     0
 49
-1.27
 74
     0
  0
LTYPE
  5
6C
330
5
100
AcDbSymbolTableRecord
100
AcDbLinetypeTableRecord
  2
CENTER
 70
     0
  3
Center ____ _ ____ _ ____ _ ____ _ ____ _ ____
 72
    65
 73
     4
 40
10.16
 49
6.35
 74
     0
 49
-1.27
 74
     0
 49
1.27
 74
     0
 49
-1.27
 74
     0
  0
LTYPE
  5
6D
330
5
100
AcDbSymbolTableRecord
100
AcDbLinetypeTableRecord
  2
CENTERX2
 70
     0
  3
Center (2x) ________  __  ________  __  _____
 72
    65
 73
     4
 40
20.32
 49
12.7
 74
     0
 49
-2.54
 74
     0
 49
2.54
 74
     0
 49
-2.54
 74
     0
  0
LTYPE
  5
6E
330
5
100
AcDbSymbolTableRecord
100
AcDbLinetypeTableRecord
  2
DOT2
 70
     0
  3
Dot (.5x) ........................................
 72
    65
 73
     2
 40
0.635
 49
0.0
 74
     0
 49
-0.635
 74
     0
  0
ENDTAB
  0
TABLE
  2
LAYER
  5
2
102
{ACAD_XDICTIONARY
360
219
102
}
330
0
100
AcDbSymbolTable
 70
    18
  0
LAYER
  5
10
330
2
100
AcDbSymbolTableRecord
100
AcDbLayerTableRecord
  2
0
 70
     0
 62
     7
  6
Continuous
370
    -3
390
F
  0
LAYER
  5
6F
330
2
100
AcDbSymbolTableRecord
100
AcDbLayerTableRecord
  2
FORMAT
 70
     0
 62
     2
  6
Continuous
370
    -3
390
F
  0
LAYER
  5
70
330
2
100
AcDbSymbolTableRecord
100
AcDbLayerTableRecord
  2
외형선
 70
     0
 62
     4
  6
Continuous
370
    30
390
F
  0
LAYER
  5
71
330
2
100
AcDbSymbolTableRecord
100
AcDbLayerTableRecord
  2
숨은선
 70
     0
 62
     2
  6
HIDDEN
370
    15
390
F
  0
LAYER
  5
72
330
2
100
AcDbSymbolTableRecord
100
AcDbLayerTableRecord
  2
중심선
 70
     0
 62
     1
  6
CENTERX2
370
    -3
390
F
  0
LAYER
  5
73
330
2
100
AcDbSymbolTableRecord
100
AcDbLayerTableRecord
  2
파단선
 70
     0
 62
     4
  6
Continuous
370
    -3
390
F
  0
LAYER
  5
74
330
2
100
AcDbSymbolTableRecord
100
AcDbLayerTableRecord
  2
해칭선
 70
     0
 62
   100
  6
Continuous
370
    -3
390
F
  0
LAYER
  5
75
330
2
100
AcDbSymbolTableRecord
100
AcDbLayerTableRecord
  2
가는실선
 70
     0
 62
     4
  6
Continuous
370
    -3
390
F
  0
LAYER
  5
76
330
2
100
AcDbSymbolTableRecord
100
AcDbLayerTableRecord
  2
치수_보조선
 70
     0
 62
     4
  6
Continuous
370
    -3
390
F
  0
LAYER
  5
77
330
2
100
AcDbSymbolTableRecord
100
AcDbLayerTableRecord
  2
치수문자_일반주서
 70
     0
 62
     7
  6
Continuous
370
    15
390
F
  0
LAYER
  5
78
330
2
100
AcDbSymbolTableRecord
100
AcDbLayerTableRecord
  2
개별주서
 70
     0
 62
   100
  6
Continuous
370
    30
390
F
  0
LAYER
  5
79
330
2
100
AcDbSymbolTableRecord
100
AcDbLayerTableRecord
  2
중간선
 70
     0
 62
     2
  6
Continuous
370
    15
390
F
  0
LAYER
  5
7A
330
2
100
AcDbSymbolTableRecord
100
AcDbLayerTableRecord
  2
윤곽선
 70
     0
 62
     3
  6
Continuous
370
    40
390
F
  0
LAYER
  5
7B
330
2
100
AcDbSymbolTableRecord
100
AcDbLayerTableRecord
  2
중심마크
 70
     0
 62
   100
  6
Continuous
370
    30
390
F
  0
LAYER
  5
7C
330
2
100
AcDbSymbolTableRecord
100
AcDbLayerTableRecord
  2
가상선
 70
     0
 62
     4
  6
PHANTOM
370
    -3
390
F
  0
LAYER
  5
7D
330
2
100
AcDbSymbolTableRecord
100
AcDbLayerTableRecord
  2
특수지정선
 70
     0
 62
     5
  6
CENTERX2
370
    60
390
F
  0
LAYER
  5
7E
330
2
100
AcDbSymbolTableRecord
100
AcDbLayerTableRecord
  2
참조1
 70
     0
 62
    -4
  6
Continuous
370
    -3
390
F
  0
LAYER
  5
161
330
2
100
AcDbSymbolTableRecord
100
AcDbLayerTableRecord
  2
Defpoints
 70
     0
 62
     7
  6
Continuous
290
     0
370
    -3
390
F
  0
ENDTAB
  0
TABLE
  2
STYLE
  5
3
330
0
100
AcDbSymbolTable
 70
     2
  0
STYLE
  5
11
330
3
100
AcDbSymbolTableRecord
100
AcDbTextStyleTableRecord
  2
Standard
 70
     0
 40
0.0
 41
1.0
 50
0.0
 71
     0
 42
3.5
  3
txt
  4

  0
STYLE
  5
94
330
3
100
AcDbSymbolTableRecord
100
AcDbTextStyleTableRecord
  2
SLDTEXTSTYLE0
 70
     0
 40
0.0
 41
0.75
 50
0.0
 71
     0
 42
3.5
  3
TXT
  4

  0
ENDTAB
  0
TABLE
  2
VIEW
  5
6
330
0
100
AcDbSymbolTable
 70
     0
  0
ENDTAB
  0
TABLE
  2
UCS
  5
7
330
0
100
AcDbSymbolTable
 70
     0
  0
ENDTAB
  0
TABLE
  2
APPID
  5
9
330
0
100
AcDbSymbolTable
 70
     3
  0
APPID
  5
12
330
9
100
AcDbSymbolTableRecord
100
AcDbRegAppTableRecord
  2
ACAD
 70
     0
  0
APPID
  5
16D
330
9
100
AcDbSymbolTableRecord
100
AcDbRegAppTableRecord
  2
PE_URL
 70
     0
  0
APPID
  5
16E
330
9
100
AcDbSymbolTableRecord
100
AcDbRegAppTableRecord
  2
ACAD_DSTYLE_DIMRADIAL_EXTENSION
 70
     0
  0
ENDTAB
  0
TABLE
  2
DIMSTYLE
  5
A
330
0
100
AcDbSymbolTable
 70
     4
100
AcDbDimStyleTable
  0
DIMSTYLE
105
27
330
A
100
AcDbSymbolTableRecord
100
AcDbDimStyleTableRecord
  2
ISO-25
 70
     0
 41
2.5
 42
0.625
 43
3.75
 44
1.25
 73
     0
 74
     0
 77
     1
 78
     8
140
2.5
141
2.5
143
0.03937007874016
147
0.625
171
     3
172
     1
178
     0
271
     2
272
     2
274
     3
278
    44
283
     0
284
     8
340
11
  0
DIMSTYLE
105
DD
102
{ACAD_REACTORS
330
DC
330
11A
330
F1
330
106
102
}
330
A
100
AcDbSymbolTableRecord
100
AcDbDimStyleTableRecord
  2
SLDDIMSTYLE0
 70
     0
 41
3.302
 44
0.0
 45
0.000000001
 73
     0
 74
     0
 77
     1
 78
    12
 79
     3
140
3.5
143
0.0393700787401575
147
0.875
148
0.000000001
170
     1
172
     1
173
     1
178
     0
271
     2
272
     2
276
     2
284
    12
289
     0
340
94
  0
DIMSTYLE
105
F2
102
{ACAD_REACTORS
102
}
330
A
100
AcDbSymbolTableRecord
100
AcDbDimStyleTableRecord
  2
SLDDIMSTYLE1
 70
     0
 41
3.302
 44
0.0
 45
0.000000001
 73
     0
 74
     0
 77
     1
 78
    12
 79
     3
140
3.5
143
0.0393700787401575
147
0.875
148
0.000000001
170
     1
173
     1
178
     0
271
     2
272
     2
276
     2
284
    12
340
94
  0
DIMSTYLE
105
107
102
{ACAD_REACTORS
102
}
330
A
100
AcDbSymbolTableRecord
100
AcDbDimStyleTableRecord
  2
SLDDIMSTYLE2
 70
     0
 41
3.302
 44
0.0
 45
0.000000001
 73
     0
 74
     0
 77
     1
 78
     4
 79
     1
140
3.5
143
0.0393700787401575
147
0.875
148
0.000000001
170
     1
173
     1
178
     0
271
     2
272
     2
276
     2
284
    12
340
94
  0
ENDTAB
  0
TABLE
  2
BLOCK_RECORD
  5
1
330
0
100
AcDbSymbolTable
 70
    17
  0
BLOCK_RECORD
  5
1F
102
{ACAD_XDICTIONARY
360
2F3
102
}
330
1
100
AcDbSymbolTableRecord
100
AcDbBlockTableRecord
  2
*Model_Space
340
22
  0
BLOCK_RECORD
  5
1B
330
1
100
AcDbSymbolTableRecord
100
AcDbBlockTableRecord
  2
*Paper_Space
340
1E
  0
BLOCK_RECORD
  5
23
330
1
100
AcDbSymbolTableRecord
100
AcDbBlockTableRecord
  2
*Paper_Space0
340
26
  0
BLOCK_RECORD
  5
7F
330
1
100
AcDbSymbolTableRecord
100
AcDbBlockTableRecord
  2
블럭10
340
0
102
{BLKREFS
331
D5
102
}
  0
BLOCK_RECORD
  5
DE
330
1
100
AcDbSymbolTableRecord
100
AcDbBlockTableRecord
  2
_D
340
0
  0
BLOCK_RECORD
  5
F3
330
1
100
AcDbSymbolTableRecord
100
AcDbBlockTableRecord
  2
_D_1
340
0
  0
BLOCK_RECORD
  5
108
330
1
100
AcDbSymbolTableRecord
100
AcDbBlockTableRecord
  2
_D_2
340
0
  0
BLOCK_RECORD
  5
11B
330
1
100
AcDbSymbolTableRecord
100
AcDbBlockTableRecord
  2
_D_3
340
0
  0
BLOCK_RECORD
  5
135
330
1
100
AcDbSymbolTableRecord
100
AcDbBlockTableRecord
  2
SW_DOWELSYMBOL_0
340
0
102
{BLKREFS
331
13B
102
}
  0
BLOCK_RECORD
  5
1F7
330
1
100
AcDbSymbolTableRecord
100
AcDbBlockTableRecord
  2
_D_4
340
0
  0
BLOCK_RECORD
  5
211
330
1
100
AcDbSymbolTableRecord
100
AcDbBlockTableRecord
  2
*D8
340
0
  0
BLOCK_RECORD
  5
21D
330
1
100
AcDbSymbolTableRecord
100
AcDbBlockTableRecord
  2
*D9
340
0
  0
BLOCK_RECORD
  5
229
330
1
100
AcDbSymbolTableRecord
100
AcDbBlockTableRecord
  2
*D10
340
0
  0
BLOCK_RECORD
  5
235
330
1
100
AcDbSymbolTableRecord
100
AcDbBlockTableRecord
  2
*D11
340
0
  0
BLOCK_RECORD
  5
290
330
1
100
AcDbSymbolTableRecord
100
AcDbBlockTableRecord
  2
*D12
340
0
  0
BLOCK_RECORD
  5
29C
330
1
100
AcDbSymbolTableRecord
100
AcDbBlockTableRecord
  2
*D13
340
0
  0
BLOCK_RECORD
  5
2A8
330
1
100
AcDbSymbolTableRecord
100
AcDbBlockTableRecord
  2
*D14
340
0
  0
BLOCK_RECORD
  5
2B6
330
1
100
AcDbSymbolTableRecord
100
AcDbBlockTableRecord
  2
*D15
340
0
  0
BLOCK_RECORD
  5
2C4
330
1
100
AcDbSymbolTableRecord
100
AcDbBlockTableRecord
  2
*D16
340
0
  0
ENDTAB
  0
ENDSEC
  0
SECTION
  2
BLOCKS
  0
BLOCK
  5
20
330
1F
100
AcDbEntity
  8
0
100
AcDbBlockBegin
  2
*Model_Space
 70
     0
 10
0.0
 20
0.0
 30
0.0
  3
*Model_Space
  1
*Model_Space
  0
ENDBLK
  5
21
330
1F
100
AcDbEntity
  8
0
100
AcDbBlockEnd
  0
BLOCK
  5
1C
330
1B
100
AcDbEntity
 67
     1
  8
0
100
AcDbBlockBegin
  2
*Paper_Space
 70
     0
 10
0.0
 20
0.0
 30
0.0
  3
*Paper_Space
  1
*Paper_Space
  0
ENDBLK
  5
1D
330
1B
100
AcDbEntity
 67
     1
  8
0
100
AcDbBlockEnd
  0
BLOCK
  5
24
330
23
100
AcDbEntity
  8
0
100
AcDbBlockBegin
  2
*Paper_Space0
 70
     0
 10
0.0
 20
0.0
 30
0.0
  3
*Paper_Space0
  1
*Paper_Space0
  0
ENDBLK
  5
25
330
23
100
AcDbEntity
  8
0
100
AcDbBlockEnd
  0
BLOCK
  5
80
330
7F
100
AcDbEntity
  8
0
100
AcDbBlockBegin
  2
블럭10
 70
     2
 10
0.0
 20
0.0
 30
0.0
  3
블럭10
  1
블럭10
  0
ELLIPSE
  5
82
330
7F
100
AcDbEntity
  8
중심선
100
AcDbEllipse
 10
20.54032771741204
 20
12.0471743016438
 30
0.0
 11
6.600054785286829
 21
-1.261213355974178E-13
 31
0.0
210
0.0
220
0.0
230
1.0
 40
0.636358354079598
 41
0.9219305317359503
 42
6.513795318482858
  0
ELLIPSE
  5
83
330
7F
100
AcDbEntity
  8
중심선
100
AcDbEllipse
 10
20.54032771746488
 20
12.04717430159265
 30
0.0
 11
3.960054785062283
 21
1.540847449632565E-10
 31
0.0
210
0.0
220
0.0
230
1.0
 40
0.3939339440162632
 41
1.131841032648279
 42
5.62031148352944
  0
LINE
  5
84
330
7F
100
AcDbEntity
  8
중심선
100
AcDbLine
 10
2.268634060543552
 20
16.24717430164393
 30
0.0
 11
5.714909304380834
 21
16.24717430164393
 31
0.0
  0
LINE
  5
85
330
7F
100
AcDbEntity
  8
중심선
100
AcDbLine
 10
5.245725140726316
 20
7.84717430164391
 30
0.0
 11
8.692000384563599
 21
7.84717430164391
 31
0.0
  0
LINE
  5
86
330
7F
100
AcDbEntity
  8
중심선
100
AcDbLine
 10
15.74043728645272
 20
16.24717430164393
 30
0.0
 11
8.692000384563599
 21
7.84717430164391
 31
0.0
  0
LINE
  5
87
330
7F
100
AcDbEntity
  8
중심선
100
AcDbLine
 10
0.1404042013395286
 20
13.71084872107135
 30
0.0
 11
3.58671253028996
 21
13.71088815037384
 31
0.0
  0
LINE
  5
88
330
7F
100
AcDbEntity
  8
중심선
100
AcDbLine
 10
2.750260043222114
 20
10.84717430164391
 30
0.0
 11
6.196535287059397
 21
10.84717430164391
 31
0.0
  0
LINE
  5
89
330
7F
100
AcDbEntity
  8
중심선
100
AcDbLine
 10
12.29416204261559
 20
16.24717430164393
 30
0.0
 11
5.245725140726316
 21
7.84717430164391
 31
0.0
  0
LINE
  5
8A
330
7F
100
AcDbEntity
  8
중심선
100
AcDbLine
 10
10.72767329541681
 20
16.24717430164393
 30
0.0
 11
6.196535287059397
 21
10.84717430164391
 31
0.0
  0
LINE
  5
8B
330
7F
100
AcDbEntity
  8
중심선
100
AcDbLine
 10
7.28139805157953
 20
16.24717430164393
 30
0.0
 11
2.750260043222114
 21
10.84717430164391
 31
0.0
  0
LINE
  5
8C
330
7F
100
AcDbEntity
  8
중심선
100
AcDbLine
 10
5.714909304380834
 20
16.24717430164393
 30
0.0
 11
3.58671253028996
 21
13.71088815037384
 31
0.0
  0
LINE
  5
8D
330
7F
100
AcDbEntity
  8
중심선
100
AcDbLine
 10
2.268634060543552
 20
16.24717430164393
 30
0.0
 11
0.1404042013395286
 21
13.71084872107135
 31
0.0
  0
LINE
  5
8E
330
7F
100
AcDbEntity
  8
중심선
100
AcDbLine
 10
7.28139805157953
 20
16.24717430164393
 30
0.0
 11
10.72767329541681
 21
16.24717430164393
 31
0.0
  0
LINE
  5
8F
330
7F
100
AcDbEntity
  8
중심선
100
AcDbLine
 10
12.29416204261559
 20
16.24717430164393
 30
0.0
 11
15.74043728645272
 21
16.24717430164393
 31
0.0
  0
LINE
  5
90
330
7F
100
AcDbEntity
  8
중심선
100
AcDbLine
 10
19.22036997980202
 20
11.08717430171403
 30
0.0
 11
23.66174974927406
 21
11.08717430171406
 31
0.0
  0
LINE
  5
91
330
7F
100
AcDbEntity
  8
중심선
100
AcDbLine
 10
19.22039502424796
 20
13.00717430171391
 30
0.0
 11
19.22036997980202
 21
11.08717430171403
 31
0.0
  0
LINE
  5
92
330
7F
100
AcDbEntity
  8
중심선
100
AcDbLine
 10
19.22039502424796
 20
13.00717430171391
 30
0.0
 11
26.96566020931264
 21
13.00717430171391
 31
0.0
  0
LINE
  5
93
330
7F
100
AcDbEntity
  8
중심선
100
AcDbLine
 10
22.22332737316547
 20
13.45928029700563
 30
0.0
 11
24.52862924686651
 21
15.39360700705356
 31
0.0
  0
ATTDEF
  5
95
330
7F
100
AcDbEntity
  8
FORMAT
 62
     2
100
AcDbText
 10
4.408487351596664
 20
2.075366912832191
 30
0.0
 40
4.233333333333333
  1
E5020014
 41
0.75
  7
SLDTEXTSTYLE0
 11
4.408487351596664
 21
-0.0412997538344756
 31
0.0
100
AcDbAttributeDefinition
  3

  2
AUTOATTR0
 70
     0
 74
     1
  0
ENDBLK
  5
81
330
7F
100
AcDbEntity
  8
0
100
AcDbBlockEnd
  0
BLOCK
  5
DF
330
DE
100
AcDbEntity
  8
0
100
AcDbBlockBegin
  2
_D
 70
     0
 10
0.0
 20
0.0
 30
0.0
  3
_D
  1
_D
  0
LINE
  5
E1
330
DE
100
AcDbEntity
  8
치수문자_일반주서
 62
     0
370
    -2
100
AcDbLine
 10
-44.39634233574611
 20
3.174999999999982
 30
0.0
 11
-52.92905311993662
 21
3.174999999999951
 31
0.0
  0
LINE
  5
E2
330
DE
100
AcDbEntity
  8
치수문자_일반주서
 62
     0
370
    -2
100
AcDbLine
 10
-44.39634233574611
 20
-3.175000000000013
 30
0.0
 11
-52.9290531199366
 21
-3.175000000000043
 31
0.0
  0
LINE
  5
E3
330
DE
100
AcDbEntity
  8
치수문자_일반주서
 62
     0
370
    -2
100
AcDbLine
 10
-52.92905311993662
 20
3.174999999999951
 30
0.0
 11
-52.92905311993673
 21
35.81024999999995
 31
0.0
  0
LINE
  5
E4
330
DE
100
AcDbEntity
  8
치수문자_일반주서
 62
     0
370
    -2
100
AcDbLine
 10
-52.92905311993662
 20
3.174999999999951
 30
0.0
 11
-52.9290531199366
 21
-3.175000000000043
 31
0.0
  0
LINE
  5
E5
330
DE
100
AcDbEntity
  8
치수문자_일반주서
 62
     0
370
    -2
100
AcDbLine
 10
-52.92905311993663
 20
6.476999999999951
 30
0.0
 11
-52.92905311993665
 21
9.77899999999995
 31
0.0
  0
LINE
  5
E6
330
DE
100
AcDbEntity
  8
치수문자_일반주서
 62
     0
370
    -2
100
AcDbLine
 10
-52.92905311993658
 20
-6.477000000000043
 30
0.0
 11
-52.92905311993657
 21
-9.779000000000043
 31
0.0
  0
SOLID
  5
E7
330
DE
100
AcDbEntity
  8
치수문자_일반주서
 62
     0
100
AcDbTrace
 10
-53.47938645326997
 20
6.476999999999949
 30
0.0
 11
-52.3787197866033
 21
6.476999999999952
 31
0.0
 12
-52.92905311993662
 22
3.174999999999951
 32
0.0
 13
-52.92905311993662
 23
3.174999999999951
 33
0.0
  0
SOLID
  5
E8
330
DE
100
AcDbEntity
  8
치수문자_일반주서
 62
     0
100
AcDbTrace
 10
-52.37871978660325
 20
-6.477000000000041
 30
0.0
 11
-53.47938645326992
 21
-6.477000000000045
 31
0.0
 12
-52.9290531199366
 22
-3.175000000000043
 32
0.0
 13
-52.9290531199366
 23
-3.175000000000043
 33
0.0
  0
MTEXT
  5
E9
330
DE
100
AcDbEntity
  8
치수문자_일반주서
 62
     0
100
AcDbMText
 10
-57.30405311993668
 20
23.12274999999994
 30
0.0
 40
3.5
 41
0.0
 71
     2
 72
     1
  1
\A1;%%c6.35 [1/4]
  7
SLDTEXTSTYLE0
 11
-3.356894814614650E-15
 21
1.0
 31
0.0
 73
     1
 44
1.0
  0
POINT
  5
2CE
330
DE
100
AcDbEntity
  8
Defpoints
 62
     0
100
AcDbPoint
 10
-44.33384233574611
 20
3.174999999999982
 30
0.0
  0
POINT
  5
2CF
330
DE
100
AcDbEntity
  8
Defpoints
 62
     0
100
AcDbPoint
 10
-44.33384233574611
 20
-3.175000000000012
 30
0.0
  0
POINT
  5
2D0
330
DE
100
AcDbEntity
  8
Defpoints
 62
     0
100
AcDbPoint
 10
-52.9290531199366
 20
-3.175000000000044
 30
0.0
  0
ENDBLK
  5
E0
330
DE
100
AcDbEntity
  8
0
100
AcDbBlockEnd
  0
BLOCK
  5
F4
330
F3
100
AcDbEntity
  8
0
100
AcDbBlockBegin
  2
_D_1
 70
     0
 10
0.0
 20
0.0
 30
0.0
  3
_D_1
  1
_D_1
  0
LINE
  5
F6
330
F3
100
AcDbEntity
  8
치수문자_일반주서
 62
     0
370
    -2
100
AcDbLine
 10
18.3561576642539
 20
2.838276971059854
 30
0.0
 11
18.3561576642539
 21
15.95211870188279
 31
0.0
  0
LINE
  5
F7
330
F3
100
AcDbEntity
  8
치수문자_일반주서
 62
     0
370
    -2
100
AcDbLine
 10
2.481157664253889
 20
1.983116450896219
 30
0.0
 11
2.481157664253889
 21
15.95211870188279
 31
0.0
  0
LINE
  5
F8
330
F3
100
AcDbEntity
  8
치수문자_일반주서
 62
     0
370
    -2
100
AcDbLine
 10
15.0541576642539
 20
15.95211870188279
 30
0.0
 11
5.783157664253888
 21
15.95211870188279
 31
0.0
  0
SOLID
  5
F9
330
F3
100
AcDbEntity
  8
치수문자_일반주서
 62
     0
100
AcDbTrace
 10
15.0541576642539
 20
15.40178536854945
 30
0.0
 11
15.0541576642539
 21
16.50245203521612
 31
0.0
 12
18.3561576642539
 22
15.95211870188279
 32
0.0
 13
18.3561576642539
 23
15.95211870188279
 33
0.0
  0
SOLID
  5
FA
330
F3
100
AcDbEntity
  8
치수문자_일반주서
 62
     0
100
AcDbTrace
 10
5.783157664253888
 20
16.50245203521612
 30
0.0
 11
5.783157664253888
 21
15.40178536854945
 31
0.0
 12
2.481157664253889
 22
15.95211870188279
 32
0.0
 13
2.481157664253889
 23
15.95211870188279
 33
0.0
  0
MTEXT
  5
FB
330
F3
100
AcDbEntity
  8
치수문자_일반주서
 62
     0
100
AcDbMText
 10
10.41865766425389
 20
20.32711870188279
 30
0.0
 40
3.5
 41
0.0
 71
     2
 72
     1
  1
\A1;15.88 [5/8]
  7
SLDTEXTSTYLE0
 73
     1
 44
1.0
  0
POINT
  5
FC
330
F3
100
AcDbEntity
  8
Defpoints
 62
     0
100
AcDbPoint
 10
18.3561576642539
 20
2.775776971059854
 30
0.0
  0
POINT
  5
FD
330
F3
100
AcDbEntity
  8
Defpoints
 62
     0
100
AcDbPoint
 10
2.481157664253889
 20
1.920616450896219
 30
0.0
  0
POINT
  5
FE
330
F3
100
AcDbEntity
  8
Defpoints
 62
     0
100
AcDbPoint
 10
2.481157664253889
 20
15.95211870188279
 30
0.0
  0
ENDBLK
  5
F5
330
F3
100
AcDbEntity
  8
0
100
AcDbBlockEnd
  0
BLOCK
  5
109
330
108
100
AcDbEntity
  8
0
100
AcDbBlockBegin
  2
_D_2
 70
     0
 10
0.0
 20
0.0
 30
0.0
  3
_D_2
  1
_D_2
  0
LINE
  5
10B
330
108
100
AcDbEntity
  8
치수문자_일반주서
 62
     0
370
    -2
100
AcDbLine
 10
18.3561576642539
 20
2.698776352334872
 30
0.0
 11
18.35615766425389
 21
33.16180591771897
 31
0.0
  0
LINE
  5
10C
330
108
100
AcDbEntity
  8
치수문자_일반주서
 62
     0
370
    -2
100
AcDbLine
 10
-45.14384233574611
 20
2.427499999999993
 30
0.0
 11
-45.14384233574611
 21
33.16180591771897
 31
0.0
  0
LINE
  5
10D
330
108
100
AcDbEntity
  8
치수문자_일반주서
 62
     0
370
    -2
100
AcDbLine
 10
15.05415766425389
 20
33.16180591771897
 30
0.0
 11
-41.84184233574611
 21
33.16180591771897
 31
0.0
  0
SOLID
  5
10E
330
108
100
AcDbEntity
  8
치수문자_일반주서
 62
     0
100
AcDbTrace
 10
15.05415766425389
 20
32.61147258438564
 30
0.0
 11
15.05415766425389
 21
33.71213925105231
 31
0.0
 12
18.35615766425389
 22
33.16180591771897
 32
0.0
 13
18.35615766425389
 23
33.16180591771897
 33
0.0
  0
SOLID
  5
10F
330
108
100
AcDbEntity
  8
치수문자_일반주서
 62
     0
100
AcDbTrace
 10
-41.84184233574611
 20
33.71213925105231
 30
0.0
 11
-41.84184233574611
 21
32.61147258438564
 31
0.0
 12
-45.14384233574611
 22
33.16180591771897
 32
0.0
 13
-45.14384233574611
 23
33.16180591771897
 33
0.0
  0
MTEXT
  5
110
330
108
100
AcDbEntity
  8
치수문자_일반주서
 62
     0
100
AcDbMText
 10
-13.39384233574611
 20
37.53680591771897
 30
0.0
 40
3.5
 41
0.0
 71
     2
 72
     1
  1
\A1;63.5 [2 1/2]
  7
SLDTEXTSTYLE0
 73
     1
 44
1.0
  0
POINT
  5
111
330
108
100
AcDbEntity
  8
Defpoints
 62
     0
100
AcDbPoint
 10
18.3561576642539
 20
2.636276352334872
 30
0.0
  0
POINT
  5
112
330
108
100
AcDbEntity
  8
Defpoints
 62
     0
100
AcDbPoint
 10
-45.14384233574611
 20
2.364999999999993
 30
0.0
  0
POINT
  5
113
330
108
100
AcDbEntity
  8
Defpoints
 62
     0
100
AcDbPoint
 10
-45.14384233574611
 20
33.16180591771897
 30
0.0
  0
ENDBLK
  5
10A
330
108
100
AcDbEntity
  8
0
100
AcDbBlockEnd
  0
BLOCK
  5
11C
330
11B
100
AcDbEntity
  8
0
100
AcDbBlockBegin
  2
_D_3
 70
     0
 10
0.0
 20
0.0
 30
0.0
  3
_D_3
  1
_D_3
  0
LINE
  5
11E
330
11B
100
AcDbEntity
  8
치수문자_일반주서
 62
     0
370
    -2
100
AcDbLine
 10
18.4186576642539
 20
-2.775776971059856
 30
0.0
 11
30.29954681907218
 21
-2.775776971059813
 31
0.0
  0
LINE
  5
11F
330
11B
100
AcDbEntity
  8
치수문자_일반주서
 62
     0
370
    -2
100
AcDbLine
 10
18.4186576642539
 20
2.775776971059854
 30
0.0
 11
30.29954681907216
 21
2.775776971059898
 31
0.0
  0
LINE
  5
120
330
11B
100
AcDbEntity
  8
치수문자_일반주서
 62
     0
370
    -2
100
AcDbLine
 10
30.29954681907216
 20
2.775776971059898
 30
0.0
 11
30.29954681907205
 21
38.2547769710599
 31
0.0
  0
LINE
  5
121
330
11B
100
AcDbEntity
  8
치수문자_일반주서
 62
     0
370
    -2
100
AcDbLine
 10
30.29954681907218
 20
-2.775776971059813
 30
0.0
 11
30.29954681907216
 21
2.775776971059898
 31
0.0
  0
LINE
  5
122
330
11B
100
AcDbEntity
  8
치수문자_일반주서
 62
     0
370
    -2
100
AcDbLine
 10
30.29954681907219
 20
-6.077776971059812
 30
0.0
 11
30.2995468190722
 21
-9.379776971059812
 31
0.0
  0
LINE
  5
123
330
11B
100
AcDbEntity
  8
치수문자_일반주서
 62
     0
370
    -2
100
AcDbLine
 10
30.29954681907215
 20
6.077776971059897
 30
0.0
 11
30.29954681907214
 21
9.379776971059897
 31
0.0
  0
SOLID
  5
124
330
11B
100
AcDbEntity
  8
치수문자_일반주서
 62
     0
100
AcDbTrace
 10
30.84988015240553
 20
-6.07777697105981
 30
0.0
 11
29.74921348573886
 21
-6.077776971059814
 31
0.0
 12
30.29954681907218
 22
-2.775776971059813
 32
0.0
 13
30.29954681907218
 23
-2.775776971059813
 33
0.0
  0
SOLID
  5
125
330
11B
100
AcDbEntity
  8
치수문자_일반주서
 62
     0
100
AcDbTrace
 10
29.74921348573882
 20
6.077776971059896
 30
0.0
 11
30.84988015240549
 21
6.077776971059899
 31
0.0
 12
30.29954681907216
 22
2.775776971059898
 32
0.0
 13
30.29954681907216
 23
2.775776971059898
 33
0.0
  0
MTEXT
  5
126
330
11B
100
AcDbEntity
  8
치수문자_일반주서
 62
     0
100
AcDbMText
 10
25.92454681907209
 20
23.81727697105988
 30
0.0
 40
3.5
 41
0.0
 71
     2
 72
     1
  1
\A1;%%c5.55 [7/32]
  7
SLDTEXTSTYLE0
 11
-3.199747058067847E-15
 21
1.0
 31
0.0
 73
     1
 44
1.0
  0
POINT
  5
127
330
11B
100
AcDbEntity
  8
Defpoints
 62
     0
100
AcDbPoint
 10
18.3561576642539
 20
-2.775776971059856
 30
0.0
  0
POINT
  5
128
330
11B
100
AcDbEntity
  8
Defpoints
 62
     0
100
AcDbPoint
 10
18.3561576642539
 20
2.775776971059854
 30
0.0
  0
POINT
  5
129
330
11B
100
AcDbEntity
  8
Defpoints
 62
     0
100
AcDbPoint
 10
30.29954681907216
 20
2.775776971059898
 30
0.0
  0
ENDBLK
  5
11D
330
11B
100
AcDbEntity
  8
0
100
AcDbBlockEnd
  0
BLOCK
  5
136
330
135
100
AcDbEntity
  8
0
100
AcDbBlockBegin
  2
SW_DOWELSYMBOL_0
 70
     0
 10
0.0
 20
0.0
 30
0.0
  3
SW_DOWELSYMBOL_0
  1
SW_DOWELSYMBOL_0
  0
CIRCLE
  5
138
330
135
100
AcDbEntity
  8
해칭선
 62
     0
100
AcDbCircle
 10
0.0
 20
0.0
 30
0.0
 40
2.999999999999996
  0
HATCH
  5
139
330
135
100
AcDbEntity
  8
0
  6
Continuous
 62
     0
370
     0
100
AcDbHatch
 10
0.0
 20
0.0
 30
0.0
210
0.0
220
0.0
230
1.0
  2
SOLID
 70
     1
 71
     0
 91
        1
 92
        0
 93
        3
 72
     2
 10
0.0
 20
0.0
 40
2.999999999999996
 50
0.0
 51
90.0
 73
     1
 72
     1
 10
0.0
 20
2.999999999999996
 11
0.0
 21
0.0
 72
     1
 10
0.0
 20
0.0
 11
2.999999999999996
 21
0.0
 97
        0
 75
     0
 76
     1
 98
        1
 10
0.0
 20
0.0
  0
HATCH
  5
13A
330
135
100
AcDbEntity
  8
0
  6
Continuous
 62
     0
370
     0
100
AcDbHatch
 10
0.0
 20
0.0
 30
0.0
210
0.0
220
0.0
230
1.0
  2
SOLID
 70
     1
 71
     0
 91
        1
 92
        0
 93
        3
 72
     2
 10
0.0
 20
0.0
 40
2.999999999999996
 50
180.0
 51
270.0000000000007
 73
     1
 72
     1
 10
0.0
 20
-2.999999999999996
 11
0.0
 21
0.0
 72
     1
 10
0.0
 20
0.0
 11
-2.999999999999996
 21
0.0
 97
        0
 75
     0
 76
     1
 98
        1
 10
0.0
 20
0.0
  0
ENDBLK
  5
137
330
135
100
AcDbEntity
  8
0
100
AcDbBlockEnd
  0
BLOCK
  5
1F8
330
1F7
100
AcDbEntity
  8
0
100
AcDbBlockBegin
  2
_D_4
 70
     0
 10
0.0
 20
0.0
 30
0.0
  3
_D_4
  1
_D_4
  0
LINE
  5
1F9
330
1F7
100
AcDbEntity
  8
치수문자_일반주서
 62
     0
370
    -2
100
AcDbLine
 10
102.4375000000001
 20
36.22143424691529
 30
0.0
 11
117.3750000000001
 21
36.22143424691535
 31
0.0
  0
LINE
  5
1FA
330
1F7
100
AcDbEntity
  8
치수문자_일반주서
 62
     0
370
    -2
100
AcDbLine
 10
102.4375000000001
 20
22.22143424691529
 30
0.0
 11
117.3750000000001
 21
22.22143424691535
 31
0.0
  0
LINE
  5
1FB
330
1F7
100
AcDbEntity
  8
치수문자_일반주서
 62
     0
370
    -2
100
AcDbLine
 10
117.3750000000001
 20
36.22143424691535
 30
0.0
 11
117.3750000000001
 21
22.22143424691535
 31
0.0
  0
LINE
  5
1FC
330
1F7
100
AcDbEntity
  8
치수문자_일반주서
 62
     0
370
    -2
100
AcDbLine
 10
117.3750000000001
 20
39.52343424691535
 30
0.0
 11
117.375
 21
42.82543424691535
 31
0.0
  0
LINE
  5
1FD
330
1F7
100
AcDbEntity
  8
치수문자_일반주서
 62
     0
370
    -2
100
AcDbLine
 10
117.3750000000001
 20
18.91943424691535
 30
0.0
 11
117.3750000000001
 21
15.61743424691535
 31
0.0
  0
SOLID
  5
1FE
330
1F7
100
AcDbEntity
  8
치수문자_일반주서
 62
     0
100
AcDbTrace
 10
116.8246666666667
 20
39.52343424691535
 30
0.0
 11
117.9253333333334
 21
39.52343424691535
 31
0.0
 12
117.3750000000001
 22
36.22143424691535
 32
0.0
 13
117.3750000000001
 23
36.22143424691535
 33
0.0
  0
SOLID
  5
1FF
330
1F7
100
AcDbEntity
  8
치수문자_일반주서
 62
     0
100
AcDbTrace
 10
117.9253333333335
 20
18.91943424691535
 30
0.0
 11
116.8246666666668
 21
18.91943424691535
 31
0.0
 12
117.3750000000001
 22
22.22143424691535
 32
0.0
 13
117.3750000000001
 23
22.22143424691535
 33
0.0
  0
MTEXT
  5
200
330
1F7
100
AcDbEntity
  8
치수문자_일반주서
 62
     0
100
AcDbMText
 10
113.0000000000001
 20
29.28713862862833
 30
0.0
 40
3.5
 41
0.0
 71
     2
 72
     1
  1
\A1;%%c14.00 [0.55]
  7
SLDTEXTSTYLE0
 11
-3.045183153257572E-15
 21
1.0
 31
0.0
 73
     1
 44
1.0
  0
POINT
  5
201
330
1F7
100
AcDbEntity
  8
Defpoints
 62
     0
100
AcDbPoint
 10
102.3750000000001
 20
36.22143424691529
 30
0.0
  0
POINT
  5
202
330
1F7
100
AcDbEntity
  8
Defpoints
 62
     0
100
AcDbPoint
 10
102.3750000000001
 20
22.22143424691529
 30
0.0
  0
POINT
  5
203
330
1F7
100
AcDbEntity
  8
Defpoints
 62
     0
100
AcDbPoint
 10
117.3750000000001
 20
22.22143424691535
 30
0.0
  0
ENDBLK
  5
204
330
1F7
100
AcDbEntity
  8
0
100
AcDbBlockEnd
  0
BLOCK
  5
212
330
211
100
AcDbEntity
  8
0
100
AcDbBlockBegin
  2
*D8
 70
     1
 10
0.0
 20
0.0
 30
0.0
  3
*D8
  1
*D8
  0
LINE
  5
213
330
211
100
AcDbEntity
  8
치수문자_일반주서
 62
     0
370
    -2
100
AcDbLine
 10
103.8657751816695
 20
19.48229575403651
 30
0.0
 11
119.6194267469468
 21
-6.150060756304035
 31
0.0
  0
MTEXT
  5
214
330
211
100
AcDbEntity
  8
치수문자_일반주서
 62
     0
100
AcDbMText
 10
115.6706384014277
 20
5.288158154535728
 30
0.0
 40
3.5
 41
0.0
 71
     5
 72
     1
  1
\A1;R.5 [R0.02]
  7
SLDTEXTSTYLE0
 11
0.5236126201129557
 21
-0.8519564684057781
 31
0.0
 73
     1
 44
1.0
  0
SOLID
  5
215
330
211
100
AcDbEntity
  8
치수문자_일반주서
 62
     0
100
AcDbTrace
 10
104.3346352247821
 20
19.77045723263868
 30
0.0
 11
103.3969151385569
 21
19.19413427543435
 31
0.0
 12
102.1368063100565
 22
22.29545601271239
 32
0.0
 13
102.1368063100565
 23
22.29545601271239
 33
0.0
  0
LINE
  5
216
330
211
100
AcDbEntity
  8
치수문자_일반주서
 62
     0
100
AcDbLine
 10
101.785
 20
22.72143424691529
 30
0.0
 11
101.965
 21
22.72143424691529
 31
0.0
  0
LINE
  5
217
330
211
100
AcDbEntity
  8
치수문자_일반주서
 62
     0
100
AcDbLine
 10
101.875
 20
22.63143424691529
 30
0.0
 11
101.875
 21
22.81143424691529
 31
0.0
  0
POINT
  5
243
330
211
100
AcDbEntity
  8
Defpoints
 62
     0
100
AcDbPoint
 10
102.1368063100565
 20
22.29545601271239
 30
0.0
  0
POINT
  5
244
330
211
100
AcDbEntity
  8
Defpoints
 62
     0
100
AcDbPoint
 10
101.875
 20
22.72143424691529
 30
0.0
  0
ENDBLK
  5
218
330
211
100
AcDbEntity
  8
0
100
AcDbBlockEnd
  0
BLOCK
  5
21E
330
21D
100
AcDbEntity
  8
0
100
AcDbBlockBegin
  2
*D9
 70
     1
 10
0.0
 20
0.0
 30
0.0
  3
*D9
  1
*D10
  0
LINE
  5
220
330
21D
100
AcDbEntity
  8
치수문자_일반주서
 62
     0
370
    -2
100
AcDbLine
 10
19.37500000000004
 20
35.78393424691529
 30
0.0
 11
19.37500000000004
 21
70.88391841499404
 31
0.0
  0
LINE
  5
221
330
21D
100
AcDbEntity
  8
치수문자_일반주서
 62
     0
370
    -2
100
AcDbLine
 10
102.3750000000001
 20
36.34643424691529
 30
0.0
 11
102.3750000000001
 21
70.88391841499404
 31
0.0
  0
LINE
  5
222
330
21D
100
AcDbEntity
  8
치수문자_일반주서
 62
     0
370
    -2
100
AcDbLine
 10
22.67700000000004
 20
70.88391841499404
 30
0.0
 11
99.07300000000006
 21
70.88391841499404
 31
0.0
  0
SOLID
  5
223
330
21D
100
AcDbEntity
  8
치수문자_일반주서
 62
     0
100
AcDbTrace
 10
22.67700000000004
 20
71.43425174832737
 30
0.0
 11
22.67700000000004
 21
70.33358508166071
 31
0.0
 12
19.37500000000004
 22
70.88391841499404
 32
0.0
 13
19.37500000000004
 23
70.88391841499404
 33
0.0
  0
SOLID
  5
224
330
21D
100
AcDbEntity
  8
치수문자_일반주서
 62
     0
100
AcDbTrace
 10
99.07300000000006
 20
70.33358508166071
 30
0.0
 11
99.07300000000006
 21
71.43425174832737
 31
0.0
 12
102.3750000000001
 22
70.88391841499404
 32
0.0
 13
102.3750000000001
 23
70.88391841499404
 33
0.0
  0
MTEXT
  5
225
330
21D
100
AcDbEntity
  8
치수문자_일반주서
 62
     0
100
AcDbMText
 10
60.87500000000005
 20
75.25891841499404
 30
0.0
 40
3.5
 41
0.0
 71
     2
 72
     1
  1
\A1;83 [3.27]
  7
SLDTEXTSTYLE0
 73
     1
 44
1.0
  0
POINT
  5
226
330
21D
100
AcDbEntity
  8
Defpoints
 62
     0
100
AcDbPoint
 10
19.37500000000004
 20
35.72143424691529
 30
0.0
  0
POINT
  5
227
330
21D
100
AcDbEntity
  8
Defpoints
 62
     0
100
AcDbPoint
 10
102.3750000000001
 20
36.28393424691529
 30
0.0
  0
POINT
  5
228
330
21D
100
AcDbEntity
  8
Defpoints
 62
     0
100
AcDbPoint
 10
102.3750000000001
 20
70.88391841499404
 30
0.0
  0
ENDBLK
  5
21F
330
21D
100
AcDbEntity
  8
0
100
AcDbBlockEnd
  0
BLOCK
  5
22A
330
229
100
AcDbEntity
  8
0
100
AcDbBlockBegin
  2
*D10
 70
     1
 10
0.0
 20
0.0
 30
0.0
  3
*D10
  1
*D11
  0
LINE
  5
22C
330
229
100
AcDbEntity
  8
치수문자_일반주서
 62
     0
370
    -2
100
AcDbLine
 10
76.37504186422882
 20
28.62038676313042
 30
0.0
 11
76.37504186422882
 21
61.90091383617725
 31
0.0
  0
LINE
  5
22D
330
229
100
AcDbEntity
  8
치수문자_일반주서
 62
     0
370
    -2
100
AcDbLine
 10
102.3750000000001
 20
36.28393424691529
 30
0.0
 11
102.3750000000001
 21
61.90091383617725
 31
0.0
  0
LINE
  5
22E
330
229
100
AcDbEntity
  8
치수문자_일반주서
 62
     0
370
    -2
100
AcDbLine
 10
79.67704186422881
 20
61.90091383617725
 30
0.0
 11
99.07300000000006
 21
61.90091383617725
 31
0.0
  0
SOLID
  5
22F
330
229
100
AcDbEntity
  8
치수문자_일반주서
 62
     0
100
AcDbTrace
 10
79.67704186422881
 20
62.45124716951059
 30
0.0
 11
79.67704186422881
 21
61.35058050284392
 31
0.0
 12
76.37504186422882
 22
61.90091383617725
 32
0.0
 13
76.37504186422882
 23
61.90091383617725
 33
0.0
  0
SOLID
  5
230
330
229
100
AcDbEntity
  8
치수문자_일반주서
 62
     0
100
AcDbTrace
 10
99.07300000000006
 20
61.35058050284392
 30
0.0
 11
99.07300000000006
 21
62.45124716951059
 31
0.0
 12
102.3750000000001
 22
61.90091383617725
 32
0.0
 13
102.3750000000001
 23
61.90091383617725
 33
0.0
  0
MTEXT
  5
231
330
229
100
AcDbEntity
  8
치수문자_일반주서
 62
     0
100
AcDbMText
 10
89.42159572693208
 20
66.27591383617725
 30
0.0
 40
3.5
 41
0.0
 71
     2
 72
     1
  1
\A1;26 [1.02]
  7
SLDTEXTSTYLE0
 73
     1
 44
1.0
  0
POINT
  5
232
330
229
100
AcDbEntity
  8
Defpoints
 62
     0
100
AcDbPoint
 10
76.37504186422882
 20
28.55788676313042
 30
0.0
  0
POINT
  5
233
330
229
100
AcDbEntity
  8
Defpoints
 62
     0
100
AcDbPoint
 10
102.3750000000001
 20
36.22143424691529
 30
0.0
  0
POINT
  5
234
330
229
100
AcDbEntity
  8
Defpoints
 62
     0
100
AcDbPoint
 10
102.3750000000001
 20
61.90091383617725
 30
0.0
  0
ENDBLK
  5
22B
330
229
100
AcDbEntity
  8
0
100
AcDbBlockEnd
  0
BLOCK
  5
236
330
235
100
AcDbEntity
  8
0
100
AcDbBlockBegin
  2
*D11
 70
     1
 10
0.0
 20
0.0
 30
0.0
  3
*D11
  1
*D12
  0
LINE
  5
238
330
235
100
AcDbEntity
  8
치수문자_일반주서
 62
     0
370
    -2
100
AcDbLine
 10
19.81250000000005
 20
36.22143424691529
 30
0.0
 11
4.374999999999983
 21
36.22143424691524
 31
0.0
  0
LINE
  5
239
330
235
100
AcDbEntity
  8
치수문자_일반주서
 62
     0
370
    -2
100
AcDbLine
 10
19.81250000000005
 20
22.22143424691529
 30
0.0
 11
4.375000000000032
 21
22.22143424691524
 31
0.0
  0
LINE
  5
23A
330
235
100
AcDbEntity
  8
치수문자_일반주서
 62
     0
370
    -2
100
AcDbLine
 10
4.374999999999983
 20
36.22143424691524
 30
0.0
 11
4.375000000000032
 21
22.22143424691524
 31
0.0
  0
LINE
  5
23B
330
235
100
AcDbEntity
  8
치수문자_일반주서
 62
     0
370
    -2
100
AcDbLine
 10
4.374999999999972
 20
39.52343424691524
 30
0.0
 11
4.37499999999996
 21
42.82543424691524
 31
0.0
  0
LINE
  5
23C
330
235
100
AcDbEntity
  8
치수문자_일반주서
 62
     0
370
    -2
100
AcDbLine
 10
4.375000000000044
 20
18.91943424691524
 30
0.0
 11
4.375000000000055
 21
15.61743424691524
 31
0.0
  0
SOLID
  5
23D
330
235
100
AcDbEntity
  8
치수문자_일반주서
 62
     0
100
AcDbTrace
 10
3.824666666666638
 20
39.52343424691524
 30
0.0
 11
4.925333333333305
 21
39.52343424691524
 31
0.0
 12
4.374999999999983
 22
36.22143424691524
 32
0.0
 13
4.374999999999983
 23
36.22143424691524
 33
0.0
  0
SOLID
  5
23E
330
235
100
AcDbEntity
  8
치수문자_일반주서
 62
     0
100
AcDbTrace
 10
4.925333333333377
 20
18.91943424691524
 30
0.0
 11
3.82466666666671
 21
18.91943424691523
 31
0.0
 12
4.375000000000032
 22
22.22143424691524
 32
0.0
 13
4.375000000000032
 23
22.22143424691524
 33
0.0
  0
MTEXT
  5
23F
330
235
100
AcDbEntity
  8
치수문자_일반주서
 62
     0
100
AcDbMText
 10
0.0000000000000071
 20
29.22143424691528
 30
0.0
 40
3.5
 41
0.0
 71
     2
 72
     1
  1
\A1;%%c14.00 [0.55]
  7
SLDTEXTSTYLE0
 11
-3.489272363107635E-15
 21
1.0
 31
0.0
 73
     1
 44
1.0
  0
POINT
  5
240
330
235
100
AcDbEntity
  8
Defpoints
 62
     0
100
AcDbPoint
 10
19.87500000000005
 20
36.22143424691529
 30
0.0
  0
POINT
  5
241
330
235
100
AcDbEntity
  8
Defpoints
 62
     0
100
AcDbPoint
 10
19.87500000000005
 20
22.22143424691529
 30
0.0
  0
POINT
  5
242
330
235
100
AcDbEntity
  8
Defpoints
 62
     0
100
AcDbPoint
 10
4.375000000000043
 20
22.22143424691524
 30
0.0
  0
ENDBLK
  5
237
330
235
100
AcDbEntity
  8
0
100
AcDbBlockEnd
  0
BLOCK
  5
291
330
290
100
AcDbEntity
  8
0
100
AcDbBlockBegin
  2
*D12
 70
     1
 10
0.0
 20
0.0
 30
0.0
  3
*D12
  1
*D13
  0
LINE
  5
293
330
290
100
AcDbEntity
  8
치수문자_일반주서
 62
     0
370
    -2
100
AcDbLine
 10
-35.65834394942626
 20
88.12348932108154
 30
0.0
 11
-35.65834394942626
 21
123.2234734891603
 31
0.0
  0
LINE
  5
294
330
290
100
AcDbEntity
  8
치수문자_일반주서
 62
     0
370
    -2
100
AcDbLine
 10
47.34165605057375
 20
88.68598932108155
 30
0.0
 11
47.34165605057375
 21
123.2234734891603
 31
0.0
  0
LINE
  5
295
330
290
100
AcDbEntity
  8
치수문자_일반주서
 62
     0
370
    -2
100
AcDbLine
 10
-32.35634394942626
 20
123.2234734891603
 30
0.0
 11
44.03965605057375
 21
123.2234734891603
 31
0.0
  0
SOLID
  5
296
330
290
100
AcDbEntity
  8
치수문자_일반주서
 62
     0
100
AcDbTrace
 10
-32.35634394942626
 20
123.7738068224936
 30
0.0
 11
-32.35634394942626
 21
122.673140155827
 31
0.0
 12
-35.65834394942626
 22
123.2234734891603
 32
0.0
 13
-35.65834394942626
 23
123.2234734891603
 33
0.0
  0
SOLID
  5
297
330
290
100
AcDbEntity
  8
치수문자_일반주서
 62
     0
100
AcDbTrace
 10
44.03965605057375
 20
122.673140155827
 30
0.0
 11
44.03965605057375
 21
123.7738068224936
 31
0.0
 12
47.34165605057375
 22
123.2234734891603
 32
0.0
 13
47.34165605057375
 23
123.2234734891603
 33
0.0
  0
MTEXT
  5
298
330
290
100
AcDbEntity
  8
치수문자_일반주서
 62
     0
100
AcDbMText
 10
5.841656050573746
 20
127.5984734891603
 30
0.0
 40
3.5
 41
0.0
 71
     2
 72
     1
  1
\A1;83 [3.27]
  7
SLDTEXTSTYLE0
 73
     1
 44
1.0
  0
POINT
  5
299
330
290
100
AcDbEntity
  8
Defpoints
 62
     0
100
AcDbPoint
 10
-35.65834394942626
 20
88.06098932108154
 30
0.0
  0
POINT
  5
29A
330
290
100
AcDbEntity
  8
Defpoints
 62
     0
100
AcDbPoint
 10
47.34165605057375
 20
88.62348932108155
 30
0.0
  0
POINT
  5
29B
330
290
100
AcDbEntity
  8
Defpoints
 62
     0
100
AcDbPoint
 10
47.34165605057375
 20
123.2234734891603
 30
0.0
  0
ENDBLK
  5
292
330
290
100
AcDbEntity
  8
0
100
AcDbBlockEnd
  0
BLOCK
  5
29D
330
29C
100
AcDbEntity
  8
0
100
AcDbBlockBegin
  2
*D13
 70
     1
 10
0.0
 20
0.0
 30
0.0
  3
*D13
  1
*D14
  0
LINE
  5
29F
330
29C
100
AcDbEntity
  8
치수문자_일반주서
 62
     0
370
    -2
100
AcDbLine
 10
21.34169791480252
 20
80.95994183729668
 30
0.0
 11
21.34169791480252
 21
114.2404689103435
 31
0.0
  0
LINE
  5
2A0
330
29C
100
AcDbEntity
  8
치수문자_일반주서
 62
     0
370
    -2
100
AcDbLine
 10
47.34165605057375
 20
88.62348932108155
 30
0.0
 11
47.34165605057375
 21
114.2404689103435
 31
0.0
  0
LINE
  5
2A1
330
29C
100
AcDbEntity
  8
치수문자_일반주서
 62
     0
370
    -2
100
AcDbLine
 10
24.64369791480252
 20
114.2404689103435
 30
0.0
 11
44.03965605057375
 21
114.2404689103435
 31
0.0
  0
SOLID
  5
2A2
330
29C
100
AcDbEntity
  8
치수문자_일반주서
 62
     0
100
AcDbTrace
 10
24.64369791480252
 20
114.7908022436768
 30
0.0
 11
24.64369791480252
 21
113.6901355770102
 31
0.0
 12
21.34169791480252
 22
114.2404689103435
 32
0.0
 13
21.34169791480252
 23
114.2404689103435
 33
0.0
  0
SOLID
  5
2A3
330
29C
100
AcDbEntity
  8
치수문자_일반주서
 62
     0
100
AcDbTrace
 10
44.03965605057375
 20
113.6901355770102
 30
0.0
 11
44.03965605057375
 21
114.7908022436768
 31
0.0
 12
47.34165605057375
 22
114.2404689103435
 32
0.0
 13
47.34165605057375
 23
114.2404689103435
 33
0.0
  0
MTEXT
  5
2A4
330
29C
100
AcDbEntity
  8
치수문자_일반주서
 62
     0
100
AcDbMText
 10
34.38825177750578
 20
118.6154689103435
 30
0.0
 40
3.5
 41
0.0
 71
     2
 72
     1
  1
\A1;26 [1.02]
  7
SLDTEXTSTYLE0
 73
     1
 44
1.0
  0
POINT
  5
2A5
330
29C
100
AcDbEntity
  8
Defpoints
 62
     0
100
AcDbPoint
 10
21.34169791480252
 20
80.89744183729668
 30
0.0
  0
POINT
  5
2A6
330
29C
100
AcDbEntity
  8
Defpoints
 62
     0
100
AcDbPoint
 10
47.34165605057375
 20
88.56098932108155
 30
0.0
  0
POINT
  5
2A7
330
29C
100
AcDbEntity
  8
Defpoints
 62
     0
100
AcDbPoint
 10
47.34165605057375
 20
114.2404689103435
 30
0.0
  0
ENDBLK
  5
29E
330
29C
100
AcDbEntity
  8
0
100
AcDbBlockEnd
  0
BLOCK
  5
2A9
330
2A8
100
AcDbEntity
  8
0
100
AcDbBlockBegin
  2
*D14
 70
     1
 10
0.0
 20
0.0
 30
0.0
  3
*D14
  1
*D15
  0
LINE
  5
2AB
330
2A8
100
AcDbEntity
  8
치수문자_일반주서
 62
     0
370
    -2
100
AcDbLine
 10
-35.22084394942625
 20
88.56098932108155
 30
0.0
 11
-50.65834394942632
 21
88.5609893210815
 31
0.0
  0
LINE
  5
2AC
330
2A8
100
AcDbEntity
  8
치수문자_일반주서
 62
     0
370
    -2
100
AcDbLine
 10
-35.22084394942625
 20
74.56098932108155
 30
0.0
 11
-50.65834394942627
 21
74.5609893210815
 31
0.0
  0
LINE
  5
2AD
330
2A8
100
AcDbEntity
  8
치수문자_일반주서
 62
     0
370
    -2
100
AcDbLine
 10
-50.65834394942632
 20
88.5609893210815
 30
0.0
 11
-50.65834394942627
 21
74.5609893210815
 31
0.0
  0
LINE
  5
2AE
330
2A8
100
AcDbEntity
  8
치수문자_일반주서
 62
     0
370
    -2
100
AcDbLine
 10
-50.65834394942633
 20
91.8629893210815
 30
0.0
 11
-50.65834394942635
 21
95.16498932108149
 31
0.0
  0
LINE
  5
2AF
330
2A8
100
AcDbEntity
  8
치수문자_일반주서
 62
     0
370
    -2
100
AcDbLine
 10
-50.65834394942625
 20
71.25898932108149
 30
0.0
 11
-50.65834394942624
 21
67.9569893210815
 31
0.0
  0
SOLID
  5
2B0
330
2A8
100
AcDbEntity
  8
치수문자_일반주서
 62
     0
100
AcDbTrace
 10
-51.20867728275967
 20
91.8629893210815
 30
0.0
 11
-50.108010616093
 21
91.8629893210815
 31
0.0
 12
-50.65834394942632
 22
88.5609893210815
 32
0.0
 13
-50.65834394942632
 23
88.5609893210815
 33
0.0
  0
SOLID
  5
2B1
330
2A8
100
AcDbEntity
  8
치수문자_일반주서
 62
     0
100
AcDbTrace
 10
-50.10801061609292
 20
71.25898932108149
 30
0.0
 11
-51.20867728275959
 21
71.25898932108149
 31
0.0
 12
-50.65834394942627
 22
74.5609893210815
 32
0.0
 13
-50.65834394942627
 23
74.5609893210815
 33
0.0
  0
MTEXT
  5
2B2
330
2A8
100
AcDbEntity
  8
치수문자_일반주서
 62
     0
100
AcDbMText
 10
-55.0333439494263
 20
81.56098932108154
 30
0.0
 40
3.5
 41
0.0
 71
     2
 72
     1
  1
\A1;%%c14.00 [0.55]
  7
SLDTEXTSTYLE0
 11
-3.552713678800501E-15
 21
1.0
 31
0.0
 73
     1
 44
1.0
  0
POINT
  5
2B3
330
2A8
100
AcDbEntity
  8
Defpoints
 62
     0
100
AcDbPoint
 10
-35.15834394942625
 20
88.56098932108155
 30
0.0
  0
POINT
  5
2B4
330
2A8
100
AcDbEntity
  8
Defpoints
 62
     0
100
AcDbPoint
 10
-35.15834394942625
 20
74.56098932108155
 30
0.0
  0
POINT
  5
2B5
330
2A8
100
AcDbEntity
  8
Defpoints
 62
     0
100
AcDbPoint
 10
-50.65834394942627
 20
74.5609893210815
 30
0.0
  0
ENDBLK
  5
2AA
330
2A8
100
AcDbEntity
  8
0
100
AcDbBlockEnd
  0
BLOCK
  5
2B7
330
2B6
100
AcDbEntity
  8
0
100
AcDbBlockBegin
  2
*D15
 70
     1
 10
0.0
 20
0.0
 30
0.0
  3
*D15
  1
*D16
  0
LINE
  5
2B9
330
2B6
100
AcDbEntity
  8
치수문자_일반주서
 62
     0
370
    -2
100
AcDbLine
 10
47.40415605057377
 20
88.56098932108155
 30
0.0
 11
62.34165605057376
 21
88.5609893210816
 31
0.0
  0
LINE
  5
2BA
330
2B6
100
AcDbEntity
  8
치수문자_일반주서
 62
     0
370
    -2
100
AcDbLine
 10
47.40415605057375
 20
74.56098932108155
 30
0.0
 11
62.34165605057381
 21
74.5609893210816
 31
0.0
  0
LINE
  5
2BB
330
2B6
100
AcDbEntity
  8
치수문자_일반주서
 62
     0
370
    -2
100
AcDbLine
 10
62.34165605057376
 20
88.5609893210816
 30
0.0
 11
62.34165605057381
 21
74.5609893210816
 31
0.0
  0
LINE
  5
2BC
330
2B6
100
AcDbEntity
  8
치수문자_일반주서
 62
     0
370
    -2
100
AcDbLine
 10
62.34165605057375
 20
91.86298932108161
 30
0.0
 11
62.34165605057373
 21
95.1649893210816
 31
0.0
  0
LINE
  5
2BD
330
2B6
100
AcDbEntity
  8
치수문자_일반주서
 62
     0
370
    -2
100
AcDbLine
 10
62.34165605057382
 20
71.2589893210816
 30
0.0
 11
62.34165605057384
 21
67.95698932108161
 31
0.0
  0
SOLID
  5
2BE
330
2B6
100
AcDbEntity
  8
치수문자_일반주서
 62
     0
100
AcDbTrace
 10
61.79132271724041
 20
91.86298932108161
 30
0.0
 11
62.89198938390708
 21
91.86298932108161
 31
0.0
 12
62.34165605057376
 22
88.5609893210816
 32
0.0
 13
62.34165605057376
 23
88.5609893210816
 33
0.0
  0
SOLID
  5
2BF
330
2B6
100
AcDbEntity
  8
치수문자_일반주서
 62
     0
100
AcDbTrace
 10
62.89198938390716
 20
71.2589893210816
 30
0.0
 11
61.79132271724049
 21
71.2589893210816
 31
0.0
 12
62.34165605057381
 22
74.5609893210816
 32
0.0
 13
62.34165605057381
 23
74.5609893210816
 33
0.0
  0
MTEXT
  5
2C0
330
2B6
100
AcDbEntity
  8
치수문자_일반주서
 62
     0
100
AcDbMText
 10
57.96665605057378
 20
81.62669370279458
 30
0.0
 40
3.5
 41
0.0
 71
     2
 72
     1
  1
\A1;%%c14.00 [0.55]
  7
SLDTEXTSTYLE0
 11
-3.552713678800501E-15
 21
1.0
 31
0.0
 73
     1
 44
1.0
  0
POINT
  5
2C1
330
2B6
100
AcDbEntity
  8
Defpoints
 62
     0
100
AcDbPoint
 10
47.34165605057377
 20
88.56098932108155
 30
0.0
  0
POINT
  5
2C2
330
2B6
100
AcDbEntity
  8
Defpoints
 62
     0
100
AcDbPoint
 10
47.34165605057375
 20
74.56098932108155
 30
0.0
  0
POINT
  5
2C3
330
2B6
100
AcDbEntity
  8
Defpoints
 62
     0
100
AcDbPoint
 10
62.34165605057381
 20
74.5609893210816
 30
0.0
  0
ENDBLK
  5
2B8
330
2B6
100
AcDbEntity
  8
0
100
AcDbBlockEnd
  0
BLOCK
  5
2C5
330
2C4
100
AcDbEntity
  8
0
100
AcDbBlockBegin
  2
*D16
 70
     1
 10
0.0
 20
0.0
 30
0.0
  3
*D16
  1
*D17
  0
LINE
  5
2C7
330
2C4
100
AcDbEntity
  8
치수문자_일반주서
 62
     0
370
    -2
100
AcDbLine
 10
48.8324312322432
 20
71.82185082820277
 30
0.0
 11
64.58608279752049
 21
46.18949431786221
 31
0.0
  0
MTEXT
  5
2C8
330
2C4
100
AcDbEntity
  8
치수문자_일반주서
 62
     0
100
AcDbMText
 10
60.63729445200137
 20
57.62771322870198
 30
0.0
 40
3.5
 41
0.0
 71
     5
 72
     1
  1
\A1;R.5 [R0.02]
  7
SLDTEXTSTYLE0
 11
0.5236126201129557
 21
-0.8519564684057781
 31
0.0
 73
     1
 44
1.0
  0
SOLID
  5
2C9
330
2C4
100
AcDbEntity
  8
치수문자_일반주서
 62
     0
100
AcDbTrace
 10
49.30129127535585
 20
72.11001230680493
 30
0.0
 11
48.36357118913055
 21
71.5336893496006
 31
0.0
 12
47.10346236063022
 22
74.63501108687865
 32
0.0
 13
47.10346236063022
 23
74.63501108687865
 33
0.0
  0
LINE
  5
2CA
330
2C4
100
AcDbEntity
  8
치수문자_일반주서
 62
     0
100
AcDbLine
 10
46.75165605057374
 20
75.06098932108155
 30
0.0
 11
46.93165605057374
 21
75.06098932108155
 31
0.0
  0
LINE
  5
2CB
330
2C4
100
AcDbEntity
  8
치수문자_일반주서
 62
     0
100
AcDbLine
 10
46.84165605057374
 20
74.97098932108155
 30
0.0
 11
46.84165605057374
 21
75.15098932108155
 31
0.0
  0
POINT
  5
2CC
330
2C4
100
AcDbEntity
  8
Defpoints
 62
     0
100
AcDbPoint
 10
47.10346236063022
 20
74.63501108687865
 30
0.0
  0
POINT
  5
2CD
330
2C4
100
AcDbEntity
  8
Defpoints
 62
     0
100
AcDbPoint
 10
46.84165605057374
 20
75.06098932108155
 30
0.0
  0
ENDBLK
  5
2C6
330
2C4
100
AcDbEntity
  8
0
100
AcDbBlockEnd
  0
ENDSEC
  0
SECTION
  2
ENTITIES
  0
LINE
  5
96
330
1F
100
AcDbEntity
  8
외형선
  6
Continuous
370
    15
100
AcDbLine
 10
0.0
 20
3.174999999999997
 30
0.0
 11
-44.33384233574612
 21
3.174999999999994
 31
0.0
  0
LINE
  5
97
330
1F
100
AcDbEntity
  8
외형선
  6
Continuous
370
    15
100
AcDbLine
 10
-44.33384233574612
 20
-3.175000000000002
 30
0.0
 11
0.0
 21
-3.174999999999999
 31
0.0
  0
LINE
  5
98
330
1F
100
AcDbEntity
  8
외형선
  6
Continuous
370
    15
100
AcDbLine
 10
0.0
 20
-3.175000000000001
 30
0.0
 11
1.481157664253892
 21
-2.778125000000002
 31
0.0
  0
LINE
  5
99
330
1F
100
AcDbEntity
  8
외형선
  6
Continuous
370
    15
100
AcDbLine
 10
1.481157664253892
 20
2.778124999999999
 30
0.0
 11
0.0
 21
3.174999999999999
 31
0.0
  0
LINE
  5
9A
330
1F
100
AcDbEntity
  8
외형선
  6
Continuous
370
    15
100
AcDbLine
 10
-44.33384233574612
 20
3.174999999999992
 30
0.0
 11
-45.14384233574611
 21
2.364999999999993
 31
0.0
  0
LINE
  5
9B
330
1F
100
AcDbEntity
  8
외형선
  6
Continuous
370
    15
100
AcDbLine
 10
-45.14384233574611
 20
-2.365000000000001
 30
0.0
 11
-44.33384233574612
 21
-3.175
 31
0.0
  0
LINE
  5
9C
330
1F
100
AcDbEntity
  8
외형선
  6
Continuous
370
    15
100
AcDbLine
 10
1.5912838449629
 20
2.778124999999999
 30
0.0
 11
1.481157664253892
 21
2.778124999999999
 31
0.0
  0
LINE
  5
9D
330
1F
100
AcDbEntity
  8
외형선
  6
Continuous
370
    15
100
AcDbLine
 10
1.481157664253892
 20
-2.778125000000002
 30
0.0
 11
1.5912838449629
 21
-2.778125000000002
 31
0.0
  0
SPLINE
  5
9E
330
1F
100
AcDbEntity
  8
외형선
  6
Continuous
370
    15
100
AcDbSpline
210
0.0
220
0.0
230
1.0
 70
     8
 71
     3
 72
     9
 73
     5
 74
     0
 42
0.000000001
 43
0.00000001
 40
0.0
 40
0.0
 40
0.0
 40
0.0
 40
0.5001398910994961
 40
1.0
 40
1.0
 40
1.0
 40
1.0
 10
2.218693690348758
 20
1.901183959564061
 30
0.0
 10
2.113947460044123
 20
1.892505665250081
 30
0.0
 10
1.904513595302079
 20
1.875153931328393
 30
0.0
 10
1.695695508642372
 20
1.862832515462094
 30
0.0
 10
1.591315677104257
 20
1.856673531185357
 30
0.0
  0
SPLINE
  5
9F
330
1F
100
AcDbEntity
  8
0
  6
Continuous
 62
     1
370
    15
100
AcDbSpline
210
0.0
220
0.0
230
1.0
 70
     8
 71
     3
 72
     9
 73
     5
 74
     0
 42
0.000000001
 43
0.00000001
 40
0.0
 40
0.0
 40
0.0
 40
0.0
 40
0.4992030842017789
 40
1.0
 40
1.0
 40
1.0
 40
1.0
 10
11.15953477730601
 20
0.7118958644938713
 30
0.0
 10
11.03101692506378
 20
0.773007837394626
 30
0.0
 10
10.77357089496217
 20
0.8954268985638337
 30
0.0
 10
10.5160885788762
 20
1.02998681230904
 30
0.0
 10
10.38714222910777
 20
1.097374002102714
 30
0.0
  0
LINE
  5
A0
330
1F
100
AcDbEntity
  8
0
  6
Continuous
 62
     1
370
    15
100
AcDbLine
 10
4.782866633898941
 20
2.778125000000001
 30
0.0
 11
3.436397308076465
 21
2.778125000000001
 31
0.0
  0
SPLINE
  5
A1
330
1F
100
AcDbEntity
  8
0
  6
Continuous
 62
     1
370
    15
100
AcDbSpline
210
0.0
220
0.0
230
1.0
 70
     8
 71
     3
 72
    16
 73
    12
 74
     0
 42
0.000000001
 43
0.00000001
 40
0.0
 40
0.0
 40
0.0
 40
0.0
 40
0.1886560779630314
 40
0.3314474247598984
 40
0.4396891812275527
 40
0.5512417410685403
 40
0.6661037036917773
 40
0.7811798077472234
 40
0.8969638920048624
 40
0.9984864970009025
 40
1.0
 40
1.0
 40
1.0
 40
1.0
 10
10.23942075295112
 20
2.207592005071568
 30
0.0
 10
10.09505175676762
 20
2.200501880803355
 30
0.0
 10
9.841411733520822
 20
2.188045333125165
 30
0.0
 10
9.505851899826009
 20
2.17791934815966
 30
0.0
 10
9.23031381184888
 20
2.172308637361572
 30
0.0
 10
8.975169048451079
 20
2.169574522309467
 30
0.0
 10
8.714690638102201
 20
2.169371845802132
 30
0.0
 10
8.451019035539115
 20
2.171777565816206
 30
0.0
 10
8.197367060854905
 20
2.176911788583519
 30
0.0
 10
8.030373873881409
 20
2.18119703671513
 30
0.0
 10
7.951751401957505
 20
2.184144239742207
 30
0.0
 10
7.950596512187612
 20
2.184187531367902
 30
0.0
  0
SPLINE
  5
A2
330
1F
100
AcDbEntity
  8
0
  6
Continuous
 62
     1
370
    15
100
AcDbSpline
210
0.0
220
0.0
230
1.0
 70
     8
 71
     3
 72
    22
 73
    18
 74
     0
 42
0.000000001
 43
0.00000001
 40
0.0
 40
0.0
 40
0.0
 40
0.0
 40
0.102267252233713
 40
0.1805513361281772
 40
0.2359121995312729
 40
0.2879321435123212
 40
0.342173296986334
 40
0.3975067304823476
 40
0.4530556162350224
 40
0.5086670028632426
 40
0.572090449053351
 40
0.635126082492291
 40
0.6980444149421543
 40
0.759149944443951
 40
0.818441903791086
 40
0.8966592111010645
 40
0.9999999999999999
 40
0.9999999999999999
 40
0.9999999999999999
 40
0.9999999999999999
 10
6.061307226160466
 20
-2.31180670886812
 30
0.0
 10
6.204346844923982
 20
-2.298024696206493
 30
0.0
 10
6.456881197054589
 20
-2.273692754688152
 30
0.0
 10
6.786157811503749
 20
-2.247574925675498
 30
0.0
 10
7.043225806766056
 20
-2.229446031588603
 30
0.0
 10
7.267338624940994
 20
-2.215387041291951
 30
0.0
 10
7.492224519016087
 20
-2.203009157204291
 30
0.0
 10
7.722214101829369
 20
-2.192397634875995
 30
0.0
 10
7.954145216863513
 20
-2.183717249918427
 30
0.0
 10
8.197365053370813
 20
-2.176736768449616
 30
0.0
 10
8.451019599217101
 20
-2.171826709417117
 30
0.0
 10
8.71469048761946
 20
-2.169358726141978
 30
0.0
 10
8.975169087461698
 20
-2.169577923403852
 30
0.0
 10
9.23031380196965
 20
-2.172307776052828
 30
0.0
 10
9.505851903343313
 20
-2.17791965481173
 30
0.0
 10
9.841411732173388
 20
-2.188045215650387
 30
0.0
 10
10.09505175627886
 20
-2.200501838191971
 30
0.0
 10
10.23942075295112
 20
-2.20759200507157
 30
0.0
  0
SPLINE
  5
A3
330
1F
100
AcDbEntity
  8
0
  6
Continuous
 62
     1
370
    15
100
AcDbSpline
210
0.0
220
0.0
230
1.0
 70
     8
 71
     3
 72
    14
 73
    10
 74
     0
 42
0.000000001
 43
0.00000001
 40
0.0
 40
0.0
 40
0.0
 40
0.0
 40
0.2147042710707376
 40
0.3759254457501413
 40
0.4869459366585174
 40
0.5892274989729385
 40
0.6953848753932819
 40
0.8957700600959574
 40
1.0
 40
1.0
 40
1.0
 40
1.0
 10
12.47166855638249
 20
-2.089495893372917
 30
0.0
 10
12.62141080683844
 20
-2.066661179665287
 30
0.0
 10
12.8835943301077
 20
-2.026679907349145
 30
0.0
 10
13.2220428057777
 20
-1.982771986958327
 30
0.0
 10
13.48054526348778
 20
-1.952558266306176
 30
0.0
 10
13.70137349443204
 20
-1.929043255130303
 30
0.0
 10
13.98518585324766
 20
-1.901963188571077
 30
0.0
 10
14.27014547097083
 20
-1.877925759561103
 30
0.0
 10
14.48160907902208
 20
-1.866073574893894
 30
0.0
 10
14.55396543095152
 20
-1.862018121320505
 30
0.0
  0
SPLINE
  5
A4
330
1F
100
AcDbEntity
  8
0
  6
Continuous
 62
     1
370
    15
100
AcDbSpline
210
0.0
220
0.0
230
1.0
 70
     8
 71
     3
 72
    20
 73
    16
 74
     0
 42
0.000000001
 43
0.00000001
 40
0.0
 40
0.0
 40
0.0
 40
0.0
 40
0.0963310669629252
 40
0.1679099492837322
 40
0.2159972958428511
 40
0.2598564652232536
 40
0.3052482227251477
 40
0.3909809372481695
 40
0.4732101314726264
 40
0.5835670261436898
 40
0.7083036478983885
 40
0.7552307254802253
 40
0.8166555267592361
 40
0.8983347214375778
 40
0.9999999999999999
 40
0.9999999999999999
 40
0.9999999999999999
 40
0.9999999999999999
 10
17.33178855497508
 20
1.900861583770909
 30
0.0
 10
17.17456195163497
 20
1.888266260682037
 30
0.0
 10
16.90050798519184
 20
1.866311971917867
 30
0.0
 10
16.54941298732958
 20
1.847937234105627
 30
0.0
 10
16.28654110153809
 20
1.837857612047855
 30
0.0
 10
16.06541922825967
 20
1.831972107980047
 30
0.0
 10
15.78206507320333
 20
1.827610259911523
 30
0.0
 10
15.43675760160449
 20
1.82815540353009
 30
0.0
 10
14.98587646762052
 20
1.838642885050141
 30
0.0
 10
14.47183409576401
 20
1.863034001637529
 30
0.0
 10
14.01545718891274
 20
1.898552854024953
 30
0.0
 10
13.63792741049984
 20
1.93539366713715
 30
0.0
 10
13.33034007070705
 20
1.969346334130417
 30
0.0
 10
12.93409891130565
 20
2.019218085846513
 30
0.0
 10
12.63662119590287
 20
2.064427232270182
 30
0.0
 10
12.47166855638249
 20
2.089495893372915
 30
0.0
  0
LINE
  5
A5
330
1F
100
AcDbEntity
  8
0
  6
Continuous
 62
     1
370
    15
100
AcDbLine
 10
3.436397308076462
 20
-2.778125000000003
 30
0.0
 11
4.782866633898948
 21
-2.778125000000003
 31
0.0
  0
LINE
  5
A6
330
1F
100
AcDbEntity
  8
외형선
  6
Continuous
370
    15
100
AcDbLine
 10
0.0
 20
3.174999999999999
 30
0.0
 11
0.0
 21
-3.174999999999999
 31
0.0
  0
LINE
  5
A7
330
1F
100
AcDbEntity
  8
외형선
  6
Continuous
370
    15
100
AcDbLine
 10
-44.33384233574612
 20
3.174999999999992
 30
0.0
 11
-44.33384233574612
 21
-3.175000000000002
 31
0.0
  0
LINE
  5
A8
330
1F
100
AcDbEntity
  8
외형선
  6
Continuous
370
    15
100
AcDbLine
 10
1.481157664253892
 20
2.778124999999999
 30
0.0
 11
1.481157664253892
 21
-2.778125
 31
0.0
  0
LINE
  5
A9
330
1F
100
AcDbEntity
  8
외형선
  6
Continuous
370
    15
100
AcDbLine
 10
-45.14384233574611
 20
2.364999999999993
 30
0.0
 11
-45.14384233574611
 21
-2.365000000000004
 31
0.0
  0
SPLINE
  5
AA
330
1F
100
AcDbEntity
  8
외형선
  6
Continuous
370
    15
100
AcDbSpline
210
0.0
220
0.0
230
1.0
 70
     8
 71
     3
 72
    10
 73
     6
 74
     0
 42
0.000000001
 43
0.00000001
 40
0.0
 40
0.0
 40
0.0
 40
0.0
 40
0.5
 40
0.5
 40
1.0
 40
1.0
 40
1.0
 40
1.0
 10
2.481157664253907
 20
2.723506975887785
 30
0.0
 10
2.331825327606365
 20
2.706550908117422
 30
0.0
 10
2.182647725431888
 20
2.685683689138461
 30
0.0
 10
1.886511428571456
 20
2.636460424438561
 30
0.0
 10
1.739818679285708
 20
2.608142702280772
 30
0.0
 10
1.5912838449629
 20
2.576023346599512
 30
0.0
  0
LINE
  5
AB
330
1F
100
AcDbEntity
  8
외형선
  6
Continuous
370
    15
100
AcDbLine
 10
1.5912838449629
 20
-2.188512362247792
 30
0.0
 11
1.5912838449629
 21
2.778124999999999
 31
0.0
  0
SPLINE
  5
AC
330
1F
100
AcDbEntity
  8
외형선
  6
Continuous
370
    15
100
AcDbSpline
210
0.0
220
0.0
230
1.0
 70
     8
 71
     3
 72
    10
 73
     6
 74
     0
 42
0.000000001
 43
0.00000001
 40
0.0
 40
0.0
 40
0.0
 40
0.0
 40
0.5
 40
0.5
 40
1.0
 40
1.0
 40
1.0
 40
1.0
 10
2.481157664253907
 20
-2.466184605567576
 30
0.0
 10
2.331847462399173
 20
-2.426627275106573
 30
0.0
 10
2.182691948379921
 20
-2.383537909831019
 30
0.0
 10
1.88659889022003
 20
-2.290906835736995
 30
0.0
 10
1.739928236494809
 20
-2.241413510692849
 30
0.0
 10
1.591415944227151
 20
-2.18858569979415
 30
0.0
  0
LINE
  5
AD
330
1F
100
AcDbEntity
  8
외형선
  6
Continuous
370
    15
100
AcDbLine
 10
2.481157664253889
 20
-2.46618460556757
 30
0.0
 11
2.481157664253889
 21
-2.723506975887787
 31
0.0
  0
SPLINE
  5
AE
330
1F
100
AcDbEntity
  8
외형선
  6
Continuous
370
    15
100
AcDbSpline
210
0.0
220
0.0
230
1.0
 70
     8
 71
     3
 72
    10
 73
     6
 74
     0
 42
0.000000001
 43
0.00000001
 40
0.0
 40
0.0
 40
0.0
 40
0.0
 40
0.5
 40
0.5
 40
1.0
 40
1.0
 40
1.0
 40
1.0
 10
2.481157664253907
 20
-2.723506975887787
 30
0.0
 10
2.331825327606365
 20
-2.706550908117424
 30
0.0
 10
2.182647725431888
 20
-2.685683689138464
 30
0.0
 10
1.886511428571456
 20
-2.636460424438563
 30
0.0
 10
1.739818679285708
 20
-2.608142702280774
 30
0.0
 10
1.5912838449629
 20
-2.576023346599515
 30
0.0
  0
LINE
  5
AF
330
1F
100
AcDbEntity
  8
외형선
  6
Continuous
370
    15
100
AcDbLine
 10
1.5912838449629
 20
-2.778125000000002
 30
0.0
 11
1.5912838449629
 21
-2.575747659992222
 31
0.0
  0
SPLINE
  5
B0
330
1F
100
AcDbEntity
  8
외형선
  6
Continuous
370
    15
100
AcDbSpline
210
0.0
220
0.0
230
1.0
 70
     8
 71
     3
 72
    10
 73
     6
 74
     0
 42
0.000000001
 43
0.00000001
 40
0.0
 40
0.0
 40
0.0
 40
0.0
 40
0.5
 40
0.5
 40
1.0
 40
1.0
 40
1.0
 40
1.0
 10
2.481157664253921
 20
-2.026919843870831
 30
0.0
 10
2.331847462399187
 20
-1.989449671778916
 30
0.0
 10
2.182691948379928
 20
-1.949078321285133
 30
0.0
 10
1.886598890220034
 20
-1.863099517066046
 30
0.0
 10
1.739928236494812
 20
-1.817534623287629
 30
0.0
 10
1.591415944227151
 20
-1.769251078229483
 30
0.0
  0
SPLINE
  5
B1
330
1F
100
AcDbEntity
  8
외형선
  6
Continuous
370
    15
100
AcDbSpline
210
0.0
220
0.0
230
1.0
 70
     8
 71
     3
 72
    10
 73
     6
 74
     0
 42
0.000000001
 43
0.00000001
 40
0.0
 40
0.0
 40
0.0
 40
0.0
 40
0.5
 40
0.5
 40
1.0
 40
1.0
 40
1.0
 40
1.0
 10
2.481157664253928
 20
0.3486031296180374
 30
0.0
 10
2.331833411717477
 20
0.4164954205801656
 30
0.0
 10
2.182663876620163
 20
0.4838624513195457
 30
0.0
 10
1.886543371448019
 20
0.6166914882898495
 30
0.0
 10
1.73985869203325
 20
0.6821190218340152
 30
0.0
 10
1.591332090561432
 20
0.7467503007406677
 30
0.0
  0
SPLINE
  5
B2
330
1F
100
AcDbEntity
  8
외형선
  6
Continuous
370
    15
100
AcDbSpline
210
0.0
220
0.0
230
1.0
 70
    24
 71
     3
 72
    10
 73
     6
 74
     0
 42
0.000000001
 43
0.00000001
 40
0.0
 40
0.0
 40
0.0
 40
0.0
 40
0.5
 40
0.5
 40
1.0
 40
1.0
 40
1.0
 40
1.0
 10
2.481157664253885
 20
0.348603129618056
 30
0.0
 10
2.481157664253885
 20
-0.0795326502059771
 30
0.0
 10
2.481157664253885
 20
-0.532433634672917
 30
0.0
 10
2.481157664253885
 20
-1.362796627100434
 30
0.0
 10
2.481157664253885
 20
-1.736684428129924
 30
0.0
 10
2.481157664253885
 20
-2.026919843870822
 30
0.0
  0
LINE
  5
B3
330
1F
100
AcDbEntity
  8
외형선
  6
Continuous
370
    15
100
AcDbLine
 10
2.481157664253889
 20
1.920616450896218
 30
0.0
 11
2.217240168964091
 21
1.894223448625306
 31
0.0
  0
SPLINE
  5
B4
330
1F
100
AcDbEntity
  8
외형선
  6
Continuous
370
    15
100
AcDbSpline
210
0.0
220
0.0
230
1.0
 70
    24
 71
     3
 72
    14
 73
    10
 74
     0
 42
0.000000001
 43
0.00000001
 40
0.0
 40
0.0
 40
0.0
 40
0.0
 40
0.2499999999999999
 40
0.2499999999999999
 40
0.4999999999999999
 40
0.4999999999999999
 40
0.7499999999999999
 40
0.7499999999999999
 40
1.0
 40
1.0
 40
1.0
 40
1.0
 10
2.481157664253862
 20
1.920616450896217
 30
0.0
 10
2.481157664253862
 20
1.906587816735712
 30
0.0
 10
2.481157664253862
 20
1.861991992363546
 30
0.0
 10
2.481157664253862
 20
1.706897007129035
 30
0.0
 10
2.481157664253862
 20
1.596345091290454
 30
0.0
 10
2.481157664253862
 20
1.316953001210205
 30
0.0
 10
2.481157664253862
 20
1.148261698755017
 30
0.0
 10
2.481157664253862
 20
0.7716368652997272
 30
0.0
 10
2.481157664253862
 20
0.5639617299484111
 30
0.0
 10
2.481157664253862
 20
0.3486031296180683
 30
0.0
  0
SPLINE
  5
B5
330
1F
100
AcDbEntity
  8
외형선
  6
Continuous
370
    15
100
AcDbSpline
210
0.0
220
0.0
230
1.0
 70
    24
 71
     3
 72
     8
 73
     4
 74
     0
 42
0.000000001
 43
0.00000001
 40
0.0
 40
0.0
 40
0.0
 40
0.0
 40
1.0
 40
1.0
 40
1.0
 40
1.0
 10
2.481157664253892
 20
-2.026919843870824
 30
0.0
 10
2.481157664253892
 20
-2.170754261192647
 30
0.0
 10
2.481157664253892
 20
-2.318105424360812
 30
0.0
 10
2.481157664253892
 20
-2.466184605556893
 30
0.0
  0
SPLINE
  5
B6
330
1F
100
AcDbEntity
  8
외형선
  6
Continuous
370
    15
100
AcDbSpline
210
0.0
220
0.0
230
1.0
 70
    24
 71
     3
 72
    10
 73
     6
 74
     0
 42
0.000000001
 43
0.00000001
 40
0.0
 40
0.0
 40
0.0
 40
0.0
 40
0.5
 40
0.5
 40
1.0
 40
1.0
 40
1.0
 40
1.0
 10
2.481157664253892
 20
2.72350697588778
 30
0.0
 10
2.481157664253892
 20
2.580512843712151
 30
0.0
 10
2.481157664253892
 20
2.431360478205955
 30
0.0
 10
2.481157664253892
 20
2.153949066017969
 30
0.0
 10
2.481157664253892
 20
2.026364218164771
 30
0.0
 10
2.481157664253892
 20
1.920616450896219
 30
0.0
  0
SPLINE
  5
B7
330
1F
100
AcDbEntity
  8
0
  6
Continuous
 62
     1
370
    15
100
AcDbSpline
210
0.0
220
0.0
230
1.0
 70
     8
 71
     3
 72
    21
 73
    17
 74
     0
 42
0.000000001
 43
0.00000001
 40
0.0
 40
0.0
 40
0.0
 40
0.0
 40
0.073436371062001
 40
0.1466963810762736
 40
0.2199965701267656
 40
0.2934990721875678
 40
0.3668450984730586
 40
0.4387819444458768
 40
0.5108618309352276
 40
0.5830276435850915
 40
0.6549829160870635
 40
0.7406864151177365
 40
0.8264345828607327
 40
0.9122640962272975
 40
0.9981065250128142
 40
1.0
 40
1.0
 40
1.0
 40
1.0
 10
18.3561576642539
 20
-2.636276352334874
 30
0.0
 10
18.02381082739262
 20
-2.564940961016758
 30
0.0
 10
17.35991530090296
 20
-2.422441493822331
 30
0.0
 10
16.36503247664854
 20
-2.074714626932147
 30
0.0
 10
15.36974872746782
 20
-1.646320600798113
 30
0.0
 10
14.37308262837126
 20
-1.146812661715666
 30
0.0
 10
13.38337026103596
 20
-0.6011976854284213
 30
0.0
 10
12.4004740432718
 20
-0.0333671135818153
 30
0.0
 10
11.42236272900056
 20
0.5317732159453317
 30
0.0
 10
10.44366705440849
 20
1.074264826907123
 30
0.0
 10
9.40453387761001
 20
1.606019732263515
 30
0.0
 10
8.303107743858007
 20
2.087200738225004
 30
0.0
 10
7.13905346793106
 20
2.479425611360018
 30
0.0
 10
5.974041528000559
 20
2.707921550752299
 30
0.0
 10
5.188424928197264
 20
2.803873569636343
 30
0.0
 10
4.791434298840105
 20
2.776958385958555
 30
0.0
 10
4.782866633898941
 20
2.776377515130559
 30
0.0
  0
SPLINE
  5
B8
330
1F
100
AcDbEntity
  8
0
  6
Continuous
 62
     1
370
    15
100
AcDbSpline
210
0.0
220
0.0
230
1.0
 70
     8
 71
     3
 72
    14
 73
    10
 74
     0
 42
0.000000001
 43
0.00000001
 40
0.0
 40
0.0
 40
0.0
 40
0.0
 40
0.1453292963892067
 40
0.2903577182016719
 40
0.4353573498278904
 40
0.5806009019569247
 40
0.7260025772147662
 40
0.8710718776189744
 40
1.0
 40
1.0
 40
1.0
 40
1.0
 10
18.3561576642539
 20
-2.191863571947952
 30
0.0
 10
18.00639232609217
 20
-2.118045752828591
 30
0.0
 10
17.30758576734645
 20
-1.970562939282726
 30
0.0
 10
16.26028984363629
 20
-1.628129360092738
 30
0.0
 10
15.21320375011909
 20
-1.216239501904136
 30
0.0
 10
14.16490878173974
 20
-0.7448368588725456
 30
0.0
 10
13.11611523235452
 20
-0.2401885139959555
 30
0.0
 10
12.10719145440392
 20
0.2607189477512472
 30
0.0
 10
11.44804212916626
 20
0.5733695416249056
 30
0.0
 10
11.13788269770978
 20
0.7204857211118888
 30
0.0
  0
LINE
  5
B9
330
1F
100
AcDbEntity
  8
0
  6
Continuous
 62
     1
370
    15
100
AcDbLine
 10
18.3561576642539
 20
-2.636276352334874
 30
0.0
 11
18.3561576642539
 21
-2.191863571947952
 31
0.0
  0
SPLINE
  5
BA
330
1F
100
AcDbEntity
  8
0
  6
Continuous
 62
     1
370
    15
100
AcDbSpline
210
0.0
220
0.0
230
1.0
 70
     8
 71
     3
 72
    50
 73
    46
 74
     0
 42
0.000000001
 43
0.00000001
 40
0.0
 40
0.0
 40
0.0
 40
0.0
 40
0.0625
 40
0.0625
 40
0.1250000000000001
 40
0.1250000000000001
 40
0.1562500000000002
 40
0.1562500000000002
 40
0.1875000000000004
 40
0.1875000000000004
 40
0.2500000000000005
 40
0.2500000000000005
 40
0.2812500000000004
 40
0.2812500000000004
 40
0.3125000000000003
 40
0.3125000000000003
 40
0.3750000000000004
 40
0.3750000000000004
 40
0.4375000000000004
 40
0.4375000000000004
 40
0.5000000000000004
 40
0.5000000000000004
 40
0.5312500000000004
 40
0.5312500000000004
 40
0.5625000000000004
 40
0.5625000000000004
 40
0.5937500000000006
 40
0.5937500000000006
 40
0.6250000000000006
 40
0.6250000000000006
 40
0.6875000000000004
 40
0.6875000000000004
 40
0.7500000000000003
 40
0.7500000000000003
 40
0.8125000000000003
 40
0.8125000000000003
 40
0.8437500000000002
 40
0.8437500000000002
 40
0.8750000000000001
 40
0.8750000000000001
 40
0.9375000000000001
 40
0.9375000000000001
 40
0.9687500000000001
 40
0.9687500000000001
 40
1.0
 40
1.0
 40
1.0
 40
1.0
 10
18.3561576642539
 20
-2.775776971059855
 30
0.0
 10
18.02880221460317
 20
-2.767954857309674
 30
0.0
 10
17.69415078239111
 20
-2.740331128764116
 30
0.0
 10
17.03133105096746
 20
-2.646750495148893
 30
0.0
 10
16.70456587140943
 20
-2.58112889674281
 30
0.0
 10
16.20604190831833
 20
-2.455448214053281
 30
0.0
 10
16.03966221833468
 20
-2.409087528657811
 30
0.0
 10
15.70913973003601
 20
-2.308217789688225
 30
0.0
 10
15.54603132815368
 20
-2.253844555823457
 30
0.0
 10
15.05081490703987
 20
-2.078431346771341
 30
0.0
 10
14.7157741387836
 20
-1.945218319765716
 30
0.0
 10
14.22173454744481
 20
-1.727351356678386
 30
0.0
 10
14.05829733510838
 20
-1.651742459590665
 30
0.0
 10
13.72716837716652
 20
-1.494292148907785
 30
0.0
 10
13.560681097453
 20
-1.412624811332193
 30
0.0
 10
13.06242981911325
 20
-1.160724710331803
 30
0.0
 10
12.73605138450873
 20
-0.9843633189250263
 30
0.0
 10
12.07237827405553
 20
-0.6182993556376043
 30
0.0
 10
11.74001424899288
 20
-0.4294575694813672
 30
0.0
 10
11.08325978244117
 20
-0.0498956997031314
 30
0.0
 10
10.74835617802871
 20
0.1428364486597877
 30
0.0
 10
10.25205637075838
 20
0.4272337992089342
 30
0.0
 10
10.08882207435419
 20
0.5210261949302482
 30
0.0
 10
9.759090027817049
 20
0.7070606044712076
 30
0.0
 10
9.592894363102783
 20
0.7992389405588778
 30
0.0
 10
9.260481010187956
 20
0.9804296071096057
 30
0.0
 10
9.094268023056099
 20
1.069439373971222
 30
0.0
 10
8.764467599694214
 20
1.242899882597467
 30
0.0
 10
8.601261960381546
 20
1.327298616175564
 30
0.0
 10
8.105041437366356
 20
1.574130055165776
 30
0.0
 10
7.770121572522726
 20
1.729253570709895
 30
0.0
 10
7.113199692079888
 20
2.011011457331965
 30
0.0
 10
6.781017825898765
 20
2.139144557955171
 30
0.0
 10
6.11728142980563
 20
2.363183773584856
 30
0.0
 10
5.790919147311186
 20
2.458660466361324
 30
0.0
 10
5.292699991130355
 20
2.575624912235761
 30
0.0
 10
5.126206140083926
 20
2.610127293959522
 30
0.0
 10
4.795029829048037
 20
2.669637366777826
 30
0.0
 10
4.631543787028406
 20
2.694601929609882
 30
0.0
 10
4.137614894598233
 20
2.755301276837605
 30
0.0
 10
3.802579854924009
 20
2.776614094682913
 30
0.0
 10
3.307269037702364
 20
2.7787630358278
 30
0.0
 10
3.144169110434872
 20
2.774583315841811
 30
0.0
 10
2.813704963036619
 20
2.756398630390544
 30
0.0
 10
2.647337452156906
 20
2.742376001907238
 30
0.0
 10
2.481157664253907
 20
2.723506975887787
 30
0.0
  0
SPLINE
  5
BB
330
1F
100
AcDbEntity
  8
0
  6
Continuous
 62
     1
370
    15
100
AcDbSpline
210
0.0
220
0.0
230
1.0
 70
     8
 71
     3
 72
    15
 73
    11
 74
     0
 42
0.000000001
 43
0.00000001
 40
0.0
 40
0.0
 40
0.0
 40
0.0
 40
0.0093073664683609
 40
0.1649877238107387
 40
0.3206699664695743
 40
0.4763540173964128
 40
0.6320397993431891
 40
0.754825437092732
 40
0.877497861034319
 40
0.9999999999999999
 40
0.9999999999999999
 40
0.9999999999999999
 40
0.9999999999999999
 10
11.45466130628069
 20
-0.263430946622491
 30
0.0
 10
11.42682011199891
 20
-0.2526218408429187
 30
0.0
 10
10.93329111125133
 20
-0.0610134234604682
 30
0.0
 10
9.9740670714956
 20
0.3386739123673579
 30
0.0
 10
8.57698305077784
 20
0.8778749994143666
 30
0.0
 10
7.179883104332081
 20
1.34728949697839
 30
0.0
 10
5.881178313875001
 20
1.678570713431529
 30
0.0
 10
4.681244385023707
 20
1.872994449766405
 30
0.0
 10
3.580671239899576
 20
1.961246261050108
 30
0.0
 10
2.847492447372522
 20
1.934153448547326
 30
0.0
 10
2.481157664253889
 20
1.920616450896218
 30
0.0
  0
SPLINE
  5
BC
330
1F
100
AcDbEntity
  8
외형선
  6
Continuous
370
    15
100
AcDbSpline
210
0.0
220
0.0
230
1.0
 70
    24
 71
     3
 72
    10
 73
     6
 74
     0
 42
0.000000001
 43
0.00000001
 40
0.0
 40
0.0
 40
0.0
 40
0.0
 40
0.5
 40
0.5
 40
1.0
 40
1.0
 40
1.0
 40
1.0
 10
2.481157664253892
 20
2.723506975887778
 30
0.0
 10
2.481157664253892
 20
2.580512843712149
 30
0.0
 10
2.481157664253892
 20
2.431360478205955
 30
0.0
 10
2.481157664253892
 20
2.15394906601797
 30
0.0
 10
2.481157664253892
 20
2.026364218164771
 30
0.0
 10
2.481157664253892
 20
1.920616450896219
 30
0.0
  0
LINE
  5
BD
330
1F
100
AcDbEntity
  8
0
  6
Continuous
 62
     1
370
    15
100
AcDbLine
 10
18.3561576642539
 20
-2.775776971059856
 30
0.0
 11
18.3561576642539
 21
-2.636276352334874
 31
0.0
  0
SPLINE
  5
BE
330
1F
100
AcDbEntity
  8
0
  6
Continuous
 62
     1
370
    15
100
AcDbSpline
210
0.0
220
0.0
230
1.0
 70
     8
 71
     3
 72
     8
 73
     4
 74
     0
 42
0.000000001
 43
0.00000001
 40
0.0
 40
0.0
 40
0.0
 40
0.0
 40
1.0
 40
1.0
 40
1.0
 40
1.0
 10
16.63641086918857
 20
0.7778932338795802
 30
0.0
 10
16.53796491497428
 20
0.8945474298580599
 30
0.0
 10
16.45011250249393
 20
1.006817634167556
 30
0.0
 10
16.37534103590276
 20
1.113674468780587
 30
0.0
  0
LINE
  5
BF
330
1F
100
AcDbEntity
  8
0
  6
Continuous
 62
     1
370
    15
100
AcDbLine
 10
16.41048803089598
 20
1.143166299316389
 30
0.0
 11
18.3561576642539
 21
0.0000000000000009
 31
0.0
  0
LINE
  5
C0
330
1F
100
AcDbEntity
  8
0
  6
Continuous
 62
     1
370
    15
100
AcDbLine
 10
18.3561576642539
 20
0.0000000000000009
 30
0.0
 11
18.3561576642539
 21
-0.7424343094386063
 31
0.0
  0
SPLINE
  5
C1
330
1F
100
AcDbEntity
  8
0
  6
Continuous
 62
     1
370
    15
100
AcDbSpline
210
0.0
220
0.0
230
1.0
 70
     8
 71
     3
 72
    10
 73
     6
 74
     0
 42
0.000000001
 43
0.00000001
 40
0.0
 40
0.0
 40
0.0
 40
0.0
 40
0.5
 40
0.5
 40
1.0
 40
1.0
 40
1.0
 40
1.0
 10
18.3561576642539
 20
-0.742434309438606
 30
0.0
 10
18.05845358752015
 20
-0.5083865335042332
 30
0.0
 10
17.76572672907866
 20
-0.2647365363175413
 30
0.0
 10
17.19047109890203
 20
0.2422379587817724
 30
0.0
 10
16.90526772927497
 20
0.5082424888783084
 30
0.0
 10
16.63641086918856
 20
0.7778932338795859
 30
0.0
  0
SPLINE
  5
C2
330
1F
100
AcDbEntity
  8
0
  6
Continuous
 62
     1
370
    15
100
AcDbSpline
210
0.0
220
0.0
230
1.0
 70
     8
 71
     3
 72
    13
 73
     9
 74
     0
 42
0.000000001
 43
0.00000001
 40
0.0
 40
0.0
 40
0.0
 40
0.0
 40
0.1930712576069331
 40
0.3862253356516498
 40
0.5502948961829581
 40
0.7139841838319332
 40
0.8775746546986924
 40
0.9999999999999999
 40
0.9999999999999999
 40
0.9999999999999999
 40
0.9999999999999999
 10
16.63641086918856
 20
0.7778932338795838
 30
0.0
 10
16.22464799939874
 20
0.951103040760559
 30
0.0
 10
15.40094562875778
 20
1.297596955131581
 30
0.0
 10
14.22727461614197
 20
1.697102141798322
 30
0.0
 10
13.11612133859406
 20
1.985505732729489
 30
0.0
 10
12.06852337593878
 20
2.160222687568846
 30
0.0
 10
11.10979413002522
 20
2.238647808138587
 30
0.0
 10
10.49986384224278
 20
2.209889865461101
 30
0.0
 10
10.23879112573394
 20
2.19758040261525
 30
0.0
  0
SPLINE
  5
C3
330
1F
100
AcDbEntity
  8
0
  6
Continuous
 62
     1
370
    15
100
AcDbSpline
210
0.0
220
0.0
230
1.0
 70
    24
 71
     3
 72
    10
 73
     6
 74
     0
 42
0.000000001
 43
0.00000001
 40
0.0
 40
0.0
 40
0.0
 40
0.0
 40
0.5
 40
0.5
 40
1.0
 40
1.0
 40
1.0
 40
1.0
 10
18.3561576642539
 20
-2.191863571947951
 30
0.0
 10
18.3561576642539
 20
-2.023840140076196
 30
0.0
 10
18.3561576642539
 20
-1.811536091227658
 30
0.0
 10
18.3561576642539
 20
-1.317949609640483
 30
0.0
 10
18.3561576642539
 20
-1.03709474022692
 30
0.0
 10
18.3561576642539
 20
-0.7424343094386952
 30
0.0
  0
SPLINE
  5
C4
330
1F
100
AcDbEntity
  8
0
  6
Continuous
 62
     1
370
    15
100
AcDbSpline
210
0.0
220
0.0
230
1.0
 70
     8
 71
     3
 72
    11
 73
     7
 74
     0
 42
0.000000001
 43
0.00000001
 40
0.0
 40
0.0
 40
0.0
 40
0.0
 40
0.0788407531535128
 40
0.3862118830736517
 40
0.69331062059903
 40
1.0
 40
1.0
 40
1.0
 40
1.0
 10
6.065383153243094
 20
-2.300814490525
 30
0.0
 10
5.971206668903665
 20
-2.313419584967257
 30
0.0
 10
5.509870673201476
 20
-2.375167311443007
 30
0.0
 10
4.681229257539119
 20
-2.367273257075274
 30
0.0
 10
3.580673960654213
 20
-2.274639261808258
 30
0.0
 10
2.847500102748834
 20
-2.109456260954274
 30
0.0
 10
2.481157664253892
 20
-2.026919843870824
 30
0.0
  0
SPLINE
  5
C5
330
1F
100
AcDbEntity
  8
0
  6
Continuous
 62
     1
370
    15
100
AcDbSpline
210
0.0
220
0.0
230
1.0
 70
     8
 71
     3
 72
    17
 73
    13
 74
     0
 42
0.000000001
 43
0.00000001
 40
0.0
 40
0.0
 40
0.0
 40
0.0
 40
0.040864457273833
 40
0.14556415321886
 40
0.2504005597871322
 40
0.3554316043552866
 40
0.4602333174246
 40
0.564929692549343
 40
0.6697207568699943
 40
0.7799294496414455
 40
0.8900391551971265
 40
0.9999999999999999
 40
0.9999999999999999
 40
0.9999999999999999
 40
0.9999999999999999
 10
12.47675181276483
 20
-2.076782008245818
 30
0.0
 10
12.34060807240687
 20
-2.101259504464257
 30
0.0
 10
11.85564755651266
 20
-2.188451314845561
 30
0.0
 10
11.02155926195907
 20
-2.233867706814132
 30
0.0
 10
9.973510015826125
 20
-2.208295745499976
 30
0.0
 10
8.924652939170656
 20
-2.07249911407556
 30
0.0
 10
7.87681045975809
 20
-1.840188569243589
 30
0.0
 10
6.829863927474548
 20
-1.520507380952763
 30
0.0
 10
5.764811528405261
 20
-1.12246649674779
 30
0.0
 10
4.681214991146764
 20
-0.6623180878228025
 30
0.0
 10
3.580659295586711
 20
-0.1586194534462638
 30
0.0
 10
2.847492897859041
 20
0.1796051962257859
 30
0.0
 10
2.481157664253892
 20
0.3486031296180527
 30
0.0
  0
SPLINE
  5
C6
330
1F
100
AcDbEntity
  8
외형선
  6
Continuous
370
    15
100
AcDbSpline
210
0.0
220
0.0
230
1.0
 70
    24
 71
     3
 72
    10
 73
     6
 74
     0
 42
0.000000001
 43
0.00000001
 40
0.0
 40
0.0
 40
0.0
 40
0.0
 40
0.5
 40
0.5
 40
1.0
 40
1.0
 40
1.0
 40
1.0
 10
2.481157664253885
 20
0.348603129618056
 30
0.0
 10
2.481157664253885
 20
-0.0795326502059771
 30
0.0
 10
2.481157664253885
 20
-0.532433634672917
 30
0.0
 10
2.481157664253885
 20
-1.362796627100434
 30
0.0
 10
2.481157664253885
 20
-1.736684428129924
 30
0.0
 10
2.481157664253885
 20
-2.026919843870822
 30
0.0
  0
SPLINE
  5
C7
330
1F
100
AcDbEntity
  8
외형선
  6
Continuous
370
    15
100
AcDbSpline
210
0.0
220
0.0
230
1.0
 70
    24
 71
     3
 72
    14
 73
    10
 74
     0
 42
0.000000001
 43
0.00000001
 40
0.0
 40
0.0
 40
0.0
 40
0.0
 40
0.2499999999999999
 40
0.2499999999999999
 40
0.4999999999999999
 40
0.4999999999999999
 40
0.7499999999999999
 40
0.7499999999999999
 40
1.0
 40
1.0
 40
1.0
 40
1.0
 10
2.481157664253862
 20
1.920616450896217
 30
0.0
 10
2.481157664253862
 20
1.906587816735712
 30
0.0
 10
2.481157664253862
 20
1.861991992363546
 30
0.0
 10
2.481157664253862
 20
1.706897007129035
 30
0.0
 10
2.481157664253862
 20
1.596345091290454
 30
0.0
 10
2.481157664253862
 20
1.316953001210205
 30
0.0
 10
2.481157664253862
 20
1.148261698755017
 30
0.0
 10
2.481157664253862
 20
0.7716368652997272
 30
0.0
 10
2.481157664253862
 20
0.5639617299484111
 30
0.0
 10
2.481157664253862
 20
0.3486031296180683
 30
0.0
  0
SPLINE
  5
C8
330
1F
100
AcDbEntity
  8
0
  6
Continuous
 62
     1
370
    15
100
AcDbSpline
210
0.0
220
0.0
230
1.0
 70
    24
 71
     3
 72
     8
 73
     4
 74
     0
 42
0.000000001
 43
0.00000001
 40
0.0
 40
0.0
 40
0.0
 40
0.0
 40
1.0
 40
1.0
 40
1.0
 40
1.0
 10
16.66545663274522
 20
1.357110359087231
 30
0.0
 10
16.57373491507146
 20
1.280146699616232
 30
0.0
 10
16.47672604188314
 20
1.198746589905626
 30
0.0
 10
16.37534103590281
 20
1.113674468780627
 30
0.0
  0
LINE
  5
C9
330
1F
100
AcDbEntity
  8
0
  6
Continuous
 62
     1
370
    15
100
AcDbLine
 10
18.3561576642539
 20
1.944687499999998
 30
0.0
 11
17.32772843457925
 21
1.884764661041765
 31
0.0
  0
SPLINE
  5
CA
330
1F
100
AcDbEntity
  8
0
  6
Continuous
 62
     1
370
    15
100
AcDbSpline
210
0.0
220
0.0
230
1.0
 70
     8
 71
     3
 72
     8
 73
     4
 74
     0
 42
0.000000001
 43
0.00000001
 40
0.0
 40
0.0
 40
0.0
 40
0.0
 40
1.0
 40
1.0
 40
1.0
 40
1.0
 10
18.3561576642539
 20
1.9446875
 30
0.0
 10
17.78474006678941
 20
1.789550759100214
 30
0.0
 10
17.21876673422505
 20
1.599117321601367
 30
0.0
 10
16.66545663274916
 20
1.357110359090834
 30
0.0
  0
LINE
  5
CB
330
1F
100
AcDbEntity
  8
0
  6
Continuous
 62
     1
370
    15
100
AcDbLine
 10
18.3561576642539
 20
0.0000000000000009
 30
0.0
 11
18.3561576642539
 21
1.9446875
 31
0.0
  0
SPLINE
  5
CC
330
1F
100
AcDbEntity
  8
0
  6
Continuous
 62
     1
370
    15
100
AcDbSpline
210
0.0
220
0.0
230
1.0
 70
     8
 71
     3
 72
    12
 73
     8
 74
     0
 42
0.000000001
 43
0.00000001
 40
0.0
 40
0.0
 40
0.0
 40
0.0
 40
0.1483310104681572
 40
0.3613612046368502
 40
0.574423455077322
 40
0.7872732044720464
 40
1.0
 40
1.0
 40
1.0
 40
1.0
 10
7.950596512187612
 20
-2.184187531367904
 30
0.0
 10
7.680196771088163
 20
-2.279140913446361
 30
0.0
 10
7.021454031665055
 20
-2.510464548496905
 30
0.0
 10
5.974021533439519
 20
-2.717437807553361
 30
0.0
 10
4.808902513831001
 20
-2.804380562027122
 30
0.0
 10
3.644664349170728
 20
-2.73354927125128
 30
0.0
 10
2.868918518648741
 20
-2.555288993659527
 30
0.0
 10
2.481157664250397
 20
-2.466184605566648
 30
0.0
  0
SPLINE
  5
CD
330
1F
100
AcDbEntity
  8
외형선
  6
Continuous
370
    15
100
AcDbSpline
210
0.0
220
0.0
230
1.0
 70
    24
 71
     3
 72
     8
 73
     4
 74
     0
 42
0.000000001
 43
0.00000001
 40
0.0
 40
0.0
 40
0.0
 40
0.0
 40
1.0
 40
1.0
 40
1.0
 40
1.0
 10
2.481157664253892
 20
-2.026919843870824
 30
0.0
 10
2.481157664253892
 20
-2.170754261192647
 30
0.0
 10
2.481157664253892
 20
-2.318105424360812
 30
0.0
 10
2.481157664253892
 20
-2.466184605556893
 30
0.0
  0
LINE
  5
CE
330
1F
100
AcDbEntity
  8
0
  6
Continuous
 62
     1
370
    15
100
AcDbLine
 10
2.481157664253907
 20
-2.723506975887789
 30
0.0
 11
3.436397308076458
 21
-2.775867753513448
 31
0.0
  0
SPLINE
  5
CF
330
1F
100
AcDbEntity
  8
0
  6
Continuous
 62
     1
370
    15
100
AcDbSpline
210
0.0
220
0.0
230
1.0
 70
     8
 71
     3
 72
    11
 73
     7
 74
     0
 42
0.000000001
 43
0.00000001
 40
0.0
 40
0.0
 40
0.0
 40
0.0
 40
0.0815749945405847
 40
0.3875049269756702
 40
0.6936030006337444
 40
1.0
 40
1.0
 40
1.0
 40
1.0
 10
14.55327377381956
 20
1.861708923702219
 30
0.0
 10
14.65666506861019
 20
1.908864720035546
 30
0.0
 10
15.14780376084547
 20
2.132868454483045
 30
0.0
 10
16.02691348201544
 20
2.420422671933295
 30
0.0
 10
17.19108294116553
 20
2.702331066127943
 30
0.0
 10
17.96767308601279
 20
2.751287038495377
 30
0.0
 10
18.3561576642539
 20
2.775776971059853
 30
0.0
  0
SPLINE
  5
D0
330
1F
100
AcDbEntity
  8
0
  6
Continuous
 62
     1
370
    15
100
AcDbSpline
210
0.0
220
0.0
230
1.0
 70
    24
 71
     3
 72
    10
 73
     6
 74
     0
 42
0.000000001
 43
0.00000001
 40
0.0
 40
0.0
 40
0.0
 40
0.0
 40
0.5
 40
0.5
 40
1.0
 40
1.0
 40
1.0
 40
1.0
 10
18.3561576642539
 20
1.944687499999999
 30
0.0
 10
18.3561576642539
 20
2.062569613442818
 30
0.0
 10
18.3561576642539
 20
2.199559546321459
 30
0.0
 10
18.35615766425389
 20
2.486964056544374
 30
0.0
 10
18.3561576642539
 20
2.636644638835965
 30
0.0
 10
18.3561576642539
 20
2.775776971059854
 30
0.0
  0
LINE
  5
D1
330
1F
100
AcDbEntity
  8
중심선
 62
     1
100
AcDbLine
 10
-48.1438423357461
 20
-0.0000000000000059
 30
0.0
 11
21.35615766425389
 21
0.0000000000000011
 31
0.0
  0
LINE
  5
D2
330
1F
100
AcDbEntity
  8
참조1
100
AcDbLine
 10
-1.025738685968832
 20
0.0010749287238892
 30
0.0
 11
-1.025738685968825
 21
-39.99892507127611
 31
0.0
  0
LINE
  5
D3
330
1F
100
AcDbEntity
  8
참조1
100
AcDbLine
 10
-1.025738685968825
 20
-39.99892507127611
 30
0.0
 11
-20.15080122126847
 21
-39.9989250712761
 31
0.0
  0
CIRCLE
  5
D4
330
1F
100
AcDbEntity
  8
해칭선
100
AcDbCircle
 10
0.0
 20
0.0
 30
0.0
 40
2.999999999999995
  0
INSERT
  5
D5
330
1F
100
AcDbEntity
  8
0
  6
Continuous
 62
     7
100
AcDbBlockReference
 66
     1
  2
블럭10
 10
-26.04020573982729
 20
-28.80246116137003
 30
0.0
  0
ATTRIB
  5
D6
330
D5
100
AcDbEntity
  8
FORMAT
 62
     2
100
AcDbText
 10
-35.22150102856857
 20
-26.72709424853784
 30
0.0
 40
4.233333333333333
  1
E5020014 [ 2 FLUTE ]
 41
0.75
  7
SLDTEXTSTYLE0
 11
-35.22150102856857
 21
-28.84376091520451
 31
0.0
100
AcDbAttribute
  2
AUTOATTR0
 70
     0
 74
     1
  0
SEQEND
  5
D7
330
D5
100
AcDbEntity
  8
0
  6
Continuous
 62
     7
  0
HATCH
  5
D8
330
1F
100
AcDbEntity
  8
중심선
100
AcDbHatch
 10
0.0
 20
0.0
 30
0.0
210
0.0
220
0.0
230
1.0
  2
SOLID
 70
     1
 71
     0
 91
        1
 92
        0
 93
        4
 72
     1
 10
-20.32529643544646
 20
-12.5552868597261
 11
-23.77157167928374
 21
-12.5552868597261
 72
     1
 10
-23.77157167928375
 20
-12.5552868597261
 11
-25.89980153848777
 21
-15.09161244029867
 72
     1
 10
-25.89980153848776
 20
-15.09161244029867
 11
-22.45349320953733
 21
-15.09157301099618
 72
     1
 10
-22.45349320953733
 20
-15.09157301099618
 11
-20.32529643544646
 21
-12.5552868597261
 97
        0
 75
     0
 76
     1
 98
        1
 10
-11.07419412173326
 20
23.24363821155001
  0
HATCH
  5
D9
330
1F
100
AcDbEntity
  8
중심선
100
AcDbHatch
 10
0.0
 20
0.0
 30
0.0
210
0.0
220
0.0
230
1.0
  2
SOLID
 70
     1
 71
     0
 91
        1
 92
        0
 93
        4
 72
     1
 10
-15.31253244441048
 20
-12.5552868597261
 11
-18.75880768824774
 21
-12.55528685972607
 72
     1
 10
-18.75880768824774
 20
-12.55528685972607
 11
-23.28994569660518
 21
-17.95528685972612
 72
     1
 10
-23.28994569660518
 20
-17.95528685972612
 11
-19.8436704527679
 21
-17.95528685972612
 72
     1
 10
-19.8436704527679
 20
-17.95528685972612
 11
-15.31253244441048
 21
-12.5552868597261
 97
        0
 75
     0
 76
     1
 98
        1
 10
-11.07419412173326
 20
23.24363821155001
  0
HATCH
  5
DA
330
1F
100
AcDbEntity
  8
중심선
100
AcDbHatch
 10
0.0
 20
0.0
 30
0.0
210
0.0
220
0.0
230
1.0
  2
SOLID
 70
     1
 71
     0
 91
        1
 92
        0
 93
        4
 72
     1
 10
-10.29976845337459
 20
-12.5552868597261
 11
-13.74604369721173
 21
-12.55528685972607
 72
     1
 10
-13.74604369721173
 20
-12.55528685972607
 11
-20.79448059910098
 21
-20.95528685972612
 72
     1
 10
-20.79448059910098
 20
-20.95528685972612
 11
-17.34820535526369
 21
-20.95528685972612
 72
     1
 10
-17.3482053552637
 20
-20.95528685972612
 11
-10.29976845337459
 21
-12.5552868597261
 97
        0
 75
     0
 76
     1
 98
        1
 10
-11.07419412173326
 20
23.24363821155001
  0
HATCH
  5
DB
330
1F
100
AcDbEntity
  8
중심선
100
AcDbHatch
 10
0.0
 20
0.0
 30
0.0
210
0.0
220
0.0
230
1.0
  2
SOLID
 70
     1
 71
     0
 91
        1
 92
        0
 93
        6
 72
     3
 10
-5.499878022362416
 20
-16.75528685977737
 11
3.960054785062284
 21
1.540882976769353E-10
 40
0.3939339440162627
 50
17.09539180608436
 51
320.0019657685077
 73
     0
 72
     1
 10
-3.816878366661848
 20
-15.3431808643644
 11
-1.511576492960783
 21
-13.40885415431648
 72
     3
 10
-5.499878022415262
 20
-16.75528685972625
 11
6.600054785286829
 21
-1.278976924368180E-13
 40
0.6363583540795982
 50
39.99873849337412
 51
368.4976242363724
 73
     1
 72
     1
 10
0.9254544694853468
 20
-15.79528685965612
 11
-6.81981071557934
 21
-15.79528685965612
 72
     1
 10
-6.81981071557934
 20
-15.79528685965612
 11
-6.819835760025274
 21
-17.71528685965601
 72
     1
 10
-6.819835760025274
 20
-17.71528685965601
 11
-2.378455990553237
 21
-17.71528685965598
 97
        0
 75
     0
 76
     1
 98
        1
 10
-11.07419412173326
 20
23.24363821155001
  0
DIMENSION
  5
DC
330
1F
100
AcDbEntity
  8
치수문자_일반주서
100
AcDbDimension
  2
_D
 10
-52.9290531199366
 20
-3.175000000000043
 30
0.0
 11
-52.92905311993668
 21
23.12274999999995
 31
0.0
 70
   160
  1
%%c<>
 71
     2
 42
6.349999999999994
 52
-270.0
  3
SLDDIMSTYLE0
100
AcDbAlignedDimension
 13
-44.33384233574611
 23
3.174999999999982
 33
0.0
 14
-44.33384233574611
 24
-3.175000000000012
 34
0.0
 50
90.0000000000002
100
AcDbRotatedDimension
1001
ACAD
1000
DSTYLE
1002
{
1070
   171
1070
     6
1070
   273
1070
     5
1002
}
  0
DIMENSION
  5
F1
330
1F
100
AcDbEntity
  8
치수문자_일반주서
100
AcDbDimension
  2
_D_1
 10
2.481157664253889
 20
15.95211870188279
 30
0.0
 11
10.41865766425389
 21
15.95211870188279
 31
0.0
 70
   160
  1
<>
 71
     2
 42
15.87500000000001
  3
SLDDIMSTYLE0
100
AcDbAlignedDimension
 13
18.3561576642539
 23
2.775776971059854
 33
0.0
 14
2.481157664253889
 24
1.920616450896219
 34
0.0
100
AcDbRotatedDimension
1001
ACAD
1000
DSTYLE
1002
{
1070
   171
1070
     6
1070
   273
1070
     5
1002
}
  0
DIMENSION
  5
106
330
1F
100
AcDbEntity
  8
치수문자_일반주서
100
AcDbDimension
  2
_D_2
 10
-45.14384233574611
 20
33.16180591771897
 30
0.0
 11
-13.39384233574611
 21
33.16180591771897
 31
0.0
 70
   160
  1
<>
 71
     2
 42
63.5
  3
SLDDIMSTYLE0
100
AcDbAlignedDimension
 13
18.3561576642539
 23
2.636276352334872
 33
0.0
 14
-45.14384233574611
 24
2.364999999999993
 34
0.0
 50
0.0000000000000064
100
AcDbRotatedDimension
1001
ACAD
1000
DSTYLE
1002
{
1070
   171
1070
     6
1070
   273
1070
     5
1002
}
  0
DIMENSION
  5
11A
330
1F
100
AcDbEntity
  8
치수문자_일반주서
100
AcDbDimension
  2
_D_3
 10
30.29954681907216
 20
2.775776971059898
 30
0.0
 11
30.29954681907209
 21
23.8172769710599
 31
0.0
 70
   160
  1
%%c<>
 71
     2
 42
5.55155394211971
 52
-270.0
  3
SLDDIMSTYLE0
100
AcDbAlignedDimension
 13
18.3561576642539
 23
-2.775776971059856
 33
0.0
 14
18.3561576642539
 24
2.775776971059854
 34
0.0
 50
90.0000000000002
100
AcDbRotatedDimension
1001
ACAD
1000
DSTYLE
1002
{
1070
   171
1070
     6
1070
   273
1070
     5
1002
}
  0
LINE
  5
12E
330
1F
100
AcDbEntity
  8
참조1
100
AcDbLine
 10
77.82153940838579
 20
7.441074928723896
 30
0.0
 11
77.82153940838579
 21
-7.438925071276109
 31
0.0
  0
LINE
  5
12F
330
1F
100
AcDbEntity
  8
참조1
100
AcDbLine
 10
90.52153940838579
 20
5.441074928723896
 30
0.0
 11
77.82153940838579
 21
5.441074928723896
 31
0.0
  0
SOLID
  5
130
330
1F
100
AcDbEntity
  8
참조1
100
AcDbTrace
 10
77.82153940838579
 20
5.441074928723896
 30
0.0
 11
84.17153940838578
 21
4.425074928723896
 31
0.0
 12
84.17153940838578
 22
6.457074928723896
 32
0.0
 13
84.17153940838578
 23
6.457074928723896
 33
0.0
  0
LINE
  5
131
330
1F
100
AcDbEntity
  8
참조1
100
AcDbLine
 10
90.52153940838579
 20
-5.438925071276109
 30
0.0
 11
77.82153940838579
 21
-5.438925071276109
 31
0.0
  0
SOLID
  5
132
330
1F
100
AcDbEntity
  8
참조1
100
AcDbTrace
 10
77.82153940838579
 20
-5.438925071276109
 30
0.0
 11
84.17153940838578
 21
-6.454925071276109
 31
0.0
 12
84.17153940838578
 22
-4.422925071276109
 32
0.0
 13
84.17153940838578
 23
-4.422925071276109
 33
0.0
  0
MTEXT
  5
133
330
1F
100
AcDbEntity
  8
참조1
100
AcDbMText
 10
87.20588954101179
 20
11.01136670591222
 30
0.0
 40
3.5
 41
0.0
 71
     1
 72
     1
  1
A
  7
SLDTEXTSTYLE0
 73
     1
 44
1.0
  0
MTEXT
  5
134
330
1F
100
AcDbEntity
  8
참조1
100
AcDbMText
 10
87.20588954101179
 20
0.1313667059122192
 30
0.0
 40
3.5
 41
0.0
 71
     1
 72
     1
  1
A
  7
SLDTEXTSTYLE0
 73
     1
 44
1.0
  0
INSERT
  5
13B
330
1F
100
AcDbEntity
  8
해칭선
100
AcDbBlockReference
  2
SW_DOWELSYMBOL_0
 10
0.0
 20
0.0
 30
0.0
  0
ENDSEC
  0
SECTION
  2
OBJECTS
  0
DICTIONARY
  5
C
330
0
100
AcDbDictionary
281
     1
  3
ACAD_GROUP
350
D
  3
ACAD_IMAGE_VARS
350
15F
  3
ACAD_LAYOUT
350
1A
  3
ACAD_MLINESTYLE
350
17
  3
ACAD_PLOTSETTINGS
350
19
  3
ACAD_PLOTSTYLENAME
350
E
  3
ACAD_SCALELIST
350
47
  3
APPDATA
350
15D
  3
DWGPROPS
350
2F5
  0
DICTIONARY
  5
219
330
2
100
AcDbDictionary
280
     1
281
     1
  3
ACAD_LAYERSTATES
360
21A
  0
DICTIONARY
  5
2F3
330
1F
100
AcDbDictionary
280
     1
281
     1
  3
DIM_BOUNDING_BOXES_V1
360
2F4
  0
DICTIONARY
  5
D
102
{ACAD_REACTORS
330
C
102
}
330
C
100
AcDbDictionary
281
     1
  0
RASTERVARIABLES
  5
15F
102
{ACAD_REACTORS
330
C
102
}
330
C
100
AcDbRasterVariables
 90
        0
 70
     1
 71
     1
 72
     1
  0
DICTIONARY
  5
1A
102
{ACAD_REACTORS
330
C
102
}
330
C
100
AcDbDictionary
281
     1
  3
Layout1
350
1E
  3
Layout2
350
26
  3
Model
350
22
  0
DICTIONARY
  5
17
102
{ACAD_REACTORS
330
C
102
}
330
C
100
AcDbDictionary
281
     1
  3
Standard
350
18
  0
DICTIONARY
  5
19
102
{ACAD_REACTORS
330
C
102
}
330
C
100
AcDbDictionary
281
     1
  0
ACDBDICTIONARYWDFLT
  5
E
102
{ACAD_REACTORS
330
C
102
}
330
C
100
AcDbDictionary
281
     1
  3
Normal
350
F
100
AcDbDictionaryWithDefault
340
F
  0
DICTIONARY
  5
47
102
{ACAD_REACTORS
330
C
102
}
330
C
100
AcDbDictionary
281
     1
  3
A0
350
48
  3
A1
350
49
  3
A2
350
4A
  3
A3
350
4B
  3
A4
350
4C
  3
A5
350
4D
  3
A6
350
4E
  3
A7
350
4F
  3
A8
350
50
  3
A9
350
51
  3
B0
350
52
  3
B1
350
53
  3
B2
350
54
  3
B3
350
55
  3
B4
350
56
  3
B5
350
57
  3
B6
350
58
  3
B7
350
59
  3
B8
350
5A
  3
B9
350
5B
  3
C0
350
5C
  3
C1
350
5D
  3
C2
350
5E
  3
C3
350
5F
  3
C4
350
60
  3
C5
350
61
  3
C6
350
62
  3
C7
350
63
  3
C8
350
64
  3
C9
350
65
  3
D0
350
66
  3
D1
350
67
  3
D2
350
68
  0
DICTIONARY
  5
15D
102
{ACAD_REACTORS
330
C
102
}
330
C
100
AcDbDictionary
281
     1
  0
XRECORD
  5
2F5
102
{ACAD_REACTORS
330
C
102
}
330
C
100
AcDbXrecord
280
     1
  1
DWGPROPS COOKIE
  2

  3

  4

  6

  7

  8
12011056
  9

300
=
301
=
302
=
303
=
304
=
305
=
306
=
307
=
308
=
309
=
 40
0.0
 41
2458311.115159375
 42
2459719.222355266
  1

 90
        0
  0
DICTIONARY
  5
21A
102
{ACAD_REACTORS
330
219
102
}
330
219
100
AcDbDictionary
281
     1
  0
DICTIONARY
  5
2F4
102
{ACAD_REACTORS
330
2F3
102
}
330
2F3
100
AcDbDictionary
281
     1
  0
LAYOUT
  5
1E
102
{ACAD_REACTORS
330
1A
102
}
330
1A
100
AcDbPlotSettings
  1

  2
none_device
  4

  6

 40
0.0
 41
0.0
 42
0.0
 43
0.0
 44
0.0
 45
0.0
 46
0.0
 47
0.0
 48
0.0
 49
0.0
140
0.0
141
0.0
142
1.0
143
1.0
 70
   688
 72
     1
 73
     0
 74
     5
  7

 75
    16
147
1.0
148
0.0
149
0.0
100
AcDbLayout
  1
Layout1
 70
     1
 71
     1
 10
0.0
 20
0.0
 11
420.0
 21
297.0
 12
0.0
 22
0.0
 32
0.0
 14
1.000000000000000E+20
 24
1.000000000000000E+20
 34
1.000000000000000E+20
 15
-1.000000000000000E+20
 25
-1.000000000000000E+20
 35
-1.000000000000000E+20
146
0.0
 13
0.0
 23
0.0
 33
0.0
 16
1.0
 26
0.0
 36
0.0
 17
0.0
 27
1.0
 37
0.0
 76
     0
330
1B
  0
LAYOUT
  5
26
102
{ACAD_REACTORS
330
1A
102
}
330
1A
100
AcDbPlotSettings
  1

  2
none_device
  4

  6

 40
0.0
 41
0.0
 42
0.0
 43
0.0
 44
0.0
 45
0.0
 46
0.0
 47
0.0
 48
0.0
 49
0.0
140
0.0
141
0.0
142
1.0
143
1.0
 70
   688
 72
     1
 73
     0
 74
     5
  7

 75
    16
147
1.0
148
0.0
149
0.0
100
AcDbLayout
  1
Layout2
 70
     1
 71
     2
 10
0.0
 20
0.0
 11
0.0
 21
0.0
 12
0.0
 22
0.0
 32
0.0
 14
0.0
 24
0.0
 34
0.0
 15
0.0
 25
0.0
 35
0.0
146
0.0
 13
0.0
 23
0.0
 33
0.0
 16
1.0
 26
0.0
 36
0.0
 17
0.0
 27
1.0
 37
0.0
 76
     0
330
23
  0
LAYOUT
  5
22
102
{ACAD_REACTORS
330
1A
102
}
330
1A
100
AcDbPlotSettings
  1

  2
none_device
  4
ANSI_A_(11.00_x_8.50_Inches)
  6

 40
6.35
 41
19.05
 42
6.35000508
 43
19.05000254
 44
279.4
 45
215.9
 46
101.0659033872063
 47
95.26857794670599
 48
0.0
 49
0.0
140
0.0
141
0.0
142
0.0741925885219576
143
1.0
 70
  1696
 72
     0
 73
     0
 74
     0
  7

 75
     0
147
0.0235690232323232
148
0.0
149
0.0
100
AcDbLayout
  1
Model
 70
     1
 71
     0
 10
0.0
 20
0.0
 11
420.0
 21
297.0
 12
0.0
 22
0.0
 32
0.0
 14
-57.30405311993672
 24
-39.99892507127611
 34
0.0
 15
90.5215394083858
 25
38.2547769710599
 35
0.0
146
0.0
 13
0.0
 23
0.0
 33
0.0
 16
1.0
 26
0.0
 36
0.0
 17
0.0
 27
1.0
 37
0.0
 76
     0
330
1F
331
29
  0
MLINESTYLE
  5
18
102
{ACAD_REACTORS
330
17
102
}
330
17
100
AcDbMlineStyle
  2
Standard
 70
     0
  3

 62
   256
 51
90.0
 52
90.0
 71
     2
 49
0.5
 62
   256
  6
BYLAYER
 49
-0.5
 62
   256
  6
BYLAYER
  0
ACDBPLACEHOLDER
  5
F
102
{ACAD_REACTORS
330
E
102
}
330
E
  0
SCALE
  5
48
102
{ACAD_REACTORS
330
47
102
}
330
47
100
AcDbScale
 70
     0
300
1:1
140
1.0
141
1.0
290
     1
  0
SCALE
  5
49
102
{ACAD_REACTORS
330
47
102
}
330
47
100
AcDbScale
 70
     0
300
1:2
140
1.0
141
2.0
290
     0
  0
SCALE
  5
4A
102
{ACAD_REACTORS
330
47
102
}
330
47
100
AcDbScale
 70
     0
300
1:4
140
1.0
141
4.0
290
     0
  0
SCALE
  5
4B
102
{ACAD_REACTORS
330
47
102
}
330
47
100
AcDbScale
 70
     0
300
1:5
140
1.0
141
5.0
290
     0
  0
SCALE
  5
4C
102
{ACAD_REACTORS
330
47
102
}
330
47
100
AcDbScale
 70
     0
300
1:8
140
1.0
141
8.0
290
     0
  0
SCALE
  5
4D
102
{ACAD_REACTORS
330
47
102
}
330
47
100
AcDbScale
 70
     0
300
1:10
140
1.0
141
10.0
290
     0
  0
SCALE
  5
4E
102
{ACAD_REACTORS
330
47
102
}
330
47
100
AcDbScale
 70
     0
300
1:16
140
1.0
141
16.0
290
     0
  0
SCALE
  5
4F
102
{ACAD_REACTORS
330
47
102
}
330
47
100
AcDbScale
 70
     0
300
1:20
140
1.0
141
20.0
290
     0
  0
SCALE
  5
50
102
{ACAD_REACTORS
330
47
102
}
330
47
100
AcDbScale
 70
     0
300
1:30
140
1.0
141
30.0
290
     0
  0
SCALE
  5
51
102
{ACAD_REACTORS
330
47
102
}
330
47
100
AcDbScale
 70
     0
300
1:40
140
1.0
141
40.0
290
     0
  0
SCALE
  5
52
102
{ACAD_REACTORS
330
47
102
}
330
47
100
AcDbScale
 70
     0
300
1:50
140
1.0
141
50.0
290
     0
  0
SCALE
  5
53
102
{ACAD_REACTORS
330
47
102
}
330
47
100
AcDbScale
 70
     0
300
1:100
140
1.0
141
100.0
290
     0
  0
SCALE
  5
54
102
{ACAD_REACTORS
330
47
102
}
330
47
100
AcDbScale
 70
     0
300
2:1
140
2.0
141
1.0
290
     0
  0
SCALE
  5
55
102
{ACAD_REACTORS
330
47
102
}
330
47
100
AcDbScale
 70
     0
300
4:1
140
4.0
141
1.0
290
     0
  0
SCALE
  5
56
102
{ACAD_REACTORS
330
47
102
}
330
47
100
AcDbScale
 70
     0
300
8:1
140
8.0
141
1.0
290
     0
  0
SCALE
  5
57
102
{ACAD_REACTORS
330
47
102
}
330
47
100
AcDbScale
 70
     0
300
10:1
140
10.0
141
1.0
290
     0
  0
SCALE
  5
58
102
{ACAD_REACTORS
330
47
102
}
330
47
100
AcDbScale
 70
     0
300
100:1
140
100.0
141
1.0
290
     0
  0
SCALE
  5
59
102
{ACAD_REACTORS
330
47
102
}
330
47
100
AcDbScale
 70
     0
300
1/128" = 1'-0"
140
0.0078125
141
12.0
290
     0
  0
SCALE
  5
5A
102
{ACAD_REACTORS
330
47
102
}
330
47
100
AcDbScale
 70
     0
300
1/64" = 1'-0"
140
0.015625
141
12.0
290
     0
  0
SCALE
  5
5B
102
{ACAD_REACTORS
330
47
102
}
330
47
100
AcDbScale
 70
     0
300
1/32" = 1'-0"
140
0.03125
141
12.0
290
     0
  0
SCALE
  5
5C
102
{ACAD_REACTORS
330
47
102
}
330
47
100
AcDbScale
 70
     0
300
1/16" = 1'-0"
140
0.0625
141
12.0
290
     0
  0
SCALE
  5
5D
102
{ACAD_REACTORS
330
47
102
}
330
47
100
AcDbScale
 70
     0
300
3/32" = 1'-0"
140
0.09375
141
12.0
290
     0
  0
SCALE
  5
5E
102
{ACAD_REACTORS
330
47
102
}
330
47
100
AcDbScale
 70
     0
300
1/8" = 1'-0"
140
0.125
141
12.0
290
     0
  0
SCALE
  5
5F
102
{ACAD_REACTORS
330
47
102
}
330
47
100
AcDbScale
 70
     0
300
3/16" = 1'-0"
140
0.1875
141
12.0
290
     0
  0
SCALE
  5
60
102
{ACAD_REACTORS
330
47
102
}
330
47
100
AcDbScale
 70
     0
300
1/4" = 1'-0"
140
0.25
141
12.0
290
     0
  0
SCALE
  5
61
102
{ACAD_REACTORS
330
47
102
}
330
47
100
AcDbScale
 70
     0
300
3/8" = 1'-0"
140
0.375
141
12.0
290
     0
  0
SCALE
  5
62
102
{ACAD_REACTORS
330
47
102
}
330
47
100
AcDbScale
 70
     0
300
1/2" = 1'-0"
140
0.5
141
12.0
290
     0
  0
SCALE
  5
63
102
{ACAD_REACTORS
330
47
102
}
330
47
100
AcDbScale
 70
     0
300
3/4" = 1'-0"
140
0.75
141
12.0
290
     0
  0
SCALE
  5
64
102
{ACAD_REACTORS
330
47
102
}
330
47
100
AcDbScale
 70
     0
300
1" = 1'-0"
140
1.0
141
12.0
290
     0
  0
SCALE
  5
65
102
{ACAD_REACTORS
330
47
102
}
330
47
100
AcDbScale
 70
     0
300
1-1/2" = 1'-0"
140
1.5
141
12.0
290
     0
  0
SCALE
  5
66
102
{ACAD_REACTORS
330
47
102
}
330
47
100
AcDbScale
 70
     0
300
3" = 1'-0"
140
3.0
141
12.0
290
     0
  0
SCALE
  5
67
102
{ACAD_REACTORS
330
47
102
}
330
47
100
AcDbScale
 70
     0
300
6" = 1'-0"
140
6.0
141
12.0
290
     0
  0
SCALE
  5
68
102
{ACAD_REACTORS
330
47
102
}
330
47
100
AcDbScale
 70
     0
300
1'-0" = 1'-0"
140
12.0
141
12.0
290
     0
  0
ENDSEC
  0
EOF
