  0
SECTION
  2
HEADER
  9
$ACADVER
  1
AC1015
  9
$ACADMAINTVER
 70
     6
  9
$DWGCODEPAGE
  3
ANSI_949
  9
$INSBASE
 10
0.0
 20
0.0
 30
0.0
  9
$EXTMIN
 10
-29.45992727542973
 20
-39.9989250712761
 30
0.0
  9
$EXTMAX
 10
81.21241335422454
 20
38.96250000000003
 30
0.0
  9
$LIMMIN
 10
0.0
 20
0.0
  9
$LIMMAX
 10
420.0
 20
297.0
  9
$ORTHOMODE
 70
     1
  9
$REGENMODE
 70
     1
  9
$FILLMODE
 70
     1
  9
$QTEXTMODE
 70
     0
  9
$MIRRTEXT
 70
     1
  9
$LTSCALE
 40
1.0
  9
$ATTMODE
 70
     1
  9
$TEXTSIZE
 40
3.5
  9
$TRACEWID
 40
1.0
  9
$TEXTSTYLE
  7
Standard
  9
$CLAYER
  8
0
  9
$CELTYPE
  6
ByLayer
  9
$CECOLOR
 62
   256
  9
$CELTSCALE
 40
1.0
  9
$DISPSILH
 70
     0
  9
$DIMSCALE
 40
1.0
  9
$DIMASZ
 40
3.302
  9
$DIMEXO
 40
1.0
  9
$DIMDLI
 40
3.75
  9
$DIMRND
 40
0.0
  9
$DIMDLE
 40
0.0
  9
$DIMEXE
 40
1.0
  9
$DIMTP
 40
0.0
  9
$DIMTM
 40
0.0
  9
$DIMTXT
 40
3.5
  9
$DIMCEN
 40
2.5
  9
$DIMTSZ
 40
0.0
  9
$DIMTOL
 70
     0
  9
$DIMLIM
 70
     0
  9
$DIMTIH
 70
     1
  9
$DIMTOH
 70
     1
  9
$DIMSE1
 70
     0
  9
$DIMSE2
 70
     0
  9
$DIMTAD
 70
     1
  9
$DIMZIN
 70
     0
  9
$DIMBLK
  1

  9
$DIMASO
 70
     1
  9
$DIMSHO
 70
     1
  9
$DIMPOST
  1

  9
$DIMAPOST
  1

  9
$DIMALT
 70
     0
  9
$DIMALTD
 70
     3
  9
$DIMALTF
 40
0.0393700787401575
  9
$DIMLFAC
 40
1.0
  9
$DIMTOFL
 70
     1
  9
$DIMTVP
 40
0.0
  9
$DIMTIX
 70
     0
  9
$DIMSOXD
 70
     0
  9
$DIMSAH
 70
     0
  9
$DIMBLK1
  1

  9
$DIMBLK2
  1

  9
$DIMSTYLE
  2
ISO-25
  9
$DIMCLRD
 70
     0
  9
$DIMCLRE
 70
     0
  9
$DIMCLRT
 70
     0
  9
$DIMTFAC
 40
1.0
  9
$DIMGAP
 40
1.524
  9
$DIMJUST
 70
     0
  9
$DIMSD1
 70
     0
  9
$DIMSD2
 70
     0
  9
$DIMTOLJ
 70
     0
  9
$DIMTZIN
 70
     0
  9
$DIMALTZ
 70
     0
  9
$DIMALTTZ
 70
     0
  9
$DIMUPT
 70
     0
  9
$DIMDEC
 70
     2
  9
$DIMTDEC
 70
     2
  9
$DIMALTU
 70
     2
  9
$DIMALTTD
 70
     3
  9
$DIMTXSTY
  7
Standard
  9
$DIMAUNIT
 70
     0
  9
$DIMADEC
 70
     2
  9
$DIMALTRND
 40
0.0
  9
$DIMAZIN
 70
     0
  9
$DIMDSEP
 70
    44
  9
$DIMATFIT
 70
     3
  9
$DIMFRAC
 70
     0
  9
$DIMLDRBLK
  1

  9
$DIMLUNIT
 70
     2
  9
$DIMLWD
 70
    -2
  9
$DIMLWE
 70
    -2
  9
$DIMTMOVE
 70
     0
  9
$LUNITS
 70
     2
  9
$LUPREC
 70
     2
  9
$SKETCHINC
 40
1.0
  9
$FILLETRAD
 40
10.0
  9
$AUNITS
 70
     0
  9
$AUPREC
 70
     2
  9
$MENU
  1
.
  9
$ELEVATION
 40
0.0
  9
$PELEVATION
 40
0.0
  9
$THICKNESS
 40
0.0
  9
$LIMCHECK
 70
     0
  9
$CHAMFERA
 40
0.0
  9
$CHAMFERB
 40
0.0
  9
$CHAMFERC
 40
0.0
  9
$CHAMFERD
 40
0.0
  9
$SKPOLY
 70
     0
  9
$TDCREATE
 40
2458313.423049352
  9
$TDUCREATE
 40
2458313.048049352
  9
$TDUPDATE
 40
2459719.632603391
  9
$TDUUPDATE
 40
2459719.257603391
  9
$TDINDWG
 40
0.0073912847
  9
$TDUSRTIMER
 40
0.0004949884
  9
$USRTIMER
 70
     1
  9
$ANGBASE
 50
0.0
  9
$ANGDIR
 70
     0
  9
$PDMODE
 70
     0
  9
$PDSIZE
 40
-1.0
  9
$PLINEWID
 40
0.0
  9
$SPLFRAME
 70
     0
  9
$SPLINETYPE
 70
     6
  9
$SPLINESEGS
 70
     8
  9
$HANDSEED
  5
373
  9
$SURFTAB1
 70
     6
  9
$SURFTAB2
 70
     6
  9
$SURFTYPE
 70
     6
  9
$SURFU
 70
     6
  9
$SURFV
 70
     6
  9
$UCSBASE
  2

  9
$UCSNAME
  2

  9
$UCSORG
 10
0.0
 20
0.0
 30
0.0
  9
$UCSXDIR
 10
1.0
 20
0.0
 30
0.0
  9
$UCSYDIR
 10
0.0
 20
1.0
 30
0.0
  9
$UCSORTHOREF
  2

  9
$UCSORTHOVIEW
 70
     0
  9
$UCSORGTOP
 10
0.0
 20
0.0
 30
0.0
  9
$UCSORGBOTTOM
 10
0.0
 20
0.0
 30
0.0
  9
$UCSORGLEFT
 10
0.0
 20
0.0
 30
0.0
  9
$UCSORGRIGHT
 10
0.0
 20
0.0
 30
0.0
  9
$UCSORGFRONT
 10
0.0
 20
0.0
 30
0.0
  9
$UCSORGBACK
 10
0.0
 20
0.0
 30
0.0
  9
$PUCSBASE
  2

  9
$PUCSNAME
  2

  9
$PUCSORG
 10
0.0
 20
0.0
 30
0.0
  9
$PUCSXDIR
 10
1.0
 20
0.0
 30
0.0
  9
$PUCSYDIR
 10
0.0
 20
1.0
 30
0.0
  9
$PUCSORTHOREF
  2

  9
$PUCSORTHOVIEW
 70
     0
  9
$PUCSORGTOP
 10
0.0
 20
0.0
 30
0.0
  9
$PUCSORGBOTTOM
 10
0.0
 20
0.0
 30
0.0
  9
$PUCSORGLEFT
 10
0.0
 20
0.0
 30
0.0
  9
$PUCSORGRIGHT
 10
0.0
 20
0.0
 30
0.0
  9
$PUCSORGFRONT
 10
0.0
 20
0.0
 30
0.0
  9
$PUCSORGBACK
 10
0.0
 20
0.0
 30
0.0
  9
$USERI1
 70
     0
  9
$USERI2
 70
     0
  9
$USERI3
 70
     0
  9
$USERI4
 70
     0
  9
$USERI5
 70
     0
  9
$USERR1
 40
0.0
  9
$USERR2
 40
0.0
  9
$USERR3
 40
0.0
  9
$USERR4
 40
0.0
  9
$USERR5
 40
0.0
  9
$WORLDVIEW
 70
     1
  9
$SHADEDGE
 70
     3
  9
$SHADEDIF
 70
    70
  9
$TILEMODE
 70
     1
  9
$MAXACTVP
 70
    64
  9
$PINSBASE
 10
0.0
 20
0.0
 30
0.0
  9
$PLIMCHECK
 70
     0
  9
$PEXTMIN
 10
1.000000000000000E+20
 20
1.000000000000000E+20
 30
1.000000000000000E+20
  9
$PEXTMAX
 10
-1.000000000000000E+20
 20
-1.000000000000000E+20
 30
-1.000000000000000E+20
  9
$PLIMMIN
 10
0.0
 20
0.0
  9
$PLIMMAX
 10
0.0
 20
0.0
  9
$UNITMODE
 70
     0
  9
$VISRETAIN
 70
     1
  9
$PLINEGEN
 70
     0
  9
$PSLTSCALE
 70
     1
  9
$TREEDEPTH
 70
  3020
  9
$CMLSTYLE
  2
Standard
  9
$CMLJUST
 70
     0
  9
$CMLSCALE
 40
20.0
  9
$PROXYGRAPHICS
 70
     1
  9
$MEASUREMENT
 70
     1
  9
$CELWEIGHT
370
    -1
  9
$ENDCAPS
280
     0
  9
$JOINSTYLE
280
     0
  9
$LWDISPLAY
290
     1
  9
$INSUNITS
 70
     4
  9
$HYPERLINKBASE
  1

  9
$STYLESHEET
  1

  9
$XEDIT
290
     1
  9
$CEPSNTYPE
380
     0
  9
$PSTYLEMODE
290
     1
  9
$FINGERPRINTGUID
  2
{DFAC38EA-1BAE-41CA-B1E4-A79DC84F6428}
  9
$VERSIONGUID
  2
{FAEB1C32-E019-11D5-929B-00C0DF256EC4}
  9
$EXTNAMES
290
     1
  9
$PSVPSCALE
 40
0.0
  9
$OLESTARTUP
290
     0
  0
ENDSEC
  0
SECTION
  2
CLASSES
  0
CLASS
  1
ACDBDICTIONARYWDFLT
  2
AcDbDictionaryWithDefault
  3
ObjectDBX Classes
 90
        0
280
     0
281
     0
  0
CLASS
  1
VISUALSTYLE
  2
AcDbVisualStyle
  3
ObjectDBX Classes
 90
     4095
280
     0
281
     0
  0
CLASS
  1
MATERIAL
  2
AcDbMaterial
  3
ObjectDBX Classes
 90
     1153
280
     0
281
     0
  0
CLASS
  1
SCALE
  2
AcDbScale
  3
ObjectDBX Classes
 90
     1153
280
     0
281
     0
  0
CLASS
  1
SUN
  2
AcDbSun
  3
SCENEOE
 90
     1153
280
     0
281
     0
  0
CLASS
  1
ACDBPLACEHOLDER
  2
AcDbPlaceHolder
  3
ObjectDBX Classes
 90
        0
280
     0
281
     0
  0
CLASS
  1
LAYOUT
  2
AcDbLayout
  3
ObjectDBX Classes
 90
        0
280
     0
281
     0
  0
CLASS
  1
TABLESTYLE
  2
AcDbTableStyle
  3
ObjectDBX Classes
 90
     4095
280
     0
281
     0
  0
CLASS
  1
MLEADERSTYLE
  2
AcDbMLeaderStyle
  3
ACDB_MLEADERSTYLE_CLASS
 90
     4095
280
     0
281
     0
  0
CLASS
  1
RASTERVARIABLES
  2
AcDbRasterVariables
  3
ISM
 90
        0
280
     0
281
     0
  0
ENDSEC
  0
SECTION
  2
TABLES
  0
TABLE
  2
VPORT
  5
8
330
0
100
AcDbSymbolTable
 70
     1
  0
VPORT
  5
29
330
8
100
AcDbSymbolTableRecord
100
AcDbViewportTableRecord
  2
*Active
 70
     0
 10
0.0
 20
0.0
 11
1.0
 21
1.0
 12
5.301356251588722
 22
6.564394171289901
 13
0.0
 23
0.0
 14
10.0
 24
10.0
 15
10.0
 25
10.0
 16
0.0
 26
0.0
 36
1.0
 17
0.0
 27
0.0
 37
0.0
 40
83.32176721537692
 41
1.519944979367263
 42
50.0
 43
0.0
 44
0.0
 50
0.0
 51
0.0
 71
    16
 72
  2000
 73
     1
 74
     3
 75
     0
 76
     0
 77
     0
 78
     0
281
     0
 65
     1
110
0.0
120
0.0
130
0.0
111
1.0
121
0.0
131
0.0
112
0.0
122
1.0
132
0.0
 79
     0
146
0.0
  0
ENDTAB
  0
TABLE
  2
LTYPE
  5
5
330
0
100
AcDbSymbolTable
 70
     6
  0
LTYPE
  5
14
330
5
100
AcDbSymbolTableRecord
100
AcDbLinetypeTableRecord
  2
ByBlock
 70
     0
  3

 72
    65
 73
     0
 40
0.0
  0
LTYPE
  5
15
330
5
100
AcDbSymbolTableRecord
100
AcDbLinetypeTableRecord
  2
ByLayer
 70
     0
  3

 72
    65
 73
     0
 40
0.0
  0
LTYPE
  5
16
330
5
100
AcDbSymbolTableRecord
100
AcDbLinetypeTableRecord
  2
Continuous
 70
     0
  3
Solid line
 72
    65
 73
     0
 40
0.0
  0
LTYPE
  5
6A
330
5
100
AcDbSymbolTableRecord
100
AcDbLinetypeTableRecord
  2
HIDDEN
 70
     0
  3
Hidden __ __ __ __ __ __ __ __ __ __ __ __ __ __
 72
    65
 73
     2
 40
1.905
 49
1.27
 74
     0
 49
-0.635
 74
     0
  0
LTYPE
  5
6B
330
5
100
AcDbSymbolTableRecord
100
AcDbLinetypeTableRecord
  2
PHANTOM
 70
     0
  3
Phantom ______  __  __  ______  __  __  ______
 72
    65
 73
     6
 40
12.7
 49
6.35
 74
     0
 49
-1.27
 74
     0
 49
1.27
 74
     0
 49
-1.27
 74
     0
 49
1.27
 74
     0
 49
-1.27
 74
     0
  0
LTYPE
  5
6C
330
5
100
AcDbSymbolTableRecord
100
AcDbLinetypeTableRecord
  2
CENTER
 70
     0
  3
Center ____ _ ____ _ ____ _ ____ _ ____ _ ____
 72
    65
 73
     4
 40
10.16
 49
6.35
 74
     0
 49
-1.27
 74
     0
 49
1.27
 74
     0
 49
-1.27
 74
     0
  0
LTYPE
  5
6D
330
5
100
AcDbSymbolTableRecord
100
AcDbLinetypeTableRecord
  2
CENTERX2
 70
     0
  3
Center (2x) ________  __  ________  __  _____
 72
    65
 73
     4
 40
20.32
 49
12.7
 74
     0
 49
-2.54
 74
     0
 49
2.54
 74
     0
 49
-2.54
 74
     0
  0
LTYPE
  5
6E
330
5
100
AcDbSymbolTableRecord
100
AcDbLinetypeTableRecord
  2
DOT2
 70
     0
  3
Dot (.5x) ........................................
 72
    65
 73
     2
 40
0.635
 49
0.0
 74
     0
 49
-0.635
 74
     0
  0
ENDTAB
  0
TABLE
  2
LAYER
  5
2
330
0
100
AcDbSymbolTable
 70
    18
  0
LAYER
  5
10
330
2
100
AcDbSymbolTableRecord
100
AcDbLayerTableRecord
  2
0
 70
     0
 62
     7
  6
Continuous
370
    -3
390
F
  0
LAYER
  5
6F
330
2
100
AcDbSymbolTableRecord
100
AcDbLayerTableRecord
  2
FORMAT
 70
     0
 62
     2
  6
Continuous
370
    -3
390
F
  0
LAYER
  5
70
330
2
100
AcDbSymbolTableRecord
100
AcDbLayerTableRecord
  2
외형선
 70
     0
 62
     4
  6
Continuous
370
    30
390
F
  0
LAYER
  5
71
330
2
100
AcDbSymbolTableRecord
100
AcDbLayerTableRecord
  2
숨은선
 70
     0
 62
     2
  6
HIDDEN
370
    15
390
F
  0
LAYER
  5
72
330
2
100
AcDbSymbolTableRecord
100
AcDbLayerTableRecord
  2
중심선
 70
     0
 62
     1
  6
CENTERX2
370
    -3
390
F
  0
LAYER
  5
73
330
2
100
AcDbSymbolTableRecord
100
AcDbLayerTableRecord
  2
파단선
 70
     0
 62
     4
  6
Continuous
370
    -3
390
F
  0
LAYER
  5
74
330
2
100
AcDbSymbolTableRecord
100
AcDbLayerTableRecord
  2
해칭선
 70
     0
 62
   100
  6
Continuous
370
    -3
390
F
  0
LAYER
  5
75
330
2
100
AcDbSymbolTableRecord
100
AcDbLayerTableRecord
  2
가는실선
 70
     0
 62
     4
  6
Continuous
370
    -3
390
F
  0
LAYER
  5
76
330
2
100
AcDbSymbolTableRecord
100
AcDbLayerTableRecord
  2
치수_보조선
 70
     0
 62
     4
  6
Continuous
370
    -3
390
F
  0
LAYER
  5
77
330
2
100
AcDbSymbolTableRecord
100
AcDbLayerTableRecord
  2
치수문자_일반주서
 70
     0
 62
     7
  6
Continuous
370
    15
390
F
  0
LAYER
  5
78
330
2
100
AcDbSymbolTableRecord
100
AcDbLayerTableRecord
  2
개별주서
 70
     0
 62
   100
  6
Continuous
370
    30
390
F
  0
LAYER
  5
79
330
2
100
AcDbSymbolTableRecord
100
AcDbLayerTableRecord
  2
중간선
 70
     0
 62
     2
  6
Continuous
370
    15
390
F
  0
LAYER
  5
7A
330
2
100
AcDbSymbolTableRecord
100
AcDbLayerTableRecord
  2
윤곽선
 70
     0
 62
     3
  6
Continuous
370
    40
390
F
  0
LAYER
  5
7B
330
2
100
AcDbSymbolTableRecord
100
AcDbLayerTableRecord
  2
중심마크
 70
     0
 62
   100
  6
Continuous
370
    30
390
F
  0
LAYER
  5
7C
330
2
100
AcDbSymbolTableRecord
100
AcDbLayerTableRecord
  2
가상선
 70
     0
 62
     4
  6
PHANTOM
370
    -3
390
F
  0
LAYER
  5
7D
330
2
100
AcDbSymbolTableRecord
100
AcDbLayerTableRecord
  2
특수지정선
 70
     0
 62
     5
  6
CENTERX2
370
    60
390
F
  0
LAYER
  5
7E
330
2
100
AcDbSymbolTableRecord
100
AcDbLayerTableRecord
  2
참조1
 70
     0
 62
    -4
  6
Continuous
370
    -3
390
F
  0
LAYER
  5
164
330
2
100
AcDbSymbolTableRecord
100
AcDbLayerTableRecord
  2
Defpoints
 70
     0
 62
     7
  6
Continuous
290
     0
370
    -3
390
F
  0
ENDTAB
  0
TABLE
  2
STYLE
  5
3
330
0
100
AcDbSymbolTable
 70
     2
  0
STYLE
  5
11
330
3
100
AcDbSymbolTableRecord
100
AcDbTextStyleTableRecord
  2
Standard
 70
     0
 40
0.0
 41
1.0
 50
0.0
 71
     0
 42
3.5
  3
txt
  4

  0
STYLE
  5
94
330
3
100
AcDbSymbolTableRecord
100
AcDbTextStyleTableRecord
  2
SLDTEXTSTYLE0
 70
     0
 40
0.0
 41
0.75
 50
0.0
 71
     0
 42
3.5
  3
TXT
  4

  0
ENDTAB
  0
TABLE
  2
VIEW
  5
6
330
0
100
AcDbSymbolTable
 70
     0
  0
ENDTAB
  0
TABLE
  2
UCS
  5
7
330
0
100
AcDbSymbolTable
 70
     0
  0
ENDTAB
  0
TABLE
  2
APPID
  5
9
330
0
100
AcDbSymbolTable
 70
     1
  0
APPID
  5
12
330
9
100
AcDbSymbolTableRecord
100
AcDbRegAppTableRecord
  2
ACAD
 70
     0
  0
ENDTAB
  0
TABLE
  2
DIMSTYLE
  5
A
330
0
100
AcDbSymbolTable
 70
     4
100
AcDbDimStyleTable
  0
DIMSTYLE
105
27
330
A
100
AcDbSymbolTableRecord
100
AcDbDimStyleTableRecord
  2
ISO-25
 70
     0
 41
2.5
 42
0.625
 43
3.75
 44
1.25
 73
     0
 74
     0
 77
     1
 78
     8
140
2.5
141
2.5
143
0.03937007874016
147
0.625
171
     3
172
     1
178
     0
271
     2
272
     2
274
     3
278
    44
283
     0
284
     8
340
11
  0
DIMSTYLE
105
DF
102
{ACAD_REACTORS
330
DE
330
108
330
F3
330
11D
102
}
330
A
100
AcDbSymbolTableRecord
100
AcDbDimStyleTableRecord
  2
SLDDIMSTYLE0
 70
     0
 41
3.302
 44
0.0
 45
0.000000001
 73
     0
 74
     0
 77
     1
 78
    12
 79
     3
140
3.5
143
0.0393700787401575
147
0.875
148
0.000000001
170
     1
172
     1
173
     1
178
     0
271
     2
272
     2
276
     2
284
    12
289
     0
340
94
  0
DIMSTYLE
105
F4
330
A
100
AcDbSymbolTableRecord
100
AcDbDimStyleTableRecord
  2
SLDDIMSTYLE1
 70
     0
 41
3.302
 44
0.0
 45
0.000000001
 73
     0
 74
     0
 77
     1
 78
     8
 79
     2
140
3.5
143
0.0393700787401575
147
0.875
148
0.000000001
170
     1
172
     1
173
     1
178
     0
271
     2
272
     2
276
     2
284
    12
289
     0
340
94
  0
DIMSTYLE
105
11E
330
A
100
AcDbSymbolTableRecord
100
AcDbDimStyleTableRecord
  2
SLDDIMSTYLE2
 70
     0
 41
3.302
 44
0.0
 45
0.000000001
 73
     0
 74
     0
 77
     1
 78
     4
 79
     1
140
3.5
143
0.0393700787401575
147
0.875
148
0.000000001
170
     1
173
     1
178
     0
271
     2
272
     2
276
     2
284
    12
340
94
  0
ENDTAB
  0
TABLE
  2
BLOCK_RECORD
  5
1
330
0
100
AcDbSymbolTable
 70
    18
  0
BLOCK_RECORD
  5
1F
102
{ACAD_XDICTIONARY
360
370
102
}
330
1
100
AcDbSymbolTableRecord
100
AcDbBlockTableRecord
  2
*Model_Space
340
22
  0
BLOCK_RECORD
  5
1B
330
1
100
AcDbSymbolTableRecord
100
AcDbBlockTableRecord
  2
*Paper_Space
340
1E
  0
BLOCK_RECORD
  5
23
330
1
100
AcDbSymbolTableRecord
100
AcDbBlockTableRecord
  2
*Paper_Space0
340
26
  0
BLOCK_RECORD
  5
7F
330
1
100
AcDbSymbolTableRecord
100
AcDbBlockTableRecord
  2
블럭10
340
0
102
{BLKREFS
331
D7
102
}
  0
BLOCK_RECORD
  5
E0
330
1
100
AcDbSymbolTableRecord
100
AcDbBlockTableRecord
  2
_D
340
0
  0
BLOCK_RECORD
  5
F5
330
1
100
AcDbSymbolTableRecord
100
AcDbBlockTableRecord
  2
_D_1
340
0
  0
BLOCK_RECORD
  5
109
330
1
100
AcDbSymbolTableRecord
100
AcDbBlockTableRecord
  2
_D_2
340
0
  0
BLOCK_RECORD
  5
11F
330
1
100
AcDbSymbolTableRecord
100
AcDbBlockTableRecord
  2
_D_3
340
0
  0
BLOCK_RECORD
  5
138
330
1
100
AcDbSymbolTableRecord
100
AcDbBlockTableRecord
  2
SW_DOWELSYMBOL_0
340
0
102
{BLKREFS
331
13E
102
}
  0
BLOCK_RECORD
  5
21E
330
1
100
AcDbSymbolTableRecord
100
AcDbBlockTableRecord
  2
*D7
340
0
  0
BLOCK_RECORD
  5
22D
330
1
100
AcDbSymbolTableRecord
100
AcDbBlockTableRecord
  2
*D8
340
0
  0
BLOCK_RECORD
  5
239
330
1
100
AcDbSymbolTableRecord
100
AcDbBlockTableRecord
  2
*D9
340
0
  0
BLOCK_RECORD
  5
248
330
1
100
AcDbSymbolTableRecord
100
AcDbBlockTableRecord
  2
*D10
340
0
  0
BLOCK_RECORD
  5
2A9
330
1
100
AcDbSymbolTableRecord
100
AcDbBlockTableRecord
  2
*D11
340
0
  0
BLOCK_RECORD
  5
2B8
330
1
100
AcDbSymbolTableRecord
100
AcDbBlockTableRecord
  2
*D12
340
0
  0
BLOCK_RECORD
  5
2C4
330
1
100
AcDbSymbolTableRecord
100
AcDbBlockTableRecord
  2
*D13
340
0
  0
BLOCK_RECORD
  5
2D3
330
1
100
AcDbSymbolTableRecord
100
AcDbBlockTableRecord
  2
*D14
340
0
  0
BLOCK_RECORD
  5
321
330
1
100
AcDbSymbolTableRecord
100
AcDbBlockTableRecord
  2
*D15
340
0
  0
BLOCK_RECORD
  5
330
330
1
100
AcDbSymbolTableRecord
100
AcDbBlockTableRecord
  2
*D16
340
0
  0
BLOCK_RECORD
  5
33F
330
1
100
AcDbSymbolTableRecord
100
AcDbBlockTableRecord
  2
*D17
340
0
  0
ENDTAB
  0
ENDSEC
  0
SECTION
  2
BLOCKS
  0
BLOCK
  5
20
330
1F
100
AcDbEntity
  8
0
100
AcDbBlockBegin
  2
*Model_Space
 70
     0
 10
0.0
 20
0.0
 30
0.0
  3
*Model_Space
  1
*Model_Space
  0
ENDBLK
  5
21
330
1F
100
AcDbEntity
  8
0
100
AcDbBlockEnd
  0
BLOCK
  5
1C
330
1B
100
AcDbEntity
 67
     1
  8
0
100
AcDbBlockBegin
  2
*Paper_Space
 70
     0
 10
0.0
 20
0.0
 30
0.0
  3
*Paper_Space
  1
*Paper_Space
  0
ENDBLK
  5
1D
330
1B
100
AcDbEntity
 67
     1
  8
0
100
AcDbBlockEnd
  0
BLOCK
  5
24
330
23
100
AcDbEntity
  8
0
100
AcDbBlockBegin
  2
*Paper_Space0
 70
     0
 10
0.0
 20
0.0
 30
0.0
  3
*Paper_Space0
  1
*Paper_Space0
  0
ENDBLK
  5
25
330
23
100
AcDbEntity
  8
0
100
AcDbBlockEnd
  0
BLOCK
  5
80
330
7F
100
AcDbEntity
  8
0
100
AcDbBlockBegin
  2
블럭10
 70
     2
 10
0.0
 20
0.0
 30
0.0
  3
블럭10
  1
블럭10
  0
ELLIPSE
  5
82
330
7F
100
AcDbEntity
  8
중심선
100
AcDbEllipse
 10
20.54032771741204
 20
12.0471743016438
 30
0.0
 11
6.600054785286829
 21
-1.261213355974178E-13
 31
0.0
210
0.0
220
0.0
230
1.0
 40
0.636358354079598
 41
0.9219305317359503
 42
6.513795318482858
  0
ELLIPSE
  5
83
330
7F
100
AcDbEntity
  8
중심선
100
AcDbEllipse
 10
20.54032771746488
 20
12.04717430159265
 30
0.0
 11
3.960054785062283
 21
1.540847449632565E-10
 31
0.0
210
0.0
220
0.0
230
1.0
 40
0.3939339440162632
 41
1.131841032648279
 42
5.62031148352944
  0
LINE
  5
84
330
7F
100
AcDbEntity
  8
중심선
100
AcDbLine
 10
2.268634060543552
 20
16.24717430164393
 30
0.0
 11
5.714909304380834
 21
16.24717430164393
 31
0.0
  0
LINE
  5
85
330
7F
100
AcDbEntity
  8
중심선
100
AcDbLine
 10
5.245725140726316
 20
7.84717430164391
 30
0.0
 11
8.692000384563599
 21
7.84717430164391
 31
0.0
  0
LINE
  5
86
330
7F
100
AcDbEntity
  8
중심선
100
AcDbLine
 10
15.74043728645272
 20
16.24717430164393
 30
0.0
 11
8.692000384563599
 21
7.84717430164391
 31
0.0
  0
LINE
  5
87
330
7F
100
AcDbEntity
  8
중심선
100
AcDbLine
 10
0.1404042013395286
 20
13.71084872107135
 30
0.0
 11
3.58671253028996
 21
13.71088815037384
 31
0.0
  0
LINE
  5
88
330
7F
100
AcDbEntity
  8
중심선
100
AcDbLine
 10
2.750260043222114
 20
10.84717430164391
 30
0.0
 11
6.196535287059397
 21
10.84717430164391
 31
0.0
  0
LINE
  5
89
330
7F
100
AcDbEntity
  8
중심선
100
AcDbLine
 10
12.29416204261559
 20
16.24717430164393
 30
0.0
 11
5.245725140726316
 21
7.84717430164391
 31
0.0
  0
LINE
  5
8A
330
7F
100
AcDbEntity
  8
중심선
100
AcDbLine
 10
10.72767329541681
 20
16.24717430164393
 30
0.0
 11
6.196535287059397
 21
10.84717430164391
 31
0.0
  0
LINE
  5
8B
330
7F
100
AcDbEntity
  8
중심선
100
AcDbLine
 10
7.28139805157953
 20
16.24717430164393
 30
0.0
 11
2.750260043222114
 21
10.84717430164391
 31
0.0
  0
LINE
  5
8C
330
7F
100
AcDbEntity
  8
중심선
100
AcDbLine
 10
5.714909304380834
 20
16.24717430164393
 30
0.0
 11
3.58671253028996
 21
13.71088815037384
 31
0.0
  0
LINE
  5
8D
330
7F
100
AcDbEntity
  8
중심선
100
AcDbLine
 10
2.268634060543552
 20
16.24717430164393
 30
0.0
 11
0.1404042013395286
 21
13.71084872107135
 31
0.0
  0
LINE
  5
8E
330
7F
100
AcDbEntity
  8
중심선
100
AcDbLine
 10
7.28139805157953
 20
16.24717430164393
 30
0.0
 11
10.72767329541681
 21
16.24717430164393
 31
0.0
  0
LINE
  5
8F
330
7F
100
AcDbEntity
  8
중심선
100
AcDbLine
 10
12.29416204261559
 20
16.24717430164393
 30
0.0
 11
15.74043728645272
 21
16.24717430164393
 31
0.0
  0
LINE
  5
90
330
7F
100
AcDbEntity
  8
중심선
100
AcDbLine
 10
19.22036997980202
 20
11.08717430171403
 30
0.0
 11
23.66174974927406
 21
11.08717430171406
 31
0.0
  0
LINE
  5
91
330
7F
100
AcDbEntity
  8
중심선
100
AcDbLine
 10
19.22039502424796
 20
13.00717430171391
 30
0.0
 11
19.22036997980202
 21
11.08717430171403
 31
0.0
  0
LINE
  5
92
330
7F
100
AcDbEntity
  8
중심선
100
AcDbLine
 10
19.22039502424796
 20
13.00717430171391
 30
0.0
 11
26.96566020931264
 21
13.00717430171391
 31
0.0
  0
LINE
  5
93
330
7F
100
AcDbEntity
  8
중심선
100
AcDbLine
 10
22.22332737316547
 20
13.45928029700563
 30
0.0
 11
24.52862924686651
 21
15.39360700705356
 31
0.0
  0
ATTDEF
  5
95
330
7F
100
AcDbEntity
  8
FORMAT
 62
     2
100
AcDbText
 10
4.408487351596664
 20
2.075366912832191
 30
0.0
 40
4.233333333333333
  1
E5022002
 41
0.75
  7
SLDTEXTSTYLE0
 11
4.408487351596664
 21
-0.0412997538344756
 31
0.0
100
AcDbAttributeDefinition
  3

  2
AUTOATTR0
 70
     0
 74
     1
  0
ENDBLK
  5
81
330
7F
100
AcDbEntity
  8
0
100
AcDbBlockEnd
  0
BLOCK
  5
E1
330
E0
100
AcDbEntity
  8
0
100
AcDbBlockBegin
  2
_D
 70
     0
 10
0.0
 20
0.0
 30
0.0
  3
_D
  1
_D
  0
LINE
  5
E3
330
E0
100
AcDbEntity
  8
치수문자_일반주서
 62
     0
370
    -2
100
AcDbLine
 10
-12.58152700723831
 20
1.587499999999998
 30
0.0
 11
-25.16186866495518
 21
1.587499999999951
 31
0.0
  0
LINE
  5
E4
330
E0
100
AcDbEntity
  8
치수문자_일반주서
 62
     0
370
    -2
100
AcDbLine
 10
-12.58152700723831
 20
-1.587500000000003
 30
0.0
 11
-25.16186866495517
 21
-1.58750000000005
 31
0.0
  0
LINE
  5
E5
330
E0
100
AcDbEntity
  8
치수문자_일반주서
 62
     0
370
    -2
100
AcDbLine
 10
-25.16186866495518
 20
1.587499999999951
 30
0.0
 11
-25.16186866495526
 21
24.82739206633252
 31
0.0
  0
LINE
  5
E6
330
E0
100
AcDbEntity
  8
치수문자_일반주서
 62
     0
370
    -2
100
AcDbLine
 10
-25.16186866495518
 20
1.587499999999951
 30
0.0
 11
-25.16186866495517
 21
-1.58750000000005
 31
0.0
  0
LINE
  5
E7
330
E0
100
AcDbEntity
  8
치수문자_일반주서
 62
     0
370
    -2
100
AcDbLine
 10
-25.16186866495519
 20
4.087499999999951
 30
0.0
 11
-25.1618686649552
 21
6.587499999999951
 31
0.0
  0
LINE
  5
E8
330
E0
100
AcDbEntity
  8
치수문자_일반주서
 62
     0
370
    -2
100
AcDbLine
 10
-25.16186866495516
 20
-4.08750000000005
 30
0.0
 11
-25.16186866495516
 21
-6.58750000000005
 31
0.0
  0
SOLID
  5
E9
330
E0
100
AcDbEntity
  8
치수문자_일반주서
 62
     0
100
AcDbTrace
 10
-25.57853533162186
 20
4.087499999999949
 30
0.0
 11
-24.74520199828852
 21
4.087499999999952
 31
0.0
 12
-25.16186866495518
 22
1.587499999999951
 32
0.0
 13
-25.16186866495518
 23
1.587499999999951
 33
0.0
  0
SOLID
  5
EA
330
E0
100
AcDbEntity
  8
치수문자_일반주서
 62
     0
100
AcDbTrace
 10
-24.7452019982885
 20
-4.087500000000048
 30
0.0
 11
-25.57853533162183
 21
-4.087500000000052
 31
0.0
 12
-25.16186866495517
 22
-1.58750000000005
 32
0.0
 13
-25.16186866495517
 23
-1.58750000000005
 33
0.0
  0
MTEXT
  5
EB
330
E0
100
AcDbEntity
  8
치수문자_일반주서
 62
     0
100
AcDbMText
 10
-28.53686866495523
 20
15.82739206633251
 30
0.0
 40
2.5
 41
0.0
 71
     2
 72
     1
  1
\A1;%%c3.18 [1/8]
  7
SLDTEXTSTYLE0
 11
-3.356894814614645E-15
 21
1.0
 31
0.0
 73
     1
 44
1.0
  0
POINT
  5
2E1
330
E0
100
AcDbEntity
  8
Defpoints
 62
     0
100
AcDbPoint
 10
-12.51902700723831
 20
1.587499999999998
 30
0.0
  0
POINT
  5
2E2
330
E0
100
AcDbEntity
  8
Defpoints
 62
     0
100
AcDbPoint
 10
-12.51902700723831
 20
-1.587500000000003
 30
0.0
  0
POINT
  5
2E3
330
E0
100
AcDbEntity
  8
Defpoints
 62
     0
100
AcDbPoint
 10
-25.16186866495515
 20
-1.58750000000005
 30
0.0
  0
ENDBLK
  5
E2
330
E0
100
AcDbEntity
  8
0
100
AcDbBlockEnd
  0
BLOCK
  5
F6
330
F5
100
AcDbEntity
  8
0
100
AcDbBlockBegin
  2
_D_1
 70
     0
 10
0.0
 20
0.0
 30
0.0
  3
_D_1
  1
_D_1
  0
LINE
  5
F8
330
F5
100
AcDbEntity
  8
치수문자_일반주서
 62
     0
370
    -2
100
AcDbLine
 10
19.11250000000002
 20
-0.3965395672942634
 30
0.0
 11
29.60809326342434
 21
-0.3965395672942247
 31
0.0
  0
LINE
  5
F9
330
F5
100
AcDbEntity
  8
치수문자_일반주서
 62
     0
370
    -2
100
AcDbLine
 10
19.11250000000002
 20
0.3965395672942662
 30
0.0
 11
29.60809326342434
 21
0.3965395672943046
 31
0.0
  0
LINE
  5
FA
330
F5
100
AcDbEntity
  8
치수문자_일반주서
 62
     0
370
    -2
100
AcDbLine
 10
29.60809326342434
 20
0.3965395672943046
 30
0.0
 11
29.60809326342423
 21
24.0215395672943
 31
0.0
  0
LINE
  5
FB
330
F5
100
AcDbEntity
  8
치수문자_일반주서
 62
     0
370
    -2
100
AcDbLine
 10
29.60809326342434
 20
-0.3965395672942247
 30
0.0
 11
29.60809326342434
 21
0.3965395672943046
 31
0.0
  0
LINE
  5
FC
330
F5
100
AcDbEntity
  8
치수문자_일반주서
 62
     0
370
    -2
100
AcDbLine
 10
29.60809326342435
 20
-2.896539567294225
 30
0.0
 11
29.60809326342436
 21
-5.396539567294225
 31
0.0
  0
LINE
  5
FD
330
F5
100
AcDbEntity
  8
치수문자_일반주서
 62
     0
370
    -2
100
AcDbLine
 10
29.60809326342433
 20
2.896539567294305
 30
0.0
 11
29.60809326342432
 21
5.396539567294305
 31
0.0
  0
SOLID
  5
FE
330
F5
100
AcDbEntity
  8
치수문자_일반주서
 62
     0
100
AcDbTrace
 10
30.02475993009102
 20
-2.896539567294223
 30
0.0
 11
29.19142659675768
 21
-2.896539567294226
 31
0.0
 12
29.60809326342434
 22
-0.3965395672942247
 32
0.0
 13
29.60809326342434
 23
-0.3965395672942247
 33
0.0
  0
SOLID
  5
FF
330
F5
100
AcDbEntity
  8
치수문자_일반주서
 62
     0
100
AcDbTrace
 10
29.19142659675766
 20
2.896539567294303
 30
0.0
 11
30.02475993009099
 21
2.896539567294306
 31
0.0
 12
29.60809326342434
 22
0.3965395672943046
 32
0.0
 13
29.60809326342434
 23
0.3965395672943046
 33
0.0
  0
MTEXT
  5
100
330
F5
100
AcDbEntity
  8
치수문자_일반주서
 62
     0
100
AcDbMText
 10
26.23309326342427
 20
14.70903956729429
 30
0.0
 40
2.5
 41
0.0
 71
     2
 72
     1
  1
\A1;%%c.79 [1/32]
  7
SLDTEXTSTYLE0
 11
-4.479645881294989E-15
 21
1.0
 31
0.0
 73
     1
 44
1.0
  0
POINT
  5
101
330
F5
100
AcDbEntity
  8
Defpoints
 62
     0
100
AcDbPoint
 10
19.05000000000002
 20
-0.3965395672942636
 30
0.0
  0
POINT
  5
102
330
F5
100
AcDbEntity
  8
Defpoints
 62
     0
100
AcDbPoint
 10
19.05000000000002
 20
0.396539567294266
 30
0.0
  0
POINT
  5
103
330
F5
100
AcDbEntity
  8
Defpoints
 62
     0
100
AcDbPoint
 10
29.60809326342434
 20
0.3965395672943055
 30
0.0
  0
ENDBLK
  5
F7
330
F5
100
AcDbEntity
  8
0
100
AcDbBlockEnd
  0
BLOCK
  5
10A
330
109
100
AcDbEntity
  8
0
100
AcDbBlockBegin
  2
_D_2
 70
     0
 10
0.0
 20
0.0
 30
0.0
  3
_D_2
  1
_D_2
  0
LINE
  5
10C
330
109
100
AcDbEntity
  8
치수문자_일반주서
 62
     0
370
    -2
100
AcDbLine
 10
19.05000000000002
 20
0.459039567294266
 30
0.0
 11
19.05000000000002
 21
11.73056440164053
 31
0.0
  0
LINE
  5
10D
330
109
100
AcDbEntity
  8
치수문자_일반주서
 62
     0
370
    -2
100
AcDbLine
 10
17.46250000000002
 20
0.4087269425505223
 30
0.0
 11
17.46250000000002
 21
11.73056440164053
 31
0.0
  0
LINE
  5
10E
330
109
100
AcDbEntity
  8
치수문자_일반주서
 62
     0
370
    -2
100
AcDbLine
 10
17.46250000000002
 20
11.73056440164053
 30
0.0
 11
-4.912499999999982
 21
11.73056440164053
 31
0.0
  0
LINE
  5
10F
330
109
100
AcDbEntity
  8
치수문자_일반주서
 62
     0
370
    -2
100
AcDbLine
 10
19.05000000000002
 20
11.73056440164053
 30
0.0
 11
17.46250000000002
 21
11.73056440164053
 31
0.0
  0
LINE
  5
110
330
109
100
AcDbEntity
  8
치수문자_일반주서
 62
     0
370
    -2
100
AcDbLine
 10
21.55000000000002
 20
11.73056440164053
 30
0.0
 11
24.05000000000002
 21
11.73056440164053
 31
0.0
  0
LINE
  5
111
330
109
100
AcDbEntity
  8
치수문자_일반주서
 62
     0
370
    -2
100
AcDbLine
 10
14.96250000000002
 20
11.73056440164053
 30
0.0
 11
12.46250000000002
 21
11.73056440164053
 31
0.0
  0
SOLID
  5
112
330
109
100
AcDbEntity
  8
치수문자_일반주서
 62
     0
100
AcDbTrace
 10
21.55000000000002
 20
12.1472310683072
 30
0.0
 11
21.55000000000002
 21
11.31389773497387
 31
0.0
 12
19.05000000000002
 22
11.73056440164053
 32
0.0
 13
19.05000000000002
 23
11.73056440164053
 33
0.0
  0
SOLID
  5
113
330
109
100
AcDbEntity
  8
치수문자_일반주서
 62
     0
100
AcDbTrace
 10
14.96250000000002
 20
11.31389773497387
 30
0.0
 11
14.96250000000002
 21
12.1472310683072
 31
0.0
 12
17.46250000000002
 22
11.73056440164053
 32
0.0
 13
17.46250000000002
 23
11.73056440164053
 33
0.0
  0
MTEXT
  5
114
330
109
100
AcDbEntity
  8
치수문자_일반주서
 62
     0
100
AcDbMText
 10
3.775000000000018
 20
15.10556440164053
 30
0.0
 40
2.5
 41
0.0
 71
     2
 72
     1
  1
\A1;1.59 [1/16]
  7
SLDTEXTSTYLE0
 73
     1
 44
1.0
  0
POINT
  5
115
330
109
100
AcDbEntity
  8
Defpoints
 62
     0
100
AcDbPoint
 10
19.05000000000002
 20
0.396539567294266
 30
0.0
  0
POINT
  5
116
330
109
100
AcDbEntity
  8
Defpoints
 62
     0
100
AcDbPoint
 10
17.46250000000002
 20
0.3462269425505223
 30
0.0
  0
POINT
  5
117
330
109
100
AcDbEntity
  8
Defpoints
 62
     0
100
AcDbPoint
 10
17.46250000000002
 20
11.73056440164053
 30
0.0
  0
ENDBLK
  5
10B
330
109
100
AcDbEntity
  8
0
100
AcDbBlockEnd
  0
BLOCK
  5
120
330
11F
100
AcDbEntity
  8
0
100
AcDbBlockBegin
  2
_D_3
 70
     0
 10
0.0
 20
0.0
 30
0.0
  3
_D_3
  1
_D_3
  0
LINE
  5
122
330
11F
100
AcDbEntity
  8
치수문자_일반주서
 62
     0
370
    -2
100
AcDbLine
 10
-19.04999999999998
 20
0.4590395672942648
 30
0.0
 11
-19.04999999999998
 21
35.58750000000003
 31
0.0
  0
LINE
  5
123
330
11F
100
AcDbEntity
  8
치수문자_일반주서
 62
     0
370
    -2
100
AcDbLine
 10
19.05000000000002
 20
0.459039567294266
 30
0.0
 11
19.05000000000002
 21
35.58750000000003
 31
0.0
  0
LINE
  5
124
330
11F
100
AcDbEntity
  8
치수문자_일반주서
 62
     0
370
    -2
100
AcDbLine
 10
-16.54999999999998
 20
35.58750000000003
 30
0.0
 11
16.55000000000002
 21
35.58750000000003
 31
0.0
  0
SOLID
  5
125
330
11F
100
AcDbEntity
  8
치수문자_일반주서
 62
     0
100
AcDbTrace
 10
-16.54999999999998
 20
36.00416666666669
 30
0.0
 11
-16.54999999999998
 21
35.17083333333336
 31
0.0
 12
-19.04999999999998
 22
35.58750000000003
 32
0.0
 13
-19.04999999999998
 23
35.58750000000003
 33
0.0
  0
SOLID
  5
126
330
11F
100
AcDbEntity
  8
치수문자_일반주서
 62
     0
100
AcDbTrace
 10
16.55000000000002
 20
35.17083333333336
 30
0.0
 11
16.55000000000002
 21
36.00416666666669
 31
0.0
 12
19.05000000000002
 22
35.58750000000003
 32
0.0
 13
19.05000000000002
 23
35.58750000000003
 33
0.0
  0
MTEXT
  5
127
330
11F
100
AcDbEntity
  8
치수문자_일반주서
 62
     0
100
AcDbMText
 10
0.0000000000000231
 20
38.96250000000003
 30
0.0
 40
2.5
 41
0.0
 71
     2
 72
     1
  1
\A1;38.1 [1 1/2]
  7
SLDTEXTSTYLE0
 73
     1
 44
1.0
  0
POINT
  5
128
330
11F
100
AcDbEntity
  8
Defpoints
 62
     0
100
AcDbPoint
 10
-19.04999999999998
 20
0.3965395672942648
 30
0.0
  0
POINT
  5
129
330
11F
100
AcDbEntity
  8
Defpoints
 62
     0
100
AcDbPoint
 10
19.05000000000002
 20
0.396539567294266
 30
0.0
  0
POINT
  5
12A
330
11F
100
AcDbEntity
  8
Defpoints
 62
     0
100
AcDbPoint
 10
19.05000000000002
 20
35.58750000000003
 30
0.0
  0
ENDBLK
  5
121
330
11F
100
AcDbEntity
  8
0
100
AcDbBlockEnd
  0
BLOCK
  5
139
330
138
100
AcDbEntity
  8
0
100
AcDbBlockBegin
  2
SW_DOWELSYMBOL_0
 70
     0
 10
0.0
 20
0.0
 30
0.0
  3
SW_DOWELSYMBOL_0
  1
SW_DOWELSYMBOL_0
  0
CIRCLE
  5
13B
330
138
100
AcDbEntity
  8
해칭선
 62
     0
100
AcDbCircle
 10
0.0
 20
0.0
 30
0.0
 40
3.000000000000001
  0
HATCH
  5
13C
330
138
100
AcDbEntity
  8
0
  6
Continuous
 62
     0
370
     0
100
AcDbHatch
 10
0.0
 20
0.0
 30
0.0
210
0.0
220
0.0
230
1.0
  2
SOLID
 70
     1
 71
     0
 91
        1
 92
        0
 93
        3
 72
     2
 10
0.0
 20
0.0
 40
3.000000000000001
 50
0.0
 51
90.0
 73
     1
 72
     1
 10
0.0
 20
3.000000000000001
 11
0.0
 21
0.0
 72
     1
 10
0.0
 20
0.0
 11
3.000000000000001
 21
0.0
 97
        0
 75
     0
 76
     1
 98
        1
 10
0.0
 20
0.0
  0
HATCH
  5
13D
330
138
100
AcDbEntity
  8
0
  6
Continuous
 62
     0
370
     0
100
AcDbHatch
 10
0.0
 20
0.0
 30
0.0
210
0.0
220
0.0
230
1.0
  2
SOLID
 70
     1
 71
     0
 91
        1
 92
        0
 93
        3
 72
     2
 10
0.0
 20
0.0
 40
3.000000000000001
 50
180.0
 51
270.0000000000007
 73
     1
 72
     1
 10
0.0
 20
-3.000000000000001
 11
0.0
 21
0.0
 72
     1
 10
0.0
 20
0.0
 11
-3.000000000000001
 21
0.0
 97
        0
 75
     0
 76
     1
 98
        1
 10
0.0
 20
0.0
  0
ENDBLK
  5
13A
330
138
100
AcDbEntity
  8
0
100
AcDbBlockEnd
  0
BLOCK
  5
21F
330
21E
100
AcDbEntity
  8
0
100
AcDbBlockBegin
  2
*D7
 70
     1
 10
0.0
 20
0.0
 30
0.0
  3
*D7
  1
*D8
  0
LINE
  5
221
330
21E
100
AcDbEntity
  8
치수문자_일반주서
 62
     0
370
    -2
100
AcDbLine
 10
71.43750000000006
 20
10.20053740206972
 30
0.0
 11
79.375
 21
10.20053740206975
 31
0.0
  0
LINE
  5
222
330
21E
100
AcDbEntity
  8
치수문자_일반주서
 62
     0
370
    -2
100
AcDbLine
 10
71.43750000000006
 20
11.70053740206973
 30
0.0
 11
79.375
 21
11.70053740206976
 31
0.0
  0
LINE
  5
223
330
21E
100
AcDbEntity
  8
치수문자_일반주서
 62
     0
370
    -2
100
AcDbLine
 10
79.375
 20
11.70053740206976
 30
0.0
 11
79.375
 21
35.42953740206976
 31
0.0
  0
LINE
  5
224
330
21E
100
AcDbEntity
  8
치수문자_일반주서
 62
     0
370
    -2
100
AcDbLine
 10
79.375
 20
10.20053740206975
 30
0.0
 11
79.375
 21
11.70053740206976
 31
0.0
  0
LINE
  5
225
330
21E
100
AcDbEntity
  8
치수문자_일반주서
 62
     0
370
    -2
100
AcDbLine
 10
79.375
 20
7.700537402069752
 30
0.0
 11
79.375
 21
5.200537402069752
 31
0.0
  0
LINE
  5
226
330
21E
100
AcDbEntity
  8
치수문자_일반주서
 62
     0
370
    -2
100
AcDbLine
 10
79.375
 20
14.20053740206976
 30
0.0
 11
79.375
 21
16.70053740206976
 31
0.0
  0
SOLID
  5
227
330
21E
100
AcDbEntity
  8
치수문자_일반주서
 62
     0
100
AcDbTrace
 10
79.79166666666667
 20
7.700537402069752
 30
0.0
 11
78.95833333333333
 21
7.700537402069752
 31
0.0
 12
79.375
 22
10.20053740206975
 32
0.0
 13
79.375
 23
10.20053740206975
 33
0.0
  0
SOLID
  5
228
330
21E
100
AcDbEntity
  8
치수문자_일반주서
 62
     0
100
AcDbTrace
 10
78.95833333333333
 20
14.20053740206976
 30
0.0
 11
79.79166666666667
 21
14.20053740206976
 31
0.0
 12
79.375
 22
11.70053740206976
 32
0.0
 13
79.375
 23
11.70053740206976
 33
0.0
  0
MTEXT
  5
229
330
21E
100
AcDbEntity
  8
치수문자_일반주서
 62
     0
100
AcDbMText
 10
76.0
 20
27.05453740206976
 30
0.0
 40
2.5
 41
0.0
 71
     2
 72
     1
  1
\A1;%%c1.5 [0.06]
  7
SLDTEXTSTYLE0
 11
0.0
 21
1.0
 31
0.0
 73
     1
 44
1.0
  0
POINT
  5
22A
330
21E
100
AcDbEntity
  8
Defpoints
 62
     0
100
AcDbPoint
 10
71.37500000000006
 20
10.20053740206972
 30
0.0
  0
POINT
  5
22B
330
21E
100
AcDbEntity
  8
Defpoints
 62
     0
100
AcDbPoint
 10
71.37500000000006
 20
11.70053740206973
 30
0.0
  0
POINT
  5
22C
330
21E
100
AcDbEntity
  8
Defpoints
 62
     0
100
AcDbPoint
 10
79.37500000000003
 20
11.70053740206976
 30
0.0
  0
ENDBLK
  5
220
330
21E
100
AcDbEntity
  8
0
100
AcDbBlockEnd
  0
BLOCK
  5
22E
330
22D
100
AcDbEntity
  8
0
100
AcDbBlockBegin
  2
*D8
 70
     1
 10
0.0
 20
0.0
 30
0.0
  3
*D8
  1
*D9
  0
LINE
  5
230
330
22D
100
AcDbEntity
  8
치수문자_일반주서
 62
     0
370
    -2
100
AcDbLine
 10
11.37500000000006
 20
13.51303740206972
 30
0.0
 11
11.37500000000006
 21
31.33967000365137
 31
0.0
  0
LINE
  5
231
330
22D
100
AcDbEntity
  8
치수문자_일반주서
 62
     0
370
    -2
100
AcDbLine
 10
71.37500000000006
 20
11.76303740206973
 30
0.0
 11
71.37500000000006
 21
31.33967000365137
 31
0.0
  0
LINE
  5
232
330
22D
100
AcDbEntity
  8
치수문자_일반주서
 62
     0
370
    -2
100
AcDbLine
 10
13.87500000000006
 20
31.33967000365137
 30
0.0
 11
68.87500000000006
 21
31.33967000365137
 31
0.0
  0
SOLID
  5
233
330
22D
100
AcDbEntity
  8
치수문자_일반주서
 62
     0
100
AcDbTrace
 10
13.87500000000006
 20
31.75633667031804
 30
0.0
 11
13.87500000000006
 21
30.9230033369847
 31
0.0
 12
11.37500000000006
 22
31.33967000365137
 32
0.0
 13
11.37500000000006
 23
31.33967000365137
 33
0.0
  0
SOLID
  5
234
330
22D
100
AcDbEntity
  8
치수문자_일반주서
 62
     0
100
AcDbTrace
 10
68.87500000000006
 20
30.9230033369847
 30
0.0
 11
68.87500000000006
 21
31.75633667031804
 31
0.0
 12
71.37500000000006
 22
31.33967000365137
 32
0.0
 13
71.37500000000006
 23
31.33967000365137
 33
0.0
  0
MTEXT
  5
235
330
22D
100
AcDbEntity
  8
치수문자_일반주서
 62
     0
100
AcDbMText
 10
41.37500000000006
 20
34.71467000365137
 30
0.0
 40
2.5
 41
0.0
 71
     2
 72
     1
  1
\A1;60 [2.36]
  7
SLDTEXTSTYLE0
 73
     1
 44
1.0
  0
POINT
  5
236
330
22D
100
AcDbEntity
  8
Defpoints
 62
     0
100
AcDbPoint
 10
11.37500000000006
 20
13.45053740206972
 30
0.0
  0
POINT
  5
237
330
22D
100
AcDbEntity
  8
Defpoints
 62
     0
100
AcDbPoint
 10
71.37500000000006
 20
11.70053740206973
 30
0.0
  0
POINT
  5
238
330
22D
100
AcDbEntity
  8
Defpoints
 62
     0
100
AcDbPoint
 10
71.37500000000006
 20
31.33967000365137
 30
0.0
  0
ENDBLK
  5
22F
330
22D
100
AcDbEntity
  8
0
100
AcDbBlockEnd
  0
BLOCK
  5
23A
330
239
100
AcDbEntity
  8
0
100
AcDbBlockBegin
  2
*D9
 70
     1
 10
0.0
 20
0.0
 30
0.0
  3
*D9
  1
*D10
  0
LINE
  5
23C
330
239
100
AcDbEntity
  8
치수문자_일반주서
 62
     0
370
    -2
100
AcDbLine
 10
11.81250000000006
 20
13.95053740206973
 30
0.0
 11
3.375000000000041
 21
13.9505374020697
 31
0.0
  0
LINE
  5
23D
330
239
100
AcDbEntity
  8
치수문자_일반주서
 62
     0
370
    -2
100
AcDbLine
 10
11.81250000000006
 20
7.950537402069727
 30
0.0
 11
3.375000000000062
 21
7.950537402069696
 31
0.0
  0
LINE
  5
23E
330
239
100
AcDbEntity
  8
치수문자_일반주서
 62
     0
370
    -2
100
AcDbLine
 10
3.375000000000041
 20
13.9505374020697
 30
0.0
 11
3.374999999999971
 21
34.1380374020697
 31
0.0
  0
LINE
  5
23F
330
239
100
AcDbEntity
  8
치수문자_일반주서
 62
     0
370
    -2
100
AcDbLine
 10
3.375000000000041
 20
13.9505374020697
 30
0.0
 11
3.375000000000062
 21
7.950537402069696
 31
0.0
  0
LINE
  5
240
330
239
100
AcDbEntity
  8
치수문자_일반주서
 62
     0
370
    -2
100
AcDbLine
 10
3.375000000000032
 20
16.4505374020697
 30
0.0
 11
3.375000000000023
 21
18.9505374020697
 31
0.0
  0
LINE
  5
241
330
239
100
AcDbEntity
  8
치수문자_일반주서
 62
     0
370
    -2
100
AcDbLine
 10
3.375000000000071
 20
5.450537402069696
 30
0.0
 11
3.375000000000079
 21
2.950537402069696
 31
0.0
  0
SOLID
  5
242
330
239
100
AcDbEntity
  8
치수문자_일반주서
 62
     0
100
AcDbTrace
 10
2.958333333333365
 20
16.4505374020697
 30
0.0
 11
3.791666666666698
 21
16.4505374020697
 31
0.0
 12
3.375000000000041
 22
13.9505374020697
 32
0.0
 13
3.375000000000041
 23
13.9505374020697
 33
0.0
  0
SOLID
  5
243
330
239
100
AcDbEntity
  8
치수문자_일반주서
 62
     0
100
AcDbTrace
 10
3.791666666666737
 20
5.450537402069697
 30
0.0
 11
2.958333333333404
 21
5.450537402069694
 31
0.0
 12
3.375000000000062
 22
7.950537402069696
 32
0.0
 13
3.375000000000062
 23
7.950537402069696
 33
0.0
  0
MTEXT
  5
244
330
239
100
AcDbEntity
  8
치수문자_일반주서
 62
     0
100
AcDbMText
 10
-0.0000000000000031
 20
26.54428740206969
 30
0.0
 40
2.5
 41
0.0
 71
     2
 72
     1
  1
\A1;%%c6 [0.24]
  7
SLDTEXTSTYLE0
 11
-3.478698810492154E-15
 21
1.0
 31
0.0
 73
     1
 44
1.0
  0
POINT
  5
245
330
239
100
AcDbEntity
  8
Defpoints
 62
     0
100
AcDbPoint
 10
11.87500000000006
 20
13.95053740206973
 30
0.0
  0
POINT
  5
246
330
239
100
AcDbEntity
  8
Defpoints
 62
     0
100
AcDbPoint
 10
11.87500000000006
 20
7.950537402069727
 30
0.0
  0
POINT
  5
247
330
239
100
AcDbEntity
  8
Defpoints
 62
     0
100
AcDbPoint
 10
3.375000000000057
 20
7.950537402069696
 30
0.0
  0
ENDBLK
  5
23B
330
239
100
AcDbEntity
  8
0
100
AcDbBlockEnd
  0
BLOCK
  5
249
330
248
100
AcDbEntity
  8
0
100
AcDbBlockBegin
  2
*D10
 70
     1
 10
0.0
 20
0.0
 30
0.0
  3
*D10
  1
*D11
  0
LINE
  5
24B
330
248
100
AcDbEntity
  8
치수문자_일반주서
 62
     0
370
    -2
100
AcDbLine
 10
65.37500000000006
 20
11.72584006941095
 30
0.0
 11
65.37500000000006
 21
22.5092583719986
 31
0.0
  0
LINE
  5
24C
330
248
100
AcDbEntity
  8
치수문자_일반주서
 62
     0
370
    -2
100
AcDbLine
 10
71.37500000000006
 20
11.76303740206973
 30
0.0
 11
71.37500000000006
 21
22.5092583719986
 31
0.0
  0
LINE
  5
24D
330
248
100
AcDbEntity
  8
치수문자_일반주서
 62
     0
370
    -2
100
AcDbLine
 10
65.37500000000006
 20
22.5092583719986
 30
0.0
 11
71.37500000000006
 21
22.5092583719986
 31
0.0
  0
LINE
  5
24E
330
248
100
AcDbEntity
  8
치수문자_일반주서
 62
     0
370
    -2
100
AcDbLine
 10
62.87500000000006
 20
22.5092583719986
 30
0.0
 11
60.37500000000006
 21
22.5092583719986
 31
0.0
  0
LINE
  5
24F
330
248
100
AcDbEntity
  8
치수문자_일반주서
 62
     0
370
    -2
100
AcDbLine
 10
73.87500000000006
 20
22.5092583719986
 30
0.0
 11
76.37500000000006
 21
22.5092583719986
 31
0.0
  0
SOLID
  5
250
330
248
100
AcDbEntity
  8
치수문자_일반주서
 62
     0
100
AcDbTrace
 10
62.87500000000006
 20
22.09259170533193
 30
0.0
 11
62.87500000000006
 21
22.92592503866527
 31
0.0
 12
65.37500000000006
 22
22.5092583719986
 32
0.0
 13
65.37500000000006
 23
22.5092583719986
 33
0.0
  0
SOLID
  5
251
330
248
100
AcDbEntity
  8
치수문자_일반주서
 62
     0
100
AcDbTrace
 10
73.87500000000006
 20
22.92592503866527
 30
0.0
 11
73.87500000000006
 21
22.09259170533193
 31
0.0
 12
71.37500000000006
 22
22.5092583719986
 32
0.0
 13
71.37500000000006
 23
22.5092583719986
 33
0.0
  0
MTEXT
  5
252
330
248
100
AcDbEntity
  8
치수문자_일반주서
 62
     0
100
AcDbMText
 10
68.37500000000006
 20
25.8842583719986
 30
0.0
 40
2.5
 41
0.0
 71
     2
 72
     1
  1
\A1;6 [0.24]
  7
SLDTEXTSTYLE0
 73
     1
 44
1.0
  0
POINT
  5
253
330
248
100
AcDbEntity
  8
Defpoints
 62
     0
100
AcDbPoint
 10
65.37500000000006
 20
11.66334006941095
 30
0.0
  0
POINT
  5
254
330
248
100
AcDbEntity
  8
Defpoints
 62
     0
100
AcDbPoint
 10
71.37500000000006
 20
11.70053740206973
 30
0.0
  0
POINT
  5
255
330
248
100
AcDbEntity
  8
Defpoints
 62
     0
100
AcDbPoint
 10
71.37500000000006
 20
22.5092583719986
 30
0.0
  0
ENDBLK
  5
24A
330
248
100
AcDbEntity
  8
0
100
AcDbBlockEnd
  0
BLOCK
  5
2AA
330
2A9
100
AcDbEntity
  8
0
100
AcDbBlockBegin
  2
*D11
 70
     1
 10
0.0
 20
0.0
 30
0.0
  3
*D11
  1
*D12
  0
LINE
  5
2AC
330
2A9
100
AcDbEntity
  8
치수문자_일반주서
 62
     0
370
    -2
100
AcDbLine
 10
4.270810562390565
 20
75.79764602529166
 30
0.0
 11
12.20831056239057
 21
75.79764602529168
 31
0.0
  0
LINE
  5
2AD
330
2A9
100
AcDbEntity
  8
치수문자_일반주서
 62
     0
370
    -2
100
AcDbLine
 10
4.270810562390565
 20
77.29764602529167
 30
0.0
 11
12.20831056239056
 21
77.2976460252917
 31
0.0
  0
LINE
  5
2AE
330
2A9
100
AcDbEntity
  8
치수문자_일반주서
 62
     0
370
    -2
100
AcDbLine
 10
12.20831056239056
 20
77.2976460252917
 30
0.0
 11
12.20831056239048
 21
101.0266460252917
 31
0.0
  0
LINE
  5
2AF
330
2A9
100
AcDbEntity
  8
치수문자_일반주서
 62
     0
370
    -2
100
AcDbLine
 10
12.20831056239057
 20
75.79764602529168
 30
0.0
 11
12.20831056239056
 21
77.2976460252917
 31
0.0
  0
LINE
  5
2B0
330
2A9
100
AcDbEntity
  8
치수문자_일반주서
 62
     0
370
    -2
100
AcDbLine
 10
12.20831056239058
 20
73.29764602529168
 30
0.0
 11
12.20831056239059
 21
70.79764602529168
 31
0.0
  0
LINE
  5
2B1
330
2A9
100
AcDbEntity
  8
치수문자_일반주서
 62
     0
370
    -2
100
AcDbLine
 10
12.20831056239055
 20
79.7976460252917
 30
0.0
 11
12.20831056239055
 21
82.2976460252917
 31
0.0
  0
SOLID
  5
2B2
330
2A9
100
AcDbEntity
  8
치수문자_일반주서
 62
     0
100
AcDbTrace
 10
12.62497722905724
 20
73.29764602529168
 30
0.0
 11
11.79164389572391
 21
73.29764602529168
 31
0.0
 12
12.20831056239057
 22
75.79764602529168
 32
0.0
 13
12.20831056239057
 23
75.79764602529168
 33
0.0
  0
SOLID
  5
2B3
330
2A9
100
AcDbEntity
  8
치수문자_일반주서
 62
     0
100
AcDbTrace
 10
11.79164389572389
 20
79.7976460252917
 30
0.0
 11
12.62497722905722
 21
79.7976460252917
 31
0.0
 12
12.20831056239056
 22
77.2976460252917
 32
0.0
 13
12.20831056239056
 23
77.2976460252917
 33
0.0
  0
MTEXT
  5
2B4
330
2A9
100
AcDbEntity
  8
치수문자_일반주서
 62
     0
100
AcDbMText
 10
8.833310562390508
 20
92.65164602529167
 30
0.0
 40
2.5
 41
0.0
 71
     2
 72
     1
  1
\A1;%%c1.5 [0.06]
  7
SLDTEXTSTYLE0
 11
-3.552713678800467E-15
 21
1.0
 31
0.0
 73
     1
 44
1.0
  0
POINT
  5
2B5
330
2A9
100
AcDbEntity
  8
Defpoints
 62
     0
100
AcDbPoint
 10
4.208310562390565
 20
75.79764602529166
 30
0.0
  0
POINT
  5
2B6
330
2A9
100
AcDbEntity
  8
Defpoints
 62
     0
100
AcDbPoint
 10
4.208310562390565
 20
77.29764602529167
 30
0.0
  0
POINT
  5
2B7
330
2A9
100
AcDbEntity
  8
Defpoints
 62
     0
100
AcDbPoint
 10
12.20831056239051
 20
77.2976460252917
 30
0.0
  0
ENDBLK
  5
2AB
330
2A9
100
AcDbEntity
  8
0
100
AcDbBlockEnd
  0
BLOCK
  5
2B9
330
2B8
100
AcDbEntity
  8
0
100
AcDbBlockBegin
  2
*D12
 70
     1
 10
0.0
 20
0.0
 30
0.0
  3
*D12
  1
*D13
  0
LINE
  5
2BB
330
2B8
100
AcDbEntity
  8
치수문자_일반주서
 62
     0
370
    -2
100
AcDbLine
 10
-55.79168943760943
 20
79.11014602529166
 30
0.0
 11
-55.79168943760943
 21
96.93677862687329
 31
0.0
  0
LINE
  5
2BC
330
2B8
100
AcDbEntity
  8
치수문자_일반주서
 62
     0
370
    -2
100
AcDbLine
 10
4.208310562390565
 20
77.36014602529166
 30
0.0
 11
4.208310562390565
 21
96.93677862687329
 31
0.0
  0
LINE
  5
2BD
330
2B8
100
AcDbEntity
  8
치수문자_일반주서
 62
     0
370
    -2
100
AcDbLine
 10
-53.29168943760943
 20
96.93677862687329
 30
0.0
 11
1.708310562390565
 21
96.93677862687329
 31
0.0
  0
SOLID
  5
2BE
330
2B8
100
AcDbEntity
  8
치수문자_일반주서
 62
     0
100
AcDbTrace
 10
-53.29168943760943
 20
97.35344529353996
 30
0.0
 11
-53.29168943760943
 21
96.52011196020662
 31
0.0
 12
-55.79168943760943
 22
96.93677862687329
 32
0.0
 13
-55.79168943760943
 23
96.93677862687329
 33
0.0
  0
SOLID
  5
2BF
330
2B8
100
AcDbEntity
  8
치수문자_일반주서
 62
     0
100
AcDbTrace
 10
1.708310562390565
 20
96.52011196020662
 30
0.0
 11
1.708310562390565
 21
97.35344529353996
 31
0.0
 12
4.208310562390565
 22
96.93677862687329
 32
0.0
 13
4.208310562390565
 23
96.93677862687329
 33
0.0
  0
MTEXT
  5
2C0
330
2B8
100
AcDbEntity
  8
치수문자_일반주서
 62
     0
100
AcDbMText
 10
-25.79168943760943
 20
100.3117786268733
 30
0.0
 40
2.5
 41
0.0
 71
     2
 72
     1
  1
\A1;60 [2.36]
  7
SLDTEXTSTYLE0
 73
     1
 44
1.0
  0
POINT
  5
2C1
330
2B8
100
AcDbEntity
  8
Defpoints
 62
     0
100
AcDbPoint
 10
-55.79168943760943
 20
79.04764602529166
 30
0.0
  0
POINT
  5
2C2
330
2B8
100
AcDbEntity
  8
Defpoints
 62
     0
100
AcDbPoint
 10
4.208310562390565
 20
77.29764602529166
 30
0.0
  0
POINT
  5
2C3
330
2B8
100
AcDbEntity
  8
Defpoints
 62
     0
100
AcDbPoint
 10
4.208310562390565
 20
96.93677862687329
 30
0.0
  0
ENDBLK
  5
2BA
330
2B8
100
AcDbEntity
  8
0
100
AcDbBlockEnd
  0
BLOCK
  5
2C5
330
2C4
100
AcDbEntity
  8
0
100
AcDbBlockBegin
  2
*D13
 70
     1
 10
0.0
 20
0.0
 30
0.0
  3
*D13
  1
*D14
  0
LINE
  5
2C7
330
2C4
100
AcDbEntity
  8
치수문자_일반주서
 62
     0
370
    -2
100
AcDbLine
 10
-55.35418943760943
 20
79.54764602529166
 30
0.0
 11
-63.79168943760945
 21
79.54764602529163
 31
0.0
  0
LINE
  5
2C8
330
2C4
100
AcDbEntity
  8
치수문자_일반주서
 62
     0
370
    -2
100
AcDbLine
 10
-55.35418943760943
 20
73.54764602529166
 30
0.0
 11
-63.79168943760943
 21
73.54764602529163
 31
0.0
  0
LINE
  5
2C9
330
2C4
100
AcDbEntity
  8
치수문자_일반주서
 62
     0
370
    -2
100
AcDbLine
 10
-63.79168943760945
 20
79.54764602529163
 30
0.0
 11
-63.79168943760952
 21
99.73514602529163
 31
0.0
  0
LINE
  5
2CA
330
2C4
100
AcDbEntity
  8
치수문자_일반주서
 62
     0
370
    -2
100
AcDbLine
 10
-63.79168943760945
 20
79.54764602529163
 30
0.0
 11
-63.79168943760943
 21
73.54764602529163
 31
0.0
  0
LINE
  5
2CB
330
2C4
100
AcDbEntity
  8
치수문자_일반주서
 62
     0
370
    -2
100
AcDbLine
 10
-63.79168943760946
 20
82.04764602529163
 30
0.0
 11
-63.79168943760946
 21
84.54764602529163
 31
0.0
  0
LINE
  5
2CC
330
2C4
100
AcDbEntity
  8
치수문자_일반주서
 62
     0
370
    -2
100
AcDbLine
 10
-63.79168943760942
 20
71.04764602529163
 30
0.0
 11
-63.79168943760941
 21
68.54764602529163
 31
0.0
  0
SOLID
  5
2CD
330
2C4
100
AcDbEntity
  8
치수문자_일반주서
 62
     0
100
AcDbTrace
 10
-64.20835610427612
 20
82.04764602529163
 30
0.0
 11
-63.37502277094279
 21
82.04764602529163
 31
0.0
 12
-63.79168943760945
 22
79.54764602529163
 32
0.0
 13
-63.79168943760945
 23
79.54764602529163
 33
0.0
  0
SOLID
  5
2CE
330
2C4
100
AcDbEntity
  8
치수문자_일반주서
 62
     0
100
AcDbTrace
 10
-63.37502277094276
 20
71.04764602529163
 30
0.0
 11
-64.20835610427609
 21
71.04764602529163
 31
0.0
 12
-63.79168943760943
 22
73.54764602529163
 32
0.0
 13
-63.79168943760943
 23
73.54764602529163
 33
0.0
  0
MTEXT
  5
2CF
330
2C4
100
AcDbEntity
  8
치수문자_일반주서
 62
     0
100
AcDbMText
 10
-67.16668943760949
 20
92.14139602529161
 30
0.0
 40
2.5
 41
0.0
 71
     2
 72
     1
  1
\A1;%%c6 [0.24]
  7
SLDTEXTSTYLE0
 11
-3.552713678800501E-15
 21
1.0
 31
0.0
 73
     1
 44
1.0
  0
POINT
  5
2D0
330
2C4
100
AcDbEntity
  8
Defpoints
 62
     0
100
AcDbPoint
 10
-55.29168943760943
 20
79.54764602529166
 30
0.0
  0
POINT
  5
2D1
330
2C4
100
AcDbEntity
  8
Defpoints
 62
     0
100
AcDbPoint
 10
-55.29168943760943
 20
73.54764602529166
 30
0.0
  0
POINT
  5
2D2
330
2C4
100
AcDbEntity
  8
Defpoints
 62
     0
100
AcDbPoint
 10
-63.79168943760943
 20
73.54764602529163
 30
0.0
  0
ENDBLK
  5
2C6
330
2C4
100
AcDbEntity
  8
0
100
AcDbBlockEnd
  0
BLOCK
  5
2D4
330
2D3
100
AcDbEntity
  8
0
100
AcDbBlockBegin
  2
*D14
 70
     1
 10
0.0
 20
0.0
 30
0.0
  3
*D14
  1
*D15
  0
LINE
  5
2D6
330
2D3
100
AcDbEntity
  8
치수문자_일반주서
 62
     0
370
    -2
100
AcDbLine
 10
-1.791689437609435
 20
77.32294869263288
 30
0.0
 11
-1.791689437609435
 21
88.10636699522053
 31
0.0
  0
LINE
  5
2D7
330
2D3
100
AcDbEntity
  8
치수문자_일반주서
 62
     0
370
    -2
100
AcDbLine
 10
4.208310562390565
 20
77.36014602529166
 30
0.0
 11
4.208310562390565
 21
88.10636699522053
 31
0.0
  0
LINE
  5
2D8
330
2D3
100
AcDbEntity
  8
치수문자_일반주서
 62
     0
370
    -2
100
AcDbLine
 10
-1.791689437609435
 20
88.10636699522053
 30
0.0
 11
4.208310562390565
 21
88.10636699522053
 31
0.0
  0
LINE
  5
2D9
330
2D3
100
AcDbEntity
  8
치수문자_일반주서
 62
     0
370
    -2
100
AcDbLine
 10
-4.291689437609435
 20
88.10636699522053
 30
0.0
 11
-6.791689437609435
 21
88.10636699522053
 31
0.0
  0
LINE
  5
2DA
330
2D3
100
AcDbEntity
  8
치수문자_일반주서
 62
     0
370
    -2
100
AcDbLine
 10
6.708310562390565
 20
88.10636699522053
 30
0.0
 11
9.208310562390565
 21
88.10636699522053
 31
0.0
  0
SOLID
  5
2DB
330
2D3
100
AcDbEntity
  8
치수문자_일반주서
 62
     0
100
AcDbTrace
 10
-4.291689437609435
 20
87.68970032855385
 30
0.0
 11
-4.291689437609435
 21
88.5230336618872
 31
0.0
 12
-1.791689437609435
 22
88.10636699522053
 32
0.0
 13
-1.791689437609435
 23
88.10636699522053
 33
0.0
  0
SOLID
  5
2DC
330
2D3
100
AcDbEntity
  8
치수문자_일반주서
 62
     0
100
AcDbTrace
 10
6.708310562390565
 20
88.5230336618872
 30
0.0
 11
6.708310562390565
 21
87.68970032855385
 31
0.0
 12
4.208310562390565
 22
88.10636699522053
 32
0.0
 13
4.208310562390565
 23
88.10636699522053
 33
0.0
  0
MTEXT
  5
2DD
330
2D3
100
AcDbEntity
  8
치수문자_일반주서
 62
     0
100
AcDbMText
 10
1.208310562390565
 20
91.48136699522053
 30
0.0
 40
2.5
 41
0.0
 71
     2
 72
     1
  1
\A1;6 [0.24]
  7
SLDTEXTSTYLE0
 73
     1
 44
1.0
  0
POINT
  5
2DE
330
2D3
100
AcDbEntity
  8
Defpoints
 62
     0
100
AcDbPoint
 10
-1.791689437609435
 20
77.26044869263288
 30
0.0
  0
POINT
  5
2DF
330
2D3
100
AcDbEntity
  8
Defpoints
 62
     0
100
AcDbPoint
 10
4.208310562390565
 20
77.29764602529166
 30
0.0
  0
POINT
  5
2E0
330
2D3
100
AcDbEntity
  8
Defpoints
 62
     0
100
AcDbPoint
 10
4.208310562390565
 20
88.10636699522053
 30
0.0
  0
ENDBLK
  5
2D5
330
2D3
100
AcDbEntity
  8
0
100
AcDbBlockEnd
  0
BLOCK
  5
322
330
321
100
AcDbEntity
  8
0
100
AcDbBlockBegin
  2
*D15
 70
     1
 10
0.0
 20
0.0
 30
0.0
  3
*D15
  1
*D16
  0
LINE
  5
324
330
321
100
AcDbEntity
  8
치수문자_일반주서
 62
     0
370
    -2
100
AcDbLine
 10
78.13896389979409
 20
-22.59193250648843
 30
0.0
 11
88.63455716321836
 21
-22.59193250648839
 31
0.0
  0
LINE
  5
325
330
321
100
AcDbEntity
  8
치수문자_일반주서
 62
     0
370
    -2
100
AcDbLine
 10
78.13896389979409
 20
-21.7988533718999
 30
0.0
 11
88.63455716321836
 21
-21.79885337189986
 31
0.0
  0
LINE
  5
326
330
321
100
AcDbEntity
  8
치수문자_일반주서
 62
     0
370
    -2
100
AcDbLine
 10
88.63455716321836
 20
-21.79885337189986
 30
0.0
 11
88.63455716321836
 21
0.6980684071384395
 31
0.0
  0
LINE
  5
327
330
321
100
AcDbEntity
  8
치수문자_일반주서
 62
     0
370
    -2
100
AcDbLine
 10
88.63455716321836
 20
-22.59193250648839
 30
0.0
 11
88.63455716321836
 21
-21.79885337189986
 31
0.0
  0
LINE
  5
328
330
321
100
AcDbEntity
  8
치수문자_일반주서
 62
     0
370
    -2
100
AcDbLine
 10
88.63455716321836
 20
-25.09193250648839
 30
0.0
 11
88.63455716321836
 21
-27.59193250648839
 31
0.0
  0
LINE
  5
329
330
321
100
AcDbEntity
  8
치수문자_일반주서
 62
     0
370
    -2
100
AcDbLine
 10
88.63455716321836
 20
-19.29885337189986
 30
0.0
 11
88.63455716321836
 21
-16.79885337189986
 31
0.0
  0
SOLID
  5
32A
330
321
100
AcDbEntity
  8
치수문자_일반주서
 62
     0
100
AcDbTrace
 10
89.05122382988503
 20
-25.09193250648839
 30
0.0
 11
88.21789049655169
 21
-25.09193250648839
 31
0.0
 12
88.63455716321836
 22
-22.59193250648839
 32
0.0
 13
88.63455716321836
 23
-22.59193250648839
 33
0.0
  0
SOLID
  5
32B
330
321
100
AcDbEntity
  8
치수문자_일반주서
 62
     0
100
AcDbTrace
 10
88.21789049655169
 20
-19.29885337189986
 30
0.0
 11
89.05122382988503
 21
-19.29885337189986
 31
0.0
 12
88.63455716321836
 22
-21.79885337189986
 32
0.0
 13
88.63455716321836
 23
-21.79885337189986
 33
0.0
  0
MTEXT
  5
32C
330
321
100
AcDbEntity
  8
치수문자_일반주서
 62
     0
100
AcDbMText
 10
85.25955716321836
 20
-7.98943159286156
 30
0.0
 40
2.5
 41
0.0
 71
     2
 72
     1
  1
\A1;%%c.79 [0.03]
  7
SLDTEXTSTYLE0
 11
0.0
 21
1.0
 31
0.0
 73
     1
 44
1.0
  0
POINT
  5
32D
330
321
100
AcDbEntity
  8
Defpoints
 62
     0
100
AcDbPoint
 10
78.07646389979409
 20
-22.59193250648843
 30
0.0
  0
POINT
  5
32E
330
321
100
AcDbEntity
  8
Defpoints
 62
     0
100
AcDbPoint
 10
78.07646389979409
 20
-21.7988533718999
 30
0.0
  0
POINT
  5
32F
330
321
100
AcDbEntity
  8
Defpoints
 62
     0
100
AcDbPoint
 10
88.63455716321842
 20
-21.79885337189986
 30
0.0
  0
ENDBLK
  5
323
330
321
100
AcDbEntity
  8
0
100
AcDbBlockEnd
  0
BLOCK
  5
331
330
330
100
AcDbEntity
  8
0
100
AcDbBlockBegin
  2
*D16
 70
     1
 10
0.0
 20
0.0
 30
0.0
  3
*D16
  1
*D17
  0
LINE
  5
333
330
330
100
AcDbEntity
  8
치수문자_일반주서
 62
     0
370
    -2
100
AcDbLine
 10
78.07646389979409
 20
-21.7363533718999
 30
0.0
 11
78.07646389979409
 21
-10.46482853755363
 31
0.0
  0
LINE
  5
334
330
330
100
AcDbEntity
  8
치수문자_일반주서
 62
     0
370
    -2
100
AcDbLine
 10
76.4889638997941
 20
-21.78666599664364
 30
0.0
 11
76.4889638997941
 21
-10.46482853755363
 31
0.0
  0
LINE
  5
335
330
330
100
AcDbEntity
  8
치수문자_일반주서
 62
     0
370
    -2
100
AcDbLine
 10
76.4889638997941
 20
-10.46482853755363
 30
0.0
 11
54.7389638997941
 21
-10.46482853755363
 31
0.0
  0
LINE
  5
336
330
330
100
AcDbEntity
  8
치수문자_일반주서
 62
     0
370
    -2
100
AcDbLine
 10
78.07646389979409
 20
-10.46482853755363
 30
0.0
 11
76.4889638997941
 21
-10.46482853755363
 31
0.0
  0
LINE
  5
337
330
330
100
AcDbEntity
  8
치수문자_일반주서
 62
     0
370
    -2
100
AcDbLine
 10
80.57646389979409
 20
-10.46482853755363
 30
0.0
 11
83.07646389979409
 21
-10.46482853755363
 31
0.0
  0
LINE
  5
338
330
330
100
AcDbEntity
  8
치수문자_일반주서
 62
     0
370
    -2
100
AcDbLine
 10
73.9889638997941
 20
-10.46482853755363
 30
0.0
 11
71.4889638997941
 21
-10.46482853755363
 31
0.0
  0
SOLID
  5
339
330
330
100
AcDbEntity
  8
치수문자_일반주서
 62
     0
100
AcDbTrace
 10
80.57646389979409
 20
-10.04816187088697
 30
0.0
 11
80.57646389979409
 21
-10.8814952042203
 31
0.0
 12
78.07646389979409
 22
-10.46482853755363
 32
0.0
 13
78.07646389979409
 23
-10.46482853755363
 33
0.0
  0
SOLID
  5
33A
330
330
100
AcDbEntity
  8
치수문자_일반주서
 62
     0
100
AcDbTrace
 10
73.9889638997941
 20
-10.8814952042203
 30
0.0
 11
73.9889638997941
 21
-10.04816187088697
 31
0.0
 12
76.4889638997941
 22
-10.46482853755363
 32
0.0
 13
76.4889638997941
 23
-10.46482853755363
 33
0.0
  0
MTEXT
  5
33B
330
330
100
AcDbEntity
  8
치수문자_일반주서
 62
     0
100
AcDbMText
 10
63.1139638997941
 20
-7.089828537553633
 30
0.0
 40
2.5
 41
0.0
 71
     2
 72
     1
  1
\A1;1.59 [0.06]
  7
SLDTEXTSTYLE0
 73
     1
 44
1.0
  0
POINT
  5
33C
330
330
100
AcDbEntity
  8
Defpoints
 62
     0
100
AcDbPoint
 10
78.07646389979409
 20
-21.7988533718999
 30
0.0
  0
POINT
  5
33D
330
330
100
AcDbEntity
  8
Defpoints
 62
     0
100
AcDbPoint
 10
76.4889638997941
 20
-21.84916599664364
 30
0.0
  0
POINT
  5
33E
330
330
100
AcDbEntity
  8
Defpoints
 62
     0
100
AcDbPoint
 10
76.4889638997941
 20
-10.46482853755363
 30
0.0
  0
ENDBLK
  5
332
330
330
100
AcDbEntity
  8
0
100
AcDbBlockEnd
  0
BLOCK
  5
340
330
33F
100
AcDbEntity
  8
0
100
AcDbBlockBegin
  2
*D17
 70
     1
 10
0.0
 20
0.0
 30
0.0
  3
*D17
  1
*D18
  0
LINE
  5
342
330
33F
100
AcDbEntity
  8
치수문자_일반주서
 62
     0
370
    -2
100
AcDbLine
 10
39.9764638997941
 20
-20.97539293919417
 30
0.0
 11
39.9764638997941
 21
13.39210706080587
 31
0.0
  0
LINE
  5
343
330
33F
100
AcDbEntity
  8
치수문자_일반주서
 62
     0
370
    -2
100
AcDbLine
 10
78.07646389979409
 20
-21.7363533718999
 30
0.0
 11
78.07646389979409
 21
13.39210706080587
 31
0.0
  0
LINE
  5
344
330
33F
100
AcDbEntity
  8
치수문자_일반주서
 62
     0
370
    -2
100
AcDbLine
 10
42.4764638997941
 20
13.39210706080587
 30
0.0
 11
75.57646389979409
 21
13.39210706080587
 31
0.0
  0
SOLID
  5
345
330
33F
100
AcDbEntity
  8
치수문자_일반주서
 62
     0
100
AcDbTrace
 10
42.4764638997941
 20
13.80877372747253
 30
0.0
 11
42.4764638997941
 21
12.9754403941392
 31
0.0
 12
39.9764638997941
 22
13.39210706080587
 32
0.0
 13
39.9764638997941
 23
13.39210706080587
 33
0.0
  0
SOLID
  5
346
330
33F
100
AcDbEntity
  8
치수문자_일반주서
 62
     0
100
AcDbTrace
 10
75.57646389979409
 20
12.9754403941392
 30
0.0
 11
75.57646389979409
 21
13.80877372747253
 31
0.0
 12
78.07646389979409
 22
13.39210706080587
 32
0.0
 13
78.07646389979409
 23
13.39210706080587
 33
0.0
  0
MTEXT
  5
347
330
33F
100
AcDbEntity
  8
치수문자_일반주서
 62
     0
100
AcDbMText
 10
59.0264638997941
 20
16.76710706080587
 30
0.0
 40
2.5
 41
0.0
 71
     2
 72
     1
  1
\A1;38.1 [1.50]
  7
SLDTEXTSTYLE0
 73
     1
 44
1.0
  0
POINT
  5
348
330
33F
100
AcDbEntity
  8
Defpoints
 62
     0
100
AcDbPoint
 10
39.9764638997941
 20
-21.03789293919417
 30
0.0
  0
POINT
  5
349
330
33F
100
AcDbEntity
  8
Defpoints
 62
     0
100
AcDbPoint
 10
78.07646389979409
 20
-21.7988533718999
 30
0.0
  0
POINT
  5
34A
330
33F
100
AcDbEntity
  8
Defpoints
 62
     0
100
AcDbPoint
 10
78.07646389979409
 20
13.39210706080587
 30
0.0
  0
ENDBLK
  5
341
330
33F
100
AcDbEntity
  8
0
100
AcDbBlockEnd
  0
ENDSEC
  0
SECTION
  2
ENTITIES
  0
LINE
  5
96
330
1F
100
AcDbEntity
  8
외형선
  6
Continuous
370
    15
100
AcDbLine
 10
12.51902700723834
 20
1.587499999999999
 30
0.0
 11
-12.51902700723831
 21
1.587499999999998
 31
0.0
  0
LINE
  5
97
330
1F
100
AcDbEntity
  8
외형선
  6
Continuous
370
    15
100
AcDbLine
 10
-12.51902700723831
 20
-1.587499999999999
 30
0.0
 11
12.51902700723834
 21
-1.587499999999998
 31
0.0
  0
LINE
  5
98
330
1F
100
AcDbEntity
  8
외형선
  6
Continuous
370
    15
100
AcDbLine
 10
16.910658138514
 20
-0.4107659849193027
 30
0.0
 11
16.96250000000002
 21
-0.3968749999999988
 31
0.0
  0
LINE
  5
99
330
1F
100
AcDbEntity
  8
외형선
  6
Continuous
370
    15
100
AcDbLine
 10
12.51902700723834
 20
-1.587499999999999
 30
0.0
 11
16.8147170723823
 21
-0.4364733161102727
 31
0.0
  0
LINE
  5
9A
330
1F
100
AcDbEntity
  8
외형선
  6
Continuous
370
    15
100
AcDbLine
 10
16.8147170723823
 20
0.4364733161102752
 30
0.0
 11
12.51902700723834
 21
1.587500000000001
 31
0.0
  0
LINE
  5
9B
330
1F
100
AcDbEntity
  8
외형선
  6
Continuous
370
    15
100
AcDbLine
 10
16.96250000000002
 20
0.3968750000000012
 30
0.0
 11
16.910658138514
 21
0.4107659849193046
 31
0.0
  0
LINE
  5
9E
330
1F
100
AcDbEntity
  8
외형선
  6
Continuous
370
    15
100
AcDbLine
 10
17.28081843275495
 20
-0.3314355069607754
 30
0.0
 11
17.46250000000002
 21
-0.3167409785024696
 31
0.0
  0
LINE
  5
9F
330
1F
100
AcDbEntity
  8
외형선
  6
Continuous
370
    15
100
AcDbLine
 10
17.11146937596654
 20
0.3968750000000012
 30
0.0
 11
16.96250000000002
 21
0.3968750000000012
 31
0.0
  0
LINE
  5
A0
330
1F
100
AcDbEntity
  8
외형선
  6
Continuous
370
    15
100
AcDbLine
 10
16.96250000000002
 20
-0.3968749999999988
 30
0.0
 11
17.11146937596654
 21
-0.3968749999999988
 31
0.0
  0
LINE
  5
A1
330
1F
100
AcDbEntity
  8
0
  6
Continuous
 62
     1
370
    25
100
AcDbLine
 10
18.02088890209588
 20
0.101779605217605
 30
0.0
 11
17.91289597493518
 21
0.1565344466298228
 31
0.0
  0
SPLINE
  5
A2
330
1F
100
AcDbEntity
  8
0
  6
Continuous
 62
     1
370
    25
100
AcDbSpline
210
0.0
220
0.0
230
1.0
 70
     8
 71
     3
 72
     9
 73
     5
 74
     0
 42
0.000000001
 43
0.00000001
 40
0.0
 40
0.0
 40
0.0
 40
0.0
 40
0.6020421231476188
 40
1.0
 40
1.0
 40
1.0
 40
1.0
 10
17.89158967534857
 20
0.3153828402280016
 30
0.0
 10
17.82352602163645
 20
0.3123891204774461
 30
0.0
 10
17.71047138460163
 20
0.3074165120245629
 30
0.0
 10
17.59650184007149
 20
0.3121616218233204
 30
0.0
 10
17.55114676210444
 20
0.3140499756442653
 30
0.0
  0
SPLINE
  5
A3
330
1F
100
AcDbEntity
  8
0
  6
Continuous
 62
     1
370
    25
100
AcDbSpline
210
0.0
220
0.0
230
1.0
 70
     8
 71
     3
 72
    11
 73
     7
 74
     0
 42
0.000000001
 43
0.00000001
 40
0.0
 40
0.0
 40
0.0
 40
0.0
 40
0.3245730000281587
 40
0.4866248844606581
 40
0.6534728596403611
 40
0.9999999999999999
 40
0.9999999999999999
 40
0.9999999999999999
 40
0.9999999999999999
 10
18.88277971690704
 20
0.2696189135974832
 30
0.0
 10
18.81101233931839
 20
0.2655006708150657
 30
0.0
 10
18.70341314953954
 20
0.2593262834877126
 30
0.0
 10
18.55588227880688
 20
0.2628260055958061
 30
0.0
 10
18.40355624997749
 20
0.2714745600364262
 30
0.0
 10
18.2878153814707
 20
0.2876234381254256
 30
0.0
 10
18.20969053479935
 20
0.2985238974091178
 30
0.0
  0
SPLINE
  5
A4
330
1F
100
AcDbEntity
  8
0
  6
Continuous
 62
     1
370
    25
100
AcDbSpline
210
0.0
220
0.0
230
1.0
 70
     8
 71
     3
 72
     9
 73
     5
 74
     0
 42
0.000000001
 43
0.00000001
 40
0.0
 40
0.0
 40
0.0
 40
0.0
 40
0.7748367237539175
 40
1.0
 40
1.0
 40
1.0
 40
1.0
 10
18.20969053479935
 20
-0.2985238974091153
 30
0.0
 10
18.28780909906574
 20
-0.2872392381655873
 30
0.0
 10
18.38862848703683
 20
-0.2726753192165006
 30
0.0
 10
18.48950835164681
 20
-0.2672979259676145
 30
0.0
 10
18.51222279246965
 20
-0.2660871344860318
 30
0.0
  0
SPLINE
  5
A5
330
1F
100
AcDbEntity
  8
0
  6
Continuous
 62
     1
370
    25
100
AcDbSpline
210
0.0
220
0.0
230
1.0
 70
     8
 71
     3
 72
    11
 73
     7
 74
     0
 42
0.000000001
 43
0.00000001
 40
0.0
 40
0.0
 40
0.0
 40
0.0
 40
0.2672951224473223
 40
0.4285646069768324
 40
0.6312840927319247
 40
1.0
 40
1.0
 40
1.0
 40
1.0
 10
17.46250000000001
 20
-0.3167409785024697
 30
0.0
 10
17.50197943835789
 20
-0.3145208265242742
 30
0.0
 10
17.56527834867317
 20
-0.3109611709972575
 30
0.0
 10
17.65367032896912
 20
-0.3098109347901685
 30
0.0
 10
17.75433503802549
 20
-0.3097476914763427
 30
0.0
 10
17.83776007567493
 20
-0.3131728034138035
 30
0.0
 10
17.89158967534857
 20
-0.3153828402279993
 30
0.0
  0
LINE
  5
A6
330
1F
100
AcDbEntity
  8
외형선
  6
Continuous
370
    15
100
AcDbLine
 10
12.51902700723834
 20
1.587500000000001
 30
0.0
 11
12.51902700723834
 21
-1.5875
 31
0.0
  0
LINE
  5
A8
330
1F
100
AcDbEntity
  8
외형선
  6
Continuous
370
    15
100
AcDbLine
 10
16.96250000000002
 20
0.3968750000000012
 30
0.0
 11
16.96250000000002
 21
0.3960404654485881
 31
0.0
  0
SPLINE
  5
A9
330
1F
100
AcDbEntity
  8
외형선
  6
Continuous
370
    15
100
AcDbSpline
210
0.0
220
0.0
230
1.0
 70
     8
 71
     3
 72
     8
 73
     4
 74
     0
 42
0.000000001
 43
0.00000001
 40
0.0
 40
0.0
 40
0.0
 40
0.0
 40
0.0001700210131649
 40
0.0001700210131649
 40
0.0001700210131649
 40
0.0001700210131649
 10
16.81438423357463
 20
0.4338366095602516
 30
0.0
 10
16.86404318194091
 20
0.4232747278173491
 30
0.0
 10
16.91315601916835
 20
0.4108249953400894
 30
0.0
 10
16.96250000000002
 20
0.3960404654485881
 30
0.0
  0
SPLINE
  5
AA
330
1F
100
AcDbEntity
  8
외형선
  6
Continuous
370
    15
100
AcDbSpline
210
0.0
220
0.0
230
1.0
 70
    24
 71
     3
 72
    24
 73
    20
 74
     0
 42
0.000000001
 43
0.00000001
 40
0.0
 40
0.0
 40
0.0
 40
0.0
 40
0.0603854485299423
 40
0.1225220791580511
 40
0.1829075276881462
 40
0.2450441583164301
 40
0.3054296068461693
 40
0.3675662374739759
 40
0.4279516860037996
 40
0.4900883166317876
 40
0.5504737651616584
 40
0.6126103957896976
 40
0.6729958443193795
 40
0.7351324749475587
 40
0.7955179234774059
 40
0.8576545541054196
 40
0.9180400026352635
 40
0.9801766332632736
 40
1.0
 40
1.0
 40
1.0
 40
1.0
 10
16.81438423357463
 20
-0.4041060636089082
 30
0.0
 10
16.81438423357463
 20
-0.3938721954550321
 30
0.0
 10
16.81438423357463
 20
-0.3731076762775266
 30
0.0
 10
16.81438423357463
 20
-0.328530779761553
 30
0.0
 10
16.81438423357463
 20
-0.2750065061862663
 30
0.0
 10
16.81438423357463
 20
-0.2139770640817967
 30
0.0
 10
16.81438423357463
 20
-0.14634962457564
 30
0.0
 10
16.81438423357463
 20
-0.0751811636007017
 30
0.0
 10
16.81438423357463
 20
-0.0012251895706894
 30
0.0
 10
16.81438423357463
 20
0.0720993522066946
 30
0.0
 10
16.81438423357463
 20
0.1440348906501159
 30
0.0
 10
16.81438423357463
 20
0.2112524719518254
 30
0.0
 10
16.81438423357463
 20
0.2730535814701042
 30
0.0
 10
16.81438423357463
 20
0.3265975972338723
 30
0.0
 10
16.81438423357463
 20
0.3712543583486743
 30
0.0
 10
16.81438423357463
 20
0.4052477536534226
 30
0.0
 10
16.81438423357463
 20
0.4271367739818283
 30
0.0
 10
16.81438423357463
 20
0.437124495383919
 30
0.0
 10
16.81438423357463
 20
0.4355998944557195
 30
0.0
 10
16.81438423357463
 20
0.4352311447693042
 30
0.0
  0
SPLINE
  5
AB
330
1F
100
AcDbEntity
  8
외형선
  6
Continuous
370
    15
100
AcDbSpline
210
0.0
220
0.0
230
1.0
 70
     8
 71
     3
 72
     8
 73
     4
 74
     0
 42
0.000000001
 43
0.00000001
 40
0.0
 40
0.0
 40
0.0
 40
0.0
 40
0.0001693830630867
 40
0.0001693830630867
 40
0.0001693830630867
 40
0.0001693830630867
 10
16.96250000000002
 20
-0.387741178324029
 30
0.0
 10
16.91270708132331
 20
-0.3958631086742669
 30
0.0
 10
16.86352636175196
 20
-0.4011817835751006
 30
0.0
 10
16.81438423357463
 20
-0.4041060636089074
 30
0.0
  0
LINE
  5
AC
330
1F
100
AcDbEntity
  8
외형선
  6
Continuous
370
    15
100
AcDbLine
 10
16.96250000000002
 20
-0.3877411783240466
 30
0.0
 11
16.96250000000002
 21
-0.3968749999999988
 31
0.0
  0
SPLINE
  5
AD
330
1F
100
AcDbEntity
  8
외형선
  6
Continuous
370
    15
100
AcDbSpline
210
0.0
220
0.0
230
1.0
 70
     8
 71
     3
 72
     9
 73
     5
 74
     0
 42
0.000000001
 43
0.00000001
 40
0.0
 40
0.0
 40
0.0
 40
0.0
 40
0.7700388812130625
 40
1.0
 40
1.0
 40
1.0
 40
1.0
 10
16.81438423357463
 20
-0.4338366095602492
 30
0.0
 10
16.83912157492502
 20
-0.4284889744261892
 30
0.0
 10
16.87124637011902
 20
-0.4215443444022667
 30
0.0
 10
16.90321840380607
 20
-0.412515946560442
 30
0.0
 10
16.91057072844264
 20
-0.4104397660918823
 30
0.0
  0
SPLINE
  5
AE
330
1F
100
AcDbEntity
  8
외형선
  6
Continuous
370
    15
100
AcDbSpline
210
0.0
220
0.0
230
1.0
 70
    24
 71
     3
 72
     9
 73
     5
 74
     0
 42
0.000000001
 43
0.00000001
 40
0.0
 40
0.0
 40
0.0
 40
0.0
 40
0.0807178305463384
 40
0.9999999999999999
 40
0.9999999999999999
 40
0.9999999999999999
 40
0.9999999999999999
 10
16.81438423357463
 20
-0.4350216770480567
 30
0.0
 10
16.81438423357463
 20
-0.4353328074532378
 30
0.0
 10
16.81438423357463
 20
-0.4391873511528799
 30
0.0
 10
16.81438423357463
 20
-0.4363994642659018
 30
0.0
 10
16.81438423357463
 20
-0.4338366095602493
 30
0.0
  0
SPLINE
  5
B0
330
1F
100
AcDbEntity
  8
외형선
  6
Continuous
370
    15
100
AcDbSpline
210
0.0
220
0.0
230
1.0
 70
    24
 71
     3
 72
    12
 73
     8
 74
     0
 42
0.000000001
 43
0.00000001
 40
0.0
 40
0.0
 40
0.0
 40
0.0
 40
0.1860564043876724
 40
0.3746885408753625
 40
0.6404888968998597
 40
0.9139974812558757
 40
1.0
 40
1.0
 40
1.0
 40
1.0
 10
17.46250000000002
 20
-0.234651872972497
 30
0.0
 10
17.46250000000002
 20
-0.2440630138255378
 30
0.0
 10
17.46250000000002
 20
-0.2630155817083987
 30
0.0
 10
17.46250000000002
 20
-0.2880980740435073
 30
0.0
 10
17.46250000000002
 20
-0.3076998280340423
 30
0.0
 10
17.46250000000002
 20
-0.3171901278008162
 30
0.0
 10
17.46250000000002
 20
-0.3159468759646664
 30
0.0
 10
17.46250000000002
 20
-0.3156494643175151
 30
0.0
  0
SPLINE
  5
B1
330
1F
100
AcDbEntity
  8
외형선
  6
Continuous
370
    15
100
AcDbSpline
210
0.0
220
0.0
230
1.0
 70
     8
 71
     3
 72
    10
 73
     6
 74
     0
 42
0.000000001
 43
0.00000001
 40
0.0
 40
0.0
 40
0.0
 40
0.0
 40
0.0469981982259091
 40
0.6875236263456261
 40
1.0
 40
1.0
 40
1.0
 40
1.0
 10
17.28148264735531
 20
-0.3300532881793652
 30
0.0
 10
17.27416871550314
 20
-0.3311501107885941
 30
0.0
 10
17.16717523193008
 20
-0.3471952249891465
 30
0.0
 10
17.01131413228919
 20
-0.3407801435044483
 30
0.0
 10
16.86301086484278
 20
-0.3029473500317881
 30
0.0
 10
16.81438423357463
 20
-0.2905424898441742
 30
0.0
  0
SPLINE
  5
B2
330
1F
100
AcDbEntity
  8
외형선
  6
Continuous
370
    15
100
AcDbSpline
210
0.0
220
0.0
230
1.0
 70
     8
 71
     3
 72
    10
 73
     6
 74
     0
 42
0.000000001
 43
0.00000001
 40
0.0
 40
0.0
 40
0.0
 40
0.0
 40
0.3131961960404704
 40
0.7747686316449883
 40
1.0
 40
1.0
 40
1.0
 40
1.0
 10
17.46250000000002
 20
-0.2346518729724969
 30
0.0
 10
17.39486994984208
 20
-0.211688119647417
 30
0.0
 10
17.22757021222911
 20
-0.1548815684631036
 30
0.0
 10
17.01135325604828
 20
-0.0557758556301329
 30
0.0
 10
16.86302665856215
 20
0.0117716089230261
 30
0.0
 10
16.81438423357463
 20
0.0339232158048018
 30
0.0
  0
SPLINE
  5
B3
330
1F
100
AcDbEntity
  8
외형선
  6
Continuous
370
    15
100
AcDbSpline
210
0.0
220
0.0
230
1.0
 70
    24
 71
     3
 72
     8
 73
     4
 74
     0
 42
0.000000001
 43
0.00000001
 40
0.0
 40
0.0
 40
0.0
 40
0.0
 40
1.0
 40
1.0
 40
1.0
 40
1.0
 10
17.46250000000001
 20
0.2791811431205209
 30
0.0
 10
17.46250000000001
 20
0.2599199552817384
 30
0.0
 10
17.46250000000001
 20
0.2242051587789196
 30
0.0
 10
17.46250000000001
 20
0.1871451925066519
 30
0.0
  0
SPLINE
  5
B4
330
1F
100
AcDbEntity
  8
외형선
  6
Continuous
370
    15
100
AcDbSpline
210
0.0
220
0.0
230
1.0
 70
     8
 71
     3
 72
    10
 73
     6
 74
     0
 42
0.000000001
 43
0.00000001
 40
0.0
 40
0.0
 40
0.0
 40
0.0
 40
0.3035751016075882
 40
0.7510363352660849
 40
1.0
 40
1.0
 40
1.0
 40
1.0
 10
17.46250000000002
 20
0.1871451925066495
 30
0.0
 10
17.39486962538957
 20
0.2054202574851956
 30
0.0
 10
17.22755396468116
 20
0.2506322585865857
 30
0.0
 10
17.00454561498252
 20
0.283926002829228
 30
0.0
 10
16.84937995101665
 20
0.2727400198879267
 30
0.0
 10
16.79391006125397
 20
0.2687411632802065
 30
0.0
  0
SPLINE
  5
B5
330
1F
100
AcDbEntity
  8
외형선
  6
Continuous
370
    15
100
AcDbSpline
210
0.0
220
0.0
230
1.0
 70
     8
 71
     3
 72
    12
 73
     8
 74
     0
 42
0.000000001
 43
0.00000001
 40
0.0
 40
0.0
 40
0.0
 40
0.0
 40
0.4999999999999998
 40
0.4999999999999998
 40
0.7499999999999998
 40
0.7499999999999998
 40
1.0
 40
1.0
 40
1.0
 40
1.0
 10
16.96250000000156
 20
0.3960404654485303
 30
0.0
 10
17.04545636234351
 20
0.3929338150234382
 30
0.0
 10
17.13195981188468
 20
0.380837916901398
 30
0.0
 10
17.25463458960221
 20
0.3511177346465637
 30
0.0
 10
17.294562401271
 20
0.3393543289262677
 30
0.0
 10
17.377885400331
 20
0.3119147081933212
 30
0.0
 10
17.42032504136859
 20
0.2963089352362795
 30
0.0
 10
17.46250000000001
 20
0.2791811431205192
 30
0.0
  0
SPLINE
  5
B6
330
1F
100
AcDbEntity
  8
외형선
  6
Continuous
370
    15
100
AcDbSpline
210
0.0
220
0.0
230
1.0
 70
    24
 71
     3
 72
    10
 73
     6
 74
     0
 42
0.000000001
 43
0.00000001
 40
0.0
 40
0.0
 40
0.0
 40
0.0
 40
0.5
 40
0.5
 40
1.0
 40
1.0
 40
1.0
 40
1.0
 10
17.46250000000002
 20
0.1871451925066495
 30
0.0
 10
17.46250000000002
 20
0.1262861546906723
 30
0.0
 10
17.46250000000002
 20
0.0523147919183498
 30
0.0
 10
17.46250000000002
 20
-0.0976162069081962
 30
0.0
 10
17.46250000000002
 20
-0.1724141646515543
 30
0.0
 10
17.46250000000002
 20
-0.2346518729724968
 30
0.0
  0
SPLINE
  5
B7
330
1F
100
AcDbEntity
  8
외형선
  6
Continuous
370
    15
100
AcDbSpline
210
0.0
220
0.0
230
1.0
 70
     8
 71
     3
 72
     9
 73
     5
 74
     0
 42
0.000000001
 43
0.00000001
 40
0.0
 40
0.0
 40
0.0
 40
0.0
 40
0.793302471829682
 40
1.0
 40
1.0
 40
1.0
 40
1.0
 10
17.46250000000002
 20
0.3462269425498953
 30
0.0
 10
17.36976028227233
 20
0.3699408693880089
 30
0.0
 10
17.2528569307502
 20
0.3998335366620934
 30
0.0
 10
17.1356879207183
 20
0.3936799440566224
 30
0.0
 10
17.11146937596654
 20
0.3924080116757044
 30
0.0
  0
LINE
  5
B8
330
1F
100
AcDbEntity
  8
외형선
  6
Continuous
370
    15
100
AcDbLine
 10
17.46250000000002
 20
0.3462269425498954
 30
0.0
 11
17.46250000000002
 21
0.2791811431205167
 31
0.0
  0
SPLINE
  5
B9
330
1F
100
AcDbEntity
  8
외형선
  6
Continuous
370
    15
100
AcDbSpline
210
0.0
220
0.0
230
1.0
 70
     8
 71
     3
 72
    12
 73
     8
 74
     0
 42
0.000000001
 43
0.00000001
 40
0.0
 40
0.0
 40
0.0
 40
0.0
 40
0.25
 40
0.25
 40
0.5
 40
0.5
 40
1.0
 40
1.0
 40
1.0
 40
1.0
 10
17.46250000000002
 20
-0.3462269425498929
 30
0.0
 10
17.42032504136846
 20
-0.3580067637555444
 30
0.0
 10
17.37788540033073
 20
-0.3678799083968649
 30
0.0
 10
17.29456240127049
 20
-0.3833750929738905
 30
0.0
 10
17.25463458960159
 20
-0.3889784381468277
 30
0.0
 10
17.13195981188363
 20
-0.3995652325865472
 30
0.0
 10
17.04545636234218
 20
-0.3979649625570671
 30
0.0
 10
16.96250000000002
 20
-0.3877411783240466
 30
0.0
  0
SPLINE
  5
BA
330
1F
100
AcDbEntity
  8
외형선
  6
Continuous
370
    15
100
AcDbSpline
210
0.0
220
0.0
230
1.0
 70
    24
 71
     3
 72
    10
 73
     6
 74
     0
 42
0.000000001
 43
0.00000001
 40
0.0
 40
0.0
 40
0.0
 40
0.0
 40
0.0301616972628547
 40
0.6541305995877617
 40
1.0
 40
1.0
 40
1.0
 40
1.0
 10
17.46250000000002
 20
-0.3321118228223175
 30
0.0
 10
17.46250000000002
 20
-0.3322613380887938
 30
0.0
 10
17.46250000000002
 20
-0.3355039444333698
 30
0.0
 10
17.46250000000002
 20
-0.3401988618796675
 30
0.0
 10
17.46250000000002
 20
-0.344642298299921
 30
0.0
 10
17.46250000000002
 20
-0.3462269425505198
 30
0.0
  0
SPLINE
  5
BB
330
1F
100
AcDbEntity
  8
0
  6
Continuous
 62
     1
370
    25
100
AcDbSpline
210
0.0
220
0.0
230
1.0
 70
     8
 71
     3
 72
    22
 73
    18
 74
     0
 42
0.000000001
 43
0.00000001
 40
0.0
 40
0.0
 40
0.0
 40
0.0
 40
0.125
 40
0.125
 40
0.25
 40
0.25
 40
0.375
 40
0.375
 40
0.5
 40
0.5
 40
0.625
 40
0.625
 40
0.75
 40
0.75
 40
0.875
 40
0.875
 40
1.0
 40
1.0
 40
1.0
 40
1.0
 10
19.05000000000002
 20
-0.376610907476409
 30
0.0
 10
18.98608665682215
 20
-0.3646970946262801
 30
0.0
 10
18.91845589367152
 20
-0.3473317298349172
 30
0.0
 10
18.7839005559979
 20
-0.3033274434672701
 30
0.0
 10
18.71904579684025
 20
-0.277035657623621
 30
0.0
 10
18.58874972042655
 20
-0.2175853008349307
 30
0.0
 10
18.52059916316527
 20
-0.1839376821141603
 30
0.0
 10
18.38663644897814
 20
-0.1127830206206407
 30
0.0
 10
18.32329434493302
 20
-0.0758048544860072
 30
0.0
 10
18.19106022256896
 20
0.000234159798725
 30
0.0
 10
18.12269863300006
 20
0.0392076492129366
 30
0.0
 10
17.9899124951725
 20
0.1142561532266067
 30
0.0
 10
17.92679811836433
 20
0.1501166583470476
 30
0.0
 10
17.79318487857455
 20
0.2180238835308622
 30
0.0
 10
17.72492426997546
 20
0.2495823851288916
 30
0.0
 10
17.59388158526386
 20
0.3041470674194222
 30
0.0
 10
17.52970674780078
 20
0.3274555317745342
 30
0.0
 10
17.46250000000019
 20
0.3462269425498464
 30
0.0
  0
SPLINE
  5
BC
330
1F
100
AcDbEntity
  8
0
  6
Continuous
 62
     1
370
    25
100
AcDbSpline
210
0.0
220
0.0
230
1.0
 70
     8
 71
     3
 72
    11
 73
     7
 74
     0
 42
0.000000001
 43
0.00000001
 40
0.0
 40
0.0
 40
0.0
 40
0.0
 40
0.2889377300471014
 40
0.5766769221721535
 40
0.8638301993091947
 40
1.0
 40
1.0
 40
1.0
 40
1.0
 10
19.05000000000002
 20
-0.3131233674211345
 30
0.0
 10
18.95014733216907
 20
-0.2891344048684055
 30
0.0
 10
18.75085619374267
 20
-0.2412559879902922
 30
0.0
 10
18.45258251118822
 20
-0.1099311152377935
 30
0.0
 10
18.20712714626854
 20
0.0148987029240269
 30
0.0
 10
18.06098218245372
 20
0.08154932279422
 30
0.0
 10
18.01397191621276
 20
0.1029887436503012
 30
0.0
  0
LINE
  5
BD
330
1F
100
AcDbEntity
  8
0
  6
Continuous
 62
     1
370
    25
100
AcDbLine
 10
19.05000000000002
 20
-0.3766109074764091
 30
0.0
 11
19.05000000000002
 21
-0.3131233674211345
 31
0.0
  0
SPLINE
  5
BE
330
1F
100
AcDbEntity
  8
0
  6
Continuous
 62
     1
370
    25
100
AcDbSpline
210
0.0
220
0.0
230
1.0
 70
     8
 71
     3
 72
    22
 73
    18
 74
     0
 42
0.000000001
 43
0.00000001
 40
0.0
 40
0.0
 40
0.0
 40
0.0
 40
0.1249999999999999
 40
0.1249999999999999
 40
0.25
 40
0.25
 40
0.375
 40
0.375
 40
0.4999999999999999
 40
0.4999999999999999
 40
0.6249999999999999
 40
0.6249999999999999
 40
0.7499999999999998
 40
0.7499999999999998
 40
0.8749999999999998
 40
0.8749999999999998
 40
1.0
 40
1.0
 40
1.0
 40
1.0
 10
17.46250000000002
 20
0.2791811431205169
 30
0.0
 10
17.52970674780062
 20
0.2518876200808181
 30
0.0
 10
17.59388158526371
 20
0.2211215811344363
 30
0.0
 10
17.72492426997532
 20
0.1540062044597022
 30
0.0
 10
17.79318487857442
 20
0.1173458739454538
 30
0.0
 10
17.92679811836421
 20
0.0422615854216985
 30
0.0
 10
17.98991249517239
 20
0.0043133376348967
 30
0.0
 10
18.12269863299995
 20
-0.0719006275276629
 30
0.0
 10
18.19106022256886
 20
-0.1098905522406992
 30
0.0
 10
18.32329434493294
 20
-0.1809635594552996
 30
0.0
 10
18.38663644897807
 20
-0.2140192546968109
 30
0.0
 10
18.52059916316522
 20
-0.2744860143197184
 30
0.0
 10
18.58874972042651
 20
-0.3013895486532777
 30
0.0
 10
18.71904579684021
 20
-0.3454457304667345
 30
0.0
 10
18.78390055599787
 20
-0.3630055768952001
 30
0.0
 10
18.91845589367151
 20
-0.3879046879821559
 30
0.0
 10
18.98608665682214
 20
-0.3949871310314477
 30
0.0
 10
19.05000000000002
 20
-0.3965395672942635
 30
0.0
  0
SPLINE
  5
BF
330
1F
100
AcDbEntity
  8
0
  6
Continuous
 62
     1
370
    25
100
AcDbSpline
210
0.0
220
0.0
230
1.0
 70
     8
 71
     3
 72
    10
 73
     6
 74
     0
 42
0.000000001
 43
0.00000001
 40
0.0
 40
0.0
 40
0.0
 40
0.0
 40
0.3441091119355504
 40
0.6747925940604899
 40
1.0
 40
1.0
 40
1.0
 40
1.0
 10
18.06489943830266
 20
-0.0376051586389974
 30
0.0
 10
17.99581218091404
 20
-0.0097204343530273
 30
0.0
 10
17.86033314820968
 20
0.044961074456061
 30
0.0
 10
17.65922102231574
 20
0.1233527847167724
 30
0.0
 10
17.52770766955979
 20
0.165999743999838
 30
0.0
 10
17.46250000000002
 20
0.1871451925066495
 30
0.0
  0
SPLINE
  5
C0
330
1F
100
AcDbEntity
  8
외형선
  6
Continuous
370
    15
100
AcDbSpline
210
0.0
220
0.0
230
1.0
 70
    24
 71
     3
 72
     8
 73
     4
 74
     0
 42
0.000000001
 43
0.00000001
 40
0.0
 40
0.0
 40
0.0
 40
0.0
 40
1.0
 40
1.0
 40
1.0
 40
1.0
 10
17.46250000000001
 20
0.2791811431205209
 30
0.0
 10
17.46250000000001
 20
0.2599199552817383
 30
0.0
 10
17.46250000000001
 20
0.2242051587789195
 30
0.0
 10
17.46250000000001
 20
0.1871451925066519
 30
0.0
  0
LINE
  5
C1
330
1F
100
AcDbEntity
  8
0
  6
Continuous
 62
     1
370
    25
100
AcDbLine
 10
19.05000000000002
 20
-0.3965395672942636
 30
0.0
 11
19.05
 21
-0.3766109074764091
 31
0.0
  0
SPLINE
  5
C2
330
1F
100
AcDbEntity
  8
0
  6
Continuous
 62
     1
370
    25
100
AcDbSpline
210
0.0
220
0.0
230
1.0
 70
     8
 71
     3
 72
     8
 73
     4
 74
     0
 42
0.000000001
 43
0.00000001
 40
0.0
 40
0.0
 40
0.0
 40
0.0
 40
1.0
 40
1.0
 40
1.0
 40
1.0
 10
18.80487869489137
 20
0.1105524090214974
 30
0.0
 10
18.7906261163446
 20
0.127423523665094
 30
0.0
 10
18.77789810768624
 20
0.1436703987660596
 30
0.0
 10
18.76707500202797
 20
0.1591373058337009
 30
0.0
  0
LINE
  5
C3
330
1F
100
AcDbEntity
  8
0
  6
Continuous
 62
     1
370
    25
100
AcDbLine
 10
18.7720471952346
 20
0.163309471330914
 30
0.0
 11
19.05000000000002
 21
0.0000000000000015
 31
0.0
  0
LINE
  5
C4
330
1F
100
AcDbEntity
  8
0
  6
Continuous
 62
     1
370
    25
100
AcDbLine
 10
19.05000000000002
 20
0.0000000000000015
 30
0.0
 11
19.05000000000002
 21
-0.1060620442055138
 31
0.0
  0
SPLINE
  5
C5
330
1F
100
AcDbEntity
  8
0
  6
Continuous
 62
     1
370
    25
100
AcDbSpline
210
0.0
220
0.0
230
1.0
 70
     8
 71
     3
 72
     8
 73
     4
 74
     0
 42
0.000000001
 43
0.00000001
 40
0.0
 40
0.0
 40
0.0
 40
0.0
 40
1.0
 40
1.0
 40
1.0
 40
1.0
 10
19.05000000000002
 20
-0.1060620442055138
 30
0.0
 10
18.96515313053236
 20
-0.0393536404118657
 30
0.0
 10
18.88156195477937
 20
0.0337168127794787
 30
0.0
 10
18.80487869489105
 20
0.1105524090207172
 30
0.0
  0
SPLINE
  5
C6
330
1F
100
AcDbEntity
  8
0
  6
Continuous
 62
     1
370
    25
100
AcDbSpline
210
0.0
220
0.0
230
1.0
 70
     8
 71
     3
 72
    11
 73
     7
 74
     0
 42
0.000000001
 43
0.00000001
 40
0.0
 40
0.0
 40
0.0
 40
0.0
 40
0.1909226389500977
 40
0.3858586336655943
 40
0.7112367506342345
 40
1.0
 40
1.0
 40
1.0
 40
1.0
 10
18.80487869489136
 20
0.1105524090215007
 30
0.0
 10
18.74686983043737
 20
0.1352951406501322
 30
0.0
 10
18.62963270600938
 20
0.1853007171070636
 30
0.0
 10
18.41253050666134
 20
0.2577548339787569
 30
0.0
 10
18.16621115316528
 20
0.3168811160193522
 30
0.0
 10
17.97907865722078
 20
0.3138310416581077
 30
0.0
 10
17.89109079228768
 20
0.3123969265965916
 30
0.0
  0
SPLINE
  5
C7
330
1F
100
AcDbEntity
  8
0
  6
Continuous
 62
     1
370
    25
100
AcDbSpline
210
0.0
220
0.0
230
1.0
 70
    24
 71
     3
 72
     8
 73
     4
 74
     0
 42
0.000000001
 43
0.00000001
 40
0.0
 40
0.0
 40
0.0
 40
0.0
 40
1.0
 40
1.0
 40
1.0
 40
1.0
 10
19.05000000000002
 20
-0.3131233674211344
 30
0.0
 10
19.05000000000002
 20
-0.2651166726006332
 30
0.0
 10
19.05000000000002
 20
-0.1902507387164478
 30
0.0
 10
19.05000000000002
 20
-0.1060620442055265
 30
0.0
  0
SPLINE
  5
C8
330
1F
100
AcDbEntity
  8
0
  6
Continuous
 62
     1
370
    25
100
AcDbSpline
210
0.0
220
0.0
230
1.0
 70
    24
 71
     3
 72
     8
 73
     4
 74
     0
 42
0.000000001
 43
0.00000001
 40
0.0
 40
0.0
 40
0.0
 40
0.0
 40
1.0
 40
1.0
 40
1.0
 40
1.0
 10
18.80826430936536
 20
0.1936992384402966
 30
0.0
 10
18.79522633921801
 20
0.1827590824983576
 30
0.0
 10
18.78145189846996
 20
0.1712009543470326
 30
0.0
 10
18.76707500202293
 20
0.1591373058408537
 30
0.0
  0
LINE
  5
C9
330
1F
100
AcDbEntity
  8
0
  6
Continuous
 62
     1
370
    25
100
AcDbLine
 10
19.05000000000002
 20
0.2778125000000012
 30
0.0
 11
18.88116653660228
 21
0.2632553423505792
 31
0.0
  0
SPLINE
  5
CA
330
1F
100
AcDbEntity
  8
0
  6
Continuous
 62
     1
370
    25
100
AcDbSpline
210
0.0
220
0.0
230
1.0
 70
     8
 71
     3
 72
    17
 73
    13
 74
     0
 42
0.000000001
 43
0.00000001
 40
0.0
 40
0.0
 40
0.0
 40
0.0
 40
0.0001031126202385
 40
0.0001031126202385
 40
0.0001031126202385
 40
0.0002062313519065
 40
0.0002062313519065
 40
0.0002062313519065
 40
0.0002926365297924
 40
0.0002926365297924
 40
0.0002926365297924
 40
0.0003267556738152
 40
0.0003267556738152
 40
0.0003267556738152
 40
0.0003267556738152
 10
19.05000000000002
 20
0.2778125000000015
 30
0.0
 10
19.02422776876442
 20
0.2707777224272424
 30
0.0
 10
18.99853216522406
 20
0.2632411734053104
 30
0.0
 10
18.97294310127985
 20
0.2551467517548733
 30
0.0
 10
18.94735315484338
 20
0.2470520509514204
 30
0.0
 10
18.92186201679996
 20
0.2383979100308108
 30
0.0
 10
18.89651216472758
 20
0.2291045903526646
 30
0.0
 10
18.87527052432441
 20
0.2213173514294804
 30
0.0
 10
18.85412183673334
 20
0.2130790880162358
 30
0.0
 10
18.8331028948481
 20
0.2043224395195963
 30
0.0
 10
18.82480276323091
 20
0.2008645425691037
 30
0.0
 10
18.8165222365839
 20
0.1973252428047109
 30
0.0
 10
18.80826430937977
 20
0.1936992384466529
 30
0.0
  0
SPLINE
  5
CB
330
1F
100
AcDbEntity
  8
0
  6
Continuous
 62
     1
370
    25
100
AcDbSpline
210
0.0
220
0.0
230
1.0
 70
     8
 71
     3
 72
    11
 73
     7
 74
     0
 42
0.000000001
 43
0.00000001
 40
0.0
 40
0.0
 40
0.0
 40
0.0
 40
0.0748155855965734
 40
0.4721304986889134
 40
0.7382115261982379
 40
1.0
 40
1.0
 40
1.0
 40
1.0
 10
18.21102753984723
 20
-0.2940984865426839
 30
0.0
 10
18.19235732759384
 20
-0.2983534915139345
 30
0.0
 10
18.07453726976053
 20
-0.325205084039494
 30
0.0
 10
17.89044296002275
 20
-0.3198234987734539
 30
0.0
 10
17.65916653144317
 20
-0.2910315086098159
 30
0.0
 10
17.52769915297132
 20
-0.2533429255954808
 30
0.0
 10
17.46250000000002
 20
-0.2346518729724969
 30
0.0
  0
SPLINE
  5
CC
330
1F
100
AcDbEntity
  8
외형선
  6
Continuous
370
    15
100
AcDbSpline
210
0.0
220
0.0
230
1.0
 70
    24
 71
     3
 72
    10
 73
     6
 74
     0
 42
0.000000001
 43
0.00000001
 40
0.0
 40
0.0
 40
0.0
 40
0.0
 40
0.5
 40
0.5
 40
1.0
 40
1.0
 40
1.0
 40
1.0
 10
17.46250000000002
 20
0.1871451925066495
 30
0.0
 10
17.46250000000002
 20
0.1262861546906723
 30
0.0
 10
17.46250000000002
 20
0.0523147919183498
 30
0.0
 10
17.46250000000002
 20
-0.0976162069081962
 30
0.0
 10
17.46250000000002
 20
-0.1724141646515543
 30
0.0
 10
17.46250000000002
 20
-0.2346518729724968
 30
0.0
  0
LINE
  5
CD
330
1F
100
AcDbEntity
  8
0
  6
Continuous
 62
     1
370
    25
100
AcDbLine
 10
19.05000000000002
 20
0.0000000000000015
 30
0.0
 11
19.05000000000002
 21
0.2778125000000014
 31
0.0
  0
SPLINE
  5
CE
330
1F
100
AcDbEntity
  8
외형선
  6
Continuous
370
    15
100
AcDbSpline
210
0.0
220
0.0
230
1.0
 70
    24
 71
     3
 72
    12
 73
     8
 74
     0
 42
0.000000001
 43
0.00000001
 40
0.0
 40
0.0
 40
0.0
 40
0.0
 40
0.1866866937534971
 40
0.3759578452220053
 40
0.6426586332331677
 40
0.9170937621644625
 40
1.0
 40
1.0
 40
1.0
 40
1.0
 10
17.46250000000002
 20
-0.2346518729724971
 30
0.0
 10
17.46250000000002
 20
-0.2440628787153437
 30
0.0
 10
17.46250000000002
 20
-0.2630151745073748
 30
0.0
 10
17.46250000000002
 20
-0.2881000117060684
 30
0.0
 10
17.46250000000002
 20
-0.3076890431427002
 30
0.0
 10
17.46250000000002
 20
-0.3171677954139718
 30
0.0
 10
17.46250000000002
 20
-0.3159516061898731
 30
0.0
 10
17.46250000000002
 20
-0.3156694399408925
 30
0.0
  0
SPLINE
  5
CF
330
1F
100
AcDbEntity
  8
0
  6
Continuous
 62
     1
370
    25
100
AcDbSpline
210
0.0
220
0.0
230
1.0
 70
    24
 71
     3
 72
     8
 73
     4
 74
     0
 42
0.000000001
 43
0.00000001
 40
0.0
 40
0.0
 40
0.0
 40
0.0
 40
1.0
 40
1.0
 40
1.0
 40
1.0
 10
19.05000000000002
 20
0.2778125000000012
 30
0.0
 10
19.05000000000002
 20
0.3114931038408065
 30
0.0
 10
19.05000000000002
 20
0.3567874723731548
 30
0.0
 10
19.05000000000002
 20
0.396539567294266
 30
0.0
  0
SPLINE
  5
D0
330
1F
100
AcDbEntity
  8
0
  6
Continuous
 62
     1
370
    25
100
AcDbSpline
210
0.0
220
0.0
230
1.0
 70
     8
 71
     3
 72
    13
 73
     9
 74
     0
 42
0.000000001
 43
0.00000001
 40
0.0
 40
0.0
 40
0.0
 40
0.0
 40
0.1152665713359346
 40
0.220566612583716
 40
0.4131817647598056
 40
0.6071808639699015
 40
0.8028922377373904
 40
1.0
 40
1.0
 40
1.0
 40
1.0
 10
18.50648663352359
 20
0.2664321207651872
 30
0.0
 10
18.52742976782436
 20
0.2754427686816653
 30
0.0
 10
18.56750518722885
 20
0.2926849583736779
 30
0.0
 10
18.64245465323581
 20
0.3199770993079226
 30
0.0
 10
18.73100518038905
 20
0.3491125310636761
 30
0.0
 10
18.83667344195084
 20
0.374025591647655
 30
0.0
 10
18.94341674185588
 20
0.3911312323755413
 30
0.0
 10
19.01438815119596
 20
0.3947325217154294
 30
0.0
 10
19.05000000000002
 20
0.396539567294266
 30
0.0
  0
LINE
  5
D1
330
1F
100
AcDbEntity
  8
0
  6
Continuous
 62
     1
370
    25
100
AcDbLine
 10
17.55600063317343
 20
-0.3122881194292871
 30
0.0
 11
17.46250000000019
 21
-0.346226942549844
 31
0.0
  0
SPLINE
  5
D2
330
1F
100
AcDbEntity
  8
외형선
  6
Continuous
370
    15
100
AcDbSpline
210
0.0
220
0.0
230
1.0
 70
    24
 71
     3
 72
    10
 73
     6
 74
     0
 42
0.000000001
 43
0.00000001
 40
0.0
 40
0.0
 40
0.0
 40
0.0
 40
0.0301616972628528
 40
0.6541305995877538
 40
1.0
 40
1.0
 40
1.0
 40
1.0
 10
17.46250000000002
 20
-0.3321118228223175
 30
0.0
 10
17.46250000000002
 20
-0.3322613380887939
 30
0.0
 10
17.46250000000002
 20
-0.3355039444333703
 30
0.0
 10
17.46250000000002
 20
-0.3401988618796672
 30
0.0
 10
17.46250000000002
 20
-0.344642298299921
 30
0.0
 10
17.46250000000002
 20
-0.3462269425505199
 30
0.0
  0
LINE
  5
D3
330
1F
100
AcDbEntity
  8
중심선
 62
     1
100
AcDbLine
 10
-22.05
 20
-0.0000000000000027
 30
0.0
 11
22.05
 21
0.0000000000000027
 31
0.0
  0
LINE
  5
D4
330
1F
100
AcDbEntity
  8
참조1
100
AcDbLine
 10
-7.556711678730524
 20
0.0010749287238892
 30
0.0
 11
-7.556711678730519
 21
-39.99892507127611
 31
0.0
  0
LINE
  5
D5
330
1F
100
AcDbEntity
  8
참조1
100
AcDbLine
 10
-7.556711678730519
 20
-39.99892507127611
 30
0.0
 11
-29.45992727542973
 21
-39.9989250712761
 31
0.0
  0
CIRCLE
  5
D6
330
1F
100
AcDbEntity
  8
해칭선
100
AcDbCircle
 10
0.0
 20
0.0
 30
0.0
 40
3.000000000000002
  0
INSERT
  5
D7
330
1F
100
AcDbEntity
  8
0
  6
Continuous
 62
     7
100
AcDbBlockReference
 66
     1
  2
블럭10
 10
-13.94027293212521
 20
-27.093576068861
 30
0.0
  0
ATTRIB
  5
D8
330
D7
100
AcDbEntity
  8
FORMAT
 62
     2
100
AcDbText
 10
-23.12156822086649
 20
-25.01820915602881
 30
0.0
 40
4.233333333333333
  1
E5022002 [ 2 FLUTE ]
 41
0.75
  7
SLDTEXTSTYLE0
 11
-23.12156822086649
 21
-27.13487582269548
 31
0.0
100
AcDbAttribute
  2
AUTOATTR0
 70
     0
 74
     1
  0
SEQEND
  5
D9
330
D7
100
AcDbEntity
  8
0
  6
Continuous
 62
     7
  0
HATCH
  5
DA
330
1F
100
AcDbEntity
  8
중심선
100
AcDbHatch
 10
0.0
 20
0.0
 30
0.0
210
0.0
220
0.0
230
1.0
  2
SOLID
 70
     1
 71
     0
 91
        1
 92
        0
 93
        4
 72
     1
 10
-8.225363627744358
 20
-10.84640176721706
 11
-11.67163887158164
 21
-10.84640176721706
 72
     1
 10
-11.67163887158164
 20
-10.84640176721706
 11
-13.79986873078566
 21
-13.38272734778966
 72
     1
 10
-13.79986873078566
 20
-13.38272734778966
 11
-10.35356040183523
 21
-13.38268791848717
 72
     1
 10
-10.35356040183523
 20
-13.38268791848717
 11
-8.225363627744358
 21
-10.84640176721706
 97
        0
 75
     0
 76
     1
 98
        1
 10
7.556711678730522
 20
24.95252330405904
  0
HATCH
  5
DB
330
1F
100
AcDbEntity
  8
중심선
100
AcDbHatch
 10
0.0
 20
0.0
 30
0.0
210
0.0
220
0.0
230
1.0
  2
SOLID
 70
     1
 71
     0
 91
        1
 92
        0
 93
        4
 72
     1
 10
-3.212599636708379
 20
-10.84640176721704
 11
-6.658874880545689
 21
-10.84640176721709
 72
     1
 10
-6.658874880545689
 20
-10.84640176721709
 11
-11.19001288890308
 21
-16.24640176721708
 72
     1
 10
-11.19001288890308
 20
-16.24640176721708
 11
-7.743737645065794
 21
-16.24640176721708
 72
     1
 10
-7.743737645065794
 20
-16.24640176721708
 11
-3.212599636708379
 21
-10.84640176721704
 97
        0
 75
     0
 76
     1
 98
        1
 10
7.556711678730522
 20
24.95252330405904
  0
HATCH
  5
DC
330
1F
100
AcDbEntity
  8
중심선
100
AcDbHatch
 10
0.0
 20
0.0
 30
0.0
210
0.0
220
0.0
230
1.0
  2
SOLID
 70
     1
 71
     0
 91
        1
 92
        0
 93
        4
 72
     1
 10
1.80016435432749
 20
-10.84640176721704
 11
-1.646110889509599
 21
-10.84640176721706
 72
     1
 10
-1.646110889509599
 20
-10.84640176721706
 11
-8.694547791398875
 21
-19.24640176721708
 72
     1
 10
-8.694547791398875
 20
-19.24640176721708
 11
-5.248272547561593
 21
-19.24640176721708
 72
     1
 10
-5.248272547561593
 20
-19.24640176721708
 11
1.80016435432749
 21
-10.84640176721704
 97
        0
 75
     0
 76
     1
 98
        1
 10
7.556711678730522
 20
24.95252330405904
  0
HATCH
  5
DD
330
1F
100
AcDbEntity
  8
중심선
100
AcDbHatch
 10
0.0
 20
0.0
 30
0.0
210
0.0
220
0.0
230
1.0
  2
SOLID
 70
     1
 71
     0
 91
        1
 92
        0
 93
        6
 72
     3
 10
6.600054785339688
 20
-15.04640176726834
 11
3.960054785062285
 21
1.540882976769353E-10
 40
0.3939339440162626
 50
17.09539180608439
 51
320.0019657685081
 73
     0
 72
     1
 10
8.283054441040285
 20
-13.63429577185536
 11
10.58835631474135
 21
-11.69996906180742
 72
     3
 10
6.600054785286842
 20
-15.04640176721721
 11
6.600054785286829
 21
-1.278976924368180E-13
 40
0.636358354079598
 50
39.99873849337413
 51
368.4976242363724
 73
     1
 72
     1
 10
13.02538727718745
 20
-14.08640176714709
 11
5.280122092122765
 21
-14.08640176714709
 72
     1
 10
5.280122092122765
 20
-14.08640176714709
 11
5.280097047676831
 21
-16.00640176714698
 72
     1
 10
5.280097047676831
 20
-16.00640176714698
 11
9.721476817148869
 21
-16.00640176714695
 97
        0
 75
     0
 76
     1
 98
        1
 10
7.556711678730522
 20
24.95252330405904
  0
DIMENSION
  5
DE
330
1F
100
AcDbEntity
  8
치수문자_일반주서
100
AcDbDimension
  2
_D
 10
-25.16186866495517
 20
-1.58750000000005
 30
0.0
 11
-25.16186866495523
 21
15.82739206633252
 31
0.0
 70
   160
  1
%%c<>
 71
     2
 42
3.175000000000001
 52
-270.0
  3
SLDDIMSTYLE0
100
AcDbAlignedDimension
 13
-12.51902700723831
 23
1.587499999999998
 33
0.0
 14
-12.51902700723831
 24
-1.587500000000003
 34
0.0
 50
90.0000000000002
100
AcDbRotatedDimension
1001
ACAD
1000
DSTYLE
1002
{
1070
   171
1070
     6
1070
   273
1070
     5
1070
    41
1040
2.5
1070
   140
1040
2.5
1002
}
  0
DIMENSION
  5
F3
330
1F
100
AcDbEntity
  8
치수문자_일반주서
100
AcDbDimension
  2
_D_1
 10
29.60809326342434
 20
0.3965395672943046
 30
0.0
 11
29.60809326342427
 21
14.7090395672943
 31
0.0
 70
   160
  1
%%c<>
 71
     2
 42
0.7930791345885295
 52
-270.0
  3
SLDDIMSTYLE0
100
AcDbAlignedDimension
 13
19.05000000000002
 23
-0.3965395672942636
 33
0.0
 14
19.05000000000002
 24
0.396539567294266
 34
0.0
 50
90.0000000000002
100
AcDbRotatedDimension
1001
ACAD
1000
DSTYLE
1002
{
1070
   171
1070
     6
1070
   273
1070
     5
1070
    41
1040
2.5
1070
   140
1040
2.5
1002
}
  0
DIMENSION
  5
108
330
1F
100
AcDbEntity
  8
치수문자_일반주서
100
AcDbDimension
  2
_D_2
 10
17.46250000000002
 20
11.73056440164053
 30
0.0
 11
3.775000000000018
 21
11.73056440164053
 31
0.0
 70
   160
  1
<>
 71
     2
 42
1.587499999999999
  3
SLDDIMSTYLE0
100
AcDbAlignedDimension
 13
19.05000000000002
 23
0.396539567294266
 33
0.0
 14
17.46250000000002
 24
0.3462269425505223
 34
0.0
100
AcDbRotatedDimension
1001
ACAD
1000
DSTYLE
1002
{
1070
   171
1070
     6
1070
   273
1070
     5
1070
    41
1040
2.5
1070
   140
1040
2.5
1002
}
  0
DIMENSION
  5
11D
330
1F
100
AcDbEntity
  8
치수문자_일반주서
100
AcDbDimension
  2
_D_3
 10
19.05000000000002
 20
35.58750000000003
 30
0.0
 11
0.0000000000000231
 21
35.58750000000003
 31
0.0
 70
   160
  1
<>
 71
     2
 42
38.1
  3
SLDDIMSTYLE0
100
AcDbAlignedDimension
 13
-19.04999999999998
 23
0.3965395672942648
 33
0.0
 14
19.05000000000002
 24
0.396539567294266
 34
0.0
100
AcDbRotatedDimension
1001
ACAD
1000
DSTYLE
1002
{
1070
   171
1070
     6
1070
   273
1070
     5
1070
    41
1040
2.5
1070
   140
1040
2.5
1002
}
  0
LINE
  5
131
330
1F
100
AcDbEntity
  8
참조1
100
AcDbLine
 10
68.51241335422453
 20
7.441074928723896
 30
0.0
 11
68.51241335422453
 21
-7.438925071276109
 31
0.0
  0
LINE
  5
132
330
1F
100
AcDbEntity
  8
참조1
100
AcDbLine
 10
81.21241335422454
 20
5.441074928723896
 30
0.0
 11
68.51241335422453
 21
5.441074928723896
 31
0.0
  0
SOLID
  5
133
330
1F
100
AcDbEntity
  8
참조1
100
AcDbTrace
 10
68.51241335422453
 20
5.441074928723896
 30
0.0
 11
74.86241335422453
 21
4.425074928723896
 31
0.0
 12
74.86241335422453
 22
6.457074928723896
 32
0.0
 13
74.86241335422453
 23
6.457074928723896
 33
0.0
  0
LINE
  5
134
330
1F
100
AcDbEntity
  8
참조1
100
AcDbLine
 10
81.21241335422454
 20
-5.438925071276109
 30
0.0
 11
68.51241335422453
 21
-5.438925071276109
 31
0.0
  0
SOLID
  5
135
330
1F
100
AcDbEntity
  8
참조1
100
AcDbTrace
 10
68.51241335422453
 20
-5.438925071276109
 30
0.0
 11
74.86241335422453
 21
-6.454925071276109
 31
0.0
 12
74.86241335422453
 22
-4.422925071276109
 32
0.0
 13
74.86241335422453
 23
-4.422925071276109
 33
0.0
  0
MTEXT
  5
136
330
1F
100
AcDbEntity
  8
참조1
100
AcDbMText
 10
77.89676348685053
 20
11.01136670591222
 30
0.0
 40
3.5
 41
0.0
 71
     1
 72
     1
  1
A
  7
SLDTEXTSTYLE0
 73
     1
 44
1.0
  0
MTEXT
  5
137
330
1F
100
AcDbEntity
  8
참조1
100
AcDbMText
 10
77.89676348685053
 20
0.1313667059122192
 30
0.0
 40
3.5
 41
0.0
 71
     1
 72
     1
  1
A
  7
SLDTEXTSTYLE0
 73
     1
 44
1.0
  0
INSERT
  5
13E
330
1F
100
AcDbEntity
  8
해칭선
100
AcDbBlockReference
  2
SW_DOWELSYMBOL_0
 10
0.0
 20
0.0
 30
0.0
  0
LINE
  5
2E6
330
1F
100
AcDbEntity
  8
외형선
  6
Continuous
370
    15
100
AcDbLine
 10
-16.91065813851398
 20
0.4107659849193041
 30
0.0
 11
-16.96249999999999
 21
0.3968750000000006
 31
0.0
  0
LINE
  5
2E7
330
1F
100
AcDbEntity
  8
외형선
  6
Continuous
370
    15
100
AcDbLine
 10
-12.51902700723831
 20
1.587499999999998
 30
0.0
 11
-16.81471707238228
 21
0.4364733161102762
 31
0.0
  0
LINE
  5
2E8
330
1F
100
AcDbEntity
  8
외형선
  6
Continuous
370
    15
100
AcDbLine
 10
-16.81471707238228
 20
-0.4364733161102742
 30
0.0
 11
-12.51902700723831
 21
-1.587500000000003
 31
0.0
  0
LINE
  5
2E9
330
1F
100
AcDbEntity
  8
외형선
  6
Continuous
370
    15
100
AcDbLine
 10
-16.96249999999999
 20
-0.3968749999999986
 30
0.0
 11
-16.91065813851398
 21
-0.4107659849193021
 31
0.0
  0
LINE
  5
2EA
330
1F
100
AcDbEntity
  8
외형선
  6
Continuous
370
    15
100
AcDbLine
 10
-17.28081843275491
 20
0.3314355069607756
 30
0.0
 11
-17.46249999999999
 21
0.3167409785024723
 31
0.0
  0
LINE
  5
2EB
330
1F
100
AcDbEntity
  8
외형선
  6
Continuous
370
    15
100
AcDbLine
 10
-17.11146937596652
 20
-0.3968749999999986
 30
0.0
 11
-16.96249999999999
 21
-0.3968749999999986
 31
0.0
  0
LINE
  5
2EC
330
1F
100
AcDbEntity
  8
외형선
  6
Continuous
370
    15
100
AcDbLine
 10
-16.96249999999999
 20
0.3968750000000006
 30
0.0
 11
-17.11146937596651
 21
0.3968750000000006
 31
0.0
  0
LINE
  5
2ED
330
1F
100
AcDbEntity
  8
0
  6
Continuous
 62
     1
370
    25
100
AcDbLine
 10
-18.02088890209585
 20
-0.1017796052176018
 30
0.0
 11
-17.91289597493515
 21
-0.1565344466298207
 31
0.0
  0
SPLINE
  5
2EE
330
1F
100
AcDbEntity
  8
0
  6
Continuous
 62
     1
370
    25
100
AcDbSpline
210
0.0
220
0.0
230
1.0
 70
     8
 71
     3
 72
     9
 73
     5
 74
     0
 42
0.000000001
 43
0.00000001
 40
0.0
 40
0.0
 40
0.0
 40
0.0
 40
0.6020421231476188
 40
1.0
 40
1.0
 40
1.0
 40
1.0
 10
-17.89158967534854
 20
-0.3153828402280013
 30
0.0
 10
-17.82352602163643
 20
-0.3123891204774453
 30
0.0
 10
-17.7104713846016
 20
-0.3074165120245603
 30
0.0
 10
-17.59650184007147
 20
-0.3121616218233186
 30
0.0
 10
-17.55114676210441
 20
-0.3140499756442637
 30
0.0
  0
SPLINE
  5
2EF
330
1F
100
AcDbEntity
  8
0
  6
Continuous
 62
     1
370
    25
100
AcDbSpline
210
0.0
220
0.0
230
1.0
 70
     8
 71
     3
 72
    11
 73
     7
 74
     0
 42
0.000000001
 43
0.00000001
 40
0.0
 40
0.0
 40
0.0
 40
0.0
 40
0.3245730000281587
 40
0.4866248844606581
 40
0.6534728596403611
 40
0.9999999999999999
 40
0.9999999999999999
 40
0.9999999999999999
 40
0.9999999999999999
 10
-18.88277971690701
 20
-0.2696189135974806
 30
0.0
 10
-18.81101233931837
 20
-0.2655006708150623
 30
0.0
 10
-18.7034131495395
 20
-0.2593262834877103
 30
0.0
 10
-18.55588227880685
 20
-0.2628260055958024
 30
0.0
 10
-18.40355624997747
 20
-0.2714745600364247
 30
0.0
 10
-18.28781538147068
 20
-0.2876234381254229
 30
0.0
 10
-18.20969053479932
 20
-0.2985238974091161
 30
0.0
  0
SPLINE
  5
2F0
330
1F
100
AcDbEntity
  8
0
  6
Continuous
 62
     1
370
    25
100
AcDbSpline
210
0.0
220
0.0
230
1.0
 70
     8
 71
     3
 72
     9
 73
     5
 74
     0
 42
0.000000001
 43
0.00000001
 40
0.0
 40
0.0
 40
0.0
 40
0.0
 40
0.7748367237539175
 40
1.0
 40
1.0
 40
1.0
 40
1.0
 10
-18.20969053479932
 20
0.2985238974091181
 30
0.0
 10
-18.28780909906571
 20
0.2872392381655892
 30
0.0
 10
-18.3886284870368
 20
0.2726753192165027
 30
0.0
 10
-18.48950835164678
 20
0.2672979259676175
 30
0.0
 10
-18.51222279246963
 20
0.2660871344860346
 30
0.0
  0
SPLINE
  5
2F1
330
1F
100
AcDbEntity
  8
0
  6
Continuous
 62
     1
370
    25
100
AcDbSpline
210
0.0
220
0.0
230
1.0
 70
     8
 71
     3
 72
    11
 73
     7
 74
     0
 42
0.000000001
 43
0.00000001
 40
0.0
 40
0.0
 40
0.0
 40
0.0
 40
0.2672951224473223
 40
0.4285646069768324
 40
0.6312840927319247
 40
1.0
 40
1.0
 40
1.0
 40
1.0
 10
-17.46249999999999
 20
0.3167409785024723
 30
0.0
 10
-17.50197943835785
 20
0.3145208265242757
 30
0.0
 10
-17.56527834867315
 20
0.310961170997259
 30
0.0
 10
-17.6536703289691
 20
0.3098109347901704
 30
0.0
 10
-17.75433503802546
 20
0.3097476914763454
 30
0.0
 10
-17.83776007567491
 20
0.3131728034138056
 30
0.0
 10
-17.89158967534854
 20
0.3153828402279998
 30
0.0
  0
LINE
  5
2F2
330
1F
100
AcDbEntity
  8
외형선
  6
Continuous
370
    15
100
AcDbLine
 10
-16.96249999999999
 20
-0.3968749999999986
 30
0.0
 11
-16.96249999999999
 21
-0.3960404654485864
 31
0.0
  0
SPLINE
  5
2F3
330
1F
100
AcDbEntity
  8
외형선
  6
Continuous
370
    15
100
AcDbSpline
210
0.0
220
0.0
230
1.0
 70
     8
 71
     3
 72
     8
 73
     4
 74
     0
 42
0.000000001
 43
0.00000001
 40
0.0
 40
0.0
 40
0.0
 40
0.0
 40
0.0001700210131649
 40
0.0001700210131649
 40
0.0001700210131649
 40
0.0001700210131649
 10
-16.8143842335746
 20
-0.4338366095602496
 30
0.0
 10
-16.86404318194089
 20
-0.4232747278173478
 30
0.0
 10
-16.91315601916833
 20
-0.4108249953400865
 30
0.0
 10
-16.96249999999999
 20
-0.3960404654485864
 30
0.0
  0
SPLINE
  5
2F4
330
1F
100
AcDbEntity
  8
외형선
  6
Continuous
370
    15
100
AcDbSpline
210
0.0
220
0.0
230
1.0
 70
    24
 71
     3
 72
    24
 73
    20
 74
     0
 42
0.000000001
 43
0.00000001
 40
0.0
 40
0.0
 40
0.0
 40
0.0
 40
0.0603854485299423
 40
0.1225220791580511
 40
0.1829075276881462
 40
0.2450441583164301
 40
0.3054296068461693
 40
0.3675662374739759
 40
0.4279516860037996
 40
0.4900883166317876
 40
0.5504737651616584
 40
0.6126103957896976
 40
0.6729958443193795
 40
0.7351324749475587
 40
0.7955179234774059
 40
0.8576545541054196
 40
0.9180400026352635
 40
0.9801766332632736
 40
1.0
 40
1.0
 40
1.0
 40
1.0
 10
-16.8143842335746
 20
0.4041060636089099
 30
0.0
 10
-16.8143842335746
 20
0.3938721954550345
 30
0.0
 10
-16.8143842335746
 20
0.3731076762775302
 30
0.0
 10
-16.8143842335746
 20
0.3285307797615565
 30
0.0
 10
-16.8143842335746
 20
0.2750065061862684
 30
0.0
 10
-16.8143842335746
 20
0.2139770640817985
 30
0.0
 10
-16.8143842335746
 20
0.1463496245756409
 30
0.0
 10
-16.8143842335746
 20
0.0751811636007026
 30
0.0
 10
-16.8143842335746
 20
0.0012251895706924
 30
0.0
 10
-16.8143842335746
 20
-0.0720993522066927
 30
0.0
 10
-16.8143842335746
 20
-0.1440348906501122
 30
0.0
 10
-16.8143842335746
 20
-0.2112524719518242
 30
0.0
 10
-16.8143842335746
 20
-0.2730535814701022
 30
0.0
 10
-16.8143842335746
 20
-0.3265975972338716
 30
0.0
 10
-16.8143842335746
 20
-0.3712543583486728
 30
0.0
 10
-16.8143842335746
 20
-0.4052477536534206
 30
0.0
 10
-16.8143842335746
 20
-0.427136773981826
 30
0.0
 10
-16.8143842335746
 20
-0.4371244953839167
 30
0.0
 10
-16.8143842335746
 20
-0.4355998944557172
 30
0.0
 10
-16.8143842335746
 20
-0.4352311447693012
 30
0.0
  0
SPLINE
  5
2F5
330
1F
100
AcDbEntity
  8
외형선
  6
Continuous
370
    15
100
AcDbSpline
210
0.0
220
0.0
230
1.0
 70
     8
 71
     3
 72
     8
 73
     4
 74
     0
 42
0.000000001
 43
0.00000001
 40
0.0
 40
0.0
 40
0.0
 40
0.0
 40
0.0001693830630867
 40
0.0001693830630867
 40
0.0001693830630867
 40
0.0001693830630867
 10
-16.96249999999999
 20
0.3877411783240304
 30
0.0
 10
-16.91270708132329
 20
0.3958631086742691
 30
0.0
 10
-16.86352636175192
 20
0.4011817835751038
 30
0.0
 10
-16.8143842335746
 20
0.4041060636089099
 30
0.0
  0
LINE
  5
2F6
330
1F
100
AcDbEntity
  8
외형선
  6
Continuous
370
    15
100
AcDbLine
 10
-16.96249999999999
 20
0.3877411783240482
 30
0.0
 11
-16.96249999999999
 21
0.3968750000000006
 31
0.0
  0
SPLINE
  5
2F7
330
1F
100
AcDbEntity
  8
외형선
  6
Continuous
370
    15
100
AcDbSpline
210
0.0
220
0.0
230
1.0
 70
     8
 71
     3
 72
     9
 73
     5
 74
     0
 42
0.000000001
 43
0.00000001
 40
0.0
 40
0.0
 40
0.0
 40
0.0
 40
0.7700388812130625
 40
1.0
 40
1.0
 40
1.0
 40
1.0
 10
-16.8143842335746
 20
0.4338366095602516
 30
0.0
 10
-16.83912157492499
 20
0.4284889744261903
 30
0.0
 10
-16.871246370119
 20
0.4215443444022703
 30
0.0
 10
-16.90321840380604
 20
0.4125159465604425
 30
0.0
 10
-16.91057072844261
 20
0.4104397660918827
 30
0.0
  0
SPLINE
  5
2F8
330
1F
100
AcDbEntity
  8
외형선
  6
Continuous
370
    15
100
AcDbSpline
210
0.0
220
0.0
230
1.0
 70
    24
 71
     3
 72
     9
 73
     5
 74
     0
 42
0.000000001
 43
0.00000001
 40
0.0
 40
0.0
 40
0.0
 40
0.0
 40
0.0807178305463384
 40
0.9999999999999999
 40
0.9999999999999999
 40
0.9999999999999999
 40
0.9999999999999999
 10
-16.8143842335746
 20
0.4350216770480585
 30
0.0
 10
-16.8143842335746
 20
0.4353328074532384
 30
0.0
 10
-16.8143842335746
 20
0.4391873511528807
 30
0.0
 10
-16.8143842335746
 20
0.4363994642659029
 30
0.0
 10
-16.8143842335746
 20
0.4338366095602516
 30
0.0
  0
SPLINE
  5
2F9
330
1F
100
AcDbEntity
  8
외형선
  6
Continuous
370
    15
100
AcDbSpline
210
0.0
220
0.0
230
1.0
 70
    24
 71
     3
 72
    12
 73
     8
 74
     0
 42
0.000000001
 43
0.00000001
 40
0.0
 40
0.0
 40
0.0
 40
0.0
 40
0.1860564043876724
 40
0.3746885408753625
 40
0.6404888968998597
 40
0.9139974812558757
 40
1.0
 40
1.0
 40
1.0
 40
1.0
 10
-17.46249999999999
 20
0.2346518729724983
 30
0.0
 10
-17.46249999999999
 20
0.2440630138255414
 30
0.0
 10
-17.46249999999999
 20
0.2630155817084009
 30
0.0
 10
-17.46249999999999
 20
0.2880980740435098
 30
0.0
 10
-17.46249999999999
 20
0.3076998280340454
 30
0.0
 10
-17.46249999999999
 20
0.3171901278008199
 30
0.0
 10
-17.46249999999999
 20
0.3159468759646692
 30
0.0
 10
-17.46249999999999
 20
0.3156494643175157
 30
0.0
  0
SPLINE
  5
2FA
330
1F
100
AcDbEntity
  8
외형선
  6
Continuous
370
    15
100
AcDbSpline
210
0.0
220
0.0
230
1.0
 70
     8
 71
     3
 72
    10
 73
     6
 74
     0
 42
0.000000001
 43
0.00000001
 40
0.0
 40
0.0
 40
0.0
 40
0.0
 40
0.0469981982259091
 40
0.6875236263456261
 40
1.0
 40
1.0
 40
1.0
 40
1.0
 10
-17.28148264735528
 20
0.3300532881793671
 30
0.0
 10
-17.27416871550311
 20
0.3311501107885945
 30
0.0
 10
-17.16717523193005
 20
0.3471952249891493
 30
0.0
 10
-17.01131413228916
 20
0.340780143504449
 30
0.0
 10
-16.86301086484275
 20
0.3029473500317891
 30
0.0
 10
-16.8143842335746
 20
0.2905424898441772
 30
0.0
  0
SPLINE
  5
2FB
330
1F
100
AcDbEntity
  8
외형선
  6
Continuous
370
    15
100
AcDbSpline
210
0.0
220
0.0
230
1.0
 70
     8
 71
     3
 72
    10
 73
     6
 74
     0
 42
0.000000001
 43
0.00000001
 40
0.0
 40
0.0
 40
0.0
 40
0.0
 40
0.3131961960404704
 40
0.7747686316449883
 40
1.0
 40
1.0
 40
1.0
 40
1.0
 10
-17.46249999999999
 20
0.2346518729724983
 30
0.0
 10
-17.39486994984205
 20
0.2116881196474188
 30
0.0
 10
-17.22757021222908
 20
0.1548815684631065
 30
0.0
 10
-17.01135325604825
 20
0.0557758556301336
 30
0.0
 10
-16.86302665856212
 20
-0.0117716089230243
 30
0.0
 10
-16.8143842335746
 20
-0.0339232158047985
 30
0.0
  0
SPLINE
  5
2FC
330
1F
100
AcDbEntity
  8
외형선
  6
Continuous
370
    15
100
AcDbSpline
210
0.0
220
0.0
230
1.0
 70
    24
 71
     3
 72
     8
 73
     4
 74
     0
 42
0.000000001
 43
0.00000001
 40
0.0
 40
0.0
 40
0.0
 40
0.0
 40
1.0
 40
1.0
 40
1.0
 40
1.0
 10
-17.46249999999998
 20
-0.2791811431205183
 30
0.0
 10
-17.46249999999998
 20
-0.2599199552817354
 30
0.0
 10
-17.46249999999998
 20
-0.2242051587789192
 30
0.0
 10
-17.46249999999998
 20
-0.1871451925066488
 30
0.0
  0
SPLINE
  5
2FD
330
1F
100
AcDbEntity
  8
외형선
  6
Continuous
370
    15
100
AcDbSpline
210
0.0
220
0.0
230
1.0
 70
     8
 71
     3
 72
    10
 73
     6
 74
     0
 42
0.000000001
 43
0.00000001
 40
0.0
 40
0.0
 40
0.0
 40
0.0
 40
0.3035751016075882
 40
0.7510363352660849
 40
1.0
 40
1.0
 40
1.0
 40
1.0
 10
-17.46249999999999
 20
-0.1871451925066488
 30
0.0
 10
-17.39486962538955
 20
-0.205420257485195
 30
0.0
 10
-17.22755396468114
 20
-0.2506322585865853
 30
0.0
 10
-17.00454561498249
 20
-0.2839260028292266
 30
0.0
 10
-16.84937995101662
 20
-0.2727400198879238
 30
0.0
 10
-16.79391006125394
 20
-0.2687411632802047
 30
0.0
  0
SPLINE
  5
2FE
330
1F
100
AcDbEntity
  8
외형선
  6
Continuous
370
    15
100
AcDbSpline
210
0.0
220
0.0
230
1.0
 70
     8
 71
     3
 72
    12
 73
     8
 74
     0
 42
0.000000001
 43
0.00000001
 40
0.0
 40
0.0
 40
0.0
 40
0.0
 40
0.4999999999999998
 40
0.4999999999999998
 40
0.7499999999999998
 40
0.7499999999999998
 40
1.0
 40
1.0
 40
1.0
 40
1.0
 10
-16.96250000000153
 20
-0.3960404654485296
 30
0.0
 10
-17.04545636234347
 20
-0.3929338150234373
 30
0.0
 10
-17.13195981188464
 20
-0.3808379169013961
 30
0.0
 10
-17.25463458960218
 20
-0.3511177346465616
 30
0.0
 10
-17.29456240127097
 20
-0.3393543289262667
 30
0.0
 10
-17.37788540033097
 20
-0.3119147081933179
 30
0.0
 10
-17.42032504136857
 20
-0.2963089352362765
 30
0.0
 10
-17.46249999999998
 20
-0.2791811431205183
 30
0.0
  0
SPLINE
  5
2FF
330
1F
100
AcDbEntity
  8
외형선
  6
Continuous
370
    15
100
AcDbSpline
210
0.0
220
0.0
230
1.0
 70
    24
 71
     3
 72
    10
 73
     6
 74
     0
 42
0.000000001
 43
0.00000001
 40
0.0
 40
0.0
 40
0.0
 40
0.0
 40
0.5
 40
0.5
 40
1.0
 40
1.0
 40
1.0
 40
1.0
 10
-17.46249999999999
 20
-0.1871451925066488
 30
0.0
 10
-17.46249999999999
 20
-0.1262861546906721
 30
0.0
 10
-17.46249999999999
 20
-0.0523147919183494
 30
0.0
 10
-17.46249999999999
 20
0.0976162069081986
 30
0.0
 10
-17.46249999999999
 20
0.1724141646515555
 30
0.0
 10
-17.46249999999999
 20
0.2346518729724983
 30
0.0
  0
SPLINE
  5
300
330
1F
100
AcDbEntity
  8
외형선
  6
Continuous
370
    15
100
AcDbSpline
210
0.0
220
0.0
230
1.0
 70
     8
 71
     3
 72
     9
 73
     5
 74
     0
 42
0.000000001
 43
0.00000001
 40
0.0
 40
0.0
 40
0.0
 40
0.0
 40
0.793302471829682
 40
1.0
 40
1.0
 40
1.0
 40
1.0
 10
-17.46249999999999
 20
-0.3462269425498946
 30
0.0
 10
-17.36976028227231
 20
-0.3699408693880074
 30
0.0
 10
-17.25285693075017
 20
-0.3998335366620908
 30
0.0
 10
-17.13568792071827
 20
-0.3936799440566191
 30
0.0
 10
-17.11146937596652
 20
-0.3924080116757026
 30
0.0
  0
LINE
  5
301
330
1F
100
AcDbEntity
  8
외형선
  6
Continuous
370
    15
100
AcDbLine
 10
-17.46249999999999
 20
-0.3462269425498946
 30
0.0
 11
-17.46249999999999
 21
-0.2791811431205148
 31
0.0
  0
SPLINE
  5
302
330
1F
100
AcDbEntity
  8
외형선
  6
Continuous
370
    15
100
AcDbSpline
210
0.0
220
0.0
230
1.0
 70
     8
 71
     3
 72
    12
 73
     8
 74
     0
 42
0.000000001
 43
0.00000001
 40
0.0
 40
0.0
 40
0.0
 40
0.0
 40
0.25
 40
0.25
 40
0.5
 40
0.5
 40
1.0
 40
1.0
 40
1.0
 40
1.0
 10
-17.46249999999999
 20
0.3462269425498966
 30
0.0
 10
-17.42032504136844
 20
0.3580067637555465
 30
0.0
 10
-17.37788540033071
 20
0.3678799083968683
 30
0.0
 10
-17.29456240127045
 20
0.3833750929738918
 30
0.0
 10
-17.25463458960157
 20
0.3889784381468281
 30
0.0
 10
-17.1319598118836
 20
0.3995652325865492
 30
0.0
 10
-17.04545636234215
 20
0.3979649625570679
 30
0.0
 10
-16.96249999999999
 20
0.3877411783240482
 30
0.0
  0
SPLINE
  5
303
330
1F
100
AcDbEntity
  8
외형선
  6
Continuous
370
    15
100
AcDbSpline
210
0.0
220
0.0
230
1.0
 70
    24
 71
     3
 72
    10
 73
     6
 74
     0
 42
0.000000001
 43
0.00000001
 40
0.0
 40
0.0
 40
0.0
 40
0.0
 40
0.0301616972628547
 40
0.6541305995877617
 40
1.0
 40
1.0
 40
1.0
 40
1.0
 10
-17.46249999999999
 20
0.3321118228223191
 30
0.0
 10
-17.46249999999999
 20
0.3322613380887943
 30
0.0
 10
-17.46249999999999
 20
0.3355039444333726
 30
0.0
 10
-17.46249999999999
 20
0.34019886187967
 30
0.0
 10
-17.46249999999999
 20
0.344642298299923
 30
0.0
 10
-17.46249999999999
 20
0.3462269425505219
 30
0.0
  0
SPLINE
  5
304
330
1F
100
AcDbEntity
  8
0
  6
Continuous
 62
     1
370
    25
100
AcDbSpline
210
0.0
220
0.0
230
1.0
 70
     8
 71
     3
 72
    22
 73
    18
 74
     0
 42
0.000000001
 43
0.00000001
 40
0.0
 40
0.0
 40
0.0
 40
0.0
 40
0.125
 40
0.125
 40
0.25
 40
0.25
 40
0.375
 40
0.375
 40
0.5
 40
0.5
 40
0.625
 40
0.625
 40
0.75
 40
0.75
 40
0.875
 40
0.875
 40
1.0
 40
1.0
 40
1.0
 40
1.0
 10
-19.04999999999998
 20
0.3766109074764109
 30
0.0
 10
-18.98608665682211
 20
0.3646970946262825
 30
0.0
 10
-18.91845589367149
 20
0.3473317298349193
 30
0.0
 10
-18.78390055599787
 20
0.3033274434672705
 30
0.0
 10
-18.71904579684022
 20
0.2770356576236238
 30
0.0
 10
-18.58874972042652
 20
0.2175853008349328
 30
0.0
 10
-18.52059916316524
 20
0.1839376821141619
 30
0.0
 10
-18.38663644897811
 20
0.1127830206206425
 30
0.0
 10
-18.32329434493299
 20
0.075804854486008
 30
0.0
 10
-18.19106022256894
 20
-0.0002341597987233
 30
0.0
 10
-18.12269863300003
 20
-0.0392076492129342
 30
0.0
 10
-17.98991249517248
 20
-0.114256153226603
 30
0.0
 10
-17.9267981183643
 20
-0.1501166583470458
 30
0.0
 10
-17.79318487857452
 20
-0.2180238835308587
 30
0.0
 10
-17.72492426997543
 20
-0.2495823851288897
 30
0.0
 10
-17.59388158526383
 20
-0.3041470674194188
 30
0.0
 10
-17.52970674780076
 20
-0.3274555317745332
 30
0.0
 10
-17.46250000000016
 20
-0.3462269425498449
 30
0.0
  0
SPLINE
  5
305
330
1F
100
AcDbEntity
  8
0
  6
Continuous
 62
     1
370
    25
100
AcDbSpline
210
0.0
220
0.0
230
1.0
 70
     8
 71
     3
 72
    11
 73
     7
 74
     0
 42
0.000000001
 43
0.00000001
 40
0.0
 40
0.0
 40
0.0
 40
0.0
 40
0.2889377300471014
 40
0.5766769221721535
 40
0.8638301993091947
 40
1.0
 40
1.0
 40
1.0
 40
1.0
 10
-19.04999999999998
 20
0.3131233674211372
 30
0.0
 10
-18.95014733216904
 20
0.2891344048684089
 30
0.0
 10
-18.75085619374264
 20
0.2412559879902957
 30
0.0
 10
-18.4525825111882
 20
0.109931115237795
 30
0.0
 10
-18.2071271462685
 20
-0.0148987029240261
 30
0.0
 10
-18.0609821824537
 20
-0.0815493227942178
 30
0.0
 10
-18.01397191621274
 20
-0.1029887436502975
 30
0.0
  0
LINE
  5
306
330
1F
100
AcDbEntity
  8
0
  6
Continuous
 62
     1
370
    25
100
AcDbLine
 10
-19.04999999999998
 20
0.3766109074764109
 30
0.0
 11
-19.04999999999998
 21
0.3131233674211372
 31
0.0
  0
SPLINE
  5
307
330
1F
100
AcDbEntity
  8
0
  6
Continuous
 62
     1
370
    25
100
AcDbSpline
210
0.0
220
0.0
230
1.0
 70
     8
 71
     3
 72
    22
 73
    18
 74
     0
 42
0.000000001
 43
0.00000001
 40
0.0
 40
0.0
 40
0.0
 40
0.0
 40
0.1249999999999999
 40
0.1249999999999999
 40
0.25
 40
0.25
 40
0.375
 40
0.375
 40
0.4999999999999999
 40
0.4999999999999999
 40
0.6249999999999999
 40
0.6249999999999999
 40
0.7499999999999998
 40
0.7499999999999998
 40
0.8749999999999998
 40
0.8749999999999998
 40
1.0
 40
1.0
 40
1.0
 40
1.0
 10
-17.46249999999999
 20
-0.2791811431205148
 30
0.0
 10
-17.52970674780059
 20
-0.2518876200808159
 30
0.0
 10
-17.59388158526369
 20
-0.2211215811344339
 30
0.0
 10
-17.72492426997529
 20
-0.1540062044596987
 30
0.0
 10
-17.79318487857438
 20
-0.1173458739454504
 30
0.0
 10
-17.92679811836418
 20
-0.0422615854216958
 30
0.0
 10
-17.98991249517236
 20
-0.0043133376348948
 30
0.0
 10
-18.12269863299993
 20
0.071900627527664
 30
0.0
 10
-18.19106022256884
 20
0.1098905522407022
 30
0.0
 10
-18.32329434493292
 20
0.1809635594553028
 30
0.0
 10
-18.38663644897804
 20
0.2140192546968144
 30
0.0
 10
-18.52059916316519
 20
0.2744860143197193
 30
0.0
 10
-18.58874972042648
 20
0.3013895486532788
 30
0.0
 10
-18.71904579684019
 20
0.345445730466735
 30
0.0
 10
-18.78390055599785
 20
0.3630055768952004
 30
0.0
 10
-18.91845589367148
 20
0.3879046879821565
 30
0.0
 10
-18.98608665682211
 20
0.3949871310314484
 30
0.0
 10
-19.04999999999998
 20
0.3965395672942648
 30
0.0
  0
SPLINE
  5
308
330
1F
100
AcDbEntity
  8
0
  6
Continuous
 62
     1
370
    25
100
AcDbSpline
210
0.0
220
0.0
230
1.0
 70
     8
 71
     3
 72
    10
 73
     6
 74
     0
 42
0.000000001
 43
0.00000001
 40
0.0
 40
0.0
 40
0.0
 40
0.0
 40
0.3441091119355504
 40
0.6747925940604899
 40
1.0
 40
1.0
 40
1.0
 40
1.0
 10
-18.06489943830263
 20
0.037605158638999
 30
0.0
 10
-17.99581218091402
 20
0.0097204343530307
 30
0.0
 10
-17.86033314820965
 20
-0.0449610744560588
 30
0.0
 10
-17.65922102231572
 20
-0.1233527847167694
 30
0.0
 10
-17.52770766955976
 20
-0.1659997439998343
 30
0.0
 10
-17.46249999999999
 20
-0.1871451925066488
 30
0.0
  0
SPLINE
  5
309
330
1F
100
AcDbEntity
  8
외형선
  6
Continuous
370
    15
100
AcDbSpline
210
0.0
220
0.0
230
1.0
 70
    24
 71
     3
 72
     8
 73
     4
 74
     0
 42
0.000000001
 43
0.00000001
 40
0.0
 40
0.0
 40
0.0
 40
0.0
 40
1.0
 40
1.0
 40
1.0
 40
1.0
 10
-17.46249999999998
 20
-0.2791811431205183
 30
0.0
 10
-17.46249999999998
 20
-0.2599199552817354
 30
0.0
 10
-17.46249999999998
 20
-0.2242051587789192
 30
0.0
 10
-17.46249999999998
 20
-0.1871451925066488
 30
0.0
  0
LINE
  5
30A
330
1F
100
AcDbEntity
  8
0
  6
Continuous
 62
     1
370
    25
100
AcDbLine
 10
-19.04999999999998
 20
0.3965395672942648
 30
0.0
 11
-19.04999999999997
 21
0.3766109074764109
 31
0.0
  0
SPLINE
  5
30B
330
1F
100
AcDbEntity
  8
0
  6
Continuous
 62
     1
370
    25
100
AcDbSpline
210
0.0
220
0.0
230
1.0
 70
     8
 71
     3
 72
     8
 73
     4
 74
     0
 42
0.000000001
 43
0.00000001
 40
0.0
 40
0.0
 40
0.0
 40
0.0
 40
1.0
 40
1.0
 40
1.0
 40
1.0
 10
-18.80487869489134
 20
-0.110552409021495
 30
0.0
 10
-18.79062611634457
 20
-0.127423523665091
 30
0.0
 10
-18.77789810768621
 20
-0.1436703987660594
 30
0.0
 10
-18.76707500202794
 20
-0.1591373058336999
 30
0.0
  0
LINE
  5
30C
330
1F
100
AcDbEntity
  8
0
  6
Continuous
 62
     1
370
    25
100
AcDbLine
 10
-18.77204719523458
 20
-0.1633094713309128
 30
0.0
 11
-19.04999999999998
 21
-0.0000000000000008
 31
0.0
  0
LINE
  5
30D
330
1F
100
AcDbEntity
  8
0
  6
Continuous
 62
     1
370
    25
100
AcDbLine
 10
-19.04999999999998
 20
-0.0000000000000008
 30
0.0
 11
-19.04999999999998
 21
0.1060620442055146
 31
0.0
  0
SPLINE
  5
30E
330
1F
100
AcDbEntity
  8
0
  6
Continuous
 62
     1
370
    25
100
AcDbSpline
210
0.0
220
0.0
230
1.0
 70
     8
 71
     3
 72
     8
 73
     4
 74
     0
 42
0.000000001
 43
0.00000001
 40
0.0
 40
0.0
 40
0.0
 40
0.0
 40
1.0
 40
1.0
 40
1.0
 40
1.0
 10
-19.04999999999998
 20
0.1060620442055146
 30
0.0
 10
-18.96515313053233
 20
0.0393536404118669
 30
0.0
 10
-18.88156195477934
 20
-0.0337168127794784
 30
0.0
 10
-18.80487869489102
 20
-0.110552409020717
 30
0.0
  0
SPLINE
  5
30F
330
1F
100
AcDbEntity
  8
0
  6
Continuous
 62
     1
370
    25
100
AcDbSpline
210
0.0
220
0.0
230
1.0
 70
     8
 71
     3
 72
    11
 73
     7
 74
     0
 42
0.000000001
 43
0.00000001
 40
0.0
 40
0.0
 40
0.0
 40
0.0
 40
0.1909226389500977
 40
0.3858586336655943
 40
0.7112367506342345
 40
1.0
 40
1.0
 40
1.0
 40
1.0
 10
-18.80487869489133
 20
-0.1105524090214986
 30
0.0
 10
-18.74686983043733
 20
-0.1352951406501298
 30
0.0
 10
-18.62963270600935
 20
-0.1853007171070623
 30
0.0
 10
-18.41253050666131
 20
-0.2577548339787555
 30
0.0
 10
-18.16621115316525
 20
-0.31688111601935
 30
0.0
 10
-17.97907865722075
 20
-0.3138310416581057
 30
0.0
 10
-17.89109079228766
 20
-0.3123969265965884
 30
0.0
  0
SPLINE
  5
310
330
1F
100
AcDbEntity
  8
0
  6
Continuous
 62
     1
370
    25
100
AcDbSpline
210
0.0
220
0.0
230
1.0
 70
    24
 71
     3
 72
     8
 73
     4
 74
     0
 42
0.000000001
 43
0.00000001
 40
0.0
 40
0.0
 40
0.0
 40
0.0
 40
1.0
 40
1.0
 40
1.0
 40
1.0
 10
-19.04999999999998
 20
0.3131233674211372
 30
0.0
 10
-19.04999999999998
 20
0.2651166726006365
 30
0.0
 10
-19.04999999999998
 20
0.1902507387164497
 30
0.0
 10
-19.04999999999998
 20
0.1060620442055288
 30
0.0
  0
SPLINE
  5
311
330
1F
100
AcDbEntity
  8
0
  6
Continuous
 62
     1
370
    25
100
AcDbSpline
210
0.0
220
0.0
230
1.0
 70
    24
 71
     3
 72
     8
 73
     4
 74
     0
 42
0.000000001
 43
0.00000001
 40
0.0
 40
0.0
 40
0.0
 40
0.0
 40
1.0
 40
1.0
 40
1.0
 40
1.0
 10
-18.80826430936533
 20
-0.1936992384402928
 30
0.0
 10
-18.79522633921799
 20
-0.1827590824983546
 30
0.0
 10
-18.78145189846992
 20
-0.1712009543470295
 30
0.0
 10
-18.76707500202289
 20
-0.1591373058408515
 30
0.0
  0
LINE
  5
312
330
1F
100
AcDbEntity
  8
0
  6
Continuous
 62
     1
370
    25
100
AcDbLine
 10
-19.04999999999998
 20
-0.2778125000000004
 30
0.0
 11
-18.88116653660225
 21
-0.2632553423505762
 31
0.0
  0
SPLINE
  5
313
330
1F
100
AcDbEntity
  8
0
  6
Continuous
 62
     1
370
    25
100
AcDbSpline
210
0.0
220
0.0
230
1.0
 70
     8
 71
     3
 72
    17
 73
    13
 74
     0
 42
0.000000001
 43
0.00000001
 40
0.0
 40
0.0
 40
0.0
 40
0.0
 40
0.0001031126202385
 40
0.0001031126202385
 40
0.0001031126202385
 40
0.0002062313519065
 40
0.0002062313519065
 40
0.0002062313519065
 40
0.0002926365297924
 40
0.0002926365297924
 40
0.0002926365297924
 40
0.0003267556738152
 40
0.0003267556738152
 40
0.0003267556738152
 40
0.0003267556738152
 10
-19.04999999999998
 20
-0.2778125000000004
 30
0.0
 10
-19.02422776876439
 20
-0.2707777224272413
 30
0.0
 10
-18.99853216522403
 20
-0.2632411734053094
 30
0.0
 10
-18.97294310127982
 20
-0.2551467517548723
 30
0.0
 10
-18.94735315484336
 20
-0.2470520509514181
 30
0.0
 10
-18.92186201679992
 20
-0.2383979100308097
 30
0.0
 10
-18.89651216472755
 20
-0.2291045903526631
 30
0.0
 10
-18.87527052432438
 20
-0.2213173514294774
 30
0.0
 10
-18.85412183673331
 20
-0.2130790880162338
 30
0.0
 10
-18.83310289484807
 20
-0.2043224395195943
 30
0.0
 10
-18.82480276323089
 20
-0.2008645425691008
 30
0.0
 10
-18.81652223658386
 20
-0.1973252428047098
 30
0.0
 10
-18.80826430937974
 20
-0.1936992384466522
 30
0.0
  0
SPLINE
  5
314
330
1F
100
AcDbEntity
  8
0
  6
Continuous
 62
     1
370
    25
100
AcDbSpline
210
0.0
220
0.0
230
1.0
 70
     8
 71
     3
 72
    11
 73
     7
 74
     0
 42
0.000000001
 43
0.00000001
 40
0.0
 40
0.0
 40
0.0
 40
0.0
 40
0.0748155855965734
 40
0.4721304986889134
 40
0.7382115261982379
 40
1.0
 40
1.0
 40
1.0
 40
1.0
 10
-18.21102753984719
 20
0.2940984865426862
 30
0.0
 10
-18.19235732759381
 20
0.2983534915139351
 30
0.0
 10
-18.0745372697605
 20
0.325205084039495
 30
0.0
 10
-17.89044296002271
 20
0.3198234987734551
 30
0.0
 10
-17.65916653144315
 20
0.2910315086098186
 30
0.0
 10
-17.52769915297129
 20
0.2533429255954821
 30
0.0
 10
-17.46249999999999
 20
0.2346518729724983
 30
0.0
  0
SPLINE
  5
315
330
1F
100
AcDbEntity
  8
외형선
  6
Continuous
370
    15
100
AcDbSpline
210
0.0
220
0.0
230
1.0
 70
    24
 71
     3
 72
    10
 73
     6
 74
     0
 42
0.000000001
 43
0.00000001
 40
0.0
 40
0.0
 40
0.0
 40
0.0
 40
0.5
 40
0.5
 40
1.0
 40
1.0
 40
1.0
 40
1.0
 10
-17.46249999999999
 20
-0.1871451925066488
 30
0.0
 10
-17.46249999999999
 20
-0.1262861546906721
 30
0.0
 10
-17.46249999999999
 20
-0.0523147919183494
 30
0.0
 10
-17.46249999999999
 20
0.0976162069081986
 30
0.0
 10
-17.46249999999999
 20
0.1724141646515555
 30
0.0
 10
-17.46249999999999
 20
0.2346518729724983
 30
0.0
  0
LINE
  5
316
330
1F
100
AcDbEntity
  8
0
  6
Continuous
 62
     1
370
    25
100
AcDbLine
 10
-19.04999999999998
 20
-0.0000000000000008
 30
0.0
 11
-19.04999999999998
 21
-0.2778125000000004
 31
0.0
  0
SPLINE
  5
317
330
1F
100
AcDbEntity
  8
외형선
  6
Continuous
370
    15
100
AcDbSpline
210
0.0
220
0.0
230
1.0
 70
    24
 71
     3
 72
    12
 73
     8
 74
     0
 42
0.000000001
 43
0.00000001
 40
0.0
 40
0.0
 40
0.0
 40
0.0
 40
0.1866866937534971
 40
0.3759578452220053
 40
0.6426586332331677
 40
0.9170937621644625
 40
1.0
 40
1.0
 40
1.0
 40
1.0
 10
-17.46249999999999
 20
0.2346518729724983
 30
0.0
 10
-17.46249999999999
 20
0.2440628787153464
 30
0.0
 10
-17.46249999999999
 20
0.263015174507376
 30
0.0
 10
-17.46249999999999
 20
0.28810001170607
 30
0.0
 10
-17.46249999999999
 20
0.307689043142701
 30
0.0
 10
-17.46249999999999
 20
0.3171677954139752
 30
0.0
 10
-17.46249999999999
 20
0.3159516061898763
 30
0.0
 10
-17.46249999999999
 20
0.3156694399408934
 30
0.0
  0
SPLINE
  5
318
330
1F
100
AcDbEntity
  8
0
  6
Continuous
 62
     1
370
    25
100
AcDbSpline
210
0.0
220
0.0
230
1.0
 70
    24
 71
     3
 72
     8
 73
     4
 74
     0
 42
0.000000001
 43
0.00000001
 40
0.0
 40
0.0
 40
0.0
 40
0.0
 40
1.0
 40
1.0
 40
1.0
 40
1.0
 10
-19.04999999999998
 20
-0.2778125000000004
 30
0.0
 10
-19.04999999999998
 20
-0.3114931038408039
 30
0.0
 10
-19.04999999999998
 20
-0.3567874723731536
 30
0.0
 10
-19.04999999999998
 20
-0.3965395672942628
 30
0.0
  0
SPLINE
  5
319
330
1F
100
AcDbEntity
  8
0
  6
Continuous
 62
     1
370
    25
100
AcDbSpline
210
0.0
220
0.0
230
1.0
 70
     8
 71
     3
 72
    13
 73
     9
 74
     0
 42
0.000000001
 43
0.00000001
 40
0.0
 40
0.0
 40
0.0
 40
0.0
 40
0.1152665713359346
 40
0.220566612583716
 40
0.4131817647598056
 40
0.6071808639699015
 40
0.8028922377373904
 40
1.0
 40
1.0
 40
1.0
 40
1.0
 10
-18.50648663352356
 20
-0.2664321207651853
 30
0.0
 10
-18.52742976782433
 20
-0.2754427686816648
 30
0.0
 10
-18.56750518722882
 20
-0.2926849583736776
 30
0.0
 10
-18.64245465323579
 20
-0.3199770993079206
 30
0.0
 10
-18.73100518038902
 20
-0.3491125310636755
 30
0.0
 10
-18.83667344195082
 20
-0.3740255916476521
 30
0.0
 10
-18.94341674185586
 20
-0.3911312323755397
 30
0.0
 10
-19.01438815119593
 20
-0.3947325217154266
 30
0.0
 10
-19.04999999999998
 20
-0.3965395672942628
 30
0.0
  0
LINE
  5
31A
330
1F
100
AcDbEntity
  8
0
  6
Continuous
 62
     1
370
    25
100
AcDbLine
 10
-17.5560006331734
 20
0.3122881194292894
 30
0.0
 11
-17.46250000000016
 21
0.3462269425498469
 31
0.0
  0
SPLINE
  5
31B
330
1F
100
AcDbEntity
  8
외형선
  6
Continuous
370
    15
100
AcDbSpline
210
0.0
220
0.0
230
1.0
 70
    24
 71
     3
 72
    10
 73
     6
 74
     0
 42
0.000000001
 43
0.00000001
 40
0.0
 40
0.0
 40
0.0
 40
0.0
 40
0.0301616972628528
 40
0.6541305995877538
 40
1.0
 40
1.0
 40
1.0
 40
1.0
 10
-17.46249999999999
 20
0.3321118228223191
 30
0.0
 10
-17.46249999999999
 20
0.3322613380887943
 30
0.0
 10
-17.46249999999999
 20
0.3355039444333726
 30
0.0
 10
-17.46249999999999
 20
0.34019886187967
 30
0.0
 10
-17.46249999999999
 20
0.344642298299923
 30
0.0
 10
-17.46249999999999
 20
0.3462269425505219
 30
0.0
  0
LINE
  5
320
330
1F
100
AcDbEntity
  8
외형선
  6
Continuous
370
    15
100
AcDbLine
 10
-12.51902700723831
 20
-1.587500000000003
 30
0.0
 11
-12.51902700723831
 21
1.587499999999998
 31
0.0
  0
ENDSEC
  0
SECTION
  2
OBJECTS
  0
DICTIONARY
  5
C
330
0
100
AcDbDictionary
281
     1
  3
ACAD_GROUP
350
D
  3
ACAD_IMAGE_VARS
350
162
  3
ACAD_LAYOUT
350
1A
  3
ACAD_MLINESTYLE
350
17
  3
ACAD_PLOTSETTINGS
350
19
  3
ACAD_PLOTSTYLENAME
350
E
  3
ACAD_SCALELIST
350
47
  3
APPDATA
350
160
  3
DWGPROPS
350
372
  0
DICTIONARY
  5
370
330
1F
100
AcDbDictionary
280
     1
281
     1
  3
DIM_BOUNDING_BOXES_V1
360
371
  0
DICTIONARY
  5
D
102
{ACAD_REACTORS
330
C
102
}
330
C
100
AcDbDictionary
281
     1
  0
RASTERVARIABLES
  5
162
102
{ACAD_REACTORS
330
C
102
}
330
C
100
AcDbRasterVariables
 90
        0
 70
     1
 71
     1
 72
     1
  0
DICTIONARY
  5
1A
102
{ACAD_REACTORS
330
C
102
}
330
C
100
AcDbDictionary
281
     1
  3
Layout1
350
1E
  3
Layout2
350
26
  3
Model
350
22
  0
DICTIONARY
  5
17
102
{ACAD_REACTORS
330
C
102
}
330
C
100
AcDbDictionary
281
     1
  3
Standard
350
18
  0
DICTIONARY
  5
19
102
{ACAD_REACTORS
330
C
102
}
330
C
100
AcDbDictionary
281
     1
  0
ACDBDICTIONARYWDFLT
  5
E
102
{ACAD_REACTORS
330
C
102
}
330
C
100
AcDbDictionary
281
     1
  3
Normal
350
F
100
AcDbDictionaryWithDefault
340
F
  0
DICTIONARY
  5
47
102
{ACAD_REACTORS
330
C
102
}
330
C
100
AcDbDictionary
281
     1
  3
A0
350
48
  3
A1
350
49
  3
A2
350
4A
  3
A3
350
4B
  3
A4
350
4C
  3
A5
350
4D
  3
A6
350
4E
  3
A7
350
4F
  3
A8
350
50
  3
A9
350
51
  3
B0
350
52
  3
B1
350
53
  3
B2
350
54
  3
B3
350
55
  3
B4
350
56
  3
B5
350
57
  3
B6
350
58
  3
B7
350
59
  3
B8
350
5A
  3
B9
350
5B
  3
C0
350
5C
  3
C1
350
5D
  3
C2
350
5E
  3
C3
350
5F
  3
C4
350
60
  3
C5
350
61
  3
C6
350
62
  3
C7
350
63
  3
C8
350
64
  3
C9
350
65
  3
D0
350
66
  3
D1
350
67
  3
D2
350
68
  0
DICTIONARY
  5
160
102
{ACAD_REACTORS
330
C
102
}
330
C
100
AcDbDictionary
281
     1
  0
XRECORD
  5
372
102
{ACAD_REACTORS
330
C
102
}
330
C
100
AcDbXrecord
280
     1
  1
DWGPROPS COOKIE
  2

  3

  4

  6

  7

  8
12011056
  9

300
=
301
=
302
=
303
=
304
=
305
=
306
=
307
=
308
=
309
=
 40
0.0
 41
2458313.048049352
 42
2459719.257603391
  1

 90
        0
  0
DICTIONARY
  5
371
102
{ACAD_REACTORS
330
370
102
}
330
370
100
AcDbDictionary
281
     1
  0
LAYOUT
  5
1E
102
{ACAD_REACTORS
330
1A
102
}
330
1A
100
AcDbPlotSettings
  1

  2
none_device
  4

  6

 40
0.0
 41
0.0
 42
0.0
 43
0.0
 44
0.0
 45
0.0
 46
0.0
 47
0.0
 48
0.0
 49
0.0
140
0.0
141
0.0
142
1.0
143
1.0
 70
   688
 72
     1
 73
     0
 74
     5
  7

 75
    16
147
1.0
148
0.0
149
0.0
100
AcDbLayout
  1
Layout1
 70
     1
 71
     1
 10
0.0
 20
0.0
 11
420.0
 21
297.0
 12
0.0
 22
0.0
 32
0.0
 14
1.000000000000000E+20
 24
1.000000000000000E+20
 34
1.000000000000000E+20
 15
-1.000000000000000E+20
 25
-1.000000000000000E+20
 35
-1.000000000000000E+20
146
0.0
 13
0.0
 23
0.0
 33
0.0
 16
1.0
 26
0.0
 36
0.0
 17
0.0
 27
1.0
 37
0.0
 76
     0
330
1B
  0
LAYOUT
  5
26
102
{ACAD_REACTORS
330
1A
102
}
330
1A
100
AcDbPlotSettings
  1

  2
none_device
  4

  6

 40
0.0
 41
0.0
 42
0.0
 43
0.0
 44
0.0
 45
0.0
 46
0.0
 47
0.0
 48
0.0
 49
0.0
140
0.0
141
0.0
142
1.0
143
1.0
 70
   688
 72
     1
 73
     0
 74
     5
  7

 75
    16
147
1.0
148
0.0
149
0.0
100
AcDbLayout
  1
Layout2
 70
     1
 71
     2
 10
0.0
 20
0.0
 11
0.0
 21
0.0
 12
0.0
 22
0.0
 32
0.0
 14
0.0
 24
0.0
 34
0.0
 15
0.0
 25
0.0
 35
0.0
146
0.0
 13
0.0
 23
0.0
 33
0.0
 16
1.0
 26
0.0
 36
0.0
 17
0.0
 27
1.0
 37
0.0
 76
     0
330
23
  0
LAYOUT
  5
22
102
{ACAD_REACTORS
330
1A
102
}
330
1A
100
AcDbPlotSettings
  1

  2
none_device
  4
ANSI_A_(11.00_x_8.50_Inches)
  6

 40
6.35
 41
19.05
 42
6.35000508
 43
19.05000254
 44
279.4
 45
215.9
 46
100.9706914672021
 47
93.45353697727032
 48
0.0
 49
0.0
140
0.0
141
0.0
142
0.0827432106613853
143
1.0
 70
  1696
 72
     0
 73
     0
 74
     0
  7

 75
     0
147
0.0235690232323232
148
0.0
149
0.0
100
AcDbLayout
  1
Model
 70
     1
 71
     0
 10
0.0
 20
0.0
 11
420.0
 21
297.0
 12
0.0
 22
0.0
 32
0.0
 14
-29.45992727542973
 24
-39.9989250712761
 34
0.0
 15
81.21241335422454
 25
38.96250000000003
 35
0.0
146
0.0
 13
0.0
 23
0.0
 33
0.0
 16
1.0
 26
0.0
 36
0.0
 17
0.0
 27
1.0
 37
0.0
 76
     0
330
1F
331
29
  0
MLINESTYLE
  5
18
102
{ACAD_REACTORS
330
17
102
}
330
17
100
AcDbMlineStyle
  2
Standard
 70
     0
  3

 62
   256
 51
90.0
 52
90.0
 71
     2
 49
0.5
 62
   256
  6
BYLAYER
 49
-0.5
 62
   256
  6
BYLAYER
  0
ACDBPLACEHOLDER
  5
F
102
{ACAD_REACTORS
330
E
102
}
330
E
  0
SCALE
  5
48
102
{ACAD_REACTORS
330
47
102
}
330
47
100
AcDbScale
 70
     0
300
1:1
140
1.0
141
1.0
290
     1
  0
SCALE
  5
49
102
{ACAD_REACTORS
330
47
102
}
330
47
100
AcDbScale
 70
     0
300
1:2
140
1.0
141
2.0
290
     0
  0
SCALE
  5
4A
102
{ACAD_REACTORS
330
47
102
}
330
47
100
AcDbScale
 70
     0
300
1:4
140
1.0
141
4.0
290
     0
  0
SCALE
  5
4B
102
{ACAD_REACTORS
330
47
102
}
330
47
100
AcDbScale
 70
     0
300
1:5
140
1.0
141
5.0
290
     0
  0
SCALE
  5
4C
102
{ACAD_REACTORS
330
47
102
}
330
47
100
AcDbScale
 70
     0
300
1:8
140
1.0
141
8.0
290
     0
  0
SCALE
  5
4D
102
{ACAD_REACTORS
330
47
102
}
330
47
100
AcDbScale
 70
     0
300
1:10
140
1.0
141
10.0
290
     0
  0
SCALE
  5
4E
102
{ACAD_REACTORS
330
47
102
}
330
47
100
AcDbScale
 70
     0
300
1:16
140
1.0
141
16.0
290
     0
  0
SCALE
  5
4F
102
{ACAD_REACTORS
330
47
102
}
330
47
100
AcDbScale
 70
     0
300
1:20
140
1.0
141
20.0
290
     0
  0
SCALE
  5
50
102
{ACAD_REACTORS
330
47
102
}
330
47
100
AcDbScale
 70
     0
300
1:30
140
1.0
141
30.0
290
     0
  0
SCALE
  5
51
102
{ACAD_REACTORS
330
47
102
}
330
47
100
AcDbScale
 70
     0
300
1:40
140
1.0
141
40.0
290
     0
  0
SCALE
  5
52
102
{ACAD_REACTORS
330
47
102
}
330
47
100
AcDbScale
 70
     0
300
1:50
140
1.0
141
50.0
290
     0
  0
SCALE
  5
53
102
{ACAD_REACTORS
330
47
102
}
330
47
100
AcDbScale
 70
     0
300
1:100
140
1.0
141
100.0
290
     0
  0
SCALE
  5
54
102
{ACAD_REACTORS
330
47
102
}
330
47
100
AcDbScale
 70
     0
300
2:1
140
2.0
141
1.0
290
     0
  0
SCALE
  5
55
102
{ACAD_REACTORS
330
47
102
}
330
47
100
AcDbScale
 70
     0
300
4:1
140
4.0
141
1.0
290
     0
  0
SCALE
  5
56
102
{ACAD_REACTORS
330
47
102
}
330
47
100
AcDbScale
 70
     0
300
8:1
140
8.0
141
1.0
290
     0
  0
SCALE
  5
57
102
{ACAD_REACTORS
330
47
102
}
330
47
100
AcDbScale
 70
     0
300
10:1
140
10.0
141
1.0
290
     0
  0
SCALE
  5
58
102
{ACAD_REACTORS
330
47
102
}
330
47
100
AcDbScale
 70
     0
300
100:1
140
100.0
141
1.0
290
     0
  0
SCALE
  5
59
102
{ACAD_REACTORS
330
47
102
}
330
47
100
AcDbScale
 70
     0
300
1/128" = 1'-0"
140
0.0078125
141
12.0
290
     0
  0
SCALE
  5
5A
102
{ACAD_REACTORS
330
47
102
}
330
47
100
AcDbScale
 70
     0
300
1/64" = 1'-0"
140
0.015625
141
12.0
290
     0
  0
SCALE
  5
5B
102
{ACAD_REACTORS
330
47
102
}
330
47
100
AcDbScale
 70
     0
300
1/32" = 1'-0"
140
0.03125
141
12.0
290
     0
  0
SCALE
  5
5C
102
{ACAD_REACTORS
330
47
102
}
330
47
100
AcDbScale
 70
     0
300
1/16" = 1'-0"
140
0.0625
141
12.0
290
     0
  0
SCALE
  5
5D
102
{ACAD_REACTORS
330
47
102
}
330
47
100
AcDbScale
 70
     0
300
3/32" = 1'-0"
140
0.09375
141
12.0
290
     0
  0
SCALE
  5
5E
102
{ACAD_REACTORS
330
47
102
}
330
47
100
AcDbScale
 70
     0
300
1/8" = 1'-0"
140
0.125
141
12.0
290
     0
  0
SCALE
  5
5F
102
{ACAD_REACTORS
330
47
102
}
330
47
100
AcDbScale
 70
     0
300
3/16" = 1'-0"
140
0.1875
141
12.0
290
     0
  0
SCALE
  5
60
102
{ACAD_REACTORS
330
47
102
}
330
47
100
AcDbScale
 70
     0
300
1/4" = 1'-0"
140
0.25
141
12.0
290
     0
  0
SCALE
  5
61
102
{ACAD_REACTORS
330
47
102
}
330
47
100
AcDbScale
 70
     0
300
3/8" = 1'-0"
140
0.375
141
12.0
290
     0
  0
SCALE
  5
62
102
{ACAD_REACTORS
330
47
102
}
330
47
100
AcDbScale
 70
     0
300
1/2" = 1'-0"
140
0.5
141
12.0
290
     0
  0
SCALE
  5
63
102
{ACAD_REACTORS
330
47
102
}
330
47
100
AcDbScale
 70
     0
300
3/4" = 1'-0"
140
0.75
141
12.0
290
     0
  0
SCALE
  5
64
102
{ACAD_REACTORS
330
47
102
}
330
47
100
AcDbScale
 70
     0
300
1" = 1'-0"
140
1.0
141
12.0
290
     0
  0
SCALE
  5
65
102
{ACAD_REACTORS
330
47
102
}
330
47
100
AcDbScale
 70
     0
300
1-1/2" = 1'-0"
140
1.5
141
12.0
290
     0
  0
SCALE
  5
66
102
{ACAD_REACTORS
330
47
102
}
330
47
100
AcDbScale
 70
     0
300
3" = 1'-0"
140
3.0
141
12.0
290
     0
  0
SCALE
  5
67
102
{ACAD_REACTORS
330
47
102
}
330
47
100
AcDbScale
 70
     0
300
6" = 1'-0"
140
6.0
141
12.0
290
     0
  0
SCALE
  5
68
102
{ACAD_REACTORS
330
47
102
}
330
47
100
AcDbScale
 70
     0
300
1'-0" = 1'-0"
140
12.0
141
12.0
290
     0
  0
ENDSEC
  0
EOF
