  0
SECTION
  2
HEADER
  9
$ACADVER
  1
AC1015
  9
$ACADMAINTVER
 70
     6
  9
$DWGCODEPAGE
  3
ANSI_949
  9
$INSBASE
 10
0.0
 20
0.0
 30
0.0
  9
$EXTMIN
 10
-29.45992727542973
 20
-39.99892507127611
 30
0.0
  9
$EXTMAX
 10
81.21241335422454
 20
25.72466509735214
 30
0.0
  9
$LIMMIN
 10
0.0
 20
0.0
  9
$LIMMAX
 10
420.0
 20
297.0
  9
$ORTHOMODE
 70
     0
  9
$REGENMODE
 70
     1
  9
$FILLMODE
 70
     1
  9
$QTEXTMODE
 70
     0
  9
$MIRRTEXT
 70
     1
  9
$LTSCALE
 40
1.0
  9
$ATTMODE
 70
     1
  9
$TEXTSIZE
 40
3.5
  9
$TRACEWID
 40
1.0
  9
$TEXTSTYLE
  7
Standard
  9
$CLAYER
  8
0
  9
$CELTYPE
  6
ByLayer
  9
$CECOLOR
 62
   256
  9
$CELTSCALE
 40
1.0
  9
$DISPSILH
 70
     0
  9
$DIMSCALE
 40
1.0
  9
$DIMASZ
 40
3.302
  9
$DIMEXO
 40
1.0
  9
$DIMDLI
 40
3.75
  9
$DIMRND
 40
0.0
  9
$DIMDLE
 40
0.0
  9
$DIMEXE
 40
1.0
  9
$DIMTP
 40
0.0
  9
$DIMTM
 40
0.0
  9
$DIMTXT
 40
3.5
  9
$DIMCEN
 40
2.5
  9
$DIMTSZ
 40
0.0
  9
$DIMTOL
 70
     0
  9
$DIMLIM
 70
     0
  9
$DIMTIH
 70
     1
  9
$DIMTOH
 70
     1
  9
$DIMSE1
 70
     0
  9
$DIMSE2
 70
     0
  9
$DIMTAD
 70
     1
  9
$DIMZIN
 70
     0
  9
$DIMBLK
  1

  9
$DIMASO
 70
     1
  9
$DIMSHO
 70
     1
  9
$DIMPOST
  1

  9
$DIMAPOST
  1

  9
$DIMALT
 70
     0
  9
$DIMALTD
 70
     3
  9
$DIMALTF
 40
0.0393700787401575
  9
$DIMLFAC
 40
1.0
  9
$DIMTOFL
 70
     1
  9
$DIMTVP
 40
0.0
  9
$DIMTIX
 70
     0
  9
$DIMSOXD
 70
     0
  9
$DIMSAH
 70
     0
  9
$DIMBLK1
  1

  9
$DIMBLK2
  1

  9
$DIMSTYLE
  2
ISO-25
  9
$DIMCLRD
 70
     0
  9
$DIMCLRE
 70
     0
  9
$DIMCLRT
 70
     0
  9
$DIMTFAC
 40
1.0
  9
$DIMGAP
 40
1.524
  9
$DIMJUST
 70
     0
  9
$DIMSD1
 70
     0
  9
$DIMSD2
 70
     0
  9
$DIMTOLJ
 70
     0
  9
$DIMTZIN
 70
     0
  9
$DIMALTZ
 70
     0
  9
$DIMALTTZ
 70
     0
  9
$DIMUPT
 70
     0
  9
$DIMDEC
 70
     2
  9
$DIMTDEC
 70
     2
  9
$DIMALTU
 70
     2
  9
$DIMALTTD
 70
     3
  9
$DIMTXSTY
  7
Standard
  9
$DIMAUNIT
 70
     0
  9
$DIMADEC
 70
     2
  9
$DIMALTRND
 40
0.0
  9
$DIMAZIN
 70
     0
  9
$DIMDSEP
 70
    44
  9
$DIMATFIT
 70
     3
  9
$DIMFRAC
 70
     0
  9
$DIMLDRBLK
  1

  9
$DIMLUNIT
 70
     2
  9
$DIMLWD
 70
    -2
  9
$DIMLWE
 70
    -2
  9
$DIMTMOVE
 70
     0
  9
$LUNITS
 70
     2
  9
$LUPREC
 70
     2
  9
$SKETCHINC
 40
1.0
  9
$FILLETRAD
 40
10.0
  9
$AUNITS
 70
     0
  9
$AUPREC
 70
     2
  9
$MENU
  1
.
  9
$ELEVATION
 40
0.0
  9
$PELEVATION
 40
0.0
  9
$THICKNESS
 40
0.0
  9
$LIMCHECK
 70
     0
  9
$CHAMFERA
 40
0.0
  9
$CHAMFERB
 40
0.0
  9
$CHAMFERC
 40
0.0
  9
$CHAMFERD
 40
0.0
  9
$SKPOLY
 70
     0
  9
$TDCREATE
 40
2458313.423261146
  9
$TDUCREATE
 40
2458313.048261146
  9
$TDUPDATE
 40
2459719.632823275
  9
$TDUUPDATE
 40
2459719.257823275
  9
$TDINDWG
 40
0.0017297685
  9
$TDUSRTIMER
 40
0.0001711806
  9
$USRTIMER
 70
     1
  9
$ANGBASE
 50
0.0
  9
$ANGDIR
 70
     0
  9
$PDMODE
 70
     0
  9
$PDSIZE
 40
-1.0
  9
$PLINEWID
 40
0.0
  9
$SPLFRAME
 70
     0
  9
$SPLINETYPE
 70
     6
  9
$SPLINESEGS
 70
     8
  9
$HANDSEED
  5
36D
  9
$SURFTAB1
 70
     6
  9
$SURFTAB2
 70
     6
  9
$SURFTYPE
 70
     6
  9
$SURFU
 70
     6
  9
$SURFV
 70
     6
  9
$UCSBASE
  2

  9
$UCSNAME
  2

  9
$UCSORG
 10
0.0
 20
0.0
 30
0.0
  9
$UCSXDIR
 10
1.0
 20
0.0
 30
0.0
  9
$UCSYDIR
 10
0.0
 20
1.0
 30
0.0
  9
$UCSORTHOREF
  2

  9
$UCSORTHOVIEW
 70
     0
  9
$UCSORGTOP
 10
0.0
 20
0.0
 30
0.0
  9
$UCSORGBOTTOM
 10
0.0
 20
0.0
 30
0.0
  9
$UCSORGLEFT
 10
0.0
 20
0.0
 30
0.0
  9
$UCSORGRIGHT
 10
0.0
 20
0.0
 30
0.0
  9
$UCSORGFRONT
 10
0.0
 20
0.0
 30
0.0
  9
$UCSORGBACK
 10
0.0
 20
0.0
 30
0.0
  9
$PUCSBASE
  2

  9
$PUCSNAME
  2

  9
$PUCSORG
 10
0.0
 20
0.0
 30
0.0
  9
$PUCSXDIR
 10
1.0
 20
0.0
 30
0.0
  9
$PUCSYDIR
 10
0.0
 20
1.0
 30
0.0
  9
$PUCSORTHOREF
  2

  9
$PUCSORTHOVIEW
 70
     0
  9
$PUCSORGTOP
 10
0.0
 20
0.0
 30
0.0
  9
$PUCSORGBOTTOM
 10
0.0
 20
0.0
 30
0.0
  9
$PUCSORGLEFT
 10
0.0
 20
0.0
 30
0.0
  9
$PUCSORGRIGHT
 10
0.0
 20
0.0
 30
0.0
  9
$PUCSORGFRONT
 10
0.0
 20
0.0
 30
0.0
  9
$PUCSORGBACK
 10
0.0
 20
0.0
 30
0.0
  9
$USERI1
 70
     0
  9
$USERI2
 70
     0
  9
$USERI3
 70
     0
  9
$USERI4
 70
     0
  9
$USERI5
 70
     0
  9
$USERR1
 40
0.0
  9
$USERR2
 40
0.0
  9
$USERR3
 40
0.0
  9
$USERR4
 40
0.0
  9
$USERR5
 40
0.0
  9
$WORLDVIEW
 70
     1
  9
$SHADEDGE
 70
     3
  9
$SHADEDIF
 70
    70
  9
$TILEMODE
 70
     1
  9
$MAXACTVP
 70
    64
  9
$PINSBASE
 10
0.0
 20
0.0
 30
0.0
  9
$PLIMCHECK
 70
     0
  9
$PEXTMIN
 10
1.000000000000000E+20
 20
1.000000000000000E+20
 30
1.000000000000000E+20
  9
$PEXTMAX
 10
-1.000000000000000E+20
 20
-1.000000000000000E+20
 30
-1.000000000000000E+20
  9
$PLIMMIN
 10
0.0
 20
0.0
  9
$PLIMMAX
 10
0.0
 20
0.0
  9
$UNITMODE
 70
     0
  9
$VISRETAIN
 70
     1
  9
$PLINEGEN
 70
     0
  9
$PSLTSCALE
 70
     1
  9
$TREEDEPTH
 70
  3020
  9
$CMLSTYLE
  2
Standard
  9
$CMLJUST
 70
     0
  9
$CMLSCALE
 40
20.0
  9
$PROXYGRAPHICS
 70
     1
  9
$MEASUREMENT
 70
     1
  9
$CELWEIGHT
370
    -1
  9
$ENDCAPS
280
     0
  9
$JOINSTYLE
280
     0
  9
$LWDISPLAY
290
     1
  9
$INSUNITS
 70
     4
  9
$HYPERLINKBASE
  1

  9
$STYLESHEET
  1

  9
$XEDIT
290
     1
  9
$CEPSNTYPE
380
     0
  9
$PSTYLEMODE
290
     1
  9
$FINGERPRINTGUID
  2
{798B62E5-8F82-4213-BC53-F3A5B8206FB5}
  9
$VERSIONGUID
  2
{FAEB1C32-E019-11D5-929B-00C0DF256EC4}
  9
$EXTNAMES
290
     1
  9
$PSVPSCALE
 40
0.0
  9
$OLESTARTUP
290
     0
  0
ENDSEC
  0
SECTION
  2
CLASSES
  0
CLASS
  1
ACDBDICTIONARYWDFLT
  2
AcDbDictionaryWithDefault
  3
ObjectDBX Classes
 90
        0
280
     0
281
     0
  0
CLASS
  1
VISUALSTYLE
  2
AcDbVisualStyle
  3
ObjectDBX Classes
 90
     4095
280
     0
281
     0
  0
CLASS
  1
MATERIAL
  2
AcDbMaterial
  3
ObjectDBX Classes
 90
     1153
280
     0
281
     0
  0
CLASS
  1
SCALE
  2
AcDbScale
  3
ObjectDBX Classes
 90
     1153
280
     0
281
     0
  0
CLASS
  1
SUN
  2
AcDbSun
  3
SCENEOE
 90
     1153
280
     0
281
     0
  0
CLASS
  1
ACDBPLACEHOLDER
  2
AcDbPlaceHolder
  3
ObjectDBX Classes
 90
        0
280
     0
281
     0
  0
CLASS
  1
LAYOUT
  2
AcDbLayout
  3
ObjectDBX Classes
 90
        0
280
     0
281
     0
  0
CLASS
  1
TABLESTYLE
  2
AcDbTableStyle
  3
ObjectDBX Classes
 90
     4095
280
     0
281
     0
  0
CLASS
  1
MLEADERSTYLE
  2
AcDbMLeaderStyle
  3
ACDB_MLEADERSTYLE_CLASS
 90
     4095
280
     0
281
     0
  0
CLASS
  1
RASTERVARIABLES
  2
AcDbRasterVariables
  3
ISM
 90
        0
280
     0
281
     0
  0
ENDSEC
  0
SECTION
  2
TABLES
  0
TABLE
  2
VPORT
  5
8
330
0
100
AcDbSymbolTable
 70
     1
  0
VPORT
  5
29
330
8
100
AcDbSymbolTableRecord
100
AcDbViewportTableRecord
  2
*Active
 70
     0
 10
0.0
 20
0.0
 11
1.0
 21
1.0
 12
3.368030419061967
 22
0.0307659952654458
 13
0.0
 23
0.0
 14
10.0
 24
10.0
 15
10.0
 25
10.0
 16
0.0
 26
0.0
 36
1.0
 17
0.0
 27
0.0
 37
0.0
 40
66.65741377230161
 41
1.519944979367263
 42
50.0
 43
0.0
 44
0.0
 50
0.0
 51
0.0
 71
    16
 72
  2000
 73
     1
 74
     3
 75
     0
 76
     0
 77
     0
 78
     0
281
     0
 65
     1
110
0.0
120
0.0
130
0.0
111
1.0
121
0.0
131
0.0
112
0.0
122
1.0
132
0.0
 79
     0
146
0.0
  0
ENDTAB
  0
TABLE
  2
LTYPE
  5
5
330
0
100
AcDbSymbolTable
 70
     6
  0
LTYPE
  5
14
330
5
100
AcDbSymbolTableRecord
100
AcDbLinetypeTableRecord
  2
ByBlock
 70
     0
  3

 72
    65
 73
     0
 40
0.0
  0
LTYPE
  5
15
330
5
100
AcDbSymbolTableRecord
100
AcDbLinetypeTableRecord
  2
ByLayer
 70
     0
  3

 72
    65
 73
     0
 40
0.0
  0
LTYPE
  5
16
330
5
100
AcDbSymbolTableRecord
100
AcDbLinetypeTableRecord
  2
Continuous
 70
     0
  3
Solid line
 72
    65
 73
     0
 40
0.0
  0
LTYPE
  5
6A
330
5
100
AcDbSymbolTableRecord
100
AcDbLinetypeTableRecord
  2
HIDDEN
 70
     0
  3
Hidden __ __ __ __ __ __ __ __ __ __ __ __ __ __
 72
    65
 73
     2
 40
1.905
 49
1.27
 74
     0
 49
-0.635
 74
     0
  0
LTYPE
  5
6B
330
5
100
AcDbSymbolTableRecord
100
AcDbLinetypeTableRecord
  2
PHANTOM
 70
     0
  3
Phantom ______  __  __  ______  __  __  ______
 72
    65
 73
     6
 40
12.7
 49
6.35
 74
     0
 49
-1.27
 74
     0
 49
1.27
 74
     0
 49
-1.27
 74
     0
 49
1.27
 74
     0
 49
-1.27
 74
     0
  0
LTYPE
  5
6C
330
5
100
AcDbSymbolTableRecord
100
AcDbLinetypeTableRecord
  2
CENTER
 70
     0
  3
Center ____ _ ____ _ ____ _ ____ _ ____ _ ____
 72
    65
 73
     4
 40
10.16
 49
6.35
 74
     0
 49
-1.27
 74
     0
 49
1.27
 74
     0
 49
-1.27
 74
     0
  0
LTYPE
  5
6D
330
5
100
AcDbSymbolTableRecord
100
AcDbLinetypeTableRecord
  2
CENTERX2
 70
     0
  3
Center (2x) ________  __  ________  __  _____
 72
    65
 73
     4
 40
20.32
 49
12.7
 74
     0
 49
-2.54
 74
     0
 49
2.54
 74
     0
 49
-2.54
 74
     0
  0
LTYPE
  5
6E
330
5
100
AcDbSymbolTableRecord
100
AcDbLinetypeTableRecord
  2
DOT2
 70
     0
  3
Dot (.5x) ........................................
 72
    65
 73
     2
 40
0.635
 49
0.0
 74
     0
 49
-0.635
 74
     0
  0
ENDTAB
  0
TABLE
  2
LAYER
  5
2
330
0
100
AcDbSymbolTable
 70
    18
  0
LAYER
  5
10
330
2
100
AcDbSymbolTableRecord
100
AcDbLayerTableRecord
  2
0
 70
     0
 62
     7
  6
Continuous
370
    -3
390
F
  0
LAYER
  5
6F
330
2
100
AcDbSymbolTableRecord
100
AcDbLayerTableRecord
  2
FORMAT
 70
     0
 62
     2
  6
Continuous
370
    -3
390
F
  0
LAYER
  5
70
330
2
100
AcDbSymbolTableRecord
100
AcDbLayerTableRecord
  2
외형선
 70
     0
 62
     4
  6
Continuous
370
    30
390
F
  0
LAYER
  5
71
330
2
100
AcDbSymbolTableRecord
100
AcDbLayerTableRecord
  2
숨은선
 70
     0
 62
     2
  6
HIDDEN
370
    15
390
F
  0
LAYER
  5
72
330
2
100
AcDbSymbolTableRecord
100
AcDbLayerTableRecord
  2
중심선
 70
     0
 62
     1
  6
CENTERX2
370
    -3
390
F
  0
LAYER
  5
73
330
2
100
AcDbSymbolTableRecord
100
AcDbLayerTableRecord
  2
파단선
 70
     0
 62
     4
  6
Continuous
370
    -3
390
F
  0
LAYER
  5
74
330
2
100
AcDbSymbolTableRecord
100
AcDbLayerTableRecord
  2
해칭선
 70
     0
 62
   100
  6
Continuous
370
    -3
390
F
  0
LAYER
  5
75
330
2
100
AcDbSymbolTableRecord
100
AcDbLayerTableRecord
  2
가는실선
 70
     0
 62
     4
  6
Continuous
370
    -3
390
F
  0
LAYER
  5
76
330
2
100
AcDbSymbolTableRecord
100
AcDbLayerTableRecord
  2
치수_보조선
 70
     0
 62
     4
  6
Continuous
370
    -3
390
F
  0
LAYER
  5
77
330
2
100
AcDbSymbolTableRecord
100
AcDbLayerTableRecord
  2
치수문자_일반주서
 70
     0
 62
     7
  6
Continuous
370
    15
390
F
  0
LAYER
  5
78
330
2
100
AcDbSymbolTableRecord
100
AcDbLayerTableRecord
  2
개별주서
 70
     0
 62
   100
  6
Continuous
370
    30
390
F
  0
LAYER
  5
79
330
2
100
AcDbSymbolTableRecord
100
AcDbLayerTableRecord
  2
중간선
 70
     0
 62
     2
  6
Continuous
370
    15
390
F
  0
LAYER
  5
7A
330
2
100
AcDbSymbolTableRecord
100
AcDbLayerTableRecord
  2
윤곽선
 70
     0
 62
     3
  6
Continuous
370
    40
390
F
  0
LAYER
  5
7B
330
2
100
AcDbSymbolTableRecord
100
AcDbLayerTableRecord
  2
중심마크
 70
     0
 62
   100
  6
Continuous
370
    30
390
F
  0
LAYER
  5
7C
330
2
100
AcDbSymbolTableRecord
100
AcDbLayerTableRecord
  2
가상선
 70
     0
 62
     4
  6
PHANTOM
370
    -3
390
F
  0
LAYER
  5
7D
330
2
100
AcDbSymbolTableRecord
100
AcDbLayerTableRecord
  2
특수지정선
 70
     0
 62
     5
  6
CENTERX2
370
    60
390
F
  0
LAYER
  5
7E
330
2
100
AcDbSymbolTableRecord
100
AcDbLayerTableRecord
  2
참조1
 70
     0
 62
    -4
  6
Continuous
370
    -3
390
F
  0
LAYER
  5
161
330
2
100
AcDbSymbolTableRecord
100
AcDbLayerTableRecord
  2
Defpoints
 70
     0
 62
     7
  6
Continuous
290
     0
370
    -3
390
F
  0
ENDTAB
  0
TABLE
  2
STYLE
  5
3
330
0
100
AcDbSymbolTable
 70
     2
  0
STYLE
  5
11
330
3
100
AcDbSymbolTableRecord
100
AcDbTextStyleTableRecord
  2
Standard
 70
     0
 40
0.0
 41
1.0
 50
0.0
 71
     0
 42
3.5
  3
txt
  4

  0
STYLE
  5
94
330
3
100
AcDbSymbolTableRecord
100
AcDbTextStyleTableRecord
  2
SLDTEXTSTYLE0
 70
     0
 40
0.0
 41
0.75
 50
0.0
 71
     0
 42
3.5
  3
TXT
  4

  0
ENDTAB
  0
TABLE
  2
VIEW
  5
6
330
0
100
AcDbSymbolTable
 70
     0
  0
ENDTAB
  0
TABLE
  2
UCS
  5
7
330
0
100
AcDbSymbolTable
 70
     0
  0
ENDTAB
  0
TABLE
  2
APPID
  5
9
330
0
100
AcDbSymbolTable
 70
     1
  0
APPID
  5
12
330
9
100
AcDbSymbolTableRecord
100
AcDbRegAppTableRecord
  2
ACAD
 70
     0
  0
ENDTAB
  0
TABLE
  2
DIMSTYLE
  5
A
330
0
100
AcDbSymbolTable
 70
     3
100
AcDbDimStyleTable
  0
DIMSTYLE
105
27
330
A
100
AcDbSymbolTableRecord
100
AcDbDimStyleTableRecord
  2
ISO-25
 70
     0
 41
2.5
 42
0.625
 43
3.75
 44
1.25
 73
     0
 74
     0
 77
     1
 78
     8
140
2.5
141
2.5
143
0.03937007874016
147
0.625
171
     3
172
     1
178
     0
271
     2
272
     2
274
     3
278
    44
283
     0
284
     8
340
11
  0
DIMSTYLE
105
DD
102
{ACAD_REACTORS
330
DC
330
F1
330
105
330
11A
102
}
330
A
100
AcDbSymbolTableRecord
100
AcDbDimStyleTableRecord
  2
SLDDIMSTYLE0
 70
     0
 41
3.302
 44
0.0
 45
0.000000001
 73
     0
 74
     0
 77
     1
 78
    12
 79
     3
140
3.5
143
0.0393700787401575
147
0.875
148
0.000000001
170
     1
172
     1
173
     1
178
     0
271
     2
272
     2
276
     2
284
    12
289
     0
340
94
  0
DIMSTYLE
105
11B
330
A
100
AcDbSymbolTableRecord
100
AcDbDimStyleTableRecord
  2
SLDDIMSTYLE1
 70
     0
 41
3.302
 44
0.0
 45
0.000000001
 73
     0
 74
     0
 77
     1
 78
     4
 79
     1
140
3.5
143
0.0393700787401575
147
0.875
148
0.000000001
170
     1
173
     1
178
     0
271
     2
272
     2
276
     2
284
    12
340
94
  0
ENDTAB
  0
TABLE
  2
BLOCK_RECORD
  5
1
330
0
100
AcDbSymbolTable
 70
    18
  0
BLOCK_RECORD
  5
1F
102
{ACAD_XDICTIONARY
360
36A
102
}
330
1
100
AcDbSymbolTableRecord
100
AcDbBlockTableRecord
  2
*Model_Space
340
22
  0
BLOCK_RECORD
  5
1B
330
1
100
AcDbSymbolTableRecord
100
AcDbBlockTableRecord
  2
*Paper_Space
340
1E
  0
BLOCK_RECORD
  5
23
330
1
100
AcDbSymbolTableRecord
100
AcDbBlockTableRecord
  2
*Paper_Space0
340
26
  0
BLOCK_RECORD
  5
7F
330
1
100
AcDbSymbolTableRecord
100
AcDbBlockTableRecord
  2
블럭10
340
0
102
{BLKREFS
331
D5
102
}
  0
BLOCK_RECORD
  5
DE
330
1
100
AcDbSymbolTableRecord
100
AcDbBlockTableRecord
  2
_D
340
0
  0
BLOCK_RECORD
  5
F2
330
1
100
AcDbSymbolTableRecord
100
AcDbBlockTableRecord
  2
_D_1
340
0
  0
BLOCK_RECORD
  5
106
330
1
100
AcDbSymbolTableRecord
100
AcDbBlockTableRecord
  2
_D_2
340
0
  0
BLOCK_RECORD
  5
11C
330
1
100
AcDbSymbolTableRecord
100
AcDbBlockTableRecord
  2
_D_3
340
0
  0
BLOCK_RECORD
  5
135
330
1
100
AcDbSymbolTableRecord
100
AcDbBlockTableRecord
  2
SW_DOWELSYMBOL_0
340
0
102
{BLKREFS
331
13B
102
}
  0
BLOCK_RECORD
  5
21B
330
1
100
AcDbSymbolTableRecord
100
AcDbBlockTableRecord
  2
*D7
340
0
  0
BLOCK_RECORD
  5
22A
330
1
100
AcDbSymbolTableRecord
100
AcDbBlockTableRecord
  2
*D8
340
0
  0
BLOCK_RECORD
  5
236
330
1
100
AcDbSymbolTableRecord
100
AcDbBlockTableRecord
  2
*D9
340
0
  0
BLOCK_RECORD
  5
245
330
1
100
AcDbSymbolTableRecord
100
AcDbBlockTableRecord
  2
*D10
340
0
  0
BLOCK_RECORD
  5
2A6
330
1
100
AcDbSymbolTableRecord
100
AcDbBlockTableRecord
  2
*D11
340
0
  0
BLOCK_RECORD
  5
2B5
330
1
100
AcDbSymbolTableRecord
100
AcDbBlockTableRecord
  2
*D12
340
0
  0
BLOCK_RECORD
  5
2C1
330
1
100
AcDbSymbolTableRecord
100
AcDbBlockTableRecord
  2
*D13
340
0
  0
BLOCK_RECORD
  5
2D0
330
1
100
AcDbSymbolTableRecord
100
AcDbBlockTableRecord
  2
*D14
340
0
  0
BLOCK_RECORD
  5
318
330
1
100
AcDbSymbolTableRecord
100
AcDbBlockTableRecord
  2
*D15
340
0
  0
BLOCK_RECORD
  5
327
330
1
100
AcDbSymbolTableRecord
100
AcDbBlockTableRecord
  2
*D16
340
0
  0
BLOCK_RECORD
  5
336
330
1
100
AcDbSymbolTableRecord
100
AcDbBlockTableRecord
  2
*D17
340
0
  0
ENDTAB
  0
ENDSEC
  0
SECTION
  2
BLOCKS
  0
BLOCK
  5
20
330
1F
100
AcDbEntity
  8
0
100
AcDbBlockBegin
  2
*Model_Space
 70
     0
 10
0.0
 20
0.0
 30
0.0
  3
*Model_Space
  1
*Model_Space
  0
ENDBLK
  5
21
330
1F
100
AcDbEntity
  8
0
100
AcDbBlockEnd
  0
BLOCK
  5
1C
330
1B
100
AcDbEntity
 67
     1
  8
0
100
AcDbBlockBegin
  2
*Paper_Space
 70
     0
 10
0.0
 20
0.0
 30
0.0
  3
*Paper_Space
  1
*Paper_Space
  0
ENDBLK
  5
1D
330
1B
100
AcDbEntity
 67
     1
  8
0
100
AcDbBlockEnd
  0
BLOCK
  5
24
330
23
100
AcDbEntity
  8
0
100
AcDbBlockBegin
  2
*Paper_Space0
 70
     0
 10
0.0
 20
0.0
 30
0.0
  3
*Paper_Space0
  1
*Paper_Space0
  0
ENDBLK
  5
25
330
23
100
AcDbEntity
  8
0
100
AcDbBlockEnd
  0
BLOCK
  5
80
330
7F
100
AcDbEntity
  8
0
100
AcDbBlockBegin
  2
블럭10
 70
     2
 10
0.0
 20
0.0
 30
0.0
  3
블럭10
  1
블럭10
  0
ELLIPSE
  5
82
330
7F
100
AcDbEntity
  8
중심선
100
AcDbEllipse
 10
20.54032771741204
 20
12.0471743016438
 30
0.0
 11
6.600054785286829
 21
-1.261213355974178E-13
 31
0.0
210
0.0
220
0.0
230
1.0
 40
0.636358354079598
 41
0.9219305317359503
 42
6.513795318482858
  0
ELLIPSE
  5
83
330
7F
100
AcDbEntity
  8
중심선
100
AcDbEllipse
 10
20.54032771746488
 20
12.04717430159265
 30
0.0
 11
3.960054785062283
 21
1.540847449632565E-10
 31
0.0
210
0.0
220
0.0
230
1.0
 40
0.3939339440162632
 41
1.131841032648279
 42
5.62031148352944
  0
LINE
  5
84
330
7F
100
AcDbEntity
  8
중심선
100
AcDbLine
 10
2.268634060543552
 20
16.24717430164393
 30
0.0
 11
5.714909304380834
 21
16.24717430164393
 31
0.0
  0
LINE
  5
85
330
7F
100
AcDbEntity
  8
중심선
100
AcDbLine
 10
5.245725140726316
 20
7.84717430164391
 30
0.0
 11
8.692000384563599
 21
7.84717430164391
 31
0.0
  0
LINE
  5
86
330
7F
100
AcDbEntity
  8
중심선
100
AcDbLine
 10
15.74043728645272
 20
16.24717430164393
 30
0.0
 11
8.692000384563599
 21
7.84717430164391
 31
0.0
  0
LINE
  5
87
330
7F
100
AcDbEntity
  8
중심선
100
AcDbLine
 10
0.1404042013395286
 20
13.71084872107135
 30
0.0
 11
3.58671253028996
 21
13.71088815037384
 31
0.0
  0
LINE
  5
88
330
7F
100
AcDbEntity
  8
중심선
100
AcDbLine
 10
2.750260043222114
 20
10.84717430164391
 30
0.0
 11
6.196535287059397
 21
10.84717430164391
 31
0.0
  0
LINE
  5
89
330
7F
100
AcDbEntity
  8
중심선
100
AcDbLine
 10
12.29416204261559
 20
16.24717430164393
 30
0.0
 11
5.245725140726316
 21
7.84717430164391
 31
0.0
  0
LINE
  5
8A
330
7F
100
AcDbEntity
  8
중심선
100
AcDbLine
 10
10.72767329541681
 20
16.24717430164393
 30
0.0
 11
6.196535287059397
 21
10.84717430164391
 31
0.0
  0
LINE
  5
8B
330
7F
100
AcDbEntity
  8
중심선
100
AcDbLine
 10
7.28139805157953
 20
16.24717430164393
 30
0.0
 11
2.750260043222114
 21
10.84717430164391
 31
0.0
  0
LINE
  5
8C
330
7F
100
AcDbEntity
  8
중심선
100
AcDbLine
 10
5.714909304380834
 20
16.24717430164393
 30
0.0
 11
3.58671253028996
 21
13.71088815037384
 31
0.0
  0
LINE
  5
8D
330
7F
100
AcDbEntity
  8
중심선
100
AcDbLine
 10
2.268634060543552
 20
16.24717430164393
 30
0.0
 11
0.1404042013395286
 21
13.71084872107135
 31
0.0
  0
LINE
  5
8E
330
7F
100
AcDbEntity
  8
중심선
100
AcDbLine
 10
7.28139805157953
 20
16.24717430164393
 30
0.0
 11
10.72767329541681
 21
16.24717430164393
 31
0.0
  0
LINE
  5
8F
330
7F
100
AcDbEntity
  8
중심선
100
AcDbLine
 10
12.29416204261559
 20
16.24717430164393
 30
0.0
 11
15.74043728645272
 21
16.24717430164393
 31
0.0
  0
LINE
  5
90
330
7F
100
AcDbEntity
  8
중심선
100
AcDbLine
 10
19.22036997980202
 20
11.08717430171403
 30
0.0
 11
23.66174974927406
 21
11.08717430171406
 31
0.0
  0
LINE
  5
91
330
7F
100
AcDbEntity
  8
중심선
100
AcDbLine
 10
19.22039502424796
 20
13.00717430171391
 30
0.0
 11
19.22036997980202
 21
11.08717430171403
 31
0.0
  0
LINE
  5
92
330
7F
100
AcDbEntity
  8
중심선
100
AcDbLine
 10
19.22039502424796
 20
13.00717430171391
 30
0.0
 11
26.96566020931264
 21
13.00717430171391
 31
0.0
  0
LINE
  5
93
330
7F
100
AcDbEntity
  8
중심선
100
AcDbLine
 10
22.22332737316547
 20
13.45928029700563
 30
0.0
 11
24.52862924686651
 21
15.39360700705356
 31
0.0
  0
ATTDEF
  5
95
330
7F
100
AcDbEntity
  8
FORMAT
 62
     2
100
AcDbText
 10
4.408487351596664
 20
2.075366912832191
 30
0.0
 40
4.233333333333333
  1
E5022003
 41
0.75
  7
SLDTEXTSTYLE0
 11
4.408487351596664
 21
-0.0412997538344756
 31
0.0
100
AcDbAttributeDefinition
  3

  2
AUTOATTR0
 70
     0
 74
     1
  0
ENDBLK
  5
81
330
7F
100
AcDbEntity
  8
0
100
AcDbBlockEnd
  0
BLOCK
  5
DF
330
DE
100
AcDbEntity
  8
0
100
AcDbBlockBegin
  2
_D
 70
     0
 10
0.0
 20
0.0
 30
0.0
  3
_D
  1
_D
  0
LINE
  5
E1
330
DE
100
AcDbEntity
  8
치수문자_일반주서
 62
     0
370
    -2
100
AcDbLine
 10
-12.22835583936524
 20
1.587499999999998
 30
0.0
 11
-24.96096748470043
 21
1.587499999999951
 31
0.0
  0
LINE
  5
E2
330
DE
100
AcDbEntity
  8
치수문자_일반주서
 62
     0
370
    -2
100
AcDbLine
 10
-12.22835583936524
 20
-1.587499999999999
 30
0.0
 11
-24.96096748470042
 21
-1.587500000000048
 31
0.0
  0
LINE
  5
E3
330
DE
100
AcDbEntity
  8
치수문자_일반주서
 62
     0
370
    -2
100
AcDbLine
 10
-24.96096748470043
 20
1.587499999999951
 30
0.0
 11
-24.96096748470051
 21
24.74374999999996
 31
0.0
  0
LINE
  5
E4
330
DE
100
AcDbEntity
  8
치수문자_일반주서
 62
     0
370
    -2
100
AcDbLine
 10
-24.96096748470043
 20
1.587499999999951
 30
0.0
 11
-24.96096748470042
 21
-1.587500000000048
 31
0.0
  0
LINE
  5
E5
330
DE
100
AcDbEntity
  8
치수문자_일반주서
 62
     0
370
    -2
100
AcDbLine
 10
-24.96096748470044
 20
4.087499999999951
 30
0.0
 11
-24.96096748470045
 21
6.587499999999951
 31
0.0
  0
LINE
  5
E6
330
DE
100
AcDbEntity
  8
치수문자_일반주서
 62
     0
370
    -2
100
AcDbLine
 10
-24.96096748470042
 20
-4.087500000000048
 30
0.0
 11
-24.96096748470041
 21
-6.587500000000048
 31
0.0
  0
SOLID
  5
E7
330
DE
100
AcDbEntity
  8
치수문자_일반주서
 62
     0
100
AcDbTrace
 10
-25.37763415136711
 20
4.087499999999949
 30
0.0
 11
-24.54430081803377
 21
4.087499999999952
 31
0.0
 12
-24.96096748470043
 22
1.587499999999951
 32
0.0
 13
-24.96096748470043
 23
1.587499999999951
 33
0.0
  0
SOLID
  5
E8
330
DE
100
AcDbEntity
  8
치수문자_일반주서
 62
     0
100
AcDbTrace
 10
-24.54430081803375
 20
-4.087500000000047
 30
0.0
 11
-25.37763415136708
 21
-4.08750000000005
 31
0.0
 12
-24.96096748470042
 22
-1.587500000000048
 32
0.0
 13
-24.96096748470042
 23
-1.587500000000048
 33
0.0
  0
MTEXT
  5
E9
330
DE
100
AcDbEntity
  8
치수문자_일반주서
 62
     0
100
AcDbMText
 10
-28.33596748470048
 20
15.74374999999995
 30
0.0
 40
2.5
 41
0.0
 71
     2
 72
     1
  1
\A1;%%c3.18 [1/8]
  7
SLDTEXTSTYLE0
 11
-3.356894814614650E-15
 21
1.0
 31
0.0
 73
     1
 44
1.0
  0
POINT
  5
343
330
DE
100
AcDbEntity
  8
Defpoints
 62
     0
100
AcDbPoint
 10
-12.16585583936524
 20
1.587499999999998
 30
0.0
  0
POINT
  5
344
330
DE
100
AcDbEntity
  8
Defpoints
 62
     0
100
AcDbPoint
 10
-12.16585583936524
 20
-1.587499999999999
 30
0.0
  0
POINT
  5
345
330
DE
100
AcDbEntity
  8
Defpoints
 62
     0
100
AcDbPoint
 10
-24.96096748470042
 20
-1.587500000000047
 30
0.0
  0
ENDBLK
  5
E0
330
DE
100
AcDbEntity
  8
0
100
AcDbBlockEnd
  0
BLOCK
  5
F3
330
F2
100
AcDbEntity
  8
0
100
AcDbBlockBegin
  2
_D_1
 70
     0
 10
0.0
 20
0.0
 30
0.0
  3
_D_1
  1
_D_1
  0
LINE
  5
F5
330
F2
100
AcDbEntity
  8
치수문자_일반주서
 62
     0
370
    -2
100
AcDbLine
 10
19.11250000000001
 20
-0.5948093509413956
 30
0.0
 11
28.84304588330941
 21
-0.594809350941361
 31
0.0
  0
LINE
  5
F6
330
F2
100
AcDbEntity
  8
치수문자_일반주서
 62
     0
370
    -2
100
AcDbLine
 10
19.11250000000001
 20
0.5948093509413994
 30
0.0
 11
28.84304588330941
 21
0.5948093509414374
 31
0.0
  0
LINE
  5
F7
330
F2
100
AcDbEntity
  8
치수문자_일반주서
 62
     0
370
    -2
100
AcDbLine
 10
28.84304588330941
 20
0.5948093509414374
 30
0.0
 11
28.84304588330934
 21
25.46980935094144
 31
0.0
  0
LINE
  5
F8
330
F2
100
AcDbEntity
  8
치수문자_일반주서
 62
     0
370
    -2
100
AcDbLine
 10
28.84304588330941
 20
-0.594809350941361
 30
0.0
 11
28.84304588330941
 21
0.5948093509414374
 31
0.0
  0
LINE
  5
F9
330
F2
100
AcDbEntity
  8
치수문자_일반주서
 62
     0
370
    -2
100
AcDbLine
 10
28.84304588330942
 20
-3.094809350941361
 30
0.0
 11
28.84304588330943
 21
-5.594809350941361
 31
0.0
  0
LINE
  5
FA
330
F2
100
AcDbEntity
  8
치수문자_일반주서
 62
     0
370
    -2
100
AcDbLine
 10
28.8430458833094
 20
3.094809350941437
 30
0.0
 11
28.8430458833094
 21
5.594809350941437
 31
0.0
  0
SOLID
  5
FB
330
F2
100
AcDbEntity
  8
치수문자_일반주서
 62
     0
100
AcDbTrace
 10
29.25971254997609
 20
-3.09480935094136
 30
0.0
 11
28.42637921664275
 21
-3.094809350941362
 31
0.0
 12
28.84304588330941
 22
-0.594809350941361
 32
0.0
 13
28.84304588330941
 23
-0.594809350941361
 33
0.0
  0
SOLID
  5
FC
330
F2
100
AcDbEntity
  8
치수문자_일반주서
 62
     0
100
AcDbTrace
 10
28.42637921664274
 20
3.094809350941436
 30
0.0
 11
29.25971254997607
 21
3.094809350941439
 31
0.0
 12
28.84304588330941
 22
0.5948093509414374
 32
0.0
 13
28.84304588330941
 23
0.5948093509414374
 33
0.0
  0
MTEXT
  5
FD
330
F2
100
AcDbEntity
  8
치수문자_일반주서
 62
     0
100
AcDbMText
 10
25.46804588330937
 20
15.53230935094143
 30
0.0
 40
2.5
 41
0.0
 71
     2
 72
     1
  1
\A1;%%c1.19 [3/64]
  7
SLDTEXTSTYLE0
 11
-2.986430587529991E-15
 21
1.0
 31
0.0
 73
     1
 44
1.0
  0
POINT
  5
FE
330
F2
100
AcDbEntity
  8
Defpoints
 62
     0
100
AcDbPoint
 10
19.05000000000001
 20
-0.5948093509413959
 30
0.0
  0
POINT
  5
FF
330
F2
100
AcDbEntity
  8
Defpoints
 62
     0
100
AcDbPoint
 10
19.05000000000001
 20
0.5948093509413992
 30
0.0
  0
POINT
  5
100
330
F2
100
AcDbEntity
  8
Defpoints
 62
     0
100
AcDbPoint
 10
28.84304588330941
 20
0.5948093509414358
 30
0.0
  0
ENDBLK
  5
F4
330
F2
100
AcDbEntity
  8
0
100
AcDbBlockEnd
  0
BLOCK
  5
107
330
106
100
AcDbEntity
  8
0
100
AcDbBlockBegin
  2
_D_2
 70
     0
 10
0.0
 20
0.0
 30
0.0
  3
_D_2
  1
_D_2
  0
LINE
  5
109
330
106
100
AcDbEntity
  8
치수문자_일반주서
 62
     0
370
    -2
100
AcDbLine
 10
19.05000000000001
 20
0.6573093509413992
 30
0.0
 11
19.05000000000001
 21
11.87314641530052
 31
0.0
  0
LINE
  5
10A
330
106
100
AcDbEntity
  8
치수문자_일반주서
 62
     0
370
    -2
100
AcDbLine
 10
16.66875000000001
 20
0.5818852862429921
 30
0.0
 11
16.66875000000001
 21
11.87314641530052
 31
0.0
  0
LINE
  5
10B
330
106
100
AcDbEntity
  8
치수문자_일반주서
 62
     0
370
    -2
100
AcDbLine
 10
16.66875000000001
 20
11.87314641530052
 30
0.0
 11
-7.58124999999999
 21
11.87314641530052
 31
0.0
  0
LINE
  5
10C
330
106
100
AcDbEntity
  8
치수문자_일반주서
 62
     0
370
    -2
100
AcDbLine
 10
19.05000000000001
 20
11.87314641530052
 30
0.0
 11
16.66875000000001
 21
11.87314641530052
 31
0.0
  0
LINE
  5
10D
330
106
100
AcDbEntity
  8
치수문자_일반주서
 62
     0
370
    -2
100
AcDbLine
 10
21.55000000000001
 20
11.87314641530052
 30
0.0
 11
24.05000000000001
 21
11.87314641530052
 31
0.0
  0
LINE
  5
10E
330
106
100
AcDbEntity
  8
치수문자_일반주서
 62
     0
370
    -2
100
AcDbLine
 10
14.16875000000001
 20
11.87314641530052
 30
0.0
 11
11.66875000000001
 21
11.87314641530052
 31
0.0
  0
SOLID
  5
10F
330
106
100
AcDbEntity
  8
치수문자_일반주서
 62
     0
100
AcDbTrace
 10
21.55000000000001
 20
12.28981308196719
 30
0.0
 11
21.55000000000001
 21
11.45647974863386
 31
0.0
 12
19.05000000000001
 22
11.87314641530052
 32
0.0
 13
19.05000000000001
 23
11.87314641530052
 33
0.0
  0
SOLID
  5
110
330
106
100
AcDbEntity
  8
치수문자_일반주서
 62
     0
100
AcDbTrace
 10
14.16875000000001
 20
11.45647974863386
 30
0.0
 11
14.16875000000001
 21
12.28981308196719
 31
0.0
 12
16.66875000000001
 22
11.87314641530052
 32
0.0
 13
16.66875000000001
 23
11.87314641530052
 33
0.0
  0
MTEXT
  5
111
330
106
100
AcDbEntity
  8
치수문자_일반주서
 62
     0
100
AcDbMText
 10
2.04375000000001
 20
15.24814641530052
 30
0.0
 40
2.5
 41
0.0
 71
     2
 72
     1
  1
\A1;2.38 [3/32]
  7
SLDTEXTSTYLE0
 73
     1
 44
1.0
  0
POINT
  5
112
330
106
100
AcDbEntity
  8
Defpoints
 62
     0
100
AcDbPoint
 10
19.05000000000001
 20
0.5948093509413992
 30
0.0
  0
POINT
  5
113
330
106
100
AcDbEntity
  8
Defpoints
 62
     0
100
AcDbPoint
 10
16.66875000000001
 20
0.5193852862429921
 30
0.0
  0
POINT
  5
114
330
106
100
AcDbEntity
  8
Defpoints
 62
     0
100
AcDbPoint
 10
16.66875000000001
 20
11.87314641530052
 30
0.0
  0
ENDBLK
  5
108
330
106
100
AcDbEntity
  8
0
100
AcDbBlockEnd
  0
BLOCK
  5
11D
330
11C
100
AcDbEntity
  8
0
100
AcDbBlockBegin
  2
_D_3
 70
     0
 10
0.0
 20
0.0
 30
0.0
  3
_D_3
  1
_D_3
  0
LINE
  5
11F
330
11C
100
AcDbEntity
  8
치수문자_일반주서
 62
     0
370
    -2
100
AcDbLine
 10
-19.04999999999998
 20
0.6573093509413998
 30
0.0
 11
-19.04999999999998
 21
22.34966509735214
 31
0.0
  0
LINE
  5
120
330
11C
100
AcDbEntity
  8
치수문자_일반주서
 62
     0
370
    -2
100
AcDbLine
 10
19.05000000000001
 20
0.6573093509413992
 30
0.0
 11
19.05000000000001
 21
22.34966509735214
 31
0.0
  0
LINE
  5
121
330
11C
100
AcDbEntity
  8
치수문자_일반주서
 62
     0
370
    -2
100
AcDbLine
 10
-16.54999999999998
 20
22.34966509735214
 30
0.0
 11
16.55000000000001
 21
22.34966509735214
 31
0.0
  0
SOLID
  5
122
330
11C
100
AcDbEntity
  8
치수문자_일반주서
 62
     0
100
AcDbTrace
 10
-16.54999999999998
 20
22.7663317640188
 30
0.0
 11
-16.54999999999998
 21
21.93299843068547
 31
0.0
 12
-19.04999999999998
 22
22.34966509735214
 32
0.0
 13
-19.04999999999998
 23
22.34966509735214
 33
0.0
  0
SOLID
  5
123
330
11C
100
AcDbEntity
  8
치수문자_일반주서
 62
     0
100
AcDbTrace
 10
16.55000000000001
 20
21.93299843068547
 30
0.0
 11
16.55000000000001
 21
22.7663317640188
 31
0.0
 12
19.05000000000001
 22
22.34966509735214
 32
0.0
 13
19.05000000000001
 23
22.34966509735214
 33
0.0
  0
MTEXT
  5
124
330
11C
100
AcDbEntity
  8
치수문자_일반주서
 62
     0
100
AcDbMText
 10
1.552369602915135
 20
25.72466509735214
 30
0.0
 40
2.5
 41
0.0
 71
     2
 72
     1
  1
\A1;38.1 [1 1/2]
  7
SLDTEXTSTYLE0
 73
     1
 44
1.0
  0
POINT
  5
125
330
11C
100
AcDbEntity
  8
Defpoints
 62
     0
100
AcDbPoint
 10
-19.04999999999998
 20
0.5948093509413998
 30
0.0
  0
POINT
  5
126
330
11C
100
AcDbEntity
  8
Defpoints
 62
     0
100
AcDbPoint
 10
19.05000000000001
 20
0.5948093509413992
 30
0.0
  0
POINT
  5
127
330
11C
100
AcDbEntity
  8
Defpoints
 62
     0
100
AcDbPoint
 10
19.05000000000001
 20
22.34966509735214
 30
0.0
  0
ENDBLK
  5
11E
330
11C
100
AcDbEntity
  8
0
100
AcDbBlockEnd
  0
BLOCK
  5
136
330
135
100
AcDbEntity
  8
0
100
AcDbBlockBegin
  2
SW_DOWELSYMBOL_0
 70
     0
 10
0.0
 20
0.0
 30
0.0
  3
SW_DOWELSYMBOL_0
  1
SW_DOWELSYMBOL_0
  0
CIRCLE
  5
138
330
135
100
AcDbEntity
  8
해칭선
 62
     0
100
AcDbCircle
 10
0.0
 20
0.0
 30
0.0
 40
3.000000000000001
  0
HATCH
  5
139
330
135
100
AcDbEntity
  8
0
  6
Continuous
 62
     0
370
     0
100
AcDbHatch
 10
0.0
 20
0.0
 30
0.0
210
0.0
220
0.0
230
1.0
  2
SOLID
 70
     1
 71
     0
 91
        1
 92
        0
 93
        3
 72
     2
 10
0.0
 20
0.0
 40
3.000000000000001
 50
0.0
 51
90.0
 73
     1
 72
     1
 10
0.0
 20
3.000000000000001
 11
0.0
 21
0.0
 72
     1
 10
0.0
 20
0.0
 11
3.000000000000001
 21
0.0
 97
        0
 75
     0
 76
     1
 98
        1
 10
0.0
 20
0.0
  0
HATCH
  5
13A
330
135
100
AcDbEntity
  8
0
  6
Continuous
 62
     0
370
     0
100
AcDbHatch
 10
0.0
 20
0.0
 30
0.0
210
0.0
220
0.0
230
1.0
  2
SOLID
 70
     1
 71
     0
 91
        1
 92
        0
 93
        3
 72
     2
 10
0.0
 20
0.0
 40
3.000000000000001
 50
180.0
 51
270.0000000000007
 73
     1
 72
     1
 10
0.0
 20
-3.000000000000001
 11
0.0
 21
0.0
 72
     1
 10
0.0
 20
0.0
 11
-3.000000000000001
 21
0.0
 97
        0
 75
     0
 76
     1
 98
        1
 10
0.0
 20
0.0
  0
ENDBLK
  5
137
330
135
100
AcDbEntity
  8
0
100
AcDbBlockEnd
  0
BLOCK
  5
21C
330
21B
100
AcDbEntity
  8
0
100
AcDbBlockBegin
  2
*D7
 70
     1
 10
0.0
 20
0.0
 30
0.0
  3
*D7
  1
*D8
  0
LINE
  5
21E
330
21B
100
AcDbEntity
  8
치수문자_일반주서
 62
     0
370
    -2
100
AcDbLine
 10
71.43750000000006
 20
10.20053740206972
 30
0.0
 11
79.375
 21
10.20053740206975
 31
0.0
  0
LINE
  5
21F
330
21B
100
AcDbEntity
  8
치수문자_일반주서
 62
     0
370
    -2
100
AcDbLine
 10
71.43750000000006
 20
11.70053740206973
 30
0.0
 11
79.375
 21
11.70053740206976
 31
0.0
  0
LINE
  5
220
330
21B
100
AcDbEntity
  8
치수문자_일반주서
 62
     0
370
    -2
100
AcDbLine
 10
79.375
 20
11.70053740206976
 30
0.0
 11
79.375
 21
35.42953740206976
 31
0.0
  0
LINE
  5
221
330
21B
100
AcDbEntity
  8
치수문자_일반주서
 62
     0
370
    -2
100
AcDbLine
 10
79.375
 20
10.20053740206975
 30
0.0
 11
79.375
 21
11.70053740206976
 31
0.0
  0
LINE
  5
222
330
21B
100
AcDbEntity
  8
치수문자_일반주서
 62
     0
370
    -2
100
AcDbLine
 10
79.375
 20
7.700537402069752
 30
0.0
 11
79.375
 21
5.200537402069752
 31
0.0
  0
LINE
  5
223
330
21B
100
AcDbEntity
  8
치수문자_일반주서
 62
     0
370
    -2
100
AcDbLine
 10
79.375
 20
14.20053740206976
 30
0.0
 11
79.375
 21
16.70053740206976
 31
0.0
  0
SOLID
  5
224
330
21B
100
AcDbEntity
  8
치수문자_일반주서
 62
     0
100
AcDbTrace
 10
79.79166666666667
 20
7.700537402069752
 30
0.0
 11
78.95833333333333
 21
7.700537402069752
 31
0.0
 12
79.375
 22
10.20053740206975
 32
0.0
 13
79.375
 23
10.20053740206975
 33
0.0
  0
SOLID
  5
225
330
21B
100
AcDbEntity
  8
치수문자_일반주서
 62
     0
100
AcDbTrace
 10
78.95833333333333
 20
14.20053740206976
 30
0.0
 11
79.79166666666667
 21
14.20053740206976
 31
0.0
 12
79.375
 22
11.70053740206976
 32
0.0
 13
79.375
 23
11.70053740206976
 33
0.0
  0
MTEXT
  5
226
330
21B
100
AcDbEntity
  8
치수문자_일반주서
 62
     0
100
AcDbMText
 10
76.0
 20
27.05453740206976
 30
0.0
 40
2.5
 41
0.0
 71
     2
 72
     1
  1
\A1;%%c1.5 [0.06]
  7
SLDTEXTSTYLE0
 11
0.0
 21
1.0
 31
0.0
 73
     1
 44
1.0
  0
POINT
  5
227
330
21B
100
AcDbEntity
  8
Defpoints
 62
     0
100
AcDbPoint
 10
71.37500000000006
 20
10.20053740206972
 30
0.0
  0
POINT
  5
228
330
21B
100
AcDbEntity
  8
Defpoints
 62
     0
100
AcDbPoint
 10
71.37500000000006
 20
11.70053740206973
 30
0.0
  0
POINT
  5
229
330
21B
100
AcDbEntity
  8
Defpoints
 62
     0
100
AcDbPoint
 10
79.37500000000003
 20
11.70053740206976
 30
0.0
  0
ENDBLK
  5
21D
330
21B
100
AcDbEntity
  8
0
100
AcDbBlockEnd
  0
BLOCK
  5
22B
330
22A
100
AcDbEntity
  8
0
100
AcDbBlockBegin
  2
*D8
 70
     1
 10
0.0
 20
0.0
 30
0.0
  3
*D8
  1
*D9
  0
LINE
  5
22D
330
22A
100
AcDbEntity
  8
치수문자_일반주서
 62
     0
370
    -2
100
AcDbLine
 10
11.37500000000006
 20
13.51303740206972
 30
0.0
 11
11.37500000000006
 21
31.33967000365137
 31
0.0
  0
LINE
  5
22E
330
22A
100
AcDbEntity
  8
치수문자_일반주서
 62
     0
370
    -2
100
AcDbLine
 10
71.37500000000006
 20
11.76303740206973
 30
0.0
 11
71.37500000000006
 21
31.33967000365137
 31
0.0
  0
LINE
  5
22F
330
22A
100
AcDbEntity
  8
치수문자_일반주서
 62
     0
370
    -2
100
AcDbLine
 10
13.87500000000006
 20
31.33967000365137
 30
0.0
 11
68.87500000000006
 21
31.33967000365137
 31
0.0
  0
SOLID
  5
230
330
22A
100
AcDbEntity
  8
치수문자_일반주서
 62
     0
100
AcDbTrace
 10
13.87500000000006
 20
31.75633667031804
 30
0.0
 11
13.87500000000006
 21
30.9230033369847
 31
0.0
 12
11.37500000000006
 22
31.33967000365137
 32
0.0
 13
11.37500000000006
 23
31.33967000365137
 33
0.0
  0
SOLID
  5
231
330
22A
100
AcDbEntity
  8
치수문자_일반주서
 62
     0
100
AcDbTrace
 10
68.87500000000006
 20
30.9230033369847
 30
0.0
 11
68.87500000000006
 21
31.75633667031804
 31
0.0
 12
71.37500000000006
 22
31.33967000365137
 32
0.0
 13
71.37500000000006
 23
31.33967000365137
 33
0.0
  0
MTEXT
  5
232
330
22A
100
AcDbEntity
  8
치수문자_일반주서
 62
     0
100
AcDbMText
 10
41.37500000000006
 20
34.71467000365137
 30
0.0
 40
2.5
 41
0.0
 71
     2
 72
     1
  1
\A1;60 [2.36]
  7
SLDTEXTSTYLE0
 73
     1
 44
1.0
  0
POINT
  5
233
330
22A
100
AcDbEntity
  8
Defpoints
 62
     0
100
AcDbPoint
 10
11.37500000000006
 20
13.45053740206972
 30
0.0
  0
POINT
  5
234
330
22A
100
AcDbEntity
  8
Defpoints
 62
     0
100
AcDbPoint
 10
71.37500000000006
 20
11.70053740206973
 30
0.0
  0
POINT
  5
235
330
22A
100
AcDbEntity
  8
Defpoints
 62
     0
100
AcDbPoint
 10
71.37500000000006
 20
31.33967000365137
 30
0.0
  0
ENDBLK
  5
22C
330
22A
100
AcDbEntity
  8
0
100
AcDbBlockEnd
  0
BLOCK
  5
237
330
236
100
AcDbEntity
  8
0
100
AcDbBlockBegin
  2
*D9
 70
     1
 10
0.0
 20
0.0
 30
0.0
  3
*D9
  1
*D10
  0
LINE
  5
239
330
236
100
AcDbEntity
  8
치수문자_일반주서
 62
     0
370
    -2
100
AcDbLine
 10
11.81250000000006
 20
13.95053740206973
 30
0.0
 11
3.375000000000041
 21
13.9505374020697
 31
0.0
  0
LINE
  5
23A
330
236
100
AcDbEntity
  8
치수문자_일반주서
 62
     0
370
    -2
100
AcDbLine
 10
11.81250000000006
 20
7.950537402069727
 30
0.0
 11
3.375000000000062
 21
7.950537402069696
 31
0.0
  0
LINE
  5
23B
330
236
100
AcDbEntity
  8
치수문자_일반주서
 62
     0
370
    -2
100
AcDbLine
 10
3.375000000000041
 20
13.9505374020697
 30
0.0
 11
3.374999999999971
 21
34.1380374020697
 31
0.0
  0
LINE
  5
23C
330
236
100
AcDbEntity
  8
치수문자_일반주서
 62
     0
370
    -2
100
AcDbLine
 10
3.375000000000041
 20
13.9505374020697
 30
0.0
 11
3.375000000000062
 21
7.950537402069696
 31
0.0
  0
LINE
  5
23D
330
236
100
AcDbEntity
  8
치수문자_일반주서
 62
     0
370
    -2
100
AcDbLine
 10
3.375000000000032
 20
16.4505374020697
 30
0.0
 11
3.375000000000023
 21
18.9505374020697
 31
0.0
  0
LINE
  5
23E
330
236
100
AcDbEntity
  8
치수문자_일반주서
 62
     0
370
    -2
100
AcDbLine
 10
3.375000000000071
 20
5.450537402069696
 30
0.0
 11
3.375000000000079
 21
2.950537402069696
 31
0.0
  0
SOLID
  5
23F
330
236
100
AcDbEntity
  8
치수문자_일반주서
 62
     0
100
AcDbTrace
 10
2.958333333333365
 20
16.4505374020697
 30
0.0
 11
3.791666666666698
 21
16.4505374020697
 31
0.0
 12
3.375000000000041
 22
13.9505374020697
 32
0.0
 13
3.375000000000041
 23
13.9505374020697
 33
0.0
  0
SOLID
  5
240
330
236
100
AcDbEntity
  8
치수문자_일반주서
 62
     0
100
AcDbTrace
 10
3.791666666666737
 20
5.450537402069697
 30
0.0
 11
2.958333333333404
 21
5.450537402069694
 31
0.0
 12
3.375000000000062
 22
7.950537402069696
 32
0.0
 13
3.375000000000062
 23
7.950537402069696
 33
0.0
  0
MTEXT
  5
241
330
236
100
AcDbEntity
  8
치수문자_일반주서
 62
     0
100
AcDbMText
 10
-0.0000000000000031
 20
26.54428740206969
 30
0.0
 40
2.5
 41
0.0
 71
     2
 72
     1
  1
\A1;%%c6 [0.24]
  7
SLDTEXTSTYLE0
 11
-3.478698810492154E-15
 21
1.0
 31
0.0
 73
     1
 44
1.0
  0
POINT
  5
242
330
236
100
AcDbEntity
  8
Defpoints
 62
     0
100
AcDbPoint
 10
11.87500000000006
 20
13.95053740206973
 30
0.0
  0
POINT
  5
243
330
236
100
AcDbEntity
  8
Defpoints
 62
     0
100
AcDbPoint
 10
11.87500000000006
 20
7.950537402069727
 30
0.0
  0
POINT
  5
244
330
236
100
AcDbEntity
  8
Defpoints
 62
     0
100
AcDbPoint
 10
3.375000000000057
 20
7.950537402069696
 30
0.0
  0
ENDBLK
  5
238
330
236
100
AcDbEntity
  8
0
100
AcDbBlockEnd
  0
BLOCK
  5
246
330
245
100
AcDbEntity
  8
0
100
AcDbBlockBegin
  2
*D10
 70
     1
 10
0.0
 20
0.0
 30
0.0
  3
*D10
  1
*D11
  0
LINE
  5
248
330
245
100
AcDbEntity
  8
치수문자_일반주서
 62
     0
370
    -2
100
AcDbLine
 10
65.37500000000006
 20
11.72584006941095
 30
0.0
 11
65.37500000000006
 21
22.5092583719986
 31
0.0
  0
LINE
  5
249
330
245
100
AcDbEntity
  8
치수문자_일반주서
 62
     0
370
    -2
100
AcDbLine
 10
71.37500000000006
 20
11.76303740206973
 30
0.0
 11
71.37500000000006
 21
22.5092583719986
 31
0.0
  0
LINE
  5
24A
330
245
100
AcDbEntity
  8
치수문자_일반주서
 62
     0
370
    -2
100
AcDbLine
 10
65.37500000000006
 20
22.5092583719986
 30
0.0
 11
71.37500000000006
 21
22.5092583719986
 31
0.0
  0
LINE
  5
24B
330
245
100
AcDbEntity
  8
치수문자_일반주서
 62
     0
370
    -2
100
AcDbLine
 10
62.87500000000006
 20
22.5092583719986
 30
0.0
 11
60.37500000000006
 21
22.5092583719986
 31
0.0
  0
LINE
  5
24C
330
245
100
AcDbEntity
  8
치수문자_일반주서
 62
     0
370
    -2
100
AcDbLine
 10
73.87500000000006
 20
22.5092583719986
 30
0.0
 11
76.37500000000006
 21
22.5092583719986
 31
0.0
  0
SOLID
  5
24D
330
245
100
AcDbEntity
  8
치수문자_일반주서
 62
     0
100
AcDbTrace
 10
62.87500000000006
 20
22.09259170533193
 30
0.0
 11
62.87500000000006
 21
22.92592503866527
 31
0.0
 12
65.37500000000006
 22
22.5092583719986
 32
0.0
 13
65.37500000000006
 23
22.5092583719986
 33
0.0
  0
SOLID
  5
24E
330
245
100
AcDbEntity
  8
치수문자_일반주서
 62
     0
100
AcDbTrace
 10
73.87500000000006
 20
22.92592503866527
 30
0.0
 11
73.87500000000006
 21
22.09259170533193
 31
0.0
 12
71.37500000000006
 22
22.5092583719986
 32
0.0
 13
71.37500000000006
 23
22.5092583719986
 33
0.0
  0
MTEXT
  5
24F
330
245
100
AcDbEntity
  8
치수문자_일반주서
 62
     0
100
AcDbMText
 10
68.37500000000006
 20
25.8842583719986
 30
0.0
 40
2.5
 41
0.0
 71
     2
 72
     1
  1
\A1;6 [0.24]
  7
SLDTEXTSTYLE0
 73
     1
 44
1.0
  0
POINT
  5
250
330
245
100
AcDbEntity
  8
Defpoints
 62
     0
100
AcDbPoint
 10
65.37500000000006
 20
11.66334006941095
 30
0.0
  0
POINT
  5
251
330
245
100
AcDbEntity
  8
Defpoints
 62
     0
100
AcDbPoint
 10
71.37500000000006
 20
11.70053740206973
 30
0.0
  0
POINT
  5
252
330
245
100
AcDbEntity
  8
Defpoints
 62
     0
100
AcDbPoint
 10
71.37500000000006
 20
22.5092583719986
 30
0.0
  0
ENDBLK
  5
247
330
245
100
AcDbEntity
  8
0
100
AcDbBlockEnd
  0
BLOCK
  5
2A7
330
2A6
100
AcDbEntity
  8
0
100
AcDbBlockBegin
  2
*D11
 70
     1
 10
0.0
 20
0.0
 30
0.0
  3
*D11
  1
*D12
  0
LINE
  5
2A9
330
2A6
100
AcDbEntity
  8
치수문자_일반주서
 62
     0
370
    -2
100
AcDbLine
 10
16.59859649323742
 20
68.11152735776437
 30
0.0
 11
24.53609649323741
 21
68.1115273577644
 31
0.0
  0
LINE
  5
2AA
330
2A6
100
AcDbEntity
  8
치수문자_일반주서
 62
     0
370
    -2
100
AcDbLine
 10
16.59859649323742
 20
69.61152735776437
 30
0.0
 11
24.5360964932374
 21
69.6115273577644
 31
0.0
  0
LINE
  5
2AB
330
2A6
100
AcDbEntity
  8
치수문자_일반주서
 62
     0
370
    -2
100
AcDbLine
 10
24.5360964932374
 20
69.6115273577644
 30
0.0
 11
24.53609649323734
 21
93.34052735776442
 31
0.0
  0
LINE
  5
2AC
330
2A6
100
AcDbEntity
  8
치수문자_일반주서
 62
     0
370
    -2
100
AcDbLine
 10
24.53609649323741
 20
68.1115273577644
 30
0.0
 11
24.5360964932374
 21
69.6115273577644
 31
0.0
  0
LINE
  5
2AD
330
2A6
100
AcDbEntity
  8
치수문자_일반주서
 62
     0
370
    -2
100
AcDbLine
 10
24.53609649323741
 20
65.6115273577644
 30
0.0
 11
24.53609649323742
 21
63.1115273577644
 31
0.0
  0
LINE
  5
2AE
330
2A6
100
AcDbEntity
  8
치수문자_일반주서
 62
     0
370
    -2
100
AcDbLine
 10
24.53609649323739
 20
72.1115273577644
 30
0.0
 11
24.53609649323739
 21
74.6115273577644
 31
0.0
  0
SOLID
  5
2AF
330
2A6
100
AcDbEntity
  8
치수문자_일반주서
 62
     0
100
AcDbTrace
 10
24.95276315990408
 20
65.6115273577644
 30
0.0
 11
24.11942982657074
 21
65.6115273577644
 31
0.0
 12
24.53609649323741
 22
68.1115273577644
 32
0.0
 13
24.53609649323741
 23
68.1115273577644
 33
0.0
  0
SOLID
  5
2B0
330
2A6
100
AcDbEntity
  8
치수문자_일반주서
 62
     0
100
AcDbTrace
 10
24.11942982657073
 20
72.1115273577644
 30
0.0
 11
24.95276315990406
 21
72.1115273577644
 31
0.0
 12
24.5360964932374
 22
69.6115273577644
 32
0.0
 13
24.5360964932374
 23
69.6115273577644
 33
0.0
  0
MTEXT
  5
2B1
330
2A6
100
AcDbEntity
  8
치수문자_일반주서
 62
     0
100
AcDbMText
 10
21.16109649323737
 20
84.96552735776442
 30
0.0
 40
2.5
 41
0.0
 71
     2
 72
     1
  1
\A1;%%c1.5 [0.06]
  7
SLDTEXTSTYLE0
 11
-2.368475785867000E-15
 21
1.0
 31
0.0
 73
     1
 44
1.0
  0
POINT
  5
2B2
330
2A6
100
AcDbEntity
  8
Defpoints
 62
     0
100
AcDbPoint
 10
16.53609649323742
 20
68.11152735776437
 30
0.0
  0
POINT
  5
2B3
330
2A6
100
AcDbEntity
  8
Defpoints
 62
     0
100
AcDbPoint
 10
16.53609649323742
 20
69.61152735776437
 30
0.0
  0
POINT
  5
2B4
330
2A6
100
AcDbEntity
  8
Defpoints
 62
     0
100
AcDbPoint
 10
24.53609649323737
 20
69.6115273577644
 30
0.0
  0
ENDBLK
  5
2A8
330
2A6
100
AcDbEntity
  8
0
100
AcDbBlockEnd
  0
BLOCK
  5
2B6
330
2B5
100
AcDbEntity
  8
0
100
AcDbBlockBegin
  2
*D12
 70
     1
 10
0.0
 20
0.0
 30
0.0
  3
*D12
  1
*D13
  0
LINE
  5
2B8
330
2B5
100
AcDbEntity
  8
치수문자_일반주서
 62
     0
370
    -2
100
AcDbLine
 10
-43.46390350676258
 20
71.42402735776437
 30
0.0
 11
-43.46390350676258
 21
89.25065995934602
 31
0.0
  0
LINE
  5
2B9
330
2B5
100
AcDbEntity
  8
치수문자_일반주서
 62
     0
370
    -2
100
AcDbLine
 10
16.53609649323742
 20
69.67402735776437
 30
0.0
 11
16.53609649323742
 21
89.25065995934602
 31
0.0
  0
LINE
  5
2BA
330
2B5
100
AcDbEntity
  8
치수문자_일반주서
 62
     0
370
    -2
100
AcDbLine
 10
-40.96390350676258
 20
89.25065995934602
 30
0.0
 11
14.03609649323742
 21
89.25065995934602
 31
0.0
  0
SOLID
  5
2BB
330
2B5
100
AcDbEntity
  8
치수문자_일반주서
 62
     0
100
AcDbTrace
 10
-40.96390350676258
 20
89.6673266260127
 30
0.0
 11
-40.96390350676258
 21
88.83399329267935
 31
0.0
 12
-43.46390350676258
 22
89.25065995934602
 32
0.0
 13
-43.46390350676258
 23
89.25065995934602
 33
0.0
  0
SOLID
  5
2BC
330
2B5
100
AcDbEntity
  8
치수문자_일반주서
 62
     0
100
AcDbTrace
 10
14.03609649323742
 20
88.83399329267935
 30
0.0
 11
14.03609649323742
 21
89.6673266260127
 31
0.0
 12
16.53609649323742
 22
89.25065995934602
 32
0.0
 13
16.53609649323742
 23
89.25065995934602
 33
0.0
  0
MTEXT
  5
2BD
330
2B5
100
AcDbEntity
  8
치수문자_일반주서
 62
     0
100
AcDbMText
 10
-13.46390350676258
 20
92.62565995934602
 30
0.0
 40
2.5
 41
0.0
 71
     2
 72
     1
  1
\A1;60 [2.36]
  7
SLDTEXTSTYLE0
 73
     1
 44
1.0
  0
POINT
  5
2BE
330
2B5
100
AcDbEntity
  8
Defpoints
 62
     0
100
AcDbPoint
 10
-43.46390350676258
 20
71.36152735776437
 30
0.0
  0
POINT
  5
2BF
330
2B5
100
AcDbEntity
  8
Defpoints
 62
     0
100
AcDbPoint
 10
16.53609649323742
 20
69.61152735776437
 30
0.0
  0
POINT
  5
2C0
330
2B5
100
AcDbEntity
  8
Defpoints
 62
     0
100
AcDbPoint
 10
16.53609649323742
 20
89.25065995934602
 30
0.0
  0
ENDBLK
  5
2B7
330
2B5
100
AcDbEntity
  8
0
100
AcDbBlockEnd
  0
BLOCK
  5
2C2
330
2C1
100
AcDbEntity
  8
0
100
AcDbBlockBegin
  2
*D13
 70
     1
 10
0.0
 20
0.0
 30
0.0
  3
*D13
  1
*D14
  0
LINE
  5
2C4
330
2C1
100
AcDbEntity
  8
치수문자_일반주서
 62
     0
370
    -2
100
AcDbLine
 10
-43.02640350676257
 20
71.86152735776437
 30
0.0
 11
-51.46390350676259
 21
71.86152735776434
 31
0.0
  0
LINE
  5
2C5
330
2C1
100
AcDbEntity
  8
치수문자_일반주서
 62
     0
370
    -2
100
AcDbLine
 10
-43.02640350676257
 20
65.86152735776437
 30
0.0
 11
-51.46390350676257
 21
65.86152735776434
 31
0.0
  0
LINE
  5
2C6
330
2C1
100
AcDbEntity
  8
치수문자_일반주서
 62
     0
370
    -2
100
AcDbLine
 10
-51.46390350676259
 20
71.86152735776434
 30
0.0
 11
-51.46390350676266
 21
92.04902735776434
 31
0.0
  0
LINE
  5
2C7
330
2C1
100
AcDbEntity
  8
치수문자_일반주서
 62
     0
370
    -2
100
AcDbLine
 10
-51.46390350676259
 20
71.86152735776434
 30
0.0
 11
-51.46390350676257
 21
65.86152735776434
 31
0.0
  0
LINE
  5
2C8
330
2C1
100
AcDbEntity
  8
치수문자_일반주서
 62
     0
370
    -2
100
AcDbLine
 10
-51.4639035067626
 20
74.36152735776434
 30
0.0
 11
-51.46390350676261
 21
76.86152735776434
 31
0.0
  0
LINE
  5
2C9
330
2C1
100
AcDbEntity
  8
치수문자_일반주서
 62
     0
370
    -2
100
AcDbLine
 10
-51.46390350676256
 20
63.36152735776434
 30
0.0
 11
-51.46390350676256
 21
60.86152735776434
 31
0.0
  0
SOLID
  5
2CA
330
2C1
100
AcDbEntity
  8
치수문자_일반주서
 62
     0
100
AcDbTrace
 10
-51.88057017342926
 20
74.36152735776434
 30
0.0
 11
-51.04723684009593
 21
74.36152735776434
 31
0.0
 12
-51.46390350676259
 22
71.86152735776434
 32
0.0
 13
-51.46390350676259
 23
71.86152735776434
 33
0.0
  0
SOLID
  5
2CB
330
2C1
100
AcDbEntity
  8
치수문자_일반주서
 62
     0
100
AcDbTrace
 10
-51.0472368400959
 20
63.36152735776434
 30
0.0
 11
-51.88057017342923
 21
63.36152735776434
 31
0.0
 12
-51.46390350676257
 22
65.86152735776434
 32
0.0
 13
-51.46390350676257
 23
65.86152735776434
 33
0.0
  0
MTEXT
  5
2CC
330
2C1
100
AcDbEntity
  8
치수문자_일반주서
 62
     0
100
AcDbMText
 10
-54.83890350676263
 20
84.45527735776433
 30
0.0
 40
2.5
 41
0.0
 71
     2
 72
     1
  1
\A1;%%c6 [0.24]
  7
SLDTEXTSTYLE0
 11
-3.552713678800501E-15
 21
1.0
 31
0.0
 73
     1
 44
1.0
  0
POINT
  5
2CD
330
2C1
100
AcDbEntity
  8
Defpoints
 62
     0
100
AcDbPoint
 10
-42.96390350676257
 20
71.86152735776437
 30
0.0
  0
POINT
  5
2CE
330
2C1
100
AcDbEntity
  8
Defpoints
 62
     0
100
AcDbPoint
 10
-42.96390350676257
 20
65.86152735776437
 30
0.0
  0
POINT
  5
2CF
330
2C1
100
AcDbEntity
  8
Defpoints
 62
     0
100
AcDbPoint
 10
-51.46390350676257
 20
65.86152735776434
 30
0.0
  0
ENDBLK
  5
2C3
330
2C1
100
AcDbEntity
  8
0
100
AcDbBlockEnd
  0
BLOCK
  5
2D1
330
2D0
100
AcDbEntity
  8
0
100
AcDbBlockBegin
  2
*D14
 70
     1
 10
0.0
 20
0.0
 30
0.0
  3
*D14
  1
*D15
  0
LINE
  5
2D3
330
2D0
100
AcDbEntity
  8
치수문자_일반주서
 62
     0
370
    -2
100
AcDbLine
 10
10.53609649323742
 20
69.6368300251056
 30
0.0
 11
10.53609649323742
 21
80.42024832769324
 31
0.0
  0
LINE
  5
2D4
330
2D0
100
AcDbEntity
  8
치수문자_일반주서
 62
     0
370
    -2
100
AcDbLine
 10
16.53609649323742
 20
69.67402735776437
 30
0.0
 11
16.53609649323742
 21
80.42024832769324
 31
0.0
  0
LINE
  5
2D5
330
2D0
100
AcDbEntity
  8
치수문자_일반주서
 62
     0
370
    -2
100
AcDbLine
 10
10.53609649323742
 20
80.42024832769324
 30
0.0
 11
16.53609649323742
 21
80.42024832769324
 31
0.0
  0
LINE
  5
2D6
330
2D0
100
AcDbEntity
  8
치수문자_일반주서
 62
     0
370
    -2
100
AcDbLine
 10
8.036096493237423
 20
80.42024832769324
 30
0.0
 11
5.536096493237423
 21
80.42024832769324
 31
0.0
  0
LINE
  5
2D7
330
2D0
100
AcDbEntity
  8
치수문자_일반주서
 62
     0
370
    -2
100
AcDbLine
 10
19.03609649323742
 20
80.42024832769324
 30
0.0
 11
21.53609649323742
 21
80.42024832769324
 31
0.0
  0
SOLID
  5
2D8
330
2D0
100
AcDbEntity
  8
치수문자_일반주서
 62
     0
100
AcDbTrace
 10
8.036096493237423
 20
80.00358166102657
 30
0.0
 11
8.036096493237423
 21
80.83691499435992
 31
0.0
 12
10.53609649323742
 22
80.42024832769324
 32
0.0
 13
10.53609649323742
 23
80.42024832769324
 33
0.0
  0
SOLID
  5
2D9
330
2D0
100
AcDbEntity
  8
치수문자_일반주서
 62
     0
100
AcDbTrace
 10
19.03609649323742
 20
80.83691499435992
 30
0.0
 11
19.03609649323742
 21
80.00358166102657
 31
0.0
 12
16.53609649323742
 22
80.42024832769324
 32
0.0
 13
16.53609649323742
 23
80.42024832769324
 33
0.0
  0
MTEXT
  5
2DA
330
2D0
100
AcDbEntity
  8
치수문자_일반주서
 62
     0
100
AcDbMText
 10
13.53609649323742
 20
83.79524832769324
 30
0.0
 40
2.5
 41
0.0
 71
     2
 72
     1
  1
\A1;6 [0.24]
  7
SLDTEXTSTYLE0
 73
     1
 44
1.0
  0
POINT
  5
2DB
330
2D0
100
AcDbEntity
  8
Defpoints
 62
     0
100
AcDbPoint
 10
10.53609649323742
 20
69.5743300251056
 30
0.0
  0
POINT
  5
2DC
330
2D0
100
AcDbEntity
  8
Defpoints
 62
     0
100
AcDbPoint
 10
16.53609649323742
 20
69.61152735776437
 30
0.0
  0
POINT
  5
2DD
330
2D0
100
AcDbEntity
  8
Defpoints
 62
     0
100
AcDbPoint
 10
16.53609649323742
 20
80.42024832769324
 30
0.0
  0
ENDBLK
  5
2D2
330
2D0
100
AcDbEntity
  8
0
100
AcDbBlockEnd
  0
BLOCK
  5
319
330
318
100
AcDbEntity
  8
0
100
AcDbBlockBegin
  2
*D15
 70
     1
 10
0.0
 20
0.0
 30
0.0
  3
*D15
  1
*D16
  0
LINE
  5
31B
330
318
100
AcDbEntity
  8
치수문자_일반주서
 62
     0
370
    -2
100
AcDbLine
 10
55.68991850342396
 20
-30.26456405898636
 30
0.0
 11
65.42046438673331
 21
-30.26456405898632
 31
0.0
  0
LINE
  5
31C
330
318
100
AcDbEntity
  8
치수문자_일반주서
 62
     0
370
    -2
100
AcDbLine
 10
55.68991850342396
 20
-29.07494535710356
 30
0.0
 11
65.42046438673331
 21
-29.07494535710353
 31
0.0
  0
LINE
  5
31D
330
318
100
AcDbEntity
  8
치수문자_일반주서
 62
     0
370
    -2
100
AcDbLine
 10
65.42046438673331
 20
-29.07494535710353
 30
0.0
 11
65.42046438673331
 21
-6.074945357103527
 31
0.0
  0
LINE
  5
31E
330
318
100
AcDbEntity
  8
치수문자_일반주서
 62
     0
370
    -2
100
AcDbLine
 10
65.42046438673331
 20
-30.26456405898632
 30
0.0
 11
65.42046438673331
 21
-29.07494535710353
 31
0.0
  0
LINE
  5
31F
330
318
100
AcDbEntity
  8
치수문자_일반주서
 62
     0
370
    -2
100
AcDbLine
 10
65.42046438673331
 20
-32.76456405898632
 30
0.0
 11
65.42046438673331
 21
-35.26456405898632
 31
0.0
  0
LINE
  5
320
330
318
100
AcDbEntity
  8
치수문자_일반주서
 62
     0
370
    -2
100
AcDbLine
 10
65.42046438673331
 20
-26.57494535710353
 30
0.0
 11
65.42046438673331
 21
-24.07494535710353
 31
0.0
  0
SOLID
  5
321
330
318
100
AcDbEntity
  8
치수문자_일반주서
 62
     0
100
AcDbTrace
 10
65.83713105339999
 20
-32.76456405898632
 30
0.0
 11
65.00379772006664
 21
-32.76456405898632
 31
0.0
 12
65.42046438673331
 22
-30.26456405898632
 32
0.0
 13
65.42046438673331
 23
-30.26456405898632
 33
0.0
  0
SOLID
  5
322
330
318
100
AcDbEntity
  8
치수문자_일반주서
 62
     0
100
AcDbTrace
 10
65.00379772006664
 20
-26.57494535710353
 30
0.0
 11
65.83713105339999
 21
-26.57494535710353
 31
0.0
 12
65.42046438673331
 22
-29.07494535710353
 32
0.0
 13
65.42046438673331
 23
-29.07494535710353
 33
0.0
  0
MTEXT
  5
323
330
318
100
AcDbEntity
  8
치수문자_일반주서
 62
     0
100
AcDbMText
 10
62.04546438673331
 20
-15.07494535710353
 30
0.0
 40
2.5
 41
0.0
 71
     2
 72
     1
  1
\A1;%%c1.19 [0.05]
  7
SLDTEXTSTYLE0
 11
0.0
 21
1.0
 31
0.0
 73
     1
 44
1.0
  0
POINT
  5
324
330
318
100
AcDbEntity
  8
Defpoints
 62
     0
100
AcDbPoint
 10
55.62741850342396
 20
-30.26456405898636
 30
0.0
  0
POINT
  5
325
330
318
100
AcDbEntity
  8
Defpoints
 62
     0
100
AcDbPoint
 10
55.62741850342396
 20
-29.07494535710356
 30
0.0
  0
POINT
  5
326
330
318
100
AcDbEntity
  8
Defpoints
 62
     0
100
AcDbPoint
 10
65.42046438673336
 20
-29.07494535710353
 30
0.0
  0
ENDBLK
  5
31A
330
318
100
AcDbEntity
  8
0
100
AcDbBlockEnd
  0
BLOCK
  5
328
330
327
100
AcDbEntity
  8
0
100
AcDbBlockBegin
  2
*D16
 70
     1
 10
0.0
 20
0.0
 30
0.0
  3
*D16
  1
*D17
  0
LINE
  5
32A
330
327
100
AcDbEntity
  8
치수문자_일반주서
 62
     0
370
    -2
100
AcDbLine
 10
55.62741850342396
 20
-29.01244535710356
 30
0.0
 11
55.62741850342396
 21
-17.79660829274444
 31
0.0
  0
LINE
  5
32B
330
327
100
AcDbEntity
  8
치수문자_일반주서
 62
     0
370
    -2
100
AcDbLine
 10
53.24616850342396
 20
-29.08786942180197
 30
0.0
 11
53.24616850342396
 21
-17.79660829274444
 31
0.0
  0
LINE
  5
32C
330
327
100
AcDbEntity
  8
치수문자_일반주서
 62
     0
370
    -2
100
AcDbLine
 10
53.24616850342396
 20
-17.79660829274444
 30
0.0
 11
30.87116850342396
 21
-17.79660829274444
 31
0.0
  0
LINE
  5
32D
330
327
100
AcDbEntity
  8
치수문자_일반주서
 62
     0
370
    -2
100
AcDbLine
 10
55.62741850342396
 20
-17.79660829274444
 30
0.0
 11
53.24616850342396
 21
-17.79660829274444
 31
0.0
  0
LINE
  5
32E
330
327
100
AcDbEntity
  8
치수문자_일반주서
 62
     0
370
    -2
100
AcDbLine
 10
58.12741850342396
 20
-17.79660829274444
 30
0.0
 11
60.62741850342396
 21
-17.79660829274444
 31
0.0
  0
LINE
  5
32F
330
327
100
AcDbEntity
  8
치수문자_일반주서
 62
     0
370
    -2
100
AcDbLine
 10
50.74616850342396
 20
-17.79660829274444
 30
0.0
 11
48.24616850342396
 21
-17.79660829274444
 31
0.0
  0
SOLID
  5
330
330
327
100
AcDbEntity
  8
치수문자_일반주서
 62
     0
100
AcDbTrace
 10
58.12741850342396
 20
-17.37994162607777
 30
0.0
 11
58.12741850342396
 21
-18.21327495941111
 31
0.0
 12
55.62741850342396
 22
-17.79660829274444
 32
0.0
 13
55.62741850342396
 23
-17.79660829274444
 33
0.0
  0
SOLID
  5
331
330
327
100
AcDbEntity
  8
치수문자_일반주서
 62
     0
100
AcDbTrace
 10
50.74616850342396
 20
-18.21327495941111
 30
0.0
 11
50.74616850342396
 21
-17.37994162607777
 31
0.0
 12
53.24616850342396
 22
-17.79660829274444
 32
0.0
 13
53.24616850342396
 23
-17.79660829274444
 33
0.0
  0
MTEXT
  5
332
330
327
100
AcDbEntity
  8
치수문자_일반주서
 62
     0
100
AcDbMText
 10
39.55866850342396
 20
-14.42160829274444
 30
0.0
 40
2.5
 41
0.0
 71
     2
 72
     1
  1
\A1;2.38 [0.09]
  7
SLDTEXTSTYLE0
 73
     1
 44
1.0
  0
POINT
  5
333
330
327
100
AcDbEntity
  8
Defpoints
 62
     0
100
AcDbPoint
 10
55.62741850342396
 20
-29.07494535710356
 30
0.0
  0
POINT
  5
334
330
327
100
AcDbEntity
  8
Defpoints
 62
     0
100
AcDbPoint
 10
53.24616850342396
 20
-29.15036942180197
 30
0.0
  0
POINT
  5
335
330
327
100
AcDbEntity
  8
Defpoints
 62
     0
100
AcDbPoint
 10
53.24616850342396
 20
-17.79660829274444
 30
0.0
  0
ENDBLK
  5
329
330
327
100
AcDbEntity
  8
0
100
AcDbBlockEnd
  0
BLOCK
  5
337
330
336
100
AcDbEntity
  8
0
100
AcDbBlockBegin
  2
*D17
 70
     1
 10
0.0
 20
0.0
 30
0.0
  3
*D17
  1
*D18
  0
LINE
  5
339
330
336
100
AcDbEntity
  8
치수문자_일반주서
 62
     0
370
    -2
100
AcDbLine
 10
17.52741850342397
 20
-28.44975470804496
 30
0.0
 11
17.52741850342397
 21
-7.320089610692825
 31
0.0
  0
LINE
  5
33A
330
336
100
AcDbEntity
  8
치수문자_일반주서
 62
     0
370
    -2
100
AcDbLine
 10
55.62741850342396
 20
-29.01244535710356
 30
0.0
 11
55.62741850342395
 21
-7.320089610692825
 31
0.0
  0
LINE
  5
33B
330
336
100
AcDbEntity
  8
치수문자_일반주서
 62
     0
370
    -2
100
AcDbLine
 10
20.02741850342397
 20
-7.320089610692825
 30
0.0
 11
53.12741850342395
 21
-7.320089610692825
 31
0.0
  0
SOLID
  5
33C
330
336
100
AcDbEntity
  8
치수문자_일반주서
 62
     0
100
AcDbTrace
 10
20.02741850342397
 20
-6.903422944026159
 30
0.0
 11
20.02741850342397
 21
-7.736756277359492
 31
0.0
 12
17.52741850342397
 22
-7.320089610692825
 32
0.0
 13
17.52741850342397
 23
-7.320089610692825
 33
0.0
  0
SOLID
  5
33D
330
336
100
AcDbEntity
  8
치수문자_일반주서
 62
     0
100
AcDbTrace
 10
53.12741850342395
 20
-7.736756277359492
 30
0.0
 11
53.12741850342395
 21
-6.903422944026159
 31
0.0
 12
55.62741850342395
 22
-7.320089610692825
 32
0.0
 13
55.62741850342395
 23
-7.320089610692825
 33
0.0
  0
MTEXT
  5
33E
330
336
100
AcDbEntity
  8
치수문자_일반주서
 62
     0
100
AcDbMText
 10
38.12978810633908
 20
-3.945089610692825
 30
0.0
 40
2.5
 41
0.0
 71
     2
 72
     1
  1
\A1;38.1 [1.50]
  7
SLDTEXTSTYLE0
 73
     1
 44
1.0
  0
POINT
  5
33F
330
336
100
AcDbEntity
  8
Defpoints
 62
     0
100
AcDbPoint
 10
17.52741850342397
 20
-28.51225470804496
 30
0.0
  0
POINT
  5
340
330
336
100
AcDbEntity
  8
Defpoints
 62
     0
100
AcDbPoint
 10
55.62741850342396
 20
-29.07494535710356
 30
0.0
  0
POINT
  5
341
330
336
100
AcDbEntity
  8
Defpoints
 62
     0
100
AcDbPoint
 10
55.62741850342396
 20
-7.320089610692825
 30
0.0
  0
ENDBLK
  5
338
330
336
100
AcDbEntity
  8
0
100
AcDbBlockEnd
  0
ENDSEC
  0
SECTION
  2
ENTITIES
  0
LINE
  5
96
330
1F
100
AcDbEntity
  8
외형선
  6
Continuous
370
    15
100
AcDbLine
 10
12.16585583936527
 20
1.5875
 30
0.0
 11
-12.16585583936524
 21
1.587499999999998
 31
0.0
  0
LINE
  5
97
330
1F
100
AcDbEntity
  8
외형선
  6
Continuous
370
    15
100
AcDbLine
 10
-12.16585583936524
 20
-1.587499999999999
 30
0.0
 11
12.16585583936527
 21
-1.587499999999997
 31
0.0
  0
LINE
  5
98
330
1F
100
AcDbEntity
  8
외형선
  6
Continuous
370
    15
100
AcDbLine
 10
12.16585583936527
 20
-1.587499999999998
 30
0.0
 11
15.86875000000001
 21
-0.5953124999999984
 31
0.0
  0
LINE
  5
99
330
1F
100
AcDbEntity
  8
외형선
  6
Continuous
370
    15
100
AcDbLine
 10
15.86875000000001
 20
0.5953125000000017
 30
0.0
 11
12.16585583936527
 21
1.587500000000001
 31
0.0
  0
LINE
  5
9C
330
1F
100
AcDbEntity
  8
외형선
  6
Continuous
370
    15
100
AcDbLine
 10
16.42652769960312
 20
-0.4941921173773465
 30
0.0
 11
16.66875000000001
 21
-0.4751209415281111
 31
0.0
  0
LINE
  5
9D
330
1F
100
AcDbEntity
  8
외형선
  6
Continuous
370
    15
100
AcDbLine
 10
16.14223905193606
 20
0.5953125000000017
 30
0.0
 11
15.86875000000001
 21
0.5953125000000017
 31
0.0
  0
LINE
  5
9E
330
1F
100
AcDbEntity
  8
외형선
  6
Continuous
370
    15
100
AcDbLine
 10
15.86875000000001
 20
-0.5953124999999984
 30
0.0
 11
16.14223905193606
 21
-0.5953124999999984
 31
0.0
  0
LINE
  5
9F
330
1F
100
AcDbEntity
  8
0
  6
Continuous
 62
     1
370
    25
100
AcDbLine
 10
17.21259611303964
 20
0.1497012328349338
 30
0.0
 11
17.17249774027618
 21
0.1711084617466655
 31
0.0
  0
LINE
  5
A0
330
1F
100
AcDbEntity
  8
0
  6
Continuous
 62
     1
370
    25
100
AcDbLine
 10
17.50830733400596
 20
0.1525250431295813
 30
0.0
 11
17.34167954402064
 21
0.2352744472548704
 31
0.0
  0
SPLINE
  5
A1
330
1F
100
AcDbEntity
  8
0
  6
Continuous
 62
     1
370
    25
100
AcDbSpline
210
0.0
220
0.0
230
1.0
 70
     8
 71
     3
 72
     9
 73
     5
 74
     0
 42
0.000000001
 43
0.00000001
 40
0.0
 40
0.0
 40
0.0
 40
0.0
 40
0.5986475856214266
 40
1.0
 40
1.0
 40
1.0
 40
1.0
 10
17.31021522138129
 20
0.4730616299933691
 30
0.0
 10
17.20933023784499
 20
0.4685974179492356
 30
0.0
 10
17.04080874713927
 20
0.4611402559204278
 30
0.0
 10
16.87064935516773
 20
0.4682307710666863
 30
0.0
 10
16.80235547237076
 20
0.4710765664398247
 30
0.0
  0
SPLINE
  5
A2
330
1F
100
AcDbEntity
  8
0
  6
Continuous
 62
     1
370
    25
100
AcDbSpline
210
0.0
220
0.0
230
1.0
 70
     8
 71
     3
 72
    11
 73
     7
 74
     0
 42
0.000000001
 43
0.00000001
 40
0.0
 40
0.0
 40
0.0
 40
0.0
 40
0.3239436611443014
 40
0.4875003953077143
 40
0.6521055793273666
 40
1.0
 40
1.0
 40
1.0
 40
1.0
 10
18.79862318508859
 20
0.4044124179739296
 30
0.0
 10
18.69115134600817
 20
0.3982601680603261
 30
0.0
 10
18.52941777835297
 20
0.3890016931319418
 30
0.0
 10
18.30776055377058
 20
0.3941875127697637
 30
0.0
 10
18.07944248871213
 20
0.4074940411848462
 30
0.0
 10
17.90560340402824
 20
0.431524731187044
 30
0.0
 10
17.78759814684824
 20
0.4478372178702245
 30
0.0
  0
SPLINE
  5
A3
330
1F
100
AcDbEntity
  8
0
  6
Continuous
 62
     1
370
    25
100
AcDbSpline
210
0.0
220
0.0
230
1.0
 70
     8
 71
     3
 72
     9
 73
     5
 74
     0
 42
0.000000001
 43
0.00000001
 40
0.0
 40
0.0
 40
0.0
 40
0.0
 40
0.7746622094612644
 40
0.9999999999999999
 40
0.9999999999999999
 40
0.9999999999999999
 40
0.9999999999999999
 10
17.78759814684824
 20
-0.4478372178702212
 30
0.0
 10
17.90557050024688
 20
-0.4309580626959473
 30
0.0
 10
18.05785926812247
 20
-0.4091690106831838
 30
0.0
 10
18.20973088942361
 20
-0.4009194111664737
 30
0.0
 10
18.24395330501314
 20
-0.3990604646385488
 30
0.0
  0
SPLINE
  5
A4
330
1F
100
AcDbEntity
  8
0
  6
Continuous
 62
     1
370
    25
100
AcDbSpline
210
0.0
220
0.0
230
1.0
 70
     8
 71
     3
 72
    11
 73
     7
 74
     0
 42
0.000000001
 43
0.00000001
 40
0.0
 40
0.0
 40
0.0
 40
0.0
 40
0.2631704471566699
 40
0.4302278239968788
 40
0.6349804847400414
 40
1.0
 40
1.0
 40
1.0
 40
1.0
 10
16.66874999995707
 20
-0.4751209415306808
 30
0.0
 10
16.72673232426142
 20
-0.4718319016246925
 30
0.0
 10
16.82152111793206
 20
-0.4664550194668343
 30
0.0
 10
16.95518290594
 20
-0.4647210756238863
 30
0.0
 10
17.10654283069275
 20
-0.4645870857316385
 30
0.0
 10
17.23068477837905
 20
-0.4697524713140828
 30
0.0
 10
17.31021522138129
 20
-0.4730616299933658
 30
0.0
  0
LINE
  5
A5
330
1F
100
AcDbEntity
  8
외형선
  6
Continuous
370
    15
100
AcDbLine
 10
12.16585583936527
 20
1.587500000000001
 30
0.0
 11
12.16585583936527
 21
-1.587499999999999
 31
0.0
  0
SPLINE
  5
A7
330
1F
100
AcDbEntity
  8
외형선
  6
Continuous
370
    15
100
AcDbSpline
210
0.0
220
0.0
230
1.0
 70
     8
 71
     3
 72
    20
 73
    16
 74
     0
 42
0.000000001
 43
0.00000001
 40
0.0
 40
0.0
 40
0.0
 40
0.0
 40
0.0418046270787091
 40
0.0833826479471545
 40
0.1253328453272595
 40
0.1877903426012149
 40
0.2505755795759688
 40
0.3753096418780844
 40
0.5000437042954611
 40
0.6247777669617249
 40
0.7495118298884264
 40
0.8119693274763894
 40
0.8747545648226058
 40
0.9372955511623049
 40
0.9999999999999999
 40
0.9999999999999999
 40
0.9999999999999999
 40
0.9999999999999999
 10
15.86858972177486
 20
-0.5747018777174273
 30
0.0
 10
15.86858785083965
 20
-0.5677495983710461
 30
0.0
 10
15.86858411911083
 20
-0.5538827252118111
 30
0.0
 10
15.86857935308667
 20
-0.5229216026541046
 30
0.0
 10
15.86857462679452
 20
-0.478867949382646
 30
0.0
 10
15.86857054104423
 20
-0.4167934525534543
 30
0.0
 10
15.86856707469888
 20
-0.3062578102692513
 30
0.0
 10
15.86856782184072
 20
-0.1406123803318216
 30
0.0
 10
15.86857686671169
 20
0.0754320214242948
 30
0.0
 10
15.8685928533089
 20
0.2819821384006889
 30
0.0
 10
15.86861034593855
 20
0.4244200742160232
 30
0.0
 10
15.86862540665531
 20
0.5097261703718632
 30
0.0
 10
15.86863692496071
 20
0.5569895600129187
 30
0.0
 10
15.86864835970775
 20
0.5882710614487842
 30
0.0
 10
15.86865546524196
 20
0.5929323902997586
 30
0.0
 10
15.86865902264592
 20
0.5952660965624867
 30
0.0
  0
LINE
  5
A8
330
1F
100
AcDbEntity
  8
외형선
  6
Continuous
370
    15
100
AcDbLine
 10
15.86875000000001
 20
-0.5746754259543652
 30
0.0
 11
15.86875000000001
 21
-0.5952389935668164
 31
0.0
  0
SPLINE
  5
AA
330
1F
100
AcDbEntity
  8
외형선
  6
Continuous
370
    15
100
AcDbSpline
210
0.0
220
0.0
230
1.0
 70
    24
 71
     3
 72
     8
 73
     4
 74
     0
 42
0.000000001
 43
0.00000001
 40
0.0
 40
0.0
 40
0.0
 40
0.0
 40
1.0
 40
1.0
 40
1.0
 40
1.0
 10
15.86865905783897
 20
0.595235095867657
 30
0.0
 10
15.86865905783897
 20
0.5365712836575195
 30
0.0
 10
15.86865905783897
 20
0.4681411262629015
 30
0.0
 10
15.86865905783897
 20
0.4160451340061604
 30
0.0
  0
SPLINE
  5
AB
330
1F
100
AcDbEntity
  8
외형선
  6
Continuous
370
    15
100
AcDbSpline
210
0.0
220
0.0
230
1.0
 70
    24
 71
     3
 72
    10
 73
     6
 74
     0
 42
0.000000001
 43
0.00000001
 40
0.0
 40
0.0
 40
0.0
 40
0.0
 40
0.5
 40
0.5
 40
1.0
 40
1.0
 40
1.0
 40
1.0
 10
15.86863615893086
 20
0.4160456628949745
 30
0.0
 10
15.86863615893086
 20
0.3877728320452457
 30
0.0
 10
15.86863615893086
 20
0.3314454791784927
 30
0.0
 10
15.86863615893086
 20
0.1739410427600034
 30
0.0
 10
15.86863615893086
 20
0.0739843171668243
 30
0.0
 10
15.86863615893086
 20
-0.0270575619299572
 30
0.0
  0
SPLINE
  5
AC
330
1F
100
AcDbEntity
  8
외형선
  6
Continuous
370
    15
100
AcDbSpline
210
0.0
220
0.0
230
1.0
 70
    24
 71
     3
 72
    10
 73
     6
 74
     0
 42
0.000000001
 43
0.00000001
 40
0.0
 40
0.0
 40
0.0
 40
0.0
 40
0.5
 40
0.5
 40
1.0
 40
1.0
 40
1.0
 40
1.0
 10
15.86862435840265
 20
-0.0270520892071395
 30
0.0
 10
15.86862435840265
 20
-0.1175097503327225
 30
0.0
 10
15.86862435840265
 20
-0.2088883803301503
 30
0.0
 10
15.86862435840265
 20
-0.3670837153602169
 30
0.0
 10
15.86862435840265
 20
-0.433219485827989
 30
0.0
 10
15.86862435840265
 20
-0.4796212139029232
 30
0.0
  0
SPLINE
  5
AD
330
1F
100
AcDbEntity
  8
외형선
  6
Continuous
370
    15
100
AcDbSpline
210
0.0
220
0.0
230
1.0
 70
    24
 71
     3
 72
     8
 73
     4
 74
     0
 42
0.000000001
 43
0.00000001
 40
0.0
 40
0.0
 40
0.0
 40
0.0
 40
1.0
 40
1.0
 40
1.0
 40
1.0
 10
15.86856414552616
 20
-0.4796117403421667
 30
0.0
 10
15.86856414552616
 20
-0.5112875282570299
 30
0.0
 10
15.86856414552616
 20
-0.5431817697842222
 30
0.0
 10
15.86856414552616
 20
-0.5746833603637473
 30
0.0
  0
SPLINE
  5
AE
330
1F
100
AcDbEntity
  8
외형선
  6
Continuous
370
    15
100
AcDbSpline
210
0.0
220
0.0
230
1.0
 70
    24
 71
     3
 72
    12
 73
     8
 74
     0
 42
0.000000001
 43
0.00000001
 40
0.0
 40
0.0
 40
0.0
 40
0.0
 40
0.1841851643695151
 40
0.3708719962551301
 40
0.6364596505287322
 40
0.909749364768638
 40
1.0
 40
1.0
 40
1.0
 40
1.0
 10
16.66875000000001
 20
-0.3519283281690692
 30
0.0
 10
16.66875000000001
 20
-0.3659239344022216
 30
0.0
 10
16.66875000000001
 20
-0.3941052401021559
 30
0.0
 10
16.66875000000001
 20
-0.4316623792037046
 30
0.0
 10
16.66875000000001
 20
-0.4612304620371322
 30
0.0
 10
16.66875000000001
 20
-0.4757153419155326
 30
0.0
 10
16.66875000000001
 20
-0.4738854859792188
 30
0.0
 10
16.66875000000001
 20
-0.4734312154673639
 30
0.0
  0
SPLINE
  5
AF
330
1F
100
AcDbEntity
  8
외형선
  6
Continuous
370
    15
100
AcDbSpline
210
0.0
220
0.0
230
1.0
 70
     8
 71
     3
 72
     9
 73
     5
 74
     0
 42
0.000000001
 43
0.00000001
 40
0.0
 40
0.0
 40
0.0
 40
0.0
 40
0.2890657448055033
 40
1.0
 40
1.0
 40
1.0
 40
1.0
 10
16.42933205382281
 20
-0.4851968568150382
 30
0.0
 10
16.37530234147909
 20
-0.4932735205507559
 30
0.0
 10
16.18839084015239
 20
-0.5212140976715495
 30
0.0
 10
16.00145981480456
 20
-0.496898518505912
 30
0.0
 10
15.86856414552616
 20
-0.4796117403421667
 30
0.0
  0
SPLINE
  5
B0
330
1F
100
AcDbEntity
  8
외형선
  6
Continuous
370
    15
100
AcDbSpline
210
0.0
220
0.0
230
1.0
 70
     8
 71
     3
 72
    10
 73
     6
 74
     0
 42
0.000000001
 43
0.00000001
 40
0.0
 40
0.0
 40
0.0
 40
0.0
 40
0.5
 40
0.5
 40
1.0
 40
1.0
 40
1.0
 40
1.0
 10
16.66874999995707
 20
-0.3519283281556493
 30
0.0
 10
16.53655744950134
 20
-0.3106186637702252
 30
0.0
 10
16.39865483947448
 20
-0.2597038481435103
 30
0.0
 10
16.13888166842037
 20
-0.1496222406520636
 30
0.0
 10
16.00051657705838
 20
-0.0882197319426213
 30
0.0
 10
15.86862435840265
 20
-0.0270520892071395
 30
0.0
  0
SPLINE
  5
B1
330
1F
100
AcDbEntity
  8
외형선
  6
Continuous
370
    15
100
AcDbSpline
210
0.0
220
0.0
230
1.0
 70
    24
 71
     3
 72
    10
 73
     6
 74
     0
 42
0.000000001
 43
0.00000001
 40
0.0
 40
0.0
 40
0.0
 40
0.0
 40
0.5
 40
0.5
 40
1.0
 40
1.0
 40
1.0
 40
1.0
 10
16.66875000000001
 20
0.2807652823721846
 30
0.0
 10
16.66875000000001
 20
0.1894848735041685
 30
0.0
 10
16.66875000000001
 20
0.0785328911037572
 30
0.0
 10
16.66875000000001
 20
-0.1463629006008764
 30
0.0
 10
16.66875000000001
 20
-0.2585641979130964
 30
0.0
 10
16.66875000000001
 20
-0.3519283281690688
 30
0.0
  0
SPLINE
  5
B2
330
1F
100
AcDbEntity
  8
외형선
  6
Continuous
370
    15
100
AcDbSpline
210
0.0
220
0.0
230
1.0
 70
     8
 71
     3
 72
    10
 73
     6
 74
     0
 42
0.000000001
 43
0.00000001
 40
0.0
 40
0.0
 40
0.0
 40
0.0
 40
0.4999999999999999
 40
0.4999999999999999
 40
1.0
 40
1.0
 40
1.0
 40
1.0
 10
16.66874999998566
 20
0.280765282376489
 30
0.0
 10
16.53655942075637
 20
0.3204087940771883
 30
0.0
 10
16.39865846495731
 20
0.3533557115594883
 30
0.0
 10
16.13888966401981
 20
0.3991973825400265
 30
0.0
 10
16.00052679509203
 20
0.4130000186607843
 30
0.0
 10
15.86863615893086
 20
0.4160456628949745
 30
0.0
  0
SPLINE
  5
B3
330
1F
100
AcDbEntity
  8
외형선
  6
Continuous
370
    15
100
AcDbSpline
210
0.0
220
0.0
230
1.0
 70
     8
 71
     3
 72
    10
 73
     6
 74
     0
 42
0.000000001
 43
0.00000001
 40
0.0
 40
0.0
 40
0.0
 40
0.0
 40
0.5
 40
0.5
 40
1.0
 40
1.0
 40
1.0
 40
1.0
 10
15.86875000000001
 20
0.5952378328159521
 30
0.0
 10
16.00062536795863
 20
0.5940251065282148
 30
0.0
 10
16.13896679656827
 20
0.5774745044413261
 30
0.0
 10
16.39869343920599
 20
0.5176990591156028
 30
0.0
 10
16.53657843716204
 20
0.4732923183568074
 30
0.0
 10
16.6687499999997
 20
0.4188369629179718
 30
0.0
  0
SPLINE
  5
B4
330
1F
100
AcDbEntity
  8
외형선
  6
Continuous
370
    15
100
AcDbSpline
210
0.0
220
0.0
230
1.0
 70
    24
 71
     3
 72
     8
 73
     4
 74
     0
 42
0.000000001
 43
0.00000001
 40
0.0
 40
0.0
 40
0.0
 40
0.0
 40
1.0
 40
1.0
 40
1.0
 40
1.0
 10
16.66874999999938
 20
0.4188369629181851
 30
0.0
 10
16.66874999999938
 20
0.3899368001231059
 30
0.0
 10
16.66874999999938
 20
0.3363579591542242
 30
0.0
 10
16.66874999999938
 20
0.2807652823723722
 30
0.0
  0
SPLINE
  5
B5
330
1F
100
AcDbEntity
  8
외형선
  6
Continuous
370
    15
100
AcDbSpline
210
0.0
220
0.0
230
1.0
 70
     8
 71
     3
 72
    10
 73
     6
 74
     0
 42
0.000000001
 43
0.00000001
 40
0.0
 40
0.0
 40
0.0
 40
0.0
 40
0.4272699440276172
 40
0.8491967571184598
 40
1.0
 40
1.0
 40
1.0
 40
1.0
 10
16.66874999999798
 20
0.5193852862435686
 30
0.0
 10
16.59361266422886
 20
0.5374454158325034
 30
0.0
 10
16.44427760622737
 20
0.5733398280055046
 30
0.0
 10
16.26945270630598
 20
0.5984902876568708
 30
0.0
 10
16.16875370115563
 20
0.5912121937779615
 30
0.0
 10
16.14223905193606
 20
0.589295828210116
 30
0.0
  0
LINE
  5
B6
330
1F
100
AcDbEntity
  8
외형선
  6
Continuous
370
    15
100
AcDbLine
 10
16.66875000000001
 20
0.5193852862429921
 30
0.0
 11
16.66875000000001
 21
0.4188369629178782
 31
0.0
  0
SPLINE
  5
B7
330
1F
100
AcDbEntity
  8
외형선
  6
Continuous
370
    15
100
AcDbSpline
210
0.0
220
0.0
230
1.0
 70
     8
 71
     3
 72
    10
 73
     6
 74
     0
 42
0.000000001
 43
0.00000001
 40
0.0
 40
0.0
 40
0.0
 40
0.0
 40
0.5
 40
0.5
 40
1.0
 40
1.0
 40
1.0
 40
1.0
 10
16.66874999999798
 20
-0.5193852862435653
 30
0.0
 10
16.53657843716055
 20
-0.5568329440306874
 30
0.0
 10
16.3986934392049
 20
-0.5814190686349978
 30
0.0
 10
16.13896679656767
 20
-0.6001626355595642
 30
0.0
 10
16.00062536795835
 20
-0.5946698821584849
 30
0.0
 10
15.86875000000001
 20
-0.5746904253945875
 30
0.0
  0
SPLINE
  5
B8
330
1F
100
AcDbEntity
  8
외형선
  6
Continuous
370
    15
100
AcDbSpline
210
0.0
220
0.0
230
1.0
 70
    24
 71
     3
 72
     9
 73
     5
 74
     0
 42
0.000000001
 43
0.00000001
 40
0.0
 40
0.0
 40
0.0
 40
0.0
 40
0.7132021777343358
 40
1.0
 40
1.0
 40
1.0
 40
1.0
 10
16.66875000000001
 20
-0.4916809462091896
 30
0.0
 10
16.66875000000001
 20
-0.4984981426665643
 30
0.0
 10
16.66875000000001
 20
-0.5080567175983336
 30
0.0
 10
16.66875000000001
 20
-0.5168604072298117
 30
0.0
 10
16.66875000000001
 20
-0.5193852862440226
 30
0.0
  0
SPLINE
  5
B9
330
1F
100
AcDbEntity
  8
0
  6
Continuous
 62
     1
370
    25
100
AcDbSpline
210
0.0
220
0.0
230
1.0
 70
     8
 71
     3
 72
    22
 73
    18
 74
     0
 42
0.000000001
 43
0.00000001
 40
0.0
 40
0.0
 40
0.0
 40
0.0
 40
0.125
 40
0.125
 40
0.25
 40
0.25
 40
0.375
 40
0.375
 40
0.5
 40
0.5
 40
0.625
 40
0.625
 40
0.75
 40
0.75
 40
0.875
 40
0.875
 40
1.0
 40
1.0
 40
1.0
 40
1.0
 10
16.66875000000001
 20
0.4188369629178783
 30
0.0
 10
16.76739411882948
 20
0.3781950847597914
 30
0.0
 10
16.86495126839106
 20
0.3319113805828097
 30
0.0
 10
17.06599482320129
 20
0.2304588913849561
 30
0.0
 10
17.16372812435952
 20
0.1762763312856386
 30
0.0
 10
17.36082489110548
 20
0.0642901009098722
 30
0.0
 10
17.4628882263044
 20
0.005949608202533
 30
0.0
 10
17.66150428805764
 20
-0.1082629298346767
 30
0.0
 10
17.75799345080661
 20
-0.1641302392894451
 30
0.0
 10
17.95887003560949
 20
-0.2712308537395103
 30
0.0
 10
18.05826635380208
 20
-0.3215037337941423
 30
0.0
 10
18.25372241891918
 20
-0.4113701868744583
 30
0.0
 10
18.35562036865523
 20
-0.4517818954433195
 30
0.0
 10
18.55528023836965
 20
-0.5183553588156864
 30
0.0
 10
18.65123411315808
 20
-0.5445201670112068
 30
0.0
 10
18.85164871643245
 20
-0.5817971030961375
 30
0.0
 10
18.95322676859915
 20
-0.5924733651688234
 30
0.0
 10
19.05000000000001
 20
-0.5948093509413954
 30
0.0
  0
SPLINE
  5
BA
330
1F
100
AcDbEntity
  8
0
  6
Continuous
 62
     1
370
    25
100
AcDbSpline
210
0.0
220
0.0
230
1.0
 70
     8
 71
     3
 72
    10
 73
     6
 74
     0
 42
0.000000001
 43
0.00000001
 40
0.0
 40
0.0
 40
0.0
 40
0.0
 40
0.1186225714961097
 40
0.5590027106663361
 40
1.0
 40
1.0
 40
1.0
 40
1.0
 10
17.56667328463067
 20
-0.053747565845163
 30
0.0
 10
17.5311719202257
 20
-0.0398916821275452
 30
0.0
 10
17.36387358328661
 20
0.0254034506548353
 30
0.0
 10
17.06459497418345
 20
0.1510701551055697
 30
0.0
 10
16.80075990479013
 20
0.2375133971167724
 30
0.0
 10
16.66874999998566
 20
0.280765282376489
 30
0.0
  0
SPLINE
  5
BB
330
1F
100
AcDbEntity
  8
외형선
  6
Continuous
370
    15
100
AcDbSpline
210
0.0
220
0.0
230
1.0
 70
    24
 71
     3
 72
     8
 73
     4
 74
     0
 42
0.000000001
 43
0.00000001
 40
0.0
 40
0.0
 40
0.0
 40
0.0
 40
1.0
 40
1.0
 40
1.0
 40
1.0
 10
16.66874999999938
 20
0.418836962918185
 30
0.0
 10
16.66874999999938
 20
0.3899368001231057
 30
0.0
 10
16.66874999999938
 20
0.3363579591542241
 30
0.0
 10
16.66874999999938
 20
0.2807652823723722
 30
0.0
  0
SPLINE
  5
BC
330
1F
100
AcDbEntity
  8
0
  6
Continuous
 62
     1
370
    25
100
AcDbSpline
210
0.0
220
0.0
230
1.0
 70
     8
 71
     3
 72
    22
 73
    18
 74
     0
 42
0.000000001
 43
0.00000001
 40
0.0
 40
0.0
 40
0.0
 40
0.0
 40
0.125
 40
0.125
 40
0.25
 40
0.25
 40
0.375
 40
0.375
 40
0.5
 40
0.5
 40
0.625
 40
0.625
 40
0.75
 40
0.75
 40
0.875
 40
0.875
 40
1.0
 40
1.0
 40
1.0
 40
1.0
 10
19.05000000000001
 20
-0.564916361214614
 30
0.0
 10
18.95322676859908
 20
-0.5469893789728247
 30
0.0
 10
18.8516487164323
 20
-0.5208855765676309
 30
0.0
 10
18.65123411315778
 20
-0.4550181358901282
 30
0.0
 10
18.5552802383693
 20
-0.4158009271369363
 30
0.0
 10
18.35562036865471
 20
-0.3259744384672565
 30
0.0
 10
18.25372241891858
 20
-0.2754867337082691
 30
0.0
 10
18.05826635380138
 20
-0.1697308475271621
 30
0.0
 10
17.95887003560867
 20
-0.1134636893443254
 30
0.0
 10
17.75799345080565
 20
0.0010918873489122
 30
0.0
 10
17.66150428805663
 20
0.0583932467138624
 30
0.0
 10
17.4628882263032
 20
0.1708842262370501
 30
0.0
 10
17.36082489110422
 20
0.2260027853883568
 30
0.0
 10
17.16372812435818
 20
0.3272526799271558
 30
0.0
 10
17.0659948231998
 20
0.3739205581586467
 30
0.0
 10
16.86495126838943
 20
0.4564123003105368
 30
0.0
 10
16.76739411882784
 20
0.4914368295154076
 30
0.0
 10
16.66874999999826
 20
0.5193852862434867
 30
0.0
  0
SPLINE
  5
BD
330
1F
100
AcDbEntity
  8
0
  6
Continuous
 62
     1
370
    25
100
AcDbSpline
210
0.0
220
0.0
230
1.0
 70
     8
 71
     3
 72
    11
 73
     7
 74
     0
 42
0.000000001
 43
0.00000001
 40
0.0
 40
0.0
 40
0.0
 40
0.0
 40
0.2560838004092653
 40
0.5116107784190661
 40
0.7667949409637573
 40
1.0
 40
1.0
 40
1.0
 40
1.0
 10
19.05000000000001
 20
-0.4696850511317019
 30
0.0
 10
18.91713241569257
 20
-0.4386464974329973
 30
0.0
 10
18.6516861511278
 20
-0.3766368795133247
 30
0.0
 10
18.25401355168692
 20
-0.2101922905097878
 30
0.0
 10
17.86827291645922
 20
-0.0215608106830373
 30
0.0
 10
17.6150461103152
 20
0.1002037487884576
 30
0.0
 10
17.49413072220483
 20
0.1583461279100785
 30
0.0
  0
LINE
  5
BE
330
1F
100
AcDbEntity
  8
0
  6
Continuous
 62
     1
370
    25
100
AcDbLine
 10
19.04999999999999
 20
-0.5649163612146141
 30
0.0
 11
19.05000000000001
 21
-0.4696850511317019
 31
0.0
  0
LINE
  5
BF
330
1F
100
AcDbEntity
  8
0
  6
Continuous
 62
     1
370
    25
100
AcDbLine
 10
19.05000000000001
 20
-0.5948093509413959
 30
0.0
 11
19.05000000000001
 21
-0.5649163612146129
 31
0.0
  0
SPLINE
  5
C0
330
1F
100
AcDbEntity
  8
0
  6
Continuous
 62
     1
370
    25
100
AcDbSpline
210
0.0
220
0.0
230
1.0
 70
     8
 71
     3
 72
     8
 73
     4
 74
     0
 42
0.000000001
 43
0.00000001
 40
0.0
 40
0.0
 40
0.0
 40
0.0
 40
1.0
 40
1.0
 40
1.0
 40
1.0
 10
18.6821593793236
 20
0.1659924545281309
 30
0.0
 10
18.66083471749007
 20
0.1912257280778822
 30
0.0
 10
18.64178206378127
 20
0.2155299483163713
 30
0.0
 10
18.62557185925066
 20
0.2386718545682502
 30
0.0
  0
LINE
  5
C1
330
1F
100
AcDbEntity
  8
0
  6
Continuous
 62
     1
370
    25
100
AcDbLine
 10
18.63307079285189
 20
0.2449642069963709
 30
0.0
 11
19.05000000000001
 21
0.000000000000002
 31
0.0
  0
LINE
  5
C2
330
1F
100
AcDbEntity
  8
0
  6
Continuous
 62
     1
370
    25
100
AcDbLine
 10
19.05000000000001
 20
0.000000000000002
 30
0.0
 11
19.05000000000001
 21
-0.159093066308271
 31
0.0
  0
SPLINE
  5
C3
330
1F
100
AcDbEntity
  8
0
  6
Continuous
 62
     1
370
    25
100
AcDbSpline
210
0.0
220
0.0
230
1.0
 70
     8
 71
     3
 72
    10
 73
     6
 74
     0
 42
0.000000001
 43
0.00000001
 40
0.0
 40
0.0
 40
0.0
 40
0.0
 40
0.5
 40
0.5
 40
1.0
 40
1.0
 40
1.0
 40
1.0
 10
19.05000000000001
 20
-0.1590930663082709
 30
0.0
 10
18.9863340613291
 20
-0.109038659451843
 30
0.0
 10
18.92373104768478
 20
-0.0569321280128972
 30
0.0
 10
18.80069539714855
 20
0.0514711490151293
 30
0.0
 10
18.7396853648929
 20
0.1083339026209395
 30
0.0
 10
18.68215937932312
 20
0.1659924545269214
 30
0.0
  0
SPLINE
  5
C4
330
1F
100
AcDbEntity
  8
0
  6
Continuous
 62
     1
370
    25
100
AcDbSpline
210
0.0
220
0.0
230
1.0
 70
     8
 71
     3
 72
    11
 73
     7
 74
     0
 42
0.000000001
 43
0.00000001
 40
0.0
 40
0.0
 40
0.0
 40
0.0
 40
0.3120992760247076
 40
0.6014562942569361
 40
0.890672776824323
 40
1.0
 40
1.0
 40
1.0
 40
1.0
 10
18.68215937786692
 20
0.1659924551589313
 30
0.0
 10
18.53938176960293
 20
0.2252653606612596
 30
0.0
 10
18.26423056687305
 20
0.3394920341330997
 30
0.0
 10
17.85696766593014
 20
0.4438442272400573
 30
0.0
 10
17.5424239352071
 20
0.4871621478804619
 30
0.0
 10
17.36017764182825
 20
0.4696548425801708
 30
0.0
 10
17.31018442677541
 20
0.464852295089925
 30
0.0
  0
SPLINE
  5
C5
330
1F
100
AcDbEntity
  8
0
  6
Continuous
 62
     1
370
    25
100
AcDbSpline
210
0.0
220
0.0
230
1.0
 70
    24
 71
     3
 72
     8
 73
     4
 74
     0
 42
0.000000001
 43
0.00000001
 40
0.0
 40
0.0
 40
0.0
 40
0.0
 40
1.0
 40
1.0
 40
1.0
 40
1.0
 10
19.05000000000001
 20
-0.4696850511317018
 30
0.0
 10
19.05000000000001
 20
-0.39767500890095
 30
0.0
 10
19.05000000000001
 20
-0.2853761080746718
 30
0.0
 10
19.05000000000001
 20
-0.15909306630829
 30
0.0
  0
SPLINE
  5
C6
330
1F
100
AcDbEntity
  8
0
  6
Continuous
 62
     1
370
    25
100
AcDbSpline
210
0.0
220
0.0
230
1.0
 70
    24
 71
     3
 72
     8
 73
     4
 74
     0
 42
0.000000001
 43
0.00000001
 40
0.0
 40
0.0
 40
0.0
 40
0.0
 40
1.0
 40
1.0
 40
1.0
 40
1.0
 10
18.68744708401944
 20
0.2905913328598071
 30
0.0
 10
18.66785925907036
 20
0.2741551961694635
 30
0.0
 10
18.64716616974035
 20
0.256791632544783
 30
0.0
 10
18.6255718592466
 20
0.238671854573952
 30
0.0
  0
LINE
  5
C7
330
1F
100
AcDbEntity
  8
0
  6
Continuous
 62
     1
370
    25
100
AcDbLine
 10
19.05000000000001
 20
0.4167187500000016
 30
0.0
 11
18.79705785028702
 21
0.3972718841718562
 31
0.0
  0
SPLINE
  5
C8
330
1F
100
AcDbEntity
  8
0
  6
Continuous
 62
     1
370
    25
100
AcDbSpline
210
0.0
220
0.0
230
1.0
 70
     8
 71
     3
 72
    17
 73
    13
 74
     0
 42
0.000000001
 43
0.00000001
 40
0.0
 40
0.0
 40
0.0
 40
0.0
 40
0.0001547648555721
 40
0.0001547648555721
 40
0.0001547648555721
 40
0.0003095377979183
 40
0.0003095377979183
 40
0.0003095377979183
 40
0.000439036581487
 40
0.000439036581487
 40
0.000439036581487
 40
0.0004900559441444
 40
0.0004900559441444
 40
0.0004900559441444
 40
0.0004900559441444
 10
19.05000000000001
 20
0.416718750000002
 30
0.0
 10
19.01131435534208
 20
0.4061807998569265
 30
0.0
 10
18.97274679709733
 20
0.3948683141057176
 30
0.0
 10
18.93434081178392
 20
0.3827115257493524
 30
0.0
 10
18.89593366231927
 20
0.3705543688998987
 30
0.0
 10
18.85767634182512
 20
0.3575503538393365
 30
0.0
 10
18.8196299859331
 20
0.3435932080808194
 30
0.0
 10
18.78779568472971
 20
0.3319149284769285
 30
0.0
 10
18.75609986166323
 20
0.3195659977641711
 30
0.0
 10
18.72459481164572
 20
0.3064541627297074
 30
0.0
 10
18.71218213282567
 20
0.301288229111643
 30
0.0
 10
18.69979815485505
 20
0.296003051965244
 30
0.0
 10
18.68744708402812
 20
0.290591332863644
 30
0.0
  0
SPLINE
  5
C9
330
1F
100
AcDbEntity
  8
0
  6
Continuous
 62
     1
370
    25
100
AcDbSpline
210
0.0
220
0.0
230
1.0
 70
     8
 71
     3
 72
    10
 73
     6
 74
     0
 42
0.000000001
 43
0.00000001
 40
0.0
 40
0.0
 40
0.0
 40
0.0
 40
0.2941482893384494
 40
0.6468334512238285
 40
1.0
 40
1.0
 40
1.0
 40
1.0
 10
17.78992377348882
 20
-0.4427776507079504
 30
0.0
 10
17.68000348768388
 20
-0.4574790074387716
 30
0.0
 10
17.43828826987106
 20
-0.4898073590102071
 30
0.0
 10
17.06460038402246
 20
-0.4588404461300603
 30
0.0
 10
16.80076010717308
 20
-0.387581900122785
 30
0.0
 10
16.66874999995707
 20
-0.3519283281556494
 30
0.0
  0
SPLINE
  5
CA
330
1F
100
AcDbEntity
  8
외형선
  6
Continuous
370
    15
100
AcDbSpline
210
0.0
220
0.0
230
1.0
 70
    24
 71
     3
 72
    10
 73
     6
 74
     0
 42
0.000000001
 43
0.00000001
 40
0.0
 40
0.0
 40
0.0
 40
0.0
 40
0.5
 40
0.5
 40
1.0
 40
1.0
 40
1.0
 40
1.0
 10
16.66875000000001
 20
0.2807652823721846
 30
0.0
 10
16.66875000000001
 20
0.1894848735041685
 30
0.0
 10
16.66875000000001
 20
0.0785328911037572
 30
0.0
 10
16.66875000000001
 20
-0.1463629006008764
 30
0.0
 10
16.66875000000001
 20
-0.2585641979130964
 30
0.0
 10
16.66875000000001
 20
-0.3519283281690688
 30
0.0
  0
LINE
  5
CB
330
1F
100
AcDbEntity
  8
0
  6
Continuous
 62
     1
370
    25
100
AcDbLine
 10
19.05000000000001
 20
0.000000000000002
 30
0.0
 11
19.05000000000001
 21
0.416718750000002
 31
0.0
  0
SPLINE
  5
CC
330
1F
100
AcDbEntity
  8
외형선
  6
Continuous
370
    15
100
AcDbSpline
210
0.0
220
0.0
230
1.0
 70
    24
 71
     3
 72
    12
 73
     8
 74
     0
 42
0.000000001
 43
0.00000001
 40
0.0
 40
0.0
 40
0.0
 40
0.0
 40
0.1849109894191817
 40
0.372333504764913
 40
0.6389677697849006
 40
0.9133344465537404
 40
0.9999999999999999
 40
0.9999999999999999
 40
0.9999999999999999
 40
0.9999999999999999
 10
16.66875000000001
 20
-0.3519283281690692
 30
0.0
 10
16.66875000000001
 20
-0.3659237068206631
 30
0.0
 10
16.66875000000001
 20
-0.394104554266388
 30
0.0
 10
16.66875000000001
 20
-0.4316656575007994
 30
0.0
 10
16.66875000000001
 20
-0.4612120192362891
 30
0.0
 10
16.66875000000001
 20
-0.4756747959314586
 30
0.0
 10
16.66875000000001
 20
-0.4738912793933059
 30
0.0
 10
16.66875000000001
 20
-0.473463147401413
 30
0.0
  0
SPLINE
  5
CD
330
1F
100
AcDbEntity
  8
0
  6
Continuous
 62
     1
370
    25
100
AcDbSpline
210
0.0
220
0.0
230
1.0
 70
    24
 71
     3
 72
     8
 73
     4
 74
     0
 42
0.000000001
 43
0.00000001
 40
0.0
 40
0.0
 40
0.0
 40
0.0
 40
1.0
 40
1.0
 40
1.0
 40
1.0
 10
19.05000000000001
 20
0.4167187500000016
 30
0.0
 10
19.05000000000001
 20
0.4672396557612096
 30
0.0
 10
19.05000000000001
 20
0.5351812085597324
 30
0.0
 10
19.05000000000001
 20
0.5948093509413992
 30
0.0
  0
SPLINE
  5
CE
330
1F
100
AcDbEntity
  8
0
  6
Continuous
 62
     1
370
    25
100
AcDbSpline
210
0.0
220
0.0
230
1.0
 70
     8
 71
     3
 72
    16
 73
    12
 74
     0
 42
0.000000001
 43
0.00000001
 40
0.0
 40
0.0
 40
0.0
 40
0.0
 40
0.0179739045325476
 40
0.1229857044302646
 40
0.2283584294754683
 40
0.3234872015934685
 40
0.5141579481291118
 40
0.6097391774745461
 40
0.7070790030381743
 40
0.9021877516802049
 40
1.0
 40
1.0
 40
1.0
 40
1.0
 10
18.23176431379957
 20
0.3998040334437037
 30
0.0
 10
18.23666114171841
 20
0.4019659949786694
 30
0.0
 10
18.27016748587314
 20
0.4167591280927021
 30
0.0
 10
18.33259646951203
 20
0.4412799616074061
 30
0.0
 10
18.41606593330606
 20
0.4721283997560933
 30
0.0
 10
18.52287615885022
 20
0.5075466674860846
 30
0.0
 10
18.62639277361275
 20
0.536995771372983
 30
0.0
 10
18.73103804147945
 20
0.5598159201340999
 30
0.0
 10
18.83703974543783
 20
0.5783921652035628
 30
0.0
 10
18.94377352062551
 20
0.5907826561542356
 30
0.0
 10
19.02340832676978
 20
0.5938013484865629
 30
0.0
 10
19.05000000000001
 20
0.5948093509413992
 30
0.0
  0
LINE
  5
CF
330
1F
100
AcDbEntity
  8
0
  6
Continuous
 62
     1
370
    25
100
AcDbLine
 10
16.80996479843568
 20
-0.4683252060783225
 30
0.0
 11
16.66874999999826
 21
-0.5193852862434832
 31
0.0
  0
SPLINE
  5
D0
330
1F
100
AcDbEntity
  8
외형선
  6
Continuous
370
    15
100
AcDbSpline
210
0.0
220
0.0
230
1.0
 70
    24
 71
     3
 72
    10
 73
     6
 74
     0
 42
0.000000001
 43
0.00000001
 40
0.0
 40
0.0
 40
0.0
 40
0.0
 40
0.2364810639464683
 40
0.7146358188189273
 40
1.0
 40
1.0
 40
1.0
 40
1.0
 10
16.66875000000001
 20
-0.4916809462091901
 30
0.0
 10
16.66875000000001
 20
-0.493967364019849
 30
0.0
 10
16.66875000000001
 20
-0.5008768223799158
 30
0.0
 10
16.66875000000001
 20
-0.5100694001113548
 30
0.0
 10
16.66875000000001
 20
-0.5168507614961807
 30
0.0
 10
16.66875000000001
 20
-0.5193852862440228
 30
0.0
  0
LINE
  5
D1
330
1F
100
AcDbEntity
  8
중심선
 62
     1
100
AcDbLine
 10
-22.04999999999999
 20
-0.0000000000000027
 30
0.0
 11
22.04999999999999
 21
0.0000000000000027
 31
0.0
  0
LINE
  5
D2
330
1F
100
AcDbEntity
  8
참조1
100
AcDbLine
 10
-6.462961678730516
 20
0.0010749287238892
 30
0.0
 11
-6.462961678730511
 21
-39.99892507127611
 31
0.0
  0
LINE
  5
D3
330
1F
100
AcDbEntity
  8
참조1
100
AcDbLine
 10
-6.462961678730511
 20
-39.99892507127611
 30
0.0
 11
-29.45992727542973
 21
-39.9989250712761
 31
0.0
  0
CIRCLE
  5
D4
330
1F
100
AcDbEntity
  8
해칭선
100
AcDbCircle
 10
0.0
 20
0.0
 30
0.0
 40
3.000000000000001
  0
INSERT
  5
D5
330
1F
100
AcDbEntity
  8
0
  6
Continuous
 62
     7
100
AcDbBlockReference
 66
     1
  2
블럭10
 10
-12.91715514102083
 20
-24.28522133894899
 30
0.0
  0
ATTRIB
  5
D6
330
D5
100
AcDbEntity
  8
FORMAT
 62
     2
100
AcDbText
 10
-22.09845042976211
 20
-22.2098544261168
 30
0.0
 40
4.233333333333333
  1
E5022003 [ 2 FLUTE ]
 41
0.75
  7
SLDTEXTSTYLE0
 11
-22.09845042976211
 21
-24.32652109278347
 31
0.0
100
AcDbAttribute
  2
AUTOATTR0
 70
     0
 74
     1
  0
SEQEND
  5
D7
330
D5
100
AcDbEntity
  8
0
  6
Continuous
 62
     7
  0
HATCH
  5
D8
330
1F
100
AcDbEntity
  8
중심선
100
AcDbHatch
 10
0.0
 20
0.0
 30
0.0
210
0.0
220
0.0
230
1.0
  2
SOLID
 70
     1
 71
     0
 91
        1
 92
        0
 93
        4
 72
     1
 10
-7.202245836639984
 20
-8.038047037305056
 11
-10.64852108047727
 21
-8.038047037305056
 72
     1
 10
-10.64852108047727
 20
-8.038047037305056
 11
-12.77675093968129
 21
-10.57437261787766
 72
     1
 10
-12.77675093968129
 20
-10.57437261787766
 11
-9.33044261073086
 21
-10.57433318857517
 72
     1
 10
-9.33044261073086
 20
-10.57433318857517
 11
-7.202245836639984
 21
-8.038047037305056
 97
        0
 75
     0
 76
     1
 98
        1
 10
7.486079469834891
 20
27.76087803397105
  0
HATCH
  5
D9
330
1F
100
AcDbEntity
  8
중심선
100
AcDbHatch
 10
0.0
 20
0.0
 30
0.0
210
0.0
220
0.0
230
1.0
  2
SOLID
 70
     1
 71
     0
 91
        1
 92
        0
 93
        4
 72
     1
 10
-2.189481845604005
 20
-8.038047037305056
 11
-5.635757089441288
 21
-8.038047037305056
 72
     1
 10
-5.635757089441288
 20
-8.038047037305056
 11
-10.1668950977987
 21
-13.43804703730508
 72
     1
 10
-10.1668950977987
 20
-13.43804703730508
 11
-6.720619853961422
 21
-13.43804703730508
 72
     1
 10
-6.720619853961422
 20
-13.43804703730508
 11
-2.189481845604005
 21
-8.038047037305056
 97
        0
 75
     0
 76
     1
 98
        1
 10
7.486079469834891
 20
27.76087803397105
  0
HATCH
  5
DA
330
1F
100
AcDbEntity
  8
중심선
100
AcDbHatch
 10
0.0
 20
0.0
 30
0.0
210
0.0
220
0.0
230
1.0
  2
SOLID
 70
     1
 71
     0
 91
        1
 92
        0
 93
        4
 72
     1
 10
2.823282145431834
 20
-8.038047037305084
 11
-0.6229930984052245
 21
-8.038047037305084
 72
     1
 10
-0.6229930984052245
 20
-8.038047037305084
 11
-7.671430000294503
 21
-16.43804703730508
 72
     1
 10
-7.671430000294503
 20
-16.43804703730508
 11
-4.22515475645722
 21
-16.43804703730508
 72
     1
 10
-4.22515475645722
 20
-16.43804703730508
 11
2.823282145431834
 21
-8.038047037305084
 97
        0
 75
     0
 76
     1
 98
        1
 10
7.486079469834891
 20
27.76087803397105
  0
HATCH
  5
DB
330
1F
100
AcDbEntity
  8
중심선
100
AcDbHatch
 10
0.0
 20
0.0
 30
0.0
210
0.0
220
0.0
230
1.0
  2
SOLID
 70
     1
 71
     0
 91
        1
 92
        0
 93
        6
 72
     3
 10
7.623172576444062
 20
-12.23804703735633
 11
3.960054785062284
 21
1.540882976769353E-10
 40
0.3939339440162627
 50
17.09539180608436
 51
320.0019657685081
 73
     0
 72
     1
 10
9.306172232144657
 20
-10.82594104194336
 11
11.61147410584572
 21
-8.89161433189544
 72
     3
 10
7.623172576391215
 20
-12.23804703730521
 11
6.60005478528683
 21
-1.278976924368180E-13
 40
0.636358354079598
 50
39.99873849337385
 51
368.4976242363724
 73
     1
 72
     1
 10
14.04850506829182
 20
-11.27804703723508
 11
6.303239883227137
 21
-11.27804703723508
 72
     1
 10
6.303239883227137
 20
-11.27804703723508
 11
6.303214838781203
 21
-13.19804703723497
 72
     1
 10
6.303214838781204
 20
-13.19804703723497
 11
10.74459460825324
 21
-13.19804703723494
 97
        0
 75
     0
 76
     1
 98
        1
 10
7.486079469834891
 20
27.76087803397105
  0
DIMENSION
  5
DC
330
1F
100
AcDbEntity
  8
치수문자_일반주서
100
AcDbDimension
  2
_D
 10
-24.96096748470042
 20
-1.587500000000048
 30
0.0
 11
-24.96096748470048
 21
15.74374999999996
 31
0.0
 70
   160
  1
%%c<>
 71
     2
 42
3.174999999999997
 52
-270.0
  3
SLDDIMSTYLE0
100
AcDbAlignedDimension
 13
-12.16585583936524
 23
1.587499999999998
 33
0.0
 14
-12.16585583936524
 24
-1.587499999999999
 34
0.0
 50
90.0000000000002
100
AcDbRotatedDimension
1001
ACAD
1000
DSTYLE
1002
{
1070
   171
1070
     6
1070
   273
1070
     5
1070
    41
1040
2.5
1070
   140
1040
2.5
1002
}
  0
DIMENSION
  5
F1
330
1F
100
AcDbEntity
  8
치수문자_일반주서
100
AcDbDimension
  2
_D_1
 10
28.84304588330941
 20
0.5948093509414374
 30
0.0
 11
28.84304588330937
 21
15.53230935094144
 31
0.0
 70
   160
  1
%%c<>
 71
     2
 42
1.189618701882795
 52
-270.0
  3
SLDDIMSTYLE0
100
AcDbAlignedDimension
 13
19.05000000000001
 23
-0.5948093509413959
 33
0.0
 14
19.05000000000001
 24
0.5948093509413992
 34
0.0
 50
90.0000000000002
100
AcDbRotatedDimension
1001
ACAD
1000
DSTYLE
1002
{
1070
   171
1070
     6
1070
   273
1070
     5
1070
    41
1040
2.5
1070
   140
1040
2.5
1002
}
  0
DIMENSION
  5
105
330
1F
100
AcDbEntity
  8
치수문자_일반주서
100
AcDbDimension
  2
_D_2
 10
16.66875000000001
 20
11.87314641530052
 30
0.0
 11
2.04375000000001
 21
11.87314641530052
 31
0.0
 70
   160
  1
<>
 71
     2
 42
2.381250000000001
  3
SLDDIMSTYLE0
100
AcDbAlignedDimension
 13
19.05000000000001
 23
0.5948093509413992
 33
0.0
 14
16.66875000000001
 24
0.5193852862429921
 34
0.0
100
AcDbRotatedDimension
1001
ACAD
1000
DSTYLE
1002
{
1070
   171
1070
     6
1070
   273
1070
     5
1070
    41
1040
2.5
1070
   140
1040
2.5
1002
}
  0
DIMENSION
  5
11A
330
1F
100
AcDbEntity
  8
치수문자_일반주서
100
AcDbDimension
  2
_D_3
 10
19.05000000000001
 20
22.34966509735214
 30
0.0
 11
1.552369602915135
 21
22.34966509735214
 31
0.0
 70
   160
  1
<>
 71
     2
 42
38.09999999999999
  3
SLDDIMSTYLE0
100
AcDbAlignedDimension
 13
-19.04999999999998
 23
0.5948093509413998
 33
0.0
 14
19.05000000000001
 24
0.5948093509413992
 34
0.0
100
AcDbRotatedDimension
1001
ACAD
1000
DSTYLE
1002
{
1070
   171
1070
     6
1070
   273
1070
     5
1070
    41
1040
2.5
1070
   140
1040
2.5
1002
}
  0
LINE
  5
12E
330
1F
100
AcDbEntity
  8
참조1
100
AcDbLine
 10
68.51241335422453
 20
7.441074928723896
 30
0.0
 11
68.51241335422453
 21
-7.438925071276109
 31
0.0
  0
LINE
  5
12F
330
1F
100
AcDbEntity
  8
참조1
100
AcDbLine
 10
81.21241335422454
 20
5.441074928723896
 30
0.0
 11
68.51241335422453
 21
5.441074928723896
 31
0.0
  0
SOLID
  5
130
330
1F
100
AcDbEntity
  8
참조1
100
AcDbTrace
 10
68.51241335422453
 20
5.441074928723896
 30
0.0
 11
74.86241335422453
 21
4.425074928723896
 31
0.0
 12
74.86241335422453
 22
6.457074928723896
 32
0.0
 13
74.86241335422453
 23
6.457074928723896
 33
0.0
  0
LINE
  5
131
330
1F
100
AcDbEntity
  8
참조1
100
AcDbLine
 10
81.21241335422454
 20
-5.438925071276109
 30
0.0
 11
68.51241335422453
 21
-5.438925071276109
 31
0.0
  0
SOLID
  5
132
330
1F
100
AcDbEntity
  8
참조1
100
AcDbTrace
 10
68.51241335422453
 20
-5.438925071276109
 30
0.0
 11
74.86241335422453
 21
-6.454925071276109
 31
0.0
 12
74.86241335422453
 22
-4.422925071276109
 32
0.0
 13
74.86241335422453
 23
-4.422925071276109
 33
0.0
  0
MTEXT
  5
133
330
1F
100
AcDbEntity
  8
참조1
100
AcDbMText
 10
77.89676348685053
 20
11.01136670591222
 30
0.0
 40
3.5
 41
0.0
 71
     1
 72
     1
  1
A
  7
SLDTEXTSTYLE0
 73
     1
 44
1.0
  0
MTEXT
  5
134
330
1F
100
AcDbEntity
  8
참조1
100
AcDbMText
 10
77.89676348685053
 20
0.1313667059122192
 30
0.0
 40
3.5
 41
0.0
 71
     1
 72
     1
  1
A
  7
SLDTEXTSTYLE0
 73
     1
 44
1.0
  0
INSERT
  5
13B
330
1F
100
AcDbEntity
  8
해칭선
100
AcDbBlockReference
  2
SW_DOWELSYMBOL_0
 10
0.0
 20
0.0
 30
0.0
  0
LINE
  5
2E0
330
1F
100
AcDbEntity
  8
외형선
  6
Continuous
370
    15
100
AcDbLine
 10
-12.16585583936524
 20
1.587500000000002
 30
0.0
 11
-15.86874999999998
 21
0.5953125000000018
 31
0.0
  0
LINE
  5
2E1
330
1F
100
AcDbEntity
  8
외형선
  6
Continuous
370
    15
100
AcDbLine
 10
-15.86874999999998
 20
-0.5953124999999989
 30
0.0
 11
-12.16585583936524
 21
-1.587499999999999
 31
0.0
  0
LINE
  5
2E2
330
1F
100
AcDbEntity
  8
외형선
  6
Continuous
370
    15
100
AcDbLine
 10
-16.42652769960308
 20
0.4941921173773484
 30
0.0
 11
-16.66874999999997
 21
0.4751209415281142
 31
0.0
  0
LINE
  5
2E3
330
1F
100
AcDbEntity
  8
외형선
  6
Continuous
370
    15
100
AcDbLine
 10
-16.14223905193602
 20
-0.5953124999999989
 30
0.0
 11
-15.86874999999998
 21
-0.5953124999999989
 31
0.0
  0
LINE
  5
2E4
330
1F
100
AcDbEntity
  8
외형선
  6
Continuous
370
    15
100
AcDbLine
 10
-15.86874999999998
 20
0.5953125000000018
 30
0.0
 11
-16.14223905193602
 21
0.5953125000000018
 31
0.0
  0
LINE
  5
2E5
330
1F
100
AcDbEntity
  8
0
  6
Continuous
 62
     1
370
    25
100
AcDbLine
 10
-17.2125961130396
 20
-0.1497012328349324
 30
0.0
 11
-17.17249774027614
 21
-0.1711084617466629
 31
0.0
  0
LINE
  5
2E6
330
1F
100
AcDbEntity
  8
0
  6
Continuous
 62
     1
370
    25
100
AcDbLine
 10
-17.50830733400592
 20
-0.1525250431295792
 30
0.0
 11
-17.3416795440206
 21
-0.2352744472548668
 31
0.0
  0
SPLINE
  5
2E7
330
1F
100
AcDbEntity
  8
0
  6
Continuous
 62
     1
370
    25
100
AcDbSpline
210
0.0
220
0.0
230
1.0
 70
     8
 71
     3
 72
     9
 73
     5
 74
     0
 42
0.000000001
 43
0.00000001
 40
0.0
 40
0.0
 40
0.0
 40
0.0
 40
0.5986475856214266
 40
1.0
 40
1.0
 40
1.0
 40
1.0
 10
-17.31021522138126
 20
-0.4730616299933675
 30
0.0
 10
-17.20933023784495
 20
-0.4685974179492337
 30
0.0
 10
-17.04080874713923
 20
-0.4611402559204233
 30
0.0
 10
-16.87064935516769
 20
-0.468230771066683
 30
0.0
 10
-16.80235547237073
 20
-0.4710765664398234
 30
0.0
  0
SPLINE
  5
2E8
330
1F
100
AcDbEntity
  8
0
  6
Continuous
 62
     1
370
    25
100
AcDbSpline
210
0.0
220
0.0
230
1.0
 70
     8
 71
     3
 72
    11
 73
     7
 74
     0
 42
0.000000001
 43
0.00000001
 40
0.0
 40
0.0
 40
0.0
 40
0.0
 40
0.3239436611443014
 40
0.4875003953077143
 40
0.6521055793273666
 40
1.0
 40
1.0
 40
1.0
 40
1.0
 10
-18.79862318508855
 20
-0.4044124179739267
 30
0.0
 10
-18.69115134600813
 20
-0.3982601680603221
 30
0.0
 10
-18.52941777835294
 20
-0.3890016931319383
 30
0.0
 10
-18.30776055377055
 20
-0.3941875127697617
 30
0.0
 10
-18.0794424887121
 20
-0.4074940411848441
 30
0.0
 10
-17.90560340402821
 20
-0.4315247311870397
 30
0.0
 10
-17.7875981468482
 20
-0.4478372178702233
 30
0.0
  0
SPLINE
  5
2E9
330
1F
100
AcDbEntity
  8
0
  6
Continuous
 62
     1
370
    25
100
AcDbSpline
210
0.0
220
0.0
230
1.0
 70
     8
 71
     3
 72
     9
 73
     5
 74
     0
 42
0.000000001
 43
0.00000001
 40
0.0
 40
0.0
 40
0.0
 40
0.0
 40
0.7746622094612644
 40
0.9999999999999999
 40
0.9999999999999999
 40
0.9999999999999999
 40
0.9999999999999999
 10
-17.7875981468482
 20
0.4478372178702227
 30
0.0
 10
-17.90557050024684
 20
0.4309580626959498
 30
0.0
 10
-18.05785926812244
 20
0.4091690106831859
 30
0.0
 10
-18.20973088942357
 20
0.4009194111664766
 30
0.0
 10
-18.24395330501311
 20
0.3990604646385517
 30
0.0
  0
SPLINE
  5
2EA
330
1F
100
AcDbEntity
  8
0
  6
Continuous
 62
     1
370
    25
100
AcDbSpline
210
0.0
220
0.0
230
1.0
 70
     8
 71
     3
 72
    11
 73
     7
 74
     0
 42
0.000000001
 43
0.00000001
 40
0.0
 40
0.0
 40
0.0
 40
0.0
 40
0.2631704471566699
 40
0.4302278239968788
 40
0.6349804847400414
 40
1.0
 40
1.0
 40
1.0
 40
1.0
 10
-16.66874999995703
 20
0.4751209415306828
 30
0.0
 10
-16.72673232426138
 20
0.4718319016246962
 30
0.0
 10
-16.82152111793202
 20
0.4664550194668383
 30
0.0
 10
-16.95518290593996
 20
0.4647210756238881
 30
0.0
 10
-17.10654283069271
 20
0.46458708573164
 30
0.0
 10
-17.23068477837901
 20
0.469752471314084
 30
0.0
 10
-17.31021522138126
 20
0.4730616299933704
 30
0.0
  0
SPLINE
  5
2EB
330
1F
100
AcDbEntity
  8
외형선
  6
Continuous
370
    15
100
AcDbSpline
210
0.0
220
0.0
230
1.0
 70
     8
 71
     3
 72
    20
 73
    16
 74
     0
 42
0.000000001
 43
0.00000001
 40
0.0
 40
0.0
 40
0.0
 40
0.0
 40
0.0418046270787091
 40
0.0833826479471545
 40
0.1253328453272595
 40
0.1877903426012149
 40
0.2505755795759688
 40
0.3753096418780844
 40
0.5000437042954611
 40
0.6247777669617249
 40
0.7495118298884264
 40
0.8119693274763894
 40
0.8747545648226058
 40
0.9372955511623049
 40
0.9999999999999999
 40
0.9999999999999999
 40
0.9999999999999999
 40
0.9999999999999999
 10
-15.86858972177482
 20
0.5747018777174301
 30
0.0
 10
-15.86858785083962
 20
0.5677495983710475
 30
0.0
 10
-15.86858411911079
 20
0.5538827252118136
 30
0.0
 10
-15.86857935308663
 20
0.5229216026541078
 30
0.0
 10
-15.86857462679448
 20
0.4788679493826496
 30
0.0
 10
-15.86857054104419
 20
0.4167934525534559
 30
0.0
 10
-15.86856707469884
 20
0.3062578102692545
 30
0.0
 10
-15.86856782184068
 20
0.1406123803318234
 30
0.0
 10
-15.86857686671166
 20
-0.0754320214242913
 30
0.0
 10
-15.86859285330886
 20
-0.2819821384006861
 30
0.0
 10
-15.86861034593852
 20
-0.4244200742160199
 30
0.0
 10
-15.86862540665528
 20
-0.5097261703718597
 30
0.0
 10
-15.86863692496068
 20
-0.5569895600129161
 30
0.0
 10
-15.86864835970772
 20
-0.588271061448783
 30
0.0
 10
-15.86865546524193
 20
-0.5929323902997549
 30
0.0
 10
-15.86865902264588
 20
-0.5952660965624833
 30
0.0
  0
LINE
  5
2EC
330
1F
100
AcDbEntity
  8
외형선
  6
Continuous
370
    15
100
AcDbLine
 10
-15.86874999999998
 20
0.5746754259543675
 30
0.0
 11
-15.86874999999998
 21
0.5952389935668198
 31
0.0
  0
SPLINE
  5
2ED
330
1F
100
AcDbEntity
  8
외형선
  6
Continuous
370
    15
100
AcDbSpline
210
0.0
220
0.0
230
1.0
 70
    24
 71
     3
 72
     8
 73
     4
 74
     0
 42
0.000000001
 43
0.00000001
 40
0.0
 40
0.0
 40
0.0
 40
0.0
 40
1.0
 40
1.0
 40
1.0
 40
1.0
 10
-15.86865905783893
 20
-0.5952350958676543
 30
0.0
 10
-15.86865905783893
 20
-0.5365712836575159
 30
0.0
 10
-15.86865905783893
 20
-0.4681411262629002
 30
0.0
 10
-15.86865905783893
 20
-0.4160451340061581
 30
0.0
  0
SPLINE
  5
2EE
330
1F
100
AcDbEntity
  8
외형선
  6
Continuous
370
    15
100
AcDbSpline
210
0.0
220
0.0
230
1.0
 70
    24
 71
     3
 72
    10
 73
     6
 74
     0
 42
0.000000001
 43
0.00000001
 40
0.0
 40
0.0
 40
0.0
 40
0.0
 40
0.5
 40
0.5
 40
1.0
 40
1.0
 40
1.0
 40
1.0
 10
-15.86863615893082
 20
-0.4160456628949699
 30
0.0
 10
-15.86863615893082
 20
-0.3877728320452437
 30
0.0
 10
-15.86863615893082
 20
-0.3314454791784914
 30
0.0
 10
-15.86863615893082
 20
-0.1739410427599996
 30
0.0
 10
-15.86863615893082
 20
-0.0739843171668223
 30
0.0
 10
-15.86863615893082
 20
0.027057561929961
 30
0.0
  0
SPLINE
  5
2EF
330
1F
100
AcDbEntity
  8
외형선
  6
Continuous
370
    15
100
AcDbSpline
210
0.0
220
0.0
230
1.0
 70
    24
 71
     3
 72
    10
 73
     6
 74
     0
 42
0.000000001
 43
0.00000001
 40
0.0
 40
0.0
 40
0.0
 40
0.0
 40
0.5
 40
0.5
 40
1.0
 40
1.0
 40
1.0
 40
1.0
 10
-15.86862435840261
 20
0.0270520892071421
 30
0.0
 10
-15.86862435840261
 20
0.1175097503327255
 30
0.0
 10
-15.86862435840261
 20
0.2088883803301545
 30
0.0
 10
-15.86862435840261
 20
0.3670837153602197
 30
0.0
 10
-15.86862435840261
 20
0.4332194858279902
 30
0.0
 10
-15.86862435840261
 20
0.4796212139029269
 30
0.0
  0
SPLINE
  5
2F0
330
1F
100
AcDbEntity
  8
외형선
  6
Continuous
370
    15
100
AcDbSpline
210
0.0
220
0.0
230
1.0
 70
    24
 71
     3
 72
     8
 73
     4
 74
     0
 42
0.000000001
 43
0.00000001
 40
0.0
 40
0.0
 40
0.0
 40
0.0
 40
1.0
 40
1.0
 40
1.0
 40
1.0
 10
-15.86856414552612
 20
0.4796117403421679
 30
0.0
 10
-15.86856414552612
 20
0.5112875282570318
 30
0.0
 10
-15.86856414552612
 20
0.5431817697842259
 30
0.0
 10
-15.86856414552612
 20
0.5746833603637495
 30
0.0
  0
SPLINE
  5
2F1
330
1F
100
AcDbEntity
  8
외형선
  6
Continuous
370
    15
100
AcDbSpline
210
0.0
220
0.0
230
1.0
 70
    24
 71
     3
 72
    12
 73
     8
 74
     0
 42
0.000000001
 43
0.00000001
 40
0.0
 40
0.0
 40
0.0
 40
0.0
 40
0.1841851643695151
 40
0.3708719962551301
 40
0.6364596505287322
 40
0.909749364768638
 40
1.0
 40
1.0
 40
1.0
 40
1.0
 10
-16.66874999999997
 20
0.3519283281690729
 30
0.0
 10
-16.66874999999997
 20
0.365923934402225
 30
0.0
 10
-16.66874999999997
 20
0.3941052401021597
 30
0.0
 10
-16.66874999999997
 20
0.4316623792037074
 30
0.0
 10
-16.66874999999997
 20
0.4612304620371358
 30
0.0
 10
-16.66874999999997
 20
0.4757153419155348
 30
0.0
 10
-16.66874999999997
 20
0.4738854859792202
 30
0.0
 10
-16.66874999999997
 20
0.4734312154673678
 30
0.0
  0
SPLINE
  5
2F2
330
1F
100
AcDbEntity
  8
외형선
  6
Continuous
370
    15
100
AcDbSpline
210
0.0
220
0.0
230
1.0
 70
     8
 71
     3
 72
     9
 73
     5
 74
     0
 42
0.000000001
 43
0.00000001
 40
0.0
 40
0.0
 40
0.0
 40
0.0
 40
0.2890657448055033
 40
1.0
 40
1.0
 40
1.0
 40
1.0
 10
-16.42933205382278
 20
0.4851968568150401
 30
0.0
 10
-16.37530234147906
 20
0.493273520550758
 30
0.0
 10
-16.18839084015236
 20
0.5212140976715528
 30
0.0
 10
-16.00145981480453
 20
0.496898518505915
 30
0.0
 10
-15.86856414552612
 20
0.4796117403421679
 30
0.0
  0
SPLINE
  5
2F3
330
1F
100
AcDbEntity
  8
외형선
  6
Continuous
370
    15
100
AcDbSpline
210
0.0
220
0.0
230
1.0
 70
     8
 71
     3
 72
    10
 73
     6
 74
     0
 42
0.000000001
 43
0.00000001
 40
0.0
 40
0.0
 40
0.0
 40
0.0
 40
0.5
 40
0.5
 40
1.0
 40
1.0
 40
1.0
 40
1.0
 10
-16.66874999995703
 20
0.3519283281556508
 30
0.0
 10
-16.5365574495013
 20
0.3106186637702276
 30
0.0
 10
-16.39865483947445
 20
0.2597038481435124
 30
0.0
 10
-16.13888166842034
 20
0.1496222406520676
 30
0.0
 10
-16.00051657705834
 20
0.0882197319426258
 30
0.0
 10
-15.86862435840261
 20
0.0270520892071421
 30
0.0
  0
SPLINE
  5
2F4
330
1F
100
AcDbEntity
  8
외형선
  6
Continuous
370
    15
100
AcDbSpline
210
0.0
220
0.0
230
1.0
 70
    24
 71
     3
 72
    10
 73
     6
 74
     0
 42
0.000000001
 43
0.00000001
 40
0.0
 40
0.0
 40
0.0
 40
0.0
 40
0.5
 40
0.5
 40
1.0
 40
1.0
 40
1.0
 40
1.0
 10
-16.66874999999997
 20
-0.2807652823721835
 30
0.0
 10
-16.66874999999997
 20
-0.1894848735041673
 30
0.0
 10
-16.66874999999997
 20
-0.0785328911037556
 30
0.0
 10
-16.66874999999997
 20
0.1463629006008805
 30
0.0
 10
-16.66874999999997
 20
0.2585641979130987
 30
0.0
 10
-16.66874999999997
 20
0.3519283281690729
 30
0.0
  0
SPLINE
  5
2F5
330
1F
100
AcDbEntity
  8
외형선
  6
Continuous
370
    15
100
AcDbSpline
210
0.0
220
0.0
230
1.0
 70
     8
 71
     3
 72
    10
 73
     6
 74
     0
 42
0.000000001
 43
0.00000001
 40
0.0
 40
0.0
 40
0.0
 40
0.0
 40
0.4999999999999999
 40
0.4999999999999999
 40
1.0
 40
1.0
 40
1.0
 40
1.0
 10
-16.66874999998562
 20
-0.2807652823764858
 30
0.0
 10
-16.53655942075633
 20
-0.3204087940771853
 30
0.0
 10
-16.39865846495728
 20
-0.3533557115594842
 30
0.0
 10
-16.13888966401977
 20
-0.399197382540024
 30
0.0
 10
-16.00052679509199
 20
-0.413000018660782
 30
0.0
 10
-15.86863615893082
 20
-0.4160456628949699
 30
0.0
  0
SPLINE
  5
2F6
330
1F
100
AcDbEntity
  8
외형선
  6
Continuous
370
    15
100
AcDbSpline
210
0.0
220
0.0
230
1.0
 70
     8
 71
     3
 72
    10
 73
     6
 74
     0
 42
0.000000001
 43
0.00000001
 40
0.0
 40
0.0
 40
0.0
 40
0.0
 40
0.5
 40
0.5
 40
1.0
 40
1.0
 40
1.0
 40
1.0
 10
-15.86874999999998
 20
-0.5952378328159508
 30
0.0
 10
-16.0006253679586
 20
-0.5940251065282108
 30
0.0
 10
-16.13896679656823
 20
-0.5774745044413233
 30
0.0
 10
-16.39869343920596
 20
-0.5176990591156002
 30
0.0
 10
-16.53657843716201
 20
-0.4732923183568051
 30
0.0
 10
-16.66874999999966
 20
-0.4188369629179686
 30
0.0
  0
SPLINE
  5
2F7
330
1F
100
AcDbEntity
  8
외형선
  6
Continuous
370
    15
100
AcDbSpline
210
0.0
220
0.0
230
1.0
 70
    24
 71
     3
 72
     8
 73
     4
 74
     0
 42
0.000000001
 43
0.00000001
 40
0.0
 40
0.0
 40
0.0
 40
0.0
 40
1.0
 40
1.0
 40
1.0
 40
1.0
 10
-16.66874999999935
 20
-0.4188369629181817
 30
0.0
 10
-16.66874999999935
 20
-0.3899368001231028
 30
0.0
 10
-16.66874999999935
 20
-0.3363579591542208
 30
0.0
 10
-16.66874999999935
 20
-0.2807652823723682
 30
0.0
  0
SPLINE
  5
2F8
330
1F
100
AcDbEntity
  8
외형선
  6
Continuous
370
    15
100
AcDbSpline
210
0.0
220
0.0
230
1.0
 70
     8
 71
     3
 72
    10
 73
     6
 74
     0
 42
0.000000001
 43
0.00000001
 40
0.0
 40
0.0
 40
0.0
 40
0.0
 40
0.4272699440276172
 40
0.8491967571184598
 40
1.0
 40
1.0
 40
1.0
 40
1.0
 10
-16.66874999999794
 20
-0.5193852862435658
 30
0.0
 10
-16.59361266422882
 20
-0.5374454158325012
 30
0.0
 10
-16.44427760622733
 20
-0.5733398280055017
 30
0.0
 10
-16.26945270630594
 20
-0.5984902876568693
 30
0.0
 10
-16.16875370115559
 20
-0.5912121937779599
 30
0.0
 10
-16.14223905193602
 20
-0.5892958282101123
 30
0.0
  0
LINE
  5
2F9
330
1F
100
AcDbEntity
  8
외형선
  6
Continuous
370
    15
100
AcDbLine
 10
-16.66874999999997
 20
-0.5193852862429903
 30
0.0
 11
-16.66874999999997
 21
-0.4188369629178762
 31
0.0
  0
SPLINE
  5
2FA
330
1F
100
AcDbEntity
  8
외형선
  6
Continuous
370
    15
100
AcDbSpline
210
0.0
220
0.0
230
1.0
 70
     8
 71
     3
 72
    10
 73
     6
 74
     0
 42
0.000000001
 43
0.00000001
 40
0.0
 40
0.0
 40
0.0
 40
0.0
 40
0.5
 40
0.5
 40
1.0
 40
1.0
 40
1.0
 40
1.0
 10
-16.66874999999794
 20
0.5193852862435687
 30
0.0
 10
-16.53657843716051
 20
0.5568329440306915
 30
0.0
 10
-16.39869343920486
 20
0.5814190686349999
 30
0.0
 10
-16.13896679656763
 20
0.6001626355595665
 30
0.0
 10
-16.00062536795831
 20
0.5946698821584878
 30
0.0
 10
-15.86874999999998
 20
0.5746904253945889
 30
0.0
  0
SPLINE
  5
2FB
330
1F
100
AcDbEntity
  8
외형선
  6
Continuous
370
    15
100
AcDbSpline
210
0.0
220
0.0
230
1.0
 70
    24
 71
     3
 72
     9
 73
     5
 74
     0
 42
0.000000001
 43
0.00000001
 40
0.0
 40
0.0
 40
0.0
 40
0.0
 40
0.7132021777343358
 40
1.0
 40
1.0
 40
1.0
 40
1.0
 10
-16.66874999999997
 20
0.491680946209193
 30
0.0
 10
-16.66874999999997
 20
0.4984981426665659
 30
0.0
 10
-16.66874999999997
 20
0.5080567175983358
 30
0.0
 10
-16.66874999999997
 20
0.5168604072298134
 30
0.0
 10
-16.66874999999997
 20
0.519385286244027
 30
0.0
  0
SPLINE
  5
2FC
330
1F
100
AcDbEntity
  8
0
  6
Continuous
 62
     1
370
    25
100
AcDbSpline
210
0.0
220
0.0
230
1.0
 70
     8
 71
     3
 72
    22
 73
    18
 74
     0
 42
0.000000001
 43
0.00000001
 40
0.0
 40
0.0
 40
0.0
 40
0.0
 40
0.125
 40
0.125
 40
0.25
 40
0.25
 40
0.375
 40
0.375
 40
0.5
 40
0.5
 40
0.625
 40
0.625
 40
0.75
 40
0.75
 40
0.875
 40
0.875
 40
1.0
 40
1.0
 40
1.0
 40
1.0
 10
-16.66874999999997
 20
-0.4188369629178762
 30
0.0
 10
-16.76739411882944
 20
-0.3781950847597887
 30
0.0
 10
-16.86495126839102
 20
-0.3319113805828063
 30
0.0
 10
-17.06599482320125
 20
-0.2304588913849525
 30
0.0
 10
-17.16372812435949
 20
-0.1762763312856354
 30
0.0
 10
-17.36082489110544
 20
-0.064290100909869
 30
0.0
 10
-17.46288822630436
 20
-0.0059496082025316
 30
0.0
 10
-17.6615042880576
 20
0.1082629298346799
 30
0.0
 10
-17.75799345080657
 20
0.1641302392894484
 30
0.0
 10
-17.95887003560945
 20
0.2712308537395135
 30
0.0
 10
-18.05826635380205
 20
0.321503733794145
 30
0.0
 10
-18.25372241891915
 20
0.4113701868744603
 30
0.0
 10
-18.3556203686552
 20
0.4517818954433214
 30
0.0
 10
-18.55528023836962
 20
0.5183553588156894
 30
0.0
 10
-18.65123411315804
 20
0.5445201670112102
 30
0.0
 10
-18.85164871643241
 20
0.5817971030961392
 30
0.0
 10
-18.95322676859912
 20
0.5924733651688247
 30
0.0
 10
-19.04999999999998
 20
0.5948093509413998
 30
0.0
  0
SPLINE
  5
2FD
330
1F
100
AcDbEntity
  8
0
  6
Continuous
 62
     1
370
    25
100
AcDbSpline
210
0.0
220
0.0
230
1.0
 70
     8
 71
     3
 72
    10
 73
     6
 74
     0
 42
0.000000001
 43
0.00000001
 40
0.0
 40
0.0
 40
0.0
 40
0.0
 40
0.1186225714961097
 40
0.5590027106663361
 40
1.0
 40
1.0
 40
1.0
 40
1.0
 10
-17.56667328463064
 20
0.0537475658451672
 30
0.0
 10
-17.53117192022566
 20
0.0398916821275495
 30
0.0
 10
-17.36387358328658
 20
-0.0254034506548319
 30
0.0
 10
-17.06459497418341
 20
-0.1510701551055686
 30
0.0
 10
-16.8007599047901
 20
-0.2375133971167681
 30
0.0
 10
-16.66874999998562
 20
-0.2807652823764858
 30
0.0
  0
SPLINE
  5
2FE
330
1F
100
AcDbEntity
  8
외형선
  6
Continuous
370
    15
100
AcDbSpline
210
0.0
220
0.0
230
1.0
 70
    24
 71
     3
 72
     8
 73
     4
 74
     0
 42
0.000000001
 43
0.00000001
 40
0.0
 40
0.0
 40
0.0
 40
0.0
 40
1.0
 40
1.0
 40
1.0
 40
1.0
 10
-16.66874999999935
 20
-0.4188369629181817
 30
0.0
 10
-16.66874999999935
 20
-0.3899368001231028
 30
0.0
 10
-16.66874999999935
 20
-0.3363579591542208
 30
0.0
 10
-16.66874999999935
 20
-0.2807652823723682
 30
0.0
  0
SPLINE
  5
2FF
330
1F
100
AcDbEntity
  8
0
  6
Continuous
 62
     1
370
    25
100
AcDbSpline
210
0.0
220
0.0
230
1.0
 70
     8
 71
     3
 72
    22
 73
    18
 74
     0
 42
0.000000001
 43
0.00000001
 40
0.0
 40
0.0
 40
0.0
 40
0.0
 40
0.125
 40
0.125
 40
0.25
 40
0.25
 40
0.375
 40
0.375
 40
0.5
 40
0.5
 40
0.625
 40
0.625
 40
0.75
 40
0.75
 40
0.875
 40
0.875
 40
1.0
 40
1.0
 40
1.0
 40
1.0
 10
-19.04999999999998
 20
0.5649163612146172
 30
0.0
 10
-18.95322676859905
 20
0.5469893789728278
 30
0.0
 10
-18.85164871643227
 20
0.5208855765676322
 30
0.0
 10
-18.65123411315774
 20
0.4550181358901316
 30
0.0
 10
-18.55528023836926
 20
0.4158009271369384
 30
0.0
 10
-18.35562036865468
 20
0.325974438467259
 30
0.0
 10
-18.25372241891855
 20
0.2754867337082733
 30
0.0
 10
-18.05826635380134
 20
0.1697308475271658
 30
0.0
 10
-17.95887003560863
 20
0.1134636893443283
 30
0.0
 10
-17.75799345080561
 20
-0.00109188734891
 30
0.0
 10
-17.6615042880566
 20
-0.0583932467138592
 30
0.0
 10
-17.46288822630316
 20
-0.1708842262370464
 30
0.0
 10
-17.36082489110418
 20
-0.2260027853883532
 30
0.0
 10
-17.16372812435814
 20
-0.3272526799271528
 30
0.0
 10
-17.06599482319977
 20
-0.373920558158645
 30
0.0
 10
-16.8649512683894
 20
-0.4564123003105326
 30
0.0
 10
-16.76739411882781
 20
-0.4914368295154045
 30
0.0
 10
-16.66874999999823
 20
-0.5193852862434841
 30
0.0
  0
SPLINE
  5
300
330
1F
100
AcDbEntity
  8
0
  6
Continuous
 62
     1
370
    25
100
AcDbSpline
210
0.0
220
0.0
230
1.0
 70
     8
 71
     3
 72
    11
 73
     7
 74
     0
 42
0.000000001
 43
0.00000001
 40
0.0
 40
0.0
 40
0.0
 40
0.0
 40
0.2560838004092653
 40
0.5116107784190661
 40
0.7667949409637573
 40
1.0
 40
1.0
 40
1.0
 40
1.0
 10
-19.04999999999998
 20
0.4696850511317049
 30
0.0
 10
-18.91713241569254
 20
0.4386464974330014
 30
0.0
 10
-18.65168615112776
 20
0.3766368795133271
 30
0.0
 10
-18.25401355168689
 20
0.2101922905097911
 30
0.0
 10
-17.86827291645918
 20
0.0215608106830413
 30
0.0
 10
-17.61504611031516
 20
-0.1002037487884561
 30
0.0
 10
-17.4941307222048
 20
-0.1583461279100757
 30
0.0
  0
LINE
  5
301
330
1F
100
AcDbEntity
  8
0
  6
Continuous
 62
     1
370
    25
100
AcDbLine
 10
-19.04999999999995
 20
0.5649163612146172
 30
0.0
 11
-19.04999999999998
 21
0.4696850511317049
 31
0.0
  0
LINE
  5
302
330
1F
100
AcDbEntity
  8
0
  6
Continuous
 62
     1
370
    25
100
AcDbLine
 10
-19.04999999999998
 20
0.5948093509413998
 30
0.0
 11
-19.04999999999997
 21
0.5649163612146172
 31
0.0
  0
SPLINE
  5
303
330
1F
100
AcDbEntity
  8
0
  6
Continuous
 62
     1
370
    25
100
AcDbSpline
210
0.0
220
0.0
230
1.0
 70
     8
 71
     3
 72
     8
 73
     4
 74
     0
 42
0.000000001
 43
0.00000001
 40
0.0
 40
0.0
 40
0.0
 40
0.0
 40
1.0
 40
1.0
 40
1.0
 40
1.0
 10
-18.68215937932356
 20
-0.1659924545281267
 30
0.0
 10
-18.66083471749003
 20
-0.1912257280778785
 30
0.0
 10
-18.64178206378124
 20
-0.2155299483163699
 30
0.0
 10
-18.62557185925062
 20
-0.2386718545682459
 30
0.0
  0
LINE
  5
304
330
1F
100
AcDbEntity
  8
0
  6
Continuous
 62
     1
370
    25
100
AcDbLine
 10
-18.63307079285185
 20
-0.2449642069963684
 30
0.0
 11
-19.04999999999998
 21
-0.0000000000000004
 31
0.0
  0
LINE
  5
305
330
1F
100
AcDbEntity
  8
0
  6
Continuous
 62
     1
370
    25
100
AcDbLine
 10
-19.04999999999998
 20
-0.0000000000000004
 30
0.0
 11
-19.04999999999998
 21
0.1590930663082727
 31
0.0
  0
SPLINE
  5
306
330
1F
100
AcDbEntity
  8
0
  6
Continuous
 62
     1
370
    25
100
AcDbSpline
210
0.0
220
0.0
230
1.0
 70
     8
 71
     3
 72
    10
 73
     6
 74
     0
 42
0.000000001
 43
0.00000001
 40
0.0
 40
0.0
 40
0.0
 40
0.0
 40
0.5
 40
0.5
 40
1.0
 40
1.0
 40
1.0
 40
1.0
 10
-19.04999999999998
 20
0.1590930663082727
 30
0.0
 10
-18.98633406132906
 20
0.1090386594518474
 30
0.0
 10
-18.92373104768475
 20
0.0569321280128992
 30
0.0
 10
-18.80069539714852
 20
-0.0514711490151253
 30
0.0
 10
-18.73968536489286
 20
-0.1083339026209384
 30
0.0
 10
-18.68215937932308
 20
-0.1659924545269188
 30
0.0
  0
SPLINE
  5
307
330
1F
100
AcDbEntity
  8
0
  6
Continuous
 62
     1
370
    25
100
AcDbSpline
210
0.0
220
0.0
230
1.0
 70
     8
 71
     3
 72
    11
 73
     7
 74
     0
 42
0.000000001
 43
0.00000001
 40
0.0
 40
0.0
 40
0.0
 40
0.0
 40
0.3120992760247076
 40
0.6014562942569361
 40
0.890672776824323
 40
1.0
 40
1.0
 40
1.0
 40
1.0
 10
-18.68215937786688
 20
-0.1659924551589288
 30
0.0
 10
-18.5393817696029
 20
-0.2252653606612579
 30
0.0
 10
-18.26423056687301
 20
-0.3394920341330984
 30
0.0
 10
-17.8569676659301
 20
-0.4438442272400532
 30
0.0
 10
-17.54242393520707
 20
-0.4871621478804581
 30
0.0
 10
-17.36017764182822
 20
-0.4696548425801662
 30
0.0
 10
-17.31018442677537
 20
-0.4648522950899231
 30
0.0
  0
SPLINE
  5
308
330
1F
100
AcDbEntity
  8
0
  6
Continuous
 62
     1
370
    25
100
AcDbSpline
210
0.0
220
0.0
230
1.0
 70
    24
 71
     3
 72
     8
 73
     4
 74
     0
 42
0.000000001
 43
0.00000001
 40
0.0
 40
0.0
 40
0.0
 40
0.0
 40
1.0
 40
1.0
 40
1.0
 40
1.0
 10
-19.04999999999998
 20
0.4696850511317049
 30
0.0
 10
-19.04999999999998
 20
0.3976750089009539
 30
0.0
 10
-19.04999999999998
 20
0.2853761080746754
 30
0.0
 10
-19.04999999999998
 20
0.159093066308294
 30
0.0
  0
SPLINE
  5
309
330
1F
100
AcDbEntity
  8
0
  6
Continuous
 62
     1
370
    25
100
AcDbSpline
210
0.0
220
0.0
230
1.0
 70
    24
 71
     3
 72
     8
 73
     4
 74
     0
 42
0.000000001
 43
0.00000001
 40
0.0
 40
0.0
 40
0.0
 40
0.0
 40
1.0
 40
1.0
 40
1.0
 40
1.0
 10
-18.68744708401941
 20
-0.290591332859805
 30
0.0
 10
-18.66785925907033
 20
-0.27415519616946
 30
0.0
 10
-18.64716616974032
 20
-0.2567916325447793
 30
0.0
 10
-18.62557185924656
 20
-0.238671854573948
 30
0.0
  0
LINE
  5
30A
330
1F
100
AcDbEntity
  8
0
  6
Continuous
 62
     1
370
    25
100
AcDbLine
 10
-19.04999999999998
 20
-0.4167187499999979
 30
0.0
 11
-18.79705785028698
 21
-0.3972718841718542
 31
0.0
  0
SPLINE
  5
30B
330
1F
100
AcDbEntity
  8
0
  6
Continuous
 62
     1
370
    25
100
AcDbSpline
210
0.0
220
0.0
230
1.0
 70
     8
 71
     3
 72
    17
 73
    13
 74
     0
 42
0.000000001
 43
0.00000001
 40
0.0
 40
0.0
 40
0.0
 40
0.0
 40
0.0001547648555721
 40
0.0001547648555721
 40
0.0001547648555721
 40
0.0003095377979183
 40
0.0003095377979183
 40
0.0003095377979183
 40
0.000439036581487
 40
0.000439036581487
 40
0.000439036581487
 40
0.0004900559441444
 40
0.0004900559441444
 40
0.0004900559441444
 40
0.0004900559441444
 10
-19.04999999999998
 20
-0.4167187499999979
 30
0.0
 10
-19.01131435534204
 20
-0.4061807998569232
 30
0.0
 10
-18.97274679709729
 20
-0.3948683141057149
 30
0.0
 10
-18.93434081178388
 20
-0.3827115257493506
 30
0.0
 10
-18.89593366231924
 20
-0.3705543688998961
 30
0.0
 10
-18.85767634182508
 20
-0.3575503538393331
 30
0.0
 10
-18.81962998593306
 20
-0.3435932080808154
 30
0.0
 10
-18.78779568472967
 20
-0.3319149284769271
 30
0.0
 10
-18.75609986166319
 20
-0.3195659977641693
 30
0.0
 10
-18.72459481164568
 20
-0.3064541627297043
 30
0.0
 10
-18.71218213282563
 20
-0.3012882291116415
 30
0.0
 10
-18.69979815485502
 20
-0.2960030519652402
 30
0.0
 10
-18.68744708402809
 20
-0.2905913328636419
 30
0.0
  0
SPLINE
  5
30C
330
1F
100
AcDbEntity
  8
0
  6
Continuous
 62
     1
370
    25
100
AcDbSpline
210
0.0
220
0.0
230
1.0
 70
     8
 71
     3
 72
    10
 73
     6
 74
     0
 42
0.000000001
 43
0.00000001
 40
0.0
 40
0.0
 40
0.0
 40
0.0
 40
0.2941482893384494
 40
0.6468334512238285
 40
1.0
 40
1.0
 40
1.0
 40
1.0
 10
-17.78992377348878
 20
0.4427776507079525
 30
0.0
 10
-17.68000348768385
 20
0.4574790074387739
 30
0.0
 10
-17.43828826987102
 20
0.4898073590102104
 30
0.0
 10
-17.06460038402242
 20
0.4588404461300645
 30
0.0
 10
-16.80076010717305
 20
0.3875819001227893
 30
0.0
 10
-16.66874999995703
 20
0.3519283281556508
 30
0.0
  0
SPLINE
  5
30D
330
1F
100
AcDbEntity
  8
외형선
  6
Continuous
370
    15
100
AcDbSpline
210
0.0
220
0.0
230
1.0
 70
    24
 71
     3
 72
    10
 73
     6
 74
     0
 42
0.000000001
 43
0.00000001
 40
0.0
 40
0.0
 40
0.0
 40
0.0
 40
0.5
 40
0.5
 40
1.0
 40
1.0
 40
1.0
 40
1.0
 10
-16.66874999999997
 20
-0.2807652823721835
 30
0.0
 10
-16.66874999999997
 20
-0.1894848735041673
 30
0.0
 10
-16.66874999999997
 20
-0.0785328911037556
 30
0.0
 10
-16.66874999999997
 20
0.1463629006008805
 30
0.0
 10
-16.66874999999997
 20
0.2585641979130987
 30
0.0
 10
-16.66874999999997
 20
0.3519283281690729
 30
0.0
  0
LINE
  5
30E
330
1F
100
AcDbEntity
  8
0
  6
Continuous
 62
     1
370
    25
100
AcDbLine
 10
-19.04999999999998
 20
-0.0000000000000004
 30
0.0
 11
-19.04999999999998
 21
-0.4167187499999979
 31
0.0
  0
SPLINE
  5
30F
330
1F
100
AcDbEntity
  8
외형선
  6
Continuous
370
    15
100
AcDbSpline
210
0.0
220
0.0
230
1.0
 70
    24
 71
     3
 72
    12
 73
     8
 74
     0
 42
0.000000001
 43
0.00000001
 40
0.0
 40
0.0
 40
0.0
 40
0.0
 40
0.1849109894191817
 40
0.372333504764913
 40
0.6389677697849006
 40
0.9133344465537404
 40
0.9999999999999999
 40
0.9999999999999999
 40
0.9999999999999999
 40
0.9999999999999999
 10
-16.66874999999997
 20
0.3519283281690729
 30
0.0
 10
-16.66874999999997
 20
0.3659237068206661
 30
0.0
 10
-16.66874999999997
 20
0.3941045542663911
 30
0.0
 10
-16.66874999999997
 20
0.4316656575008008
 30
0.0
 10
-16.66874999999997
 20
0.461212019236292
 30
0.0
 10
-16.66874999999997
 20
0.4756747959314606
 30
0.0
 10
-16.66874999999997
 20
0.47389127939331
 30
0.0
 10
-16.66874999999997
 20
0.4734631474014176
 30
0.0
  0
SPLINE
  5
310
330
1F
100
AcDbEntity
  8
0
  6
Continuous
 62
     1
370
    25
100
AcDbSpline
210
0.0
220
0.0
230
1.0
 70
    24
 71
     3
 72
     8
 73
     4
 74
     0
 42
0.000000001
 43
0.00000001
 40
0.0
 40
0.0
 40
0.0
 40
0.0
 40
1.0
 40
1.0
 40
1.0
 40
1.0
 10
-19.04999999999998
 20
-0.4167187499999979
 30
0.0
 10
-19.04999999999998
 20
-0.4672396557612085
 30
0.0
 10
-19.04999999999998
 20
-0.5351812085597313
 30
0.0
 10
-19.04999999999998
 20
-0.5948093509413969
 30
0.0
  0
SPLINE
  5
311
330
1F
100
AcDbEntity
  8
0
  6
Continuous
 62
     1
370
    25
100
AcDbSpline
210
0.0
220
0.0
230
1.0
 70
     8
 71
     3
 72
    16
 73
    12
 74
     0
 42
0.000000001
 43
0.00000001
 40
0.0
 40
0.0
 40
0.0
 40
0.0
 40
0.0179739045325476
 40
0.1229857044302646
 40
0.2283584294754683
 40
0.3234872015934685
 40
0.5141579481291118
 40
0.6097391774745461
 40
0.7070790030381743
 40
0.9021877516802049
 40
1.0
 40
1.0
 40
1.0
 40
1.0
 10
-18.23176431379954
 20
-0.3998040334437011
 30
0.0
 10
-18.23666114171837
 20
-0.4019659949786675
 30
0.0
 10
-18.2701674858731
 20
-0.4167591280927002
 30
0.0
 10
-18.332596469512
 20
-0.4412799616074036
 30
0.0
 10
-18.41606593330602
 20
-0.4721283997560913
 30
0.0
 10
-18.52287615885019
 20
-0.5075466674860823
 30
0.0
 10
-18.62639277361271
 20
-0.5369957713729793
 30
0.0
 10
-18.73103804147942
 20
-0.5598159201340959
 30
0.0
 10
-18.83703974543779
 20
-0.5783921652035605
 30
0.0
 10
-18.94377352062547
 20
-0.5907826561542325
 30
0.0
 10
-19.02340832676974
 20
-0.5938013484865617
 30
0.0
 10
-19.04999999999998
 20
-0.5948093509413969
 30
0.0
  0
LINE
  5
312
330
1F
100
AcDbEntity
  8
0
  6
Continuous
 62
     1
370
    25
100
AcDbLine
 10
-16.80996479843564
 20
0.4683252060783257
 30
0.0
 11
-16.66874999999823
 21
0.519385286243487
 31
0.0
  0
SPLINE
  5
313
330
1F
100
AcDbEntity
  8
외형선
  6
Continuous
370
    15
100
AcDbSpline
210
0.0
220
0.0
230
1.0
 70
    24
 71
     3
 72
    10
 73
     6
 74
     0
 42
0.000000001
 43
0.00000001
 40
0.0
 40
0.0
 40
0.0
 40
0.0
 40
0.2364810639464683
 40
0.7146358188189273
 40
1.0
 40
1.0
 40
1.0
 40
1.0
 10
-16.66874999999997
 20
0.491680946209193
 30
0.0
 10
-16.66874999999997
 20
0.4939673640198518
 30
0.0
 10
-16.66874999999997
 20
0.5008768223799184
 30
0.0
 10
-16.66874999999997
 20
0.5100694001113585
 30
0.0
 10
-16.66874999999997
 20
0.5168507614961829
 30
0.0
 10
-16.66874999999997
 20
0.519385286244027
 30
0.0
  0
LINE
  5
317
330
1F
100
AcDbEntity
  8
외형선
  6
Continuous
370
    15
100
AcDbLine
 10
-12.16585583936524
 20
-1.587499999999999
 30
0.0
 11
-12.16585583936524
 21
1.587500000000002
 31
0.0
  0
ENDSEC
  0
SECTION
  2
OBJECTS
  0
DICTIONARY
  5
C
330
0
100
AcDbDictionary
281
     1
  3
ACAD_GROUP
350
D
  3
ACAD_IMAGE_VARS
350
15F
  3
ACAD_LAYOUT
350
1A
  3
ACAD_MLINESTYLE
350
17
  3
ACAD_PLOTSETTINGS
350
19
  3
ACAD_PLOTSTYLENAME
350
E
  3
ACAD_SCALELIST
350
47
  3
APPDATA
350
15D
  3
DWGPROPS
350
36C
  0
DICTIONARY
  5
36A
330
1F
100
AcDbDictionary
280
     1
281
     1
  3
DIM_BOUNDING_BOXES_V1
360
36B
  0
DICTIONARY
  5
D
102
{ACAD_REACTORS
330
C
102
}
330
C
100
AcDbDictionary
281
     1
  0
RASTERVARIABLES
  5
15F
102
{ACAD_REACTORS
330
C
102
}
330
C
100
AcDbRasterVariables
 90
        0
 70
     1
 71
     1
 72
     1
  0
DICTIONARY
  5
1A
102
{ACAD_REACTORS
330
C
102
}
330
C
100
AcDbDictionary
281
     1
  3
Layout1
350
1E
  3
Layout2
350
26
  3
Model
350
22
  0
DICTIONARY
  5
17
102
{ACAD_REACTORS
330
C
102
}
330
C
100
AcDbDictionary
281
     1
  3
Standard
350
18
  0
DICTIONARY
  5
19
102
{ACAD_REACTORS
330
C
102
}
330
C
100
AcDbDictionary
281
     1
  0
ACDBDICTIONARYWDFLT
  5
E
102
{ACAD_REACTORS
330
C
102
}
330
C
100
AcDbDictionary
281
     1
  3
Normal
350
F
100
AcDbDictionaryWithDefault
340
F
  0
DICTIONARY
  5
47
102
{ACAD_REACTORS
330
C
102
}
330
C
100
AcDbDictionary
281
     1
  3
A0
350
48
  3
A1
350
49
  3
A2
350
4A
  3
A3
350
4B
  3
A4
350
4C
  3
A5
350
4D
  3
A6
350
4E
  3
A7
350
4F
  3
A8
350
50
  3
A9
350
51
  3
B0
350
52
  3
B1
350
53
  3
B2
350
54
  3
B3
350
55
  3
B4
350
56
  3
B5
350
57
  3
B6
350
58
  3
B7
350
59
  3
B8
350
5A
  3
B9
350
5B
  3
C0
350
5C
  3
C1
350
5D
  3
C2
350
5E
  3
C3
350
5F
  3
C4
350
60
  3
C5
350
61
  3
C6
350
62
  3
C7
350
63
  3
C8
350
64
  3
C9
350
65
  3
D0
350
66
  3
D1
350
67
  3
D2
350
68
  0
DICTIONARY
  5
15D
102
{ACAD_REACTORS
330
C
102
}
330
C
100
AcDbDictionary
281
     1
  0
XRECORD
  5
36C
102
{ACAD_REACTORS
330
C
102
}
330
C
100
AcDbXrecord
280
     1
  1
DWGPROPS COOKIE
  2

  3

  4

  6

  7

  8
12011056
  9

300
=
301
=
302
=
303
=
304
=
305
=
306
=
307
=
308
=
309
=
 40
0.0
 41
2458313.048261146
 42
2459719.257823275
  1

 90
        0
  0
DICTIONARY
  5
36B
102
{ACAD_REACTORS
330
36A
102
}
330
36A
100
AcDbDictionary
281
     1
  0
LAYOUT
  5
1E
102
{ACAD_REACTORS
330
1A
102
}
330
1A
100
AcDbPlotSettings
  1

  2
none_device
  4

  6

 40
0.0
 41
0.0
 42
0.0
 43
0.0
 44
0.0
 45
0.0
 46
0.0
 47
0.0
 48
0.0
 49
0.0
140
0.0
141
0.0
142
1.0
143
1.0
 70
   688
 72
     1
 73
     0
 74
     5
  7

 75
    16
147
1.0
148
0.0
149
0.0
100
AcDbLayout
  1
Layout1
 70
     1
 71
     1
 10
0.0
 20
0.0
 11
420.0
 21
297.0
 12
0.0
 22
0.0
 32
0.0
 14
1.000000000000000E+20
 24
1.000000000000000E+20
 34
1.000000000000000E+20
 15
-1.000000000000000E+20
 25
-1.000000000000000E+20
 35
-1.000000000000000E+20
146
0.0
 13
0.0
 23
0.0
 33
0.0
 16
1.0
 26
0.0
 36
0.0
 17
0.0
 27
1.0
 37
0.0
 76
     0
330
1B
  0
LAYOUT
  5
26
102
{ACAD_REACTORS
330
1A
102
}
330
1A
100
AcDbPlotSettings
  1

  2
none_device
  4

  6

 40
0.0
 41
0.0
 42
0.0
 43
0.0
 44
0.0
 45
0.0
 46
0.0
 47
0.0
 48
0.0
 49
0.0
140
0.0
141
0.0
142
1.0
143
1.0
 70
   688
 72
     1
 73
     0
 74
     5
  7

 75
    16
147
1.0
148
0.0
149
0.0
100
AcDbLayout
  1
Layout2
 70
     1
 71
     2
 10
0.0
 20
0.0
 11
0.0
 21
0.0
 12
0.0
 22
0.0
 32
0.0
 14
0.0
 24
0.0
 34
0.0
 15
0.0
 25
0.0
 35
0.0
146
0.0
 13
0.0
 23
0.0
 33
0.0
 16
1.0
 26
0.0
 36
0.0
 17
0.0
 27
1.0
 37
0.0
 76
     0
330
23
  0
LAYOUT
  5
22
102
{ACAD_REACTORS
330
1A
102
}
330
1A
100
AcDbPlotSettings
  1

  2
none_device
  4
ANSI_A_(11.00_x_8.50_Inches)
  6

 40
6.35
 41
19.05
 42
6.35000508
 43
19.05000254
 44
279.4
 45
215.9
 46
99.5403645778487
 47
93.49169587229396
 48
0.0
 49
0.0
140
0.0
141
0.0
142
0.0834366032097928
143
1.0
 70
  1696
 72
     0
 73
     0
 74
     0
  7

 75
     0
147
0.0235690232323232
148
0.0
149
0.0
100
AcDbLayout
  1
Model
 70
     1
 71
     0
 10
0.0
 20
0.0
 11
420.0
 21
297.0
 12
0.0
 22
0.0
 32
0.0
 14
-29.45992727542973
 24
-39.99892507127611
 34
0.0
 15
81.21241335422454
 25
25.72466509735214
 35
0.0
146
0.0
 13
0.0
 23
0.0
 33
0.0
 16
1.0
 26
0.0
 36
0.0
 17
0.0
 27
1.0
 37
0.0
 76
     0
330
1F
331
29
  0
MLINESTYLE
  5
18
102
{ACAD_REACTORS
330
17
102
}
330
17
100
AcDbMlineStyle
  2
Standard
 70
     0
  3

 62
   256
 51
90.0
 52
90.0
 71
     2
 49
0.5
 62
   256
  6
BYLAYER
 49
-0.5
 62
   256
  6
BYLAYER
  0
ACDBPLACEHOLDER
  5
F
102
{ACAD_REACTORS
330
E
102
}
330
E
  0
SCALE
  5
48
102
{ACAD_REACTORS
330
47
102
}
330
47
100
AcDbScale
 70
     0
300
1:1
140
1.0
141
1.0
290
     1
  0
SCALE
  5
49
102
{ACAD_REACTORS
330
47
102
}
330
47
100
AcDbScale
 70
     0
300
1:2
140
1.0
141
2.0
290
     0
  0
SCALE
  5
4A
102
{ACAD_REACTORS
330
47
102
}
330
47
100
AcDbScale
 70
     0
300
1:4
140
1.0
141
4.0
290
     0
  0
SCALE
  5
4B
102
{ACAD_REACTORS
330
47
102
}
330
47
100
AcDbScale
 70
     0
300
1:5
140
1.0
141
5.0
290
     0
  0
SCALE
  5
4C
102
{ACAD_REACTORS
330
47
102
}
330
47
100
AcDbScale
 70
     0
300
1:8
140
1.0
141
8.0
290
     0
  0
SCALE
  5
4D
102
{ACAD_REACTORS
330
47
102
}
330
47
100
AcDbScale
 70
     0
300
1:10
140
1.0
141
10.0
290
     0
  0
SCALE
  5
4E
102
{ACAD_REACTORS
330
47
102
}
330
47
100
AcDbScale
 70
     0
300
1:16
140
1.0
141
16.0
290
     0
  0
SCALE
  5
4F
102
{ACAD_REACTORS
330
47
102
}
330
47
100
AcDbScale
 70
     0
300
1:20
140
1.0
141
20.0
290
     0
  0
SCALE
  5
50
102
{ACAD_REACTORS
330
47
102
}
330
47
100
AcDbScale
 70
     0
300
1:30
140
1.0
141
30.0
290
     0
  0
SCALE
  5
51
102
{ACAD_REACTORS
330
47
102
}
330
47
100
AcDbScale
 70
     0
300
1:40
140
1.0
141
40.0
290
     0
  0
SCALE
  5
52
102
{ACAD_REACTORS
330
47
102
}
330
47
100
AcDbScale
 70
     0
300
1:50
140
1.0
141
50.0
290
     0
  0
SCALE
  5
53
102
{ACAD_REACTORS
330
47
102
}
330
47
100
AcDbScale
 70
     0
300
1:100
140
1.0
141
100.0
290
     0
  0
SCALE
  5
54
102
{ACAD_REACTORS
330
47
102
}
330
47
100
AcDbScale
 70
     0
300
2:1
140
2.0
141
1.0
290
     0
  0
SCALE
  5
55
102
{ACAD_REACTORS
330
47
102
}
330
47
100
AcDbScale
 70
     0
300
4:1
140
4.0
141
1.0
290
     0
  0
SCALE
  5
56
102
{ACAD_REACTORS
330
47
102
}
330
47
100
AcDbScale
 70
     0
300
8:1
140
8.0
141
1.0
290
     0
  0
SCALE
  5
57
102
{ACAD_REACTORS
330
47
102
}
330
47
100
AcDbScale
 70
     0
300
10:1
140
10.0
141
1.0
290
     0
  0
SCALE
  5
58
102
{ACAD_REACTORS
330
47
102
}
330
47
100
AcDbScale
 70
     0
300
100:1
140
100.0
141
1.0
290
     0
  0
SCALE
  5
59
102
{ACAD_REACTORS
330
47
102
}
330
47
100
AcDbScale
 70
     0
300
1/128" = 1'-0"
140
0.0078125
141
12.0
290
     0
  0
SCALE
  5
5A
102
{ACAD_REACTORS
330
47
102
}
330
47
100
AcDbScale
 70
     0
300
1/64" = 1'-0"
140
0.015625
141
12.0
290
     0
  0
SCALE
  5
5B
102
{ACAD_REACTORS
330
47
102
}
330
47
100
AcDbScale
 70
     0
300
1/32" = 1'-0"
140
0.03125
141
12.0
290
     0
  0
SCALE
  5
5C
102
{ACAD_REACTORS
330
47
102
}
330
47
100
AcDbScale
 70
     0
300
1/16" = 1'-0"
140
0.0625
141
12.0
290
     0
  0
SCALE
  5
5D
102
{ACAD_REACTORS
330
47
102
}
330
47
100
AcDbScale
 70
     0
300
3/32" = 1'-0"
140
0.09375
141
12.0
290
     0
  0
SCALE
  5
5E
102
{ACAD_REACTORS
330
47
102
}
330
47
100
AcDbScale
 70
     0
300
1/8" = 1'-0"
140
0.125
141
12.0
290
     0
  0
SCALE
  5
5F
102
{ACAD_REACTORS
330
47
102
}
330
47
100
AcDbScale
 70
     0
300
3/16" = 1'-0"
140
0.1875
141
12.0
290
     0
  0
SCALE
  5
60
102
{ACAD_REACTORS
330
47
102
}
330
47
100
AcDbScale
 70
     0
300
1/4" = 1'-0"
140
0.25
141
12.0
290
     0
  0
SCALE
  5
61
102
{ACAD_REACTORS
330
47
102
}
330
47
100
AcDbScale
 70
     0
300
3/8" = 1'-0"
140
0.375
141
12.0
290
     0
  0
SCALE
  5
62
102
{ACAD_REACTORS
330
47
102
}
330
47
100
AcDbScale
 70
     0
300
1/2" = 1'-0"
140
0.5
141
12.0
290
     0
  0
SCALE
  5
63
102
{ACAD_REACTORS
330
47
102
}
330
47
100
AcDbScale
 70
     0
300
3/4" = 1'-0"
140
0.75
141
12.0
290
     0
  0
SCALE
  5
64
102
{ACAD_REACTORS
330
47
102
}
330
47
100
AcDbScale
 70
     0
300
1" = 1'-0"
140
1.0
141
12.0
290
     0
  0
SCALE
  5
65
102
{ACAD_REACTORS
330
47
102
}
330
47
100
AcDbScale
 70
     0
300
1-1/2" = 1'-0"
140
1.5
141
12.0
290
     0
  0
SCALE
  5
66
102
{ACAD_REACTORS
330
47
102
}
330
47
100
AcDbScale
 70
     0
300
3" = 1'-0"
140
3.0
141
12.0
290
     0
  0
SCALE
  5
67
102
{ACAD_REACTORS
330
47
102
}
330
47
100
AcDbScale
 70
     0
300
6" = 1'-0"
140
6.0
141
12.0
290
     0
  0
SCALE
  5
68
102
{ACAD_REACTORS
330
47
102
}
330
47
100
AcDbScale
 70
     0
300
1'-0" = 1'-0"
140
12.0
141
12.0
290
     0
  0
ENDSEC
  0
EOF
