  0
SECTION
  2
HEADER
  9
$ACADVER
  1
AC1015
  9
$ACADMAINTVER
 70
     6
  9
$DWGCODEPAGE
  3
ANSI_949
  9
$INSBASE
 10
0.0
 20
0.0
 30
0.0
  9
$EXTMIN
 10
-64.70020864819503
 20
-39.9989250712761
 30
0.0
  9
$EXTMAX
 10
81.21241335422452
 20
105.6998691074742
 30
0.0
  9
$LIMMIN
 10
0.0
 20
0.0
  9
$LIMMAX
 10
420.0
 20
297.0
  9
$ORTHOMODE
 70
     0
  9
$REGENMODE
 70
     1
  9
$FILLMODE
 70
     1
  9
$QTEXTMODE
 70
     0
  9
$MIRRTEXT
 70
     1
  9
$LTSCALE
 40
1.0
  9
$ATTMODE
 70
     1
  9
$TEXTSIZE
 40
3.5
  9
$TRACEWID
 40
1.0
  9
$TEXTSTYLE
  7
Standard
  9
$CLAYER
  8
0
  9
$CELTYPE
  6
ByLayer
  9
$CECOLOR
 62
   256
  9
$CELTSCALE
 40
1.0
  9
$DISPSILH
 70
     0
  9
$DIMSCALE
 40
1.0
  9
$DIMASZ
 40
3.302
  9
$DIMEXO
 40
1.0
  9
$DIMDLI
 40
3.75
  9
$DIMRND
 40
0.0
  9
$DIMDLE
 40
0.0
  9
$DIMEXE
 40
1.0
  9
$DIMTP
 40
0.0
  9
$DIMTM
 40
0.0
  9
$DIMTXT
 40
3.5
  9
$DIMCEN
 40
2.5
  9
$DIMTSZ
 40
0.0
  9
$DIMTOL
 70
     0
  9
$DIMLIM
 70
     0
  9
$DIMTIH
 70
     1
  9
$DIMTOH
 70
     1
  9
$DIMSE1
 70
     0
  9
$DIMSE2
 70
     0
  9
$DIMTAD
 70
     1
  9
$DIMZIN
 70
     0
  9
$DIMBLK
  1

  9
$DIMASO
 70
     1
  9
$DIMSHO
 70
     1
  9
$DIMPOST
  1

  9
$DIMAPOST
  1

  9
$DIMALT
 70
     0
  9
$DIMALTD
 70
     3
  9
$DIMALTF
 40
0.0393700787401575
  9
$DIMLFAC
 40
1.0
  9
$DIMTOFL
 70
     1
  9
$DIMTVP
 40
0.0
  9
$DIMTIX
 70
     0
  9
$DIMSOXD
 70
     0
  9
$DIMSAH
 70
     0
  9
$DIMBLK1
  1

  9
$DIMBLK2
  1

  9
$DIMSTYLE
  2
ISO-25
  9
$DIMCLRD
 70
     0
  9
$DIMCLRE
 70
     0
  9
$DIMCLRT
 70
     0
  9
$DIMTFAC
 40
1.0
  9
$DIMGAP
 40
1.524
  9
$DIMJUST
 70
     0
  9
$DIMSD1
 70
     0
  9
$DIMSD2
 70
     0
  9
$DIMTOLJ
 70
     0
  9
$DIMTZIN
 70
     0
  9
$DIMALTZ
 70
     0
  9
$DIMALTTZ
 70
     0
  9
$DIMUPT
 70
     0
  9
$DIMDEC
 70
     2
  9
$DIMTDEC
 70
     2
  9
$DIMALTU
 70
     2
  9
$DIMALTTD
 70
     3
  9
$DIMTXSTY
  7
Standard
  9
$DIMAUNIT
 70
     0
  9
$DIMADEC
 70
     2
  9
$DIMALTRND
 40
0.0
  9
$DIMAZIN
 70
     0
  9
$DIMDSEP
 70
    44
  9
$DIMATFIT
 70
     3
  9
$DIMFRAC
 70
     0
  9
$DIMLDRBLK
  1

  9
$DIMLUNIT
 70
     2
  9
$DIMLWD
 70
    -2
  9
$DIMLWE
 70
    -2
  9
$DIMTMOVE
 70
     0
  9
$LUNITS
 70
     2
  9
$LUPREC
 70
     2
  9
$SKETCHINC
 40
1.0
  9
$FILLETRAD
 40
10.0
  9
$AUNITS
 70
     0
  9
$AUPREC
 70
     2
  9
$MENU
  1
.
  9
$ELEVATION
 40
0.0
  9
$PELEVATION
 40
0.0
  9
$THICKNESS
 40
0.0
  9
$LIMCHECK
 70
     0
  9
$CHAMFERA
 40
0.0
  9
$CHAMFERB
 40
0.0
  9
$CHAMFERC
 40
0.0
  9
$CHAMFERD
 40
0.0
  9
$SKPOLY
 70
     0
  9
$TDCREATE
 40
2458313.423473299
  9
$TDUCREATE
 40
2458313.048473299
  9
$TDUPDATE
 40
2459719.633068692
  9
$TDUUPDATE
 40
2459719.258068692
  9
$TDINDWG
 40
0.0017239931
  9
$TDUSRTIMER
 40
0.0001923843
  9
$USRTIMER
 70
     1
  9
$ANGBASE
 50
0.0
  9
$ANGDIR
 70
     0
  9
$PDMODE
 70
     0
  9
$PDSIZE
 40
-1.0
  9
$PLINEWID
 40
0.0
  9
$SPLFRAME
 70
     0
  9
$SPLINETYPE
 70
     6
  9
$SPLINESEGS
 70
     8
  9
$HANDSEED
  5
366
  9
$SURFTAB1
 70
     6
  9
$SURFTAB2
 70
     6
  9
$SURFTYPE
 70
     6
  9
$SURFU
 70
     6
  9
$SURFV
 70
     6
  9
$UCSBASE
  2

  9
$UCSNAME
  2

  9
$UCSORG
 10
0.0
 20
0.0
 30
0.0
  9
$UCSXDIR
 10
1.0
 20
0.0
 30
0.0
  9
$UCSYDIR
 10
0.0
 20
1.0
 30
0.0
  9
$UCSORTHOREF
  2

  9
$UCSORTHOVIEW
 70
     0
  9
$UCSORGTOP
 10
0.0
 20
0.0
 30
0.0
  9
$UCSORGBOTTOM
 10
0.0
 20
0.0
 30
0.0
  9
$UCSORGLEFT
 10
0.0
 20
0.0
 30
0.0
  9
$UCSORGRIGHT
 10
0.0
 20
0.0
 30
0.0
  9
$UCSORGFRONT
 10
0.0
 20
0.0
 30
0.0
  9
$UCSORGBACK
 10
0.0
 20
0.0
 30
0.0
  9
$PUCSBASE
  2

  9
$PUCSNAME
  2

  9
$PUCSORG
 10
0.0
 20
0.0
 30
0.0
  9
$PUCSXDIR
 10
1.0
 20
0.0
 30
0.0
  9
$PUCSYDIR
 10
0.0
 20
1.0
 30
0.0
  9
$PUCSORTHOREF
  2

  9
$PUCSORTHOVIEW
 70
     0
  9
$PUCSORGTOP
 10
0.0
 20
0.0
 30
0.0
  9
$PUCSORGBOTTOM
 10
0.0
 20
0.0
 30
0.0
  9
$PUCSORGLEFT
 10
0.0
 20
0.0
 30
0.0
  9
$PUCSORGRIGHT
 10
0.0
 20
0.0
 30
0.0
  9
$PUCSORGFRONT
 10
0.0
 20
0.0
 30
0.0
  9
$PUCSORGBACK
 10
0.0
 20
0.0
 30
0.0
  9
$USERI1
 70
     0
  9
$USERI2
 70
     0
  9
$USERI3
 70
     0
  9
$USERI4
 70
     0
  9
$USERI5
 70
     0
  9
$USERR1
 40
0.0
  9
$USERR2
 40
0.0
  9
$USERR3
 40
0.0
  9
$USERR4
 40
0.0
  9
$USERR5
 40
0.0
  9
$WORLDVIEW
 70
     1
  9
$SHADEDGE
 70
     3
  9
$SHADEDIF
 70
    70
  9
$TILEMODE
 70
     1
  9
$MAXACTVP
 70
    64
  9
$PINSBASE
 10
0.0
 20
0.0
 30
0.0
  9
$PLIMCHECK
 70
     0
  9
$PEXTMIN
 10
1.000000000000000E+20
 20
1.000000000000000E+20
 30
1.000000000000000E+20
  9
$PEXTMAX
 10
-1.000000000000000E+20
 20
-1.000000000000000E+20
 30
-1.000000000000000E+20
  9
$PLIMMIN
 10
0.0
 20
0.0
  9
$PLIMMAX
 10
0.0
 20
0.0
  9
$UNITMODE
 70
     0
  9
$VISRETAIN
 70
     1
  9
$PLINEGEN
 70
     0
  9
$PSLTSCALE
 70
     1
  9
$TREEDEPTH
 70
  3020
  9
$CMLSTYLE
  2
Standard
  9
$CMLJUST
 70
     0
  9
$CMLSCALE
 40
20.0
  9
$PROXYGRAPHICS
 70
     1
  9
$MEASUREMENT
 70
     1
  9
$CELWEIGHT
370
    -1
  9
$ENDCAPS
280
     0
  9
$JOINSTYLE
280
     0
  9
$LWDISPLAY
290
     1
  9
$INSUNITS
 70
     4
  9
$HYPERLINKBASE
  1

  9
$STYLESHEET
  1

  9
$XEDIT
290
     1
  9
$CEPSNTYPE
380
     0
  9
$PSTYLEMODE
290
     1
  9
$FINGERPRINTGUID
  2
{6FC1ED5B-464E-411A-8F8C-DD39AC611E01}
  9
$VERSIONGUID
  2
{FAEB1C32-E019-11D5-929B-00C0DF256EC4}
  9
$EXTNAMES
290
     1
  9
$PSVPSCALE
 40
0.0
  9
$OLESTARTUP
290
     0
  0
ENDSEC
  0
SECTION
  2
CLASSES
  0
CLASS
  1
ACDBDICTIONARYWDFLT
  2
AcDbDictionaryWithDefault
  3
ObjectDBX Classes
 90
        0
280
     0
281
     0
  0
CLASS
  1
VISUALSTYLE
  2
AcDbVisualStyle
  3
ObjectDBX Classes
 90
     4095
280
     0
281
     0
  0
CLASS
  1
MATERIAL
  2
AcDbMaterial
  3
ObjectDBX Classes
 90
     1153
280
     0
281
     0
  0
CLASS
  1
SCALE
  2
AcDbScale
  3
ObjectDBX Classes
 90
     1153
280
     0
281
     0
  0
CLASS
  1
SUN
  2
AcDbSun
  3
SCENEOE
 90
     1153
280
     0
281
     0
  0
CLASS
  1
ACDBPLACEHOLDER
  2
AcDbPlaceHolder
  3
ObjectDBX Classes
 90
        0
280
     0
281
     0
  0
CLASS
  1
LAYOUT
  2
AcDbLayout
  3
ObjectDBX Classes
 90
        0
280
     0
281
     0
  0
CLASS
  1
TABLESTYLE
  2
AcDbTableStyle
  3
ObjectDBX Classes
 90
     4095
280
     0
281
     0
  0
CLASS
  1
MLEADERSTYLE
  2
AcDbMLeaderStyle
  3
ACDB_MLEADERSTYLE_CLASS
 90
     4095
280
     0
281
     0
  0
CLASS
  1
RASTERVARIABLES
  2
AcDbRasterVariables
  3
ISM
 90
        0
280
     0
281
     0
  0
ENDSEC
  0
SECTION
  2
TABLES
  0
TABLE
  2
VPORT
  5
8
330
0
100
AcDbSymbolTable
 70
     1
  0
VPORT
  5
29
330
8
100
AcDbSymbolTableRecord
100
AcDbViewportTableRecord
  2
*Active
 70
     0
 10
0.0
 20
0.0
 11
1.0
 21
1.0
 12
1.086707172885458
 22
0.9430873602752392
 13
0.0
 23
0.0
 14
10.0
 24
10.0
 15
10.0
 25
10.0
 16
0.0
 26
0.0
 36
1.0
 17
0.0
 27
0.0
 37
0.0
 40
66.65741377230167
 41
1.519944979367263
 42
50.0
 43
0.0
 44
0.0
 50
0.0
 51
0.0
 71
    16
 72
  2000
 73
     1
 74
     3
 75
     0
 76
     0
 77
     0
 78
     0
281
     0
 65
     1
110
0.0
120
0.0
130
0.0
111
1.0
121
0.0
131
0.0
112
0.0
122
1.0
132
0.0
 79
     0
146
0.0
  0
ENDTAB
  0
TABLE
  2
LTYPE
  5
5
330
0
100
AcDbSymbolTable
 70
     6
  0
LTYPE
  5
14
330
5
100
AcDbSymbolTableRecord
100
AcDbLinetypeTableRecord
  2
ByBlock
 70
     0
  3

 72
    65
 73
     0
 40
0.0
  0
LTYPE
  5
15
330
5
100
AcDbSymbolTableRecord
100
AcDbLinetypeTableRecord
  2
ByLayer
 70
     0
  3

 72
    65
 73
     0
 40
0.0
  0
LTYPE
  5
16
330
5
100
AcDbSymbolTableRecord
100
AcDbLinetypeTableRecord
  2
Continuous
 70
     0
  3
Solid line
 72
    65
 73
     0
 40
0.0
  0
LTYPE
  5
6A
330
5
100
AcDbSymbolTableRecord
100
AcDbLinetypeTableRecord
  2
HIDDEN
 70
     0
  3
Hidden __ __ __ __ __ __ __ __ __ __ __ __ __ __
 72
    65
 73
     2
 40
1.905
 49
1.27
 74
     0
 49
-0.635
 74
     0
  0
LTYPE
  5
6B
330
5
100
AcDbSymbolTableRecord
100
AcDbLinetypeTableRecord
  2
PHANTOM
 70
     0
  3
Phantom ______  __  __  ______  __  __  ______
 72
    65
 73
     6
 40
12.7
 49
6.35
 74
     0
 49
-1.27
 74
     0
 49
1.27
 74
     0
 49
-1.27
 74
     0
 49
1.27
 74
     0
 49
-1.27
 74
     0
  0
LTYPE
  5
6C
330
5
100
AcDbSymbolTableRecord
100
AcDbLinetypeTableRecord
  2
CENTER
 70
     0
  3
Center ____ _ ____ _ ____ _ ____ _ ____ _ ____
 72
    65
 73
     4
 40
10.16
 49
6.35
 74
     0
 49
-1.27
 74
     0
 49
1.27
 74
     0
 49
-1.27
 74
     0
  0
LTYPE
  5
6D
330
5
100
AcDbSymbolTableRecord
100
AcDbLinetypeTableRecord
  2
CENTERX2
 70
     0
  3
Center (2x) ________  __  ________  __  _____
 72
    65
 73
     4
 40
20.32
 49
12.7
 74
     0
 49
-2.54
 74
     0
 49
2.54
 74
     0
 49
-2.54
 74
     0
  0
LTYPE
  5
6E
330
5
100
AcDbSymbolTableRecord
100
AcDbLinetypeTableRecord
  2
DOT2
 70
     0
  3
Dot (.5x) ........................................
 72
    65
 73
     2
 40
0.635
 49
0.0
 74
     0
 49
-0.635
 74
     0
  0
ENDTAB
  0
TABLE
  2
LAYER
  5
2
330
0
100
AcDbSymbolTable
 70
    18
  0
LAYER
  5
10
330
2
100
AcDbSymbolTableRecord
100
AcDbLayerTableRecord
  2
0
 70
     0
 62
     7
  6
Continuous
370
    -3
390
F
  0
LAYER
  5
6F
330
2
100
AcDbSymbolTableRecord
100
AcDbLayerTableRecord
  2
FORMAT
 70
     0
 62
     2
  6
Continuous
370
    -3
390
F
  0
LAYER
  5
70
330
2
100
AcDbSymbolTableRecord
100
AcDbLayerTableRecord
  2
외형선
 70
     0
 62
     4
  6
Continuous
370
    30
390
F
  0
LAYER
  5
71
330
2
100
AcDbSymbolTableRecord
100
AcDbLayerTableRecord
  2
숨은선
 70
     0
 62
     2
  6
HIDDEN
370
    15
390
F
  0
LAYER
  5
72
330
2
100
AcDbSymbolTableRecord
100
AcDbLayerTableRecord
  2
중심선
 70
     0
 62
     1
  6
CENTERX2
370
    -3
390
F
  0
LAYER
  5
73
330
2
100
AcDbSymbolTableRecord
100
AcDbLayerTableRecord
  2
파단선
 70
     0
 62
     4
  6
Continuous
370
    -3
390
F
  0
LAYER
  5
74
330
2
100
AcDbSymbolTableRecord
100
AcDbLayerTableRecord
  2
해칭선
 70
     0
 62
   100
  6
Continuous
370
    -3
390
F
  0
LAYER
  5
75
330
2
100
AcDbSymbolTableRecord
100
AcDbLayerTableRecord
  2
가는실선
 70
     0
 62
     4
  6
Continuous
370
    -3
390
F
  0
LAYER
  5
76
330
2
100
AcDbSymbolTableRecord
100
AcDbLayerTableRecord
  2
치수_보조선
 70
     0
 62
     4
  6
Continuous
370
    -3
390
F
  0
LAYER
  5
77
330
2
100
AcDbSymbolTableRecord
100
AcDbLayerTableRecord
  2
치수문자_일반주서
 70
     0
 62
     7
  6
Continuous
370
    15
390
F
  0
LAYER
  5
78
330
2
100
AcDbSymbolTableRecord
100
AcDbLayerTableRecord
  2
개별주서
 70
     0
 62
   100
  6
Continuous
370
    30
390
F
  0
LAYER
  5
79
330
2
100
AcDbSymbolTableRecord
100
AcDbLayerTableRecord
  2
중간선
 70
     0
 62
     2
  6
Continuous
370
    15
390
F
  0
LAYER
  5
7A
330
2
100
AcDbSymbolTableRecord
100
AcDbLayerTableRecord
  2
윤곽선
 70
     0
 62
     3
  6
Continuous
370
    40
390
F
  0
LAYER
  5
7B
330
2
100
AcDbSymbolTableRecord
100
AcDbLayerTableRecord
  2
중심마크
 70
     0
 62
   100
  6
Continuous
370
    30
390
F
  0
LAYER
  5
7C
330
2
100
AcDbSymbolTableRecord
100
AcDbLayerTableRecord
  2
가상선
 70
     0
 62
     4
  6
PHANTOM
370
    -3
390
F
  0
LAYER
  5
7D
330
2
100
AcDbSymbolTableRecord
100
AcDbLayerTableRecord
  2
특수지정선
 70
     0
 62
     5
  6
CENTERX2
370
    60
390
F
  0
LAYER
  5
7E
330
2
100
AcDbSymbolTableRecord
100
AcDbLayerTableRecord
  2
참조1
 70
     0
 62
    -4
  6
Continuous
370
    -3
390
F
  0
LAYER
  5
15D
330
2
100
AcDbSymbolTableRecord
100
AcDbLayerTableRecord
  2
Defpoints
 70
     0
 62
     7
  6
Continuous
290
     0
370
    -3
390
F
  0
ENDTAB
  0
TABLE
  2
STYLE
  5
3
330
0
100
AcDbSymbolTable
 70
     2
  0
STYLE
  5
11
330
3
100
AcDbSymbolTableRecord
100
AcDbTextStyleTableRecord
  2
Standard
 70
     0
 40
0.0
 41
1.0
 50
0.0
 71
     0
 42
3.5
  3
txt
  4

  0
STYLE
  5
94
330
3
100
AcDbSymbolTableRecord
100
AcDbTextStyleTableRecord
  2
SLDTEXTSTYLE0
 70
     0
 40
0.0
 41
0.75
 50
0.0
 71
     0
 42
3.5
  3
TXT
  4

  0
ENDTAB
  0
TABLE
  2
VIEW
  5
6
330
0
100
AcDbSymbolTable
 70
     0
  0
ENDTAB
  0
TABLE
  2
UCS
  5
7
330
0
100
AcDbSymbolTable
 70
     0
  0
ENDTAB
  0
TABLE
  2
APPID
  5
9
330
0
100
AcDbSymbolTable
 70
     3
  0
APPID
  5
12
330
9
100
AcDbSymbolTableRecord
100
AcDbRegAppTableRecord
  2
ACAD
 70
     0
  0
APPID
  5
340
330
9
100
AcDbSymbolTableRecord
100
AcDbRegAppTableRecord
  2
ACAD_DSTYLE_DIMFLIPARROW_SYMBOL
 70
     0
  0
APPID
  5
341
330
9
100
AcDbSymbolTableRecord
100
AcDbRegAppTableRecord
  2
ACAD_DSTYLE_DIMFLIPARROW_WHICH_SYMBOL
 70
     0
  0
ENDTAB
  0
TABLE
  2
DIMSTYLE
  5
A
330
0
100
AcDbSymbolTable
 70
     3
100
AcDbDimStyleTable
  0
DIMSTYLE
105
27
330
A
100
AcDbSymbolTableRecord
100
AcDbDimStyleTableRecord
  2
ISO-25
 70
     0
 41
2.5
 42
0.625
 43
3.75
 44
1.25
 73
     0
 74
     0
 77
     1
 78
     8
140
2.5
141
2.5
143
0.03937007874016
147
0.625
171
     3
172
     1
178
     0
271
     2
272
     2
274
     3
278
    44
283
     0
284
     8
340
11
  0
DIMSTYLE
105
D9
102
{ACAD_REACTORS
330
D8
330
ED
330
101
330
29C
330
29D
330
29E
330
29F
330
116
102
}
330
A
100
AcDbSymbolTableRecord
100
AcDbDimStyleTableRecord
  2
SLDDIMSTYLE0
 70
     0
 41
3.302
 44
0.0
 45
0.000000001
 73
     0
 74
     0
 77
     1
 78
    12
 79
     3
140
3.5
143
0.0393700787401575
147
0.875
148
0.000000001
170
     1
172
     1
173
     1
178
     0
271
     2
272
     2
276
     2
284
    12
289
     0
340
94
  0
DIMSTYLE
105
117
330
A
100
AcDbSymbolTableRecord
100
AcDbDimStyleTableRecord
  2
SLDDIMSTYLE1
 70
     0
 41
3.302
 44
0.0
 45
0.000000001
 73
     0
 74
     0
 77
     1
 78
     4
 79
     1
140
3.5
143
0.0393700787401575
147
0.875
148
0.000000001
170
     1
173
     1
178
     0
271
     2
272
     2
276
     2
284
    12
340
94
  0
ENDTAB
  0
TABLE
  2
BLOCK_RECORD
  5
1
330
0
100
AcDbSymbolTable
 70
    18
  0
BLOCK_RECORD
  5
1F
102
{ACAD_XDICTIONARY
360
363
102
}
330
1
100
AcDbSymbolTableRecord
100
AcDbBlockTableRecord
  2
*Model_Space
340
22
  0
BLOCK_RECORD
  5
1B
330
1
100
AcDbSymbolTableRecord
100
AcDbBlockTableRecord
  2
*Paper_Space
340
1E
  0
BLOCK_RECORD
  5
23
330
1
100
AcDbSymbolTableRecord
100
AcDbBlockTableRecord
  2
*Paper_Space0
340
26
  0
BLOCK_RECORD
  5
7F
330
1
100
AcDbSymbolTableRecord
100
AcDbBlockTableRecord
  2
블럭10
340
0
102
{BLKREFS
331
D1
102
}
  0
BLOCK_RECORD
  5
DA
330
1
100
AcDbSymbolTableRecord
100
AcDbBlockTableRecord
  2
_D
340
0
  0
BLOCK_RECORD
  5
EE
330
1
100
AcDbSymbolTableRecord
100
AcDbBlockTableRecord
  2
_D_1
340
0
  0
BLOCK_RECORD
  5
102
330
1
100
AcDbSymbolTableRecord
100
AcDbBlockTableRecord
  2
_D_2
340
0
  0
BLOCK_RECORD
  5
118
330
1
100
AcDbSymbolTableRecord
100
AcDbBlockTableRecord
  2
_D_3
340
0
  0
BLOCK_RECORD
  5
131
330
1
100
AcDbSymbolTableRecord
100
AcDbBlockTableRecord
  2
SW_DOWELSYMBOL_0
340
0
102
{BLKREFS
331
137
331
2A0
102
}
  0
BLOCK_RECORD
  5
217
330
1
100
AcDbSymbolTableRecord
100
AcDbBlockTableRecord
  2
*D7
340
0
  0
BLOCK_RECORD
  5
226
330
1
100
AcDbSymbolTableRecord
100
AcDbBlockTableRecord
  2
*D8
340
0
  0
BLOCK_RECORD
  5
232
330
1
100
AcDbSymbolTableRecord
100
AcDbBlockTableRecord
  2
*D9
340
0
  0
BLOCK_RECORD
  5
241
330
1
100
AcDbSymbolTableRecord
100
AcDbBlockTableRecord
  2
*D10
340
0
  0
BLOCK_RECORD
  5
2A2
330
1
100
AcDbSymbolTableRecord
100
AcDbBlockTableRecord
  2
*D11
340
0
  0
BLOCK_RECORD
  5
2B1
330
1
100
AcDbSymbolTableRecord
100
AcDbBlockTableRecord
  2
*D12
340
0
  0
BLOCK_RECORD
  5
2BD
330
1
100
AcDbSymbolTableRecord
100
AcDbBlockTableRecord
  2
*D13
340
0
  0
BLOCK_RECORD
  5
2CC
330
1
100
AcDbSymbolTableRecord
100
AcDbBlockTableRecord
  2
*D14
340
0
  0
BLOCK_RECORD
  5
312
330
1
100
AcDbSymbolTableRecord
100
AcDbBlockTableRecord
  2
*D15
340
0
  0
BLOCK_RECORD
  5
321
330
1
100
AcDbSymbolTableRecord
100
AcDbBlockTableRecord
  2
*D16
340
0
  0
BLOCK_RECORD
  5
330
330
1
100
AcDbSymbolTableRecord
100
AcDbBlockTableRecord
  2
*D17
340
0
  0
ENDTAB
  0
ENDSEC
  0
SECTION
  2
BLOCKS
  0
BLOCK
  5
20
330
1F
100
AcDbEntity
  8
0
100
AcDbBlockBegin
  2
*Model_Space
 70
     0
 10
0.0
 20
0.0
 30
0.0
  3
*Model_Space
  1
*Model_Space
  0
ENDBLK
  5
21
330
1F
100
AcDbEntity
  8
0
100
AcDbBlockEnd
  0
BLOCK
  5
1C
330
1B
100
AcDbEntity
 67
     1
  8
0
100
AcDbBlockBegin
  2
*Paper_Space
 70
     0
 10
0.0
 20
0.0
 30
0.0
  3
*Paper_Space
  1
*Paper_Space
  0
ENDBLK
  5
1D
330
1B
100
AcDbEntity
 67
     1
  8
0
100
AcDbBlockEnd
  0
BLOCK
  5
24
330
23
100
AcDbEntity
  8
0
100
AcDbBlockBegin
  2
*Paper_Space0
 70
     0
 10
0.0
 20
0.0
 30
0.0
  3
*Paper_Space0
  1
*Paper_Space0
  0
ENDBLK
  5
25
330
23
100
AcDbEntity
  8
0
100
AcDbBlockEnd
  0
BLOCK
  5
80
330
7F
100
AcDbEntity
  8
0
100
AcDbBlockBegin
  2
블럭10
 70
     2
 10
0.0
 20
0.0
 30
0.0
  3
블럭10
  1
블럭10
  0
ELLIPSE
  5
82
330
7F
100
AcDbEntity
  8
중심선
100
AcDbEllipse
 10
20.54032771741204
 20
12.0471743016438
 30
0.0
 11
6.600054785286829
 21
-1.261213355974178E-13
 31
0.0
210
0.0
220
0.0
230
1.0
 40
0.636358354079598
 41
0.9219305317359503
 42
6.513795318482858
  0
ELLIPSE
  5
83
330
7F
100
AcDbEntity
  8
중심선
100
AcDbEllipse
 10
20.54032771746488
 20
12.04717430159265
 30
0.0
 11
3.960054785062283
 21
1.540847449632565E-10
 31
0.0
210
0.0
220
0.0
230
1.0
 40
0.3939339440162632
 41
1.131841032648279
 42
5.62031148352944
  0
LINE
  5
84
330
7F
100
AcDbEntity
  8
중심선
100
AcDbLine
 10
2.268634060543552
 20
16.24717430164393
 30
0.0
 11
5.714909304380834
 21
16.24717430164393
 31
0.0
  0
LINE
  5
85
330
7F
100
AcDbEntity
  8
중심선
100
AcDbLine
 10
5.245725140726316
 20
7.84717430164391
 30
0.0
 11
8.692000384563599
 21
7.84717430164391
 31
0.0
  0
LINE
  5
86
330
7F
100
AcDbEntity
  8
중심선
100
AcDbLine
 10
15.74043728645272
 20
16.24717430164393
 30
0.0
 11
8.692000384563599
 21
7.84717430164391
 31
0.0
  0
LINE
  5
87
330
7F
100
AcDbEntity
  8
중심선
100
AcDbLine
 10
0.1404042013395286
 20
13.71084872107135
 30
0.0
 11
3.58671253028996
 21
13.71088815037384
 31
0.0
  0
LINE
  5
88
330
7F
100
AcDbEntity
  8
중심선
100
AcDbLine
 10
2.750260043222114
 20
10.84717430164391
 30
0.0
 11
6.196535287059397
 21
10.84717430164391
 31
0.0
  0
LINE
  5
89
330
7F
100
AcDbEntity
  8
중심선
100
AcDbLine
 10
12.29416204261559
 20
16.24717430164393
 30
0.0
 11
5.245725140726316
 21
7.84717430164391
 31
0.0
  0
LINE
  5
8A
330
7F
100
AcDbEntity
  8
중심선
100
AcDbLine
 10
10.72767329541681
 20
16.24717430164393
 30
0.0
 11
6.196535287059397
 21
10.84717430164391
 31
0.0
  0
LINE
  5
8B
330
7F
100
AcDbEntity
  8
중심선
100
AcDbLine
 10
7.28139805157953
 20
16.24717430164393
 30
0.0
 11
2.750260043222114
 21
10.84717430164391
 31
0.0
  0
LINE
  5
8C
330
7F
100
AcDbEntity
  8
중심선
100
AcDbLine
 10
5.714909304380834
 20
16.24717430164393
 30
0.0
 11
3.58671253028996
 21
13.71088815037384
 31
0.0
  0
LINE
  5
8D
330
7F
100
AcDbEntity
  8
중심선
100
AcDbLine
 10
2.268634060543552
 20
16.24717430164393
 30
0.0
 11
0.1404042013395286
 21
13.71084872107135
 31
0.0
  0
LINE
  5
8E
330
7F
100
AcDbEntity
  8
중심선
100
AcDbLine
 10
7.28139805157953
 20
16.24717430164393
 30
0.0
 11
10.72767329541681
 21
16.24717430164393
 31
0.0
  0
LINE
  5
8F
330
7F
100
AcDbEntity
  8
중심선
100
AcDbLine
 10
12.29416204261559
 20
16.24717430164393
 30
0.0
 11
15.74043728645272
 21
16.24717430164393
 31
0.0
  0
LINE
  5
90
330
7F
100
AcDbEntity
  8
중심선
100
AcDbLine
 10
19.22036997980202
 20
11.08717430171403
 30
0.0
 11
23.66174974927406
 21
11.08717430171406
 31
0.0
  0
LINE
  5
91
330
7F
100
AcDbEntity
  8
중심선
100
AcDbLine
 10
19.22039502424796
 20
13.00717430171391
 30
0.0
 11
19.22036997980202
 21
11.08717430171403
 31
0.0
  0
LINE
  5
92
330
7F
100
AcDbEntity
  8
중심선
100
AcDbLine
 10
19.22039502424796
 20
13.00717430171391
 30
0.0
 11
26.96566020931264
 21
13.00717430171391
 31
0.0
  0
LINE
  5
93
330
7F
100
AcDbEntity
  8
중심선
100
AcDbLine
 10
22.22332737316547
 20
13.45928029700563
 30
0.0
 11
24.52862924686651
 21
15.39360700705356
 31
0.0
  0
ATTDEF
  5
95
330
7F
100
AcDbEntity
  8
FORMAT
 62
     2
100
AcDbText
 10
4.408487351596664
 20
2.075366912832191
 30
0.0
 40
4.233333333333333
  1
E5022004
 41
0.75
  7
SLDTEXTSTYLE0
 11
4.408487351596664
 21
-0.0412997538344756
 31
0.0
100
AcDbAttributeDefinition
  3

  2
AUTOATTR0
 70
     0
 74
     1
  0
ENDBLK
  5
81
330
7F
100
AcDbEntity
  8
0
100
AcDbBlockEnd
  0
BLOCK
  5
DB
330
DA
100
AcDbEntity
  8
0
100
AcDbBlockBegin
  2
_D
 70
     0
 10
0.0
 20
0.0
 30
0.0
  3
_D
  1
_D
  0
LINE
  5
DD
330
DA
100
AcDbEntity
  8
치수문자_일반주서
 62
     0
370
    -2
100
AcDbLine
 10
-11.97518467149219
 20
1.587500000000001
 30
0.0
 11
-25.89086399581693
 21
1.587499999999951
 31
0.0
  0
LINE
  5
DE
330
DA
100
AcDbEntity
  8
치수문자_일반주서
 62
     0
370
    -2
100
AcDbLine
 10
-11.97518467149219
 20
-1.587500000000003
 30
0.0
 11
-25.89086399581692
 21
-1.587500000000055
 31
0.0
  0
LINE
  5
DF
330
DA
100
AcDbEntity
  8
치수문자_일반주서
 62
     0
370
    -2
100
AcDbLine
 10
-25.89086399581693
 20
1.587499999999951
 30
0.0
 11
-25.89086399581701
 21
24.74374999999997
 31
0.0
  0
LINE
  5
E0
330
DA
100
AcDbEntity
  8
치수문자_일반주서
 62
     0
370
    -2
100
AcDbLine
 10
-25.89086399581693
 20
1.587499999999951
 30
0.0
 11
-25.89086399581692
 21
-1.587500000000055
 31
0.0
  0
LINE
  5
E1
330
DA
100
AcDbEntity
  8
치수문자_일반주서
 62
     0
370
    -2
100
AcDbLine
 10
-25.89086399581694
 20
4.087499999999951
 30
0.0
 11
-25.89086399581694
 21
6.587499999999951
 31
0.0
  0
LINE
  5
E2
330
DA
100
AcDbEntity
  8
치수문자_일반주서
 62
     0
370
    -2
100
AcDbLine
 10
-25.89086399581691
 20
-4.087500000000055
 30
0.0
 11
-25.8908639958169
 21
-6.587500000000055
 31
0.0
  0
SOLID
  5
E3
330
DA
100
AcDbEntity
  8
치수문자_일반주서
 62
     0
100
AcDbTrace
 10
-26.3075306624836
 20
4.087499999999949
 30
0.0
 11
-25.47419732915027
 21
4.087499999999952
 31
0.0
 12
-25.89086399581693
 22
1.587499999999951
 32
0.0
 13
-25.89086399581693
 23
1.587499999999951
 33
0.0
  0
SOLID
  5
E4
330
DA
100
AcDbEntity
  8
치수문자_일반주서
 62
     0
100
AcDbTrace
 10
-25.47419732915024
 20
-4.087500000000054
 30
0.0
 11
-26.30753066248358
 21
-4.087500000000057
 31
0.0
 12
-25.89086399581692
 22
-1.587500000000055
 32
0.0
 13
-25.89086399581692
 23
-1.587500000000055
 33
0.0
  0
MTEXT
  5
E5
330
DA
100
AcDbEntity
  8
치수문자_일반주서
 62
     0
100
AcDbMText
 10
-29.26586399581698
 20
15.74374999999996
 30
0.0
 40
2.5
 41
0.0
 71
     2
 72
     1
  1
\A1;%%c3.18 [1/8]
  7
SLDTEXTSTYLE0
 11
-3.356894814614642E-15
 21
1.0
 31
0.0
 73
     1
 44
1.0
  0
POINT
  5
2DA
330
DA
100
AcDbEntity
  8
Defpoints
 62
     0
100
AcDbPoint
 10
-11.91268467149219
 20
1.587500000000002
 30
0.0
  0
POINT
  5
2DB
330
DA
100
AcDbEntity
  8
Defpoints
 62
     0
100
AcDbPoint
 10
-11.91268467149219
 20
-1.587500000000003
 30
0.0
  0
POINT
  5
2DC
330
DA
100
AcDbEntity
  8
Defpoints
 62
     0
100
AcDbPoint
 10
-25.89086399581692
 20
-1.587500000000055
 30
0.0
  0
ENDBLK
  5
DC
330
DA
100
AcDbEntity
  8
0
100
AcDbBlockEnd
  0
BLOCK
  5
EF
330
EE
100
AcDbEntity
  8
0
100
AcDbBlockBegin
  2
_D_1
 70
     0
 10
0.0
 20
0.0
 30
0.0
  3
_D_1
  1
_D_1
  0
LINE
  5
F1
330
EE
100
AcDbEntity
  8
치수문자_일반주서
 62
     0
370
    -2
100
AcDbLine
 10
19.1125
 20
-0.7930791345885277
 30
0.0
 11
30.67415210704144
 21
-0.7930791345884849
 31
0.0
  0
LINE
  5
F2
330
EE
100
AcDbEntity
  8
치수문자_일반주서
 62
     0
370
    -2
100
AcDbLine
 10
19.1125
 20
0.7930791345885314
 30
0.0
 11
30.67415210704143
 21
0.7930791345885737
 31
0.0
  0
LINE
  5
F3
330
EE
100
AcDbEntity
  8
치수문자_일반주서
 62
     0
370
    -2
100
AcDbLine
 10
30.67415210704143
 20
0.7930791345885737
 30
0.0
 11
30.67415210704133
 21
25.04307913458857
 31
0.0
  0
LINE
  5
F4
330
EE
100
AcDbEntity
  8
치수문자_일반주서
 62
     0
370
    -2
100
AcDbLine
 10
30.67415210704144
 20
-0.7930791345884849
 30
0.0
 11
30.67415210704143
 21
0.7930791345885737
 31
0.0
  0
LINE
  5
F5
330
EE
100
AcDbEntity
  8
치수문자_일반주서
 62
     0
370
    -2
100
AcDbLine
 10
30.67415210704145
 20
-3.293079134588485
 30
0.0
 11
30.67415210704146
 21
-5.793079134588485
 31
0.0
  0
LINE
  5
F6
330
EE
100
AcDbEntity
  8
치수문자_일반주서
 62
     0
370
    -2
100
AcDbLine
 10
30.67415210704142
 20
3.293079134588574
 30
0.0
 11
30.67415210704141
 21
5.793079134588574
 31
0.0
  0
SOLID
  5
F7
330
EE
100
AcDbEntity
  8
치수문자_일반주서
 62
     0
100
AcDbTrace
 10
31.09081877370812
 20
-3.293079134588483
 30
0.0
 11
30.25748544037478
 21
-3.293079134588487
 31
0.0
 12
30.67415210704144
 22
-0.7930791345884849
 32
0.0
 13
30.67415210704144
 23
-0.7930791345884849
 33
0.0
  0
SOLID
  5
F8
330
EE
100
AcDbEntity
  8
치수문자_일반주서
 62
     0
100
AcDbTrace
 10
30.25748544037475
 20
3.293079134588572
 30
0.0
 11
31.09081877370809
 21
3.293079134588575
 31
0.0
 12
30.67415210704143
 22
0.7930791345885737
 32
0.0
 13
30.67415210704143
 23
0.7930791345885737
 33
0.0
  0
MTEXT
  5
F9
330
EE
100
AcDbEntity
  8
치수문자_일반주서
 62
     0
100
AcDbMText
 10
27.29915210704137
 20
15.41807913458856
 30
0.0
 40
2.5
 41
0.0
 71
     2
 72
     1
  1
\A1;%%c1.59 [1/16]
  7
SLDTEXTSTYLE0
 11
-4.479645881294989E-15
 21
1.0
 31
0.0
 73
     1
 44
1.0
  0
POINT
  5
FA
330
EE
100
AcDbEntity
  8
Defpoints
 62
     0
100
AcDbPoint
 10
19.05
 20
-0.793079134588528
 30
0.0
  0
POINT
  5
FB
330
EE
100
AcDbEntity
  8
Defpoints
 62
     0
100
AcDbPoint
 10
19.05
 20
0.7930791345885312
 30
0.0
  0
POINT
  5
FC
330
EE
100
AcDbEntity
  8
Defpoints
 62
     0
100
AcDbPoint
 10
30.67415210704143
 20
0.7930791345885746
 30
0.0
  0
ENDBLK
  5
F0
330
EE
100
AcDbEntity
  8
0
100
AcDbBlockEnd
  0
BLOCK
  5
103
330
102
100
AcDbEntity
  8
0
100
AcDbBlockBegin
  2
_D_2
 70
     0
 10
0.0
 20
0.0
 30
0.0
  3
_D_2
  1
_D_2
  0
LINE
  5
105
330
102
100
AcDbEntity
  8
치수문자_일반주서
 62
     0
370
    -2
100
AcDbLine
 10
19.05
 20
0.8555791345885312
 30
0.0
 11
19.05
 21
13.92322409431372
 31
0.0
  0
LINE
  5
106
330
102
100
AcDbEntity
  8
치수문자_일반주서
 62
     0
370
    -2
100
AcDbLine
 10
15.87500000000001
 20
0.7545954865548777
 30
0.0
 11
15.87500000000001
 21
13.92322409431372
 31
0.0
  0
LINE
  5
107
330
102
100
AcDbEntity
  8
치수문자_일반주서
 62
     0
370
    -2
100
AcDbLine
 10
15.87500000000001
 20
13.92322409431372
 30
0.0
 11
-5.406249999999991
 21
13.92322409431372
 31
0.0
  0
LINE
  5
108
330
102
100
AcDbEntity
  8
치수문자_일반주서
 62
     0
370
    -2
100
AcDbLine
 10
19.05
 20
13.92322409431372
 30
0.0
 11
15.87500000000001
 21
13.92322409431372
 31
0.0
  0
LINE
  5
109
330
102
100
AcDbEntity
  8
치수문자_일반주서
 62
     0
370
    -2
100
AcDbLine
 10
21.55
 20
13.92322409431372
 30
0.0
 11
24.05
 21
13.92322409431372
 31
0.0
  0
LINE
  5
10A
330
102
100
AcDbEntity
  8
치수문자_일반주서
 62
     0
370
    -2
100
AcDbLine
 10
13.37500000000001
 20
13.92322409431372
 30
0.0
 11
10.87500000000001
 21
13.92322409431372
 31
0.0
  0
SOLID
  5
10B
330
102
100
AcDbEntity
  8
치수문자_일반주서
 62
     0
100
AcDbTrace
 10
21.55
 20
14.33989076098039
 30
0.0
 11
21.55
 21
13.50655742764705
 31
0.0
 12
19.05
 22
13.92322409431372
 32
0.0
 13
19.05
 23
13.92322409431372
 33
0.0
  0
SOLID
  5
10C
330
102
100
AcDbEntity
  8
치수문자_일반주서
 62
     0
100
AcDbTrace
 10
13.37500000000001
 20
13.50655742764705
 30
0.0
 11
13.37500000000001
 21
14.33989076098039
 31
0.0
 12
15.87500000000001
 22
13.92322409431372
 32
0.0
 13
15.87500000000001
 23
13.92322409431372
 33
0.0
  0
MTEXT
  5
10D
330
102
100
AcDbEntity
  8
치수문자_일반주서
 62
     0
100
AcDbMText
 10
2.656250000000009
 20
17.29822409431372
 30
0.0
 40
2.5
 41
0.0
 71
     2
 72
     1
  1
\A1;3.18 [1/8]
  7
SLDTEXTSTYLE0
 73
     1
 44
1.0
  0
POINT
  5
10E
330
102
100
AcDbEntity
  8
Defpoints
 62
     0
100
AcDbPoint
 10
19.05
 20
0.7930791345885312
 30
0.0
  0
POINT
  5
10F
330
102
100
AcDbEntity
  8
Defpoints
 62
     0
100
AcDbPoint
 10
15.87500000000001
 20
0.6920954865548777
 30
0.0
  0
POINT
  5
110
330
102
100
AcDbEntity
  8
Defpoints
 62
     0
100
AcDbPoint
 10
15.87500000000001
 20
13.92322409431372
 30
0.0
  0
ENDBLK
  5
104
330
102
100
AcDbEntity
  8
0
100
AcDbBlockEnd
  0
BLOCK
  5
119
330
118
100
AcDbEntity
  8
0
100
AcDbBlockBegin
  2
_D_3
 70
     0
 10
0.0
 20
0.0
 30
0.0
  3
_D_3
  1
_D_3
  0
LINE
  5
11B
330
118
100
AcDbEntity
  8
치수문자_일반주서
 62
     0
370
    -2
100
AcDbLine
 10
-19.04999999999998
 20
0.8555791345885272
 30
0.0
 11
-19.04999999999998
 21
24.46362398784126
 31
0.0
  0
LINE
  5
11C
330
118
100
AcDbEntity
  8
치수문자_일반주서
 62
     0
370
    -2
100
AcDbLine
 10
19.05
 20
0.8555791345885312
 30
0.0
 11
19.05000000000001
 21
24.46362398784126
 31
0.0
  0
LINE
  5
11D
330
118
100
AcDbEntity
  8
치수문자_일반주서
 62
     0
370
    -2
100
AcDbLine
 10
-16.54999999999998
 20
24.46362398784126
 30
0.0
 11
16.55000000000001
 21
24.46362398784126
 31
0.0
  0
SOLID
  5
11E
330
118
100
AcDbEntity
  8
치수문자_일반주서
 62
     0
100
AcDbTrace
 10
-16.54999999999998
 20
24.88029065450793
 30
0.0
 11
-16.54999999999998
 21
24.0469573211746
 31
0.0
 12
-19.04999999999998
 22
24.46362398784126
 32
0.0
 13
-19.04999999999998
 23
24.46362398784126
 33
0.0
  0
SOLID
  5
11F
330
118
100
AcDbEntity
  8
치수문자_일반주서
 62
     0
100
AcDbTrace
 10
16.55000000000001
 20
24.0469573211746
 30
0.0
 11
16.55000000000001
 21
24.88029065450793
 31
0.0
 12
19.05000000000001
 22
24.46362398784126
 32
0.0
 13
19.05000000000001
 23
24.46362398784126
 33
0.0
  0
MTEXT
  5
120
330
118
100
AcDbEntity
  8
치수문자_일반주서
 62
     0
100
AcDbMText
 10
1.562861299583291
 20
27.83862398784126
 30
0.0
 40
2.5
 41
0.0
 71
     2
 72
     1
  1
\A1;38.1 [1 1/2]
  7
SLDTEXTSTYLE0
 73
     1
 44
1.0
  0
POINT
  5
121
330
118
100
AcDbEntity
  8
Defpoints
 62
     0
100
AcDbPoint
 10
-19.04999999999998
 20
0.7930791345885272
 30
0.0
  0
POINT
  5
122
330
118
100
AcDbEntity
  8
Defpoints
 62
     0
100
AcDbPoint
 10
19.05
 20
0.7930791345885312
 30
0.0
  0
POINT
  5
123
330
118
100
AcDbEntity
  8
Defpoints
 62
     0
100
AcDbPoint
 10
19.05
 20
24.46362398784126
 30
0.0
  0
ENDBLK
  5
11A
330
118
100
AcDbEntity
  8
0
100
AcDbBlockEnd
  0
BLOCK
  5
132
330
131
100
AcDbEntity
  8
0
100
AcDbBlockBegin
  2
SW_DOWELSYMBOL_0
 70
     0
 10
0.0
 20
0.0
 30
0.0
  3
SW_DOWELSYMBOL_0
  1
SW_DOWELSYMBOL_0
  0
CIRCLE
  5
134
330
131
100
AcDbEntity
  8
해칭선
 62
     0
100
AcDbCircle
 10
0.0
 20
0.0
 30
0.0
 40
3.000000000000001
  0
HATCH
  5
135
330
131
100
AcDbEntity
  8
0
  6
Continuous
 62
     0
370
     0
100
AcDbHatch
 10
0.0
 20
0.0
 30
0.0
210
0.0
220
0.0
230
1.0
  2
SOLID
 70
     1
 71
     0
 91
        1
 92
        0
 93
        3
 72
     2
 10
0.0
 20
0.0
 40
3.000000000000001
 50
0.0
 51
90.0
 73
     1
 72
     1
 10
0.0
 20
3.000000000000001
 11
0.0
 21
0.0
 72
     1
 10
0.0
 20
0.0
 11
3.000000000000001
 21
0.0
 97
        0
 75
     0
 76
     1
 98
        1
 10
0.0
 20
0.0
  0
HATCH
  5
136
330
131
100
AcDbEntity
  8
0
  6
Continuous
 62
     0
370
     0
100
AcDbHatch
 10
0.0
 20
0.0
 30
0.0
210
0.0
220
0.0
230
1.0
  2
SOLID
 70
     1
 71
     0
 91
        1
 92
        0
 93
        3
 72
     2
 10
0.0
 20
0.0
 40
3.000000000000001
 50
180.0
 51
270.0000000000007
 73
     1
 72
     1
 10
0.0
 20
-3.000000000000001
 11
0.0
 21
0.0
 72
     1
 10
0.0
 20
0.0
 11
-3.000000000000001
 21
0.0
 97
        0
 75
     0
 76
     1
 98
        1
 10
0.0
 20
0.0
  0
ENDBLK
  5
133
330
131
100
AcDbEntity
  8
0
100
AcDbBlockEnd
  0
BLOCK
  5
218
330
217
100
AcDbEntity
  8
0
100
AcDbBlockBegin
  2
*D7
 70
     1
 10
0.0
 20
0.0
 30
0.0
  3
*D7
  1
*D8
  0
LINE
  5
21A
330
217
100
AcDbEntity
  8
치수문자_일반주서
 62
     0
370
    -2
100
AcDbLine
 10
71.43750000000006
 20
10.20053740206972
 30
0.0
 11
79.375
 21
10.20053740206975
 31
0.0
  0
LINE
  5
21B
330
217
100
AcDbEntity
  8
치수문자_일반주서
 62
     0
370
    -2
100
AcDbLine
 10
71.43750000000006
 20
11.70053740206973
 30
0.0
 11
79.375
 21
11.70053740206976
 31
0.0
  0
LINE
  5
21C
330
217
100
AcDbEntity
  8
치수문자_일반주서
 62
     0
370
    -2
100
AcDbLine
 10
79.375
 20
11.70053740206976
 30
0.0
 11
79.375
 21
35.42953740206976
 31
0.0
  0
LINE
  5
21D
330
217
100
AcDbEntity
  8
치수문자_일반주서
 62
     0
370
    -2
100
AcDbLine
 10
79.375
 20
10.20053740206975
 30
0.0
 11
79.375
 21
11.70053740206976
 31
0.0
  0
LINE
  5
21E
330
217
100
AcDbEntity
  8
치수문자_일반주서
 62
     0
370
    -2
100
AcDbLine
 10
79.375
 20
7.700537402069752
 30
0.0
 11
79.375
 21
5.200537402069752
 31
0.0
  0
LINE
  5
21F
330
217
100
AcDbEntity
  8
치수문자_일반주서
 62
     0
370
    -2
100
AcDbLine
 10
79.375
 20
14.20053740206976
 30
0.0
 11
79.375
 21
16.70053740206976
 31
0.0
  0
SOLID
  5
220
330
217
100
AcDbEntity
  8
치수문자_일반주서
 62
     0
100
AcDbTrace
 10
79.79166666666667
 20
7.700537402069752
 30
0.0
 11
78.95833333333333
 21
7.700537402069752
 31
0.0
 12
79.375
 22
10.20053740206975
 32
0.0
 13
79.375
 23
10.20053740206975
 33
0.0
  0
SOLID
  5
221
330
217
100
AcDbEntity
  8
치수문자_일반주서
 62
     0
100
AcDbTrace
 10
78.95833333333333
 20
14.20053740206976
 30
0.0
 11
79.79166666666667
 21
14.20053740206976
 31
0.0
 12
79.375
 22
11.70053740206976
 32
0.0
 13
79.375
 23
11.70053740206976
 33
0.0
  0
MTEXT
  5
222
330
217
100
AcDbEntity
  8
치수문자_일반주서
 62
     0
100
AcDbMText
 10
76.0
 20
27.05453740206976
 30
0.0
 40
2.5
 41
0.0
 71
     2
 72
     1
  1
\A1;%%c1.5 [0.06]
  7
SLDTEXTSTYLE0
 11
0.0
 21
1.0
 31
0.0
 73
     1
 44
1.0
  0
POINT
  5
223
330
217
100
AcDbEntity
  8
Defpoints
 62
     0
100
AcDbPoint
 10
71.37500000000006
 20
10.20053740206972
 30
0.0
  0
POINT
  5
224
330
217
100
AcDbEntity
  8
Defpoints
 62
     0
100
AcDbPoint
 10
71.37500000000006
 20
11.70053740206973
 30
0.0
  0
POINT
  5
225
330
217
100
AcDbEntity
  8
Defpoints
 62
     0
100
AcDbPoint
 10
79.37500000000003
 20
11.70053740206976
 30
0.0
  0
ENDBLK
  5
219
330
217
100
AcDbEntity
  8
0
100
AcDbBlockEnd
  0
BLOCK
  5
227
330
226
100
AcDbEntity
  8
0
100
AcDbBlockBegin
  2
*D8
 70
     1
 10
0.0
 20
0.0
 30
0.0
  3
*D8
  1
*D9
  0
LINE
  5
229
330
226
100
AcDbEntity
  8
치수문자_일반주서
 62
     0
370
    -2
100
AcDbLine
 10
11.37500000000006
 20
13.51303740206972
 30
0.0
 11
11.37500000000006
 21
31.33967000365137
 31
0.0
  0
LINE
  5
22A
330
226
100
AcDbEntity
  8
치수문자_일반주서
 62
     0
370
    -2
100
AcDbLine
 10
71.37500000000006
 20
11.76303740206973
 30
0.0
 11
71.37500000000006
 21
31.33967000365137
 31
0.0
  0
LINE
  5
22B
330
226
100
AcDbEntity
  8
치수문자_일반주서
 62
     0
370
    -2
100
AcDbLine
 10
13.87500000000006
 20
31.33967000365137
 30
0.0
 11
68.87500000000006
 21
31.33967000365137
 31
0.0
  0
SOLID
  5
22C
330
226
100
AcDbEntity
  8
치수문자_일반주서
 62
     0
100
AcDbTrace
 10
13.87500000000006
 20
31.75633667031804
 30
0.0
 11
13.87500000000006
 21
30.9230033369847
 31
0.0
 12
11.37500000000006
 22
31.33967000365137
 32
0.0
 13
11.37500000000006
 23
31.33967000365137
 33
0.0
  0
SOLID
  5
22D
330
226
100
AcDbEntity
  8
치수문자_일반주서
 62
     0
100
AcDbTrace
 10
68.87500000000006
 20
30.9230033369847
 30
0.0
 11
68.87500000000006
 21
31.75633667031804
 31
0.0
 12
71.37500000000006
 22
31.33967000365137
 32
0.0
 13
71.37500000000006
 23
31.33967000365137
 33
0.0
  0
MTEXT
  5
22E
330
226
100
AcDbEntity
  8
치수문자_일반주서
 62
     0
100
AcDbMText
 10
41.37500000000006
 20
34.71467000365137
 30
0.0
 40
2.5
 41
0.0
 71
     2
 72
     1
  1
\A1;60 [2.36]
  7
SLDTEXTSTYLE0
 73
     1
 44
1.0
  0
POINT
  5
22F
330
226
100
AcDbEntity
  8
Defpoints
 62
     0
100
AcDbPoint
 10
11.37500000000006
 20
13.45053740206972
 30
0.0
  0
POINT
  5
230
330
226
100
AcDbEntity
  8
Defpoints
 62
     0
100
AcDbPoint
 10
71.37500000000006
 20
11.70053740206973
 30
0.0
  0
POINT
  5
231
330
226
100
AcDbEntity
  8
Defpoints
 62
     0
100
AcDbPoint
 10
71.37500000000006
 20
31.33967000365137
 30
0.0
  0
ENDBLK
  5
228
330
226
100
AcDbEntity
  8
0
100
AcDbBlockEnd
  0
BLOCK
  5
233
330
232
100
AcDbEntity
  8
0
100
AcDbBlockBegin
  2
*D9
 70
     1
 10
0.0
 20
0.0
 30
0.0
  3
*D9
  1
*D10
  0
LINE
  5
235
330
232
100
AcDbEntity
  8
치수문자_일반주서
 62
     0
370
    -2
100
AcDbLine
 10
11.81250000000006
 20
13.95053740206973
 30
0.0
 11
3.375000000000041
 21
13.9505374020697
 31
0.0
  0
LINE
  5
236
330
232
100
AcDbEntity
  8
치수문자_일반주서
 62
     0
370
    -2
100
AcDbLine
 10
11.81250000000006
 20
7.950537402069727
 30
0.0
 11
3.375000000000062
 21
7.950537402069696
 31
0.0
  0
LINE
  5
237
330
232
100
AcDbEntity
  8
치수문자_일반주서
 62
     0
370
    -2
100
AcDbLine
 10
3.375000000000041
 20
13.9505374020697
 30
0.0
 11
3.374999999999971
 21
34.1380374020697
 31
0.0
  0
LINE
  5
238
330
232
100
AcDbEntity
  8
치수문자_일반주서
 62
     0
370
    -2
100
AcDbLine
 10
3.375000000000041
 20
13.9505374020697
 30
0.0
 11
3.375000000000062
 21
7.950537402069696
 31
0.0
  0
LINE
  5
239
330
232
100
AcDbEntity
  8
치수문자_일반주서
 62
     0
370
    -2
100
AcDbLine
 10
3.375000000000032
 20
16.4505374020697
 30
0.0
 11
3.375000000000023
 21
18.9505374020697
 31
0.0
  0
LINE
  5
23A
330
232
100
AcDbEntity
  8
치수문자_일반주서
 62
     0
370
    -2
100
AcDbLine
 10
3.375000000000071
 20
5.450537402069696
 30
0.0
 11
3.375000000000079
 21
2.950537402069696
 31
0.0
  0
SOLID
  5
23B
330
232
100
AcDbEntity
  8
치수문자_일반주서
 62
     0
100
AcDbTrace
 10
2.958333333333365
 20
16.4505374020697
 30
0.0
 11
3.791666666666698
 21
16.4505374020697
 31
0.0
 12
3.375000000000041
 22
13.9505374020697
 32
0.0
 13
3.375000000000041
 23
13.9505374020697
 33
0.0
  0
SOLID
  5
23C
330
232
100
AcDbEntity
  8
치수문자_일반주서
 62
     0
100
AcDbTrace
 10
3.791666666666737
 20
5.450537402069697
 30
0.0
 11
2.958333333333404
 21
5.450537402069694
 31
0.0
 12
3.375000000000062
 22
7.950537402069696
 32
0.0
 13
3.375000000000062
 23
7.950537402069696
 33
0.0
  0
MTEXT
  5
23D
330
232
100
AcDbEntity
  8
치수문자_일반주서
 62
     0
100
AcDbMText
 10
-0.0000000000000031
 20
26.54428740206969
 30
0.0
 40
2.5
 41
0.0
 71
     2
 72
     1
  1
\A1;%%c6 [0.24]
  7
SLDTEXTSTYLE0
 11
-3.478698810492154E-15
 21
1.0
 31
0.0
 73
     1
 44
1.0
  0
POINT
  5
23E
330
232
100
AcDbEntity
  8
Defpoints
 62
     0
100
AcDbPoint
 10
11.87500000000006
 20
13.95053740206973
 30
0.0
  0
POINT
  5
23F
330
232
100
AcDbEntity
  8
Defpoints
 62
     0
100
AcDbPoint
 10
11.87500000000006
 20
7.950537402069727
 30
0.0
  0
POINT
  5
240
330
232
100
AcDbEntity
  8
Defpoints
 62
     0
100
AcDbPoint
 10
3.375000000000057
 20
7.950537402069696
 30
0.0
  0
ENDBLK
  5
234
330
232
100
AcDbEntity
  8
0
100
AcDbBlockEnd
  0
BLOCK
  5
242
330
241
100
AcDbEntity
  8
0
100
AcDbBlockBegin
  2
*D10
 70
     1
 10
0.0
 20
0.0
 30
0.0
  3
*D10
  1
*D11
  0
LINE
  5
244
330
241
100
AcDbEntity
  8
치수문자_일반주서
 62
     0
370
    -2
100
AcDbLine
 10
65.37500000000006
 20
11.72584006941095
 30
0.0
 11
65.37500000000006
 21
22.5092583719986
 31
0.0
  0
LINE
  5
245
330
241
100
AcDbEntity
  8
치수문자_일반주서
 62
     0
370
    -2
100
AcDbLine
 10
71.37500000000006
 20
11.76303740206973
 30
0.0
 11
71.37500000000006
 21
22.5092583719986
 31
0.0
  0
LINE
  5
246
330
241
100
AcDbEntity
  8
치수문자_일반주서
 62
     0
370
    -2
100
AcDbLine
 10
65.37500000000006
 20
22.5092583719986
 30
0.0
 11
71.37500000000006
 21
22.5092583719986
 31
0.0
  0
LINE
  5
247
330
241
100
AcDbEntity
  8
치수문자_일반주서
 62
     0
370
    -2
100
AcDbLine
 10
62.87500000000006
 20
22.5092583719986
 30
0.0
 11
60.37500000000006
 21
22.5092583719986
 31
0.0
  0
LINE
  5
248
330
241
100
AcDbEntity
  8
치수문자_일반주서
 62
     0
370
    -2
100
AcDbLine
 10
73.87500000000006
 20
22.5092583719986
 30
0.0
 11
76.37500000000006
 21
22.5092583719986
 31
0.0
  0
SOLID
  5
249
330
241
100
AcDbEntity
  8
치수문자_일반주서
 62
     0
100
AcDbTrace
 10
62.87500000000006
 20
22.09259170533193
 30
0.0
 11
62.87500000000006
 21
22.92592503866527
 31
0.0
 12
65.37500000000006
 22
22.5092583719986
 32
0.0
 13
65.37500000000006
 23
22.5092583719986
 33
0.0
  0
SOLID
  5
24A
330
241
100
AcDbEntity
  8
치수문자_일반주서
 62
     0
100
AcDbTrace
 10
73.87500000000006
 20
22.92592503866527
 30
0.0
 11
73.87500000000006
 21
22.09259170533193
 31
0.0
 12
71.37500000000006
 22
22.5092583719986
 32
0.0
 13
71.37500000000006
 23
22.5092583719986
 33
0.0
  0
MTEXT
  5
24B
330
241
100
AcDbEntity
  8
치수문자_일반주서
 62
     0
100
AcDbMText
 10
68.37500000000006
 20
25.8842583719986
 30
0.0
 40
2.5
 41
0.0
 71
     2
 72
     1
  1
\A1;6 [0.24]
  7
SLDTEXTSTYLE0
 73
     1
 44
1.0
  0
POINT
  5
24C
330
241
100
AcDbEntity
  8
Defpoints
 62
     0
100
AcDbPoint
 10
65.37500000000006
 20
11.66334006941095
 30
0.0
  0
POINT
  5
24D
330
241
100
AcDbEntity
  8
Defpoints
 62
     0
100
AcDbPoint
 10
71.37500000000006
 20
11.70053740206973
 30
0.0
  0
POINT
  5
24E
330
241
100
AcDbEntity
  8
Defpoints
 62
     0
100
AcDbPoint
 10
71.37500000000006
 20
22.5092583719986
 30
0.0
  0
ENDBLK
  5
243
330
241
100
AcDbEntity
  8
0
100
AcDbBlockEnd
  0
BLOCK
  5
2A3
330
2A2
100
AcDbEntity
  8
0
100
AcDbBlockBegin
  2
*D11
 70
     1
 10
0.0
 20
0.0
 30
0.0
  3
*D11
  1
*D12
  0
LINE
  5
2A5
330
2A2
100
AcDbEntity
  8
치수문자_일반주서
 62
     0
370
    -2
100
AcDbLine
 10
6.737291351805041
 20
80.47086910747417
 30
0.0
 11
14.67479135180504
 21
80.4708691074742
 31
0.0
  0
LINE
  5
2A6
330
2A2
100
AcDbEntity
  8
치수문자_일반주서
 62
     0
370
    -2
100
AcDbLine
 10
6.737291351805041
 20
81.97086910747419
 30
0.0
 11
14.67479135180504
 21
81.97086910747421
 31
0.0
  0
LINE
  5
2A7
330
2A2
100
AcDbEntity
  8
치수문자_일반주서
 62
     0
370
    -2
100
AcDbLine
 10
14.67479135180504
 20
81.97086910747421
 30
0.0
 11
14.67479135180495
 21
105.6998691074742
 31
0.0
  0
LINE
  5
2A8
330
2A2
100
AcDbEntity
  8
치수문자_일반주서
 62
     0
370
    -2
100
AcDbLine
 10
14.67479135180504
 20
80.4708691074742
 30
0.0
 11
14.67479135180504
 21
81.97086910747421
 31
0.0
  0
LINE
  5
2A9
330
2A2
100
AcDbEntity
  8
치수문자_일반주서
 62
     0
370
    -2
100
AcDbLine
 10
14.67479135180505
 20
77.9708691074742
 30
0.0
 11
14.67479135180506
 21
75.4708691074742
 31
0.0
  0
LINE
  5
2AA
330
2A2
100
AcDbEntity
  8
치수문자_일반주서
 62
     0
370
    -2
100
AcDbLine
 10
14.67479135180503
 20
84.47086910747421
 30
0.0
 11
14.67479135180502
 21
86.97086910747421
 31
0.0
  0
SOLID
  5
2AB
330
2A2
100
AcDbEntity
  8
치수문자_일반주서
 62
     0
100
AcDbTrace
 10
15.09145801847172
 20
77.9708691074742
 30
0.0
 11
14.25812468513839
 21
77.9708691074742
 31
0.0
 12
14.67479135180504
 22
80.4708691074742
 32
0.0
 13
14.67479135180504
 23
80.4708691074742
 33
0.0
  0
SOLID
  5
2AC
330
2A2
100
AcDbEntity
  8
치수문자_일반주서
 62
     0
100
AcDbTrace
 10
14.25812468513836
 20
84.47086910747421
 30
0.0
 11
15.0914580184717
 21
84.47086910747421
 31
0.0
 12
14.67479135180504
 22
81.97086910747421
 32
0.0
 13
14.67479135180504
 23
81.97086910747421
 33
0.0
  0
MTEXT
  5
2AD
330
2A2
100
AcDbEntity
  8
치수문자_일반주서
 62
     0
100
AcDbMText
 10
11.29979135180498
 20
97.32486910747419
 30
0.0
 40
2.5
 41
0.0
 71
     2
 72
     1
  1
\A1;%%c1.5 [0.06]
  7
SLDTEXTSTYLE0
 11
-3.552713678800467E-15
 21
1.0
 31
0.0
 73
     1
 44
1.0
  0
POINT
  5
2AE
330
2A2
100
AcDbEntity
  8
Defpoints
 62
     0
100
AcDbPoint
 10
6.674791351805041
 20
80.47086910747417
 30
0.0
  0
POINT
  5
2AF
330
2A2
100
AcDbEntity
  8
Defpoints
 62
     0
100
AcDbPoint
 10
6.674791351805041
 20
81.97086910747419
 30
0.0
  0
POINT
  5
2B0
330
2A2
100
AcDbEntity
  8
Defpoints
 62
     0
100
AcDbPoint
 10
14.67479135180498
 20
81.97086910747421
 30
0.0
  0
ENDBLK
  5
2A4
330
2A2
100
AcDbEntity
  8
0
100
AcDbBlockEnd
  0
BLOCK
  5
2B2
330
2B1
100
AcDbEntity
  8
0
100
AcDbBlockBegin
  2
*D12
 70
     1
 10
0.0
 20
0.0
 30
0.0
  3
*D12
  1
*D13
  0
LINE
  5
2B4
330
2B1
100
AcDbEntity
  8
치수문자_일반주서
 62
     0
370
    -2
100
AcDbLine
 10
-53.32520864819496
 20
83.78336910747417
 30
0.0
 11
-53.32520864819496
 21
101.6100017090558
 31
0.0
  0
LINE
  5
2B5
330
2B1
100
AcDbEntity
  8
치수문자_일반주서
 62
     0
370
    -2
100
AcDbLine
 10
6.674791351805041
 20
82.03336910747417
 30
0.0
 11
6.674791351805041
 21
101.6100017090558
 31
0.0
  0
LINE
  5
2B6
330
2B1
100
AcDbEntity
  8
치수문자_일반주서
 62
     0
370
    -2
100
AcDbLine
 10
-50.82520864819496
 20
101.6100017090558
 30
0.0
 11
4.174791351805041
 21
101.6100017090558
 31
0.0
  0
SOLID
  5
2B7
330
2B1
100
AcDbEntity
  8
치수문자_일반주서
 62
     0
100
AcDbTrace
 10
-50.82520864819496
 20
102.0266683757225
 30
0.0
 11
-50.82520864819496
 21
101.1933350423891
 31
0.0
 12
-53.32520864819496
 22
101.6100017090558
 32
0.0
 13
-53.32520864819496
 23
101.6100017090558
 33
0.0
  0
SOLID
  5
2B8
330
2B1
100
AcDbEntity
  8
치수문자_일반주서
 62
     0
100
AcDbTrace
 10
4.174791351805041
 20
101.1933350423891
 30
0.0
 11
4.174791351805041
 21
102.0266683757225
 31
0.0
 12
6.674791351805041
 22
101.6100017090558
 32
0.0
 13
6.674791351805041
 23
101.6100017090558
 33
0.0
  0
MTEXT
  5
2B9
330
2B1
100
AcDbEntity
  8
치수문자_일반주서
 62
     0
100
AcDbMText
 10
-23.32520864819496
 20
104.9850017090558
 30
0.0
 40
2.5
 41
0.0
 71
     2
 72
     1
  1
\A1;60 [2.36]
  7
SLDTEXTSTYLE0
 73
     1
 44
1.0
  0
POINT
  5
2BA
330
2B1
100
AcDbEntity
  8
Defpoints
 62
     0
100
AcDbPoint
 10
-53.32520864819496
 20
83.72086910747417
 30
0.0
  0
POINT
  5
2BB
330
2B1
100
AcDbEntity
  8
Defpoints
 62
     0
100
AcDbPoint
 10
6.674791351805041
 20
81.97086910747417
 30
0.0
  0
POINT
  5
2BC
330
2B1
100
AcDbEntity
  8
Defpoints
 62
     0
100
AcDbPoint
 10
6.674791351805041
 20
101.6100017090558
 30
0.0
  0
ENDBLK
  5
2B3
330
2B1
100
AcDbEntity
  8
0
100
AcDbBlockEnd
  0
BLOCK
  5
2BE
330
2BD
100
AcDbEntity
  8
0
100
AcDbBlockBegin
  2
*D13
 70
     1
 10
0.0
 20
0.0
 30
0.0
  3
*D13
  1
*D14
  0
LINE
  5
2C0
330
2BD
100
AcDbEntity
  8
치수문자_일반주서
 62
     0
370
    -2
100
AcDbLine
 10
-52.88770864819495
 20
84.22086910747417
 30
0.0
 11
-61.32520864819497
 21
84.22086910747414
 31
0.0
  0
LINE
  5
2C1
330
2BD
100
AcDbEntity
  8
치수문자_일반주서
 62
     0
370
    -2
100
AcDbLine
 10
-52.88770864819495
 20
78.22086910747417
 30
0.0
 11
-61.32520864819495
 21
78.22086910747414
 31
0.0
  0
LINE
  5
2C2
330
2BD
100
AcDbEntity
  8
치수문자_일반주서
 62
     0
370
    -2
100
AcDbLine
 10
-61.32520864819497
 20
84.22086910747414
 30
0.0
 11
-61.32520864819504
 21
104.4083691074741
 31
0.0
  0
LINE
  5
2C3
330
2BD
100
AcDbEntity
  8
치수문자_일반주서
 62
     0
370
    -2
100
AcDbLine
 10
-61.32520864819497
 20
84.22086910747414
 30
0.0
 11
-61.32520864819495
 21
78.22086910747414
 31
0.0
  0
LINE
  5
2C4
330
2BD
100
AcDbEntity
  8
치수문자_일반주서
 62
     0
370
    -2
100
AcDbLine
 10
-61.32520864819498
 20
86.72086910747414
 30
0.0
 11
-61.32520864819499
 21
89.22086910747414
 31
0.0
  0
LINE
  5
2C5
330
2BD
100
AcDbEntity
  8
치수문자_일반주서
 62
     0
370
    -2
100
AcDbLine
 10
-61.32520864819494
 20
75.72086910747414
 30
0.0
 11
-61.32520864819494
 21
73.22086910747414
 31
0.0
  0
SOLID
  5
2C6
330
2BD
100
AcDbEntity
  8
치수문자_일반주서
 62
     0
100
AcDbTrace
 10
-61.74187531486164
 20
86.72086910747414
 30
0.0
 11
-60.90854198152832
 21
86.72086910747414
 31
0.0
 12
-61.32520864819497
 22
84.22086910747414
 32
0.0
 13
-61.32520864819497
 23
84.22086910747414
 33
0.0
  0
SOLID
  5
2C7
330
2BD
100
AcDbEntity
  8
치수문자_일반주서
 62
     0
100
AcDbTrace
 10
-60.90854198152828
 20
75.72086910747414
 30
0.0
 11
-61.74187531486161
 21
75.72086910747414
 31
0.0
 12
-61.32520864819495
 22
78.22086910747414
 32
0.0
 13
-61.32520864819495
 23
78.22086910747414
 33
0.0
  0
MTEXT
  5
2C8
330
2BD
100
AcDbEntity
  8
치수문자_일반주서
 62
     0
100
AcDbMText
 10
-64.70020864819502
 20
96.81461910747413
 30
0.0
 40
2.5
 41
0.0
 71
     2
 72
     1
  1
\A1;%%c6 [0.24]
  7
SLDTEXTSTYLE0
 11
-3.552713678800501E-15
 21
1.0
 31
0.0
 73
     1
 44
1.0
  0
POINT
  5
2C9
330
2BD
100
AcDbEntity
  8
Defpoints
 62
     0
100
AcDbPoint
 10
-52.82520864819495
 20
84.22086910747417
 30
0.0
  0
POINT
  5
2CA
330
2BD
100
AcDbEntity
  8
Defpoints
 62
     0
100
AcDbPoint
 10
-52.82520864819495
 20
78.22086910747417
 30
0.0
  0
POINT
  5
2CB
330
2BD
100
AcDbEntity
  8
Defpoints
 62
     0
100
AcDbPoint
 10
-61.32520864819495
 20
78.22086910747414
 30
0.0
  0
ENDBLK
  5
2BF
330
2BD
100
AcDbEntity
  8
0
100
AcDbBlockEnd
  0
BLOCK
  5
2CD
330
2CC
100
AcDbEntity
  8
0
100
AcDbBlockBegin
  2
*D14
 70
     1
 10
0.0
 20
0.0
 30
0.0
  3
*D14
  1
*D15
  0
LINE
  5
2CF
330
2CC
100
AcDbEntity
  8
치수문자_일반주서
 62
     0
370
    -2
100
AcDbLine
 10
0.674791351805041
 20
81.9961717748154
 30
0.0
 11
0.674791351805041
 21
92.77959007740304
 31
0.0
  0
LINE
  5
2D0
330
2CC
100
AcDbEntity
  8
치수문자_일반주서
 62
     0
370
    -2
100
AcDbLine
 10
6.674791351805041
 20
82.03336910747417
 30
0.0
 11
6.674791351805041
 21
92.77959007740304
 31
0.0
  0
LINE
  5
2D1
330
2CC
100
AcDbEntity
  8
치수문자_일반주서
 62
     0
370
    -2
100
AcDbLine
 10
0.674791351805041
 20
92.77959007740304
 30
0.0
 11
6.674791351805041
 21
92.77959007740304
 31
0.0
  0
LINE
  5
2D2
330
2CC
100
AcDbEntity
  8
치수문자_일반주서
 62
     0
370
    -2
100
AcDbLine
 10
-1.825208648194959
 20
92.77959007740304
 30
0.0
 11
-4.325208648194959
 21
92.77959007740304
 31
0.0
  0
LINE
  5
2D3
330
2CC
100
AcDbEntity
  8
치수문자_일반주서
 62
     0
370
    -2
100
AcDbLine
 10
9.174791351805041
 20
92.77959007740304
 30
0.0
 11
11.67479135180504
 21
92.77959007740304
 31
0.0
  0
SOLID
  5
2D4
330
2CC
100
AcDbEntity
  8
치수문자_일반주서
 62
     0
100
AcDbTrace
 10
-1.825208648194959
 20
92.36292341073637
 30
0.0
 11
-1.825208648194959
 21
93.19625674406971
 31
0.0
 12
0.674791351805041
 22
92.77959007740304
 32
0.0
 13
0.674791351805041
 23
92.77959007740304
 33
0.0
  0
SOLID
  5
2D5
330
2CC
100
AcDbEntity
  8
치수문자_일반주서
 62
     0
100
AcDbTrace
 10
9.174791351805041
 20
93.19625674406971
 30
0.0
 11
9.174791351805041
 21
92.36292341073637
 31
0.0
 12
6.674791351805041
 22
92.77959007740304
 32
0.0
 13
6.674791351805041
 23
92.77959007740304
 33
0.0
  0
MTEXT
  5
2D6
330
2CC
100
AcDbEntity
  8
치수문자_일반주서
 62
     0
100
AcDbMText
 10
3.674791351805041
 20
96.15459007740304
 30
0.0
 40
2.5
 41
0.0
 71
     2
 72
     1
  1
\A1;6 [0.24]
  7
SLDTEXTSTYLE0
 73
     1
 44
1.0
  0
POINT
  5
2D7
330
2CC
100
AcDbEntity
  8
Defpoints
 62
     0
100
AcDbPoint
 10
0.674791351805041
 20
81.9336717748154
 30
0.0
  0
POINT
  5
2D8
330
2CC
100
AcDbEntity
  8
Defpoints
 62
     0
100
AcDbPoint
 10
6.674791351805041
 20
81.97086910747417
 30
0.0
  0
POINT
  5
2D9
330
2CC
100
AcDbEntity
  8
Defpoints
 62
     0
100
AcDbPoint
 10
6.674791351805041
 20
92.77959007740304
 30
0.0
  0
ENDBLK
  5
2CE
330
2CC
100
AcDbEntity
  8
0
100
AcDbBlockEnd
  0
BLOCK
  5
313
330
312
100
AcDbEntity
  8
0
100
AcDbBlockBegin
  2
*D15
 70
     1
 10
0.0
 20
0.0
 30
0.0
  3
*D15
  1
*D16
  0
LINE
  5
315
330
312
100
AcDbEntity
  8
치수문자_일반주서
 62
     0
370
    -2
100
AcDbLine
 10
62.60816446271328
 20
-33.31474760788056
 30
0.0
 11
74.16981656975463
 21
-33.31474760788051
 31
0.0
  0
LINE
  5
316
330
312
100
AcDbEntity
  8
치수문자_일반주서
 62
     0
370
    -2
100
AcDbLine
 10
62.60816446271328
 20
-31.7285893387035
 30
0.0
 11
74.16981656975463
 21
-31.72858933870345
 31
0.0
  0
LINE
  5
317
330
312
100
AcDbEntity
  8
치수문자_일반주서
 62
     0
370
    -2
100
AcDbLine
 10
74.16981656975463
 20
-31.72858933870345
 30
0.0
 11
74.16981656975463
 21
-8.103589338703454
 31
0.0
  0
LINE
  5
318
330
312
100
AcDbEntity
  8
치수문자_일반주서
 62
     0
370
    -2
100
AcDbLine
 10
74.16981656975463
 20
-33.31474760788051
 30
0.0
 11
74.16981656975463
 21
-31.72858933870345
 31
0.0
  0
LINE
  5
319
330
312
100
AcDbEntity
  8
치수문자_일반주서
 62
     0
370
    -2
100
AcDbLine
 10
74.16981656975463
 20
-35.81474760788051
 30
0.0
 11
74.16981656975463
 21
-38.31474760788051
 31
0.0
  0
LINE
  5
31A
330
312
100
AcDbEntity
  8
치수문자_일반주서
 62
     0
370
    -2
100
AcDbLine
 10
74.16981656975463
 20
-29.22858933870345
 30
0.0
 11
74.16981656975463
 21
-26.72858933870345
 31
0.0
  0
SOLID
  5
31B
330
312
100
AcDbEntity
  8
치수문자_일반주서
 62
     0
100
AcDbTrace
 10
74.5864832364213
 20
-35.81474760788051
 30
0.0
 11
73.75314990308796
 21
-35.81474760788051
 31
0.0
 12
74.16981656975463
 22
-33.31474760788051
 32
0.0
 13
74.16981656975463
 23
-33.31474760788051
 33
0.0
  0
SOLID
  5
31C
330
312
100
AcDbEntity
  8
치수문자_일반주서
 62
     0
100
AcDbTrace
 10
73.75314990308796
 20
-29.22858933870345
 30
0.0
 11
74.5864832364213
 21
-29.22858933870345
 31
0.0
 12
74.16981656975463
 22
-31.72858933870345
 32
0.0
 13
74.16981656975463
 23
-31.72858933870345
 33
0.0
  0
MTEXT
  5
31D
330
312
100
AcDbEntity
  8
치수문자_일반주서
 62
     0
100
AcDbMText
 10
70.79481656975463
 20
-17.41608933870345
 30
0.0
 40
2.5
 41
0.0
 71
     2
 72
     1
  1
\A1;%%c1.59 [0.06]
  7
SLDTEXTSTYLE0
 11
0.0
 21
1.0
 31
0.0
 73
     1
 44
1.0
  0
POINT
  5
31E
330
312
100
AcDbEntity
  8
Defpoints
 62
     0
100
AcDbPoint
 10
62.54566446271328
 20
-33.31474760788056
 30
0.0
  0
POINT
  5
31F
330
312
100
AcDbEntity
  8
Defpoints
 62
     0
100
AcDbPoint
 10
62.54566446271328
 20
-31.7285893387035
 30
0.0
  0
POINT
  5
320
330
312
100
AcDbEntity
  8
Defpoints
 62
     0
100
AcDbPoint
 10
74.1698165697547
 20
-31.72858933870345
 30
0.0
  0
ENDBLK
  5
314
330
312
100
AcDbEntity
  8
0
100
AcDbBlockEnd
  0
BLOCK
  5
322
330
321
100
AcDbEntity
  8
0
100
AcDbBlockBegin
  2
*D16
 70
     1
 10
0.0
 20
0.0
 30
0.0
  3
*D16
  1
*D17
  0
LINE
  5
324
330
321
100
AcDbEntity
  8
치수문자_일반주서
 62
     0
370
    -2
100
AcDbLine
 10
62.54566446271328
 20
-31.6660893387035
 30
0.0
 11
62.54566446271328
 21
-18.59844437897831
 31
0.0
  0
LINE
  5
325
330
321
100
AcDbEntity
  8
치수문자_일반주서
 62
     0
370
    -2
100
AcDbLine
 10
59.37066446271328
 20
-31.76707298673715
 30
0.0
 11
59.37066446271328
 21
-18.59844437897831
 31
0.0
  0
LINE
  5
326
330
321
100
AcDbEntity
  8
치수문자_일반주서
 62
     0
370
    -2
100
AcDbLine
 10
59.37066446271328
 20
-18.59844437897831
 30
0.0
 11
37.93316446271328
 21
-18.59844437897831
 31
0.0
  0
LINE
  5
327
330
321
100
AcDbEntity
  8
치수문자_일반주서
 62
     0
370
    -2
100
AcDbLine
 10
62.54566446271328
 20
-18.59844437897831
 30
0.0
 11
59.37066446271328
 21
-18.59844437897831
 31
0.0
  0
LINE
  5
328
330
321
100
AcDbEntity
  8
치수문자_일반주서
 62
     0
370
    -2
100
AcDbLine
 10
65.04566446271328
 20
-18.59844437897831
 30
0.0
 11
67.54566446271328
 21
-18.59844437897831
 31
0.0
  0
LINE
  5
329
330
321
100
AcDbEntity
  8
치수문자_일반주서
 62
     0
370
    -2
100
AcDbLine
 10
56.87066446271328
 20
-18.59844437897831
 30
0.0
 11
54.37066446271328
 21
-18.59844437897831
 31
0.0
  0
SOLID
  5
32A
330
321
100
AcDbEntity
  8
치수문자_일반주서
 62
     0
100
AcDbTrace
 10
65.04566446271328
 20
-18.18177771231164
 30
0.0
 11
65.04566446271328
 21
-19.01511104564498
 31
0.0
 12
62.54566446271328
 22
-18.59844437897831
 32
0.0
 13
62.54566446271328
 23
-18.59844437897831
 33
0.0
  0
SOLID
  5
32B
330
321
100
AcDbEntity
  8
치수문자_일반주서
 62
     0
100
AcDbTrace
 10
56.87066446271328
 20
-19.01511104564498
 30
0.0
 11
56.87066446271328
 21
-18.18177771231164
 31
0.0
 12
59.37066446271328
 22
-18.59844437897831
 32
0.0
 13
59.37066446271328
 23
-18.59844437897831
 33
0.0
  0
MTEXT
  5
32C
330
321
100
AcDbEntity
  8
치수문자_일반주서
 62
     0
100
AcDbMText
 10
46.15191446271328
 20
-15.22344437897831
 30
0.0
 40
2.5
 41
0.0
 71
     2
 72
     1
  1
\A1;3.18 [0.13]
  7
SLDTEXTSTYLE0
 73
     1
 44
1.0
  0
POINT
  5
32D
330
321
100
AcDbEntity
  8
Defpoints
 62
     0
100
AcDbPoint
 10
62.54566446271328
 20
-31.7285893387035
 30
0.0
  0
POINT
  5
32E
330
321
100
AcDbEntity
  8
Defpoints
 62
     0
100
AcDbPoint
 10
59.37066446271328
 20
-31.82957298673715
 30
0.0
  0
POINT
  5
32F
330
321
100
AcDbEntity
  8
Defpoints
 62
     0
100
AcDbPoint
 10
59.37066446271328
 20
-18.59844437897831
 30
0.0
  0
ENDBLK
  5
323
330
321
100
AcDbEntity
  8
0
100
AcDbBlockEnd
  0
BLOCK
  5
331
330
330
100
AcDbEntity
  8
0
100
AcDbBlockBegin
  2
*D17
 70
     1
 10
0.0
 20
0.0
 30
0.0
  3
*D17
  1
*D18
  0
LINE
  5
333
330
330
100
AcDbEntity
  8
치수문자_일반주서
 62
     0
370
    -2
100
AcDbLine
 10
24.44566446271329
 20
-31.30166847329203
 30
0.0
 11
24.44566446271328
 21
-8.058044485450765
 31
0.0
  0
LINE
  5
334
330
330
100
AcDbEntity
  8
치수문자_일반주서
 62
     0
370
    -2
100
AcDbLine
 10
62.54566446271328
 20
-31.6660893387035
 30
0.0
 11
62.54566446271328
 21
-8.058044485450765
 31
0.0
  0
LINE
  5
335
330
330
100
AcDbEntity
  8
치수문자_일반주서
 62
     0
370
    -2
100
AcDbLine
 10
26.94566446271328
 20
-8.058044485450765
 30
0.0
 11
60.04566446271328
 21
-8.058044485450765
 31
0.0
  0
SOLID
  5
336
330
330
100
AcDbEntity
  8
치수문자_일반주서
 62
     0
100
AcDbTrace
 10
26.94566446271328
 20
-7.641377818784098
 30
0.0
 11
26.94566446271328
 21
-8.47471115211743
 31
0.0
 12
24.44566446271328
 22
-8.058044485450765
 32
0.0
 13
24.44566446271328
 23
-8.058044485450765
 33
0.0
  0
SOLID
  5
337
330
330
100
AcDbEntity
  8
치수문자_일반주서
 62
     0
100
AcDbTrace
 10
60.04566446271328
 20
-8.47471115211743
 30
0.0
 11
60.04566446271328
 21
-7.641377818784098
 31
0.0
 12
62.54566446271328
 22
-8.058044485450765
 32
0.0
 13
62.54566446271328
 23
-8.058044485450765
 33
0.0
  0
MTEXT
  5
338
330
330
100
AcDbEntity
  8
치수문자_일반주서
 62
     0
100
AcDbMText
 10
45.05852576229656
 20
-4.683044485450765
 30
0.0
 40
2.5
 41
0.0
 71
     2
 72
     1
  1
\A1;38.1 [1.50]
  7
SLDTEXTSTYLE0
 73
     1
 44
1.0
  0
POINT
  5
339
330
330
100
AcDbEntity
  8
Defpoints
 62
     0
100
AcDbPoint
 10
24.44566446271329
 20
-31.36416847329203
 30
0.0
  0
POINT
  5
33A
330
330
100
AcDbEntity
  8
Defpoints
 62
     0
100
AcDbPoint
 10
62.54566446271328
 20
-31.7285893387035
 30
0.0
  0
POINT
  5
33B
330
330
100
AcDbEntity
  8
Defpoints
 62
     0
100
AcDbPoint
 10
62.54566446271328
 20
-8.058044485450765
 30
0.0
  0
ENDBLK
  5
332
330
330
100
AcDbEntity
  8
0
100
AcDbBlockEnd
  0
ENDSEC
  0
SECTION
  2
ENTITIES
  0
LINE
  5
96
330
1F
100
AcDbEntity
  8
외형선
  6
Continuous
370
    15
100
AcDbLine
 10
11.91268467149222
 20
1.5875
 30
0.0
 11
-11.91268467149219
 21
1.587499999999999
 31
0.0
  0
LINE
  5
97
330
1F
100
AcDbEntity
  8
외형선
  6
Continuous
370
    15
100
AcDbLine
 10
-11.91268467149219
 20
-1.587499999999999
 30
0.0
 11
11.91268467149222
 21
-1.587499999999997
 31
0.0
  0
LINE
  5
98
330
1F
100
AcDbEntity
  8
외형선
  6
Continuous
370
    15
100
AcDbLine
 10
11.91268467149222
 20
-1.587499999999998
 30
0.0
 11
14.87500000000001
 21
-0.7937499999999983
 31
0.0
  0
LINE
  5
99
330
1F
100
AcDbEntity
  8
외형선
  6
Continuous
370
    15
100
AcDbLine
 10
14.87500000000001
 20
0.7937500000000016
 30
0.0
 11
11.91268467149222
 21
1.587500000000001
 31
0.0
  0
LINE
  5
9C
330
1F
100
AcDbEntity
  8
외형선
  6
Continuous
370
    15
100
AcDbLine
 10
15.17209661331297
 20
0.7937500000000016
 30
0.0
 11
14.87500000000001
 21
0.7937500000000016
 31
0.0
  0
LINE
  5
9D
330
1F
100
AcDbEntity
  8
외형선
  6
Continuous
370
    15
100
AcDbLine
 10
14.87500000000001
 20
-0.7937499999999983
 30
0.0
 11
15.17209661331297
 21
-0.7937499999999983
 31
0.0
  0
LINE
  5
9E
330
1F
100
AcDbEntity
  8
외형선
  6
Continuous
370
    15
100
AcDbLine
 10
15.52941793901913
 20
-0.6612876143739052
 30
0.0
 11
15.87500000000043
 21
-0.6334064811882522
 31
0.0
  0
LINE
  5
9F
330
1F
100
AcDbEntity
  8
0
  6
Continuous
 62
     1
370
    25
100
AcDbLine
 10
16.99251539773145
 20
0.2035801984978616
 30
0.0
 11
16.77442779244941
 21
0.3133431574701063
 31
0.0
  0
LINE
  5
A0
330
1F
100
AcDbEntity
  8
0
  6
Continuous
 62
     1
370
    25
100
AcDbLine
 10
16.67511075417773
 20
0.1579301717507907
 30
0.0
 11
16.54559842260213
 21
0.2282105431525423
 31
0.0
  0
SPLINE
  5
A1
330
1F
100
AcDbEntity
  8
0
  6
Continuous
 62
     1
370
    25
100
AcDbSpline
210
0.0
220
0.0
230
1.0
 70
     8
 71
     3
 72
    10
 73
     6
 74
     0
 42
0.000000001
 43
0.00000001
 40
0.0
 40
0.0
 40
0.0
 40
0.0
 40
0.5722216296550375
 40
0.8070739911609763
 40
1.0
 40
1.0
 40
1.0
 40
1.0
 10
16.73194472980153
 20
0.630752986965349
 30
0.0
 10
16.60293771331252
 20
0.625812662106621
 30
0.0
 10
16.42098337553552
 20
0.6188447191021439
 30
0.0
 10
16.19681141211439
 20
0.6199843442694378
 30
0.0
 10
16.10057408332073
 20
0.6243249842760401
 30
0.0
 10
16.05717150611582
 20
0.6262825922579619
 30
0.0
  0
SPLINE
  5
A2
330
1F
100
AcDbEntity
  8
0
  6
Continuous
 62
     1
370
    25
100
AcDbSpline
210
0.0
220
0.0
230
1.0
 70
     8
 71
     3
 72
    19
 73
    15
 74
     0
 42
0.000000001
 43
0.00000001
 40
0.0
 40
0.0
 40
0.0
 40
0.0
 40
0.1272871115945425
 40
0.221439252468597
 40
0.3033819644190338
 40
0.393427241881961
 40
0.483945327433063
 40
0.5464630659564129
 40
0.605947343995647
 40
0.6635843957070245
 40
0.7195861992819363
 40
0.7770361321224114
 40
0.8684092835784467
 40
1.0
 40
1.0
 40
1.0
 40
1.0
 10
18.75717122357901
 20
0.5430815404555591
 30
0.0
 10
18.69776397899928
 20
0.5384884934833388
 30
0.0
 10
18.594414192315
 20
0.5304980467260784
 30
0.0
 10
18.45456664449201
 20
0.5246379114592571
 30
0.0
 10
18.33223324426549
 20
0.5221267796093375
 30
0.0
 10
18.21065891126008
 20
0.5223348008402583
 30
0.0
 10
18.09819424631486
 20
0.5251007418160298
 30
0.0
 10
17.99993935413496
 20
0.5294610339252307
 30
0.0
 10
17.91701325668371
 20
0.5344867615730262
 30
0.0
 10
17.83692601634409
 20
0.5404548592895504
 30
0.0
 10
17.75776663361336
 20
0.5474074241610152
 30
0.0
 10
17.66298499928208
 20
0.5570148299219938
 30
0.0
 10
17.5333550676638
 20
0.5721602982851717
 30
0.0
 10
17.43013415205303
 20
0.5877614164158057
 30
0.0
 10
17.36921435206835
 20
0.5969690173214132
 30
0.0
  0
SPLINE
  5
A3
330
1F
100
AcDbEntity
  8
0
  6
Continuous
 62
     1
370
    25
100
AcDbSpline
210
0.0
220
0.0
230
1.0
 70
     8
 71
     3
 72
    13
 73
     9
 74
     0
 42
0.000000001
 43
0.00000001
 40
0.0
 40
0.0
 40
0.0
 40
0.0
 40
0.3039515494663232
 40
0.5150075549349129
 40
0.6477068560593084
 40
0.7770612317507779
 40
0.9101927447537304
 40
1.0
 40
1.0
 40
1.0
 40
1.0
 10
17.36921435206835
 20
-0.5969690173214098
 30
0.0
 10
17.43013415199026
 20
-0.5877608425856848
 30
0.0
 10
17.53335506749469
 20
-0.5721587521723098
 30
0.0
 10
17.66298499965907
 20
-0.5570182766735994
 30
0.0
 10
17.75776663277165
 20
-0.5473997284072157
 30
0.0
 10
17.83692601948522
 20
-0.5404835785632847
 30
0.0
 10
17.90748190105488
 20
-0.5351014262024061
 30
0.0
 10
17.9520535565411
 20
-0.5325231789095569
 30
0.0
 10
17.97000852270707
 20
-0.5314845739395229
 30
0.0
  0
SPLINE
  5
A4
330
1F
100
AcDbEntity
  8
0
  6
Continuous
 62
     1
370
    25
100
AcDbSpline
210
0.0
220
0.0
230
1.0
 70
     8
 71
     3
 72
    10
 73
     6
 74
     0
 42
0.000000001
 43
0.00000001
 40
0.0
 40
0.0
 40
0.0
 40
0.0
 40
0.4014215608556116
 40
0.5766876721414418
 40
1.0
 40
1.0
 40
1.0
 40
1.0
 10
15.87500000000001
 20
-0.6334064811882776
 30
0.0
 10
15.98977448631623
 20
-0.6280338574218962
 30
0.0
 10
16.1546610738574
 20
-0.6203154730717325
 30
0.0
 10
16.43968404850683
 20
-0.6190193501593535
 30
0.0
 10
16.61087743637326
 20
-0.6258923959208069
 30
0.0
 10
16.73194472980153
 20
-0.6307529869653457
 30
0.0
  0
LINE
  5
A5
330
1F
100
AcDbEntity
  8
외형선
  6
Continuous
370
    15
100
AcDbLine
 10
11.91268467149222
 20
1.587500000000001
 30
0.0
 11
11.91268467149222
 21
-1.587499999999999
 31
0.0
  0
LINE
  5
A7
330
1F
100
AcDbEntity
  8
외형선
  6
Continuous
370
    15
100
AcDbLine
 10
14.87500000000001
 20
0.7937500000000016
 30
0.0
 11
14.87500000000001
 21
-0.7937499999999977
 31
0.0
  0
SPLINE
  5
A9
330
1F
100
AcDbEntity
  8
외형선
  6
Continuous
370
    15
100
AcDbSpline
210
0.0
220
0.0
230
1.0
 70
     8
 71
     3
 72
     9
 73
     5
 74
     0
 42
0.000000001
 43
0.00000001
 40
0.0
 40
0.0
 40
0.0
 40
0.0
 40
0.6382702758596122
 40
1.0
 40
1.0
 40
1.0
 40
1.0
 10
15.87500000000002
 20
0.6920954865548758
 30
0.0
 10
15.72533121035539
 20
0.7292501721985735
 30
0.0
 10
15.49083996847036
 20
0.7874616964523992
 30
0.0
 10
15.25676756077683
 20
0.788266307936123
 30
0.0
 10
15.17209661331297
 20
0.7885573598261706
 30
0.0
  0
LINE
  5
AA
330
1F
100
AcDbEntity
  8
외형선
  6
Continuous
370
    15
100
AcDbLine
 10
15.87500000000001
 20
0.6920954865548774
 30
0.0
 11
15.87500000000001
 21
0.5578413678267506
 31
0.0
  0
SPLINE
  5
AB
330
1F
100
AcDbEntity
  8
외형선
  6
Continuous
370
    15
100
AcDbSpline
210
0.0
220
0.0
230
1.0
 70
     8
 71
     3
 72
    12
 73
     8
 74
     0
 42
0.000000001
 43
0.00000001
 40
0.0
 40
0.0
 40
0.0
 40
0.0
 40
0.2500000000000001
 40
0.2500000000000001
 40
0.5
 40
0.5
 40
1.0
 40
1.0
 40
1.0
 40
1.0
 10
15.87500000000002
 20
0.557841367826748
 30
0.0
 10
15.8086845418532
 20
0.5852078792286377
 30
0.0
 10
15.74340567416023
 20
0.6104819957511196
 30
0.0
 10
15.60951122748284
 20
0.6569559053020755
 30
0.0
 10
15.54184010400538
 20
0.6780173171356776
 30
0.0
 10
15.33988458002266
 20
0.7336300933312736
 30
0.0
 10
15.20963904752935
 20
0.7604598319422861
 30
0.0
 10
15.07506159718956
 20
0.7764931591240527
 30
0.0
  0
SPLINE
  5
AC
330
1F
100
AcDbEntity
  8
외형선
  6
Continuous
370
    15
100
AcDbSpline
210
0.0
220
0.0
230
1.0
 70
     8
 71
     3
 72
    10
 73
     6
 74
     0
 42
0.000000001
 43
0.00000001
 40
0.0
 40
0.0
 40
0.0
 40
0.0
 40
0.5
 40
0.5
 40
1.0
 40
1.0
 40
1.0
 40
1.0
 10
15.87500000000002
 20
-0.6920954865548725
 30
0.0
 10
15.74237970803042
 20
-0.72976328002173
 30
0.0
 10
15.60918040841021
 20
-0.7576775775983223
 30
0.0
 10
15.33992749379547
 20
-0.7914645230116957
 30
0.0
 10
15.20969244093153
 20
-0.7972315042082977
 30
0.0
 10
15.07512627856772
 20
-0.7917575814976273
 30
0.0
  0
ELLIPSE
  5
AD
330
1F
100
AcDbEntity
  8
외형선
  6
Continuous
370
    15
100
AcDbEllipse
 10
15.07508012146272
 20
0.0000000000000016
 30
0.0
 11
-2.631129230579176E-5
 21
0.7937500000000001
 31
0.0
210
0.0
220
0.0
230
1.0
 40
0.0000440596617195
 41
3.212504179433842
 42
6.074624386424023
  0
SPLINE
  5
AE
330
1F
100
AcDbEntity
  8
외형선
  6
Continuous
370
    15
100
AcDbSpline
210
0.0
220
0.0
230
1.0
 70
    24
 71
     3
 72
    11
 73
     7
 74
     0
 42
0.000000001
 43
0.00000001
 40
0.0
 40
0.0
 40
0.0
 40
0.0
 40
0.3693685477087837
 40
0.6359389421563064
 40
0.9102398961017335
 40
1.0
 40
1.0
 40
1.0
 40
1.0
 10
15.87500000000001
 20
-0.469698342971947
 30
0.0
 10
15.87500000000001
 20
-0.5053870411631181
 30
0.0
 10
15.87500000000001
 20
-0.5668319939491978
 30
0.0
 10
15.87500000000001
 20
-0.6144834414341827
 30
0.0
 10
15.87500000000001
 20
-0.634198455023059
 30
0.0
 10
15.87500000000001
 20
-0.6317499745564743
 30
0.0
 10
15.87500000000001
 20
-0.6311462959802066
 30
0.0
  0
SPLINE
  5
AF
330
1F
100
AcDbEntity
  8
외형선
  6
Continuous
370
    15
100
AcDbSpline
210
0.0
220
0.0
230
1.0
 70
     8
 71
     3
 72
     9
 73
     5
 74
     0
 42
0.000000001
 43
0.00000001
 40
0.0
 40
0.0
 40
0.0
 40
0.0
 40
0.1217691479230415
 40
1.0
 40
1.0
 40
1.0
 40
1.0
 10
15.52995400204204
 20
-0.6579179081377045
 30
0.0
 10
15.51148694711593
 20
-0.6607940550825938
 30
0.0
 10
15.35983067587567
 20
-0.6844137238898922
 30
0.0
 10
15.20824952332825
 20
-0.6761491753236711
 30
0.0
 10
15.07512627856772
 20
-0.6688909937943274
 30
0.0
  0
SPLINE
  5
B0
330
1F
100
AcDbEntity
  8
외형선
  6
Continuous
370
    15
100
AcDbSpline
210
0.0
220
0.0
230
1.0
 70
     8
 71
     3
 72
    10
 73
     6
 74
     0
 42
0.000000001
 43
0.00000001
 40
0.0
 40
0.0
 40
0.0
 40
0.0
 40
0.5
 40
0.5
 40
1.0
 40
1.0
 40
1.0
 40
1.0
 10
15.87500000000008
 20
-0.4696983429719696
 30
0.0
 10
15.74237296016691
 20
-0.4282790601815259
 30
0.0
 10
15.6091665647915
 20
-0.3801434613863613
 30
0.0
 10
15.33990023779965
 20
-0.2741099559470942
 30
0.0
 10
15.20965852906576
 20
-0.217048064062525
 30
0.0
 10
15.07508519728918
 20
-0.1571240571204477
 30
0.0
  0
SPLINE
  5
B1
330
1F
100
AcDbEntity
  8
외형선
  6
Continuous
370
    15
100
AcDbSpline
210
0.0
220
0.0
230
1.0
 70
    24
 71
     3
 72
    10
 73
     6
 74
     0
 42
0.000000001
 43
0.00000001
 40
0.0
 40
0.0
 40
0.0
 40
0.0
 40
0.5
 40
0.5
 40
1.0
 40
1.0
 40
1.0
 40
1.0
 10
15.87500000000001
 20
0.3739112291010095
 30
0.0
 10
15.87500000000001
 20
0.2521281990851045
 30
0.0
 10
15.87500000000001
 20
0.1041451573581645
 30
0.0
 10
15.87500000000001
 20
-0.1957223289574481
 30
0.0
 10
15.87500000000001
 20
-0.3452833743977595
 30
0.0
 10
15.87500000000001
 20
-0.469698342971947
 30
0.0
  0
SPLINE
  5
B2
330
1F
100
AcDbEntity
  8
외형선
  6
Continuous
370
    15
100
AcDbSpline
210
0.0
220
0.0
230
1.0
 70
     8
 71
     3
 72
    10
 73
     6
 74
     0
 42
0.000000001
 43
0.00000001
 40
0.0
 40
0.0
 40
0.0
 40
0.0
 40
0.5
 40
0.5
 40
1.0
 40
1.0
 40
1.0
 40
1.0
 10
15.87500000000005
 20
0.3739112291009971
 30
0.0
 10
15.7423716408485
 20
0.4137470270446121
 30
0.0
 10
15.60916385813183
 20
0.4483407905803526
 30
0.0
 10
15.33989490881334
 20
0.5041064989391835
 30
0.0
 10
15.20965189870941
 20
0.5249573773868065
 30
0.0
 10
15.07507716521159
 20
0.5383477264887944
 30
0.0
  0
SPLINE
  5
B3
330
1F
100
AcDbEntity
  8
외형선
  6
Continuous
370
    15
100
AcDbSpline
210
0.0
220
0.0
230
1.0
 70
    24
 71
     3
 72
     8
 73
     4
 74
     0
 42
0.000000001
 43
0.00000001
 40
0.0
 40
0.0
 40
0.0
 40
0.0
 40
1.0
 40
1.0
 40
1.0
 40
1.0
 10
15.8750000000006
 20
0.5578413678264627
 30
0.0
 10
15.8750000000006
 20
0.5193858868253104
 30
0.0
 10
15.8750000000006
 20
0.4480093620370197
 30
0.0
 10
15.8750000000006
 20
0.3739112291008332
 30
0.0
  0
SPLINE
  5
B4
330
1F
100
AcDbEntity
  8
외형선
  6
Continuous
370
    15
100
AcDbSpline
210
0.0
220
0.0
230
1.0
 70
    24
 71
     3
 72
    10
 73
     6
 74
     0
 42
0.000000001
 43
0.00000001
 40
0.0
 40
0.0
 40
0.0
 40
0.0
 40
0.1955250328711948
 40
0.8084763880927874
 40
1.0
 40
1.0
 40
1.0
 40
1.0
 10
15.87500000000001
 20
-0.6334064811882776
 30
0.0
 10
15.87500000000001
 20
-0.6375413969268251
 30
0.0
 10
15.87500000000001
 20
-0.6546388585269016
 30
0.0
 10
15.87500000000001
 20
-0.6738186474574115
 30
0.0
 10
15.87500000000001
 20
-0.6885809772856903
 30
0.0
 10
15.87500000000001
 20
-0.6920954865549699
 30
0.0
  0
SPLINE
  5
B5
330
1F
100
AcDbEntity
  8
0
  6
Continuous
 62
     1
370
    25
100
AcDbSpline
210
0.0
220
0.0
230
1.0
 70
     8
 71
     3
 72
    26
 73
    22
 74
     0
 42
0.000000001
 43
0.00000001
 40
0.0
 40
0.0
 40
0.0
 40
0.0
 40
0.1250000000000001
 40
0.1250000000000001
 40
0.2500000000000003
 40
0.2500000000000003
 40
0.3125000000000003
 40
0.3125000000000003
 40
0.3750000000000004
 40
0.3750000000000004
 40
0.5000000000000002
 40
0.5000000000000002
 40
0.625
 40
0.625
 40
0.7499999999999999
 40
0.7499999999999999
 40
0.8125
 40
0.8125
 40
0.8750000000000001
 40
0.8750000000000001
 40
1.0
 40
1.0
 40
1.0
 40
1.0
 10
19.05000000000001
 20
-0.7532218149528186
 30
0.0
 10
18.92028455395996
 20
-0.729288712377841
 30
0.0
 10
18.78495808532966
 20
-0.6944781297630893
 30
0.0
 10
18.51958824511019
 20
-0.6069263429416549
 30
0.0
 10
18.39014266578884
 20
-0.5545002406743701
 30
0.0
 10
18.18985437138171
 20
-0.4646298547664874
 30
0.0
 10
18.12300831624853
 20
-0.4329252865916461
 30
0.0
 10
17.99122403061624
 20
-0.367048737404345
 30
0.0
 10
17.92678923977311
 20
-0.3329795074217305
 30
0.0
 10
17.72850117177083
 20
-0.2268130964630942
 30
0.0
 10
17.59297312029913
 20
-0.1512507005812745
 30
0.0
 10
17.33182867032418
 20
0.0001276297063903
 30
0.0
 10
17.19841432736298
 20
0.0774104542727435
 30
0.0
 10
16.93228038309564
 20
0.2275881277294264
 30
0.0
 10
16.80324980259827
 20
0.2998091111018009
 30
0.0
 10
16.60313129100724
 20
0.4016125835570492
 30
0.0
 10
16.53616822633029
 20
0.4342996062248292
 30
0.0
 10
16.40381472383248
 20
0.4961819179759408
 30
0.0
 10
16.33931951403445
 20
0.5252589385418321
 30
0.0
 10
16.14193492435785
 20
0.6073404523232188
 30
0.0
 10
16.00632404646154
 20
0.6547958622976855
 30
0.0
 10
15.87500000000004
 20
0.6920954865548686
 30
0.0
  0
SPLINE
  5
B6
330
1F
100
AcDbEntity
  8
0
  6
Continuous
 62
     1
370
    25
100
AcDbSpline
210
0.0
220
0.0
230
1.0
 70
     8
 71
     3
 72
    12
 73
     8
 74
     0
 42
0.000000001
 43
0.00000001
 40
0.0
 40
0.0
 40
0.0
 40
0.0
 40
0.2405721293608423
 40
0.4810052581564252
 40
0.7213248343635468
 40
0.9615568345802038
 40
1.0
 40
1.0
 40
1.0
 40
1.0
 10
19.05
 20
-0.6262467348422697
 30
0.0
 10
18.88413614224085
 20
-0.5880730809837247
 30
0.0
 10
18.552504261473
 20
-0.511747829684718
 30
0.0
 10
18.05523810154252
 20
-0.3086033285808269
 30
0.0
 10
17.55823908885449
 20
-0.0744858349193875
 30
0.0
 10
17.20049466778451
 20
0.1104174021721516
 30
0.0
 10
17.00841189413469
 20
0.1946978042657403
 30
0.0
 10
16.98191412629503
 20
0.2063242634514057
 30
0.0
  0
LINE
  5
B7
330
1F
100
AcDbEntity
  8
0
  6
Continuous
 62
     1
370
    25
100
AcDbLine
 10
19.05
 20
-0.7532218149528189
 30
0.0
 11
19.05
 21
-0.6262467348422697
 31
0.0
  0
SPLINE
  5
B8
330
1F
100
AcDbEntity
  8
0
  6
Continuous
 62
     1
370
    25
100
AcDbSpline
210
0.0
220
0.0
230
1.0
 70
     8
 71
     3
 72
    26
 73
    22
 74
     0
 42
0.000000001
 43
0.00000001
 40
0.0
 40
0.0
 40
0.0
 40
0.0
 40
0.1249999999999998
 40
0.1249999999999998
 40
0.2499999999999995
 40
0.2499999999999995
 40
0.3124999999999995
 40
0.3124999999999995
 40
0.3749999999999994
 40
0.3749999999999994
 40
0.4999999999999996
 40
0.4999999999999996
 40
0.6249999999999997
 40
0.6249999999999997
 40
0.7499999999999997
 40
0.7499999999999997
 40
0.8124999999999997
 40
0.8124999999999997
 40
0.8749999999999998
 40
0.8749999999999998
 40
1.0
 40
1.0
 40
1.0
 40
1.0
 10
19.05000000000001
 20
-0.793079134588528
 30
0.0
 10
18.92028455395996
 20
-0.7899605178378305
 30
0.0
 10
18.78495808532965
 20
-0.7757010166352343
 30
0.0
 10
18.51958824511019
 20
-0.7261682427406366
 30
0.0
 10
18.39014266578884
 20
-0.6912108141519873
 30
0.0
 10
18.1898543713817
 20
-0.6246093741856307
 30
0.0
 10
18.12300831624852
 20
-0.6001296883739696
 30
0.0
 10
17.99122403061623
 20
-0.5474298330996545
 30
0.0
 10
17.9267892397731
 20
-0.519304159957912
 30
0.0
 10
17.72850117177082
 20
-0.42912495512572
 30
0.0
 10
17.59297312029912
 20
-0.3615918013978051
 30
0.0
 10
17.33182867032416
 20
-0.2200992998219867
 30
0.0
 10
17.19841432736296
 20
-0.1447948607858123
 30
0.0
 10
16.93228038309562
 20
0.0076616441193338
 30
0.0
 10
16.80324980259825
 20
0.0840698814339068
 30
0.0
 10
16.60313129100722
 20
0.1966093410041358
 30
0.0
 10
16.53616822633028
 20
0.2336113826184207
 30
0.0
 10
16.40381472383245
 20
0.3054506453905937
 30
0.0
 10
16.33931951403443
 20
0.3401378582901964
 30
0.0
 10
16.14193492435782
 20
0.4410134007025206
 30
0.0
 10
16.00632404646151
 20
0.5036476531897376
 30
0.0
 10
15.87500000000002
 20
0.5578413678267482
 30
0.0
  0
SPLINE
  5
B9
330
1F
100
AcDbEntity
  8
0
  6
Continuous
 62
     1
370
    25
100
AcDbSpline
210
0.0
220
0.0
230
1.0
 70
     8
 71
     3
 72
    11
 73
     7
 74
     0
 42
0.000000001
 43
0.00000001
 40
0.0
 40
0.0
 40
0.0
 40
0.0
 40
0.0165460094369961
 40
0.4282141624852999
 40
0.8398207044814072
 40
1.0
 40
1.0
 40
1.0
 40
1.0
 10
17.08134470369225
 20
-0.0767806488736166
 30
0.0
 10
17.07469082267956
 20
-0.0742326529089175
 30
0.0
 10
16.90248699939651
 20
-0.0082899878696987
 30
0.0
 10
16.56478447125763
 20
0.1340268133516458
 30
0.0
 10
16.16926615726912
 20
0.2826704891589458
 30
0.0
 10
15.93939561618329
 20
0.3539445984693598
 30
0.0
 10
15.87500000000005
 20
0.3739112291009971
 30
0.0
  0
SPLINE
  5
BA
330
1F
100
AcDbEntity
  8
외형선
  6
Continuous
370
    15
100
AcDbSpline
210
0.0
220
0.0
230
1.0
 70
    24
 71
     3
 72
     8
 73
     4
 74
     0
 42
0.000000001
 43
0.00000001
 40
0.0
 40
0.0
 40
0.0
 40
0.0
 40
1.0
 40
1.0
 40
1.0
 40
1.0
 10
15.8750000000006
 20
0.5578413678264627
 30
0.0
 10
15.8750000000006
 20
0.5193858868253104
 30
0.0
 10
15.8750000000006
 20
0.4480093620370197
 30
0.0
 10
15.8750000000006
 20
0.3739112291008332
 30
0.0
  0
LINE
  5
BB
330
1F
100
AcDbEntity
  8
0
  6
Continuous
 62
     1
370
    25
100
AcDbLine
 10
19.05
 20
-0.793079134588528
 30
0.0
 11
19.05
 21
-0.7532218149528189
 31
0.0
  0
SPLINE
  5
BC
330
1F
100
AcDbEntity
  8
0
  6
Continuous
 62
     1
370
    25
100
AcDbSpline
210
0.0
220
0.0
230
1.0
 70
     8
 71
     3
 72
     8
 73
     4
 74
     0
 42
0.000000001
 43
0.00000001
 40
0.0
 40
0.0
 40
0.0
 40
0.0
 40
1.0
 40
1.0
 40
1.0
 40
1.0
 10
18.55916518402695
 20
0.2217164472896037
 30
0.0
 10
18.53086283303623
 20
0.2552055529186504
 30
0.0
 10
18.50555695231341
 20
0.2874688336123013
 30
0.0
 10
18.48403983627203
 20
0.3181821699361874
 30
0.0
  0
LINE
  5
BD
330
1F
100
AcDbEntity
  8
0
  6
Continuous
 62
     1
370
    25
100
AcDbLine
 10
18.49409439046918
 20
0.3266189426618272
 30
0.0
 11
19.05
 21
0.0000000000000021
 31
0.0
  0
LINE
  5
BE
330
1F
100
AcDbEntity
  8
0
  6
Continuous
 62
     1
370
    25
100
AcDbLine
 10
19.05
 20
0.0000000000000021
 30
0.0
 11
19.05
 21
-0.2121240884110286
 31
0.0
  0
SPLINE
  5
BF
330
1F
100
AcDbEntity
  8
0
  6
Continuous
 62
     1
370
    25
100
AcDbSpline
210
0.0
220
0.0
230
1.0
 70
     8
 71
     3
 72
    10
 73
     6
 74
     0
 42
0.000000001
 43
0.00000001
 40
0.0
 40
0.0
 40
0.0
 40
0.0
 40
0.5
 40
0.5
 40
1.0
 40
1.0
 40
1.0
 40
1.0
 10
19.05
 20
-0.2121240884110285
 30
0.0
 10
18.96503968058413
 20
-0.1453288991865639
 30
0.0
 10
18.88149867432915
 20
-0.0757943889780206
 30
0.0
 10
18.71731817387945
 20
0.0688746449464611
 30
0.0
 10
18.63590546063871
 20
0.1447670400822739
 30
0.0
 10
18.55916518402629
 20
0.2217164472879028
 30
0.0
  0
SPLINE
  5
C0
330
1F
100
AcDbEntity
  8
0
  6
Continuous
 62
     1
370
    25
100
AcDbSpline
210
0.0
220
0.0
230
1.0
 70
     8
 71
     3
 72
    11
 73
     7
 74
     0
 42
0.000000001
 43
0.00000001
 40
0.0
 40
0.0
 40
0.0
 40
0.0
 40
0.2755383909931489
 40
0.5472575325178729
 40
0.8188762853461236
 40
1.0
 40
1.0
 40
1.0
 40
1.0
 10
18.55916518675314
 20
0.2217164461020135
 30
0.0
 10
18.39115902087695
 20
0.2916713128351225
 30
0.0
 10
18.05747542980351
 20
0.4306113988898815
 30
0.0
 10
17.5582253590412
 20
0.571424223598939
 30
0.0
 10
17.11655363854645
 20
0.6425939483675903
 30
0.0
 10
16.84054858792343
 20
0.627564826482518
 30
0.0
 10
16.73013027371029
 20
0.6215522904839645
 30
0.0
  0
SPLINE
  5
C1
330
1F
100
AcDbEntity
  8
0
  6
Continuous
 62
     1
370
    25
100
AcDbSpline
210
0.0
220
0.0
230
1.0
 70
    24
 71
     3
 72
     8
 73
     4
 74
     0
 42
0.000000001
 43
0.00000001
 40
0.0
 40
0.0
 40
0.0
 40
0.0
 40
1.0
 40
1.0
 40
1.0
 40
1.0
 10
19.05
 20
-0.6262467348422696
 30
0.0
 10
19.05
 20
-0.5302333452012672
 30
0.0
 10
19.05
 20
-0.3805014774328964
 30
0.0
 10
19.05
 20
-0.212124088411054
 30
0.0
  0
SPLINE
  5
C2
330
1F
100
AcDbEntity
  8
0
  6
Continuous
 62
     1
370
    25
100
AcDbSpline
210
0.0
220
0.0
230
1.0
 70
    24
 71
     3
 72
     8
 73
     4
 74
     0
 42
0.000000001
 43
0.00000001
 40
0.0
 40
0.0
 40
0.0
 40
0.0
 40
1.0
 40
1.0
 40
1.0
 40
1.0
 10
18.56672898750673
 20
0.3875666062467494
 30
0.0
 10
18.54053382861938
 20
0.3655862580857445
 30
0.0
 10
18.51289163828372
 20
0.3423917063701535
 30
0.0
 10
18.48403983626886
 20
0.3181821699406921
 30
0.0
  0
LINE
  5
C3
330
1F
100
AcDbEntity
  8
0
  6
Continuous
 62
     1
370
    25
100
AcDbLine
 10
19.05
 20
0.5556250000000016
 30
0.0
 11
18.75461984862495
 21
0.5342930229220525
 31
0.0
  0
SPLINE
  5
C4
330
1F
100
AcDbEntity
  8
0
  6
Continuous
 62
     1
370
    25
100
AcDbSpline
210
0.0
220
0.0
230
1.0
 70
     8
 71
     3
 72
    17
 73
    13
 74
     0
 42
0.000000001
 43
0.00000001
 40
0.0
 40
0.0
 40
0.0
 40
0.0
 40
0.0002064353065802
 40
0.0002064353065802
 40
0.0002064353065802
 40
0.000412880285268
 40
0.000412880285268
 40
0.000412880285268
 40
0.0005854434994281
 40
0.0005854434994281
 40
0.0005854434994281
 40
0.0006532075446725
 40
0.0006532075446725
 40
0.0006532075446725
 40
0.0006532075446725
 10
19.05
 20
0.5556250000000021
 30
0.0
 10
18.99839576524656
 20
0.5415865628590787
 30
0.0
 10
18.94695181092577
 20
0.5264958129485974
 30
0.0
 10
18.89572466254262
 20
0.5102737300222966
 30
0.0
 10
18.84449612575906
 20
0.4940512074317311
 30
0.0
 10
18.79346864117402
 20
0.4766937615728313
 30
0.0
 10
18.74272091587417
 20
0.4580732353410816
 30
0.0
 10
18.70030069571821
 20
0.4425082653349716
 30
0.0
 10
18.65806385133566
 20
0.426056268000531
 30
0.0
 10
18.61607700398776
 20
0.40860337787954
 30
0.0
 10
18.59958853184831
 20
0.4017495293367228
 30
0.0
 10
18.58313743248048
 20
0.394740273592804
 30
0.0
 10
18.56672898751665
 20
0.3875666062510901
 30
0.0
  0
SPLINE
  5
C5
330
1F
100
AcDbEntity
  8
0
  6
Continuous
 62
     1
370
    25
100
AcDbSpline
210
0.0
220
0.0
230
1.0
 70
     8
 71
     3
 72
    11
 73
     7
 74
     0
 42
0.000000001
 43
0.00000001
 40
0.0
 40
0.0
 40
0.0
 40
0.0
 40
0.2079466100020416
 40
0.5394899621084903
 40
0.8709849916335811
 40
1.0
 40
1.0
 40
1.0
 40
1.0
 10
17.37289098825002
 20
-0.5870243800142626
 30
0.0
 10
17.26905511435911
 20
-0.6042027006756303
 30
0.0
 10
16.99966668013379
 20
-0.6487695804271102
 30
0.0
 10
16.56479027632214
 20
-0.6284299365129292
 30
0.0
 10
16.16925799391308
 20
-0.5567727413756279
 30
0.0
 10
15.93939709014501
 20
-0.4887541987152585
 30
0.0
 10
15.87500000000007
 20
-0.4696983429719652
 30
0.0
  0
SPLINE
  5
C6
330
1F
100
AcDbEntity
  8
외형선
  6
Continuous
370
    15
100
AcDbSpline
210
0.0
220
0.0
230
1.0
 70
    24
 71
     3
 72
    10
 73
     6
 74
     0
 42
0.000000001
 43
0.00000001
 40
0.0
 40
0.0
 40
0.0
 40
0.0
 40
0.5
 40
0.5
 40
1.0
 40
1.0
 40
1.0
 40
1.0
 10
15.87500000000001
 20
0.3739112291010095
 30
0.0
 10
15.87500000000001
 20
0.2521281990851045
 30
0.0
 10
15.87500000000001
 20
0.1041451573581645
 30
0.0
 10
15.87500000000001
 20
-0.1957223289574481
 30
0.0
 10
15.87500000000001
 20
-0.3452833743977595
 30
0.0
 10
15.87500000000001
 20
-0.469698342971947
 30
0.0
  0
LINE
  5
C7
330
1F
100
AcDbEntity
  8
0
  6
Continuous
 62
     1
370
    25
100
AcDbLine
 10
19.05
 20
0.0000000000000021
 30
0.0
 11
19.05
 21
0.555625000000002
 31
0.0
  0
SPLINE
  5
C8
330
1F
100
AcDbEntity
  8
외형선
  6
Continuous
370
    15
100
AcDbSpline
210
0.0
220
0.0
230
1.0
 70
    24
 71
     3
 72
    11
 73
     7
 74
     0
 42
0.000000001
 43
0.00000001
 40
0.0
 40
0.0
 40
0.0
 40
0.0
 40
0.3703313504982964
 40
0.6375965921951788
 40
0.9126125440072704
 40
1.0
 40
1.0
 40
1.0
 40
1.0
 10
15.87500000000001
 20
-0.469698342971947
 30
0.0
 10
15.87500000000001
 20
-0.5053891698595834
 30
0.0
 10
15.87500000000001
 20
-0.5668377876057326
 30
0.0
 10
15.87500000000001
 20
-0.6144673860344847
 30
0.0
 10
15.87500000000001
 20
-0.6341619094432054
 30
0.0
 10
15.87500000000001
 20
-0.6317548282857781
 30
0.0
 10
15.87500000000001
 20
-0.6311744013521857
 30
0.0
  0
SPLINE
  5
C9
330
1F
100
AcDbEntity
  8
0
  6
Continuous
 62
     1
370
    25
100
AcDbSpline
210
0.0
220
0.0
230
1.0
 70
     8
 71
     3
 72
    10
 73
     6
 74
     0
 42
0.000000001
 43
0.00000001
 40
0.0
 40
0.0
 40
0.0
 40
0.0
 40
0.1370483947360571
 40
0.568193605579835
 40
1.0
 40
1.0
 40
1.0
 40
1.0
 10
17.97000852270707
 20
0.5314845739395261
 30
0.0
 10
18.0193301205984
 20
0.5541482462329903
 30
0.0
 10
18.22381421246102
 20
0.6481103367843161
 30
0.0
 10
18.58376786212307
 20
0.7532196820439294
 30
0.0
 10
18.89450992504503
 20
0.7797858655057797
 30
0.0
 10
19.05000000000001
 20
0.7930791345885313
 30
0.0
  0
SPLINE
  5
CA
330
1F
100
AcDbEntity
  8
0
  6
Continuous
 62
     1
370
    25
100
AcDbSpline
210
0.0
220
0.0
230
1.0
 70
    24
 71
     3
 72
     8
 73
     4
 74
     0
 42
0.000000001
 43
0.00000001
 40
0.0
 40
0.0
 40
0.0
 40
0.0
 40
1.0
 40
1.0
 40
1.0
 40
1.0
 10
19.05
 20
0.5556250000000016
 30
0.0
 10
19.05
 20
0.6229862076816122
 30
0.0
 10
19.05000000000001
 20
0.7135749447463089
 30
0.0
 10
19.05000000000001
 20
0.7930791345885312
 30
0.0
  0
LINE
  5
CB
330
1F
100
AcDbEntity
  8
0
  6
Continuous
 62
     1
370
    25
100
AcDbLine
 10
16.05600422173247
 20
-0.6267042957689712
 30
0.0
 11
15.87500000000004
 21
-0.6920954865548654
 31
0.0
  0
SPLINE
  5
CC
330
1F
100
AcDbEntity
  8
외형선
  6
Continuous
370
    15
100
AcDbSpline
210
0.0
220
0.0
230
1.0
 70
    24
 71
     3
 72
    11
 73
     7
 74
     0
 42
0.000000001
 43
0.00000001
 40
0.0
 40
0.0
 40
0.0
 40
0.0
 40
0.1983294848570572
 40
0.5035645302110735
 40
0.8091658467423349
 40
1.0
 40
1.0
 40
1.0
 40
1.0
 10
15.87500000000001
 20
-0.6334064811882776
 30
0.0
 10
15.87500000000001
 20
-0.6375361452263926
 30
0.0
 10
15.87500000000001
 20
-0.6480214864896028
 30
0.0
 10
15.87500000000001
 20
-0.664069346855338
 30
0.0
 10
15.87500000000001
 20
-0.6794659685753718
 30
0.0
 10
15.87500000000001
 20
-0.6885886483522202
 30
0.0
 10
15.87500000000001
 20
-0.6920954865549699
 30
0.0
  0
LINE
  5
CD
330
1F
100
AcDbEntity
  8
중심선
 62
     1
100
AcDbLine
 10
-22.04999999999999
 20
-0.0000000000000027
 30
0.0
 11
22.04999999999999
 21
0.0000000000000027
 31
0.0
  0
LINE
  5
CE
330
1F
100
AcDbEntity
  8
참조1
100
AcDbLine
 10
-5.469211678730514
 20
0.0010749287238892
 30
0.0
 11
-5.469211678730509
 21
-39.99892507127611
 31
0.0
  0
LINE
  5
CF
330
1F
100
AcDbEntity
  8
참조1
100
AcDbLine
 10
-5.469211678730509
 20
-39.99892507127611
 30
0.0
 11
-29.45992727542973
 21
-39.9989250712761
 31
0.0
  0
CIRCLE
  5
D0
330
1F
100
AcDbEntity
  8
해칭선
100
AcDbCircle
 10
0.0
 20
0.0
 30
0.0
 40
3.000000000000001
  0
INSERT
  5
D1
330
1F
100
AcDbEntity
  8
0
  6
Continuous
 62
     7
100
AcDbBlockReference
 66
     1
  2
블럭10
 10
-13.29585304382389
 20
-23.22469341405571
 30
0.0
  0
ATTRIB
  5
D2
330
D1
100
AcDbEntity
  8
FORMAT
 62
     2
100
AcDbText
 10
-22.47714833256517
 20
-21.14932650122352
 30
0.0
 40
4.233333333333333
  1
E5022004 [ 2 FLUTE ]
 41
0.75
  7
SLDTEXTSTYLE0
 11
-22.47714833256517
 21
-23.26599316789019
 31
0.0
100
AcDbAttribute
  2
AUTOATTR0
 70
     0
 74
     1
  0
SEQEND
  5
D3
330
D1
100
AcDbEntity
  8
0
  6
Continuous
 62
     7
  0
HATCH
  5
D4
330
1F
100
AcDbEntity
  8
중심선
100
AcDbHatch
 10
0.0
 20
0.0
 30
0.0
210
0.0
220
0.0
230
1.0
  2
SOLID
 70
     1
 71
     0
 91
        1
 92
        0
 93
        4
 72
     1
 10
-7.580943739443057
 20
-6.97751911241177
 11
-11.02721898328034
 21
-6.97751911241177
 72
     1
 10
-11.02721898328034
 20
-6.97751911241177
 11
-13.15544884248436
 21
-9.513844692984371
 72
     1
 10
-13.15544884248436
 20
-9.513844692984371
 11
-9.70914051353393
 21
-9.513805263681881
 72
     1
 10
-9.70914051353393
 20
-9.513805263681881
 11
-7.580943739443057
 21
-6.97751911241177
 97
        0
 75
     0
 76
     1
 98
        1
 10
6.113631567031831
 20
28.82140595886433
  0
HATCH
  5
D5
330
1F
100
AcDbEntity
  8
중심선
100
AcDbHatch
 10
0.0
 20
0.0
 30
0.0
210
0.0
220
0.0
230
1.0
  2
SOLID
 70
     1
 71
     0
 91
        1
 92
        0
 93
        4
 72
     1
 10
-2.568179748407106
 20
-6.97751911241177
 11
-6.014454992244332
 21
-6.97751911241177
 72
     1
 10
-6.014454992244332
 20
-6.97751911241177
 11
-10.54559300060178
 21
-12.37751911241179
 72
     1
 10
-10.54559300060178
 20
-12.37751911241179
 11
-7.099317756764494
 21
-12.37751911241179
 72
     1
 10
-7.099317756764494
 20
-12.37751911241179
 11
-2.568179748407106
 21
-6.97751911241177
 97
        0
 75
     0
 76
     1
 98
        1
 10
6.113631567031831
 20
28.82140595886433
  0
HATCH
  5
D6
330
1F
100
AcDbEntity
  8
중심선
100
AcDbHatch
 10
0.0
 20
0.0
 30
0.0
210
0.0
220
0.0
230
1.0
  2
SOLID
 70
     1
 71
     0
 91
        1
 92
        0
 93
        4
 72
     1
 10
2.444584242628818
 20
-6.977519112411748
 11
-1.001691001208325
 21
-6.977519112411748
 72
     1
 10
-1.001691001208325
 20
-6.977519112411748
 11
-8.050127903097575
 21
-15.37751911241179
 72
     1
 10
-8.050127903097575
 20
-15.37751911241179
 11
-4.603852659260292
 21
-15.37751911241179
 72
     1
 10
-4.603852659260292
 20
-15.37751911241179
 11
2.444584242628817
 21
-6.977519112411748
 97
        0
 75
     0
 76
     1
 98
        1
 10
6.113631567031831
 20
28.82140595886433
  0
HATCH
  5
D7
330
1F
100
AcDbEntity
  8
중심선
100
AcDbHatch
 10
0.0
 20
0.0
 30
0.0
210
0.0
220
0.0
230
1.0
  2
SOLID
 70
     1
 71
     0
 91
        1
 92
        0
 93
        6
 72
     3
 10
7.24447467364099
 20
-11.17751911246305
 11
3.960054785062284
 21
1.540882976769353E-10
 40
0.3939339440162627
 50
17.09539180608436
 51
320.0019657685077
 73
     0
 72
     1
 10
8.927474329341557
 20
-9.765413117050073
 11
11.23277620304262
 21
-7.831086407002154
 72
     3
 10
7.244474673588143
 20
-11.17751911241192
 11
6.60005478528683
 21
-1.278976924368180E-13
 40
0.636358354079598
 50
39.99873849337411
 51
368.4976242363724
 73
     1
 72
     1
 10
13.66980716548875
 20
-10.2175191123418
 11
5.924541980424065
 21
-10.2175191123418
 72
     1
 10
5.924541980424065
 20
-10.2175191123418
 11
5.924516935978131
 21
-12.13751911234169
 72
     1
 10
5.924516935978131
 20
-12.13751911234169
 11
10.36589670545017
 21
-12.13751911234166
 97
        0
 75
     0
 76
     1
 98
        1
 10
6.113631567031831
 20
28.82140595886433
  0
DIMENSION
  5
D8
330
1F
100
AcDbEntity
  8
치수문자_일반주서
100
AcDbDimension
  2
_D
 10
-25.89086399581692
 20
-1.587500000000055
 30
0.0
 11
-25.89086399581698
 21
15.74374999999997
 31
0.0
 70
   160
  1
%%c<>
 71
     2
 42
3.175000000000004
 52
-270.0
  3
SLDDIMSTYLE0
100
AcDbAlignedDimension
 13
-11.91268467149219
 23
1.587500000000002
 33
0.0
 14
-11.91268467149219
 24
-1.587500000000003
 34
0.0
 50
90.0000000000002
100
AcDbRotatedDimension
1001
ACAD
1000
DSTYLE
1002
{
1070
   171
1070
     6
1070
   273
1070
     5
1070
    41
1040
2.5
1070
   140
1040
2.5
1002
}
  0
DIMENSION
  5
ED
330
1F
100
AcDbEntity
  8
치수문자_일반주서
100
AcDbDimension
  2
_D_1
 10
30.67415210704143
 20
0.7930791345885737
 30
0.0
 11
30.67415210704137
 21
15.41807913458857
 31
0.0
 70
   160
  1
%%c<>
 71
     2
 42
1.586158269177059
 52
-270.0
  3
SLDDIMSTYLE0
100
AcDbAlignedDimension
 13
19.05
 23
-0.793079134588528
 33
0.0
 14
19.05
 24
0.7930791345885312
 34
0.0
 50
90.0000000000002
100
AcDbRotatedDimension
1001
ACAD
1000
DSTYLE
1002
{
1070
   171
1070
     6
1070
   273
1070
     5
1070
    41
1040
2.5
1070
   140
1040
2.5
1002
}
  0
DIMENSION
  5
101
330
1F
100
AcDbEntity
  8
치수문자_일반주서
100
AcDbDimension
  2
_D_2
 10
15.87500000000001
 20
13.92322409431372
 30
0.0
 11
2.656250000000009
 21
13.92322409431372
 31
0.0
 70
   160
  1
<>
 71
     2
 42
3.174999999999995
  3
SLDDIMSTYLE0
100
AcDbAlignedDimension
 13
19.05
 23
0.7930791345885312
 33
0.0
 14
15.87500000000001
 24
0.6920954865548777
 34
0.0
100
AcDbRotatedDimension
1001
ACAD
1000
DSTYLE
1002
{
1070
   171
1070
     6
1070
   273
1070
     5
1070
    41
1040
2.5
1070
   140
1040
2.5
1002
}
  0
DIMENSION
  5
116
330
1F
100
AcDbEntity
  8
치수문자_일반주서
100
AcDbDimension
  2
_D_3
 10
19.05000000000001
 20
24.46362398784126
 30
0.0
 11
1.562861299583291
 21
24.46362398784126
 31
0.0
 70
   160
  1
<>
 71
     2
 42
38.09999999999998
  3
SLDDIMSTYLE0
100
AcDbAlignedDimension
 13
-19.04999999999998
 23
0.7930791345885272
 33
0.0
 14
19.05
 24
0.7930791345885312
 34
0.0
100
AcDbRotatedDimension
1001
ACAD
1000
DSTYLE
1002
{
1070
   171
1070
     6
1070
   273
1070
     5
1070
    41
1040
2.5
1070
   140
1040
2.5
1002
}
  0
LINE
  5
12A
330
1F
100
AcDbEntity
  8
참조1
100
AcDbLine
 10
68.51241335422453
 20
7.441074928723896
 30
0.0
 11
68.51241335422453
 21
-7.438925071276109
 31
0.0
  0
LINE
  5
12B
330
1F
100
AcDbEntity
  8
참조1
100
AcDbLine
 10
81.21241335422454
 20
5.441074928723896
 30
0.0
 11
68.51241335422453
 21
5.441074928723896
 31
0.0
  0
SOLID
  5
12C
330
1F
100
AcDbEntity
  8
참조1
100
AcDbTrace
 10
68.51241335422453
 20
5.441074928723896
 30
0.0
 11
74.86241335422453
 21
4.425074928723896
 31
0.0
 12
74.86241335422453
 22
6.457074928723896
 32
0.0
 13
74.86241335422453
 23
6.457074928723896
 33
0.0
  0
LINE
  5
12D
330
1F
100
AcDbEntity
  8
참조1
100
AcDbLine
 10
81.21241335422454
 20
-5.438925071276109
 30
0.0
 11
68.51241335422453
 21
-5.438925071276109
 31
0.0
  0
SOLID
  5
12E
330
1F
100
AcDbEntity
  8
참조1
100
AcDbTrace
 10
68.51241335422453
 20
-5.438925071276109
 30
0.0
 11
74.86241335422453
 21
-6.454925071276109
 31
0.0
 12
74.86241335422453
 22
-4.422925071276109
 32
0.0
 13
74.86241335422453
 23
-4.422925071276109
 33
0.0
  0
MTEXT
  5
12F
330
1F
100
AcDbEntity
  8
참조1
100
AcDbMText
 10
77.89676348685053
 20
11.01136670591222
 30
0.0
 40
3.5
 41
0.0
 71
     1
 72
     1
  1
A
  7
SLDTEXTSTYLE0
 73
     1
 44
1.0
  0
MTEXT
  5
130
330
1F
100
AcDbEntity
  8
참조1
100
AcDbMText
 10
77.89676348685053
 20
0.1313667059122192
 30
0.0
 40
3.5
 41
0.0
 71
     1
 72
     1
  1
A
  7
SLDTEXTSTYLE0
 73
     1
 44
1.0
  0
INSERT
  5
137
330
1F
100
AcDbEntity
  8
해칭선
100
AcDbBlockReference
  2
SW_DOWELSYMBOL_0
 10
0.0
 20
0.0
 30
0.0
  0
LINE
  5
250
330
1F
100
AcDbEntity
  8
0
  6
Continuous
 62
     4
370
    25
100
AcDbLine
 10
-8.722322965224912
 20
84.22086910747417
 30
0.0
 11
-52.82520864819495
 21
84.22086910747417
 31
0.0
  0
LINE
  5
251
330
1F
100
AcDbEntity
  8
0
  6
Continuous
 62
     4
370
    25
100
AcDbLine
 10
-52.82520864819495
 20
78.22086910747417
 30
0.0
 11
-8.722322965224912
 21
78.22086910747417
 31
0.0
  0
LINE
  5
252
330
1F
100
AcDbEntity
  8
0
  6
Continuous
 62
     4
370
    25
100
AcDbLine
 10
-8.722322965224912
 20
78.22086910747417
 30
0.0
 11
-0.8254028048449342
 21
80.33684248714104
 31
0.0
  0
LINE
  5
253
330
1F
100
AcDbEntity
  8
0
  6
Continuous
 62
     4
370
    25
100
AcDbLine
 10
-0.8254028048449342
 20
82.1048957278073
 30
0.0
 11
-8.722322965224912
 21
84.22086910747417
 31
0.0
  0
LINE
  5
254
330
1F
100
AcDbEntity
  8
0
  6
Continuous
 62
     4
370
    25
100
AcDbLine
 10
-52.82520864819495
 20
84.22086910747417
 30
0.0
 11
-53.32520864819496
 21
83.72086910747417
 31
0.0
  0
LINE
  5
255
330
1F
100
AcDbEntity
  8
0
  6
Continuous
 62
     4
370
    25
100
AcDbLine
 10
-53.32520864819496
 20
78.72086910747417
 30
0.0
 11
-52.82520864819495
 21
78.22086910747417
 31
0.0
  0
LINE
  5
256
330
1F
100
AcDbEntity
  8
0
  6
Continuous
 62
     4
370
    25
100
AcDbLine
 10
0.2633959705952549
 20
80.47086910747417
 30
0.0
 11
0.674791351805041
 21
80.47086910747417
 31
0.0
  0
LINE
  5
257
330
1F
100
AcDbEntity
  8
0
  6
Continuous
 62
     4
370
    25
100
AcDbLine
 10
0.674791351805041
 20
81.97086910747417
 30
0.0
 11
0.2633959705952549
 21
81.97086910747417
 31
0.0
  0
LINE
  5
258
330
1F
100
AcDbEntity
  8
0
  6
Continuous
 62
     1
370
    25
100
AcDbLine
 10
4.344227760619802
 20
80.47086910747417
 30
0.0
 11
4.924565605713624
 21
80.47086910747417
 31
0.0
  0
LINE
  5
259
330
1F
100
AcDbEntity
  8
0
  6
Continuous
 62
     4
370
    25
100
AcDbLine
 10
0.8434316010694403
 20
81.97086910747417
 30
0.0
 11
0.674791351805041
 21
81.97086910747417
 31
0.0
  0
LINE
  5
25A
330
1F
100
AcDbEntity
  8
0
  6
Continuous
 62
     4
370
    25
100
AcDbLine
 10
2.521470945193087
 20
81.09760919179719
 30
0.0
 11
2.491039085497874
 21
81.11357303364221
 31
0.0
  0
LINE
  5
25B
330
1F
100
AcDbEntity
  8
0
  6
Continuous
 62
     4
370
    25
100
AcDbLine
 10
6.531717322426758
 20
81.13642153404776
 30
0.0
 11
6.514071897961415
 21
81.146792396898
 31
0.0
  0
SPLINE
  5
25C
330
1F
100
AcDbEntity
  8
0
  6
Continuous
 62
     4
370
    25
100
AcDbSpline
210
0.0
220
0.0
230
1.0
 70
     8
 71
     3
 72
     9
 73
     5
 74
     0
 42
0.000000001
 43
0.00000001
 40
0.0
 40
0.0
 40
0.0
 40
0.0
 40
0.5608731443051318
 40
1.0
 40
1.0
 40
1.0
 40
1.0
 10
6.674791351805041
 20
81.05388548722527
 30
0.0
 10
6.648315185884769
 20
81.06878331747204
 30
0.0
 10
6.601109919971961
 20
81.09534517089297
 30
0.0
 10
6.552891378798464
 20
81.12388772987048
 30
0.0
 10
6.531717322426758
 20
81.13642153404776
 30
0.0
  0
LINE
  5
25D
330
1F
100
AcDbEntity
  8
0
  6
Continuous
 62
     4
370
    25
100
AcDbLine
 10
4.700136421049535
 20
81.34816449369933
 30
0.0
 11
4.738911725603415
 21
81.32802269905524
 31
0.0
  0
LINE
  5
25E
330
1F
100
AcDbEntity
  8
0
  6
Continuous
 62
     1
370
    25
100
AcDbLine
 10
6.383810348407764
 20
80.47086910747417
 30
0.0
 11
6.674791351805041
 21
80.47086910747417
 31
0.0
  0
LINE
  5
25F
330
1F
100
AcDbEntity
  8
0
  6
Continuous
 62
     1
370
    25
100
AcDbLine
 10
2.884580224992462
 20
81.97086910747417
 30
0.0
 11
2.304761434621469
 21
81.97086910747417
 31
0.0
  0
LINE
  5
260
330
1F
100
AcDbEntity
  8
0
  6
Continuous
 62
     1
370
    25
100
AcDbLine
 10
2.304761434621454
 20
80.47086910747417
 30
0.0
 11
2.884580224992447
 21
80.47086910747417
 31
0.0
  0
LINE
  5
261
330
1F
100
AcDbEntity
  8
0
  6
Continuous
 62
     1
370
    25
100
AcDbLine
 10
6.674791351805041
 20
81.97086910747417
 30
0.0
 11
6.383810348407764
 21
81.97086910747417
 31
0.0
  0
LINE
  5
262
330
1F
100
AcDbEntity
  8
0
  6
Continuous
 62
     4
370
    25
100
AcDbLine
 10
0.674791351805041
 20
80.47086910747417
 30
0.0
 11
0.8434316010694403
 21
80.47086910747417
 31
0.0
  0
LINE
  5
263
330
1F
100
AcDbEntity
  8
0
  6
Continuous
 62
     1
370
    25
100
AcDbLine
 10
4.924565605713624
 20
81.97086910747417
 30
0.0
 11
4.344227760619802
 21
81.97086910747417
 31
0.0
  0
LINE
  5
264
330
1F
100
AcDbEntity
  8
0
  6
Continuous
 62
     4
370
    25
100
AcDbLine
 10
-8.722322965224912
 20
84.22086910747417
 30
0.0
 11
-8.722322965224912
 21
78.22086910747417
 31
0.0
  0
LINE
  5
265
330
1F
100
AcDbEntity
  8
0
  6
Continuous
 62
     4
370
    25
100
AcDbLine
 10
-52.82520864819495
 20
84.22086910747417
 30
0.0
 11
-52.82520864819495
 21
78.22086910747417
 31
0.0
  0
SPLINE
  5
266
330
1F
100
AcDbEntity
  8
0
  6
Continuous
 62
     4
370
    25
100
AcDbSpline
210
0.0
220
0.0
230
1.0
 70
     8
 71
     3
 72
     8
 73
     4
 74
     0
 42
0.000000001
 43
0.00000001
 40
0.0
 40
0.0
 40
0.0
 40
0.0
 40
1.0
 40
1.0
 40
1.0
 40
1.0
 10
-0.5956396666331472
 20
81.73013056958577
 30
0.0
 10
-0.5058037251019272
 20
81.67096456470524
 30
0.0
 10
-0.4156941809093553
 20
81.61057674714569
 30
0.0
 10
-0.325208648194959
 20
81.54907446721988
 30
0.0
  0
SPLINE
  5
267
330
1F
100
AcDbEntity
  8
0
  6
Continuous
 62
     4
370
    25
100
AcDbSpline
210
0.0
220
0.0
230
1.0
 70
     8
 71
     3
 72
    26
 73
    22
 74
     0
 42
0.000000001
 43
0.00000001
 40
0.0
 40
0.0
 40
0.0
 40
0.0
 40
0.0000472036532306
 40
0.0000472036532306
 40
0.0000472036532306
 40
0.0000943059610966
 40
0.0000943059610966
 40
0.0000943059610966
 40
0.000142896695421
 40
0.000142896695421
 40
0.000142896695421
 40
0.0001942367211245
 40
0.0001942367211245
 40
0.0001942367211245
 40
0.0002472393033591
 40
0.0002472393033591
 40
0.0002472393033591
 40
0.0003003270339193
 40
0.0003003270339193
 40
0.0003003270339193
 40
0.0003262052869102
 40
0.0003262052869102
 40
0.0003262052869102
 40
0.0003262052869102
 10
-0.8254028048449342
 20
81.65965479794906
 30
0.0
 10
-0.8254028048449342
 20
81.6733143251769
 30
0.0
 10
-0.8228469604414457
 20
81.68660240559336
 30
0.0
 10
-0.8179964058566753
 20
81.69843563231275
 30
0.0
 10
-0.8131517146679599
 20
81.71025455491628
 30
0.0
 10
-0.8059040059608975
 20
81.72094940155004
 30
0.0
 10
-0.796882625863617
 20
81.72983484727096
 30
0.0
 10
-0.7875748581327571
 20
81.73900236532961
 30
0.0
 10
-0.7761450076516496
 20
81.74649312817603
 30
0.0
 10
-0.7634580223905871
 20
81.75192929284015
 30
0.0
 10
-0.750065183155229
 20
81.75766790433099
 30
0.0
 10
-0.7349148871741278
 20
81.76127343465066
 30
0.0
 10
-0.7191534419072951
 20
81.76259994021666
 30
0.0
 10
-0.7028956430925604
 20
81.76396821960053
 30
0.0
 10
-0.6855368221268776
 20
81.76294755373087
 30
0.0
 10
-0.6684895507160462
 20
81.75964461738319
 30
0.0
 10
-0.6514195981700368
 20
81.75633728652896
 30
0.0
 10
-0.634185595860643
 20
81.75064398960525
 30
0.0
 10
-0.6182811118198259
 20
81.74296037222051
 30
0.0
 10
-0.6104414661108848
 20
81.73917295994703
 30
0.0
 10
-0.6028382452065415
 20
81.73487155774426
 30
0.0
 10
-0.5956396666331472
 20
81.73013056958577
 30
0.0
  0
LINE
  5
268
330
1F
100
AcDbEntity
  8
0
  6
Continuous
 62
     4
370
    25
100
AcDbLine
 10
-0.8254028048449342
 20
81.65965479794906
 30
0.0
 11
-0.8254028048449342
 21
81.04595895968076
 31
0.0
  0
SPLINE
  5
269
330
1F
100
AcDbEntity
  8
0
  6
Continuous
 62
     4
370
    25
100
AcDbSpline
210
0.0
220
0.0
230
1.0
 70
     8
 71
     3
 72
    14
 73
    10
 74
     0
 42
0.000000001
 43
0.00000001
 40
0.0
 40
0.0
 40
0.0
 40
0.0
 40
0.0000509369177189
 40
0.0000509369177189
 40
0.0000509369177189
 40
0.0001020152221073
 40
0.0001020152221073
 40
0.0001020152221073
 40
0.0001494864860057
 40
0.0001494864860057
 40
0.0001494864860057
 40
0.0001494864860057
 10
-0.758285512405827
 20
80.9296535924502
 30
0.0
 10
-0.7719484391894156
 20
80.93726752900795
 30
0.0
 10
-0.7843325534777392
 20
80.94738993067818
 30
0.0
 10
-0.7944299885063444
 20
80.95935079680156
 30
0.0
 10
-0.8045435101464591
 20
80.97133071824007
 30
0.0
 10
-0.8126414814108287
 20
80.98551633732143
 30
0.0
 10
-0.8179123610203263
 20
81.00076107067284
 30
0.0
 10
-0.8228169089295676
 20
81.014946278954
 30
0.0
 10
-0.8254028048450053
 20
81.0304476992361
 30
0.0
 10
-0.8254028048450053
 20
81.04595895968073
 30
0.0
  0
SPLINE
  5
26A
330
1F
100
AcDbEntity
  8
0
  6
Continuous
 62
     4
370
    25
100
AcDbSpline
210
0.0
220
0.0
230
1.0
 70
     8
 71
     3
 72
     8
 73
     4
 74
     0
 42
0.000000001
 43
0.00000001
 40
0.0
 40
0.0
 40
0.0
 40
0.0
 40
1.0
 40
1.0
 40
1.0
 40
1.0
 10
-0.325208648194959
 20
80.75442225039191
 30
0.0
 10
-0.4745842059233922
 20
80.79364858783218
 30
0.0
 10
-0.6180639794688858
 20
80.85151236599673
 30
0.0
 10
-0.758285512405827
 20
80.9296535924502
 30
0.0
  0
LINE
  5
26B
330
1F
100
AcDbEntity
  8
0
  6
Continuous
 62
     4
370
    25
100
AcDbLine
 10
-0.325208648194959
 20
80.75442225039191
 30
0.0
 11
-0.325208648194959
 21
80.54649440314861
 31
0.0
  0
SPLINE
  5
26C
330
1F
100
AcDbEntity
  8
0
  6
Continuous
 62
     4
370
    25
100
AcDbSpline
210
0.0
220
0.0
230
1.0
 70
     8
 71
     3
 72
     8
 73
     4
 74
     0
 42
0.000000001
 43
0.00000001
 40
0.0
 40
0.0
 40
0.0
 40
0.0
 40
1.0
 40
1.0
 40
1.0
 40
1.0
 10
-0.5956396666331472
 20
80.57503930694438
 30
0.0
 10
-0.5058037251019272
 20
80.55903957465114
 30
0.0
 10
-0.4156941809093553
 20
80.54946194305224
 30
0.0
 10
-0.325208648194959
 20
80.54649440314861
 30
0.0
  0
SPLINE
  5
26D
330
1F
100
AcDbEntity
  8
0
  6
Continuous
 62
     4
370
    25
100
AcDbSpline
210
0.0
220
0.0
230
1.0
 70
     8
 71
     3
 72
    26
 73
    22
 74
     0
 42
0.000000001
 43
0.00000001
 40
0.0
 40
0.0
 40
0.0
 40
0.0
 40
0.0000472036532306
 40
0.0000472036532306
 40
0.0000472036532306
 40
0.0000943059610966
 40
0.0000943059610966
 40
0.0000943059610966
 40
0.000142896695421
 40
0.000142896695421
 40
0.000142896695421
 40
0.0001942367211245
 40
0.0001942367211245
 40
0.0001942367211245
 40
0.0002472393033591
 40
0.0002472393033591
 40
0.0002472393033591
 40
0.0003003270339193
 40
0.0003003270339193
 40
0.0003003270339193
 40
0.0003262052869102
 40
0.0003262052869102
 40
0.0003262052869102
 40
0.0003262052869102
 10
-0.8254028048449342
 20
80.45342517903894
 30
0.0
 10
-0.8254028048449342
 20
80.46123500704613
 30
0.0
 10
-0.8228469604414457
 20
80.47013109646123
 30
0.0
 10
-0.8179964058566753
 20
80.47929750051178
 30
0.0
 10
-0.8131517146679599
 20
80.4884528241268
 30
0.0
 10
-0.8059040059608975
 20
80.49811583962057
 30
0.0
 10
-0.796882625863617
 20
80.50742397961729
 30
0.0
 10
-0.7875748581327571
 20
80.51702761056528
 30
0.0
 10
-0.7761450076516496
 20
80.52649799328687
 30
0.0
 10
-0.7634580223905871
 20
80.53500658738946
 30
0.0
 10
-0.750065183155229
 20
80.54398856621188
 30
0.0
 10
-0.7349148871741278
 20
80.55212976208361
 30
0.0
 10
-0.7191534419072951
 20
80.55867139599859
 30
0.0
 10
-0.7028956430925604
 20
80.56541903660572
 30
0.0
 10
-0.6855368221268776
 20
80.57064030073528
 30
0.0
 10
-0.6684895507160462
 20
80.57383404672773
 30
0.0
 10
-0.6514195981700368
 20
80.5770320419506
 30
0.0
 10
-0.634185595860643
 20
80.57828105954783
 30
0.0
 10
-0.6182811118198259
 20
80.57753386343718
 30
0.0
 10
-0.6104414661108848
 20
80.577165555181
 30
0.0
 10
-0.6028382452065415
 20
80.57632136987046
 30
0.0
 10
-0.5956396666331472
 20
80.57503930694438
 30
0.0
  0
LINE
  5
26E
330
1F
100
AcDbEntity
  8
0
  6
Continuous
 62
     4
370
    25
100
AcDbLine
 10
-0.8254028048449342
 20
80.45342517903894
 30
0.0
 11
-0.8254028048449342
 21
80.33684248714104
 31
0.0
  0
SPLINE
  5
26F
330
1F
100
AcDbEntity
  8
0
  6
Continuous
 62
     4
370
    25
100
AcDbSpline
210
0.0
220
0.0
230
1.0
 70
     8
 71
     3
 72
    14
 73
    10
 74
     0
 42
0.000000001
 43
0.00000001
 40
0.0
 40
0.0
 40
0.0
 40
0.0
 40
0.0000509369177189
 40
0.0000509369177189
 40
0.0000509369177189
 40
0.0001020152221073
 40
0.0001020152221073
 40
0.0001020152221073
 40
0.0001494864860057
 40
0.0001494864860057
 40
0.0001494864860057
 40
0.0001494864860057
 10
-0.758285512405827
 20
80.40525688224665
 30
0.0
 10
-0.7719484391894156
 20
80.39865098250219
 30
0.0
 10
-0.7843325534777392
 20
80.39167953370549
 30
0.0
 10
-0.7944299885063444
 20
80.38510192038034
 30
0.0
 10
-0.8045435101464591
 20
80.37851382800683
 30
0.0
 10
-0.8126414814108287
 20
80.3721420593871
 30
0.0
 10
-0.8179123610203263
 20
80.366754970011
 30
0.0
 10
-0.8228169089295676
 20
80.36174228903668
 30
0.0
 10
-0.8254028048450053
 20
80.35744965295801
 30
0.0
 10
-0.8254028048450053
 20
80.35431875945248
 30
0.0
  0
SPLINE
  5
270
330
1F
100
AcDbEntity
  8
0
  6
Continuous
 62
     4
370
    25
100
AcDbSpline
210
0.0
220
0.0
230
1.0
 70
     8
 71
     3
 72
     9
 73
     5
 74
     0
 42
0.000000001
 43
0.00000001
 40
0.0
 40
0.0
 40
0.0
 40
0.0
 40
0.372125059009373
 40
1.0
 40
1.0
 40
1.0
 40
1.0
 10
-0.4666161408264315
 20
80.55697652105684
 30
0.0
 10
-0.5036826463275332
 20
80.53667123124549
 30
0.0
 10
-0.6032903040321429
 20
80.48210546277667
 30
0.0
 10
-0.6985035200297744
 20
80.4348975485844
 30
0.0
 10
-0.758285512405827
 20
80.40525688224665
 30
0.0
  0
SPLINE
  5
271
330
1F
100
AcDbEntity
  8
0
  6
Continuous
 62
     4
370
    25
100
AcDbSpline
210
0.0
220
0.0
230
1.0
 70
     8
 71
     3
 72
     9
 73
     5
 74
     0
 42
0.000000001
 43
0.00000001
 40
0.0
 40
0.0
 40
0.0
 40
0.0
 40
0.1057959433524142
 40
1.0
 40
1.0
 40
1.0
 40
1.0
 10
-0.4666161408264315
 20
81.8847616938915
 30
0.0
 10
-0.4616303189211521
 20
81.88545072145888
 30
0.0
 10
-0.4145035412084752
 20
81.89196351907238
 30
0.0
 10
-0.3673624252869132
 20
81.89369527163402
 30
0.0
 10
-0.325208648194959
 20
81.89524381179974
 30
0.0
  0
LINE
  5
272
330
1F
100
AcDbEntity
  8
0
  6
Continuous
 62
     4
370
    25
100
AcDbLine
 10
-0.8254028048449342
 20
82.1048957278073
 30
0.0
 11
-0.8254028048449342
 21
82.08741945549585
 31
0.0
  0
SPLINE
  5
273
330
1F
100
AcDbEntity
  8
0
  6
Continuous
 62
     4
370
    25
100
AcDbSpline
210
0.0
220
0.0
230
1.0
 70
     8
 71
     3
 72
    14
 73
    10
 74
     0
 42
0.000000001
 43
0.00000001
 40
0.0
 40
0.0
 40
0.0
 40
0.0
 40
0.0000509369177189
 40
0.0000509369177189
 40
0.0000509369177189
 40
0.0001020152221073
 40
0.0001020152221073
 40
0.0001020152221073
 40
0.0001494864860057
 40
0.0001494864860057
 40
0.0001494864860057
 40
0.0001494864860057
 10
-0.758285512405827
 20
82.03648133270171
 30
0.0
 10
-0.7719484391894156
 20
82.04308723244615
 30
0.0
 10
-0.7843325534777392
 20
82.05005868124287
 30
0.0
 10
-0.7944299885063444
 20
82.05663629456801
 30
0.0
 10
-0.8045435101464591
 20
82.06322438694151
 30
0.0
 10
-0.8126414814108287
 20
82.06959615556126
 30
0.0
 10
-0.8179123610203263
 20
82.07498324493736
 30
0.0
 10
-0.8228169089295676
 20
82.07999592591167
 30
0.0
 10
-0.8254028048450053
 20
82.08428856199035
 30
0.0
 10
-0.8254028048450053
 20
82.08741945549588
 30
0.0
  0
SPLINE
  5
274
330
1F
100
AcDbEntity
  8
0
  6
Continuous
 62
     4
370
    25
100
AcDbSpline
210
0.0
220
0.0
230
1.0
 70
     8
 71
     3
 72
     8
 73
     4
 74
     0
 42
0.000000001
 43
0.00000001
 40
0.0
 40
0.0
 40
0.0
 40
0.0
 40
1.0
 40
1.0
 40
1.0
 40
1.0
 10
-0.325208648194959
 20
81.80817424921744
 30
0.0
 10
-0.4745842059233922
 20
81.8904411892227
 30
0.0
 10
-0.6180639794688858
 20
81.96868550803941
 30
0.0
 10
-0.758285512405827
 20
82.0364813327017
 30
0.0
  0
LINE
  5
275
330
1F
100
AcDbEntity
  8
0
  6
Continuous
 62
     4
370
    25
100
AcDbLine
 10
-0.325208648194959
 20
81.80817424921744
 30
0.0
 11
-0.325208648194959
 21
81.54907446721987
 31
0.0
  0
LINE
  5
276
330
1F
100
AcDbEntity
  8
0
  6
Continuous
 62
     4
370
    25
100
AcDbLine
 10
-53.32520864819496
 20
83.72086910747417
 30
0.0
 11
-53.32520864819496
 21
78.72086910747417
 31
0.0
  0
SPLINE
  5
277
330
1F
100
AcDbEntity
  8
0
  6
Continuous
 62
     4
370
    25
100
AcDbSpline
210
0.0
220
0.0
230
1.0
 70
     8
 71
     3
 72
    12
 73
     8
 74
     0
 42
0.000000001
 43
0.00000001
 40
0.0
 40
0.0
 40
0.0
 40
0.0
 40
0.25
 40
0.25
 40
0.5
 40
0.5
 40
1.0
 40
1.0
 40
1.0
 40
1.0
 10
0.674791351805041
 20
81.93367177481537
 30
0.0
 10
0.5910433394660117
 20
81.94864890824743
 30
0.0
 10
0.5061655052769112
 20
81.95924367074798
 30
0.0
 10
0.338839696957308
 20
81.97109218777769
 30
0.0
 10
0.2581620248682839
 20
81.97239407641297
 30
0.0
 10
0.0099470951631133
 20
81.96259272315825
 30
0.0
 10
-0.1627415680144253
 20
81.9369656991969
 30
0.0
 10
-0.325208648194959
 20
81.89524381179974
 30
0.0
  0
SPLINE
  5
278
330
1F
100
AcDbEntity
  8
0
  6
Continuous
 62
     4
370
    25
100
AcDbSpline
210
0.0
220
0.0
230
1.0
 70
    24
 71
     3
 72
    16
 73
    12
 74
     0
 42
0.000000001
 43
0.00000001
 40
0.0
 40
0.0
 40
0.0
 40
0.0
 40
0.125
 40
0.125
 40
0.25
 40
0.25
 40
0.5
 40
0.5
 40
0.75
 40
0.75
 40
1.0
 40
1.0
 40
1.0
 40
1.0
 10
0.674791351805041
 20
81.9336717748154
 30
0.0
 10
0.674791351805041
 20
81.90767971975842
 30
0.0
 10
0.674791351805041
 20
81.88417698266042
 30
0.0
 10
0.674791351805041
 20
81.83217240850519
 30
0.0
 10
0.674791351805041
 20
81.8042772879128
 30
0.0
 10
0.674791351805041
 20
81.71545618806692
 30
0.0
 10
0.674791351805041
 20
81.64871545626204
 30
0.0
 10
0.674791351805041
 20
81.51511746311274
 30
0.0
 10
0.674791351805041
 20
81.44855500268864
 30
0.0
 10
0.674791351805041
 20
81.34994431562725
 30
0.0
 10
0.674791351805041
 20
81.3196498830433
 30
0.0
 10
0.674791351805041
 20
81.31838567426516
 30
0.0
  0
SPLINE
  5
279
330
1F
100
AcDbEntity
  8
0
  6
Continuous
 62
     4
370
    25
100
AcDbSpline
210
0.0
220
0.0
230
1.0
 70
     8
 71
     3
 72
    12
 73
     8
 74
     0
 42
0.000000001
 43
0.00000001
 40
0.0
 40
0.0
 40
0.0
 40
0.0
 40
0.2499999999999999
 40
0.2499999999999999
 40
0.4999999999999998
 40
0.4999999999999998
 40
1.0
 40
1.0
 40
1.0
 40
1.0
 10
0.674791351805041
 20
81.31838567426516
 30
0.0
 10
0.5910433394660117
 20
81.36613186961787
 30
0.0
 10
0.5061655052769112
 20
81.41348099628479
 30
0.0
 10
0.338839696957308
 20
81.50477113670651
 30
0.0
 10
0.2581620248682839
 20
81.54841463986159
 30
0.0
 10
0.0099470951631133
 20
81.6736475999443
 30
0.0
 10
-0.1627415680144253
 20
81.74887892490274
 30
0.0
 10
-0.325208648194959
 20
81.80817424921744
 30
0.0
  0
SPLINE
  5
27A
330
1F
100
AcDbEntity
  8
0
  6
Continuous
 62
     4
370
    25
100
AcDbSpline
210
0.0
220
0.0
230
1.0
 70
     8
 71
     3
 72
    12
 73
     8
 74
     0
 42
0.000000001
 43
0.00000001
 40
0.0
 40
0.0
 40
0.0
 40
0.0
 40
0.25
 40
0.25
 40
0.5
 40
0.5
 40
1.0
 40
1.0
 40
1.0
 40
1.0
 10
0.674791351805041
 20
80.98760454215986
 30
0.0
 10
0.5910433394660117
 20
81.0333712047694
 30
0.0
 10
0.5061655052769112
 20
81.08079649281379
 30
0.0
 10
0.338839696957308
 20
81.17634200508155
 30
0.0
 10
0.2581620248682839
 20
81.22410930373843
 30
0.0
 10
0.0099470951631133
 20
81.36765871602235
 30
0.0
 10
-0.1627415680144253
 20
81.46334708757207
 30
0.0
 10
-0.325208648194959
 20
81.54907446721987
 30
0.0
  0
SPLINE
  5
27B
330
1F
100
AcDbEntity
  8
0
  6
Continuous
 62
     4
370
    25
100
AcDbSpline
210
0.0
220
0.0
230
1.0
 70
    24
 71
     3
 72
    13
 73
     9
 74
     0
 42
0.000000001
 43
0.00000001
 40
0.0
 40
0.0
 40
0.0
 40
0.0
 40
0.0225166633774753
 40
0.2427292659481431
 40
0.4629418685189206
 40
0.6831544710894788
 40
0.9033670736601059
 40
1.0
 40
1.0
 40
1.0
 40
1.0
 10
0.674791351805041
 20
80.99345191059393
 30
0.0
 10
0.674791351805041
 20
80.99385670944733
 30
0.0
 10
0.674791351805041
 20
80.99822043452026
 30
0.0
 10
0.674791351805041
 20
80.96104532535114
 30
0.0
 10
0.674791351805041
 20
80.86780185421091
 30
0.0
 10
0.674791351805041
 20
80.72579416486849
 30
0.0
 10
0.674791351805041
 20
80.58754469302116
 30
0.0
 10
0.674791351805041
 20
80.50301577971265
 30
0.0
 10
0.674791351805041
 20
80.47723578438995
 30
0.0
  0
SPLINE
  5
27C
330
1F
100
AcDbEntity
  8
0
  6
Continuous
 62
     4
370
    25
100
AcDbSpline
210
0.0
220
0.0
230
1.0
 70
     8
 71
     3
 72
    12
 73
     8
 74
     0
 42
0.000000001
 43
0.00000001
 40
0.0
 40
0.0
 40
0.0
 40
0.0
 40
0.2499999999999999
 40
0.2499999999999999
 40
0.4999999999999999
 40
0.4999999999999999
 40
1.0
 40
1.0
 40
1.0
 40
1.0
 10
0.674791351805041
 20
80.47723578438995
 30
0.0
 10
0.5910433394660117
 20
80.4834969952631
 30
0.0
 10
0.5061655052769112
 20
80.49442709784341
 30
0.0
 10
0.338839696957308
 20
80.5250121028638
 30
0.0
 10
0.2581620248682839
 20
80.54447114619447
 30
0.0
 10
0.0099470951631133
 20
80.61531750108736
 30
0.0
 10
-0.1627415680144253
 20
80.6797632655095
 30
0.0
 10
-0.325208648194959
 20
80.75442225039191
 30
0.0
  0
LINE
  5
27D
330
1F
100
AcDbEntity
  8
0
  6
Continuous
 62
     4
370
    25
100
AcDbLine
 10
0.674791351805041
 20
81.31838567426516
 30
0.0
 11
0.674791351805041
 21
80.98760454215984
 31
0.0
  0
SPLINE
  5
27E
330
1F
100
AcDbEntity
  8
0
  6
Continuous
 62
     4
370
    25
100
AcDbSpline
210
0.0
220
0.0
230
1.0
 70
     8
 71
     3
 72
     9
 73
     5
 74
     0
 42
0.000000001
 43
0.00000001
 40
0.0
 40
0.0
 40
0.0
 40
0.0
 40
0.8504876679225448
 40
1.0
 40
1.0
 40
1.0
 40
1.0
 10
-0.325208648194959
 20
80.54649440314861
 30
0.0
 10
-0.1583014305236787
 20
80.50635758870976
 30
0.0
 10
0.0379474087792886
 20
80.4591648827451
 30
0.0
 10
0.2340728051972008
 20
80.47629598914787
 30
0.0
 10
0.2633959705952549
 20
80.47885730081721
 30
0.0
  0
LINE
  5
27F
330
1F
100
AcDbEntity
  8
0
  6
Continuous
 62
     4
370
    25
100
AcDbLine
 10
0.674791351805041
 20
80.47723578438995
 30
0.0
 11
0.674791351805041
 21
80.47086910747417
 31
0.0
  0
LINE
  5
280
330
1F
100
AcDbEntity
  8
0
  6
Continuous
 62
     4
370
    25
100
AcDbLine
 10
0.674791351805041
 20
81.97086910747417
 30
0.0
 11
0.674791351805041
 21
81.9336717748154
 31
0.0
  0
SPLINE
  5
281
330
1F
100
AcDbEntity
  8
0
  6
Continuous
 62
     1
370
    25
100
AcDbSpline
210
0.0
220
0.0
230
1.0
 70
     8
 71
     3
 72
    16
 73
    12
 74
     0
 42
0.000000001
 43
0.00000001
 40
0.0
 40
0.0
 40
0.0
 40
0.0
 40
0.1022856343700277
 40
0.229921788381697
 40
0.358054881299406
 40
0.4859732714334666
 40
0.6134817536288477
 40
0.7408827258873621
 40
0.8684824854603064
 40
0.9965726495691464
 40
1.0
 40
1.0
 40
1.0
 40
1.0
 10
0.674791351805041
 20
81.93367177481537
 30
0.0
 10
0.7996939374544496
 20
81.9052477192303
 30
0.0
 10
1.080455024217827
 20
81.84135497677991
 30
0.0
 10
1.518489009330438
 20
81.65481800418782
 30
0.0
 10
1.988242269315464
 20
81.40572377864736
 30
0.0
 10
2.457611063891861
 20
81.13071538272848
 30
0.0
 10
2.925700620336329
 20
80.8684339995921
 30
0.0
 10
3.393361181571876
 20
80.64855152265109
 30
0.0
 10
3.861797444067705
 20
80.51348226795292
 30
0.0
 10
4.179088955091785
 20
80.45563675991905
 30
0.0
 10
4.340033539843773
 20
80.47171186898011
 30
0.0
 10
4.344227760619802
 20
80.47213078681139
 30
0.0
  0
SPLINE
  5
282
330
1F
100
AcDbEntity
  8
0
  6
Continuous
 62
     1
370
    25
100
AcDbSpline
210
0.0
220
0.0
230
1.0
 70
     8
 71
     3
 72
    18
 73
    14
 74
     0
 42
0.000000001
 43
0.00000001
 40
0.0
 40
0.0
 40
0.0
 40
0.0
 40
0.0633295836889166
 40
0.1752647225246249
 40
0.2731258238587402
 40
0.3710747546008312
 40
0.4686486791880289
 40
0.5660705936265248
 40
0.6635747195559143
 40
0.7613922969089608
 40
0.859374054769012
 40
0.9569758097238489
 40
1.0
 40
1.0
 40
1.0
 40
1.0
 10
5.642878536734301
 20
80.59600109371394
 30
0.0
 10
5.541541718954207
 20
80.5633787654769
 30
0.0
 10
5.261091916267958
 20
80.4730964207412
 30
0.0
 10
4.823985852631751
 20
80.45697005462586
 30
0.0
 10
4.331552807175484
 20
80.53225352058263
 30
0.0
 10
3.861809781784785
 20
80.69647247304975
 30
0.0
 10
3.393357943344213
 20
80.92748392168163
 30
0.0
 10
2.925701277754698
 20
81.1964631463017
 30
0.0
 10
2.457611674157633
 20
81.46834980837386
 30
0.0
 10
1.988239154635565
 20
81.70932288457408
 30
0.0
 10
1.518500856417504
 20
81.88320363567792
 30
0.0
 10
1.136723180119745
 20
81.9677580713383
 30
0.0
 10
0.9121417747298466
 20
81.96418707271593
 30
0.0
 10
0.8434316010694403
 20
81.96309453375413
 30
0.0
  0
SPLINE
  5
283
330
1F
100
AcDbEntity
  8
0
  6
Continuous
 62
     1
370
    25
100
AcDbSpline
210
0.0
220
0.0
230
1.0
 70
     8
 71
     3
 72
    14
 73
    10
 74
     0
 42
0.000000001
 43
0.00000001
 40
0.0
 40
0.0
 40
0.0
 40
0.0
 40
0.0749595255586122
 40
0.2340279606893641
 40
0.3932306289983653
 40
0.5529450941421753
 40
0.712927629734803
 40
0.8722897046453966
 40
0.9999999999999999
 40
0.9999999999999999
 40
0.9999999999999999
 40
0.9999999999999999
 10
3.613410155854709
 20
80.59650835165652
 30
0.0
 10
3.539978908923601
 20
80.5717439401483
 30
0.0
 10
3.310722322224294
 20
80.49442801959313
 30
0.0
 10
2.925712777798182
 20
80.45762389372311
 30
0.0
 10
2.457607793592928
 20
80.49476258980698
 30
0.0
 10
1.988243148693968
 20
80.62990905062735
 30
0.0
 10
1.518488773944256
 20
80.83941060125413
 30
0.0
 10
1.080455069568117
 20
81.08247476035308
 30
0.0
 10
0.7996939514176375
 20
81.24574943608471
 30
0.0
 10
0.6747913518049842
 20
81.31838567426519
 30
0.0
  0
SPLINE
  5
284
330
1F
100
AcDbEntity
  8
0
  6
Continuous
 62
     4
370
    25
100
AcDbSpline
210
0.0
220
0.0
230
1.0
 70
    24
 71
     3
 72
    16
 73
    12
 74
     0
 42
0.000000001
 43
0.00000001
 40
0.0
 40
0.0
 40
0.0
 40
0.0
 40
0.1249999999999999
 40
0.1249999999999999
 40
0.2499999999999997
 40
0.2499999999999997
 40
0.4999999999999998
 40
0.4999999999999998
 40
0.7499999999999999
 40
0.7499999999999999
 40
1.0
 40
1.0
 40
1.0
 40
1.0
 10
0.674791351805041
 20
81.9336717748154
 30
0.0
 10
0.674791351805041
 20
81.90767971975843
 30
0.0
 10
0.674791351805041
 20
81.88417698266046
 30
0.0
 10
0.674791351805041
 20
81.83217240850526
 30
0.0
 10
0.674791351805041
 20
81.8042772879129
 30
0.0
 10
0.674791351805041
 20
81.7154561880671
 30
0.0
 10
0.674791351805041
 20
81.64871545626227
 30
0.0
 10
0.674791351805041
 20
81.51511746311306
 30
0.0
 10
0.674791351805041
 20
81.44855500268898
 30
0.0
 10
0.674791351805041
 20
81.34994431562751
 30
0.0
 10
0.674791351805041
 20
81.31964988304345
 30
0.0
 10
0.674791351805041
 20
81.31838567426516
 30
0.0
  0
SPLINE
  5
285
330
1F
100
AcDbEntity
  8
0
  6
Continuous
 62
     1
370
    25
100
AcDbSpline
210
0.0
220
0.0
230
1.0
 70
     8
 71
     3
 72
    15
 73
    11
 74
     0
 42
0.000000001
 43
0.00000001
 40
0.0
 40
0.0
 40
0.0
 40
0.0
 40
0.1521846851362003
 40
0.3044024291278228
 40
0.4566730887704465
 40
0.589798170031754
 40
0.723042729787729
 40
0.8557771509476422
 40
0.9883047855179644
 40
1.0
 40
1.0
 40
1.0
 40
1.0
 10
6.413046066804341
 20
80.53759308582649
 30
0.0
 10
6.234039796760186
 20
80.59164749714084
 30
0.0
 10
5.875988371402983
 20
80.69976806192984
 30
0.0
 10
5.338812458399801
 20
80.98067508815653
 30
0.0
 10
4.823987172505127
 20
81.28106735387625
 30
0.0
 10
4.331551752342477
 20
81.55841436431524
 30
0.0
 10
3.861812786536618
 20
81.78137019597091
 30
0.0
 10
3.393347031861992
 20
81.92258966622938
 30
0.0
 10
3.067872920766362
 20
81.98393752294372
 30
0.0
 10
2.898328775618822
 20
81.96825339601071
 30
0.0
 10
2.884580224992462
 20
81.96698155018565
 30
0.0
  0
SPLINE
  5
286
330
1F
100
AcDbEntity
  8
0
  6
Continuous
 62
     1
370
    25
100
AcDbSpline
210
0.0
220
0.0
230
1.0
 70
     8
 71
     3
 72
    14
 73
    10
 74
     0
 42
0.000000001
 43
0.00000001
 40
0.0
 40
0.0
 40
0.0
 40
0.0
 40
0.0809951479279592
 40
0.2345502907092877
 40
0.3879677427860841
 40
0.5408584455017346
 40
0.6935837259046875
 40
0.8465109076008486
 40
1.0
 40
1.0
 40
1.0
 40
1.0
 10
3.613410155854709
 20
81.84522986329182
 30
0.0
 10
3.696030729944979
 20
81.87242798637232
 30
0.0
 10
3.935288020871539
 20
81.95118983616794
 30
0.0
 10
4.331540428005312
 20
81.98468929682849
 30
0.0
 10
4.801007950180548
 20
81.94137161259049
 30
0.0
 10
5.269217791621287
 20
81.80097974127892
 30
0.0
 10
5.736857166449212
 20
81.58745978667896
 30
0.0
 10
6.205187675241305
 20
81.3247130186099
 30
0.0
 10
6.518065539596151
 20
81.14485541300184
 30
0.0
 10
6.674791351805041
 20
81.05476169742693
 30
0.0
  0
LINE
  5
287
330
1F
100
AcDbEntity
  8
0
  6
Continuous
 62
     1
370
    25
100
AcDbLine
 10
6.674791351805041
 20
80.72086910747417
 30
0.0
 11
6.674791351805041
 21
81.0541571882042
 31
0.0
  0
SPLINE
  5
288
330
1F
100
AcDbEntity
  8
0
  6
Continuous
 62
     1
370
    25
100
AcDbSpline
210
0.0
220
0.0
230
1.0
 70
    24
 71
     3
 72
     8
 73
     4
 74
     0
 42
0.000000001
 43
0.00000001
 40
0.0
 40
0.0
 40
0.0
 40
0.0
 40
1.0
 40
1.0
 40
1.0
 40
1.0
 10
6.674791351805041
 20
80.72086910747417
 30
0.0
 10
6.580930500706657
 20
80.65514703199231
 30
0.0
 10
6.491664457277921
 20
80.59264227547735
 30
0.0
 10
6.413046066805038
 20
80.53759308582633
 30
0.0
  0
SPLINE
  5
289
330
1F
100
AcDbEntity
  8
0
  6
Continuous
 62
     1
370
    25
100
AcDbSpline
210
0.0
220
0.0
230
1.0
 70
     8
 71
     3
 72
    18
 73
    14
 74
     0
 42
0.000000001
 43
0.00000001
 40
0.0
 40
0.0
 40
0.0
 40
0.0
 40
0.0862015576762317
 40
0.1837920556301459
 40
0.2810698298247235
 40
0.3782655833789317
 40
0.475612994196664
 40
0.5733345406082446
 40
0.670968461504133
 40
0.7682671623532673
 40
0.8654605894622
 40
0.962782505309689
 40
0.9999999999999999
 40
0.9999999999999999
 40
0.9999999999999999
 40
0.9999999999999999
 10
1.573548402746852
 20
81.85120097375005
 30
0.0
 10
1.711860697378683
 20
81.88918709028914
 30
0.0
 10
2.006759091730032
 20
81.97017804488826
 30
0.0
 10
2.457614624804435
 20
81.98070458922726
 30
0.0
 10
2.925700886579492
 20
81.90155122423396
 30
0.0
 10
3.393356564718943
 20
81.73270217663762
 30
0.0
 10
3.861815708557131
 20
81.49830356853445
 30
0.0
 10
4.331530397076278
 20
81.22840017032036
 30
0.0
 10
4.801011358226162
 20
80.95779833799446
 30
0.0
 10
5.269214163322701
 20
80.71921996046309
 30
0.0
 10
5.736868276421021
 20
80.55148691228385
 30
0.0
 10
6.108248862251415
 20
80.46870172736985
 30
0.0
 10
6.324099746762613
 20
80.47940681801923
 30
0.0
 10
6.383810348407764
 20
80.4823681559113
 30
0.0
  0
LINE
  5
28A
330
1F
100
AcDbEntity
  8
0
  6
Continuous
 62
     4
370
    25
100
AcDbLine
 10
6.413046066805038
 20
80.53759308582632
 30
0.0
 11
6.395050017997164
 21
80.52499211679307
 31
0.0
  0
ELLIPSE
  5
28B
330
1F
100
AcDbEntity
  8
0
  6
Continuous
 62
     1
370
    25
100
AcDbEllipse
 10
6.430563658826941
 20
81.22086910747417
 30
0.0
 11
1.041992479244975
 21
-0.412755754531322
 31
0.0
210
0.0
220
0.0
230
1.0
 40
0.6009688174887261
 41
4.912933762914529
 42
5.176132609328191
  0
LINE
  5
28C
330
1F
100
AcDbEntity
  8
0
  6
Continuous
 62
     4
370
    25
100
AcDbLine
 10
6.674791351805041
 20
80.47086910747417
 30
0.0
 11
6.674791351805041
 21
80.47617579887198
 31
0.0
  0
SPLINE
  5
28D
330
1F
100
AcDbEntity
  8
0
  6
Continuous
 62
     1
370
    25
100
AcDbSpline
210
0.0
220
0.0
230
1.0
 70
     8
 71
     3
 72
    11
 73
     7
 74
     0
 42
0.000000001
 43
0.00000001
 40
0.0
 40
0.0
 40
0.0
 40
0.0
 40
0.2302608048170448
 40
0.5175895555989937
 40
0.8060369928236121
 40
1.0
 40
1.0
 40
1.0
 40
1.0
 10
0.674791351805041
 20
80.98760454215984
 30
0.0
 10
0.7996943971715069
 20
80.92053870665802
 30
0.0
 10
1.080456517305493
 20
80.76978540749865
 30
0.0
 10
1.518481259612514
 20
80.59247587899604
 30
0.0
 10
1.937143846978287
 20
80.48168296642095
 30
0.0
 10
2.199340069214671
 20
80.481606881967
 30
0.0
 10
2.304761434621454
 20
80.48157629065278
 30
0.0
  0
SPLINE
  5
28E
330
1F
100
AcDbEntity
  8
0
  6
Continuous
 62
     1
370
    25
100
AcDbSpline
210
0.0
220
0.0
230
1.0
 70
     8
 71
     3
 72
    10
 73
     6
 74
     0
 42
0.000000001
 43
0.00000001
 40
0.0
 40
0.0
 40
0.0
 40
0.0
 40
0.0909379183598108
 40
0.5446354334233763
 40
1.0
 40
1.0
 40
1.0
 40
1.0
 10
5.642878536734301
 20
81.84573712123441
 30
0.0
 10
5.674140350351394
 20
81.8574085377613
 30
0.0
 10
5.861370184902654
 20
81.9273097089497
 30
0.0
 10
6.205188817087915
 20
81.9806302195906
 30
0.0
 10
6.518065920676719
 20
81.9617172216692
 30
0.0
 10
6.674791351805041
 20
81.95224338124062
 30
0.0
  0
LINE
  5
28F
330
1F
100
AcDbEntity
  8
0
  6
Continuous
 62
     4
370
    25
100
AcDbLine
 10
6.674791351805041
 20
81.95224338124062
 30
0.0
 11
6.674791351805041
 21
81.97086910747417
 31
0.0
  0
SPLINE
  5
290
330
1F
100
AcDbEntity
  8
0
  6
Continuous
 62
     1
370
    25
100
AcDbSpline
210
0.0
220
0.0
230
1.0
 70
     8
 71
     3
 72
    10
 73
     6
 74
     0
 42
0.000000001
 43
0.00000001
 40
0.0
 40
0.0
 40
0.0
 40
0.0
 40
0.3608021648395728
 40
0.7216827062029885
 40
1.0
 40
1.0
 40
1.0
 40
1.0
 10
6.413046066804284
 20
81.53011638432771
 30
0.0
 10
6.234039997098705
 20
81.61837077413978
 30
0.0
 10
5.875988972462196
 20
81.79489872513524
 30
0.0
 10
5.379836275206742
 20
81.9497408907122
 30
0.0
 10
5.06266654452044
 20
81.95661473760151
 30
0.0
 10
4.924565605713624
 20
81.95960772405887
 30
0.0
  0
SPLINE
  5
291
330
1F
100
AcDbEntity
  8
0
  6
Continuous
 62
     1
370
    25
100
AcDbSpline
210
0.0
220
0.0
230
1.0
 70
     8
 71
     3
 72
    10
 73
     6
 74
     0
 42
0.000000001
 43
0.00000001
 40
0.0
 40
0.0
 40
0.0
 40
0.0
 40
0.0617916246516376
 40
0.58261790011622
 40
1.0
 40
1.0
 40
1.0
 40
1.0
 10
1.573548402746852
 20
80.5905372411983
 30
0.0
 10
1.555012151180364
 20
80.58355049301842
 30
0.0
 10
1.380238433470467
 20
80.51767417764148
 30
0.0
 10
1.080461728457948
 20
80.46994911200774
 30
0.0
 10
0.7996960016691474
 20
80.47499224057961
 30
0.0
 10
0.6747913518049842
 20
80.47723578438995
 30
0.0
  0
ELLIPSE
  5
292
330
1F
100
AcDbEntity
  8
0
  6
Continuous
 62
     1
370
    25
100
AcDbEllipse
 10
7.388865355176094
 20
81.22086910747417
 30
0.0
 11
1.071111005056586
 21
-1.972152263052530E-31
 31
0.0
210
0.0
220
0.0
230
1.0
 40
0.7002075382097099
 41
2.716582861747931
 42
2.759364833374628
  0
ELLIPSE
  5
293
330
1F
100
AcDbEntity
  8
0
  6
Continuous
 62
     1
370
    25
100
AcDbEllipse
 10
6.430563658826941
 20
81.22086910747417
 30
0.0
 11
1.064326924485588
 21
-0.7291305528055547
 31
0.0
210
0.0
220
0.0
230
1.0
 40
0.165075901574664
 41
1.453368357947251
 42
1.716567204360914
  0
LINE
  5
294
330
1F
100
AcDbEntity
  8
0
  6
Continuous
 62
     1
370
    25
100
AcDbLine
 10
6.674791351805041
 20
81.05476169742693
 30
0.0
 11
6.674791351805041
 21
81.30993018832949
 31
0.0
  0
SPLINE
  5
295
330
1F
100
AcDbEntity
  8
0
  6
Continuous
 62
     1
370
    25
100
AcDbSpline
210
0.0
220
0.0
230
1.0
 70
     8
 71
     3
 72
     8
 73
     4
 74
     0
 42
0.000000001
 43
0.00000001
 40
0.0
 40
0.0
 40
0.0
 40
0.0
 40
1.0
 40
1.0
 40
1.0
 40
1.0
 10
6.674791351805041
 20
81.42066405809153
 30
0.0
 10
6.580930500706657
 20
81.42630283836955
 30
0.0
 10
6.491664457277921
 20
81.46779948842837
 30
0.0
 10
6.413046066805038
 20
81.53011638432731
 30
0.0
  0
SPLINE
  5
296
330
1F
100
AcDbEntity
  8
0
  6
Continuous
 62
     4
370
    25
100
AcDbSpline
210
0.0
220
0.0
230
1.0
 70
    24
 71
     3
 72
    11
 73
     7
 74
     0
 42
0.000000001
 43
0.00000001
 40
0.0
 40
0.0
 40
0.0
 40
0.0
 40
0.2870953201560533
 40
0.5794111528956264
 40
0.8717269856352929
 40
1.0
 40
1.0
 40
1.0
 40
1.0
 10
0.674791351805041
 20
80.95265572977424
 30
0.0
 10
0.674791351805041
 20
80.92488412956997
 30
0.0
 10
0.674791351805041
 20
80.86883593316134
 30
0.0
 10
0.674791351805041
 20
80.72527566450303
 30
0.0
 10
0.674791351805041
 20
80.58759417944638
 30
0.0
 10
0.674791351805041
 20
80.5030273450511
 30
0.0
 10
0.674791351805041
 20
80.47723578439073
 30
0.0
  0
LINE
  5
297
330
1F
100
AcDbEntity
  8
0
  6
Continuous
 62
     1
370
    25
100
AcDbLine
 10
6.674791351805041
 20
81.42066405809153
 30
0.0
 11
6.674791351805041
 21
81.95224338124062
 31
0.0
  0
LINE
  5
298
330
1F
100
AcDbEntity
  8
0
  6
Continuous
 62
     1
370
    25
100
AcDbLine
 10
6.674791351805041
 20
81.30993018832949
 30
0.0
 11
6.674791351805041
 21
81.42066405809153
 31
0.0
  0
LINE
  5
299
330
1F
100
AcDbEntity
  8
0
  6
Continuous
 62
     1
370
    25
100
AcDbLine
 10
6.674791351805041
 20
80.72086910747417
 30
0.0
 11
6.674791351805041
 21
80.47617579887198
 31
0.0
  0
LINE
  5
29A
330
1F
100
AcDbEntity
  8
중심선
 48
0.5
100
AcDbLine
 10
-55.32520864819496
 20
81.22086910747417
 30
0.0
 11
8.674791351805041
 21
81.22086910747417
 31
0.0
  0
CIRCLE
  5
29B
330
1F
100
AcDbEntity
  8
해칭선
100
AcDbCircle
 10
-8.72234343869146
 20
81.22086910747417
 30
0.0
 40
3.0
  0
DIMENSION
  5
29C
330
1F
100
AcDbEntity
  8
치수문자_일반주서
100
AcDbDimension
  2
*D11
 10
14.67479135180504
 20
81.97086910747421
 30
0.0
 11
14.67479135180498
 21
97.3248691074742
 31
0.0
 70
   160
  1
%%c<>
 71
     2
 42
1.500000000000014
 52
-270.0
  3
SLDDIMSTYLE0
100
AcDbAlignedDimension
 13
6.674791351805041
 23
80.47086910747417
 33
0.0
 14
6.674791351805041
 24
81.97086910747419
 34
0.0
 50
90.0000000000002
100
AcDbRotatedDimension
1001
ACAD
1000
DSTYLE
1002
{
1070
    41
1040
2.5
1070
   140
1040
2.5
1002
}
  0
DIMENSION
  5
29D
330
1F
100
AcDbEntity
  8
치수문자_일반주서
100
AcDbDimension
  2
*D12
 10
6.674791351805041
 20
101.6100017090558
 30
0.0
 11
-23.32520864819496
 21
101.6100017090558
 31
0.0
 70
   160
  1
<>
 71
     2
 42
60.0
  3
SLDDIMSTYLE0
100
AcDbAlignedDimension
 13
-53.32520864819496
 23
83.72086910747417
 33
0.0
 14
6.674791351805041
 24
81.97086910747417
 34
0.0
 50
-0.0000000000000068
100
AcDbRotatedDimension
1001
ACAD
1000
DSTYLE
1002
{
1070
    41
1040
2.5
1070
   140
1040
2.5
1002
}
  0
DIMENSION
  5
29E
330
1F
100
AcDbEntity
  8
치수문자_일반주서
100
AcDbDimension
  2
*D13
 10
-61.32520864819495
 20
78.22086910747414
 30
0.0
 11
-61.32520864819502
 21
96.81461910747414
 31
0.0
 70
   160
  1
%%c<>
 71
     2
 42
6.0
 52
-270.0
  3
SLDDIMSTYLE0
100
AcDbAlignedDimension
 13
-52.82520864819495
 23
84.22086910747417
 33
0.0
 14
-52.82520864819495
 24
78.22086910747417
 34
0.0
 50
90.0000000000002
100
AcDbRotatedDimension
1001
ACAD
1000
DSTYLE
1002
{
1070
    41
1040
2.5
1070
   140
1040
2.5
1002
}
  0
DIMENSION
  5
29F
330
1F
100
AcDbEntity
  8
치수문자_일반주서
100
AcDbDimension
  2
*D14
 10
6.674791351805041
 20
92.77959007740304
 30
0.0
 11
3.674791351805041
 21
92.77959007740304
 31
0.0
 70
   160
  1
<>
 71
     2
 42
6.0
  3
SLDDIMSTYLE0
100
AcDbAlignedDimension
 13
0.674791351805041
 23
81.9336717748154
 33
0.0
 14
6.674791351805041
 24
81.97086910747417
 34
0.0
100
AcDbRotatedDimension
1001
ACAD
1000
DSTYLE
1002
{
1070
    41
1040
2.5
1070
   140
1040
2.5
1002
}
1001
ACAD_DSTYLE_DIMFLIPARROW_SYMBOL
1070
   385
1070
     0
1001
ACAD_DSTYLE_DIMFLIPARROW_WHICH_SYMBOL
1070
   386
1070
     3
  0
INSERT
  5
2A0
330
1F
100
AcDbEntity
  8
해칭선
100
AcDbBlockReference
  2
SW_DOWELSYMBOL_0
 10
-8.72234343869146
 20
81.22086910747417
 30
0.0
  0
LINE
  5
2A1
330
1F
100
AcDbEntity
  8
0
100
AcDbLine
 10
14.67479135180504
 20
85.47617579887198
 30
0.0
 11
14.67479135180504
 21
70.27033170540444
 31
0.0
  0
LINE
  5
2DD
330
1F
100
AcDbEntity
  8
외형선
  6
Continuous
370
    15
100
AcDbLine
 10
-11.91268467149219
 20
1.587499999999995
 30
0.0
 11
-14.87499999999998
 21
0.793749999999999
 31
0.0
  0
LINE
  5
2DE
330
1F
100
AcDbEntity
  8
외형선
  6
Continuous
370
    15
100
AcDbLine
 10
-14.87499999999998
 20
-0.7937499999999996
 30
0.0
 11
-11.91268467149219
 21
-1.587500000000003
 31
0.0
  0
LINE
  5
2DF
330
1F
100
AcDbEntity
  8
외형선
  6
Continuous
370
    15
100
AcDbLine
 10
-15.17209661331294
 20
-0.7937499999999996
 30
0.0
 11
-14.87499999999998
 21
-0.7937499999999996
 31
0.0
  0
LINE
  5
2E0
330
1F
100
AcDbEntity
  8
외형선
  6
Continuous
370
    15
100
AcDbLine
 10
-14.87499999999998
 20
0.793749999999999
 30
0.0
 11
-15.17209661331294
 21
0.793749999999999
 31
0.0
  0
LINE
  5
2E1
330
1F
100
AcDbEntity
  8
외형선
  6
Continuous
370
    15
100
AcDbLine
 10
-15.52941793901909
 20
0.6612876143739076
 30
0.0
 11
-15.87500000000041
 21
0.6334064811882488
 31
0.0
  0
LINE
  5
2E2
330
1F
100
AcDbEntity
  8
0
  6
Continuous
 62
     1
370
    25
100
AcDbLine
 10
-16.99251539773142
 20
-0.2035801984978644
 30
0.0
 11
-16.77442779244938
 21
-0.3133431574701045
 31
0.0
  0
LINE
  5
2E3
330
1F
100
AcDbEntity
  8
0
  6
Continuous
 62
     1
370
    25
100
AcDbLine
 10
-16.6751107541777
 20
-0.1579301717507885
 30
0.0
 11
-16.54559842260209
 21
-0.2282105431525462
 31
0.0
  0
SPLINE
  5
2E4
330
1F
100
AcDbEntity
  8
0
  6
Continuous
 62
     1
370
    25
100
AcDbSpline
210
0.0
220
0.0
230
1.0
 70
     8
 71
     3
 72
    10
 73
     6
 74
     0
 42
0.000000001
 43
0.00000001
 40
0.0
 40
0.0
 40
0.0
 40
0.0
 40
0.5722216296550375
 40
0.8070739911609763
 40
1.0
 40
1.0
 40
1.0
 40
1.0
 10
-16.73194472980149
 20
-0.6307529869653447
 30
0.0
 10
-16.60293771331249
 20
-0.6258126621066221
 30
0.0
 10
-16.4209833755355
 20
-0.6188447191021463
 30
0.0
 10
-16.19681141211436
 20
-0.6199843442694369
 30
0.0
 10
-16.1005740833207
 20
-0.6243249842760402
 30
0.0
 10
-16.05717150611579
 20
-0.6262825922579619
 30
0.0
  0
SPLINE
  5
2E5
330
1F
100
AcDbEntity
  8
0
  6
Continuous
 62
     1
370
    25
100
AcDbSpline
210
0.0
220
0.0
230
1.0
 70
     8
 71
     3
 72
    19
 73
    15
 74
     0
 42
0.000000001
 43
0.00000001
 40
0.0
 40
0.0
 40
0.0
 40
0.0
 40
0.1272871115945425
 40
0.221439252468597
 40
0.3033819644190338
 40
0.393427241881961
 40
0.483945327433063
 40
0.5464630659564129
 40
0.605947343995647
 40
0.6635843957070245
 40
0.7195861992819363
 40
0.7770361321224114
 40
0.8684092835784467
 40
1.0
 40
1.0
 40
1.0
 40
1.0
 10
-18.75717122357899
 20
-0.543081540455557
 30
0.0
 10
-18.69776397899926
 20
-0.538488493483339
 30
0.0
 10
-18.59441419231498
 20
-0.5304980467260773
 30
0.0
 10
-18.45456664449198
 20
-0.5246379114592624
 30
0.0
 10
-18.33223324426546
 20
-0.522126779609334
 30
0.0
 10
-18.21065891126005
 20
-0.5223348008402592
 30
0.0
 10
-18.09819424631484
 20
-0.5251007418160295
 30
0.0
 10
-17.99993935413493
 20
-0.5294610339252269
 30
0.0
 10
-17.91701325668368
 20
-0.5344867615730319
 30
0.0
 10
-17.83692601634406
 20
-0.5404548592895505
 30
0.0
 10
-17.75776663361333
 20
-0.5474074241610193
 30
0.0
 10
-17.66298499928206
 20
-0.5570148299219934
 30
0.0
 10
-17.53335506766377
 20
-0.5721602982851731
 30
0.0
 10
-17.430134152053
 20
-0.5877614164158057
 30
0.0
 10
-17.36921435206833
 20
-0.5969690173214101
 30
0.0
  0
SPLINE
  5
2E6
330
1F
100
AcDbEntity
  8
0
  6
Continuous
 62
     1
370
    25
100
AcDbSpline
210
0.0
220
0.0
230
1.0
 70
     8
 71
     3
 72
    13
 73
     9
 74
     0
 42
0.000000001
 43
0.00000001
 40
0.0
 40
0.0
 40
0.0
 40
0.0
 40
0.3039515494663232
 40
0.5150075549349129
 40
0.6477068560593084
 40
0.7770612317507779
 40
0.9101927447537304
 40
1.0
 40
1.0
 40
1.0
 40
1.0
 10
-17.36921435206833
 20
0.5969690173214094
 30
0.0
 10
-17.43013415199023
 20
0.5877608425856838
 30
0.0
 10
-17.53335506749466
 20
0.5721587521723098
 30
0.0
 10
-17.66298499965904
 20
0.5570182766735986
 30
0.0
 10
-17.75776663277162
 20
0.5473997284072173
 30
0.0
 10
-17.83692601948519
 20
0.5404835785632859
 30
0.0
 10
-17.90748190105485
 20
0.5351014262024055
 30
0.0
 10
-17.95205355654107
 20
0.5325231789095529
 30
0.0
 10
-17.97000852270704
 20
0.5314845739395256
 30
0.0
  0
SPLINE
  5
2E7
330
1F
100
AcDbEntity
  8
0
  6
Continuous
 62
     1
370
    25
100
AcDbSpline
210
0.0
220
0.0
230
1.0
 70
     8
 71
     3
 72
    10
 73
     6
 74
     0
 42
0.000000001
 43
0.00000001
 40
0.0
 40
0.0
 40
0.0
 40
0.0
 40
0.4014215608556116
 40
0.5766876721414418
 40
1.0
 40
1.0
 40
1.0
 40
1.0
 10
-15.87499999999998
 20
0.6334064811882772
 30
0.0
 10
-15.9897744863162
 20
0.6280338574218934
 30
0.0
 10
-16.15466107385737
 20
0.6203154730717305
 30
0.0
 10
-16.4396840485068
 20
0.6190193501593516
 30
0.0
 10
-16.61087743637323
 20
0.6258923959208037
 30
0.0
 10
-16.73194472980149
 20
0.630752986965344
 30
0.0
  0
LINE
  5
2E8
330
1F
100
AcDbEntity
  8
외형선
  6
Continuous
370
    15
100
AcDbLine
 10
-14.87499999999998
 20
-0.7937499999999996
 30
0.0
 11
-14.87499999999998
 21
0.793749999999999
 31
0.0
  0
SPLINE
  5
2E9
330
1F
100
AcDbEntity
  8
외형선
  6
Continuous
370
    15
100
AcDbSpline
210
0.0
220
0.0
230
1.0
 70
     8
 71
     3
 72
     9
 73
     5
 74
     0
 42
0.000000001
 43
0.00000001
 40
0.0
 40
0.0
 40
0.0
 40
0.0
 40
0.6382702758596122
 40
1.0
 40
1.0
 40
1.0
 40
1.0
 10
-15.87499999999999
 20
-0.6920954865548733
 30
0.0
 10
-15.72533121035537
 20
-0.7292501721985726
 30
0.0
 10
-15.49083996847034
 20
-0.7874616964524005
 30
0.0
 10
-15.2567675607768
 20
-0.7882663079361233
 30
0.0
 10
-15.17209661331294
 20
-0.7885573598261683
 30
0.0
  0
LINE
  5
2EA
330
1F
100
AcDbEntity
  8
외형선
  6
Continuous
370
    15
100
AcDbLine
 10
-15.87499999999998
 20
-0.6920954865548733
 30
0.0
 11
-15.87499999999998
 21
-0.5578413678267505
 31
0.0
  0
SPLINE
  5
2EB
330
1F
100
AcDbEntity
  8
외형선
  6
Continuous
370
    15
100
AcDbSpline
210
0.0
220
0.0
230
1.0
 70
     8
 71
     3
 72
    12
 73
     8
 74
     0
 42
0.000000001
 43
0.00000001
 40
0.0
 40
0.0
 40
0.0
 40
0.0
 40
0.2500000000000001
 40
0.2500000000000001
 40
0.5
 40
0.5
 40
1.0
 40
1.0
 40
1.0
 40
1.0
 10
-15.87499999999999
 20
-0.5578413678267505
 30
0.0
 10
-15.80868454185318
 20
-0.5852078792286374
 30
0.0
 10
-15.7434056741602
 20
-0.6104819957511193
 30
0.0
 10
-15.60951122748281
 20
-0.6569559053020807
 30
0.0
 10
-15.54184010400536
 20
-0.6780173171356804
 30
0.0
 10
-15.33988458002262
 20
-0.7336300933312753
 30
0.0
 10
-15.20963904752932
 20
-0.7604598319422816
 30
0.0
 10
-15.07506159718953
 20
-0.776493159124055
 30
0.0
  0
SPLINE
  5
2EC
330
1F
100
AcDbEntity
  8
외형선
  6
Continuous
370
    15
100
AcDbSpline
210
0.0
220
0.0
230
1.0
 70
     8
 71
     3
 72
    10
 73
     6
 74
     0
 42
0.000000001
 43
0.00000001
 40
0.0
 40
0.0
 40
0.0
 40
0.0
 40
0.5
 40
0.5
 40
1.0
 40
1.0
 40
1.0
 40
1.0
 10
-15.87499999999999
 20
0.6920954865548726
 30
0.0
 10
-15.74237970803039
 20
0.7297632800217319
 30
0.0
 10
-15.60918040841019
 20
0.7576775775983183
 30
0.0
 10
-15.33992749379544
 20
0.7914645230116936
 30
0.0
 10
-15.2096924409315
 20
0.7972315042082944
 30
0.0
 10
-15.07512627856769
 20
0.7917575814976235
 30
0.0
  0
ELLIPSE
  5
2ED
330
1F
100
AcDbEntity
  8
외형선
  6
Continuous
370
    15
100
AcDbEllipse
 10
-15.07508012146269
 20
-0.0000000000000039
 30
0.0
 11
2.631129230569456E-5
 21
-0.7937500000000001
 31
0.0
210
0.0
220
0.0
230
1.0
 40
0.0000440596617195
 41
3.212504179433842
 42
6.074624386424023
  0
SPLINE
  5
2EE
330
1F
100
AcDbEntity
  8
외형선
  6
Continuous
370
    15
100
AcDbSpline
210
0.0
220
0.0
230
1.0
 70
    24
 71
     3
 72
    11
 73
     7
 74
     0
 42
0.000000001
 43
0.00000001
 40
0.0
 40
0.0
 40
0.0
 40
0.0
 40
0.3693685477087837
 40
0.6359389421563064
 40
0.9102398961017335
 40
1.0
 40
1.0
 40
1.0
 40
1.0
 10
-15.87499999999998
 20
0.4696983429719485
 30
0.0
 10
-15.87499999999998
 20
0.5053870411631142
 30
0.0
 10
-15.87499999999998
 20
0.5668319939491969
 30
0.0
 10
-15.87499999999998
 20
0.6144834414341848
 30
0.0
 10
-15.87499999999998
 20
0.6341984550230567
 30
0.0
 10
-15.87499999999998
 20
0.6317499745564735
 30
0.0
 10
-15.87499999999998
 20
0.6311462959802047
 30
0.0
  0
SPLINE
  5
2EF
330
1F
100
AcDbEntity
  8
외형선
  6
Continuous
370
    15
100
AcDbSpline
210
0.0
220
0.0
230
1.0
 70
     8
 71
     3
 72
     9
 73
     5
 74
     0
 42
0.000000001
 43
0.00000001
 40
0.0
 40
0.0
 40
0.0
 40
0.0
 40
0.1217691479230415
 40
1.0
 40
1.0
 40
1.0
 40
1.0
 10
-15.52995400204201
 20
0.657917908137701
 30
0.0
 10
-15.51148694711589
 20
0.6607940550825934
 30
0.0
 10
-15.35983067587565
 20
0.6844137238898927
 30
0.0
 10
-15.20824952332822
 20
0.6761491753236687
 30
0.0
 10
-15.07512627856769
 20
0.668890993794324
 30
0.0
  0
SPLINE
  5
2F0
330
1F
100
AcDbEntity
  8
외형선
  6
Continuous
370
    15
100
AcDbSpline
210
0.0
220
0.0
230
1.0
 70
     8
 71
     3
 72
    10
 73
     6
 74
     0
 42
0.000000001
 43
0.00000001
 40
0.0
 40
0.0
 40
0.0
 40
0.0
 40
0.5
 40
0.5
 40
1.0
 40
1.0
 40
1.0
 40
1.0
 10
-15.87500000000005
 20
0.4696983429719698
 30
0.0
 10
-15.74237296016688
 20
0.4282790601815268
 30
0.0
 10
-15.60916656479148
 20
0.3801434613863638
 30
0.0
 10
-15.33990023779962
 20
0.2741099559470929
 30
0.0
 10
-15.20965852906573
 20
0.2170480640625275
 30
0.0
 10
-15.07508519728915
 20
0.1571240571204445
 30
0.0
  0
SPLINE
  5
2F1
330
1F
100
AcDbEntity
  8
외형선
  6
Continuous
370
    15
100
AcDbSpline
210
0.0
220
0.0
230
1.0
 70
    24
 71
     3
 72
    10
 73
     6
 74
     0
 42
0.000000001
 43
0.00000001
 40
0.0
 40
0.0
 40
0.0
 40
0.0
 40
0.5
 40
0.5
 40
1.0
 40
1.0
 40
1.0
 40
1.0
 10
-15.87499999999998
 20
-0.3739112291010084
 30
0.0
 10
-15.87499999999998
 20
-0.2521281990851033
 30
0.0
 10
-15.87499999999998
 20
-0.104145157358165
 30
0.0
 10
-15.87499999999998
 20
0.1957223289574475
 30
0.0
 10
-15.87499999999998
 20
0.3452833743977554
 30
0.0
 10
-15.87499999999998
 20
0.4696983429719485
 30
0.0
  0
SPLINE
  5
2F2
330
1F
100
AcDbEntity
  8
외형선
  6
Continuous
370
    15
100
AcDbSpline
210
0.0
220
0.0
230
1.0
 70
     8
 71
     3
 72
    10
 73
     6
 74
     0
 42
0.000000001
 43
0.00000001
 40
0.0
 40
0.0
 40
0.0
 40
0.0
 40
0.5
 40
0.5
 40
1.0
 40
1.0
 40
1.0
 40
1.0
 10
-15.87500000000002
 20
-0.3739112291010013
 30
0.0
 10
-15.74237164084847
 20
-0.4137470270446112
 30
0.0
 10
-15.6091638581318
 20
-0.4483407905803499
 30
0.0
 10
-15.33989490881331
 20
-0.5041064989391838
 30
0.0
 10
-15.20965189870939
 20
-0.5249573773868089
 30
0.0
 10
-15.07507716521156
 20
-0.5383477264887911
 30
0.0
  0
SPLINE
  5
2F3
330
1F
100
AcDbEntity
  8
외형선
  6
Continuous
370
    15
100
AcDbSpline
210
0.0
220
0.0
230
1.0
 70
    24
 71
     3
 72
     8
 73
     4
 74
     0
 42
0.000000001
 43
0.00000001
 40
0.0
 40
0.0
 40
0.0
 40
0.0
 40
1.0
 40
1.0
 40
1.0
 40
1.0
 10
-15.87500000000056
 20
-0.5578413678264663
 30
0.0
 10
-15.87500000000056
 20
-0.5193858868253084
 30
0.0
 10
-15.87500000000056
 20
-0.4480093620370237
 30
0.0
 10
-15.87500000000056
 20
-0.3739112291008307
 30
0.0
  0
SPLINE
  5
2F4
330
1F
100
AcDbEntity
  8
외형선
  6
Continuous
370
    15
100
AcDbSpline
210
0.0
220
0.0
230
1.0
 70
    24
 71
     3
 72
    10
 73
     6
 74
     0
 42
0.000000001
 43
0.00000001
 40
0.0
 40
0.0
 40
0.0
 40
0.0
 40
0.1955250328711948
 40
0.8084763880927874
 40
1.0
 40
1.0
 40
1.0
 40
1.0
 10
-15.87499999999998
 20
0.6334064811882772
 30
0.0
 10
-15.87499999999998
 20
0.6375413969268241
 30
0.0
 10
-15.87499999999998
 20
0.6546388585268975
 30
0.0
 10
-15.87499999999998
 20
0.6738186474574125
 30
0.0
 10
-15.87499999999998
 20
0.688580977285692
 30
0.0
 10
-15.87499999999998
 20
0.6920954865549721
 30
0.0
  0
SPLINE
  5
2F5
330
1F
100
AcDbEntity
  8
0
  6
Continuous
 62
     1
370
    25
100
AcDbSpline
210
0.0
220
0.0
230
1.0
 70
     8
 71
     3
 72
    26
 73
    22
 74
     0
 42
0.000000001
 43
0.00000001
 40
0.0
 40
0.0
 40
0.0
 40
0.0
 40
0.1250000000000001
 40
0.1250000000000001
 40
0.2500000000000003
 40
0.2500000000000003
 40
0.3125000000000003
 40
0.3125000000000003
 40
0.3750000000000004
 40
0.3750000000000004
 40
0.5000000000000002
 40
0.5000000000000002
 40
0.625
 40
0.625
 40
0.7499999999999999
 40
0.7499999999999999
 40
0.8125
 40
0.8125
 40
0.8750000000000001
 40
0.8750000000000001
 40
1.0
 40
1.0
 40
1.0
 40
1.0
 10
-19.04999999999998
 20
0.7532218149528195
 30
0.0
 10
-18.92028455395993
 20
0.7292887123778403
 30
0.0
 10
-18.78495808532963
 20
0.6944781297630872
 30
0.0
 10
-18.51958824511017
 20
0.6069263429416513
 30
0.0
 10
-18.39014266578881
 20
0.5545002406743681
 30
0.0
 10
-18.18985437138167
 20
0.4646298547664888
 30
0.0
 10
-18.1230083162485
 20
0.4329252865916434
 30
0.0
 10
-17.99122403061621
 20
0.3670487374043422
 30
0.0
 10
-17.92678923977308
 20
0.3329795074217291
 30
0.0
 10
-17.7285011717708
 20
0.2268130964630931
 30
0.0
 10
-17.5929731202991
 20
0.1512507005812754
 30
0.0
 10
-17.33182867032415
 20
-0.0001276297063878
 30
0.0
 10
-17.19841432736294
 20
-0.0774104542727411
 30
0.0
 10
-16.93228038309561
 20
-0.22758812772943
 30
0.0
 10
-16.80324980259824
 20
-0.2998091111017981
 30
0.0
 10
-16.60313129100721
 20
-0.4016125835570502
 30
0.0
 10
-16.53616822633026
 20
-0.43429960622483
 30
0.0
 10
-16.40381472383245
 20
-0.4961819179759427
 30
0.0
 10
-16.33931951403443
 20
-0.5252589385418357
 30
0.0
 10
-16.14193492435782
 20
-0.6073404523232181
 30
0.0
 10
-16.00632404646151
 20
-0.654795862297686
 30
0.0
 10
-15.87500000000001
 20
-0.6920954865548733
 30
0.0
  0
SPLINE
  5
2F6
330
1F
100
AcDbEntity
  8
0
  6
Continuous
 62
     1
370
    25
100
AcDbSpline
210
0.0
220
0.0
230
1.0
 70
     8
 71
     3
 72
    12
 73
     8
 74
     0
 42
0.000000001
 43
0.00000001
 40
0.0
 40
0.0
 40
0.0
 40
0.0
 40
0.2405721293608423
 40
0.4810052581564252
 40
0.7213248343635468
 40
0.9615568345802038
 40
1.0
 40
1.0
 40
1.0
 40
1.0
 10
-19.04999999999998
 20
0.6262467348422721
 30
0.0
 10
-18.88413614224082
 20
0.5880730809837221
 30
0.0
 10
-18.55250426147296
 20
0.5117478296847185
 30
0.0
 10
-18.0552381015425
 20
0.308603328580826
 30
0.0
 10
-17.55823908885446
 20
0.0744858349193894
 30
0.0
 10
-17.20049466778448
 20
-0.1104174021721501
 30
0.0
 10
-17.00841189413466
 20
-0.1946978042657403
 30
0.0
 10
-16.981914126295
 20
-0.2063242634514037
 30
0.0
  0
LINE
  5
2F7
330
1F
100
AcDbEntity
  8
0
  6
Continuous
 62
     1
370
    25
100
AcDbLine
 10
-19.04999999999998
 20
0.7532218149528195
 30
0.0
 11
-19.04999999999998
 21
0.6262467348422721
 31
0.0
  0
SPLINE
  5
2F8
330
1F
100
AcDbEntity
  8
0
  6
Continuous
 62
     1
370
    25
100
AcDbSpline
210
0.0
220
0.0
230
1.0
 70
     8
 71
     3
 72
    26
 73
    22
 74
     0
 42
0.000000001
 43
0.00000001
 40
0.0
 40
0.0
 40
0.0
 40
0.0
 40
0.1249999999999998
 40
0.1249999999999998
 40
0.2499999999999995
 40
0.2499999999999995
 40
0.3124999999999995
 40
0.3124999999999995
 40
0.3749999999999994
 40
0.3749999999999994
 40
0.4999999999999996
 40
0.4999999999999996
 40
0.6249999999999997
 40
0.6249999999999997
 40
0.7499999999999997
 40
0.7499999999999997
 40
0.8124999999999997
 40
0.8124999999999997
 40
0.8749999999999998
 40
0.8749999999999998
 40
1.0
 40
1.0
 40
1.0
 40
1.0
 10
-19.04999999999998
 20
0.7930791345885272
 30
0.0
 10
-18.92028455395993
 20
0.7899605178378298
 30
0.0
 10
-18.78495808532962
 20
0.7757010166352348
 30
0.0
 10
-18.51958824511016
 20
0.7261682427406374
 30
0.0
 10
-18.3901426657888
 20
0.6912108141519898
 30
0.0
 10
-18.18985437138167
 20
0.6246093741856275
 30
0.0
 10
-18.12300831624848
 20
0.6001296883739716
 30
0.0
 10
-17.99122403061621
 20
0.5474298330996522
 30
0.0
 10
-17.92678923977308
 20
0.5193041599579079
 30
0.0
 10
-17.72850117177078
 20
0.4291249551257185
 30
0.0
 10
-17.59297312029909
 20
0.3615918013978036
 30
0.0
 10
-17.33182867032414
 20
0.2200992998219849
 30
0.0
 10
-17.19841432736293
 20
0.1447948607858112
 30
0.0
 10
-16.93228038309559
 20
-0.0076616441193348
 30
0.0
 10
-16.80324980259822
 20
-0.0840698814339088
 30
0.0
 10
-16.60313129100719
 20
-0.1966093410041378
 30
0.0
 10
-16.53616822633024
 20
-0.2336113826184242
 30
0.0
 10
-16.40381472383242
 20
-0.3054506453905969
 30
0.0
 10
-16.3393195140344
 20
-0.3401378582901952
 30
0.0
 10
-16.14193492435779
 20
-0.4410134007025203
 30
0.0
 10
-16.00632404646148
 20
-0.5036476531897417
 30
0.0
 10
-15.87499999999999
 20
-0.5578413678267505
 30
0.0
  0
SPLINE
  5
2F9
330
1F
100
AcDbEntity
  8
0
  6
Continuous
 62
     1
370
    25
100
AcDbSpline
210
0.0
220
0.0
230
1.0
 70
     8
 71
     3
 72
    11
 73
     7
 74
     0
 42
0.000000001
 43
0.00000001
 40
0.0
 40
0.0
 40
0.0
 40
0.0
 40
0.0165460094369961
 40
0.4282141624852999
 40
0.8398207044814072
 40
1.0
 40
1.0
 40
1.0
 40
1.0
 10
-17.08134470369223
 20
0.0767806488736188
 30
0.0
 10
-17.07469082267953
 20
0.0742326529089144
 30
0.0
 10
-16.90248699939648
 20
0.0082899878696981
 30
0.0
 10
-16.5647844712576
 20
-0.1340268133516499
 30
0.0
 10
-16.1692661572691
 20
-0.2826704891589497
 30
0.0
 10
-15.93939561618326
 20
-0.3539445984693582
 30
0.0
 10
-15.87500000000002
 20
-0.3739112291010013
 30
0.0
  0
SPLINE
  5
2FA
330
1F
100
AcDbEntity
  8
외형선
  6
Continuous
370
    15
100
AcDbSpline
210
0.0
220
0.0
230
1.0
 70
    24
 71
     3
 72
     8
 73
     4
 74
     0
 42
0.000000001
 43
0.00000001
 40
0.0
 40
0.0
 40
0.0
 40
0.0
 40
1.0
 40
1.0
 40
1.0
 40
1.0
 10
-15.87500000000056
 20
-0.5578413678264663
 30
0.0
 10
-15.87500000000056
 20
-0.5193858868253084
 30
0.0
 10
-15.87500000000056
 20
-0.4480093620370237
 30
0.0
 10
-15.87500000000056
 20
-0.3739112291008307
 30
0.0
  0
LINE
  5
2FB
330
1F
100
AcDbEntity
  8
0
  6
Continuous
 62
     1
370
    25
100
AcDbLine
 10
-19.04999999999998
 20
0.7930791345885272
 30
0.0
 11
-19.04999999999998
 21
0.7532218149528195
 31
0.0
  0
SPLINE
  5
2FC
330
1F
100
AcDbEntity
  8
0
  6
Continuous
 62
     1
370
    25
100
AcDbSpline
210
0.0
220
0.0
230
1.0
 70
     8
 71
     3
 72
     8
 73
     4
 74
     0
 42
0.000000001
 43
0.00000001
 40
0.0
 40
0.0
 40
0.0
 40
0.0
 40
1.0
 40
1.0
 40
1.0
 40
1.0
 10
-18.55916518402692
 20
-0.2217164472896055
 30
0.0
 10
-18.53086283303621
 20
-0.25520555291865
 30
0.0
 10
-18.50555695231338
 20
-0.2874688336123054
 30
0.0
 10
-18.48403983627199
 20
-0.3181821699361901
 30
0.0
  0
LINE
  5
2FD
330
1F
100
AcDbEntity
  8
0
  6
Continuous
 62
     1
370
    25
100
AcDbLine
 10
-18.49409439046915
 20
-0.3266189426618279
 30
0.0
 11
-19.04999999999998
 21
-0.0000000000000039
 31
0.0
  0
LINE
  5
2FE
330
1F
100
AcDbEntity
  8
0
  6
Continuous
 62
     1
370
    25
100
AcDbLine
 10
-19.04999999999998
 20
-0.0000000000000039
 30
0.0
 11
-19.04999999999998
 21
0.2121240884110268
 31
0.0
  0
SPLINE
  5
2FF
330
1F
100
AcDbEntity
  8
0
  6
Continuous
 62
     1
370
    25
100
AcDbSpline
210
0.0
220
0.0
230
1.0
 70
     8
 71
     3
 72
    10
 73
     6
 74
     0
 42
0.000000001
 43
0.00000001
 40
0.0
 40
0.0
 40
0.0
 40
0.0
 40
0.5
 40
0.5
 40
1.0
 40
1.0
 40
1.0
 40
1.0
 10
-19.04999999999998
 20
0.2121240884110268
 30
0.0
 10
-18.96503968058411
 20
0.1453288991865623
 30
0.0
 10
-18.88149867432913
 20
0.0757943889780211
 30
0.0
 10
-18.71731817387942
 20
-0.0688746449464585
 30
0.0
 10
-18.63590546063869
 20
-0.1447670400822755
 30
0.0
 10
-18.55916518402626
 20
-0.2217164472879002
 30
0.0
  0
SPLINE
  5
300
330
1F
100
AcDbEntity
  8
0
  6
Continuous
 62
     1
370
    25
100
AcDbSpline
210
0.0
220
0.0
230
1.0
 70
     8
 71
     3
 72
    11
 73
     7
 74
     0
 42
0.000000001
 43
0.00000001
 40
0.0
 40
0.0
 40
0.0
 40
0.0
 40
0.2755383909931489
 40
0.5472575325178729
 40
0.8188762853461236
 40
1.0
 40
1.0
 40
1.0
 40
1.0
 10
-18.55916518675312
 20
-0.2217164461020115
 30
0.0
 10
-18.39115902087692
 20
-0.2916713128351244
 30
0.0
 10
-18.05747542980348
 20
-0.430611398889884
 30
0.0
 10
-17.55822535904117
 20
-0.5714242235989356
 30
0.0
 10
-17.11655363854642
 20
-0.6425939483675872
 30
0.0
 10
-16.8405485879234
 20
-0.6275648264825232
 30
0.0
 10
-16.73013027371026
 20
-0.6215522904839655
 30
0.0
  0
SPLINE
  5
301
330
1F
100
AcDbEntity
  8
0
  6
Continuous
 62
     1
370
    25
100
AcDbSpline
210
0.0
220
0.0
230
1.0
 70
    24
 71
     3
 72
     8
 73
     4
 74
     0
 42
0.000000001
 43
0.00000001
 40
0.0
 40
0.0
 40
0.0
 40
0.0
 40
1.0
 40
1.0
 40
1.0
 40
1.0
 10
-19.04999999999998
 20
0.6262467348422721
 30
0.0
 10
-19.04999999999998
 20
0.5302333452012636
 30
0.0
 10
-19.04999999999998
 20
0.3805014774328971
 30
0.0
 10
-19.04999999999998
 20
0.2121240884110552
 30
0.0
  0
SPLINE
  5
302
330
1F
100
AcDbEntity
  8
0
  6
Continuous
 62
     1
370
    25
100
AcDbSpline
210
0.0
220
0.0
230
1.0
 70
    24
 71
     3
 72
     8
 73
     4
 74
     0
 42
0.000000001
 43
0.00000001
 40
0.0
 40
0.0
 40
0.0
 40
0.0
 40
1.0
 40
1.0
 40
1.0
 40
1.0
 10
-18.5667289875067
 20
-0.387566606246747
 30
0.0
 10
-18.54053382861935
 20
-0.3655862580857455
 30
0.0
 10
-18.51289163828369
 20
-0.3423917063701548
 30
0.0
 10
-18.48403983626883
 20
-0.3181821699406949
 30
0.0
  0
LINE
  5
303
330
1F
100
AcDbEntity
  8
0
  6
Continuous
 62
     1
370
    25
100
AcDbLine
 10
-19.04999999999998
 20
-0.555625000000003
 30
0.0
 11
-18.75461984862492
 21
-0.5342930229220538
 31
0.0
  0
SPLINE
  5
304
330
1F
100
AcDbEntity
  8
0
  6
Continuous
 62
     1
370
    25
100
AcDbSpline
210
0.0
220
0.0
230
1.0
 70
     8
 71
     3
 72
    17
 73
    13
 74
     0
 42
0.000000001
 43
0.00000001
 40
0.0
 40
0.0
 40
0.0
 40
0.0
 40
0.0002064353065802
 40
0.0002064353065802
 40
0.0002064353065802
 40
0.000412880285268
 40
0.000412880285268
 40
0.000412880285268
 40
0.0005854434994281
 40
0.0005854434994281
 40
0.0005854434994281
 40
0.0006532075446725
 40
0.0006532075446725
 40
0.0006532075446725
 40
0.0006532075446725
 10
-19.04999999999998
 20
-0.555625000000003
 30
0.0
 10
-18.99839576524654
 20
-0.5415865628590776
 30
0.0
 10
-18.94695181092574
 20
-0.5264958129485929
 30
0.0
 10
-18.89572466254259
 20
-0.5102737300222951
 30
0.0
 10
-18.84449612575903
 20
-0.494051207431735
 30
0.0
 10
-18.79346864117399
 20
-0.4766937615728292
 30
0.0
 10
-18.74272091587414
 20
-0.4580732353410791
 30
0.0
 10
-18.70030069571819
 20
-0.4425082653349687
 30
0.0
 10
-18.65806385133563
 20
-0.4260562680005332
 30
0.0
 10
-18.61607700398774
 20
-0.4086033778795407
 30
0.0
 10
-18.59958853184828
 20
-0.4017495293367229
 30
0.0
 10
-18.58313743248045
 20
-0.3947402735928062
 30
0.0
 10
-18.56672898751662
 20
-0.3875666062510884
 30
0.0
  0
SPLINE
  5
305
330
1F
100
AcDbEntity
  8
0
  6
Continuous
 62
     1
370
    25
100
AcDbSpline
210
0.0
220
0.0
230
1.0
 70
     8
 71
     3
 72
    11
 73
     7
 74
     0
 42
0.000000001
 43
0.00000001
 40
0.0
 40
0.0
 40
0.0
 40
0.0
 40
0.2079466100020416
 40
0.5394899621084903
 40
0.8709849916335811
 40
1.0
 40
1.0
 40
1.0
 40
1.0
 10
-17.37289098824999
 20
0.5870243800142593
 30
0.0
 10
-17.26905511435907
 20
0.6042027006756318
 30
0.0
 10
-16.99966668013375
 20
0.6487695804271102
 30
0.0
 10
-16.5647902763221
 20
0.6284299365129261
 30
0.0
 10
-16.16925799391305
 20
0.5567727413756277
 30
0.0
 10
-15.93939709014498
 20
0.4887541987152592
 30
0.0
 10
-15.87500000000004
 20
0.4696983429719627
 30
0.0
  0
SPLINE
  5
306
330
1F
100
AcDbEntity
  8
외형선
  6
Continuous
370
    15
100
AcDbSpline
210
0.0
220
0.0
230
1.0
 70
    24
 71
     3
 72
    10
 73
     6
 74
     0
 42
0.000000001
 43
0.00000001
 40
0.0
 40
0.0
 40
0.0
 40
0.0
 40
0.5
 40
0.5
 40
1.0
 40
1.0
 40
1.0
 40
1.0
 10
-15.87499999999998
 20
-0.3739112291010084
 30
0.0
 10
-15.87499999999998
 20
-0.2521281990851033
 30
0.0
 10
-15.87499999999998
 20
-0.104145157358165
 30
0.0
 10
-15.87499999999998
 20
0.1957223289574475
 30
0.0
 10
-15.87499999999998
 20
0.3452833743977554
 30
0.0
 10
-15.87499999999998
 20
0.4696983429719485
 30
0.0
  0
LINE
  5
307
330
1F
100
AcDbEntity
  8
0
  6
Continuous
 62
     1
370
    25
100
AcDbLine
 10
-19.04999999999998
 20
-0.0000000000000039
 30
0.0
 11
-19.04999999999998
 21
-0.555625000000003
 31
0.0
  0
SPLINE
  5
308
330
1F
100
AcDbEntity
  8
외형선
  6
Continuous
370
    15
100
AcDbSpline
210
0.0
220
0.0
230
1.0
 70
    24
 71
     3
 72
    11
 73
     7
 74
     0
 42
0.000000001
 43
0.00000001
 40
0.0
 40
0.0
 40
0.0
 40
0.0
 40
0.3703313504982964
 40
0.6375965921951788
 40
0.9126125440072704
 40
1.0
 40
1.0
 40
1.0
 40
1.0
 10
-15.87499999999998
 20
0.4696983429719485
 30
0.0
 10
-15.87499999999998
 20
0.5053891698595795
 30
0.0
 10
-15.87499999999998
 20
0.566837787605731
 30
0.0
 10
-15.87499999999998
 20
0.614467386034487
 30
0.0
 10
-15.87499999999998
 20
0.6341619094432037
 30
0.0
 10
-15.87499999999998
 20
0.6317548282857747
 30
0.0
 10
-15.87499999999998
 20
0.6311744013521864
 30
0.0
  0
SPLINE
  5
309
330
1F
100
AcDbEntity
  8
0
  6
Continuous
 62
     1
370
    25
100
AcDbSpline
210
0.0
220
0.0
230
1.0
 70
     8
 71
     3
 72
    10
 73
     6
 74
     0
 42
0.000000001
 43
0.00000001
 40
0.0
 40
0.0
 40
0.0
 40
0.0
 40
0.1370483947360571
 40
0.568193605579835
 40
1.0
 40
1.0
 40
1.0
 40
1.0
 10
-17.97000852270704
 20
-0.5314845739395263
 30
0.0
 10
-18.01933012059837
 20
-0.5541482462329949
 30
0.0
 10
-18.22381421246099
 20
-0.6481103367843172
 30
0.0
 10
-18.58376786212304
 20
-0.7532196820439306
 30
0.0
 10
-18.894509925045
 20
-0.7797858655057833
 30
0.0
 10
-19.04999999999998
 20
-0.793079134588535
 30
0.0
  0
SPLINE
  5
30A
330
1F
100
AcDbEntity
  8
0
  6
Continuous
 62
     1
370
    25
100
AcDbSpline
210
0.0
220
0.0
230
1.0
 70
    24
 71
     3
 72
     8
 73
     4
 74
     0
 42
0.000000001
 43
0.00000001
 40
0.0
 40
0.0
 40
0.0
 40
0.0
 40
1.0
 40
1.0
 40
1.0
 40
1.0
 10
-19.04999999999998
 20
-0.555625000000003
 30
0.0
 10
-19.04999999999998
 20
-0.6229862076816172
 30
0.0
 10
-19.04999999999998
 20
-0.7135749447463094
 30
0.0
 10
-19.04999999999998
 20
-0.793079134588535
 30
0.0
  0
LINE
  5
30B
330
1F
100
AcDbEntity
  8
0
  6
Continuous
 62
     1
370
    25
100
AcDbLine
 10
-16.05600422173245
 20
0.62670429576897
 30
0.0
 11
-15.87500000000001
 21
0.6920954865548655
 31
0.0
  0
SPLINE
  5
30C
330
1F
100
AcDbEntity
  8
외형선
  6
Continuous
370
    15
100
AcDbSpline
210
0.0
220
0.0
230
1.0
 70
    24
 71
     3
 72
    11
 73
     7
 74
     0
 42
0.000000001
 43
0.00000001
 40
0.0
 40
0.0
 40
0.0
 40
0.0
 40
0.1983294848570572
 40
0.5035645302110735
 40
0.8091658467423349
 40
1.0
 40
1.0
 40
1.0
 40
1.0
 10
-15.87499999999998
 20
0.6334064811882772
 30
0.0
 10
-15.87499999999998
 20
0.6375361452263949
 30
0.0
 10
-15.87499999999998
 20
0.6480214864896002
 30
0.0
 10
-15.87499999999998
 20
0.6640693468553384
 30
0.0
 10
-15.87499999999998
 20
0.6794659685753676
 30
0.0
 10
-15.87499999999998
 20
0.6885886483522189
 30
0.0
 10
-15.87499999999998
 20
0.6920954865549721
 30
0.0
  0
LINE
  5
311
330
1F
100
AcDbEntity
  8
외형선
  6
Continuous
370
    15
100
AcDbLine
 10
-11.91268467149219
 20
-1.587500000000003
 30
0.0
 11
-11.91268467149219
 21
1.587500000000002
 31
0.0
  0
ENDSEC
  0
SECTION
  2
OBJECTS
  0
DICTIONARY
  5
C
330
0
100
AcDbDictionary
281
     1
  3
ACAD_GROUP
350
D
  3
ACAD_IMAGE_VARS
350
15B
  3
ACAD_LAYOUT
350
1A
  3
ACAD_MLINESTYLE
350
17
  3
ACAD_PLOTSETTINGS
350
19
  3
ACAD_PLOTSTYLENAME
350
E
  3
ACAD_SCALELIST
350
47
  3
APPDATA
350
159
  3
DWGPROPS
350
365
  0
DICTIONARY
  5
363
330
1F
100
AcDbDictionary
280
     1
281
     1
  3
DIM_BOUNDING_BOXES_V1
360
364
  0
DICTIONARY
  5
D
102
{ACAD_REACTORS
330
C
102
}
330
C
100
AcDbDictionary
281
     1
  0
RASTERVARIABLES
  5
15B
102
{ACAD_REACTORS
330
C
102
}
330
C
100
AcDbRasterVariables
 90
        0
 70
     1
 71
     1
 72
     1
  0
DICTIONARY
  5
1A
102
{ACAD_REACTORS
330
C
102
}
330
C
100
AcDbDictionary
281
     1
  3
Layout1
350
1E
  3
Layout2
350
26
  3
Model
350
22
  0
DICTIONARY
  5
17
102
{ACAD_REACTORS
330
C
102
}
330
C
100
AcDbDictionary
281
     1
  3
Standard
350
18
  0
DICTIONARY
  5
19
102
{ACAD_REACTORS
330
C
102
}
330
C
100
AcDbDictionary
281
     1
  0
ACDBDICTIONARYWDFLT
  5
E
102
{ACAD_REACTORS
330
C
102
}
330
C
100
AcDbDictionary
281
     1
  3
Normal
350
F
100
AcDbDictionaryWithDefault
340
F
  0
DICTIONARY
  5
47
102
{ACAD_REACTORS
330
C
102
}
330
C
100
AcDbDictionary
281
     1
  3
A0
350
48
  3
A1
350
49
  3
A2
350
4A
  3
A3
350
4B
  3
A4
350
4C
  3
A5
350
4D
  3
A6
350
4E
  3
A7
350
4F
  3
A8
350
50
  3
A9
350
51
  3
B0
350
52
  3
B1
350
53
  3
B2
350
54
  3
B3
350
55
  3
B4
350
56
  3
B5
350
57
  3
B6
350
58
  3
B7
350
59
  3
B8
350
5A
  3
B9
350
5B
  3
C0
350
5C
  3
C1
350
5D
  3
C2
350
5E
  3
C3
350
5F
  3
C4
350
60
  3
C5
350
61
  3
C6
350
62
  3
C7
350
63
  3
C8
350
64
  3
C9
350
65
  3
D0
350
66
  3
D1
350
67
  3
D2
350
68
  0
DICTIONARY
  5
159
102
{ACAD_REACTORS
330
C
102
}
330
C
100
AcDbDictionary
281
     1
  0
XRECORD
  5
365
102
{ACAD_REACTORS
330
C
102
}
330
C
100
AcDbXrecord
280
     1
  1
DWGPROPS COOKIE
  2

  3

  4

  6

  7

  8
12011056
  9

300
=
301
=
302
=
303
=
304
=
305
=
306
=
307
=
308
=
309
=
 40
0.0
 41
2458313.048473299
 42
2459719.258068692
  1

 90
        0
  0
DICTIONARY
  5
364
102
{ACAD_REACTORS
330
363
102
}
330
363
100
AcDbDictionary
281
     1
  0
LAYOUT
  5
1E
102
{ACAD_REACTORS
330
1A
102
}
330
1A
100
AcDbPlotSettings
  1

  2
none_device
  4

  6

 40
0.0
 41
0.0
 42
0.0
 43
0.0
 44
0.0
 45
0.0
 46
0.0
 47
0.0
 48
0.0
 49
0.0
140
0.0
141
0.0
142
1.0
143
1.0
 70
   688
 72
     1
 73
     0
 74
     5
  7

 75
    16
147
1.0
148
0.0
149
0.0
100
AcDbLayout
  1
Layout1
 70
     1
 71
     1
 10
0.0
 20
0.0
 11
420.0
 21
297.0
 12
0.0
 22
0.0
 32
0.0
 14
1.000000000000000E+20
 24
1.000000000000000E+20
 34
1.000000000000000E+20
 15
-1.000000000000000E+20
 25
-1.000000000000000E+20
 35
-1.000000000000000E+20
146
0.0
 13
0.0
 23
0.0
 33
0.0
 16
1.0
 26
0.0
 36
0.0
 17
0.0
 27
1.0
 37
0.0
 76
     0
330
1B
  0
LAYOUT
  5
26
102
{ACAD_REACTORS
330
1A
102
}
330
1A
100
AcDbPlotSettings
  1

  2
none_device
  4

  6

 40
0.0
 41
0.0
 42
0.0
 43
0.0
 44
0.0
 45
0.0
 46
0.0
 47
0.0
 48
0.0
 49
0.0
140
0.0
141
0.0
142
1.0
143
1.0
 70
   688
 72
     1
 73
     0
 74
     5
  7

 75
    16
147
1.0
148
0.0
149
0.0
100
AcDbLayout
  1
Layout2
 70
     1
 71
     2
 10
0.0
 20
0.0
 11
0.0
 21
0.0
 12
0.0
 22
0.0
 32
0.0
 14
0.0
 24
0.0
 34
0.0
 15
0.0
 25
0.0
 35
0.0
146
0.0
 13
0.0
 23
0.0
 33
0.0
 16
1.0
 26
0.0
 36
0.0
 17
0.0
 27
1.0
 37
0.0
 76
     0
330
23
  0
LAYOUT
  5
22
102
{ACAD_REACTORS
330
1A
102
}
330
1A
100
AcDbPlotSettings
  1

  2
none_device
  4
ANSI_A_(11.00_x_8.50_Inches)
  6

 40
6.35
 41
19.05
 42
6.35000508
 43
19.05000254
 44
279.4
 45
215.9
 46
98.21986598480574
 47
93.52692471932596
 48
0.0
 49
0.0
140
0.0
141
0.0
142
0.0840767532981495
143
1.0
 70
  1696
 72
     0
 73
     0
 74
     0
  7

 75
     0
147
0.0235690232323232
148
0.0
149
0.0
100
AcDbLayout
  1
Model
 70
     1
 71
     0
 10
0.0
 20
0.0
 11
420.0
 21
297.0
 12
0.0
 22
0.0
 32
0.0
 14
-64.70020864819503
 24
-39.9989250712761
 34
0.0
 15
81.21241335422452
 25
105.6998691074742
 35
0.0
146
0.0
 13
0.0
 23
0.0
 33
0.0
 16
1.0
 26
0.0
 36
0.0
 17
0.0
 27
1.0
 37
0.0
 76
     0
330
1F
331
29
  0
MLINESTYLE
  5
18
102
{ACAD_REACTORS
330
17
102
}
330
17
100
AcDbMlineStyle
  2
Standard
 70
     0
  3

 62
   256
 51
90.0
 52
90.0
 71
     2
 49
0.5
 62
   256
  6
BYLAYER
 49
-0.5
 62
   256
  6
BYLAYER
  0
ACDBPLACEHOLDER
  5
F
102
{ACAD_REACTORS
330
E
102
}
330
E
  0
SCALE
  5
48
102
{ACAD_REACTORS
330
47
102
}
330
47
100
AcDbScale
 70
     0
300
1:1
140
1.0
141
1.0
290
     1
  0
SCALE
  5
49
102
{ACAD_REACTORS
330
47
102
}
330
47
100
AcDbScale
 70
     0
300
1:2
140
1.0
141
2.0
290
     0
  0
SCALE
  5
4A
102
{ACAD_REACTORS
330
47
102
}
330
47
100
AcDbScale
 70
     0
300
1:4
140
1.0
141
4.0
290
     0
  0
SCALE
  5
4B
102
{ACAD_REACTORS
330
47
102
}
330
47
100
AcDbScale
 70
     0
300
1:5
140
1.0
141
5.0
290
     0
  0
SCALE
  5
4C
102
{ACAD_REACTORS
330
47
102
}
330
47
100
AcDbScale
 70
     0
300
1:8
140
1.0
141
8.0
290
     0
  0
SCALE
  5
4D
102
{ACAD_REACTORS
330
47
102
}
330
47
100
AcDbScale
 70
     0
300
1:10
140
1.0
141
10.0
290
     0
  0
SCALE
  5
4E
102
{ACAD_REACTORS
330
47
102
}
330
47
100
AcDbScale
 70
     0
300
1:16
140
1.0
141
16.0
290
     0
  0
SCALE
  5
4F
102
{ACAD_REACTORS
330
47
102
}
330
47
100
AcDbScale
 70
     0
300
1:20
140
1.0
141
20.0
290
     0
  0
SCALE
  5
50
102
{ACAD_REACTORS
330
47
102
}
330
47
100
AcDbScale
 70
     0
300
1:30
140
1.0
141
30.0
290
     0
  0
SCALE
  5
51
102
{ACAD_REACTORS
330
47
102
}
330
47
100
AcDbScale
 70
     0
300
1:40
140
1.0
141
40.0
290
     0
  0
SCALE
  5
52
102
{ACAD_REACTORS
330
47
102
}
330
47
100
AcDbScale
 70
     0
300
1:50
140
1.0
141
50.0
290
     0
  0
SCALE
  5
53
102
{ACAD_REACTORS
330
47
102
}
330
47
100
AcDbScale
 70
     0
300
1:100
140
1.0
141
100.0
290
     0
  0
SCALE
  5
54
102
{ACAD_REACTORS
330
47
102
}
330
47
100
AcDbScale
 70
     0
300
2:1
140
2.0
141
1.0
290
     0
  0
SCALE
  5
55
102
{ACAD_REACTORS
330
47
102
}
330
47
100
AcDbScale
 70
     0
300
4:1
140
4.0
141
1.0
290
     0
  0
SCALE
  5
56
102
{ACAD_REACTORS
330
47
102
}
330
47
100
AcDbScale
 70
     0
300
8:1
140
8.0
141
1.0
290
     0
  0
SCALE
  5
57
102
{ACAD_REACTORS
330
47
102
}
330
47
100
AcDbScale
 70
     0
300
10:1
140
10.0
141
1.0
290
     0
  0
SCALE
  5
58
102
{ACAD_REACTORS
330
47
102
}
330
47
100
AcDbScale
 70
     0
300
100:1
140
100.0
141
1.0
290
     0
  0
SCALE
  5
59
102
{ACAD_REACTORS
330
47
102
}
330
47
100
AcDbScale
 70
     0
300
1/128" = 1'-0"
140
0.0078125
141
12.0
290
     0
  0
SCALE
  5
5A
102
{ACAD_REACTORS
330
47
102
}
330
47
100
AcDbScale
 70
     0
300
1/64" = 1'-0"
140
0.015625
141
12.0
290
     0
  0
SCALE
  5
5B
102
{ACAD_REACTORS
330
47
102
}
330
47
100
AcDbScale
 70
     0
300
1/32" = 1'-0"
140
0.03125
141
12.0
290
     0
  0
SCALE
  5
5C
102
{ACAD_REACTORS
330
47
102
}
330
47
100
AcDbScale
 70
     0
300
1/16" = 1'-0"
140
0.0625
141
12.0
290
     0
  0
SCALE
  5
5D
102
{ACAD_REACTORS
330
47
102
}
330
47
100
AcDbScale
 70
     0
300
3/32" = 1'-0"
140
0.09375
141
12.0
290
     0
  0
SCALE
  5
5E
102
{ACAD_REACTORS
330
47
102
}
330
47
100
AcDbScale
 70
     0
300
1/8" = 1'-0"
140
0.125
141
12.0
290
     0
  0
SCALE
  5
5F
102
{ACAD_REACTORS
330
47
102
}
330
47
100
AcDbScale
 70
     0
300
3/16" = 1'-0"
140
0.1875
141
12.0
290
     0
  0
SCALE
  5
60
102
{ACAD_REACTORS
330
47
102
}
330
47
100
AcDbScale
 70
     0
300
1/4" = 1'-0"
140
0.25
141
12.0
290
     0
  0
SCALE
  5
61
102
{ACAD_REACTORS
330
47
102
}
330
47
100
AcDbScale
 70
     0
300
3/8" = 1'-0"
140
0.375
141
12.0
290
     0
  0
SCALE
  5
62
102
{ACAD_REACTORS
330
47
102
}
330
47
100
AcDbScale
 70
     0
300
1/2" = 1'-0"
140
0.5
141
12.0
290
     0
  0
SCALE
  5
63
102
{ACAD_REACTORS
330
47
102
}
330
47
100
AcDbScale
 70
     0
300
3/4" = 1'-0"
140
0.75
141
12.0
290
     0
  0
SCALE
  5
64
102
{ACAD_REACTORS
330
47
102
}
330
47
100
AcDbScale
 70
     0
300
1" = 1'-0"
140
1.0
141
12.0
290
     0
  0
SCALE
  5
65
102
{ACAD_REACTORS
330
47
102
}
330
47
100
AcDbScale
 70
     0
300
1-1/2" = 1'-0"
140
1.5
141
12.0
290
     0
  0
SCALE
  5
66
102
{ACAD_REACTORS
330
47
102
}
330
47
100
AcDbScale
 70
     0
300
3" = 1'-0"
140
3.0
141
12.0
290
     0
  0
SCALE
  5
67
102
{ACAD_REACTORS
330
47
102
}
330
47
100
AcDbScale
 70
     0
300
6" = 1'-0"
140
6.0
141
12.0
290
     0
  0
SCALE
  5
68
102
{ACAD_REACTORS
330
47
102
}
330
47
100
AcDbScale
 70
     0
300
1'-0" = 1'-0"
140
12.0
141
12.0
290
     0
  0
ENDSEC
  0
EOF
