  0
SECTION
  2
HEADER
  9
$ACADVER
  1
AC1015
  9
$ACADMAINTVER
 70
     6
  9
$DWGCODEPAGE
  3
ANSI_949
  9
$INSBASE
 10
0.0
 20
0.0
 30
0.0
  9
$EXTMIN
 10
-30.5625433808137
 20
-39.99892507127611
 30
0.0
  9
$EXTMAX
 10
81.21241335422454
 20
26.49134891823571
 30
0.0
  9
$LIMMIN
 10
0.0
 20
0.0
  9
$LIMMAX
 10
420.0
 20
297.0
  9
$ORTHOMODE
 70
     0
  9
$REGENMODE
 70
     1
  9
$FILLMODE
 70
     1
  9
$QTEXTMODE
 70
     0
  9
$MIRRTEXT
 70
     1
  9
$LTSCALE
 40
1.0
  9
$ATTMODE
 70
     1
  9
$TEXTSIZE
 40
3.5
  9
$TRACEWID
 40
1.0
  9
$TEXTSTYLE
  7
Standard
  9
$CLAYER
  8
0
  9
$CELTYPE
  6
ByLayer
  9
$CECOLOR
 62
   256
  9
$CELTSCALE
 40
1.0
  9
$DISPSILH
 70
     0
  9
$DIMSCALE
 40
1.0
  9
$DIMASZ
 40
3.302
  9
$DIMEXO
 40
1.0
  9
$DIMDLI
 40
3.75
  9
$DIMRND
 40
0.0
  9
$DIMDLE
 40
0.0
  9
$DIMEXE
 40
1.0
  9
$DIMTP
 40
0.0
  9
$DIMTM
 40
0.0
  9
$DIMTXT
 40
3.5
  9
$DIMCEN
 40
2.5
  9
$DIMTSZ
 40
0.0
  9
$DIMTOL
 70
     0
  9
$DIMLIM
 70
     0
  9
$DIMTIH
 70
     1
  9
$DIMTOH
 70
     1
  9
$DIMSE1
 70
     0
  9
$DIMSE2
 70
     0
  9
$DIMTAD
 70
     1
  9
$DIMZIN
 70
     0
  9
$DIMBLK
  1

  9
$DIMASO
 70
     1
  9
$DIMSHO
 70
     1
  9
$DIMPOST
  1

  9
$DIMAPOST
  1

  9
$DIMALT
 70
     0
  9
$DIMALTD
 70
     3
  9
$DIMALTF
 40
0.0393700787401575
  9
$DIMLFAC
 40
1.0
  9
$DIMTOFL
 70
     1
  9
$DIMTVP
 40
0.0
  9
$DIMTIX
 70
     0
  9
$DIMSOXD
 70
     0
  9
$DIMSAH
 70
     0
  9
$DIMBLK1
  1

  9
$DIMBLK2
  1

  9
$DIMSTYLE
  2
ISO-25
  9
$DIMCLRD
 70
     0
  9
$DIMCLRE
 70
     0
  9
$DIMCLRT
 70
     0
  9
$DIMTFAC
 40
1.0
  9
$DIMGAP
 40
1.524
  9
$DIMJUST
 70
     0
  9
$DIMSD1
 70
     0
  9
$DIMSD2
 70
     0
  9
$DIMTOLJ
 70
     0
  9
$DIMTZIN
 70
     0
  9
$DIMALTZ
 70
     0
  9
$DIMALTTZ
 70
     0
  9
$DIMUPT
 70
     0
  9
$DIMDEC
 70
     2
  9
$DIMTDEC
 70
     2
  9
$DIMALTU
 70
     2
  9
$DIMALTTD
 70
     3
  9
$DIMTXSTY
  7
Standard
  9
$DIMAUNIT
 70
     0
  9
$DIMADEC
 70
     2
  9
$DIMALTRND
 40
0.0
  9
$DIMAZIN
 70
     0
  9
$DIMDSEP
 70
    44
  9
$DIMATFIT
 70
     3
  9
$DIMFRAC
 70
     0
  9
$DIMLDRBLK
  1

  9
$DIMLUNIT
 70
     2
  9
$DIMLWD
 70
    -2
  9
$DIMLWE
 70
    -2
  9
$DIMTMOVE
 70
     0
  9
$LUNITS
 70
     2
  9
$LUPREC
 70
     2
  9
$SKETCHINC
 40
1.0
  9
$FILLETRAD
 40
10.0
  9
$AUNITS
 70
     0
  9
$AUPREC
 70
     2
  9
$MENU
  1
.
  9
$ELEVATION
 40
0.0
  9
$PELEVATION
 40
0.0
  9
$THICKNESS
 40
0.0
  9
$LIMCHECK
 70
     0
  9
$CHAMFERA
 40
0.0
  9
$CHAMFERB
 40
0.0
  9
$CHAMFERC
 40
0.0
  9
$CHAMFERD
 40
0.0
  9
$SKPOLY
 70
     0
  9
$TDCREATE
 40
2458313.423684734
  9
$TDUCREATE
 40
2458313.048684734
  9
$TDUPDATE
 40
2459719.633370047
  9
$TDUUPDATE
 40
2459719.258370047
  9
$TDINDWG
 40
0.001747419
  9
$TDUSRTIMER
 40
0.0002536111
  9
$USRTIMER
 70
     1
  9
$ANGBASE
 50
0.0
  9
$ANGDIR
 70
     0
  9
$PDMODE
 70
     0
  9
$PDSIZE
 40
-1.0
  9
$PLINEWID
 40
0.0
  9
$SPLFRAME
 70
     0
  9
$SPLINETYPE
 70
     6
  9
$SPLINESEGS
 70
     8
  9
$HANDSEED
  5
365
  9
$SURFTAB1
 70
     6
  9
$SURFTAB2
 70
     6
  9
$SURFTYPE
 70
     6
  9
$SURFU
 70
     6
  9
$SURFV
 70
     6
  9
$UCSBASE
  2

  9
$UCSNAME
  2

  9
$UCSORG
 10
0.0
 20
0.0
 30
0.0
  9
$UCSXDIR
 10
1.0
 20
0.0
 30
0.0
  9
$UCSYDIR
 10
0.0
 20
1.0
 30
0.0
  9
$UCSORTHOREF
  2

  9
$UCSORTHOVIEW
 70
     0
  9
$UCSORGTOP
 10
0.0
 20
0.0
 30
0.0
  9
$UCSORGBOTTOM
 10
0.0
 20
0.0
 30
0.0
  9
$UCSORGLEFT
 10
0.0
 20
0.0
 30
0.0
  9
$UCSORGRIGHT
 10
0.0
 20
0.0
 30
0.0
  9
$UCSORGFRONT
 10
0.0
 20
0.0
 30
0.0
  9
$UCSORGBACK
 10
0.0
 20
0.0
 30
0.0
  9
$PUCSBASE
  2

  9
$PUCSNAME
  2

  9
$PUCSORG
 10
0.0
 20
0.0
 30
0.0
  9
$PUCSXDIR
 10
1.0
 20
0.0
 30
0.0
  9
$PUCSYDIR
 10
0.0
 20
1.0
 30
0.0
  9
$PUCSORTHOREF
  2

  9
$PUCSORTHOVIEW
 70
     0
  9
$PUCSORGTOP
 10
0.0
 20
0.0
 30
0.0
  9
$PUCSORGBOTTOM
 10
0.0
 20
0.0
 30
0.0
  9
$PUCSORGLEFT
 10
0.0
 20
0.0
 30
0.0
  9
$PUCSORGRIGHT
 10
0.0
 20
0.0
 30
0.0
  9
$PUCSORGFRONT
 10
0.0
 20
0.0
 30
0.0
  9
$PUCSORGBACK
 10
0.0
 20
0.0
 30
0.0
  9
$USERI1
 70
     0
  9
$USERI2
 70
     0
  9
$USERI3
 70
     0
  9
$USERI4
 70
     0
  9
$USERI5
 70
     0
  9
$USERR1
 40
0.0
  9
$USERR2
 40
0.0
  9
$USERR3
 40
0.0
  9
$USERR4
 40
0.0
  9
$USERR5
 40
0.0
  9
$WORLDVIEW
 70
     1
  9
$SHADEDGE
 70
     3
  9
$SHADEDIF
 70
    70
  9
$TILEMODE
 70
     1
  9
$MAXACTVP
 70
    64
  9
$PINSBASE
 10
0.0
 20
0.0
 30
0.0
  9
$PLIMCHECK
 70
     0
  9
$PEXTMIN
 10
1.000000000000000E+20
 20
1.000000000000000E+20
 30
1.000000000000000E+20
  9
$PEXTMAX
 10
-1.000000000000000E+20
 20
-1.000000000000000E+20
 30
-1.000000000000000E+20
  9
$PLIMMIN
 10
0.0
 20
0.0
  9
$PLIMMAX
 10
0.0
 20
0.0
  9
$UNITMODE
 70
     0
  9
$VISRETAIN
 70
     1
  9
$PLINEGEN
 70
     0
  9
$PSLTSCALE
 70
     1
  9
$TREEDEPTH
 70
  3020
  9
$CMLSTYLE
  2
Standard
  9
$CMLJUST
 70
     0
  9
$CMLSCALE
 40
20.0
  9
$PROXYGRAPHICS
 70
     1
  9
$MEASUREMENT
 70
     1
  9
$CELWEIGHT
370
    -1
  9
$ENDCAPS
280
     0
  9
$JOINSTYLE
280
     0
  9
$LWDISPLAY
290
     1
  9
$INSUNITS
 70
     4
  9
$HYPERLINKBASE
  1

  9
$STYLESHEET
  1

  9
$XEDIT
290
     1
  9
$CEPSNTYPE
380
     0
  9
$PSTYLEMODE
290
     1
  9
$FINGERPRINTGUID
  2
{4795E3F3-7768-4E6A-A158-904409EDEFA8}
  9
$VERSIONGUID
  2
{FAEB1C32-E019-11D5-929B-00C0DF256EC4}
  9
$EXTNAMES
290
     1
  9
$PSVPSCALE
 40
0.0
  9
$OLESTARTUP
290
     0
  0
ENDSEC
  0
SECTION
  2
CLASSES
  0
CLASS
  1
ACDBDICTIONARYWDFLT
  2
AcDbDictionaryWithDefault
  3
ObjectDBX Classes
 90
        0
280
     0
281
     0
  0
CLASS
  1
VISUALSTYLE
  2
AcDbVisualStyle
  3
ObjectDBX Classes
 90
     4095
280
     0
281
     0
  0
CLASS
  1
MATERIAL
  2
AcDbMaterial
  3
ObjectDBX Classes
 90
     1153
280
     0
281
     0
  0
CLASS
  1
SCALE
  2
AcDbScale
  3
ObjectDBX Classes
 90
     1153
280
     0
281
     0
  0
CLASS
  1
SUN
  2
AcDbSun
  3
SCENEOE
 90
     1153
280
     0
281
     0
  0
CLASS
  1
ACDBPLACEHOLDER
  2
AcDbPlaceHolder
  3
ObjectDBX Classes
 90
        0
280
     0
281
     0
  0
CLASS
  1
LAYOUT
  2
AcDbLayout
  3
ObjectDBX Classes
 90
        0
280
     0
281
     0
  0
CLASS
  1
TABLESTYLE
  2
AcDbTableStyle
  3
ObjectDBX Classes
 90
     4095
280
     0
281
     0
  0
CLASS
  1
MLEADERSTYLE
  2
AcDbMLeaderStyle
  3
ACDB_MLEADERSTYLE_CLASS
 90
     4095
280
     0
281
     0
  0
CLASS
  1
RASTERVARIABLES
  2
AcDbRasterVariables
  3
ISM
 90
        0
280
     0
281
     0
  0
ENDSEC
  0
SECTION
  2
TABLES
  0
TABLE
  2
VPORT
  5
8
330
0
100
AcDbSymbolTable
 70
     1
  0
VPORT
  5
29
330
8
100
AcDbSymbolTableRecord
100
AcDbViewportTableRecord
  2
*Active
 70
     0
 10
0.0
 20
0.0
 11
1.0
 21
1.0
 12
-4.113700096441811
 22
0.1711527809900488
 13
0.0
 23
0.0
 14
10.0
 24
10.0
 15
10.0
 25
10.0
 16
0.0
 26
0.0
 36
1.0
 17
0.0
 27
0.0
 37
0.0
 40
66.65741377230157
 41
1.519944979367263
 42
50.0
 43
0.0
 44
0.0
 50
0.0
 51
0.0
 71
    16
 72
  2000
 73
     1
 74
     3
 75
     0
 76
     0
 77
     0
 78
     0
281
     0
 65
     1
110
0.0
120
0.0
130
0.0
111
1.0
121
0.0
131
0.0
112
0.0
122
1.0
132
0.0
 79
     0
146
0.0
  0
ENDTAB
  0
TABLE
  2
LTYPE
  5
5
330
0
100
AcDbSymbolTable
 70
     6
  0
LTYPE
  5
14
330
5
100
AcDbSymbolTableRecord
100
AcDbLinetypeTableRecord
  2
ByBlock
 70
     0
  3

 72
    65
 73
     0
 40
0.0
  0
LTYPE
  5
15
330
5
100
AcDbSymbolTableRecord
100
AcDbLinetypeTableRecord
  2
ByLayer
 70
     0
  3

 72
    65
 73
     0
 40
0.0
  0
LTYPE
  5
16
330
5
100
AcDbSymbolTableRecord
100
AcDbLinetypeTableRecord
  2
Continuous
 70
     0
  3
Solid line
 72
    65
 73
     0
 40
0.0
  0
LTYPE
  5
6A
330
5
100
AcDbSymbolTableRecord
100
AcDbLinetypeTableRecord
  2
HIDDEN
 70
     0
  3
Hidden __ __ __ __ __ __ __ __ __ __ __ __ __ __
 72
    65
 73
     2
 40
1.905
 49
1.27
 74
     0
 49
-0.635
 74
     0
  0
LTYPE
  5
6B
330
5
100
AcDbSymbolTableRecord
100
AcDbLinetypeTableRecord
  2
PHANTOM
 70
     0
  3
Phantom ______  __  __  ______  __  __  ______
 72
    65
 73
     6
 40
12.7
 49
6.35
 74
     0
 49
-1.27
 74
     0
 49
1.27
 74
     0
 49
-1.27
 74
     0
 49
1.27
 74
     0
 49
-1.27
 74
     0
  0
LTYPE
  5
6C
330
5
100
AcDbSymbolTableRecord
100
AcDbLinetypeTableRecord
  2
CENTER
 70
     0
  3
Center ____ _ ____ _ ____ _ ____ _ ____ _ ____
 72
    65
 73
     4
 40
10.16
 49
6.35
 74
     0
 49
-1.27
 74
     0
 49
1.27
 74
     0
 49
-1.27
 74
     0
  0
LTYPE
  5
6D
330
5
100
AcDbSymbolTableRecord
100
AcDbLinetypeTableRecord
  2
CENTERX2
 70
     0
  3
Center (2x) ________  __  ________  __  _____
 72
    65
 73
     4
 40
20.32
 49
12.7
 74
     0
 49
-2.54
 74
     0
 49
2.54
 74
     0
 49
-2.54
 74
     0
  0
LTYPE
  5
6E
330
5
100
AcDbSymbolTableRecord
100
AcDbLinetypeTableRecord
  2
DOT2
 70
     0
  3
Dot (.5x) ........................................
 72
    65
 73
     2
 40
0.635
 49
0.0
 74
     0
 49
-0.635
 74
     0
  0
ENDTAB
  0
TABLE
  2
LAYER
  5
2
330
0
100
AcDbSymbolTable
 70
    18
  0
LAYER
  5
10
330
2
100
AcDbSymbolTableRecord
100
AcDbLayerTableRecord
  2
0
 70
     0
 62
     7
  6
Continuous
370
    -3
390
F
  0
LAYER
  5
6F
330
2
100
AcDbSymbolTableRecord
100
AcDbLayerTableRecord
  2
FORMAT
 70
     0
 62
     2
  6
Continuous
370
    -3
390
F
  0
LAYER
  5
70
330
2
100
AcDbSymbolTableRecord
100
AcDbLayerTableRecord
  2
외형선
 70
     0
 62
     4
  6
Continuous
370
    30
390
F
  0
LAYER
  5
71
330
2
100
AcDbSymbolTableRecord
100
AcDbLayerTableRecord
  2
숨은선
 70
     0
 62
     2
  6
HIDDEN
370
    15
390
F
  0
LAYER
  5
72
330
2
100
AcDbSymbolTableRecord
100
AcDbLayerTableRecord
  2
중심선
 70
     0
 62
     1
  6
CENTERX2
370
    -3
390
F
  0
LAYER
  5
73
330
2
100
AcDbSymbolTableRecord
100
AcDbLayerTableRecord
  2
파단선
 70
     0
 62
     4
  6
Continuous
370
    -3
390
F
  0
LAYER
  5
74
330
2
100
AcDbSymbolTableRecord
100
AcDbLayerTableRecord
  2
해칭선
 70
     0
 62
   100
  6
Continuous
370
    -3
390
F
  0
LAYER
  5
75
330
2
100
AcDbSymbolTableRecord
100
AcDbLayerTableRecord
  2
가는실선
 70
     0
 62
     4
  6
Continuous
370
    -3
390
F
  0
LAYER
  5
76
330
2
100
AcDbSymbolTableRecord
100
AcDbLayerTableRecord
  2
치수_보조선
 70
     0
 62
     4
  6
Continuous
370
    -3
390
F
  0
LAYER
  5
77
330
2
100
AcDbSymbolTableRecord
100
AcDbLayerTableRecord
  2
치수문자_일반주서
 70
     0
 62
     7
  6
Continuous
370
    15
390
F
  0
LAYER
  5
78
330
2
100
AcDbSymbolTableRecord
100
AcDbLayerTableRecord
  2
개별주서
 70
     0
 62
   100
  6
Continuous
370
    30
390
F
  0
LAYER
  5
79
330
2
100
AcDbSymbolTableRecord
100
AcDbLayerTableRecord
  2
중간선
 70
     0
 62
     2
  6
Continuous
370
    15
390
F
  0
LAYER
  5
7A
330
2
100
AcDbSymbolTableRecord
100
AcDbLayerTableRecord
  2
윤곽선
 70
     0
 62
     3
  6
Continuous
370
    40
390
F
  0
LAYER
  5
7B
330
2
100
AcDbSymbolTableRecord
100
AcDbLayerTableRecord
  2
중심마크
 70
     0
 62
   100
  6
Continuous
370
    30
390
F
  0
LAYER
  5
7C
330
2
100
AcDbSymbolTableRecord
100
AcDbLayerTableRecord
  2
가상선
 70
     0
 62
     4
  6
PHANTOM
370
    -3
390
F
  0
LAYER
  5
7D
330
2
100
AcDbSymbolTableRecord
100
AcDbLayerTableRecord
  2
특수지정선
 70
     0
 62
     5
  6
CENTERX2
370
    60
390
F
  0
LAYER
  5
7E
330
2
100
AcDbSymbolTableRecord
100
AcDbLayerTableRecord
  2
참조1
 70
     0
 62
    -4
  6
Continuous
370
    -3
390
F
  0
LAYER
  5
15E
330
2
100
AcDbSymbolTableRecord
100
AcDbLayerTableRecord
  2
Defpoints
 70
     0
 62
     7
  6
Continuous
290
     0
370
    -3
390
F
  0
ENDTAB
  0
TABLE
  2
STYLE
  5
3
330
0
100
AcDbSymbolTable
 70
     2
  0
STYLE
  5
11
330
3
100
AcDbSymbolTableRecord
100
AcDbTextStyleTableRecord
  2
Standard
 70
     0
 40
0.0
 41
1.0
 50
0.0
 71
     0
 42
3.5
  3
txt
  4

  0
STYLE
  5
94
330
3
100
AcDbSymbolTableRecord
100
AcDbTextStyleTableRecord
  2
SLDTEXTSTYLE0
 70
     0
 40
0.0
 41
0.75
 50
0.0
 71
     0
 42
3.5
  3
TXT
  4

  0
ENDTAB
  0
TABLE
  2
VIEW
  5
6
330
0
100
AcDbSymbolTable
 70
     0
  0
ENDTAB
  0
TABLE
  2
UCS
  5
7
330
0
100
AcDbSymbolTable
 70
     0
  0
ENDTAB
  0
TABLE
  2
APPID
  5
9
330
0
100
AcDbSymbolTable
 70
     1
  0
APPID
  5
12
330
9
100
AcDbSymbolTableRecord
100
AcDbRegAppTableRecord
  2
ACAD
 70
     0
  0
ENDTAB
  0
TABLE
  2
DIMSTYLE
  5
A
330
0
100
AcDbSymbolTable
 70
     3
100
AcDbDimStyleTable
  0
DIMSTYLE
105
27
330
A
100
AcDbSymbolTableRecord
100
AcDbDimStyleTableRecord
  2
ISO-25
 70
     0
 41
2.5
 42
0.625
 43
3.75
 44
1.25
 73
     0
 74
     0
 77
     1
 78
     8
140
2.5
141
2.5
143
0.03937007874016
147
0.625
171
     3
172
     1
178
     0
271
     2
272
     2
274
     3
278
    44
283
     0
284
     8
340
11
  0
DIMSTYLE
105
DA
102
{ACAD_REACTORS
330
D9
330
EE
330
102
330
117
102
}
330
A
100
AcDbSymbolTableRecord
100
AcDbDimStyleTableRecord
  2
SLDDIMSTYLE0
 70
     0
 41
3.302
 44
0.0
 45
0.000000001
 73
     0
 74
     0
 77
     1
 78
    12
 79
     3
140
3.5
143
0.0393700787401575
147
0.875
148
0.000000001
170
     1
172
     1
173
     1
178
     0
271
     2
272
     2
276
     2
284
    12
289
     0
340
94
  0
DIMSTYLE
105
118
330
A
100
AcDbSymbolTableRecord
100
AcDbDimStyleTableRecord
  2
SLDDIMSTYLE1
 70
     0
 41
3.302
 44
0.0
 45
0.000000001
 73
     0
 74
     0
 77
     1
 78
     4
 79
     1
140
3.5
143
0.0393700787401575
147
0.875
148
0.000000001
170
     1
173
     1
178
     0
271
     2
272
     2
276
     2
284
    12
340
94
  0
ENDTAB
  0
TABLE
  2
BLOCK_RECORD
  5
1
330
0
100
AcDbSymbolTable
 70
    18
  0
BLOCK_RECORD
  5
1F
102
{ACAD_XDICTIONARY
360
362
102
}
330
1
100
AcDbSymbolTableRecord
100
AcDbBlockTableRecord
  2
*Model_Space
340
22
  0
BLOCK_RECORD
  5
1B
330
1
100
AcDbSymbolTableRecord
100
AcDbBlockTableRecord
  2
*Paper_Space
340
1E
  0
BLOCK_RECORD
  5
23
330
1
100
AcDbSymbolTableRecord
100
AcDbBlockTableRecord
  2
*Paper_Space0
340
26
  0
BLOCK_RECORD
  5
7F
330
1
100
AcDbSymbolTableRecord
100
AcDbBlockTableRecord
  2
블럭10
340
0
102
{BLKREFS
331
D2
102
}
  0
BLOCK_RECORD
  5
DB
330
1
100
AcDbSymbolTableRecord
100
AcDbBlockTableRecord
  2
_D
340
0
  0
BLOCK_RECORD
  5
EF
330
1
100
AcDbSymbolTableRecord
100
AcDbBlockTableRecord
  2
_D_1
340
0
  0
BLOCK_RECORD
  5
103
330
1
100
AcDbSymbolTableRecord
100
AcDbBlockTableRecord
  2
_D_2
340
0
  0
BLOCK_RECORD
  5
119
330
1
100
AcDbSymbolTableRecord
100
AcDbBlockTableRecord
  2
_D_3
340
0
  0
BLOCK_RECORD
  5
132
330
1
100
AcDbSymbolTableRecord
100
AcDbBlockTableRecord
  2
SW_DOWELSYMBOL_0
340
0
102
{BLKREFS
331
138
102
}
  0
BLOCK_RECORD
  5
218
330
1
100
AcDbSymbolTableRecord
100
AcDbBlockTableRecord
  2
*D7
340
0
  0
BLOCK_RECORD
  5
227
330
1
100
AcDbSymbolTableRecord
100
AcDbBlockTableRecord
  2
*D8
340
0
  0
BLOCK_RECORD
  5
233
330
1
100
AcDbSymbolTableRecord
100
AcDbBlockTableRecord
  2
*D9
340
0
  0
BLOCK_RECORD
  5
242
330
1
100
AcDbSymbolTableRecord
100
AcDbBlockTableRecord
  2
*D10
340
0
  0
BLOCK_RECORD
  5
2A3
330
1
100
AcDbSymbolTableRecord
100
AcDbBlockTableRecord
  2
*D11
340
0
  0
BLOCK_RECORD
  5
2B2
330
1
100
AcDbSymbolTableRecord
100
AcDbBlockTableRecord
  2
*D12
340
0
  0
BLOCK_RECORD
  5
2BE
330
1
100
AcDbSymbolTableRecord
100
AcDbBlockTableRecord
  2
*D13
340
0
  0
BLOCK_RECORD
  5
2CD
330
1
100
AcDbSymbolTableRecord
100
AcDbBlockTableRecord
  2
*D14
340
0
  0
BLOCK_RECORD
  5
314
330
1
100
AcDbSymbolTableRecord
100
AcDbBlockTableRecord
  2
*D15
340
0
  0
BLOCK_RECORD
  5
323
330
1
100
AcDbSymbolTableRecord
100
AcDbBlockTableRecord
  2
*D16
340
0
  0
BLOCK_RECORD
  5
332
330
1
100
AcDbSymbolTableRecord
100
AcDbBlockTableRecord
  2
*D17
340
0
  0
ENDTAB
  0
ENDSEC
  0
SECTION
  2
BLOCKS
  0
BLOCK
  5
20
330
1F
100
AcDbEntity
  8
0
100
AcDbBlockBegin
  2
*Model_Space
 70
     0
 10
0.0
 20
0.0
 30
0.0
  3
*Model_Space
  1
*Model_Space
  0
ENDBLK
  5
21
330
1F
100
AcDbEntity
  8
0
100
AcDbBlockEnd
  0
BLOCK
  5
1C
330
1B
100
AcDbEntity
 67
     1
  8
0
100
AcDbBlockBegin
  2
*Paper_Space
 70
     0
 10
0.0
 20
0.0
 30
0.0
  3
*Paper_Space
  1
*Paper_Space
  0
ENDBLK
  5
1D
330
1B
100
AcDbEntity
 67
     1
  8
0
100
AcDbBlockEnd
  0
BLOCK
  5
24
330
23
100
AcDbEntity
  8
0
100
AcDbBlockBegin
  2
*Paper_Space0
 70
     0
 10
0.0
 20
0.0
 30
0.0
  3
*Paper_Space0
  1
*Paper_Space0
  0
ENDBLK
  5
25
330
23
100
AcDbEntity
  8
0
100
AcDbBlockEnd
  0
BLOCK
  5
80
330
7F
100
AcDbEntity
  8
0
100
AcDbBlockBegin
  2
블럭10
 70
     2
 10
0.0
 20
0.0
 30
0.0
  3
블럭10
  1
블럭10
  0
ELLIPSE
  5
82
330
7F
100
AcDbEntity
  8
중심선
100
AcDbEllipse
 10
20.54032771741204
 20
12.0471743016438
 30
0.0
 11
6.600054785286829
 21
-1.261213355974178E-13
 31
0.0
210
0.0
220
0.0
230
1.0
 40
0.636358354079598
 41
0.9219305317359503
 42
6.513795318482858
  0
ELLIPSE
  5
83
330
7F
100
AcDbEntity
  8
중심선
100
AcDbEllipse
 10
20.54032771746488
 20
12.04717430159265
 30
0.0
 11
3.960054785062283
 21
1.540847449632565E-10
 31
0.0
210
0.0
220
0.0
230
1.0
 40
0.3939339440162632
 41
1.131841032648279
 42
5.62031148352944
  0
LINE
  5
84
330
7F
100
AcDbEntity
  8
중심선
100
AcDbLine
 10
2.268634060543552
 20
16.24717430164393
 30
0.0
 11
5.714909304380834
 21
16.24717430164393
 31
0.0
  0
LINE
  5
85
330
7F
100
AcDbEntity
  8
중심선
100
AcDbLine
 10
5.245725140726316
 20
7.84717430164391
 30
0.0
 11
8.692000384563599
 21
7.84717430164391
 31
0.0
  0
LINE
  5
86
330
7F
100
AcDbEntity
  8
중심선
100
AcDbLine
 10
15.74043728645272
 20
16.24717430164393
 30
0.0
 11
8.692000384563599
 21
7.84717430164391
 31
0.0
  0
LINE
  5
87
330
7F
100
AcDbEntity
  8
중심선
100
AcDbLine
 10
0.1404042013395286
 20
13.71084872107135
 30
0.0
 11
3.58671253028996
 21
13.71088815037384
 31
0.0
  0
LINE
  5
88
330
7F
100
AcDbEntity
  8
중심선
100
AcDbLine
 10
2.750260043222114
 20
10.84717430164391
 30
0.0
 11
6.196535287059397
 21
10.84717430164391
 31
0.0
  0
LINE
  5
89
330
7F
100
AcDbEntity
  8
중심선
100
AcDbLine
 10
12.29416204261559
 20
16.24717430164393
 30
0.0
 11
5.245725140726316
 21
7.84717430164391
 31
0.0
  0
LINE
  5
8A
330
7F
100
AcDbEntity
  8
중심선
100
AcDbLine
 10
10.72767329541681
 20
16.24717430164393
 30
0.0
 11
6.196535287059397
 21
10.84717430164391
 31
0.0
  0
LINE
  5
8B
330
7F
100
AcDbEntity
  8
중심선
100
AcDbLine
 10
7.28139805157953
 20
16.24717430164393
 30
0.0
 11
2.750260043222114
 21
10.84717430164391
 31
0.0
  0
LINE
  5
8C
330
7F
100
AcDbEntity
  8
중심선
100
AcDbLine
 10
5.714909304380834
 20
16.24717430164393
 30
0.0
 11
3.58671253028996
 21
13.71088815037384
 31
0.0
  0
LINE
  5
8D
330
7F
100
AcDbEntity
  8
중심선
100
AcDbLine
 10
2.268634060543552
 20
16.24717430164393
 30
0.0
 11
0.1404042013395286
 21
13.71084872107135
 31
0.0
  0
LINE
  5
8E
330
7F
100
AcDbEntity
  8
중심선
100
AcDbLine
 10
7.28139805157953
 20
16.24717430164393
 30
0.0
 11
10.72767329541681
 21
16.24717430164393
 31
0.0
  0
LINE
  5
8F
330
7F
100
AcDbEntity
  8
중심선
100
AcDbLine
 10
12.29416204261559
 20
16.24717430164393
 30
0.0
 11
15.74043728645272
 21
16.24717430164393
 31
0.0
  0
LINE
  5
90
330
7F
100
AcDbEntity
  8
중심선
100
AcDbLine
 10
19.22036997980202
 20
11.08717430171403
 30
0.0
 11
23.66174974927406
 21
11.08717430171406
 31
0.0
  0
LINE
  5
91
330
7F
100
AcDbEntity
  8
중심선
100
AcDbLine
 10
19.22039502424796
 20
13.00717430171391
 30
0.0
 11
19.22036997980202
 21
11.08717430171403
 31
0.0
  0
LINE
  5
92
330
7F
100
AcDbEntity
  8
중심선
100
AcDbLine
 10
19.22039502424796
 20
13.00717430171391
 30
0.0
 11
26.96566020931264
 21
13.00717430171391
 31
0.0
  0
LINE
  5
93
330
7F
100
AcDbEntity
  8
중심선
100
AcDbLine
 10
22.22332737316547
 20
13.45928029700563
 30
0.0
 11
24.52862924686651
 21
15.39360700705356
 31
0.0
  0
ATTDEF
  5
95
330
7F
100
AcDbEntity
  8
FORMAT
 62
     2
100
AcDbText
 10
4.408487351596664
 20
2.075366912832191
 30
0.0
 40
4.233333333333333
  1
E5022005
 41
0.75
  7
SLDTEXTSTYLE0
 11
4.408487351596664
 21
-0.0412997538344756
 31
0.0
100
AcDbAttributeDefinition
  3

  2
AUTOATTR0
 70
     0
 74
     1
  0
ENDBLK
  5
81
330
7F
100
AcDbEntity
  8
0
100
AcDbBlockEnd
  0
BLOCK
  5
DC
330
DB
100
AcDbEntity
  8
0
100
AcDbBlockBegin
  2
_D
 70
     0
 10
0.0
 20
0.0
 30
0.0
  3
_D
  1
_D
  0
LINE
  5
DE
330
DB
100
AcDbEntity
  8
치수문자_일반주서
 62
     0
370
    -2
100
AcDbLine
 10
-12.71576350361915
 20
1.587499999999994
 30
0.0
 11
-27.18754338081362
 21
1.58749999999994
 31
0.0
  0
LINE
  5
DF
330
DB
100
AcDbEntity
  8
치수문자_일반주서
 62
     0
370
    -2
100
AcDbLine
 10
-12.71576350361915
 20
-1.587500000000003
 30
0.0
 11
-27.18754338081361
 21
-1.587500000000055
 31
0.0
  0
LINE
  5
E0
330
DB
100
AcDbEntity
  8
치수문자_일반주서
 62
     0
370
    -2
100
AcDbLine
 10
-27.18754338081362
 20
1.58749999999994
 30
0.0
 11
-27.1875433808137
 21
24.74374999999996
 31
0.0
  0
LINE
  5
E1
330
DB
100
AcDbEntity
  8
치수문자_일반주서
 62
     0
370
    -2
100
AcDbLine
 10
-27.18754338081362
 20
1.58749999999994
 30
0.0
 11
-27.18754338081361
 21
-1.587500000000055
 31
0.0
  0
LINE
  5
E2
330
DB
100
AcDbEntity
  8
치수문자_일반주서
 62
     0
370
    -2
100
AcDbLine
 10
-27.18754338081363
 20
4.08749999999994
 30
0.0
 11
-27.18754338081364
 21
6.58749999999994
 31
0.0
  0
LINE
  5
E3
330
DB
100
AcDbEntity
  8
치수문자_일반주서
 62
     0
370
    -2
100
AcDbLine
 10
-27.1875433808136
 20
-4.087500000000055
 30
0.0
 11
-27.1875433808136
 21
-6.587500000000055
 31
0.0
  0
SOLID
  5
E4
330
DB
100
AcDbEntity
  8
치수문자_일반주서
 62
     0
100
AcDbTrace
 10
-27.6042100474803
 20
4.087499999999938
 30
0.0
 11
-26.77087671414696
 21
4.087499999999942
 31
0.0
 12
-27.18754338081362
 22
1.58749999999994
 32
0.0
 13
-27.18754338081362
 23
1.58749999999994
 33
0.0
  0
SOLID
  5
E5
330
DB
100
AcDbEntity
  8
치수문자_일반주서
 62
     0
100
AcDbTrace
 10
-26.77087671414694
 20
-4.087500000000054
 30
0.0
 11
-27.60421004748027
 21
-4.087500000000057
 31
0.0
 12
-27.18754338081361
 22
-1.587500000000055
 32
0.0
 13
-27.18754338081361
 23
-1.587500000000055
 33
0.0
  0
MTEXT
  5
E6
330
DB
100
AcDbEntity
  8
치수문자_일반주서
 62
     0
100
AcDbMText
 10
-30.56254338081367
 20
15.74374999999995
 30
0.0
 40
2.5
 41
0.0
 71
     2
 72
     1
  1
\A1;%%c3.18 [1/8]
  7
SLDTEXTSTYLE0
 11
-3.356894814614650E-15
 21
1.0
 31
0.0
 73
     1
 44
1.0
  0
POINT
  5
2DB
330
DB
100
AcDbEntity
  8
Defpoints
 62
     0
100
AcDbPoint
 10
-12.65326350361915
 20
1.587499999999995
 30
0.0
  0
POINT
  5
2DC
330
DB
100
AcDbEntity
  8
Defpoints
 62
     0
100
AcDbPoint
 10
-12.65326350361915
 20
-1.587500000000003
 30
0.0
  0
POINT
  5
2DD
330
DB
100
AcDbEntity
  8
Defpoints
 62
     0
100
AcDbPoint
 10
-27.18754338081361
 20
-1.587500000000057
 30
0.0
  0
ENDBLK
  5
DD
330
DB
100
AcDbEntity
  8
0
100
AcDbBlockEnd
  0
BLOCK
  5
F0
330
EF
100
AcDbEntity
  8
0
100
AcDbBlockBegin
  2
_D_1
 70
     0
 10
0.0
 20
0.0
 30
0.0
  3
_D_1
  1
_D_1
  0
LINE
  5
F2
330
EF
100
AcDbEntity
  8
치수문자_일반주서
 62
     0
370
    -2
100
AcDbLine
 10
19.11250000000001
 20
-0.9913489182356603
 30
0.0
 11
28.22940757455073
 21
-0.9913489182356265
 31
0.0
  0
LINE
  5
F3
330
EF
100
AcDbEntity
  8
치수문자_일반주서
 62
     0
370
    -2
100
AcDbLine
 10
19.11250000000001
 20
0.9913489182356641
 30
0.0
 11
28.22940757455073
 21
0.9913489182356976
 31
0.0
  0
LINE
  5
F4
330
EF
100
AcDbEntity
  8
치수문자_일반주서
 62
     0
370
    -2
100
AcDbLine
 10
28.22940757455073
 20
0.9913489182356976
 30
0.0
 11
28.22940757455064
 21
26.4913489182357
 31
0.0
  0
LINE
  5
F5
330
EF
100
AcDbEntity
  8
치수문자_일반주서
 62
     0
370
    -2
100
AcDbLine
 10
28.22940757455073
 20
-0.9913489182356265
 30
0.0
 11
28.22940757455073
 21
0.9913489182356976
 31
0.0
  0
LINE
  5
F6
330
EF
100
AcDbEntity
  8
치수문자_일반주서
 62
     0
370
    -2
100
AcDbLine
 10
28.22940757455074
 20
-3.491348918235627
 30
0.0
 11
28.22940757455076
 21
-5.991348918235627
 31
0.0
  0
LINE
  5
F7
330
EF
100
AcDbEntity
  8
치수문자_일반주서
 62
     0
370
    -2
100
AcDbLine
 10
28.22940757455072
 20
3.491348918235698
 30
0.0
 11
28.22940757455071
 21
5.991348918235698
 31
0.0
  0
SOLID
  5
F8
330
EF
100
AcDbEntity
  8
치수문자_일반주서
 62
     0
100
AcDbTrace
 10
28.64607424121741
 20
-3.491348918235625
 30
0.0
 11
27.81274090788408
 21
-3.491348918235628
 31
0.0
 12
28.22940757455073
 22
-0.9913489182356265
 32
0.0
 13
28.22940757455073
 23
-0.9913489182356265
 33
0.0
  0
SOLID
  5
F9
330
EF
100
AcDbEntity
  8
치수문자_일반주서
 62
     0
100
AcDbTrace
 10
27.81274090788405
 20
3.491348918235696
 30
0.0
 11
28.64607424121738
 21
3.491348918235699
 31
0.0
 12
28.22940757455073
 22
0.9913489182356976
 32
0.0
 13
28.22940757455073
 23
0.9913489182356976
 33
0.0
  0
MTEXT
  5
FA
330
EF
100
AcDbEntity
  8
치수문자_일반주서
 62
     0
100
AcDbMText
 10
24.85440757455067
 20
16.24134891823569
 30
0.0
 40
2.5
 41
0.0
 71
     2
 72
     1
  1
\A1;%%c1.98 [5/64]
  7
SLDTEXTSTYLE0
 11
-3.583716705035991E-15
 21
1.0
 31
0.0
 73
     1
 44
1.0
  0
POINT
  5
FB
330
EF
100
AcDbEntity
  8
Defpoints
 62
     0
100
AcDbPoint
 10
19.05000000000001
 20
-0.9913489182356605
 30
0.0
  0
POINT
  5
FC
330
EF
100
AcDbEntity
  8
Defpoints
 62
     0
100
AcDbPoint
 10
19.05000000000001
 20
0.9913489182356638
 30
0.0
  0
POINT
  5
FD
330
EF
100
AcDbEntity
  8
Defpoints
 62
     0
100
AcDbPoint
 10
28.22940757455073
 20
0.9913489182356982
 30
0.0
  0
ENDBLK
  5
F1
330
EF
100
AcDbEntity
  8
0
100
AcDbBlockEnd
  0
BLOCK
  5
104
330
103
100
AcDbEntity
  8
0
100
AcDbBlockBegin
  2
_D_2
 70
     0
 10
0.0
 20
0.0
 30
0.0
  3
_D_2
  1
_D_2
  0
LINE
  5
106
330
103
100
AcDbEntity
  8
치수문자_일반주서
 62
     0
370
    -2
100
AcDbLine
 10
19.05000000000001
 20
1.053848918235664
 30
0.0
 11
19.05000000000001
 21
14.12000770209756
 31
0.0
  0
LINE
  5
107
330
103
100
AcDbEntity
  8
치수문자_일반주서
 62
     0
370
    -2
100
AcDbLine
 10
15.87500000000001
 20
0.8401655899133763
 30
0.0
 11
15.87500000000001
 21
14.12000770209756
 31
0.0
  0
LINE
  5
108
330
103
100
AcDbEntity
  8
치수문자_일반주서
 62
     0
370
    -2
100
AcDbLine
 10
15.87500000000001
 20
14.12000770209756
 30
0.0
 11
-5.406249999999991
 21
14.12000770209756
 31
0.0
  0
LINE
  5
109
330
103
100
AcDbEntity
  8
치수문자_일반주서
 62
     0
370
    -2
100
AcDbLine
 10
19.05000000000001
 20
14.12000770209756
 30
0.0
 11
15.87500000000001
 21
14.12000770209756
 31
0.0
  0
LINE
  5
10A
330
103
100
AcDbEntity
  8
치수문자_일반주서
 62
     0
370
    -2
100
AcDbLine
 10
21.55000000000001
 20
14.12000770209756
 30
0.0
 11
24.05000000000001
 21
14.12000770209756
 31
0.0
  0
LINE
  5
10B
330
103
100
AcDbEntity
  8
치수문자_일반주서
 62
     0
370
    -2
100
AcDbLine
 10
13.37500000000001
 20
14.12000770209756
 30
0.0
 11
10.87500000000001
 21
14.12000770209756
 31
0.0
  0
SOLID
  5
10C
330
103
100
AcDbEntity
  8
치수문자_일반주서
 62
     0
100
AcDbTrace
 10
21.55000000000001
 20
14.53667436876422
 30
0.0
 11
21.55000000000001
 21
13.70334103543089
 31
0.0
 12
19.05000000000001
 22
14.12000770209756
 32
0.0
 13
19.05000000000001
 23
14.12000770209756
 33
0.0
  0
SOLID
  5
10D
330
103
100
AcDbEntity
  8
치수문자_일반주서
 62
     0
100
AcDbTrace
 10
13.37500000000001
 20
13.70334103543089
 30
0.0
 11
13.37500000000001
 21
14.53667436876422
 31
0.0
 12
15.87500000000001
 22
14.12000770209756
 32
0.0
 13
15.87500000000001
 23
14.12000770209756
 33
0.0
  0
MTEXT
  5
10E
330
103
100
AcDbEntity
  8
치수문자_일반주서
 62
     0
100
AcDbMText
 10
2.656250000000009
 20
17.49500770209756
 30
0.0
 40
2.5
 41
0.0
 71
     2
 72
     1
  1
\A1;3.18 [1/8]
  7
SLDTEXTSTYLE0
 73
     1
 44
1.0
  0
POINT
  5
10F
330
103
100
AcDbEntity
  8
Defpoints
 62
     0
100
AcDbPoint
 10
19.05000000000001
 20
0.9913489182356638
 30
0.0
  0
POINT
  5
110
330
103
100
AcDbEntity
  8
Defpoints
 62
     0
100
AcDbPoint
 10
15.87500000000001
 20
0.7776655899133763
 30
0.0
  0
POINT
  5
111
330
103
100
AcDbEntity
  8
Defpoints
 62
     0
100
AcDbPoint
 10
15.87500000000001
 20
14.12000770209756
 30
0.0
  0
ENDBLK
  5
105
330
103
100
AcDbEntity
  8
0
100
AcDbBlockEnd
  0
BLOCK
  5
11A
330
119
100
AcDbEntity
  8
0
100
AcDbBlockBegin
  2
_D_3
 70
     0
 10
0.0
 20
0.0
 30
0.0
  3
_D_3
  1
_D_3
  0
LINE
  5
11C
330
119
100
AcDbEntity
  8
치수문자_일반주서
 62
     0
370
    -2
100
AcDbLine
 10
-19.04999999999999
 20
1.053848918235669
 30
0.0
 11
-19.04999999999998
 21
22.60423110124378
 31
0.0
  0
LINE
  5
11D
330
119
100
AcDbEntity
  8
치수문자_일반주서
 62
     0
370
    -2
100
AcDbLine
 10
19.05000000000001
 20
1.053848918235664
 30
0.0
 11
19.05000000000002
 21
22.60423110124378
 31
0.0
  0
LINE
  5
11E
330
119
100
AcDbEntity
  8
치수문자_일반주서
 62
     0
370
    -2
100
AcDbLine
 10
-16.54999999999998
 20
22.60423110124378
 30
0.0
 11
16.55000000000002
 21
22.60423110124378
 31
0.0
  0
SOLID
  5
11F
330
119
100
AcDbEntity
  8
치수문자_일반주서
 62
     0
100
AcDbTrace
 10
-16.54999999999998
 20
23.02089776791045
 30
0.0
 11
-16.54999999999998
 21
22.18756443457711
 31
0.0
 12
-19.04999999999998
 22
22.60423110124378
 32
0.0
 13
-19.04999999999998
 23
22.60423110124378
 33
0.0
  0
SOLID
  5
120
330
119
100
AcDbEntity
  8
치수문자_일반주서
 62
     0
100
AcDbTrace
 10
16.55000000000002
 20
22.18756443457711
 30
0.0
 11
16.55000000000002
 21
23.02089776791045
 31
0.0
 12
19.05000000000002
 22
22.60423110124378
 32
0.0
 13
19.05000000000002
 23
22.60423110124378
 33
0.0
  0
MTEXT
  5
121
330
119
100
AcDbEntity
  8
치수문자_일반주서
 62
     0
100
AcDbMText
 10
1.516370094755901
 20
25.97923110124378
 30
0.0
 40
2.5
 41
0.0
 71
     2
 72
     1
  1
\A1;38.1 [1 1/2]
  7
SLDTEXTSTYLE0
 73
     1
 44
1.0
  0
POINT
  5
122
330
119
100
AcDbEntity
  8
Defpoints
 62
     0
100
AcDbPoint
 10
-19.04999999999999
 20
0.9913489182356688
 30
0.0
  0
POINT
  5
123
330
119
100
AcDbEntity
  8
Defpoints
 62
     0
100
AcDbPoint
 10
19.05000000000001
 20
0.9913489182356638
 30
0.0
  0
POINT
  5
124
330
119
100
AcDbEntity
  8
Defpoints
 62
     0
100
AcDbPoint
 10
19.05000000000001
 20
22.60423110124378
 30
0.0
  0
ENDBLK
  5
11B
330
119
100
AcDbEntity
  8
0
100
AcDbBlockEnd
  0
BLOCK
  5
133
330
132
100
AcDbEntity
  8
0
100
AcDbBlockBegin
  2
SW_DOWELSYMBOL_0
 70
     0
 10
0.0
 20
0.0
 30
0.0
  3
SW_DOWELSYMBOL_0
  1
SW_DOWELSYMBOL_0
  0
CIRCLE
  5
135
330
132
100
AcDbEntity
  8
해칭선
 62
     0
100
AcDbCircle
 10
0.0
 20
0.0
 30
0.0
 40
3.000000000000001
  0
HATCH
  5
136
330
132
100
AcDbEntity
  8
0
  6
Continuous
 62
     0
370
     0
100
AcDbHatch
 10
0.0
 20
0.0
 30
0.0
210
0.0
220
0.0
230
1.0
  2
SOLID
 70
     1
 71
     0
 91
        1
 92
        0
 93
        3
 72
     2
 10
0.0
 20
0.0
 40
3.000000000000001
 50
0.0
 51
90.0
 73
     1
 72
     1
 10
0.0
 20
3.000000000000001
 11
0.0
 21
0.0
 72
     1
 10
0.0
 20
0.0
 11
3.000000000000001
 21
0.0
 97
        0
 75
     0
 76
     1
 98
        1
 10
0.0
 20
0.0
  0
HATCH
  5
137
330
132
100
AcDbEntity
  8
0
  6
Continuous
 62
     0
370
     0
100
AcDbHatch
 10
0.0
 20
0.0
 30
0.0
210
0.0
220
0.0
230
1.0
  2
SOLID
 70
     1
 71
     0
 91
        1
 92
        0
 93
        3
 72
     2
 10
0.0
 20
0.0
 40
3.000000000000001
 50
180.0
 51
270.0000000000007
 73
     1
 72
     1
 10
0.0
 20
-3.000000000000001
 11
0.0
 21
0.0
 72
     1
 10
0.0
 20
0.0
 11
-3.000000000000001
 21
0.0
 97
        0
 75
     0
 76
     1
 98
        1
 10
0.0
 20
0.0
  0
ENDBLK
  5
134
330
132
100
AcDbEntity
  8
0
100
AcDbBlockEnd
  0
BLOCK
  5
219
330
218
100
AcDbEntity
  8
0
100
AcDbBlockBegin
  2
*D7
 70
     1
 10
0.0
 20
0.0
 30
0.0
  3
*D7
  1
*D8
  0
LINE
  5
21B
330
218
100
AcDbEntity
  8
치수문자_일반주서
 62
     0
370
    -2
100
AcDbLine
 10
71.43750000000006
 20
10.20053740206972
 30
0.0
 11
79.375
 21
10.20053740206975
 31
0.0
  0
LINE
  5
21C
330
218
100
AcDbEntity
  8
치수문자_일반주서
 62
     0
370
    -2
100
AcDbLine
 10
71.43750000000006
 20
11.70053740206973
 30
0.0
 11
79.375
 21
11.70053740206976
 31
0.0
  0
LINE
  5
21D
330
218
100
AcDbEntity
  8
치수문자_일반주서
 62
     0
370
    -2
100
AcDbLine
 10
79.375
 20
11.70053740206976
 30
0.0
 11
79.375
 21
35.42953740206976
 31
0.0
  0
LINE
  5
21E
330
218
100
AcDbEntity
  8
치수문자_일반주서
 62
     0
370
    -2
100
AcDbLine
 10
79.375
 20
10.20053740206975
 30
0.0
 11
79.375
 21
11.70053740206976
 31
0.0
  0
LINE
  5
21F
330
218
100
AcDbEntity
  8
치수문자_일반주서
 62
     0
370
    -2
100
AcDbLine
 10
79.375
 20
7.700537402069752
 30
0.0
 11
79.375
 21
5.200537402069752
 31
0.0
  0
LINE
  5
220
330
218
100
AcDbEntity
  8
치수문자_일반주서
 62
     0
370
    -2
100
AcDbLine
 10
79.375
 20
14.20053740206976
 30
0.0
 11
79.375
 21
16.70053740206976
 31
0.0
  0
SOLID
  5
221
330
218
100
AcDbEntity
  8
치수문자_일반주서
 62
     0
100
AcDbTrace
 10
79.79166666666667
 20
7.700537402069752
 30
0.0
 11
78.95833333333333
 21
7.700537402069752
 31
0.0
 12
79.375
 22
10.20053740206975
 32
0.0
 13
79.375
 23
10.20053740206975
 33
0.0
  0
SOLID
  5
222
330
218
100
AcDbEntity
  8
치수문자_일반주서
 62
     0
100
AcDbTrace
 10
78.95833333333333
 20
14.20053740206976
 30
0.0
 11
79.79166666666667
 21
14.20053740206976
 31
0.0
 12
79.375
 22
11.70053740206976
 32
0.0
 13
79.375
 23
11.70053740206976
 33
0.0
  0
MTEXT
  5
223
330
218
100
AcDbEntity
  8
치수문자_일반주서
 62
     0
100
AcDbMText
 10
76.0
 20
27.05453740206976
 30
0.0
 40
2.5
 41
0.0
 71
     2
 72
     1
  1
\A1;%%c1.5 [0.06]
  7
SLDTEXTSTYLE0
 11
0.0
 21
1.0
 31
0.0
 73
     1
 44
1.0
  0
POINT
  5
224
330
218
100
AcDbEntity
  8
Defpoints
 62
     0
100
AcDbPoint
 10
71.37500000000006
 20
10.20053740206972
 30
0.0
  0
POINT
  5
225
330
218
100
AcDbEntity
  8
Defpoints
 62
     0
100
AcDbPoint
 10
71.37500000000006
 20
11.70053740206973
 30
0.0
  0
POINT
  5
226
330
218
100
AcDbEntity
  8
Defpoints
 62
     0
100
AcDbPoint
 10
79.37500000000003
 20
11.70053740206976
 30
0.0
  0
ENDBLK
  5
21A
330
218
100
AcDbEntity
  8
0
100
AcDbBlockEnd
  0
BLOCK
  5
228
330
227
100
AcDbEntity
  8
0
100
AcDbBlockBegin
  2
*D8
 70
     1
 10
0.0
 20
0.0
 30
0.0
  3
*D8
  1
*D9
  0
LINE
  5
22A
330
227
100
AcDbEntity
  8
치수문자_일반주서
 62
     0
370
    -2
100
AcDbLine
 10
11.37500000000006
 20
13.51303740206972
 30
0.0
 11
11.37500000000006
 21
31.33967000365137
 31
0.0
  0
LINE
  5
22B
330
227
100
AcDbEntity
  8
치수문자_일반주서
 62
     0
370
    -2
100
AcDbLine
 10
71.37500000000006
 20
11.76303740206973
 30
0.0
 11
71.37500000000006
 21
31.33967000365137
 31
0.0
  0
LINE
  5
22C
330
227
100
AcDbEntity
  8
치수문자_일반주서
 62
     0
370
    -2
100
AcDbLine
 10
13.87500000000006
 20
31.33967000365137
 30
0.0
 11
68.87500000000006
 21
31.33967000365137
 31
0.0
  0
SOLID
  5
22D
330
227
100
AcDbEntity
  8
치수문자_일반주서
 62
     0
100
AcDbTrace
 10
13.87500000000006
 20
31.75633667031804
 30
0.0
 11
13.87500000000006
 21
30.9230033369847
 31
0.0
 12
11.37500000000006
 22
31.33967000365137
 32
0.0
 13
11.37500000000006
 23
31.33967000365137
 33
0.0
  0
SOLID
  5
22E
330
227
100
AcDbEntity
  8
치수문자_일반주서
 62
     0
100
AcDbTrace
 10
68.87500000000006
 20
30.9230033369847
 30
0.0
 11
68.87500000000006
 21
31.75633667031804
 31
0.0
 12
71.37500000000006
 22
31.33967000365137
 32
0.0
 13
71.37500000000006
 23
31.33967000365137
 33
0.0
  0
MTEXT
  5
22F
330
227
100
AcDbEntity
  8
치수문자_일반주서
 62
     0
100
AcDbMText
 10
41.37500000000006
 20
34.71467000365137
 30
0.0
 40
2.5
 41
0.0
 71
     2
 72
     1
  1
\A1;60 [2.36]
  7
SLDTEXTSTYLE0
 73
     1
 44
1.0
  0
POINT
  5
230
330
227
100
AcDbEntity
  8
Defpoints
 62
     0
100
AcDbPoint
 10
11.37500000000006
 20
13.45053740206972
 30
0.0
  0
POINT
  5
231
330
227
100
AcDbEntity
  8
Defpoints
 62
     0
100
AcDbPoint
 10
71.37500000000006
 20
11.70053740206973
 30
0.0
  0
POINT
  5
232
330
227
100
AcDbEntity
  8
Defpoints
 62
     0
100
AcDbPoint
 10
71.37500000000006
 20
31.33967000365137
 30
0.0
  0
ENDBLK
  5
229
330
227
100
AcDbEntity
  8
0
100
AcDbBlockEnd
  0
BLOCK
  5
234
330
233
100
AcDbEntity
  8
0
100
AcDbBlockBegin
  2
*D9
 70
     1
 10
0.0
 20
0.0
 30
0.0
  3
*D9
  1
*D10
  0
LINE
  5
236
330
233
100
AcDbEntity
  8
치수문자_일반주서
 62
     0
370
    -2
100
AcDbLine
 10
11.81250000000006
 20
13.95053740206973
 30
0.0
 11
3.375000000000041
 21
13.9505374020697
 31
0.0
  0
LINE
  5
237
330
233
100
AcDbEntity
  8
치수문자_일반주서
 62
     0
370
    -2
100
AcDbLine
 10
11.81250000000006
 20
7.950537402069727
 30
0.0
 11
3.375000000000062
 21
7.950537402069696
 31
0.0
  0
LINE
  5
238
330
233
100
AcDbEntity
  8
치수문자_일반주서
 62
     0
370
    -2
100
AcDbLine
 10
3.375000000000041
 20
13.9505374020697
 30
0.0
 11
3.374999999999971
 21
34.1380374020697
 31
0.0
  0
LINE
  5
239
330
233
100
AcDbEntity
  8
치수문자_일반주서
 62
     0
370
    -2
100
AcDbLine
 10
3.375000000000041
 20
13.9505374020697
 30
0.0
 11
3.375000000000062
 21
7.950537402069696
 31
0.0
  0
LINE
  5
23A
330
233
100
AcDbEntity
  8
치수문자_일반주서
 62
     0
370
    -2
100
AcDbLine
 10
3.375000000000032
 20
16.4505374020697
 30
0.0
 11
3.375000000000023
 21
18.9505374020697
 31
0.0
  0
LINE
  5
23B
330
233
100
AcDbEntity
  8
치수문자_일반주서
 62
     0
370
    -2
100
AcDbLine
 10
3.375000000000071
 20
5.450537402069696
 30
0.0
 11
3.375000000000079
 21
2.950537402069696
 31
0.0
  0
SOLID
  5
23C
330
233
100
AcDbEntity
  8
치수문자_일반주서
 62
     0
100
AcDbTrace
 10
2.958333333333365
 20
16.4505374020697
 30
0.0
 11
3.791666666666698
 21
16.4505374020697
 31
0.0
 12
3.375000000000041
 22
13.9505374020697
 32
0.0
 13
3.375000000000041
 23
13.9505374020697
 33
0.0
  0
SOLID
  5
23D
330
233
100
AcDbEntity
  8
치수문자_일반주서
 62
     0
100
AcDbTrace
 10
3.791666666666737
 20
5.450537402069697
 30
0.0
 11
2.958333333333404
 21
5.450537402069694
 31
0.0
 12
3.375000000000062
 22
7.950537402069696
 32
0.0
 13
3.375000000000062
 23
7.950537402069696
 33
0.0
  0
MTEXT
  5
23E
330
233
100
AcDbEntity
  8
치수문자_일반주서
 62
     0
100
AcDbMText
 10
-0.0000000000000031
 20
26.54428740206969
 30
0.0
 40
2.5
 41
0.0
 71
     2
 72
     1
  1
\A1;%%c6 [0.24]
  7
SLDTEXTSTYLE0
 11
-3.478698810492154E-15
 21
1.0
 31
0.0
 73
     1
 44
1.0
  0
POINT
  5
23F
330
233
100
AcDbEntity
  8
Defpoints
 62
     0
100
AcDbPoint
 10
11.87500000000006
 20
13.95053740206973
 30
0.0
  0
POINT
  5
240
330
233
100
AcDbEntity
  8
Defpoints
 62
     0
100
AcDbPoint
 10
11.87500000000006
 20
7.950537402069727
 30
0.0
  0
POINT
  5
241
330
233
100
AcDbEntity
  8
Defpoints
 62
     0
100
AcDbPoint
 10
3.375000000000057
 20
7.950537402069696
 30
0.0
  0
ENDBLK
  5
235
330
233
100
AcDbEntity
  8
0
100
AcDbBlockEnd
  0
BLOCK
  5
243
330
242
100
AcDbEntity
  8
0
100
AcDbBlockBegin
  2
*D10
 70
     1
 10
0.0
 20
0.0
 30
0.0
  3
*D10
  1
*D11
  0
LINE
  5
245
330
242
100
AcDbEntity
  8
치수문자_일반주서
 62
     0
370
    -2
100
AcDbLine
 10
65.37500000000006
 20
11.72584006941095
 30
0.0
 11
65.37500000000006
 21
22.5092583719986
 31
0.0
  0
LINE
  5
246
330
242
100
AcDbEntity
  8
치수문자_일반주서
 62
     0
370
    -2
100
AcDbLine
 10
71.37500000000006
 20
11.76303740206973
 30
0.0
 11
71.37500000000006
 21
22.5092583719986
 31
0.0
  0
LINE
  5
247
330
242
100
AcDbEntity
  8
치수문자_일반주서
 62
     0
370
    -2
100
AcDbLine
 10
65.37500000000006
 20
22.5092583719986
 30
0.0
 11
71.37500000000006
 21
22.5092583719986
 31
0.0
  0
LINE
  5
248
330
242
100
AcDbEntity
  8
치수문자_일반주서
 62
     0
370
    -2
100
AcDbLine
 10
62.87500000000006
 20
22.5092583719986
 30
0.0
 11
60.37500000000006
 21
22.5092583719986
 31
0.0
  0
LINE
  5
249
330
242
100
AcDbEntity
  8
치수문자_일반주서
 62
     0
370
    -2
100
AcDbLine
 10
73.87500000000006
 20
22.5092583719986
 30
0.0
 11
76.37500000000006
 21
22.5092583719986
 31
0.0
  0
SOLID
  5
24A
330
242
100
AcDbEntity
  8
치수문자_일반주서
 62
     0
100
AcDbTrace
 10
62.87500000000006
 20
22.09259170533193
 30
0.0
 11
62.87500000000006
 21
22.92592503866527
 31
0.0
 12
65.37500000000006
 22
22.5092583719986
 32
0.0
 13
65.37500000000006
 23
22.5092583719986
 33
0.0
  0
SOLID
  5
24B
330
242
100
AcDbEntity
  8
치수문자_일반주서
 62
     0
100
AcDbTrace
 10
73.87500000000006
 20
22.92592503866527
 30
0.0
 11
73.87500000000006
 21
22.09259170533193
 31
0.0
 12
71.37500000000006
 22
22.5092583719986
 32
0.0
 13
71.37500000000006
 23
22.5092583719986
 33
0.0
  0
MTEXT
  5
24C
330
242
100
AcDbEntity
  8
치수문자_일반주서
 62
     0
100
AcDbMText
 10
68.37500000000006
 20
25.8842583719986
 30
0.0
 40
2.5
 41
0.0
 71
     2
 72
     1
  1
\A1;6 [0.24]
  7
SLDTEXTSTYLE0
 73
     1
 44
1.0
  0
POINT
  5
24D
330
242
100
AcDbEntity
  8
Defpoints
 62
     0
100
AcDbPoint
 10
65.37500000000006
 20
11.66334006941095
 30
0.0
  0
POINT
  5
24E
330
242
100
AcDbEntity
  8
Defpoints
 62
     0
100
AcDbPoint
 10
71.37500000000006
 20
11.70053740206973
 30
0.0
  0
POINT
  5
24F
330
242
100
AcDbEntity
  8
Defpoints
 62
     0
100
AcDbPoint
 10
71.37500000000006
 20
22.5092583719986
 30
0.0
  0
ENDBLK
  5
244
330
242
100
AcDbEntity
  8
0
100
AcDbBlockEnd
  0
BLOCK
  5
2A4
330
2A3
100
AcDbEntity
  8
0
100
AcDbBlockBegin
  2
*D11
 70
     1
 10
0.0
 20
0.0
 30
0.0
  3
*D11
  1
*D12
  0
LINE
  5
2A6
330
2A3
100
AcDbEntity
  8
치수문자_일반주서
 62
     0
370
    -2
100
AcDbLine
 10
26.68116231437763
 20
75.95436530233358
 30
0.0
 11
34.61866231437765
 21
75.95436530233361
 31
0.0
  0
LINE
  5
2A7
330
2A3
100
AcDbEntity
  8
치수문자_일반주서
 62
     0
370
    -2
100
AcDbLine
 10
26.68116231437763
 20
77.4543653023336
 30
0.0
 11
34.61866231437764
 21
77.45436530233363
 31
0.0
  0
LINE
  5
2A8
330
2A3
100
AcDbEntity
  8
치수문자_일반주서
 62
     0
370
    -2
100
AcDbLine
 10
34.61866231437764
 20
77.45436530233363
 30
0.0
 11
34.61866231437753
 21
101.1833653023336
 31
0.0
  0
LINE
  5
2A9
330
2A3
100
AcDbEntity
  8
치수문자_일반주서
 62
     0
370
    -2
100
AcDbLine
 10
34.61866231437765
 20
75.95436530233361
 30
0.0
 11
34.61866231437764
 21
77.45436530233363
 31
0.0
  0
LINE
  5
2AA
330
2A3
100
AcDbEntity
  8
치수문자_일반주서
 62
     0
370
    -2
100
AcDbLine
 10
34.61866231437767
 20
73.45436530233361
 30
0.0
 11
34.61866231437768
 21
70.95436530233361
 31
0.0
  0
LINE
  5
2AB
330
2A3
100
AcDbEntity
  8
치수문자_일반주서
 62
     0
370
    -2
100
AcDbLine
 10
34.61866231437763
 20
79.95436530233363
 30
0.0
 11
34.61866231437762
 21
82.45436530233363
 31
0.0
  0
SOLID
  5
2AC
330
2A3
100
AcDbEntity
  8
치수문자_일반주서
 62
     0
100
AcDbTrace
 10
35.03532898104433
 20
73.45436530233361
 30
0.0
 11
34.201995647711
 21
73.45436530233361
 31
0.0
 12
34.61866231437765
 22
75.95436530233361
 32
0.0
 13
34.61866231437765
 23
75.95436530233361
 33
0.0
  0
SOLID
  5
2AD
330
2A3
100
AcDbEntity
  8
치수문자_일반주서
 62
     0
100
AcDbTrace
 10
34.20199564771097
 20
79.95436530233363
 30
0.0
 11
35.03532898104429
 21
79.95436530233363
 31
0.0
 12
34.61866231437764
 22
77.45436530233363
 32
0.0
 13
34.61866231437764
 23
77.45436530233363
 33
0.0
  0
MTEXT
  5
2AE
330
2A3
100
AcDbEntity
  8
치수문자_일반주서
 62
     0
100
AcDbMText
 10
31.24366231437757
 20
92.8083653023336
 30
0.0
 40
2.5
 41
0.0
 71
     2
 72
     1
  1
\A1;%%c1.5 [0.06]
  7
SLDTEXTSTYLE0
 11
-4.736951571733956E-15
 21
1.0
 31
0.0
 73
     1
 44
1.0
  0
POINT
  5
2AF
330
2A3
100
AcDbEntity
  8
Defpoints
 62
     0
100
AcDbPoint
 10
26.61866231437763
 20
75.95436530233358
 30
0.0
  0
POINT
  5
2B0
330
2A3
100
AcDbEntity
  8
Defpoints
 62
     0
100
AcDbPoint
 10
26.61866231437763
 20
77.4543653023336
 30
0.0
  0
POINT
  5
2B1
330
2A3
100
AcDbEntity
  8
Defpoints
 62
     0
100
AcDbPoint
 10
34.61866231437757
 20
77.45436530233363
 30
0.0
  0
ENDBLK
  5
2A5
330
2A3
100
AcDbEntity
  8
0
100
AcDbBlockEnd
  0
BLOCK
  5
2B3
330
2B2
100
AcDbEntity
  8
0
100
AcDbBlockBegin
  2
*D12
 70
     1
 10
0.0
 20
0.0
 30
0.0
  3
*D12
  1
*D13
  0
LINE
  5
2B5
330
2B2
100
AcDbEntity
  8
치수문자_일반주서
 62
     0
370
    -2
100
AcDbLine
 10
-33.38133768562237
 20
79.26686530233358
 30
0.0
 11
-33.38133768562237
 21
97.09349790391522
 31
0.0
  0
LINE
  5
2B6
330
2B2
100
AcDbEntity
  8
치수문자_일반주서
 62
     0
370
    -2
100
AcDbLine
 10
26.61866231437763
 20
77.51686530233358
 30
0.0
 11
26.61866231437763
 21
97.09349790391522
 31
0.0
  0
LINE
  5
2B7
330
2B2
100
AcDbEntity
  8
치수문자_일반주서
 62
     0
370
    -2
100
AcDbLine
 10
-30.88133768562237
 20
97.09349790391522
 30
0.0
 11
24.11866231437763
 21
97.09349790391522
 31
0.0
  0
SOLID
  5
2B8
330
2B2
100
AcDbEntity
  8
치수문자_일반주서
 62
     0
100
AcDbTrace
 10
-30.88133768562237
 20
97.51016457058189
 30
0.0
 11
-30.88133768562237
 21
96.67683123724855
 31
0.0
 12
-33.38133768562237
 22
97.09349790391522
 32
0.0
 13
-33.38133768562237
 23
97.09349790391522
 33
0.0
  0
SOLID
  5
2B9
330
2B2
100
AcDbEntity
  8
치수문자_일반주서
 62
     0
100
AcDbTrace
 10
24.11866231437763
 20
96.67683123724855
 30
0.0
 11
24.11866231437763
 21
97.51016457058189
 31
0.0
 12
26.61866231437763
 22
97.09349790391522
 32
0.0
 13
26.61866231437763
 23
97.09349790391522
 33
0.0
  0
MTEXT
  5
2BA
330
2B2
100
AcDbEntity
  8
치수문자_일반주서
 62
     0
100
AcDbMText
 10
-3.38133768562237
 20
100.4684979039152
 30
0.0
 40
2.5
 41
0.0
 71
     2
 72
     1
  1
\A1;60 [2.36]
  7
SLDTEXTSTYLE0
 73
     1
 44
1.0
  0
POINT
  5
2BB
330
2B2
100
AcDbEntity
  8
Defpoints
 62
     0
100
AcDbPoint
 10
-33.38133768562237
 20
79.20436530233358
 30
0.0
  0
POINT
  5
2BC
330
2B2
100
AcDbEntity
  8
Defpoints
 62
     0
100
AcDbPoint
 10
26.61866231437763
 20
77.45436530233358
 30
0.0
  0
POINT
  5
2BD
330
2B2
100
AcDbEntity
  8
Defpoints
 62
     0
100
AcDbPoint
 10
26.61866231437763
 20
97.09349790391522
 30
0.0
  0
ENDBLK
  5
2B4
330
2B2
100
AcDbEntity
  8
0
100
AcDbBlockEnd
  0
BLOCK
  5
2BF
330
2BE
100
AcDbEntity
  8
0
100
AcDbBlockBegin
  2
*D13
 70
     1
 10
0.0
 20
0.0
 30
0.0
  3
*D13
  1
*D14
  0
LINE
  5
2C1
330
2BE
100
AcDbEntity
  8
치수문자_일반주서
 62
     0
370
    -2
100
AcDbLine
 10
-32.94383768562236
 20
79.70436530233358
 30
0.0
 11
-41.38133768562238
 21
79.70436530233356
 31
0.0
  0
LINE
  5
2C2
330
2BE
100
AcDbEntity
  8
치수문자_일반주서
 62
     0
370
    -2
100
AcDbLine
 10
-32.94383768562236
 20
73.70436530233358
 30
0.0
 11
-41.38133768562236
 21
73.70436530233356
 31
0.0
  0
LINE
  5
2C3
330
2BE
100
AcDbEntity
  8
치수문자_일반주서
 62
     0
370
    -2
100
AcDbLine
 10
-41.38133768562238
 20
79.70436530233356
 30
0.0
 11
-41.38133768562246
 21
99.89186530233356
 31
0.0
  0
LINE
  5
2C4
330
2BE
100
AcDbEntity
  8
치수문자_일반주서
 62
     0
370
    -2
100
AcDbLine
 10
-41.38133768562238
 20
79.70436530233356
 30
0.0
 11
-41.38133768562236
 21
73.70436530233356
 31
0.0
  0
LINE
  5
2C5
330
2BE
100
AcDbEntity
  8
치수문자_일반주서
 62
     0
370
    -2
100
AcDbLine
 10
-41.38133768562239
 20
82.20436530233356
 30
0.0
 11
-41.3813376856224
 21
84.70436530233356
 31
0.0
  0
LINE
  5
2C6
330
2BE
100
AcDbEntity
  8
치수문자_일반주서
 62
     0
370
    -2
100
AcDbLine
 10
-41.38133768562236
 20
71.20436530233356
 30
0.0
 11
-41.38133768562235
 21
68.70436530233356
 31
0.0
  0
SOLID
  5
2C7
330
2BE
100
AcDbEntity
  8
치수문자_일반주서
 62
     0
100
AcDbTrace
 10
-41.79800435228906
 20
82.20436530233356
 30
0.0
 11
-40.96467101895573
 21
82.20436530233356
 31
0.0
 12
-41.38133768562238
 22
79.70436530233356
 32
0.0
 13
-41.38133768562238
 23
79.70436530233356
 33
0.0
  0
SOLID
  5
2C8
330
2BE
100
AcDbEntity
  8
치수문자_일반주서
 62
     0
100
AcDbTrace
 10
-40.96467101895569
 20
71.20436530233356
 30
0.0
 11
-41.79800435228902
 21
71.20436530233356
 31
0.0
 12
-41.38133768562236
 22
73.70436530233356
 32
0.0
 13
-41.38133768562236
 23
73.70436530233356
 33
0.0
  0
MTEXT
  5
2C9
330
2BE
100
AcDbEntity
  8
치수문자_일반주서
 62
     0
100
AcDbMText
 10
-44.75633768562243
 20
92.29811530233354
 30
0.0
 40
2.5
 41
0.0
 71
     2
 72
     1
  1
\A1;%%c6 [0.24]
  7
SLDTEXTSTYLE0
 11
-3.552713678800501E-15
 21
1.0
 31
0.0
 73
     1
 44
1.0
  0
POINT
  5
2CA
330
2BE
100
AcDbEntity
  8
Defpoints
 62
     0
100
AcDbPoint
 10
-32.88133768562236
 20
79.70436530233358
 30
0.0
  0
POINT
  5
2CB
330
2BE
100
AcDbEntity
  8
Defpoints
 62
     0
100
AcDbPoint
 10
-32.88133768562236
 20
73.70436530233358
 30
0.0
  0
POINT
  5
2CC
330
2BE
100
AcDbEntity
  8
Defpoints
 62
     0
100
AcDbPoint
 10
-41.38133768562236
 20
73.70436530233356
 30
0.0
  0
ENDBLK
  5
2C0
330
2BE
100
AcDbEntity
  8
0
100
AcDbBlockEnd
  0
BLOCK
  5
2CE
330
2CD
100
AcDbEntity
  8
0
100
AcDbBlockBegin
  2
*D14
 70
     1
 10
0.0
 20
0.0
 30
0.0
  3
*D14
  1
*D15
  0
LINE
  5
2D0
330
2CD
100
AcDbEntity
  8
치수문자_일반주서
 62
     0
370
    -2
100
AcDbLine
 10
20.61866231437763
 20
77.47966796967481
 30
0.0
 11
20.61866231437763
 21
88.26308627226246
 31
0.0
  0
LINE
  5
2D1
330
2CD
100
AcDbEntity
  8
치수문자_일반주서
 62
     0
370
    -2
100
AcDbLine
 10
26.61866231437763
 20
77.51686530233358
 30
0.0
 11
26.61866231437763
 21
88.26308627226246
 31
0.0
  0
LINE
  5
2D2
330
2CD
100
AcDbEntity
  8
치수문자_일반주서
 62
     0
370
    -2
100
AcDbLine
 10
20.61866231437763
 20
88.26308627226246
 30
0.0
 11
26.61866231437763
 21
88.26308627226246
 31
0.0
  0
LINE
  5
2D3
330
2CD
100
AcDbEntity
  8
치수문자_일반주서
 62
     0
370
    -2
100
AcDbLine
 10
18.11866231437763
 20
88.26308627226246
 30
0.0
 11
15.61866231437763
 21
88.26308627226246
 31
0.0
  0
LINE
  5
2D4
330
2CD
100
AcDbEntity
  8
치수문자_일반주서
 62
     0
370
    -2
100
AcDbLine
 10
29.11866231437763
 20
88.26308627226246
 30
0.0
 11
31.61866231437763
 21
88.26308627226246
 31
0.0
  0
SOLID
  5
2D5
330
2CD
100
AcDbEntity
  8
치수문자_일반주서
 62
     0
100
AcDbTrace
 10
18.11866231437763
 20
87.84641960559578
 30
0.0
 11
18.11866231437763
 21
88.67975293892913
 31
0.0
 12
20.61866231437763
 22
88.26308627226246
 32
0.0
 13
20.61866231437763
 23
88.26308627226246
 33
0.0
  0
SOLID
  5
2D6
330
2CD
100
AcDbEntity
  8
치수문자_일반주서
 62
     0
100
AcDbTrace
 10
29.11866231437763
 20
88.67975293892913
 30
0.0
 11
29.11866231437763
 21
87.84641960559578
 31
0.0
 12
26.61866231437763
 22
88.26308627226246
 32
0.0
 13
26.61866231437763
 23
88.26308627226246
 33
0.0
  0
MTEXT
  5
2D7
330
2CD
100
AcDbEntity
  8
치수문자_일반주서
 62
     0
100
AcDbMText
 10
23.61866231437763
 20
91.63808627226246
 30
0.0
 40
2.5
 41
0.0
 71
     2
 72
     1
  1
\A1;6 [0.24]
  7
SLDTEXTSTYLE0
 73
     1
 44
1.0
  0
POINT
  5
2D8
330
2CD
100
AcDbEntity
  8
Defpoints
 62
     0
100
AcDbPoint
 10
20.61866231437763
 20
77.41716796967481
 30
0.0
  0
POINT
  5
2D9
330
2CD
100
AcDbEntity
  8
Defpoints
 62
     0
100
AcDbPoint
 10
26.61866231437763
 20
77.45436530233358
 30
0.0
  0
POINT
  5
2DA
330
2CD
100
AcDbEntity
  8
Defpoints
 62
     0
100
AcDbPoint
 10
26.61866231437763
 20
88.26308627226246
 30
0.0
  0
ENDBLK
  5
2CF
330
2CD
100
AcDbEntity
  8
0
100
AcDbBlockEnd
  0
BLOCK
  5
315
330
314
100
AcDbEntity
  8
0
100
AcDbBlockBegin
  2
*D15
 70
     1
 10
0.0
 20
0.0
 30
0.0
  3
*D15
  1
*D16
  0
LINE
  5
317
330
314
100
AcDbEntity
  8
치수문자_일반주서
 62
     0
370
    -2
100
AcDbLine
 10
87.89125341061336
 20
-33.77986227314182
 30
0.0
 11
99.2017948073185
 21
-33.77986227314178
 31
0.0
  0
LINE
  5
318
330
314
100
AcDbEntity
  8
치수문자_일반주서
 62
     0
370
    -2
100
AcDbLine
 10
87.89125341061336
 20
-31.7971644366705
 30
0.0
 11
99.2017948073185
 21
-31.79716443667045
 31
0.0
  0
LINE
  5
319
330
314
100
AcDbEntity
  8
치수문자_일반주서
 62
     0
370
    -2
100
AcDbLine
 10
99.2017948073185
 20
-31.79716443667045
 30
0.0
 11
99.2017948073185
 21
-8.172164436670453
 31
0.0
  0
LINE
  5
31A
330
314
100
AcDbEntity
  8
치수문자_일반주서
 62
     0
370
    -2
100
AcDbLine
 10
99.2017948073185
 20
-33.77986227314178
 30
0.0
 11
99.2017948073185
 21
-31.79716443667045
 31
0.0
  0
LINE
  5
31B
330
314
100
AcDbEntity
  8
치수문자_일반주서
 62
     0
370
    -2
100
AcDbLine
 10
99.2017948073185
 20
-36.27986227314178
 30
0.0
 11
99.2017948073185
 21
-38.77986227314178
 31
0.0
  0
LINE
  5
31C
330
314
100
AcDbEntity
  8
치수문자_일반주서
 62
     0
370
    -2
100
AcDbLine
 10
99.2017948073185
 20
-29.29716443667045
 30
0.0
 11
99.2017948073185
 21
-26.79716443667045
 31
0.0
  0
SOLID
  5
31D
330
314
100
AcDbEntity
  8
치수문자_일반주서
 62
     0
100
AcDbTrace
 10
99.61846147398518
 20
-36.27986227314178
 30
0.0
 11
98.78512814065184
 21
-36.27986227314178
 31
0.0
 12
99.2017948073185
 22
-33.77986227314178
 32
0.0
 13
99.2017948073185
 23
-33.77986227314178
 33
0.0
  0
SOLID
  5
31E
330
314
100
AcDbEntity
  8
치수문자_일반주서
 62
     0
100
AcDbTrace
 10
98.78512814065184
 20
-29.29716443667045
 30
0.0
 11
99.61846147398518
 21
-29.29716443667045
 31
0.0
 12
99.2017948073185
 22
-31.79716443667045
 32
0.0
 13
99.2017948073185
 23
-31.79716443667045
 33
0.0
  0
MTEXT
  5
31F
330
314
100
AcDbEntity
  8
치수문자_일반주서
 62
     0
100
AcDbMText
 10
95.8267948073185
 20
-17.48466443667045
 30
0.0
 40
2.5
 41
0.0
 71
     2
 72
     1
  1
\A1;%%c1.98 [0.08]
  7
SLDTEXTSTYLE0
 11
0.0
 21
1.0
 31
0.0
 73
     1
 44
1.0
  0
POINT
  5
320
330
314
100
AcDbEntity
  8
Defpoints
 62
     0
100
AcDbPoint
 10
87.82875341061336
 20
-33.77986227314182
 30
0.0
  0
POINT
  5
321
330
314
100
AcDbEntity
  8
Defpoints
 62
     0
100
AcDbPoint
 10
87.82875341061336
 20
-31.7971644366705
 30
0.0
  0
POINT
  5
322
330
314
100
AcDbEntity
  8
Defpoints
 62
     0
100
AcDbPoint
 10
99.20179480731855
 20
-31.79716443667045
 30
0.0
  0
ENDBLK
  5
316
330
314
100
AcDbEntity
  8
0
100
AcDbBlockEnd
  0
BLOCK
  5
324
330
323
100
AcDbEntity
  8
0
100
AcDbBlockBegin
  2
*D16
 70
     1
 10
0.0
 20
0.0
 30
0.0
  3
*D16
  1
*D17
  0
LINE
  5
326
330
323
100
AcDbEntity
  8
치수문자_일반주서
 62
     0
370
    -2
100
AcDbLine
 10
87.82875341061336
 20
-31.7346644366705
 30
0.0
 11
87.82875341061336
 21
-18.66850565280861
 31
0.0
  0
LINE
  5
327
330
323
100
AcDbEntity
  8
치수문자_일반주서
 62
     0
370
    -2
100
AcDbLine
 10
84.65375341061336
 20
-31.94834776499278
 30
0.0
 11
84.65375341061336
 21
-18.66850565280861
 31
0.0
  0
LINE
  5
328
330
323
100
AcDbEntity
  8
치수문자_일반주서
 62
     0
370
    -2
100
AcDbLine
 10
84.65375341061336
 20
-18.66850565280861
 30
0.0
 11
63.21625341061336
 21
-18.66850565280861
 31
0.0
  0
LINE
  5
329
330
323
100
AcDbEntity
  8
치수문자_일반주서
 62
     0
370
    -2
100
AcDbLine
 10
87.82875341061336
 20
-18.66850565280861
 30
0.0
 11
84.65375341061336
 21
-18.66850565280861
 31
0.0
  0
LINE
  5
32A
330
323
100
AcDbEntity
  8
치수문자_일반주서
 62
     0
370
    -2
100
AcDbLine
 10
90.32875341061336
 20
-18.66850565280861
 30
0.0
 11
92.82875341061336
 21
-18.66850565280861
 31
0.0
  0
LINE
  5
32B
330
323
100
AcDbEntity
  8
치수문자_일반주서
 62
     0
370
    -2
100
AcDbLine
 10
82.15375341061336
 20
-18.66850565280861
 30
0.0
 11
79.65375341061336
 21
-18.66850565280861
 31
0.0
  0
SOLID
  5
32C
330
323
100
AcDbEntity
  8
치수문자_일반주서
 62
     0
100
AcDbTrace
 10
90.32875341061336
 20
-18.25183898614194
 30
0.0
 11
90.32875341061336
 21
-19.08517231947527
 31
0.0
 12
87.82875341061336
 22
-18.66850565280861
 32
0.0
 13
87.82875341061336
 23
-18.66850565280861
 33
0.0
  0
SOLID
  5
32D
330
323
100
AcDbEntity
  8
치수문자_일반주서
 62
     0
100
AcDbTrace
 10
82.15375341061336
 20
-19.08517231947527
 30
0.0
 11
82.15375341061336
 21
-18.25183898614194
 31
0.0
 12
84.65375341061336
 22
-18.66850565280861
 32
0.0
 13
84.65375341061336
 23
-18.66850565280861
 33
0.0
  0
MTEXT
  5
32E
330
323
100
AcDbEntity
  8
치수문자_일반주서
 62
     0
100
AcDbMText
 10
71.43500341061336
 20
-15.29350565280861
 30
0.0
 40
2.5
 41
0.0
 71
     2
 72
     1
  1
\A1;3.18 [0.13]
  7
SLDTEXTSTYLE0
 73
     1
 44
1.0
  0
POINT
  5
32F
330
323
100
AcDbEntity
  8
Defpoints
 62
     0
100
AcDbPoint
 10
87.82875341061336
 20
-31.7971644366705
 30
0.0
  0
POINT
  5
330
330
323
100
AcDbEntity
  8
Defpoints
 62
     0
100
AcDbPoint
 10
84.65375341061336
 20
-32.01084776499278
 30
0.0
  0
POINT
  5
331
330
323
100
AcDbEntity
  8
Defpoints
 62
     0
100
AcDbPoint
 10
84.65375341061336
 20
-18.66850565280861
 30
0.0
  0
ENDBLK
  5
325
330
323
100
AcDbEntity
  8
0
100
AcDbBlockEnd
  0
BLOCK
  5
333
330
332
100
AcDbEntity
  8
0
100
AcDbBlockBegin
  2
*D17
 70
     1
 10
0.0
 20
0.0
 30
0.0
  3
*D17
  1
*D18
  0
LINE
  5
335
330
332
100
AcDbEntity
  8
치수문자_일반주서
 62
     0
370
    -2
100
AcDbLine
 10
49.72875341061336
 20
-31.56851335490616
 30
0.0
 11
49.72875341061336
 21
-10.18428225366238
 31
0.0
  0
LINE
  5
336
330
332
100
AcDbEntity
  8
치수문자_일반주서
 62
     0
370
    -2
100
AcDbLine
 10
87.82875341061336
 20
-31.7346644366705
 30
0.0
 11
87.82875341061336
 21
-10.18428225366238
 31
0.0
  0
LINE
  5
337
330
332
100
AcDbEntity
  8
치수문자_일반주서
 62
     0
370
    -2
100
AcDbLine
 10
52.22875341061336
 20
-10.18428225366238
 30
0.0
 11
85.32875341061336
 21
-10.18428225366238
 31
0.0
  0
SOLID
  5
338
330
332
100
AcDbEntity
  8
치수문자_일반주서
 62
     0
100
AcDbTrace
 10
52.22875341061336
 20
-9.767615586995715
 30
0.0
 11
52.22875341061336
 21
-10.60094892032905
 31
0.0
 12
49.72875341061336
 22
-10.18428225366238
 32
0.0
 13
49.72875341061336
 23
-10.18428225366238
 33
0.0
  0
SOLID
  5
339
330
332
100
AcDbEntity
  8
치수문자_일반주서
 62
     0
100
AcDbTrace
 10
85.32875341061336
 20
-10.60094892032905
 30
0.0
 11
85.32875341061336
 21
-9.767615586995715
 31
0.0
 12
87.82875341061336
 22
-10.18428225366238
 32
0.0
 13
87.82875341061336
 23
-10.18428225366238
 33
0.0
  0
MTEXT
  5
33A
330
332
100
AcDbEntity
  8
치수문자_일반주서
 62
     0
100
AcDbMText
 10
70.29512350536925
 20
-6.809282253662381
 30
0.0
 40
2.5
 41
0.0
 71
     2
 72
     1
  1
\A1;38.1 [1.50]
  7
SLDTEXTSTYLE0
 73
     1
 44
1.0
  0
POINT
  5
33B
330
332
100
AcDbEntity
  8
Defpoints
 62
     0
100
AcDbPoint
 10
49.72875341061336
 20
-31.63101335490616
 30
0.0
  0
POINT
  5
33C
330
332
100
AcDbEntity
  8
Defpoints
 62
     0
100
AcDbPoint
 10
87.82875341061336
 20
-31.7971644366705
 30
0.0
  0
POINT
  5
33D
330
332
100
AcDbEntity
  8
Defpoints
 62
     0
100
AcDbPoint
 10
87.82875341061336
 20
-10.18428225366238
 30
0.0
  0
ENDBLK
  5
334
330
332
100
AcDbEntity
  8
0
100
AcDbBlockEnd
  0
ENDSEC
  0
SECTION
  2
ENTITIES
  0
LINE
  5
96
330
1F
100
AcDbEntity
  8
외형선
  6
Continuous
370
    15
100
AcDbLine
 10
12.65326350361917
 20
1.5875
 30
0.0
 11
-12.65326350361913
 21
1.587499999999999
 31
0.0
  0
LINE
  5
97
330
1F
100
AcDbEntity
  8
외형선
  6
Continuous
370
    15
100
AcDbLine
 10
-12.65326350361916
 20
-1.587499999999999
 30
0.0
 11
12.65326350361917
 21
-1.587499999999997
 31
0.0
  0
LINE
  5
98
330
1F
100
AcDbEntity
  8
외형선
  6
Continuous
370
    15
100
AcDbLine
 10
12.65326350361917
 20
-1.587499999999999
 30
0.0
 11
14.87500000000001
 21
-0.9921874999999983
 31
0.0
  0
LINE
  5
99
330
1F
100
AcDbEntity
  8
외형선
  6
Continuous
370
    15
100
AcDbLine
 10
14.87500000000001
 20
0.9921875000000017
 30
0.0
 11
12.65326350361917
 21
1.587500000000001
 31
0.0
  0
LINE
  5
9C
330
1F
100
AcDbEntity
  8
외형선
  6
Continuous
370
    15
100
AcDbLine
 10
15.07481527530837
 20
0.9921875000000017
 30
0.0
 11
14.87500000000001
 21
0.9921875000000017
 31
0.0
  0
LINE
  5
9D
330
1F
100
AcDbEntity
  8
외형선
  6
Continuous
370
    15
100
AcDbLine
 10
14.87500000000001
 20
-0.9921874999999983
 30
0.0
 11
15.07481527530837
 21
-0.9921874999999983
 31
0.0
  0
SPLINE
  5
9E
330
1F
100
AcDbEntity
  8
외형선
  6
Continuous
370
    15
100
AcDbSpline
210
0.0
220
0.0
230
1.0
 70
     8
 71
     3
 72
     9
 73
     5
 74
     0
 42
0.000000001
 43
0.00000001
 40
0.0
 40
0.0
 40
0.0
 40
0.0
 40
0.6868038195834413
 40
1.0
 40
1.0
 40
1.0
 40
1.0
 10
15.87500000000003
 20
0.7775992562859737
 30
0.0
 10
15.75150366770528
 20
0.7752588054281948
 30
0.0
 10
15.57169055546944
 20
0.7718510625021311
 30
0.0
 10
15.38953020424734
 20
0.7796527026064747
 30
0.0
 10
15.33247827802124
 20
0.7820961464881399
 30
0.0
  0
SPLINE
  5
9F
330
1F
100
AcDbEntity
  8
외형선
  6
Continuous
370
    15
100
AcDbSpline
210
0.0
220
0.0
230
1.0
 70
     8
 71
     3
 72
     9
 73
     5
 74
     0
 42
0.000000001
 43
0.00000001
 40
0.0
 40
0.0
 40
0.0
 40
0.0
 40
0.4372504308365384
 40
1.0
 40
1.0
 40
1.0
 40
1.0
 10
15.07486999741461
 20
-0.7921410770885556
 30
0.0
 10
15.19130733813766
 20
-0.7861801020765308
 30
0.0
 10
15.45760173720842
 20
-0.7725472395528268
 30
0.0
 10
15.72469396428548
 20
-0.77582244459459
 30
0.0
 10
15.875
 20
-0.7776655648207643
 30
0.0
  0
LINE
  5
A0
330
1F
100
AcDbEntity
  8
0
  6
Continuous
 62
     1
370
    25
100
AcDbLine
 10
16.47863411168773
 20
0.2542458219801444
 30
0.0
 11
16.20527316004069
 21
0.3918176702163047
 31
0.0
  0
LINE
  5
A1
330
1F
100
AcDbEntity
  8
0
  6
Continuous
 62
     1
370
    25
100
AcDbLine
 10
16.14129244634934
 20
0.7878328118002539
 30
0.0
 11
15.875
 21
0.7776655648207677
 31
0.0
  0
SPLINE
  5
A2
330
1F
100
AcDbEntity
  8
0
  6
Continuous
 62
     1
370
    25
100
AcDbSpline
210
0.0
220
0.0
230
1.0
 70
     8
 71
     3
 72
    21
 73
    17
 74
     0
 42
0.000000001
 43
0.00000001
 40
0.0
 40
0.0
 40
0.0
 40
0.0
 40
0.1212177636362389
 40
0.2063715899774198
 40
0.2595259089365254
 40
0.3067420798394255
 40
0.3557552685312197
 40
0.4067675790444486
 40
0.4602884062551042
 40
0.5153903220283442
 40
0.5881985427817076
 40
0.6616118515849689
 40
0.7352913772093747
 40
0.8052590855218003
 40
0.8860491610123848
 40
1.0
 40
1.0
 40
1.0
 40
1.0
 10
18.68115689983666
 20
0.6786128329066475
 30
0.0
 10
18.6109378969094
 20
0.6731788264192515
 30
0.0
 10
18.49139100175126
 20
0.6639275044585791
 30
0.0
 10
18.34202208338767
 20
0.657264456475195
 30
0.0
 10
18.23500135290784
 20
0.6542710004809287
 30
0.0
 10
18.1487300222682
 20
0.653005306061938
 30
0.0
 10
18.06369010473261
 20
0.6527954962941607
 30
0.0
 10
17.974995694065
 20
0.6537039330307398
 30
0.0
 10
17.88278532193961
 20
0.6558748515466435
 30
0.0
 10
17.77800925453271
 20
0.6597944204490503
 30
0.0
 10
17.6619580503281
 20
0.666118995031059
 30
0.0
 10
17.53501456109743
 20
0.6753139860037871
 30
0.0
 10
17.40959140938147
 20
0.686544175739965
 30
0.0
 10
17.28003962191495
 20
0.7003489752624088
 30
0.0
 10
17.12733338433249
 20
0.7190571782059031
 30
0.0
 10
17.01475540878427
 20
0.7362012017300348
 30
0.0
 10
16.9488814510717
 20
0.7462328680053664
 30
0.0
  0
SPLINE
  5
A3
330
1F
100
AcDbEntity
  8
0
  6
Continuous
 62
     1
370
    25
100
AcDbSpline
210
0.0
220
0.0
230
1.0
 70
     8
 71
     3
 72
    13
 73
     9
 74
     0
 42
0.000000001
 43
0.00000001
 40
0.0
 40
0.0
 40
0.0
 40
0.0
 40
0.2674536697949041
 40
0.4570758118075004
 40
0.6212968085246171
 40
0.7942298004364778
 40
0.9665379556520154
 40
1.0
 40
1.0
 40
1.0
 40
1.0
 10
16.9488814510717
 20
-0.7462328680053631
 30
0.0
 10
17.0147554156552
 20
-0.7361997612372311
 30
0.0
 10
17.12733340294576
 20
-0.7190532759244217
 30
0.0
 10
17.28003957465676
 20
-0.7003588829644273
 30
0.0
 10
17.40959156521687
 20
-0.6865115047711807
 30
0.0
 10
17.53501394220194
 20
-0.6754437377510202
 30
0.0
 10
17.62815925358766
 20
-0.6682496379642242
 30
0.0
 10
17.67872309570305
 20
-0.665574232466239
 30
0.0
 10
17.68694571263621
 20
-0.6651391619963054
 30
0.0
  0
LINE
  5
A4
330
1F
100
AcDbEntity
  8
0
  6
Continuous
 62
     1
370
    25
100
AcDbLine
 10
15.875
 20
-0.7776655648207643
 30
0.0
 11
16.14129244634934
 21
-0.7878328118002507
 31
0.0
  0
LINE
  5
A5
330
1F
100
AcDbEntity
  8
외형선
  6
Continuous
370
    15
100
AcDbLine
 10
12.65326350361917
 20
1.587500000000001
 30
0.0
 11
12.65326350361917
 21
-1.5875
 31
0.0
  0
LINE
  5
A7
330
1F
100
AcDbEntity
  8
외형선
  6
Continuous
370
    15
100
AcDbLine
 10
14.87500000000001
 20
0.9921875000000017
 30
0.0
 11
14.87500000000001
 21
-0.9921874999999986
 31
0.0
  0
ELLIPSE
  5
A9
330
1F
100
AcDbEntity
  8
외형선
  6
Continuous
370
    15
100
AcDbEllipse
 10
15.07487777497976
 20
0.0000000000000016
 30
0.0
 11
6.249967141336299E-5
 21
0.9921875000000001
 31
0.0
210
0.0
220
0.0
230
1.0
 40
0.0000227746938854
 41
0.7874295416470215
 42
3.649445471206307
  0
SPLINE
  5
AA
330
1F
100
AcDbEntity
  8
외형선
  6
Continuous
370
    15
100
AcDbSpline
210
0.0
220
0.0
230
1.0
 70
    24
 71
     3
 72
    10
 73
     6
 74
     0
 42
0.000000001
 43
0.00000001
 40
0.0
 40
0.0
 40
0.0
 40
0.0
 40
0.5
 40
0.5
 40
1.0
 40
1.0
 40
1.0
 40
1.0
 10
15.07490590513384
 20
0.6998927130650693
 30
0.0
 10
15.07490590513384
 20
0.6756880026170199
 30
0.0
 10
15.07490590513384
 20
0.6417918710864138
 30
0.0
 10
15.07490590513384
 20
0.5616420262508027
 30
0.0
 10
15.07490590513384
 20
0.5156503768139066
 30
0.0
 10
15.07490590513384
 20
0.4692918413528965
 30
0.0
  0
SPLINE
  5
AB
330
1F
100
AcDbEntity
  8
외형선
  6
Continuous
370
    15
100
AcDbSpline
210
0.0
220
0.0
230
1.0
 70
    24
 71
     3
 72
    10
 73
     6
 74
     0
 42
0.000000001
 43
0.00000001
 40
0.0
 40
0.0
 40
0.0
 40
0.0
 40
0.5
 40
0.5
 40
1.0
 40
1.0
 40
1.0
 40
1.0
 10
15.0748822090403
 20
0.4692989385251257
 30
0.0
 10
15.0748822090403
 20
0.3173985538906555
 30
0.0
 10
15.0748822090403
 20
0.1326240583033169
 30
0.0
 10
15.0748822090403
 20
-0.242180661558672
 30
0.0
 10
15.0748822090403
 20
-0.4293068665359031
 30
0.0
 10
15.0748822090403
 20
-0.5851296466430108
 30
0.0
  0
SPLINE
  5
AC
330
1F
100
AcDbEntity
  8
외형선
  6
Continuous
370
    15
100
AcDbSpline
210
0.0
220
0.0
230
1.0
 70
     8
 71
     3
 72
    10
 73
     6
 74
     0
 42
0.000000001
 43
0.00000001
 40
0.0
 40
0.0
 40
0.0
 40
0.0
 40
0.3477331159952223
 40
0.693430050626734
 40
1.0
 40
1.0
 40
1.0
 40
1.0
 10
15.07482870174266
 20
-0.5851258125925224
 30
0.0
 10
15.07482756073085
 20
-0.6274705448510888
 30
0.0
 10
15.07482528538853
 20
-0.7119120561227295
 30
0.0
 10
15.07482601738745
 20
-0.7801243030504783
 30
0.0
 10
15.07482899405116
 20
-0.7865598099946508
 30
0.0
 10
15.0748303931037
 20
-0.7895845427941345
 30
0.0
  0
LINE
  5
AD
330
1F
100
AcDbEntity
  8
외형선
  6
Continuous
370
    15
100
AcDbLine
 10
15.07483748582675
 20
-0.7790210644526521
 30
0.0
 11
15.07483415203335
 21
-0.8669693429654491
 31
0.0
  0
SPLINE
  5
AE
330
1F
100
AcDbEntity
  8
외형선
  6
Continuous
370
    15
100
AcDbSpline
210
0.0
220
0.0
230
1.0
 70
     8
 71
     3
 72
    10
 73
     6
 74
     0
 42
0.000000001
 43
0.00000001
 40
0.0
 40
0.0
 40
0.0
 40
0.0
 40
0.5
 40
0.5
 40
1.0
 40
1.0
 40
1.0
 40
1.0
 10
15.87500000000001
 20
0.5579601252137855
 30
0.0
 10
15.74096717955796
 20
0.621741965228813
 30
0.0
 10
15.61109581582714
 20
0.6798537118518405
 30
0.0
 10
15.34304287341473
 20
0.7840040997861863
 30
0.0
 10
15.20713686460882
 20
0.8295894464361264
 30
0.0
 10
15.0748076806209
 20
0.866943531230841
 30
0.0
  0
LINE
  5
AF
330
1F
100
AcDbEntity
  8
외형선
  6
Continuous
370
    15
100
AcDbLine
 10
15.87500000000001
 20
0.5579601252137856
 30
0.0
 11
15.87500000000001
 21
0.3096697906588894
 31
0.0
  0
SPLINE
  5
B0
330
1F
100
AcDbEntity
  8
외형선
  6
Continuous
370
    15
100
AcDbSpline
210
0.0
220
0.0
230
1.0
 70
     8
 71
     3
 72
    10
 73
     6
 74
     0
 42
0.000000001
 43
0.00000001
 40
0.0
 40
0.0
 40
0.0
 40
0.0
 40
0.5
 40
0.5
 40
1.0
 40
1.0
 40
1.0
 40
1.0
 10
15.07490590513384
 20
0.6999156687927754
 30
0.0
 10
15.20722047231608
 20
0.6454829821640158
 30
0.0
 10
15.34310966257071
 20
0.5841908896645771
 30
0.0
 10
15.61112851020272
 20
0.4526759612326675
 30
0.0
 10
15.74098376096029
 20
0.3829415865458404
 30
0.0
 10
15.87499999999907
 20
0.3096697906574114
 30
0.0
  0
LINE
  5
B1
330
1F
100
AcDbEntity
  8
외형선
  6
Continuous
370
    15
100
AcDbLine
 10
15.3351040862381
 20
-0.7812315039472938
 30
0.0
 11
15.0748076806209
 21
-0.8669435312308378
 31
0.0
  0
ELLIPSE
  5
B2
330
1F
100
AcDbEntity
  8
외형선
  6
Continuous
370
    15
100
AcDbEllipse
 10
15.07487777497976
 20
0.0000000000000016
 30
0.0
 11
-6.249967141513936E-5
 21
0.9921875000000001
 31
0.0
210
0.0
220
0.0
230
1.0
 40
0.0000227746938872
 41
5.775332490462543
 42
6.283185307179586
  0
SPLINE
  5
B3
330
1F
100
AcDbEntity
  8
외형선
  6
Continuous
370
    15
100
AcDbSpline
210
0.0
220
0.0
230
1.0
 70
    24
 71
     3
 72
    10
 73
     6
 74
     0
 42
0.000000001
 43
0.00000001
 40
0.0
 40
0.0
 40
0.0
 40
0.0
 40
0.5
 40
0.5
 40
1.0
 40
1.0
 40
1.0
 40
1.0
 10
15.87500000000014
 20
0.3096697906568239
 30
0.0
 10
15.87500000000014
 20
0.3083468563609558
 30
0.0
 10
15.87500000000014
 20
0.2966655507607122
 30
0.0
 10
15.87500000000014
 20
0.2545670856131702
 30
0.0
 10
15.87500000000015
 20
0.2243325228564317
 30
0.0
 10
15.87500000000015
 20
0.1894627678106573
 30
0.0
  0
SPLINE
  5
B4
330
1F
100
AcDbEntity
  8
외형선
  6
Continuous
370
    15
100
AcDbSpline
210
0.0
220
0.0
230
1.0
 70
     8
 71
     3
 72
    10
 73
     6
 74
     0
 42
0.000000001
 43
0.00000001
 40
0.0
 40
0.0
 40
0.0
 40
0.0
 40
0.5
 40
0.5
 40
1.0
 40
1.0
 40
1.0
 40
1.0
 10
15.87500000000002
 20
0.189462767810709
 30
0.0
 10
15.74097976081394
 20
0.2414038440267616
 30
0.0
 10
15.61112062293502
 20
0.2911070911214009
 30
0.0
 10
15.34309355016705
 20
0.3854112622692785
 30
0.0
 10
15.20720030252237
 20
0.4296688056683738
 30
0.0
 10
15.0748822090403
 20
0.4692989385251261
 30
0.0
  0
SPLINE
  5
B5
330
1F
100
AcDbEntity
  8
외형선
  6
Continuous
370
    15
100
AcDbSpline
210
0.0
220
0.0
230
1.0
 70
     8
 71
     3
 72
    10
 73
     6
 74
     0
 42
0.000000001
 43
0.00000001
 40
0.0
 40
0.0
 40
0.0
 40
0.0
 40
0.5
 40
0.5
 40
1.0
 40
1.0
 40
1.0
 40
1.0
 10
15.87500000000001
 20
-0.7636454070505982
 30
0.0
 10
15.74097769935947
 20
-0.7468134873156875
 30
0.0
 10
15.61111655826831
 20
-0.7232978417670078
 30
0.0
 10
15.3430852467229
 20
-0.6631963874954286
 30
0.0
 10
15.20718990813207
 20
-0.6266419313437126
 30
0.0
 10
15.07486999741461
 20
-0.5851258151938106
 30
0.0
  0
SPLINE
  5
B6
330
1F
100
AcDbEntity
  8
외형선
  6
Continuous
370
    15
100
AcDbSpline
210
0.0
220
0.0
230
1.0
 70
    24
 71
     3
 72
    10
 73
     6
 74
     0
 42
0.000000001
 43
0.00000001
 40
0.0
 40
0.0
 40
0.0
 40
0.0
 40
0.5
 40
0.5
 40
1.0
 40
1.0
 40
1.0
 40
1.0
 10
15.87499999999992
 20
0.1894627678107454
 30
0.0
 10
15.87499999999992
 20
0.0140129141872172
 30
0.0
 10
15.87499999999992
 20
-0.1758771097355485
 30
0.0
 10
15.87499999999992
 20
-0.5146667134146922
 30
0.0
 10
15.87499999999992
 20
-0.6609413221002377
 30
0.0
 10
15.87499999999992
 20
-0.7636454070505868
 30
0.0
  0
SPLINE
  5
B7
330
1F
100
AcDbEntity
  8
외형선
  6
Continuous
370
    15
100
AcDbSpline
210
0.0
220
0.0
230
1.0
 70
    24
 71
     3
 72
    12
 73
     8
 74
     0
 42
0.000000001
 43
0.00000001
 40
0.0
 40
0.0
 40
0.0
 40
0.0
 40
0.1244354581052347
 40
0.3790581442049695
 40
0.6410649054511208
 40
0.8684911730292274
 40
1.0
 40
1.0
 40
1.0
 40
1.0
 10
15.87500000000001
 20
0.7760540119560655
 30
0.0
 10
15.87500000000001
 20
0.7762558234423088
 30
0.0
 10
15.87500000000001
 20
0.7768705862166778
 30
0.0
 10
15.87500000000001
 20
0.7515470213455316
 30
0.0
 10
15.87500000000001
 20
0.6952473542288224
 30
0.0
 10
15.87500000000001
 20
0.6289899119630098
 30
0.0
 10
15.87500000000001
 20
0.5770062251357322
 30
0.0
 10
15.87500000000001
 20
0.5579601252137859
 30
0.0
  0
SPLINE
  5
B8
330
1F
100
AcDbEntity
  8
0
  6
Continuous
 62
     1
370
    25
100
AcDbSpline
210
0.0
220
0.0
230
1.0
 70
     8
 71
     3
 72
    22
 73
    18
 74
     0
 42
0.000000001
 43
0.00000001
 40
0.0
 40
0.0
 40
0.0
 40
0.0
 40
0.125
 40
0.125
 40
0.2499999999999999
 40
0.2499999999999999
 40
0.3749999999999999
 40
0.3749999999999999
 40
0.4999999999999999
 40
0.4999999999999999
 40
0.6249999999999999
 40
0.6249999999999999
 40
0.7499999999999998
 40
0.7499999999999998
 40
0.8749999999999999
 40
0.8749999999999999
 40
1.0
 40
1.0
 40
1.0
 40
1.0
 10
19.05000000000001
 20
-0.9415272686910241
 30
0.0
 10
18.92029556907652
 20
-0.9175961984562376
 30
0.0
 10
18.78611453150488
 20
-0.8850250958667544
 30
0.0
 10
18.51929779697851
 20
-0.8047270212748554
 30
0.0
 10
18.38965731901867
 20
-0.7574531548872784
 30
0.0
 10
18.1258468219574
 20
-0.6498891657709567
 30
0.0
 10
17.99100069694389
 20
-0.5893909090365463
 30
0.0
 10
17.72609502236673
 20
-0.4597040641642278
 30
0.0
 10
17.59712581657713
 20
-0.3908004189487063
 30
0.0
 10
17.33075354762005
 20
-0.245825917827572
 30
0.0
 10
17.19623190332207
 20
-0.1702309998877405
 30
0.0
 10
16.93510297535897
 20
-0.0188656587513509
 30
0.0
 10
16.80291993824761
 20
0.0579677302857379
 30
0.0
 10
16.53588636922254
 20
0.2097590897569743
 30
0.0
 10
16.40511375035904
 20
0.2839303502545576
 30
0.0
 10
16.14261756534938
 20
0.4261649643806402
 30
0.0
 10
16.00788931794657
 20
0.4947224406748776
 30
0.0
 10
15.87500000000004
 20
0.5579601252137697
 30
0.0
  0
SPLINE
  5
B9
330
1F
100
AcDbEntity
  8
0
  6
Continuous
 62
     1
370
    25
100
AcDbSpline
210
0.0
220
0.0
230
1.0
 70
     8
 71
     3
 72
    13
 73
     9
 74
     0
 42
0.000000001
 43
0.00000001
 40
0.0
 40
0.0
 40
0.0
 40
0.0
 40
0.1923462400561586
 40
0.3838250896887621
 40
0.5754066522393124
 40
0.7679760670280648
 40
0.9600605603710227
 40
1.0
 40
1.0
 40
1.0
 40
1.0
 10
19.05
 20
-0.7828084185528377
 30
0.0
 10
18.88398089731758
 20
-0.7462369784787792
 30
0.0
 10
18.55269135945854
 20
-0.6732590182006147
 30
0.0
 10
18.05654900056678
 20
-0.4902081415819886
 30
0.0
 10
17.56018752599208
 20
-0.2703479059403168
 30
0.0
 10
17.06266451618818
 20
-0.029957956572653
 30
0.0
 10
16.69629861906139
 20
0.1551092406718013
 30
0.0
 10
16.49621745899896
 20
0.244752060171946
 30
0.0
 10
16.46177648857469
 20
0.2601827268783431
 30
0.0
  0
LINE
  5
BA
330
1F
100
AcDbEntity
  8
0
  6
Continuous
 62
     1
370
    25
100
AcDbLine
 10
19.05
 20
-0.9415272686910243
 30
0.0
 11
19.05
 21
-0.7828084185528377
 31
0.0
  0
SPLINE
  5
BB
330
1F
100
AcDbEntity
  8
0
  6
Continuous
 62
     1
370
    25
100
AcDbSpline
210
0.0
220
0.0
230
1.0
 70
     8
 71
     3
 72
    22
 73
    18
 74
     0
 42
0.000000001
 43
0.00000001
 40
0.0
 40
0.0
 40
0.0
 40
0.0
 40
0.1249999999999999
 40
0.1249999999999999
 40
0.2499999999999999
 40
0.2499999999999999
 40
0.3749999999999998
 40
0.3749999999999998
 40
0.4999999999999998
 40
0.4999999999999998
 40
0.6249999999999998
 40
0.6249999999999998
 40
0.7499999999999998
 40
0.7499999999999998
 40
0.8749999999999997
 40
0.8749999999999997
 40
1.0
 40
1.0
 40
1.0
 40
1.0
 10
15.87499999999929
 20
0.3096697906572824
 30
0.0
 10
16.00788931794585
 20
0.2370141255664939
 30
0.0
 10
16.14261756534869
 20
0.1612387282397258
 30
0.0
 10
16.40511375035843
 20
0.0094824231300326
 30
0.0
 10
16.53588636922194
 20
-0.0670629275296107
 30
0.0
 10
16.80291993824708
 20
-0.2186586500741958
 30
0.0
 10
16.93510297535849
 20
-0.2929089295234439
 30
0.0
 10
17.19623190332163
 20
-0.4343851722246926
 30
0.0
 10
17.33075354761964
 20
-0.5025841562361151
 30
0.0
 10
17.59712581657678
 20
-0.6283577313905423
 30
0.0
 10
17.72609502236642
 20
-0.685575283403074
 30
0.0
 10
17.99100069694363
 20
-0.7879099032577184
 30
0.0
 10
18.12584682195718
 20
-0.8327396095173442
 30
0.0
 10
18.38965731901851
 20
-0.9062351933345938
 30
0.0
 10
18.51929779697839
 20
-0.9351089281000458
 30
0.0
 10
18.78611453150481
 20
-0.9762665579070773
 30
0.0
 10
18.92029556907649
 20
-0.9882305663098243
 30
0.0
 10
19.05000000000001
 20
-0.9913489182352676
 30
0.0
  0
SPLINE
  5
BC
330
1F
100
AcDbEntity
  8
0
  6
Continuous
 62
     1
370
    25
100
AcDbSpline
210
0.0
220
0.0
230
1.0
 70
     8
 71
     3
 72
    10
 73
     6
 74
     0
 42
0.000000001
 43
0.00000001
 40
0.0
 40
0.0
 40
0.0
 40
0.0
 40
0.0290638105639073
 40
0.7258765364634086
 40
1.0
 40
1.0
 40
1.0
 40
1.0
 10
16.58581293670427
 20
-0.0947925046701825
 30
0.0
 10
16.57892528668623
 20
-0.0921237519529612
 30
0.0
 10
16.40690436298538
 20
-0.0254709304038271
 30
0.0
 10
16.17018351872989
 20
0.0747083479933624
 30
0.0
 10
15.93999024230684
 20
0.1641974088848491
 30
0.0
 10
15.87500000000001
 20
0.1894627678107108
 30
0.0
  0
SPLINE
  5
BD
330
1F
100
AcDbEntity
  8
외형선
  6
Continuous
370
    15
100
AcDbSpline
210
0.0
220
0.0
230
1.0
 70
    24
 71
     3
 72
    10
 73
     6
 74
     0
 42
0.000000001
 43
0.00000001
 40
0.0
 40
0.0
 40
0.0
 40
0.0
 40
0.5
 40
0.5
 40
1.0
 40
1.0
 40
1.0
 40
1.0
 10
15.87500000000015
 20
0.3096697906568239
 30
0.0
 10
15.87500000000015
 20
0.3083468563609559
 30
0.0
 10
15.87500000000015
 20
0.2966655507607124
 30
0.0
 10
15.87500000000015
 20
0.2545670856131704
 30
0.0
 10
15.87500000000015
 20
0.2243325228564318
 30
0.0
 10
15.87500000000015
 20
0.1894627678106573
 30
0.0
  0
LINE
  5
BE
330
1F
100
AcDbEntity
  8
0
  6
Continuous
 62
     1
370
    25
100
AcDbLine
 10
19.05000000000001
 20
-0.9913489182356605
 30
0.0
 11
19.05
 21
-0.941527268691024
 31
0.0
  0
SPLINE
  5
BF
330
1F
100
AcDbEntity
  8
0
  6
Continuous
 62
     1
370
    25
100
AcDbSpline
210
0.0
220
0.0
230
1.0
 70
     8
 71
     3
 72
     8
 73
     4
 74
     0
 42
0.000000001
 43
0.00000001
 40
0.0
 40
0.0
 40
0.0
 40
0.0
 40
1.0
 40
1.0
 40
1.0
 40
1.0
 10
18.43645648003368
 20
0.2771455591120048
 30
0.0
 10
18.40107854129514
 20
0.3190069411483712
 30
0.0
 10
18.36944619039176
 20
0.3593360420153697
 30
0.0
 10
18.34254979534003
 20
0.3977277124202296
 30
0.0
  0
LINE
  5
C0
330
1F
100
AcDbEntity
  8
0
  6
Continuous
 62
     1
370
    25
100
AcDbLine
 10
18.35511798808647
 20
0.4082736783272835
 30
0.0
 11
19.05
 21
0.0000000000000021
 31
0.0
  0
LINE
  5
C1
330
1F
100
AcDbEntity
  8
0
  6
Continuous
 62
     1
370
    25
100
AcDbLine
 10
19.05
 20
0.0000000000000021
 30
0.0
 11
19.05
 21
-0.2651551105137863
 31
0.0
  0
SPLINE
  5
C2
330
1F
100
AcDbEntity
  8
0
  6
Continuous
 62
     1
370
    25
100
AcDbSpline
210
0.0
220
0.0
230
1.0
 70
     8
 71
     3
 72
    10
 73
     6
 74
     0
 42
0.000000001
 43
0.00000001
 40
0.0
 40
0.0
 40
0.0
 40
0.0
 40
0.5000000000000006
 40
0.5000000000000006
 40
1.0
 40
1.0
 40
1.0
 40
1.0
 10
19.05
 20
-0.2651551105137862
 30
0.0
 10
18.94379960073017
 20
-0.1816611239832056
 30
0.0
 10
18.83937334291144
 20
-0.0947429862225261
 30
0.0
 10
18.6341477173493
 20
0.0860933061830761
 30
0.0
 10
18.53238182579839
 20
0.1809588001028423
 30
0.0
 10
18.43645648003286
 20
0.2771455591098784
 30
0.0
  0
SPLINE
  5
C3
330
1F
100
AcDbEntity
  8
0
  6
Continuous
 62
     1
370
    25
100
AcDbSpline
210
0.0
220
0.0
230
1.0
 70
     8
 71
     3
 72
    12
 73
     8
 74
     0
 42
0.000000001
 43
0.00000001
 40
0.0
 40
0.0
 40
0.0
 40
0.0
 40
0.1654957882301466
 40
0.3814159127778691
 40
0.5984650855099993
 40
0.8149596803653004
 40
1.0
 40
1.0
 40
1.0
 40
1.0
 10
18.43645648003353
 20
0.2771455591120739
 30
0.0
 10
18.30985777950306
 20
0.3306847864524126
 30
0.0
 10
18.01808746053779
 20
0.4540759221654199
 30
0.0
 10
17.56018685616225
 20
0.6140724695709948
 30
0.0
 10
17.06269987693621
 20
0.735559051005462
 30
0.0
 10
16.58917263692967
 20
0.7994578921190784
 30
0.0
 10
16.28196281382251
 20
0.7887295118304469
 30
0.0
 10
16.14039055743512
 20
0.7837855260246489
 30
0.0
  0
SPLINE
  5
C4
330
1F
100
AcDbEntity
  8
0
  6
Continuous
 62
     1
370
    25
100
AcDbSpline
210
0.0
220
0.0
230
1.0
 70
    24
 71
     3
 72
    10
 73
     6
 74
     0
 42
0.000000001
 43
0.00000001
 40
0.0
 40
0.0
 40
0.0
 40
0.0
 40
0.5
 40
0.5
 40
1.0
 40
1.0
 40
1.0
 40
1.0
 10
19.05
 20
-0.7828084185528376
 30
0.0
 10
19.05
 20
-0.7228000500272111
 30
0.0
 10
19.05
 20
-0.6469771754384478
 30
0.0
 10
19.05
 20
-0.4706962891573134
 30
0.0
 10
19.05
 20
-0.3703909786524696
 30
0.0
 10
19.05
 20
-0.265155110513818
 30
0.0
  0
SPLINE
  5
C5
330
1F
100
AcDbEntity
  8
외형선
  6
Continuous
370
    15
100
AcDbSpline
210
0.0
220
0.0
230
1.0
 70
    24
 71
     3
 72
    12
 73
     8
 74
     0
 42
0.000000001
 43
0.00000001
 40
0.0
 40
0.0
 40
0.0
 40
0.0
 40
0.1116789187719553
 40
0.3700113306028709
 40
0.635835399877724
 40
0.8665751549133086
 40
1.0
 40
1.0
 40
1.0
 40
1.0
 10
15.87500000000001
 20
0.7759300166956158
 30
0.0
 10
15.87500000000001
 20
0.7760703934826776
 30
0.0
 10
15.87500000000001
 20
0.7765354857519943
 30
0.0
 10
15.87500000000001
 20
0.7514621039718705
 30
0.0
 10
15.87500000000001
 20
0.695267315853451
 30
0.0
 10
15.87500000000001
 20
0.6289874477772667
 30
0.0
 10
15.87500000000001
 20
0.5770055643829689
 30
0.0
 10
15.87500000000001
 20
0.5579601252137858
 30
0.0
  0
SPLINE
  5
C6
330
1F
100
AcDbEntity
  8
0
  6
Continuous
 62
     1
370
    25
100
AcDbSpline
210
0.0
220
0.0
230
1.0
 70
    24
 71
     3
 72
     8
 73
     4
 74
     0
 42
0.000000001
 43
0.00000001
 40
0.0
 40
0.0
 40
0.0
 40
0.0
 40
1.0
 40
1.0
 40
1.0
 40
1.0
 10
18.44591123438481
 20
0.484458257809613
 30
0.0
 10
18.4131522198247
 20
0.4569701807744959
 30
0.0
 10
18.37859892796102
 20
0.4279765263157096
 30
0.0
 10
18.34254979533608
 20
0.3977277124258656
 30
0.0
  0
LINE
  5
C7
330
1F
100
AcDbEntity
  8
0
  6
Continuous
 62
     1
370
    25
100
AcDbLine
 10
19.05
 20
0.6945312500000015
 30
0.0
 11
18.67940394505425
 21
0.6730517574232142
 31
0.0
  0
SPLINE
  5
C8
330
1F
100
AcDbEntity
  8
0
  6
Continuous
 62
     1
370
    25
100
AcDbSpline
210
0.0
220
0.0
230
1.0
 70
     8
 71
     3
 72
     8
 73
     4
 74
     0
 42
0.000000001
 43
0.00000001
 40
0.0
 40
0.0
 40
0.0
 40
0.0
 40
1.0
 40
1.0
 40
1.0
 40
1.0
 10
19.05
 20
0.694531250000002
 30
0.0
 10
18.84584217823386
 20
0.6389920726168787
 30
0.0
 10
18.64363053355311
 20
0.5708998726238328
 30
0.0
 10
18.44591123439374
 20
0.4844582578129585
 30
0.0
  0
SPLINE
  5
C9
330
1F
100
AcDbEntity
  8
0
  6
Continuous
 62
     1
370
    25
100
AcDbSpline
210
0.0
220
0.0
230
1.0
 70
     8
 71
     3
 72
    10
 73
     6
 74
     0
 42
0.000000001
 43
0.00000001
 40
0.0
 40
0.0
 40
0.0
 40
0.0
 40
0.3584353757781447
 40
0.8188961869322627
 40
1.0
 40
1.0
 40
1.0
 40
1.0
 10
16.95080728538018
 20
-0.7402370707989752
 30
0.0
 10
16.82222838151348
 20
-0.7590887589551207
 30
0.0
 10
16.52847173467644
 20
-0.8021581002967494
 30
0.0
 10
16.17020783882102
 20
-0.7957201296915002
 30
0.0
 10
15.93998762178615
 20
-0.7707063982228082
 30
0.0
 10
15.87500000000001
 20
-0.7636454070505982
 30
0.0
  0
SPLINE
  5
CA
330
1F
100
AcDbEntity
  8
외형선
  6
Continuous
370
    15
100
AcDbSpline
210
0.0
220
0.0
230
1.0
 70
    24
 71
     3
 72
    10
 73
     6
 74
     0
 42
0.000000001
 43
0.00000001
 40
0.0
 40
0.0
 40
0.0
 40
0.0
 40
0.5
 40
0.5
 40
1.0
 40
1.0
 40
1.0
 40
1.0
 10
15.87499999999992
 20
0.1894627678107454
 30
0.0
 10
15.87499999999992
 20
0.0140129141872172
 30
0.0
 10
15.87499999999992
 20
-0.1758771097355485
 30
0.0
 10
15.87499999999992
 20
-0.5146667134146922
 30
0.0
 10
15.87499999999992
 20
-0.6609413221002377
 30
0.0
 10
15.87499999999992
 20
-0.7636454070505868
 30
0.0
  0
LINE
  5
CB
330
1F
100
AcDbEntity
  8
0
  6
Continuous
 62
     1
370
    25
100
AcDbLine
 10
19.05
 20
0.0000000000000021
 30
0.0
 11
19.05
 21
0.694531250000002
 31
0.0
  0
SPLINE
  5
CC
330
1F
100
AcDbEntity
  8
0
  6
Continuous
 62
     1
370
    25
100
AcDbSpline
210
0.0
220
0.0
230
1.0
 70
    24
 71
     3
 72
    10
 73
     6
 74
     0
 42
0.000000001
 43
0.00000001
 40
0.0
 40
0.0
 40
0.0
 40
0.0
 40
0.5
 40
0.5
 40
1.0
 40
1.0
 40
1.0
 40
1.0
 10
19.05
 20
0.6945312500000016
 30
0.0
 10
19.05
 20
0.7366320048010082
 30
0.0
 10
19.05
 20
0.7855569808290944
 30
0.0
 10
19.05
 20
0.8882014487658503
 30
0.0
 10
19.05
 20
0.9416587995842749
 30
0.0
 10
19.05
 20
0.9913489182356638
 30
0.0
  0
SPLINE
  5
CD
330
1F
100
AcDbEntity
  8
0
  6
Continuous
 62
     1
370
    25
100
AcDbSpline
210
0.0
220
0.0
230
1.0
 70
     8
 71
     3
 72
    14
 73
    10
 74
     0
 42
0.000000001
 43
0.00000001
 40
0.0
 40
0.0
 40
0.0
 40
0.0
 40
0.1792579101523332
 40
0.2840368986140344
 40
0.3892327957398283
 40
0.4648701770594248
 40
0.6164715411419738
 40
0.8988724874686904
 40
1.0
 40
1.0
 40
1.0
 40
1.0
 10
17.68694956558298
 20
0.6651389530467755
 30
0.0
 10
17.76826041499557
 20
0.6994243211625949
 30
0.0
 10
17.89709869873546
 20
0.7537500109978844
 30
0.0
 10
18.07428900306681
 20
0.8146013064945163
 30
0.0
 10
18.2042163957542
 20
0.8548844173479984
 30
0.0
 10
18.35512737011141
 20
0.8964942245604102
 30
0.0
 10
18.58595426764712
 20
0.9495487152414143
 30
0.0
 10
18.83029455129334
 20
0.9828767764891077
 30
0.0
 10
19.00415662484549
 20
0.9895811351663949
 30
0.0
 10
19.05
 20
0.9913489182356634
 30
0.0
  0
LINE
  5
CE
330
1F
100
AcDbEntity
  8
중심선
 62
     1
100
AcDbLine
 10
-22.04999999999999
 20
-0.0000000000000027
 30
0.0
 11
22.04999999999999
 21
0.0000000000000027
 31
0.0
  0
LINE
  5
CF
330
1F
100
AcDbEntity
  8
참조1
100
AcDbLine
 10
-5.469211678730514
 20
0.0010749287238892
 30
0.0
 11
-5.469211678730509
 21
-39.99892507127611
 31
0.0
  0
LINE
  5
D0
330
1F
100
AcDbEntity
  8
참조1
100
AcDbLine
 10
-5.469211678730509
 20
-39.99892507127611
 30
0.0
 11
-29.45992727542973
 21
-39.9989250712761
 31
0.0
  0
CIRCLE
  5
D1
330
1F
100
AcDbEntity
  8
해칭선
100
AcDbCircle
 10
0.0000000000000009
 20
0.0
 30
0.0
 40
3.000000000000002
  0
INSERT
  5
D2
330
1F
100
AcDbEntity
  8
0
  6
Continuous
 62
     7
100
AcDbBlockReference
 66
     1
  2
블럭10
 10
-13.12117785619443
 20
-27.99083067651728
 30
0.0
  0
ATTRIB
  5
D3
330
D2
100
AcDbEntity
  8
FORMAT
 62
     2
100
AcDbText
 10
-22.30247314493571
 20
-25.91546376368509
 30
0.0
 40
4.233333333333333
  1
E5022005 [ 2 FLUTE ]
 41
0.75
  7
SLDTEXTSTYLE0
 11
-22.30247314493571
 21
-28.03213043035176
 31
0.0
100
AcDbAttribute
  2
AUTOATTR0
 70
     0
 74
     1
  0
SEQEND
  5
D4
330
D2
100
AcDbEntity
  8
0
  6
Continuous
 62
     7
  0
HATCH
  5
D5
330
1F
100
AcDbEntity
  8
중심선
100
AcDbHatch
 10
0.0
 20
0.0
 30
0.0
210
0.0
220
0.0
230
1.0
  2
SOLID
 70
     1
 71
     0
 91
        1
 92
        0
 93
        4
 72
     1
 10
-7.406268551813596
 20
-11.74365637487335
 11
-10.85254379565088
 21
-11.74365637487335
 72
     1
 10
-10.85254379565088
 20
-11.74365637487335
 11
-12.9807736548549
 21
-14.27998195544595
 72
     1
 10
-12.9807736548549
 20
-14.27998195544595
 11
-9.534465325904469
 21
-14.27994252614346
 72
     1
 10
-9.534465325904469
 20
-14.27994252614346
 11
-7.406268551813596
 21
-11.74365637487335
 97
        0
 75
     0
 76
     1
 98
        1
 10
6.288306754661292
 20
24.05526869640276
  0
HATCH
  5
D6
330
1F
100
AcDbEntity
  8
중심선
100
AcDbHatch
 10
0.0
 20
0.0
 30
0.0
210
0.0
220
0.0
230
1.0
  2
SOLID
 70
     1
 71
     0
 91
        1
 92
        0
 93
        4
 72
     1
 10
-2.393504560777645
 20
-11.74365637487335
 11
-5.839779804614871
 21
-11.74365637487335
 72
     1
 10
-5.839779804614871
 20
-11.74365637487335
 11
-10.37091781297232
 21
-17.14365637487337
 72
     1
 10
-10.37091781297232
 20
-17.14365637487337
 11
-6.924642569135033
 21
-17.14365637487337
 72
     1
 10
-6.924642569135033
 20
-17.14365637487337
 11
-2.393504560777645
 21
-11.74365637487335
 97
        0
 75
     0
 76
     1
 98
        1
 10
6.288306754661292
 20
24.05526869640276
  0
HATCH
  5
D7
330
1F
100
AcDbEntity
  8
중심선
100
AcDbHatch
 10
0.0
 20
0.0
 30
0.0
210
0.0
220
0.0
230
1.0
  2
SOLID
 70
     1
 71
     0
 91
        1
 92
        0
 93
        4
 72
     1
 10
2.619259430258279
 20
-11.74365637487332
 11
-0.8270158135788641
 21
-11.74365637487332
 72
     1
 10
-0.8270158135788641
 20
-11.74365637487332
 11
-7.875452715468114
 21
-20.14365637487337
 72
     1
 10
-7.875452715468114
 20
-20.14365637487337
 11
-4.429177471630831
 21
-20.14365637487337
 72
     1
 10
-4.429177471630831
 20
-20.14365637487337
 11
2.619259430258278
 21
-11.74365637487332
 97
        0
 75
     0
 76
     1
 98
        1
 10
6.288306754661292
 20
24.05526869640276
  0
HATCH
  5
D8
330
1F
100
AcDbEntity
  8
중심선
100
AcDbHatch
 10
0.0
 20
0.0
 30
0.0
210
0.0
220
0.0
230
1.0
  2
SOLID
 70
     1
 71
     0
 91
        1
 92
        0
 93
        6
 72
     3
 10
7.419149861270451
 20
-15.94365637492462
 11
3.960054785062284
 21
1.540882976769353E-10
 40
0.3939339440162627
 50
17.09539180608436
 51
320.0019657685077
 73
     0
 72
     1
 10
9.102149516971018
 20
-14.53155037951165
 11
11.40745139067208
 21
-12.59722366946373
 72
     3
 10
7.419149861217604
 20
-15.9436563748735
 11
6.60005478528683
 21
-1.278976924368180E-13
 40
0.636358354079598
 50
39.99873849337411
 51
368.4976242363724
 73
     1
 72
     1
 10
13.84448235311821
 20
-14.98365637480337
 11
6.099217168053526
 21
-14.98365637480337
 72
     1
 10
6.099217168053526
 20
-14.98365637480337
 11
6.099192123607592
 21
-16.90365637480326
 72
     1
 10
6.099192123607592
 20
-16.90365637480326
 11
10.54057189307963
 21
-16.90365637480323
 97
        0
 75
     0
 76
     1
 98
        1
 10
6.288306754661292
 20
24.05526869640276
  0
DIMENSION
  5
D9
330
1F
100
AcDbEntity
  8
치수문자_일반주서
100
AcDbDimension
  2
_D
 10
-27.18754338081361
 20
-1.587500000000055
 30
0.0
 11
-27.18754338081367
 21
15.74374999999996
 31
0.0
 70
   160
  1
%%c<>
 71
     2
 42
3.174999999999997
 52
-270.0
  3
SLDDIMSTYLE0
100
AcDbAlignedDimension
 13
-12.65326350361915
 23
1.587499999999995
 33
0.0
 14
-12.65326350361915
 24
-1.587500000000003
 34
0.0
 50
90.0000000000002
100
AcDbRotatedDimension
1001
ACAD
1000
DSTYLE
1002
{
1070
   171
1070
     6
1070
   273
1070
     5
1070
    41
1040
2.5
1070
   140
1040
2.5
1002
}
  0
DIMENSION
  5
EE
330
1F
100
AcDbEntity
  8
치수문자_일반주서
100
AcDbDimension
  2
_D_1
 10
28.22940757455073
 20
0.9913489182356976
 30
0.0
 11
28.22940757455067
 21
16.2413489182357
 31
0.0
 70
   160
  1
%%c<>
 71
     2
 42
1.982697836471324
 52
-270.0
  3
SLDDIMSTYLE0
100
AcDbAlignedDimension
 13
19.05000000000001
 23
-0.9913489182356605
 33
0.0
 14
19.05000000000001
 24
0.9913489182356638
 34
0.0
 50
90.0000000000002
100
AcDbRotatedDimension
1001
ACAD
1000
DSTYLE
1002
{
1070
   171
1070
     6
1070
   273
1070
     5
1070
    41
1040
2.5
1070
   140
1040
2.5
1002
}
  0
DIMENSION
  5
102
330
1F
100
AcDbEntity
  8
치수문자_일반주서
100
AcDbDimension
  2
_D_2
 10
15.87500000000001
 20
14.12000770209756
 30
0.0
 11
2.656250000000009
 21
14.12000770209756
 31
0.0
 70
   160
  1
<>
 71
     2
 42
3.175000000000002
  3
SLDDIMSTYLE0
100
AcDbAlignedDimension
 13
19.05000000000001
 23
0.9913489182356638
 33
0.0
 14
15.87500000000001
 24
0.7776655899133763
 34
0.0
100
AcDbRotatedDimension
1001
ACAD
1000
DSTYLE
1002
{
1070
   171
1070
     6
1070
   273
1070
     5
1070
    41
1040
2.5
1070
   140
1040
2.5
1002
}
  0
DIMENSION
  5
117
330
1F
100
AcDbEntity
  8
치수문자_일반주서
100
AcDbDimension
  2
_D_3
 10
19.05000000000002
 20
22.60423110124378
 30
0.0
 11
1.516370094755901
 21
22.60423110124378
 31
0.0
 70
   160
  1
<>
 71
     2
 42
38.09999999999999
  3
SLDDIMSTYLE0
100
AcDbAlignedDimension
 13
-19.04999999999999
 23
0.9913489182356688
 33
0.0
 14
19.05000000000001
 24
0.9913489182356638
 34
0.0
100
AcDbRotatedDimension
1001
ACAD
1000
DSTYLE
1002
{
1070
   171
1070
     6
1070
   273
1070
     5
1070
    41
1040
2.5
1070
   140
1040
2.5
1002
}
  0
LINE
  5
12B
330
1F
100
AcDbEntity
  8
참조1
100
AcDbLine
 10
68.51241335422453
 20
7.441074928723896
 30
0.0
 11
68.51241335422453
 21
-7.438925071276109
 31
0.0
  0
LINE
  5
12C
330
1F
100
AcDbEntity
  8
참조1
100
AcDbLine
 10
81.21241335422454
 20
5.441074928723896
 30
0.0
 11
68.51241335422453
 21
5.441074928723896
 31
0.0
  0
SOLID
  5
12D
330
1F
100
AcDbEntity
  8
참조1
100
AcDbTrace
 10
68.51241335422453
 20
5.441074928723896
 30
0.0
 11
74.86241335422453
 21
4.425074928723896
 31
0.0
 12
74.86241335422453
 22
6.457074928723896
 32
0.0
 13
74.86241335422453
 23
6.457074928723896
 33
0.0
  0
LINE
  5
12E
330
1F
100
AcDbEntity
  8
참조1
100
AcDbLine
 10
81.21241335422454
 20
-5.438925071276109
 30
0.0
 11
68.51241335422453
 21
-5.438925071276109
 31
0.0
  0
SOLID
  5
12F
330
1F
100
AcDbEntity
  8
참조1
100
AcDbTrace
 10
68.51241335422453
 20
-5.438925071276109
 30
0.0
 11
74.86241335422453
 21
-6.454925071276109
 31
0.0
 12
74.86241335422453
 22
-4.422925071276109
 32
0.0
 13
74.86241335422453
 23
-4.422925071276109
 33
0.0
  0
MTEXT
  5
130
330
1F
100
AcDbEntity
  8
참조1
100
AcDbMText
 10
77.89676348685053
 20
11.01136670591222
 30
0.0
 40
3.5
 41
0.0
 71
     1
 72
     1
  1
A
  7
SLDTEXTSTYLE0
 73
     1
 44
1.0
  0
MTEXT
  5
131
330
1F
100
AcDbEntity
  8
참조1
100
AcDbMText
 10
77.89676348685053
 20
0.1313667059122192
 30
0.0
 40
3.5
 41
0.0
 71
     1
 72
     1
  1
A
  7
SLDTEXTSTYLE0
 73
     1
 44
1.0
  0
INSERT
  5
138
330
1F
100
AcDbEntity
  8
해칭선
100
AcDbBlockReference
  2
SW_DOWELSYMBOL_0
 10
0.0000000000000009
 20
0.0
 30
0.0
  0
LINE
  5
2DE
330
1F
100
AcDbEntity
  8
외형선
  6
Continuous
370
    15
100
AcDbLine
 10
-12.65326350361915
 20
1.587499999999995
 30
0.0
 11
-14.87499999999999
 21
0.9921874999999961
 31
0.0
  0
LINE
  5
2DF
330
1F
100
AcDbEntity
  8
외형선
  6
Continuous
370
    15
100
AcDbLine
 10
-14.87499999999999
 20
-0.9921874999999968
 30
0.0
 11
-12.65326350361915
 21
-1.587500000000003
 31
0.0
  0
LINE
  5
2E0
330
1F
100
AcDbEntity
  8
외형선
  6
Continuous
370
    15
100
AcDbLine
 10
-15.07481527530836
 20
-0.9921874999999968
 30
0.0
 11
-14.87499999999999
 21
-0.9921874999999968
 31
0.0
  0
LINE
  5
2E1
330
1F
100
AcDbEntity
  8
외형선
  6
Continuous
370
    15
100
AcDbLine
 10
-14.87499999999999
 20
0.9921874999999961
 30
0.0
 11
-15.07481527530836
 21
0.9921874999999961
 31
0.0
  0
SPLINE
  5
2E2
330
1F
100
AcDbEntity
  8
외형선
  6
Continuous
370
    15
100
AcDbSpline
210
0.0
220
0.0
230
1.0
 70
     8
 71
     3
 72
     9
 73
     5
 74
     0
 42
0.000000001
 43
0.00000001
 40
0.0
 40
0.0
 40
0.0
 40
0.0
 40
0.6868038195834413
 40
1.0
 40
1.0
 40
1.0
 40
1.0
 10
-15.875
 20
-0.7775992562859709
 30
0.0
 10
-15.75150366770525
 20
-0.7752588054281982
 30
0.0
 10
-15.57169055546942
 20
-0.7718510625021334
 30
0.0
 10
-15.38953020424731
 20
-0.7796527026064733
 30
0.0
 10
-15.33247827802122
 20
-0.7820961464881403
 30
0.0
  0
SPLINE
  5
2E3
330
1F
100
AcDbEntity
  8
외형선
  6
Continuous
370
    15
100
AcDbSpline
210
0.0
220
0.0
230
1.0
 70
     8
 71
     3
 72
     9
 73
     5
 74
     0
 42
0.000000001
 43
0.00000001
 40
0.0
 40
0.0
 40
0.0
 40
0.0
 40
0.4372504308365384
 40
1.0
 40
1.0
 40
1.0
 40
1.0
 10
-15.07486999741458
 20
0.7921410770885547
 30
0.0
 10
-15.19130733813764
 20
0.7861801020765317
 30
0.0
 10
-15.4576017372084
 20
0.7725472395528247
 30
0.0
 10
-15.72469396428545
 20
0.7758224445945917
 30
0.0
 10
-15.87499999999998
 20
0.7776655648207612
 30
0.0
  0
LINE
  5
2E4
330
1F
100
AcDbEntity
  8
0
  6
Continuous
 62
     1
370
    25
100
AcDbLine
 10
-16.47863411168771
 20
-0.2542458219801457
 30
0.0
 11
-16.20527316004067
 21
-0.391817670216302
 31
0.0
  0
LINE
  5
2E5
330
1F
100
AcDbEntity
  8
0
  6
Continuous
 62
     1
370
    25
100
AcDbLine
 10
-16.14129244634931
 20
-0.7878328118002539
 30
0.0
 11
-15.87499999999998
 21
-0.777665564820769
 31
0.0
  0
SPLINE
  5
2E6
330
1F
100
AcDbEntity
  8
0
  6
Continuous
 62
     1
370
    25
100
AcDbSpline
210
0.0
220
0.0
230
1.0
 70
     8
 71
     3
 72
    21
 73
    17
 74
     0
 42
0.000000001
 43
0.00000001
 40
0.0
 40
0.0
 40
0.0
 40
0.0
 40
0.1212177636362389
 40
0.2063715899774198
 40
0.2595259089365254
 40
0.3067420798394255
 40
0.3557552685312197
 40
0.4067675790444486
 40
0.4602884062551042
 40
0.5153903220283442
 40
0.5881985427817076
 40
0.6616118515849689
 40
0.7352913772093747
 40
0.8052590855218003
 40
0.8860491610123848
 40
1.0
 40
1.0
 40
1.0
 40
1.0
 10
-18.68115689983664
 20
-0.6786128329066411
 30
0.0
 10
-18.61093789690938
 20
-0.6731788264192428
 30
0.0
 10
-18.49139100175123
 20
-0.6639275044585741
 30
0.0
 10
-18.34202208338765
 20
-0.6572644564751865
 30
0.0
 10
-18.23500135290782
 20
-0.654271000480929
 30
0.0
 10
-18.14873002226817
 20
-0.6530053060619391
 30
0.0
 10
-18.06369010473259
 20
-0.6527954962941646
 30
0.0
 10
-17.97499569406498
 20
-0.6537039330307376
 30
0.0
 10
-17.8827853219396
 20
-0.6558748515466458
 30
0.0
 10
-17.77800925453268
 20
-0.6597944204490499
 30
0.0
 10
-17.66195805032807
 20
-0.6661189950310596
 30
0.0
 10
-17.53501456109742
 20
-0.6753139860037901
 30
0.0
 10
-17.40959140938145
 20
-0.6865441757399647
 30
0.0
 10
-17.28003962191493
 20
-0.7003489752624116
 30
0.0
 10
-17.12733338433246
 20
-0.7190571782059049
 30
0.0
 10
-17.01475540878426
 20
-0.7362012017300369
 30
0.0
 10
-16.94888145107167
 20
-0.7462328680053684
 30
0.0
  0
SPLINE
  5
2E7
330
1F
100
AcDbEntity
  8
0
  6
Continuous
 62
     1
370
    25
100
AcDbSpline
210
0.0
220
0.0
230
1.0
 70
     8
 71
     3
 72
    13
 73
     9
 74
     0
 42
0.000000001
 43
0.00000001
 40
0.0
 40
0.0
 40
0.0
 40
0.0
 40
0.2674536697949041
 40
0.4570758118075004
 40
0.6212968085246171
 40
0.7942298004364778
 40
0.9665379556520154
 40
1.0
 40
1.0
 40
1.0
 40
1.0
 10
-16.94888145107167
 20
0.7462328680053606
 30
0.0
 10
-17.01475541565518
 20
0.7361997612372339
 30
0.0
 10
-17.12733340294574
 20
0.7190532759244196
 30
0.0
 10
-17.28003957465674
 20
0.7003588829644262
 30
0.0
 10
-17.40959156521685
 20
0.6865115047711786
 30
0.0
 10
-17.53501394220192
 20
0.6754437377510204
 30
0.0
 10
-17.62815925358764
 20
0.6682496379642263
 30
0.0
 10
-17.67872309570302
 20
0.6655742324662374
 30
0.0
 10
-17.68694571263618
 20
0.665139161996304
 30
0.0
  0
LINE
  5
2E8
330
1F
100
AcDbEntity
  8
0
  6
Continuous
 62
     1
370
    25
100
AcDbLine
 10
-15.87499999999998
 20
0.7776655648207612
 30
0.0
 11
-16.14129244634931
 21
0.7878328118002532
 31
0.0
  0
LINE
  5
2E9
330
1F
100
AcDbEntity
  8
외형선
  6
Continuous
370
    15
100
AcDbLine
 10
-14.87499999999999
 20
-0.9921874999999968
 30
0.0
 11
-14.87499999999999
 21
0.9921874999999961
 31
0.0
  0
ELLIPSE
  5
2EA
330
1F
100
AcDbEntity
  8
외형선
  6
Continuous
370
    15
100
AcDbEllipse
 10
-15.07487777497974
 20
-0.0000000000000039
 30
0.0
 11
-6.249967141348450E-5
 21
-0.9921875000000001
 31
0.0
210
0.0
220
0.0
230
1.0
 40
0.0000227746938854
 41
0.7874295416470215
 42
3.649445471206307
  0
SPLINE
  5
2EB
330
1F
100
AcDbEntity
  8
외형선
  6
Continuous
370
    15
100
AcDbSpline
210
0.0
220
0.0
230
1.0
 70
    24
 71
     3
 72
    10
 73
     6
 74
     0
 42
0.000000001
 43
0.00000001
 40
0.0
 40
0.0
 40
0.0
 40
0.0
 40
0.5
 40
0.5
 40
1.0
 40
1.0
 40
1.0
 40
1.0
 10
-15.07490590513382
 20
-0.6998927130650724
 30
0.0
 10
-15.07490590513382
 20
-0.675688002617019
 30
0.0
 10
-15.07490590513382
 20
-0.6417918710864153
 30
0.0
 10
-15.07490590513382
 20
-0.5616420262508054
 30
0.0
 10
-15.07490590513382
 20
-0.5156503768139057
 30
0.0
 10
-15.07490590513382
 20
-0.4692918413528954
 30
0.0
  0
SPLINE
  5
2EC
330
1F
100
AcDbEntity
  8
외형선
  6
Continuous
370
    15
100
AcDbSpline
210
0.0
220
0.0
230
1.0
 70
    24
 71
     3
 72
    10
 73
     6
 74
     0
 42
0.000000001
 43
0.00000001
 40
0.0
 40
0.0
 40
0.0
 40
0.0
 40
0.5
 40
0.5
 40
1.0
 40
1.0
 40
1.0
 40
1.0
 10
-15.07488220904027
 20
-0.4692989385251248
 30
0.0
 10
-15.07488220904027
 20
-0.3173985538906589
 30
0.0
 10
-15.07488220904027
 20
-0.1326240583033179
 30
0.0
 10
-15.07488220904027
 20
0.2421806615586735
 30
0.0
 10
-15.07488220904027
 20
0.4293068665358991
 30
0.0
 10
-15.07488220904027
 20
0.5851296466430075
 30
0.0
  0
SPLINE
  5
2ED
330
1F
100
AcDbEntity
  8
외형선
  6
Continuous
370
    15
100
AcDbSpline
210
0.0
220
0.0
230
1.0
 70
     8
 71
     3
 72
    10
 73
     6
 74
     0
 42
0.000000001
 43
0.00000001
 40
0.0
 40
0.0
 40
0.0
 40
0.0
 40
0.3477331159952223
 40
0.693430050626734
 40
1.0
 40
1.0
 40
1.0
 40
1.0
 10
-15.07482870174264
 20
0.5851258125925188
 30
0.0
 10
-15.07482756073083
 20
0.627470544851089
 30
0.0
 10
-15.0748252853885
 20
0.7119120561227309
 30
0.0
 10
-15.07482601738743
 20
0.7801243030504811
 30
0.0
 10
-15.07482899405113
 20
0.7865598099946528
 30
0.0
 10
-15.07483039310367
 20
0.7895845427941343
 30
0.0
  0
LINE
  5
2EE
330
1F
100
AcDbEntity
  8
외형선
  6
Continuous
370
    15
100
AcDbLine
 10
-15.07483748582672
 20
0.7790210644526528
 30
0.0
 11
-15.07483415203332
 21
0.8669693429654505
 31
0.0
  0
SPLINE
  5
2EF
330
1F
100
AcDbEntity
  8
외형선
  6
Continuous
370
    15
100
AcDbSpline
210
0.0
220
0.0
230
1.0
 70
     8
 71
     3
 72
    10
 73
     6
 74
     0
 42
0.000000001
 43
0.00000001
 40
0.0
 40
0.0
 40
0.0
 40
0.0
 40
0.5
 40
0.5
 40
1.0
 40
1.0
 40
1.0
 40
1.0
 10
-15.87499999999999
 20
-0.5579601252137859
 30
0.0
 10
-15.74096717955794
 20
-0.6217419652288111
 30
0.0
 10
-15.61109581582712
 20
-0.6798537118518378
 30
0.0
 10
-15.34304287341471
 20
-0.7840040997861845
 30
0.0
 10
-15.2071368646088
 20
-0.8295894464361279
 30
0.0
 10
-15.07480768062088
 20
-0.8669435312308419
 30
0.0
  0
LINE
  5
2F0
330
1F
100
AcDbEntity
  8
외형선
  6
Continuous
370
    15
100
AcDbLine
 10
-15.87499999999999
 20
-0.5579601252137859
 30
0.0
 11
-15.87499999999999
 21
-0.3096697906588911
 31
0.0
  0
SPLINE
  5
2F1
330
1F
100
AcDbEntity
  8
외형선
  6
Continuous
370
    15
100
AcDbSpline
210
0.0
220
0.0
230
1.0
 70
     8
 71
     3
 72
    10
 73
     6
 74
     0
 42
0.000000001
 43
0.00000001
 40
0.0
 40
0.0
 40
0.0
 40
0.0
 40
0.5
 40
0.5
 40
1.0
 40
1.0
 40
1.0
 40
1.0
 10
-15.07490590513382
 20
-0.6999156687927733
 30
0.0
 10
-15.20722047231607
 20
-0.6454829821640157
 30
0.0
 10
-15.34310966257069
 20
-0.5841908896645801
 30
0.0
 10
-15.61112851020269
 20
-0.4526759612326682
 30
0.0
 10
-15.74098376096027
 20
-0.382941586545844
 30
0.0
 10
-15.87499999999905
 20
-0.3096697906574132
 30
0.0
  0
LINE
  5
2F2
330
1F
100
AcDbEntity
  8
외형선
  6
Continuous
370
    15
100
AcDbLine
 10
-15.33510408623808
 20
0.7812315039472925
 30
0.0
 11
-15.07480768062088
 21
0.8669435312308341
 31
0.0
  0
ELLIPSE
  5
2F3
330
1F
100
AcDbEntity
  8
외형선
  6
Continuous
370
    15
100
AcDbEllipse
 10
-15.07487777497974
 20
-0.0000000000000039
 30
0.0
 11
6.249967141501785E-5
 21
-0.9921875000000001
 31
0.0
210
0.0
220
0.0
230
1.0
 40
0.0000227746938872
 41
5.775332490462543
 42
6.283185307179586
  0
SPLINE
  5
2F4
330
1F
100
AcDbEntity
  8
외형선
  6
Continuous
370
    15
100
AcDbSpline
210
0.0
220
0.0
230
1.0
 70
    24
 71
     3
 72
    10
 73
     6
 74
     0
 42
0.000000001
 43
0.00000001
 40
0.0
 40
0.0
 40
0.0
 40
0.0
 40
0.5
 40
0.5
 40
1.0
 40
1.0
 40
1.0
 40
1.0
 10
-15.87500000000012
 20
-0.3096697906568234
 30
0.0
 10
-15.87500000000012
 20
-0.3083468563609596
 30
0.0
 10
-15.87500000000012
 20
-0.2966655507607111
 30
0.0
 10
-15.87500000000012
 20
-0.2545670856131718
 30
0.0
 10
-15.87500000000013
 20
-0.2243325228564327
 30
0.0
 10
-15.87500000000013
 20
-0.189462767810657
 30
0.0
  0
SPLINE
  5
2F5
330
1F
100
AcDbEntity
  8
외형선
  6
Continuous
370
    15
100
AcDbSpline
210
0.0
220
0.0
230
1.0
 70
     8
 71
     3
 72
    10
 73
     6
 74
     0
 42
0.000000001
 43
0.00000001
 40
0.0
 40
0.0
 40
0.0
 40
0.0
 40
0.5
 40
0.5
 40
1.0
 40
1.0
 40
1.0
 40
1.0
 10
-15.87499999999999
 20
-0.1894627678107067
 30
0.0
 10
-15.74097976081392
 20
-0.24140384402676
 30
0.0
 10
-15.61112062293499
 20
-0.2911070911214008
 30
0.0
 10
-15.34309355016703
 20
-0.3854112622692764
 30
0.0
 10
-15.20720030252236
 20
-0.4296688056683745
 30
0.0
 10
-15.07488220904027
 20
-0.4692989385251248
 30
0.0
  0
SPLINE
  5
2F6
330
1F
100
AcDbEntity
  8
외형선
  6
Continuous
370
    15
100
AcDbSpline
210
0.0
220
0.0
230
1.0
 70
     8
 71
     3
 72
    10
 73
     6
 74
     0
 42
0.000000001
 43
0.00000001
 40
0.0
 40
0.0
 40
0.0
 40
0.0
 40
0.5
 40
0.5
 40
1.0
 40
1.0
 40
1.0
 40
1.0
 10
-15.87499999999999
 20
0.7636454070505995
 30
0.0
 10
-15.74097769935945
 20
0.7468134873156874
 30
0.0
 10
-15.6111165582683
 20
0.7232978417670101
 30
0.0
 10
-15.34308524672288
 20
0.6631963874954284
 30
0.0
 10
-15.20718990813205
 20
0.6266419313437087
 30
0.0
 10
-15.07486999741458
 20
0.5851258151938087
 30
0.0
  0
SPLINE
  5
2F7
330
1F
100
AcDbEntity
  8
외형선
  6
Continuous
370
    15
100
AcDbSpline
210
0.0
220
0.0
230
1.0
 70
    24
 71
     3
 72
    10
 73
     6
 74
     0
 42
0.000000001
 43
0.00000001
 40
0.0
 40
0.0
 40
0.0
 40
0.0
 40
0.5
 40
0.5
 40
1.0
 40
1.0
 40
1.0
 40
1.0
 10
-15.8749999999999
 20
-0.1894627678107494
 30
0.0
 10
-15.8749999999999
 20
-0.0140129141872162
 30
0.0
 10
-15.8749999999999
 20
0.1758771097355481
 30
0.0
 10
-15.8749999999999
 20
0.5146667134146942
 30
0.0
 10
-15.8749999999999
 20
0.6609413221002388
 30
0.0
 10
-15.8749999999999
 20
0.7636454070505853
 30
0.0
  0
SPLINE
  5
2F8
330
1F
100
AcDbEntity
  8
외형선
  6
Continuous
370
    15
100
AcDbSpline
210
0.0
220
0.0
230
1.0
 70
    24
 71
     3
 72
    12
 73
     8
 74
     0
 42
0.000000001
 43
0.00000001
 40
0.0
 40
0.0
 40
0.0
 40
0.0
 40
0.1244354581052347
 40
0.3790581442049695
 40
0.6410649054511208
 40
0.8684911730292274
 40
1.0
 40
1.0
 40
1.0
 40
1.0
 10
-15.87499999999999
 20
-0.7760540119560669
 30
0.0
 10
-15.87499999999999
 20
-0.7762558234423093
 30
0.0
 10
-15.87499999999999
 20
-0.7768705862166779
 30
0.0
 10
-15.87499999999999
 20
-0.7515470213455341
 30
0.0
 10
-15.87499999999999
 20
-0.6952473542288228
 30
0.0
 10
-15.87499999999999
 20
-0.6289899119630075
 30
0.0
 10
-15.87499999999999
 20
-0.5770062251357299
 30
0.0
 10
-15.87499999999999
 20
-0.5579601252137859
 30
0.0
  0
SPLINE
  5
2F9
330
1F
100
AcDbEntity
  8
0
  6
Continuous
 62
     1
370
    25
100
AcDbSpline
210
0.0
220
0.0
230
1.0
 70
     8
 71
     3
 72
    22
 73
    18
 74
     0
 42
0.000000001
 43
0.00000001
 40
0.0
 40
0.0
 40
0.0
 40
0.0
 40
0.125
 40
0.125
 40
0.2499999999999999
 40
0.2499999999999999
 40
0.3749999999999999
 40
0.3749999999999999
 40
0.4999999999999999
 40
0.4999999999999999
 40
0.6249999999999999
 40
0.6249999999999999
 40
0.7499999999999998
 40
0.7499999999999998
 40
0.8749999999999999
 40
0.8749999999999999
 40
1.0
 40
1.0
 40
1.0
 40
1.0
 10
-19.04999999999999
 20
0.9415272686910289
 30
0.0
 10
-18.92029556907649
 20
0.917596198456241
 30
0.0
 10
-18.78611453150485
 20
0.8850250958667619
 30
0.0
 10
-18.5192977969785
 20
0.8047270212748604
 30
0.0
 10
-18.38965731901864
 20
0.757453154887283
 30
0.0
 10
-18.12584682195737
 20
0.6498891657709539
 30
0.0
 10
-17.99100069694386
 20
0.5893909090365487
 30
0.0
 10
-17.72609502236671
 20
0.4597040641642242
 30
0.0
 10
-17.59712581657711
 20
0.3908004189487034
 30
0.0
 10
-17.33075354762002
 20
0.24582591782757
 30
0.0
 10
-17.19623190332205
 20
0.1702309998877386
 30
0.0
 10
-16.93510297535895
 20
0.0188656587513481
 30
0.0
 10
-16.80291993824759
 20
-0.0579677302857359
 30
0.0
 10
-16.53588636922251
 20
-0.2097590897569756
 30
0.0
 10
-16.40511375035902
 20
-0.2839303502545615
 30
0.0
 10
-16.14261756534936
 20
-0.4261649643806432
 30
0.0
 10
-16.00788931794655
 20
-0.4947224406748812
 30
0.0
 10
-15.87500000000002
 20
-0.5579601252137717
 30
0.0
  0
SPLINE
  5
2FA
330
1F
100
AcDbEntity
  8
0
  6
Continuous
 62
     1
370
    25
100
AcDbSpline
210
0.0
220
0.0
230
1.0
 70
     8
 71
     3
 72
    13
 73
     9
 74
     0
 42
0.000000001
 43
0.00000001
 40
0.0
 40
0.0
 40
0.0
 40
0.0
 40
0.1923462400561586
 40
0.3838250896887621
 40
0.5754066522393124
 40
0.7679760670280648
 40
0.9600605603710227
 40
1.0
 40
1.0
 40
1.0
 40
1.0
 10
-19.04999999999999
 20
0.7828084185528429
 30
0.0
 10
-18.88398089731756
 20
0.7462369784787871
 30
0.0
 10
-18.55269135945851
 20
0.673259018200621
 30
0.0
 10
-18.05654900056675
 20
0.4902081415819911
 30
0.0
 10
-17.56018752599207
 20
0.2703479059403154
 30
0.0
 10
-17.06266451618815
 20
0.029957956572655
 30
0.0
 10
-16.69629861906137
 20
-0.1551092406718023
 30
0.0
 10
-16.49621745899893
 20
-0.2447520601719443
 30
0.0
 10
-16.46177648857467
 20
-0.2601827268783449
 30
0.0
  0
LINE
  5
2FB
330
1F
100
AcDbEntity
  8
0
  6
Continuous
 62
     1
370
    25
100
AcDbLine
 10
-19.04999999999999
 20
0.9415272686910289
 30
0.0
 11
-19.04999999999999
 21
0.7828084185528429
 31
0.0
  0
SPLINE
  5
2FC
330
1F
100
AcDbEntity
  8
0
  6
Continuous
 62
     1
370
    25
100
AcDbSpline
210
0.0
220
0.0
230
1.0
 70
     8
 71
     3
 72
    22
 73
    18
 74
     0
 42
0.000000001
 43
0.00000001
 40
0.0
 40
0.0
 40
0.0
 40
0.0
 40
0.1249999999999999
 40
0.1249999999999999
 40
0.2499999999999999
 40
0.2499999999999999
 40
0.3749999999999998
 40
0.3749999999999998
 40
0.4999999999999998
 40
0.4999999999999998
 40
0.6249999999999998
 40
0.6249999999999998
 40
0.7499999999999998
 40
0.7499999999999998
 40
0.8749999999999997
 40
0.8749999999999997
 40
1.0
 40
1.0
 40
1.0
 40
1.0
 10
-15.87499999999926
 20
-0.3096697906572853
 30
0.0
 10
-16.00788931794583
 20
-0.237014125566493
 30
0.0
 10
-16.14261756534868
 20
-0.1612387282397275
 30
0.0
 10
-16.40511375035841
 20
-0.0094824231300347
 30
0.0
 10
-16.53588636922192
 20
0.0670629275296083
 30
0.0
 10
-16.80291993824705
 20
0.2186586500741928
 30
0.0
 10
-16.93510297535846
 20
0.2929089295234452
 30
0.0
 10
-17.19623190332161
 20
0.43438517222469
 30
0.0
 10
-17.33075354761961
 20
0.5025841562361141
 30
0.0
 10
-17.59712581657677
 20
0.6283577313905401
 30
0.0
 10
-17.7260950223664
 20
0.6855752834030714
 30
0.0
 10
-17.99100069694362
 20
0.7879099032577163
 30
0.0
 10
-18.12584682195716
 20
0.832739609517343
 30
0.0
 10
-18.38965731901849
 20
0.9062351933345983
 30
0.0
 10
-18.51929779697837
 20
0.935108928100053
 30
0.0
 10
-18.7861145315048
 20
0.9762665579070845
 30
0.0
 10
-18.92029556907646
 20
0.988230566309834
 30
0.0
 10
-19.04999999999999
 20
0.9913489182352709
 30
0.0
  0
SPLINE
  5
2FD
330
1F
100
AcDbEntity
  8
0
  6
Continuous
 62
     1
370
    25
100
AcDbSpline
210
0.0
220
0.0
230
1.0
 70
     8
 71
     3
 72
    10
 73
     6
 74
     0
 42
0.000000001
 43
0.00000001
 40
0.0
 40
0.0
 40
0.0
 40
0.0
 40
0.0290638105639073
 40
0.7258765364634086
 40
1.0
 40
1.0
 40
1.0
 40
1.0
 10
-16.58581293670425
 20
0.0947925046701844
 30
0.0
 10
-16.5789252866862
 20
0.0921237519529573
 30
0.0
 10
-16.40690436298536
 20
0.0254709304038233
 30
0.0
 10
-16.17018351872986
 20
-0.0747083479933618
 30
0.0
 10
-15.93999024230681
 20
-0.1641974088848496
 30
0.0
 10
-15.87499999999999
 20
-0.1894627678107138
 30
0.0
  0
SPLINE
  5
2FE
330
1F
100
AcDbEntity
  8
외형선
  6
Continuous
370
    15
100
AcDbSpline
210
0.0
220
0.0
230
1.0
 70
    24
 71
     3
 72
    10
 73
     6
 74
     0
 42
0.000000001
 43
0.00000001
 40
0.0
 40
0.0
 40
0.0
 40
0.0
 40
0.5
 40
0.5
 40
1.0
 40
1.0
 40
1.0
 40
1.0
 10
-15.87500000000013
 20
-0.3096697906568234
 30
0.0
 10
-15.87500000000013
 20
-0.3083468563609596
 30
0.0
 10
-15.87500000000013
 20
-0.2966655507607111
 30
0.0
 10
-15.87500000000013
 20
-0.2545670856131718
 30
0.0
 10
-15.87500000000013
 20
-0.2243325228564327
 30
0.0
 10
-15.87500000000013
 20
-0.189462767810657
 30
0.0
  0
LINE
  5
2FF
330
1F
100
AcDbEntity
  8
0
  6
Continuous
 62
     1
370
    25
100
AcDbLine
 10
-19.04999999999999
 20
0.9913489182356688
 30
0.0
 11
-19.04999999999999
 21
0.9415272686910289
 31
0.0
  0
SPLINE
  5
300
330
1F
100
AcDbEntity
  8
0
  6
Continuous
 62
     1
370
    25
100
AcDbSpline
210
0.0
220
0.0
230
1.0
 70
     8
 71
     3
 72
     8
 73
     4
 74
     0
 42
0.000000001
 43
0.00000001
 40
0.0
 40
0.0
 40
0.0
 40
0.0
 40
1.0
 40
1.0
 40
1.0
 40
1.0
 10
-18.43645648003366
 20
-0.277145559111997
 30
0.0
 10
-18.40107854129512
 20
-0.319006941148363
 30
0.0
 10
-18.36944619039174
 20
-0.3593360420153612
 30
0.0
 10
-18.34254979534001
 20
-0.3977277124202242
 30
0.0
  0
LINE
  5
301
330
1F
100
AcDbEntity
  8
0
  6
Continuous
 62
     1
370
    25
100
AcDbLine
 10
-18.35511798808645
 20
-0.4082736783272803
 30
0.0
 11
-19.04999999999999
 21
0.0000000000000032
 31
0.0
  0
LINE
  5
302
330
1F
100
AcDbEntity
  8
0
  6
Continuous
 62
     1
370
    25
100
AcDbLine
 10
-19.04999999999999
 20
0.0000000000000032
 30
0.0
 11
-19.04999999999999
 21
0.2651551105137916
 31
0.0
  0
SPLINE
  5
303
330
1F
100
AcDbEntity
  8
0
  6
Continuous
 62
     1
370
    25
100
AcDbSpline
210
0.0
220
0.0
230
1.0
 70
     8
 71
     3
 72
    10
 73
     6
 74
     0
 42
0.000000001
 43
0.00000001
 40
0.0
 40
0.0
 40
0.0
 40
0.0
 40
0.5000000000000006
 40
0.5000000000000006
 40
1.0
 40
1.0
 40
1.0
 40
1.0
 10
-19.04999999999999
 20
0.2651551105137916
 30
0.0
 10
-18.94379960073015
 20
0.1816611239832145
 30
0.0
 10
-18.83937334291142
 20
0.094742986222531
 30
0.0
 10
-18.63414771734928
 20
-0.0860933061830703
 30
0.0
 10
-18.53238182579837
 20
-0.1809588001028327
 30
0.0
 10
-18.43645648003283
 20
-0.2771455591098725
 30
0.0
  0
SPLINE
  5
304
330
1F
100
AcDbEntity
  8
0
  6
Continuous
 62
     1
370
    25
100
AcDbSpline
210
0.0
220
0.0
230
1.0
 70
     8
 71
     3
 72
    12
 73
     8
 74
     0
 42
0.000000001
 43
0.00000001
 40
0.0
 40
0.0
 40
0.0
 40
0.0
 40
0.1654957882301466
 40
0.3814159127778691
 40
0.5984650855099993
 40
0.8149596803653004
 40
1.0
 40
1.0
 40
1.0
 40
1.0
 10
-18.4364564800335
 20
-0.2771455591120681
 30
0.0
 10
-18.30985777950304
 20
-0.3306847864524055
 30
0.0
 10
-18.01808746053776
 20
-0.4540759221654195
 30
0.0
 10
-17.56018685616224
 20
-0.6140724695709959
 30
0.0
 10
-17.06269987693618
 20
-0.7355590510054636
 30
0.0
 10
-16.58917263692965
 20
-0.7994578921190761
 30
0.0
 10
-16.28196281382249
 20
-0.7887295118304433
 30
0.0
 10
-16.1403905574351
 20
-0.7837855260246481
 30
0.0
  0
SPLINE
  5
305
330
1F
100
AcDbEntity
  8
0
  6
Continuous
 62
     1
370
    25
100
AcDbSpline
210
0.0
220
0.0
230
1.0
 70
    24
 71
     3
 72
    10
 73
     6
 74
     0
 42
0.000000001
 43
0.00000001
 40
0.0
 40
0.0
 40
0.0
 40
0.0
 40
0.5
 40
0.5
 40
1.0
 40
1.0
 40
1.0
 40
1.0
 10
-19.04999999999999
 20
0.7828084185528429
 30
0.0
 10
-19.04999999999999
 20
0.7228000500272206
 30
0.0
 10
-19.04999999999999
 20
0.6469771754384542
 30
0.0
 10
-19.04999999999999
 20
0.4706962891573202
 30
0.0
 10
-19.04999999999999
 20
0.3703909786524765
 30
0.0
 10
-19.04999999999999
 20
0.2651551105138271
 30
0.0
  0
SPLINE
  5
306
330
1F
100
AcDbEntity
  8
외형선
  6
Continuous
370
    15
100
AcDbSpline
210
0.0
220
0.0
230
1.0
 70
    24
 71
     3
 72
    12
 73
     8
 74
     0
 42
0.000000001
 43
0.00000001
 40
0.0
 40
0.0
 40
0.0
 40
0.0
 40
0.1116789187719553
 40
0.3700113306028709
 40
0.635835399877724
 40
0.8665751549133086
 40
1.0
 40
1.0
 40
1.0
 40
1.0
 10
-15.87499999999999
 20
-0.7759300166956148
 30
0.0
 10
-15.87499999999999
 20
-0.7760703934826804
 30
0.0
 10
-15.87499999999999
 20
-0.7765354857519963
 30
0.0
 10
-15.87499999999999
 20
-0.7514621039718715
 30
0.0
 10
-15.87499999999999
 20
-0.6952673158534534
 30
0.0
 10
-15.87499999999999
 20
-0.6289874477772667
 30
0.0
 10
-15.87499999999999
 20
-0.5770055643829689
 30
0.0
 10
-15.87499999999999
 20
-0.5579601252137859
 30
0.0
  0
SPLINE
  5
307
330
1F
100
AcDbEntity
  8
0
  6
Continuous
 62
     1
370
    25
100
AcDbSpline
210
0.0
220
0.0
230
1.0
 70
    24
 71
     3
 72
     8
 73
     4
 74
     0
 42
0.000000001
 43
0.00000001
 40
0.0
 40
0.0
 40
0.0
 40
0.0
 40
1.0
 40
1.0
 40
1.0
 40
1.0
 10
-18.44591123438478
 20
-0.4844582578096034
 30
0.0
 10
-18.41315221982468
 20
-0.4569701807744874
 30
0.0
 10
-18.378598927961
 20
-0.4279765263156999
 30
0.0
 10
-18.34254979533606
 20
-0.3977277124258588
 30
0.0
  0
LINE
  5
308
330
1F
100
AcDbEntity
  8
0
  6
Continuous
 62
     1
370
    25
100
AcDbLine
 10
-19.04999999999999
 20
-0.6945312499999939
 30
0.0
 11
-18.67940394505424
 21
-0.6730517574232063
 31
0.0
  0
SPLINE
  5
309
330
1F
100
AcDbEntity
  8
0
  6
Continuous
 62
     1
370
    25
100
AcDbSpline
210
0.0
220
0.0
230
1.0
 70
     8
 71
     3
 72
     8
 73
     4
 74
     0
 42
0.000000001
 43
0.00000001
 40
0.0
 40
0.0
 40
0.0
 40
0.0
 40
1.0
 40
1.0
 40
1.0
 40
1.0
 10
-19.04999999999999
 20
-0.6945312499999939
 30
0.0
 10
-18.84584217823384
 20
-0.6389920726168693
 30
0.0
 10
-18.64363053355308
 20
-0.5708998726238231
 30
0.0
 10
-18.44591123439372
 20
-0.48445825781295
 30
0.0
  0
SPLINE
  5
30A
330
1F
100
AcDbEntity
  8
0
  6
Continuous
 62
     1
370
    25
100
AcDbSpline
210
0.0
220
0.0
230
1.0
 70
     8
 71
     3
 72
    10
 73
     6
 74
     0
 42
0.000000001
 43
0.00000001
 40
0.0
 40
0.0
 40
0.0
 40
0.0
 40
0.3584353757781447
 40
0.8188961869322627
 40
1.0
 40
1.0
 40
1.0
 40
1.0
 10
-16.95080728538015
 20
0.7402370707989722
 30
0.0
 10
-16.82222838151346
 20
0.7590887589551191
 30
0.0
 10
-16.52847173467642
 20
0.802158100296747
 30
0.0
 10
-16.170207838821
 20
0.7957201296914992
 30
0.0
 10
-15.93998762178612
 20
0.7707063982228096
 30
0.0
 10
-15.87499999999999
 20
0.7636454070505995
 30
0.0
  0
SPLINE
  5
30B
330
1F
100
AcDbEntity
  8
외형선
  6
Continuous
370
    15
100
AcDbSpline
210
0.0
220
0.0
230
1.0
 70
    24
 71
     3
 72
    10
 73
     6
 74
     0
 42
0.000000001
 43
0.00000001
 40
0.0
 40
0.0
 40
0.0
 40
0.0
 40
0.5
 40
0.5
 40
1.0
 40
1.0
 40
1.0
 40
1.0
 10
-15.8749999999999
 20
-0.1894627678107494
 30
0.0
 10
-15.8749999999999
 20
-0.0140129141872162
 30
0.0
 10
-15.8749999999999
 20
0.1758771097355481
 30
0.0
 10
-15.8749999999999
 20
0.5146667134146942
 30
0.0
 10
-15.8749999999999
 20
0.6609413221002388
 30
0.0
 10
-15.8749999999999
 20
0.7636454070505853
 30
0.0
  0
LINE
  5
30C
330
1F
100
AcDbEntity
  8
0
  6
Continuous
 62
     1
370
    25
100
AcDbLine
 10
-19.04999999999999
 20
0.0000000000000032
 30
0.0
 11
-19.04999999999999
 21
-0.6945312499999939
 31
0.0
  0
SPLINE
  5
30D
330
1F
100
AcDbEntity
  8
0
  6
Continuous
 62
     1
370
    25
100
AcDbSpline
210
0.0
220
0.0
230
1.0
 70
    24
 71
     3
 72
    10
 73
     6
 74
     0
 42
0.000000001
 43
0.00000001
 40
0.0
 40
0.0
 40
0.0
 40
0.0
 40
0.5
 40
0.5
 40
1.0
 40
1.0
 40
1.0
 40
1.0
 10
-19.04999999999999
 20
-0.6945312499999939
 30
0.0
 10
-19.04999999999999
 20
-0.7366320048009992
 30
0.0
 10
-19.04999999999999
 20
-0.7855569808290891
 30
0.0
 10
-19.04999999999999
 20
-0.8882014487658519
 30
0.0
 10
-19.04999999999999
 20
-0.9416587995842715
 30
0.0
 10
-19.04999999999999
 20
-0.9913489182356624
 30
0.0
  0
SPLINE
  5
30E
330
1F
100
AcDbEntity
  8
0
  6
Continuous
 62
     1
370
    25
100
AcDbSpline
210
0.0
220
0.0
230
1.0
 70
     8
 71
     3
 72
    14
 73
    10
 74
     0
 42
0.000000001
 43
0.00000001
 40
0.0
 40
0.0
 40
0.0
 40
0.0
 40
0.1792579101523332
 40
0.2840368986140344
 40
0.3892327957398283
 40
0.4648701770594248
 40
0.6164715411419738
 40
0.8988724874686904
 40
1.0
 40
1.0
 40
1.0
 40
1.0
 10
-17.68694956558295
 20
-0.665138953046775
 30
0.0
 10
-17.76826041499554
 20
-0.6994243211625925
 30
0.0
 10
-17.89709869873544
 20
-0.7537500109978875
 30
0.0
 10
-18.07428900306678
 20
-0.8146013064945133
 30
0.0
 10
-18.20421639575418
 20
-0.8548844173480002
 30
0.0
 10
-18.35512737011139
 20
-0.8964942245604103
 30
0.0
 10
-18.5859542676471
 20
-0.9495487152414167
 30
0.0
 10
-18.83029455129332
 20
-0.9828767764891037
 30
0.0
 10
-19.00415662484547
 20
-0.9895811351663933
 30
0.0
 10
-19.04999999999999
 20
-0.9913489182356553
 30
0.0
  0
LINE
  5
313
330
1F
100
AcDbEntity
  8
외형선
  6
Continuous
370
    15
100
AcDbLine
 10
-12.65326350361915
 20
-1.587500000000003
 30
0.0
 11
-12.65326350361915
 21
1.587500000000002
 31
0.0
  0
ENDSEC
  0
SECTION
  2
OBJECTS
  0
DICTIONARY
  5
C
330
0
100
AcDbDictionary
281
     1
  3
ACAD_GROUP
350
D
  3
ACAD_IMAGE_VARS
350
15C
  3
ACAD_LAYOUT
350
1A
  3
ACAD_MLINESTYLE
350
17
  3
ACAD_PLOTSETTINGS
350
19
  3
ACAD_PLOTSTYLENAME
350
E
  3
ACAD_SCALELIST
350
47
  3
APPDATA
350
15A
  3
DWGPROPS
350
364
  0
DICTIONARY
  5
362
330
1F
100
AcDbDictionary
280
     1
281
     1
  3
DIM_BOUNDING_BOXES_V1
360
363
  0
DICTIONARY
  5
D
102
{ACAD_REACTORS
330
C
102
}
330
C
100
AcDbDictionary
281
     1
  0
RASTERVARIABLES
  5
15C
102
{ACAD_REACTORS
330
C
102
}
330
C
100
AcDbRasterVariables
 90
        0
 70
     1
 71
     1
 72
     1
  0
DICTIONARY
  5
1A
102
{ACAD_REACTORS
330
C
102
}
330
C
100
AcDbDictionary
281
     1
  3
Layout1
350
1E
  3
Layout2
350
26
  3
Model
350
22
  0
DICTIONARY
  5
17
102
{ACAD_REACTORS
330
C
102
}
330
C
100
AcDbDictionary
281
     1
  3
Standard
350
18
  0
DICTIONARY
  5
19
102
{ACAD_REACTORS
330
C
102
}
330
C
100
AcDbDictionary
281
     1
  0
ACDBDICTIONARYWDFLT
  5
E
102
{ACAD_REACTORS
330
C
102
}
330
C
100
AcDbDictionary
281
     1
  3
Normal
350
F
100
AcDbDictionaryWithDefault
340
F
  0
DICTIONARY
  5
47
102
{ACAD_REACTORS
330
C
102
}
330
C
100
AcDbDictionary
281
     1
  3
A0
350
48
  3
A1
350
49
  3
A2
350
4A
  3
A3
350
4B
  3
A4
350
4C
  3
A5
350
4D
  3
A6
350
4E
  3
A7
350
4F
  3
A8
350
50
  3
A9
350
51
  3
B0
350
52
  3
B1
350
53
  3
B2
350
54
  3
B3
350
55
  3
B4
350
56
  3
B5
350
57
  3
B6
350
58
  3
B7
350
59
  3
B8
350
5A
  3
B9
350
5B
  3
C0
350
5C
  3
C1
350
5D
  3
C2
350
5E
  3
C3
350
5F
  3
C4
350
60
  3
C5
350
61
  3
C6
350
62
  3
C7
350
63
  3
C8
350
64
  3
C9
350
65
  3
D0
350
66
  3
D1
350
67
  3
D2
350
68
  0
DICTIONARY
  5
15A
102
{ACAD_REACTORS
330
C
102
}
330
C
100
AcDbDictionary
281
     1
  0
XRECORD
  5
364
102
{ACAD_REACTORS
330
C
102
}
330
C
100
AcDbXrecord
280
     1
  1
DWGPROPS COOKIE
  2

  3

  4

  6

  7

  8
12011056
  9

300
=
301
=
302
=
303
=
304
=
305
=
306
=
307
=
308
=
309
=
 40
0.0
 41
2458313.048684734
 42
2459719.258370047
  1

 90
        0
  0
DICTIONARY
  5
363
102
{ACAD_REACTORS
330
362
102
}
330
362
100
AcDbDictionary
281
     1
  0
LAYOUT
  5
1E
102
{ACAD_REACTORS
330
1A
102
}
330
1A
100
AcDbPlotSettings
  1

  2
none_device
  4

  6

 40
0.0
 41
0.0
 42
0.0
 43
0.0
 44
0.0
 45
0.0
 46
0.0
 47
0.0
 48
0.0
 49
0.0
140
0.0
141
0.0
142
1.0
143
1.0
 70
   688
 72
     1
 73
     0
 74
     5
  7

 75
    16
147
1.0
148
0.0
149
0.0
100
AcDbLayout
  1
Layout1
 70
     1
 71
     1
 10
0.0
 20
0.0
 11
420.0
 21
297.0
 12
0.0
 22
0.0
 32
0.0
 14
1.000000000000000E+20
 24
1.000000000000000E+20
 34
1.000000000000000E+20
 15
-1.000000000000000E+20
 25
-1.000000000000000E+20
 35
-1.000000000000000E+20
146
0.0
 13
0.0
 23
0.0
 33
0.0
 16
1.0
 26
0.0
 36
0.0
 17
0.0
 27
1.0
 37
0.0
 76
     0
330
1B
  0
LAYOUT
  5
26
102
{ACAD_REACTORS
330
1A
102
}
330
1A
100
AcDbPlotSettings
  1

  2
none_device
  4

  6

 40
0.0
 41
0.0
 42
0.0
 43
0.0
 44
0.0
 45
0.0
 46
0.0
 47
0.0
 48
0.0
 49
0.0
140
0.0
141
0.0
142
1.0
143
1.0
 70
   688
 72
     1
 73
     0
 74
     5
  7

 75
    16
147
1.0
148
0.0
149
0.0
100
AcDbLayout
  1
Layout2
 70
     1
 71
     2
 10
0.0
 20
0.0
 11
0.0
 21
0.0
 12
0.0
 22
0.0
 32
0.0
 14
0.0
 24
0.0
 34
0.0
 15
0.0
 25
0.0
 35
0.0
146
0.0
 13
0.0
 23
0.0
 33
0.0
 16
1.0
 26
0.0
 36
0.0
 17
0.0
 27
1.0
 37
0.0
 76
     0
330
23
  0
LAYOUT
  5
22
102
{ACAD_REACTORS
330
1A
102
}
330
1A
100
AcDbPlotSettings
  1

  2
none_device
  4
ANSI_A_(11.00_x_8.50_Inches)
  6

 40
6.35
 41
19.05
 42
6.35000508
 43
19.05000254
 44
279.4
 45
215.9
 46
98.21986598480574
 47
93.52692471932595
 48
0.0
 49
0.0
140
0.0
141
0.0
142
0.0840767532981495
143
1.0
 70
  1696
 72
     0
 73
     0
 74
     0
  7

 75
     0
147
0.0235690232323232
148
0.0
149
0.0
100
AcDbLayout
  1
Model
 70
     1
 71
     0
 10
0.0
 20
0.0
 11
420.0
 21
297.0
 12
0.0
 22
0.0
 32
0.0
 14
-30.5625433808137
 24
-39.99892507127611
 34
0.0
 15
81.21241335422454
 25
26.49134891823571
 35
0.0
146
0.0
 13
0.0
 23
0.0
 33
0.0
 16
1.0
 26
0.0
 36
0.0
 17
0.0
 27
1.0
 37
0.0
 76
     0
330
1F
331
29
  0
MLINESTYLE
  5
18
102
{ACAD_REACTORS
330
17
102
}
330
17
100
AcDbMlineStyle
  2
Standard
 70
     0
  3

 62
   256
 51
90.0
 52
90.0
 71
     2
 49
0.5
 62
   256
  6
BYLAYER
 49
-0.5
 62
   256
  6
BYLAYER
  0
ACDBPLACEHOLDER
  5
F
102
{ACAD_REACTORS
330
E
102
}
330
E
  0
SCALE
  5
48
102
{ACAD_REACTORS
330
47
102
}
330
47
100
AcDbScale
 70
     0
300
1:1
140
1.0
141
1.0
290
     1
  0
SCALE
  5
49
102
{ACAD_REACTORS
330
47
102
}
330
47
100
AcDbScale
 70
     0
300
1:2
140
1.0
141
2.0
290
     0
  0
SCALE
  5
4A
102
{ACAD_REACTORS
330
47
102
}
330
47
100
AcDbScale
 70
     0
300
1:4
140
1.0
141
4.0
290
     0
  0
SCALE
  5
4B
102
{ACAD_REACTORS
330
47
102
}
330
47
100
AcDbScale
 70
     0
300
1:5
140
1.0
141
5.0
290
     0
  0
SCALE
  5
4C
102
{ACAD_REACTORS
330
47
102
}
330
47
100
AcDbScale
 70
     0
300
1:8
140
1.0
141
8.0
290
     0
  0
SCALE
  5
4D
102
{ACAD_REACTORS
330
47
102
}
330
47
100
AcDbScale
 70
     0
300
1:10
140
1.0
141
10.0
290
     0
  0
SCALE
  5
4E
102
{ACAD_REACTORS
330
47
102
}
330
47
100
AcDbScale
 70
     0
300
1:16
140
1.0
141
16.0
290
     0
  0
SCALE
  5
4F
102
{ACAD_REACTORS
330
47
102
}
330
47
100
AcDbScale
 70
     0
300
1:20
140
1.0
141
20.0
290
     0
  0
SCALE
  5
50
102
{ACAD_REACTORS
330
47
102
}
330
47
100
AcDbScale
 70
     0
300
1:30
140
1.0
141
30.0
290
     0
  0
SCALE
  5
51
102
{ACAD_REACTORS
330
47
102
}
330
47
100
AcDbScale
 70
     0
300
1:40
140
1.0
141
40.0
290
     0
  0
SCALE
  5
52
102
{ACAD_REACTORS
330
47
102
}
330
47
100
AcDbScale
 70
     0
300
1:50
140
1.0
141
50.0
290
     0
  0
SCALE
  5
53
102
{ACAD_REACTORS
330
47
102
}
330
47
100
AcDbScale
 70
     0
300
1:100
140
1.0
141
100.0
290
     0
  0
SCALE
  5
54
102
{ACAD_REACTORS
330
47
102
}
330
47
100
AcDbScale
 70
     0
300
2:1
140
2.0
141
1.0
290
     0
  0
SCALE
  5
55
102
{ACAD_REACTORS
330
47
102
}
330
47
100
AcDbScale
 70
     0
300
4:1
140
4.0
141
1.0
290
     0
  0
SCALE
  5
56
102
{ACAD_REACTORS
330
47
102
}
330
47
100
AcDbScale
 70
     0
300
8:1
140
8.0
141
1.0
290
     0
  0
SCALE
  5
57
102
{ACAD_REACTORS
330
47
102
}
330
47
100
AcDbScale
 70
     0
300
10:1
140
10.0
141
1.0
290
     0
  0
SCALE
  5
58
102
{ACAD_REACTORS
330
47
102
}
330
47
100
AcDbScale
 70
     0
300
100:1
140
100.0
141
1.0
290
     0
  0
SCALE
  5
59
102
{ACAD_REACTORS
330
47
102
}
330
47
100
AcDbScale
 70
     0
300
1/128" = 1'-0"
140
0.0078125
141
12.0
290
     0
  0
SCALE
  5
5A
102
{ACAD_REACTORS
330
47
102
}
330
47
100
AcDbScale
 70
     0
300
1/64" = 1'-0"
140
0.015625
141
12.0
290
     0
  0
SCALE
  5
5B
102
{ACAD_REACTORS
330
47
102
}
330
47
100
AcDbScale
 70
     0
300
1/32" = 1'-0"
140
0.03125
141
12.0
290
     0
  0
SCALE
  5
5C
102
{ACAD_REACTORS
330
47
102
}
330
47
100
AcDbScale
 70
     0
300
1/16" = 1'-0"
140
0.0625
141
12.0
290
     0
  0
SCALE
  5
5D
102
{ACAD_REACTORS
330
47
102
}
330
47
100
AcDbScale
 70
     0
300
3/32" = 1'-0"
140
0.09375
141
12.0
290
     0
  0
SCALE
  5
5E
102
{ACAD_REACTORS
330
47
102
}
330
47
100
AcDbScale
 70
     0
300
1/8" = 1'-0"
140
0.125
141
12.0
290
     0
  0
SCALE
  5
5F
102
{ACAD_REACTORS
330
47
102
}
330
47
100
AcDbScale
 70
     0
300
3/16" = 1'-0"
140
0.1875
141
12.0
290
     0
  0
SCALE
  5
60
102
{ACAD_REACTORS
330
47
102
}
330
47
100
AcDbScale
 70
     0
300
1/4" = 1'-0"
140
0.25
141
12.0
290
     0
  0
SCALE
  5
61
102
{ACAD_REACTORS
330
47
102
}
330
47
100
AcDbScale
 70
     0
300
3/8" = 1'-0"
140
0.375
141
12.0
290
     0
  0
SCALE
  5
62
102
{ACAD_REACTORS
330
47
102
}
330
47
100
AcDbScale
 70
     0
300
1/2" = 1'-0"
140
0.5
141
12.0
290
     0
  0
SCALE
  5
63
102
{ACAD_REACTORS
330
47
102
}
330
47
100
AcDbScale
 70
     0
300
3/4" = 1'-0"
140
0.75
141
12.0
290
     0
  0
SCALE
  5
64
102
{ACAD_REACTORS
330
47
102
}
330
47
100
AcDbScale
 70
     0
300
1" = 1'-0"
140
1.0
141
12.0
290
     0
  0
SCALE
  5
65
102
{ACAD_REACTORS
330
47
102
}
330
47
100
AcDbScale
 70
     0
300
1-1/2" = 1'-0"
140
1.5
141
12.0
290
     0
  0
SCALE
  5
66
102
{ACAD_REACTORS
330
47
102
}
330
47
100
AcDbScale
 70
     0
300
3" = 1'-0"
140
3.0
141
12.0
290
     0
  0
SCALE
  5
67
102
{ACAD_REACTORS
330
47
102
}
330
47
100
AcDbScale
 70
     0
300
6" = 1'-0"
140
6.0
141
12.0
290
     0
  0
SCALE
  5
68
102
{ACAD_REACTORS
330
47
102
}
330
47
100
AcDbScale
 70
     0
300
1'-0" = 1'-0"
140
12.0
141
12.0
290
     0
  0
ENDSEC
  0
EOF
