  0
SECTION
  2
HEADER
  9
$ACADVER
  1
AC1015
  9
$ACADMAINTVER
 70
     6
  9
$DWGCODEPAGE
  3
ANSI_949
  9
$INSBASE
 10
0.0
 20
0.0
 30
0.0
  9
$EXTMIN
 10
-29.45992727542973
 20
-39.99892507127611
 30
0.0
  9
$EXTMAX
 10
81.21241335422454
 20
27.31461870188284
 30
0.0
  9
$LIMMIN
 10
0.0
 20
0.0
  9
$LIMMAX
 10
420.0
 20
297.0
  9
$ORTHOMODE
 70
     0
  9
$REGENMODE
 70
     1
  9
$FILLMODE
 70
     1
  9
$QTEXTMODE
 70
     0
  9
$MIRRTEXT
 70
     1
  9
$LTSCALE
 40
1.0
  9
$ATTMODE
 70
     1
  9
$TEXTSIZE
 40
3.5
  9
$TRACEWID
 40
1.0
  9
$TEXTSTYLE
  7
Standard
  9
$CLAYER
  8
0
  9
$CELTYPE
  6
ByLayer
  9
$CECOLOR
 62
   256
  9
$CELTSCALE
 40
1.0
  9
$DISPSILH
 70
     0
  9
$DIMSCALE
 40
1.0
  9
$DIMASZ
 40
3.302
  9
$DIMEXO
 40
1.0
  9
$DIMDLI
 40
3.75
  9
$DIMRND
 40
0.0
  9
$DIMDLE
 40
0.0
  9
$DIMEXE
 40
1.0
  9
$DIMTP
 40
0.0
  9
$DIMTM
 40
0.0
  9
$DIMTXT
 40
3.5
  9
$DIMCEN
 40
2.5
  9
$DIMTSZ
 40
0.0
  9
$DIMTOL
 70
     0
  9
$DIMLIM
 70
     0
  9
$DIMTIH
 70
     1
  9
$DIMTOH
 70
     1
  9
$DIMSE1
 70
     0
  9
$DIMSE2
 70
     0
  9
$DIMTAD
 70
     1
  9
$DIMZIN
 70
     0
  9
$DIMBLK
  1

  9
$DIMASO
 70
     1
  9
$DIMSHO
 70
     1
  9
$DIMPOST
  1

  9
$DIMAPOST
  1

  9
$DIMALT
 70
     0
  9
$DIMALTD
 70
     3
  9
$DIMALTF
 40
0.0393700787401575
  9
$DIMLFAC
 40
1.0
  9
$DIMTOFL
 70
     1
  9
$DIMTVP
 40
0.0
  9
$DIMTIX
 70
     0
  9
$DIMSOXD
 70
     0
  9
$DIMSAH
 70
     0
  9
$DIMBLK1
  1

  9
$DIMBLK2
  1

  9
$DIMSTYLE
  2
ISO-25
  9
$DIMCLRD
 70
     0
  9
$DIMCLRE
 70
     0
  9
$DIMCLRT
 70
     0
  9
$DIMTFAC
 40
1.0
  9
$DIMGAP
 40
1.524
  9
$DIMJUST
 70
     0
  9
$DIMSD1
 70
     0
  9
$DIMSD2
 70
     0
  9
$DIMTOLJ
 70
     0
  9
$DIMTZIN
 70
     0
  9
$DIMALTZ
 70
     0
  9
$DIMALTTZ
 70
     0
  9
$DIMUPT
 70
     0
  9
$DIMDEC
 70
     2
  9
$DIMTDEC
 70
     2
  9
$DIMALTU
 70
     2
  9
$DIMALTTD
 70
     3
  9
$DIMTXSTY
  7
Standard
  9
$DIMAUNIT
 70
     0
  9
$DIMADEC
 70
     2
  9
$DIMALTRND
 40
0.0
  9
$DIMAZIN
 70
     0
  9
$DIMDSEP
 70
    44
  9
$DIMATFIT
 70
     3
  9
$DIMFRAC
 70
     0
  9
$DIMLDRBLK
  1

  9
$DIMLUNIT
 70
     2
  9
$DIMLWD
 70
    -2
  9
$DIMLWE
 70
    -2
  9
$DIMTMOVE
 70
     0
  9
$LUNITS
 70
     2
  9
$LUPREC
 70
     2
  9
$SKETCHINC
 40
1.0
  9
$FILLETRAD
 40
10.0
  9
$AUNITS
 70
     0
  9
$AUPREC
 70
     2
  9
$MENU
  1
.
  9
$ELEVATION
 40
0.0
  9
$PELEVATION
 40
0.0
  9
$THICKNESS
 40
0.0
  9
$LIMCHECK
 70
     0
  9
$CHAMFERA
 40
0.0
  9
$CHAMFERB
 40
0.0
  9
$CHAMFERC
 40
0.0
  9
$CHAMFERD
 40
0.0
  9
$SKPOLY
 70
     0
  9
$TDCREATE
 40
2458313.423896528
  9
$TDUCREATE
 40
2458313.048896528
  9
$TDUPDATE
 40
2459719.633908264
  9
$TDUUPDATE
 40
2459719.258908264
  9
$TDINDWG
 40
0.001734838
  9
$TDUSRTIMER
 40
0.000254375
  9
$USRTIMER
 70
     1
  9
$ANGBASE
 50
0.0
  9
$ANGDIR
 70
     0
  9
$PDMODE
 70
     0
  9
$PDSIZE
 40
-1.0
  9
$PLINEWID
 40
0.0
  9
$SPLFRAME
 70
     0
  9
$SPLINETYPE
 70
     6
  9
$SPLINESEGS
 70
     8
  9
$HANDSEED
  5
3C2
  9
$SURFTAB1
 70
     6
  9
$SURFTAB2
 70
     6
  9
$SURFTYPE
 70
     6
  9
$SURFU
 70
     6
  9
$SURFV
 70
     6
  9
$UCSBASE
  2

  9
$UCSNAME
  2

  9
$UCSORG
 10
0.0
 20
0.0
 30
0.0
  9
$UCSXDIR
 10
1.0
 20
0.0
 30
0.0
  9
$UCSYDIR
 10
0.0
 20
1.0
 30
0.0
  9
$UCSORTHOREF
  2

  9
$UCSORTHOVIEW
 70
     0
  9
$UCSORGTOP
 10
0.0
 20
0.0
 30
0.0
  9
$UCSORGBOTTOM
 10
0.0
 20
0.0
 30
0.0
  9
$UCSORGLEFT
 10
0.0
 20
0.0
 30
0.0
  9
$UCSORGRIGHT
 10
0.0
 20
0.0
 30
0.0
  9
$UCSORGFRONT
 10
0.0
 20
0.0
 30
0.0
  9
$UCSORGBACK
 10
0.0
 20
0.0
 30
0.0
  9
$PUCSBASE
  2

  9
$PUCSNAME
  2

  9
$PUCSORG
 10
0.0
 20
0.0
 30
0.0
  9
$PUCSXDIR
 10
1.0
 20
0.0
 30
0.0
  9
$PUCSYDIR
 10
0.0
 20
1.0
 30
0.0
  9
$PUCSORTHOREF
  2

  9
$PUCSORTHOVIEW
 70
     0
  9
$PUCSORGTOP
 10
0.0
 20
0.0
 30
0.0
  9
$PUCSORGBOTTOM
 10
0.0
 20
0.0
 30
0.0
  9
$PUCSORGLEFT
 10
0.0
 20
0.0
 30
0.0
  9
$PUCSORGRIGHT
 10
0.0
 20
0.0
 30
0.0
  9
$PUCSORGFRONT
 10
0.0
 20
0.0
 30
0.0
  9
$PUCSORGBACK
 10
0.0
 20
0.0
 30
0.0
  9
$USERI1
 70
     0
  9
$USERI2
 70
     0
  9
$USERI3
 70
     0
  9
$USERI4
 70
     0
  9
$USERI5
 70
     0
  9
$USERR1
 40
0.0
  9
$USERR2
 40
0.0
  9
$USERR3
 40
0.0
  9
$USERR4
 40
0.0
  9
$USERR5
 40
0.0
  9
$WORLDVIEW
 70
     1
  9
$SHADEDGE
 70
     3
  9
$SHADEDIF
 70
    70
  9
$TILEMODE
 70
     1
  9
$MAXACTVP
 70
    64
  9
$PINSBASE
 10
0.0
 20
0.0
 30
0.0
  9
$PLIMCHECK
 70
     0
  9
$PEXTMIN
 10
1.000000000000000E+20
 20
1.000000000000000E+20
 30
1.000000000000000E+20
  9
$PEXTMAX
 10
-1.000000000000000E+20
 20
-1.000000000000000E+20
 30
-1.000000000000000E+20
  9
$PLIMMIN
 10
0.0
 20
0.0
  9
$PLIMMAX
 10
0.0
 20
0.0
  9
$UNITMODE
 70
     0
  9
$VISRETAIN
 70
     1
  9
$PLINEGEN
 70
     0
  9
$PSLTSCALE
 70
     1
  9
$TREEDEPTH
 70
  3020
  9
$CMLSTYLE
  2
Standard
  9
$CMLJUST
 70
     0
  9
$CMLSCALE
 40
20.0
  9
$PROXYGRAPHICS
 70
     1
  9
$MEASUREMENT
 70
     1
  9
$CELWEIGHT
370
    -1
  9
$ENDCAPS
280
     0
  9
$JOINSTYLE
280
     0
  9
$LWDISPLAY
290
     1
  9
$INSUNITS
 70
     4
  9
$HYPERLINKBASE
  1

  9
$STYLESHEET
  1

  9
$XEDIT
290
     1
  9
$CEPSNTYPE
380
     0
  9
$PSTYLEMODE
290
     1
  9
$FINGERPRINTGUID
  2
{A9045FEB-0E94-4ECF-8DB5-C8F2FE9EAC8E}
  9
$VERSIONGUID
  2
{FAEB1C32-E019-11D5-929B-00C0DF256EC4}
  9
$EXTNAMES
290
     1
  9
$PSVPSCALE
 40
0.0
  9
$OLESTARTUP
290
     0
  0
ENDSEC
  0
SECTION
  2
CLASSES
  0
CLASS
  1
ACDBDICTIONARYWDFLT
  2
AcDbDictionaryWithDefault
  3
ObjectDBX Classes
 90
        0
280
     0
281
     0
  0
CLASS
  1
VISUALSTYLE
  2
AcDbVisualStyle
  3
ObjectDBX Classes
 90
     4095
280
     0
281
     0
  0
CLASS
  1
MATERIAL
  2
AcDbMaterial
  3
ObjectDBX Classes
 90
     1153
280
     0
281
     0
  0
CLASS
  1
SCALE
  2
AcDbScale
  3
ObjectDBX Classes
 90
     1153
280
     0
281
     0
  0
CLASS
  1
SUN
  2
AcDbSun
  3
SCENEOE
 90
     1153
280
     0
281
     0
  0
CLASS
  1
ACDBPLACEHOLDER
  2
AcDbPlaceHolder
  3
ObjectDBX Classes
 90
        0
280
     0
281
     0
  0
CLASS
  1
LAYOUT
  2
AcDbLayout
  3
ObjectDBX Classes
 90
        0
280
     0
281
     0
  0
CLASS
  1
TABLESTYLE
  2
AcDbTableStyle
  3
ObjectDBX Classes
 90
     4095
280
     0
281
     0
  0
CLASS
  1
MLEADERSTYLE
  2
AcDbMLeaderStyle
  3
ACDB_MLEADERSTYLE_CLASS
 90
     4095
280
     0
281
     0
  0
CLASS
  1
RASTERVARIABLES
  2
AcDbRasterVariables
  3
ISM
 90
        0
280
     0
281
     0
  0
ENDSEC
  0
SECTION
  2
TABLES
  0
TABLE
  2
VPORT
  5
8
330
0
100
AcDbSymbolTable
 70
     1
  0
VPORT
  5
29
330
8
100
AcDbSymbolTableRecord
100
AcDbViewportTableRecord
  2
*Active
 70
     0
 10
0.0
 20
0.0
 11
1.0
 21
1.0
 12
1.598116698336163
 22
0.4118475953499039
 13
0.0
 23
0.0
 14
10.0
 24
10.0
 15
10.0
 25
10.0
 16
0.0
 26
0.0
 36
1.0
 17
0.0
 27
0.0
 37
0.0
 40
66.65741377230161
 41
1.519944979367263
 42
50.0
 43
0.0
 44
0.0
 50
0.0
 51
0.0
 71
    16
 72
  2000
 73
     1
 74
     3
 75
     0
 76
     0
 77
     0
 78
     0
281
     0
 65
     1
110
0.0
120
0.0
130
0.0
111
1.0
121
0.0
131
0.0
112
0.0
122
1.0
132
0.0
 79
     0
146
0.0
  0
ENDTAB
  0
TABLE
  2
LTYPE
  5
5
330
0
100
AcDbSymbolTable
 70
     6
  0
LTYPE
  5
14
330
5
100
AcDbSymbolTableRecord
100
AcDbLinetypeTableRecord
  2
ByBlock
 70
     0
  3

 72
    65
 73
     0
 40
0.0
  0
LTYPE
  5
15
330
5
100
AcDbSymbolTableRecord
100
AcDbLinetypeTableRecord
  2
ByLayer
 70
     0
  3

 72
    65
 73
     0
 40
0.0
  0
LTYPE
  5
16
330
5
100
AcDbSymbolTableRecord
100
AcDbLinetypeTableRecord
  2
Continuous
 70
     0
  3
Solid line
 72
    65
 73
     0
 40
0.0
  0
LTYPE
  5
6A
330
5
100
AcDbSymbolTableRecord
100
AcDbLinetypeTableRecord
  2
HIDDEN
 70
     0
  3
Hidden __ __ __ __ __ __ __ __ __ __ __ __ __ __
 72
    65
 73
     2
 40
1.905
 49
1.27
 74
     0
 49
-0.635
 74
     0
  0
LTYPE
  5
6B
330
5
100
AcDbSymbolTableRecord
100
AcDbLinetypeTableRecord
  2
PHANTOM
 70
     0
  3
Phantom ______  __  __  ______  __  __  ______
 72
    65
 73
     6
 40
12.7
 49
6.35
 74
     0
 49
-1.27
 74
     0
 49
1.27
 74
     0
 49
-1.27
 74
     0
 49
1.27
 74
     0
 49
-1.27
 74
     0
  0
LTYPE
  5
6C
330
5
100
AcDbSymbolTableRecord
100
AcDbLinetypeTableRecord
  2
CENTER
 70
     0
  3
Center ____ _ ____ _ ____ _ ____ _ ____ _ ____
 72
    65
 73
     4
 40
10.16
 49
6.35
 74
     0
 49
-1.27
 74
     0
 49
1.27
 74
     0
 49
-1.27
 74
     0
  0
LTYPE
  5
6D
330
5
100
AcDbSymbolTableRecord
100
AcDbLinetypeTableRecord
  2
CENTERX2
 70
     0
  3
Center (2x) ________  __  ________  __  _____
 72
    65
 73
     4
 40
20.32
 49
12.7
 74
     0
 49
-2.54
 74
     0
 49
2.54
 74
     0
 49
-2.54
 74
     0
  0
LTYPE
  5
6E
330
5
100
AcDbSymbolTableRecord
100
AcDbLinetypeTableRecord
  2
DOT2
 70
     0
  3
Dot (.5x) ........................................
 72
    65
 73
     2
 40
0.635
 49
0.0
 74
     0
 49
-0.635
 74
     0
  0
ENDTAB
  0
TABLE
  2
LAYER
  5
2
330
0
100
AcDbSymbolTable
 70
    18
  0
LAYER
  5
10
330
2
100
AcDbSymbolTableRecord
100
AcDbLayerTableRecord
  2
0
 70
     0
 62
     7
  6
Continuous
370
    -3
390
F
  0
LAYER
  5
6F
330
2
100
AcDbSymbolTableRecord
100
AcDbLayerTableRecord
  2
FORMAT
 70
     0
 62
     2
  6
Continuous
370
    -3
390
F
  0
LAYER
  5
70
330
2
100
AcDbSymbolTableRecord
100
AcDbLayerTableRecord
  2
외형선
 70
     0
 62
     4
  6
Continuous
370
    30
390
F
  0
LAYER
  5
71
330
2
100
AcDbSymbolTableRecord
100
AcDbLayerTableRecord
  2
숨은선
 70
     0
 62
     2
  6
HIDDEN
370
    15
390
F
  0
LAYER
  5
72
330
2
100
AcDbSymbolTableRecord
100
AcDbLayerTableRecord
  2
중심선
 70
     0
 62
     1
  6
CENTERX2
370
    -3
390
F
  0
LAYER
  5
73
330
2
100
AcDbSymbolTableRecord
100
AcDbLayerTableRecord
  2
파단선
 70
     0
 62
     4
  6
Continuous
370
    -3
390
F
  0
LAYER
  5
74
330
2
100
AcDbSymbolTableRecord
100
AcDbLayerTableRecord
  2
해칭선
 70
     0
 62
   100
  6
Continuous
370
    -3
390
F
  0
LAYER
  5
75
330
2
100
AcDbSymbolTableRecord
100
AcDbLayerTableRecord
  2
가는실선
 70
     0
 62
     4
  6
Continuous
370
    -3
390
F
  0
LAYER
  5
76
330
2
100
AcDbSymbolTableRecord
100
AcDbLayerTableRecord
  2
치수_보조선
 70
     0
 62
     4
  6
Continuous
370
    -3
390
F
  0
LAYER
  5
77
330
2
100
AcDbSymbolTableRecord
100
AcDbLayerTableRecord
  2
치수문자_일반주서
 70
     0
 62
     7
  6
Continuous
370
    15
390
F
  0
LAYER
  5
78
330
2
100
AcDbSymbolTableRecord
100
AcDbLayerTableRecord
  2
개별주서
 70
     0
 62
   100
  6
Continuous
370
    30
390
F
  0
LAYER
  5
79
330
2
100
AcDbSymbolTableRecord
100
AcDbLayerTableRecord
  2
중간선
 70
     0
 62
     2
  6
Continuous
370
    15
390
F
  0
LAYER
  5
7A
330
2
100
AcDbSymbolTableRecord
100
AcDbLayerTableRecord
  2
윤곽선
 70
     0
 62
     3
  6
Continuous
370
    40
390
F
  0
LAYER
  5
7B
330
2
100
AcDbSymbolTableRecord
100
AcDbLayerTableRecord
  2
중심마크
 70
     0
 62
   100
  6
Continuous
370
    30
390
F
  0
LAYER
  5
7C
330
2
100
AcDbSymbolTableRecord
100
AcDbLayerTableRecord
  2
가상선
 70
     0
 62
     4
  6
PHANTOM
370
    -3
390
F
  0
LAYER
  5
7D
330
2
100
AcDbSymbolTableRecord
100
AcDbLayerTableRecord
  2
특수지정선
 70
     0
 62
     5
  6
CENTERX2
370
    60
390
F
  0
LAYER
  5
7E
330
2
100
AcDbSymbolTableRecord
100
AcDbLayerTableRecord
  2
참조1
 70
     0
 62
    -4
  6
Continuous
370
    -3
390
F
  0
LAYER
  5
15D
330
2
100
AcDbSymbolTableRecord
100
AcDbLayerTableRecord
  2
Defpoints
 70
     0
 62
     7
  6
Continuous
290
     0
370
    -3
390
F
  0
ENDTAB
  0
TABLE
  2
STYLE
  5
3
330
0
100
AcDbSymbolTable
 70
     2
  0
STYLE
  5
11
330
3
100
AcDbSymbolTableRecord
100
AcDbTextStyleTableRecord
  2
Standard
 70
     0
 40
0.0
 41
1.0
 50
0.0
 71
     0
 42
3.5
  3
txt
  4

  0
STYLE
  5
94
330
3
100
AcDbSymbolTableRecord
100
AcDbTextStyleTableRecord
  2
SLDTEXTSTYLE0
 70
     0
 40
0.0
 41
0.75
 50
0.0
 71
     0
 42
3.5
  3
TXT
  4

  0
ENDTAB
  0
TABLE
  2
VIEW
  5
6
330
0
100
AcDbSymbolTable
 70
     0
  0
ENDTAB
  0
TABLE
  2
UCS
  5
7
330
0
100
AcDbSymbolTable
 70
     0
  0
ENDTAB
  0
TABLE
  2
APPID
  5
9
330
0
100
AcDbSymbolTable
 70
     1
  0
APPID
  5
12
330
9
100
AcDbSymbolTableRecord
100
AcDbRegAppTableRecord
  2
ACAD
 70
     0
  0
ENDTAB
  0
TABLE
  2
DIMSTYLE
  5
A
330
0
100
AcDbSymbolTable
 70
     3
100
AcDbDimStyleTable
  0
DIMSTYLE
105
27
330
A
100
AcDbSymbolTableRecord
100
AcDbDimStyleTableRecord
  2
ISO-25
 70
     0
 41
2.5
 42
0.625
 43
3.75
 44
1.25
 73
     0
 74
     0
 77
     1
 78
     8
140
2.5
141
2.5
143
0.03937007874016
147
0.625
171
     3
172
     1
178
     0
271
     2
272
     2
274
     3
278
    44
283
     0
284
     8
340
11
  0
DIMSTYLE
105
D9
102
{ACAD_REACTORS
330
D8
330
ED
330
101
330
116
102
}
330
A
100
AcDbSymbolTableRecord
100
AcDbDimStyleTableRecord
  2
SLDDIMSTYLE0
 70
     0
 41
3.302
 44
0.0
 45
0.000000001
 73
     0
 74
     0
 77
     1
 78
    12
 79
     3
140
3.5
143
0.0393700787401575
147
0.875
148
0.000000001
170
     1
172
     1
173
     1
178
     0
271
     2
272
     2
276
     2
284
    12
289
     0
340
94
  0
DIMSTYLE
105
117
330
A
100
AcDbSymbolTableRecord
100
AcDbDimStyleTableRecord
  2
SLDDIMSTYLE1
 70
     0
 41
3.302
 44
0.0
 45
0.000000001
 73
     0
 74
     0
 77
     1
 78
     4
 79
     1
140
3.5
143
0.0393700787401575
147
0.875
148
0.000000001
170
     1
173
     1
178
     0
271
     2
272
     2
276
     2
284
    12
340
94
  0
ENDTAB
  0
TABLE
  2
BLOCK_RECORD
  5
1
330
0
100
AcDbSymbolTable
 70
    21
  0
BLOCK_RECORD
  5
1F
102
{ACAD_XDICTIONARY
360
3BF
102
}
330
1
100
AcDbSymbolTableRecord
100
AcDbBlockTableRecord
  2
*Model_Space
340
22
  0
BLOCK_RECORD
  5
1B
330
1
100
AcDbSymbolTableRecord
100
AcDbBlockTableRecord
  2
*Paper_Space
340
1E
  0
BLOCK_RECORD
  5
23
330
1
100
AcDbSymbolTableRecord
100
AcDbBlockTableRecord
  2
*Paper_Space0
340
26
  0
BLOCK_RECORD
  5
7F
330
1
100
AcDbSymbolTableRecord
100
AcDbBlockTableRecord
  2
블럭10
340
0
102
{BLKREFS
331
D1
102
}
  0
BLOCK_RECORD
  5
DA
330
1
100
AcDbSymbolTableRecord
100
AcDbBlockTableRecord
  2
_D
340
0
  0
BLOCK_RECORD
  5
EE
330
1
100
AcDbSymbolTableRecord
100
AcDbBlockTableRecord
  2
_D_1
340
0
  0
BLOCK_RECORD
  5
102
330
1
100
AcDbSymbolTableRecord
100
AcDbBlockTableRecord
  2
_D_2
340
0
  0
BLOCK_RECORD
  5
118
330
1
100
AcDbSymbolTableRecord
100
AcDbBlockTableRecord
  2
_D_3
340
0
  0
BLOCK_RECORD
  5
131
330
1
100
AcDbSymbolTableRecord
100
AcDbBlockTableRecord
  2
SW_DOWELSYMBOL_0
340
0
102
{BLKREFS
331
137
102
}
  0
BLOCK_RECORD
  5
217
330
1
100
AcDbSymbolTableRecord
100
AcDbBlockTableRecord
  2
*D7
340
0
  0
BLOCK_RECORD
  5
226
330
1
100
AcDbSymbolTableRecord
100
AcDbBlockTableRecord
  2
*D8
340
0
  0
BLOCK_RECORD
  5
232
330
1
100
AcDbSymbolTableRecord
100
AcDbBlockTableRecord
  2
*D9
340
0
  0
BLOCK_RECORD
  5
241
330
1
100
AcDbSymbolTableRecord
100
AcDbBlockTableRecord
  2
*D10
340
0
  0
BLOCK_RECORD
  5
2A2
330
1
100
AcDbSymbolTableRecord
100
AcDbBlockTableRecord
  2
*D11
340
0
  0
BLOCK_RECORD
  5
2B1
330
1
100
AcDbSymbolTableRecord
100
AcDbBlockTableRecord
  2
*D12
340
0
  0
BLOCK_RECORD
  5
2BD
330
1
100
AcDbSymbolTableRecord
100
AcDbBlockTableRecord
  2
*D13
340
0
  0
BLOCK_RECORD
  5
2CC
330
1
100
AcDbSymbolTableRecord
100
AcDbBlockTableRecord
  2
*D14
340
0
  0
BLOCK_RECORD
  5
312
330
1
100
AcDbSymbolTableRecord
100
AcDbBlockTableRecord
  2
*D15
340
0
  0
BLOCK_RECORD
  5
321
330
1
100
AcDbSymbolTableRecord
100
AcDbBlockTableRecord
  2
*D16
340
0
  0
BLOCK_RECORD
  5
330
330
1
100
AcDbSymbolTableRecord
100
AcDbBlockTableRecord
  2
*D17
340
0
  0
BLOCK_RECORD
  5
371
330
1
100
AcDbSymbolTableRecord
100
AcDbBlockTableRecord
  2
*D18
340
0
  0
BLOCK_RECORD
  5
380
330
1
100
AcDbSymbolTableRecord
100
AcDbBlockTableRecord
  2
*D19
340
0
  0
BLOCK_RECORD
  5
38F
330
1
100
AcDbSymbolTableRecord
100
AcDbBlockTableRecord
  2
*D20
340
0
  0
ENDTAB
  0
ENDSEC
  0
SECTION
  2
BLOCKS
  0
BLOCK
  5
20
330
1F
100
AcDbEntity
  8
0
100
AcDbBlockBegin
  2
*Model_Space
 70
     0
 10
0.0
 20
0.0
 30
0.0
  3
*Model_Space
  1
*Model_Space
  0
ENDBLK
  5
21
330
1F
100
AcDbEntity
  8
0
100
AcDbBlockEnd
  0
BLOCK
  5
1C
330
1B
100
AcDbEntity
 67
     1
  8
0
100
AcDbBlockBegin
  2
*Paper_Space
 70
     0
 10
0.0
 20
0.0
 30
0.0
  3
*Paper_Space
  1
*Paper_Space
  0
ENDBLK
  5
1D
330
1B
100
AcDbEntity
 67
     1
  8
0
100
AcDbBlockEnd
  0
BLOCK
  5
24
330
23
100
AcDbEntity
  8
0
100
AcDbBlockBegin
  2
*Paper_Space0
 70
     0
 10
0.0
 20
0.0
 30
0.0
  3
*Paper_Space0
  1
*Paper_Space0
  0
ENDBLK
  5
25
330
23
100
AcDbEntity
  8
0
100
AcDbBlockEnd
  0
BLOCK
  5
80
330
7F
100
AcDbEntity
  8
0
100
AcDbBlockBegin
  2
블럭10
 70
     2
 10
0.0
 20
0.0
 30
0.0
  3
블럭10
  1
블럭10
  0
ELLIPSE
  5
82
330
7F
100
AcDbEntity
  8
중심선
100
AcDbEllipse
 10
20.54032771741204
 20
12.0471743016438
 30
0.0
 11
6.600054785286829
 21
-1.261213355974178E-13
 31
0.0
210
0.0
220
0.0
230
1.0
 40
0.636358354079598
 41
0.9219305317359503
 42
6.513795318482858
  0
ELLIPSE
  5
83
330
7F
100
AcDbEntity
  8
중심선
100
AcDbEllipse
 10
20.54032771746488
 20
12.04717430159265
 30
0.0
 11
3.960054785062283
 21
1.540847449632565E-10
 31
0.0
210
0.0
220
0.0
230
1.0
 40
0.3939339440162632
 41
1.131841032648279
 42
5.62031148352944
  0
LINE
  5
84
330
7F
100
AcDbEntity
  8
중심선
100
AcDbLine
 10
2.268634060543552
 20
16.24717430164393
 30
0.0
 11
5.714909304380834
 21
16.24717430164393
 31
0.0
  0
LINE
  5
85
330
7F
100
AcDbEntity
  8
중심선
100
AcDbLine
 10
5.245725140726316
 20
7.84717430164391
 30
0.0
 11
8.692000384563599
 21
7.84717430164391
 31
0.0
  0
LINE
  5
86
330
7F
100
AcDbEntity
  8
중심선
100
AcDbLine
 10
15.74043728645272
 20
16.24717430164393
 30
0.0
 11
8.692000384563599
 21
7.84717430164391
 31
0.0
  0
LINE
  5
87
330
7F
100
AcDbEntity
  8
중심선
100
AcDbLine
 10
0.1404042013395286
 20
13.71084872107135
 30
0.0
 11
3.58671253028996
 21
13.71088815037384
 31
0.0
  0
LINE
  5
88
330
7F
100
AcDbEntity
  8
중심선
100
AcDbLine
 10
2.750260043222114
 20
10.84717430164391
 30
0.0
 11
6.196535287059397
 21
10.84717430164391
 31
0.0
  0
LINE
  5
89
330
7F
100
AcDbEntity
  8
중심선
100
AcDbLine
 10
12.29416204261559
 20
16.24717430164393
 30
0.0
 11
5.245725140726316
 21
7.84717430164391
 31
0.0
  0
LINE
  5
8A
330
7F
100
AcDbEntity
  8
중심선
100
AcDbLine
 10
10.72767329541681
 20
16.24717430164393
 30
0.0
 11
6.196535287059397
 21
10.84717430164391
 31
0.0
  0
LINE
  5
8B
330
7F
100
AcDbEntity
  8
중심선
100
AcDbLine
 10
7.28139805157953
 20
16.24717430164393
 30
0.0
 11
2.750260043222114
 21
10.84717430164391
 31
0.0
  0
LINE
  5
8C
330
7F
100
AcDbEntity
  8
중심선
100
AcDbLine
 10
5.714909304380834
 20
16.24717430164393
 30
0.0
 11
3.58671253028996
 21
13.71088815037384
 31
0.0
  0
LINE
  5
8D
330
7F
100
AcDbEntity
  8
중심선
100
AcDbLine
 10
2.268634060543552
 20
16.24717430164393
 30
0.0
 11
0.1404042013395286
 21
13.71084872107135
 31
0.0
  0
LINE
  5
8E
330
7F
100
AcDbEntity
  8
중심선
100
AcDbLine
 10
7.28139805157953
 20
16.24717430164393
 30
0.0
 11
10.72767329541681
 21
16.24717430164393
 31
0.0
  0
LINE
  5
8F
330
7F
100
AcDbEntity
  8
중심선
100
AcDbLine
 10
12.29416204261559
 20
16.24717430164393
 30
0.0
 11
15.74043728645272
 21
16.24717430164393
 31
0.0
  0
LINE
  5
90
330
7F
100
AcDbEntity
  8
중심선
100
AcDbLine
 10
19.22036997980202
 20
11.08717430171403
 30
0.0
 11
23.66174974927406
 21
11.08717430171406
 31
0.0
  0
LINE
  5
91
330
7F
100
AcDbEntity
  8
중심선
100
AcDbLine
 10
19.22039502424796
 20
13.00717430171391
 30
0.0
 11
19.22036997980202
 21
11.08717430171403
 31
0.0
  0
LINE
  5
92
330
7F
100
AcDbEntity
  8
중심선
100
AcDbLine
 10
19.22039502424796
 20
13.00717430171391
 30
0.0
 11
26.96566020931264
 21
13.00717430171391
 31
0.0
  0
LINE
  5
93
330
7F
100
AcDbEntity
  8
중심선
100
AcDbLine
 10
22.22332737316547
 20
13.45928029700563
 30
0.0
 11
24.52862924686651
 21
15.39360700705356
 31
0.0
  0
ATTDEF
  5
95
330
7F
100
AcDbEntity
  8
FORMAT
 62
     2
100
AcDbText
 10
4.408487351596664
 20
2.075366912832191
 30
0.0
 40
4.233333333333333
  1
E5022006
 41
0.75
  7
SLDTEXTSTYLE0
 11
4.408487351596664
 21
-0.0412997538344756
 31
0.0
100
AcDbAttributeDefinition
  3

  2
AUTOATTR0
 70
     0
 74
     1
  0
ENDBLK
  5
81
330
7F
100
AcDbEntity
  8
0
100
AcDbBlockEnd
  0
BLOCK
  5
DB
330
DA
100
AcDbEntity
  8
0
100
AcDbBlockBegin
  2
_D
 70
     0
 10
0.0
 20
0.0
 30
0.0
  3
_D
  1
_D
  0
LINE
  5
DD
330
DA
100
AcDbEntity
  8
치수문자_일반주서
 62
     0
370
    -2
100
AcDbLine
 10
-11.86884233574608
 20
1.587500000000009
 30
0.0
 11
-24.05773123120567
 21
1.587499999999963
 31
0.0
  0
LINE
  5
DE
330
DA
100
AcDbEntity
  8
치수문자_일반주서
 62
     0
370
    -2
100
AcDbLine
 10
-11.86884233574608
 20
-1.587499999999996
 30
0.0
 11
-24.05773123120566
 21
-1.587500000000041
 31
0.0
  0
LINE
  5
DF
330
DA
100
AcDbEntity
  8
치수문자_일반주서
 62
     0
370
    -2
100
AcDbLine
 10
-24.05773123120567
 20
1.587499999999963
 30
0.0
 11
-24.05773123120575
 21
24.74374999999997
 31
0.0
  0
LINE
  5
E0
330
DA
100
AcDbEntity
  8
치수문자_일반주서
 62
     0
370
    -2
100
AcDbLine
 10
-24.05773123120567
 20
1.587499999999963
 30
0.0
 11
-24.05773123120566
 21
-1.587500000000041
 31
0.0
  0
LINE
  5
E1
330
DA
100
AcDbEntity
  8
치수문자_일반주서
 62
     0
370
    -2
100
AcDbLine
 10
-24.05773123120568
 20
4.087499999999963
 30
0.0
 11
-24.05773123120569
 21
6.587499999999963
 31
0.0
  0
LINE
  5
E2
330
DA
100
AcDbEntity
  8
치수문자_일반주서
 62
     0
370
    -2
100
AcDbLine
 10
-24.05773123120565
 20
-4.087500000000041
 30
0.0
 11
-24.05773123120565
 21
-6.587500000000041
 31
0.0
  0
SOLID
  5
E3
330
DA
100
AcDbEntity
  8
치수문자_일반주서
 62
     0
100
AcDbTrace
 10
-24.47439789787235
 20
4.087499999999961
 30
0.0
 11
-23.64106456453901
 21
4.087499999999965
 31
0.0
 12
-24.05773123120567
 22
1.587499999999963
 32
0.0
 13
-24.05773123120567
 23
1.587499999999963
 33
0.0
  0
SOLID
  5
E4
330
DA
100
AcDbEntity
  8
치수문자_일반주서
 62
     0
100
AcDbTrace
 10
-23.64106456453899
 20
-4.087500000000039
 30
0.0
 11
-24.47439789787232
 21
-4.087500000000043
 31
0.0
 12
-24.05773123120566
 22
-1.587500000000041
 32
0.0
 13
-24.05773123120566
 23
-1.587500000000041
 33
0.0
  0
MTEXT
  5
E5
330
DA
100
AcDbEntity
  8
치수문자_일반주서
 62
     0
100
AcDbMText
 10
-27.43273123120572
 20
15.74374999999996
 30
0.0
 40
2.5
 41
0.0
 71
     2
 72
     1
  1
\A1;%%c3.18 [1/8]
  7
SLDTEXTSTYLE0
 11
-3.356894814614642E-15
 21
1.0
 31
0.0
 73
     1
 44
1.0
  0
POINT
  5
2DA
330
DA
100
AcDbEntity
  8
Defpoints
 62
     0
100
AcDbPoint
 10
-11.80634233574608
 20
1.587500000000009
 30
0.0
  0
POINT
  5
2DB
330
DA
100
AcDbEntity
  8
Defpoints
 62
     0
100
AcDbPoint
 10
-11.80634233574608
 20
-1.587499999999995
 30
0.0
  0
POINT
  5
2DC
330
DA
100
AcDbEntity
  8
Defpoints
 62
     0
100
AcDbPoint
 10
-24.05773123120566
 20
-1.587500000000041
 30
0.0
  0
ENDBLK
  5
DC
330
DA
100
AcDbEntity
  8
0
100
AcDbBlockEnd
  0
BLOCK
  5
EF
330
EE
100
AcDbEntity
  8
0
100
AcDbBlockBegin
  2
_D_1
 70
     0
 10
0.0
 20
0.0
 30
0.0
  3
_D_1
  1
_D_1
  0
LINE
  5
F1
330
EE
100
AcDbEntity
  8
치수문자_일반주서
 62
     0
370
    -2
100
AcDbLine
 10
19.11250000000001
 20
-1.189618701882793
 30
0.0
 11
29.24489868344793
 21
-1.189618701882754
 31
0.0
  0
LINE
  5
F2
330
EE
100
AcDbEntity
  8
치수문자_일반주서
 62
     0
370
    -2
100
AcDbLine
 10
19.11250000000001
 20
1.189618701882796
 30
0.0
 11
29.24489868344792
 21
1.189618701882834
 31
0.0
  0
LINE
  5
F3
330
EE
100
AcDbEntity
  8
치수문자_일반주서
 62
     0
370
    -2
100
AcDbLine
 10
29.24489868344792
 20
1.189618701882834
 30
0.0
 11
29.24489868344785
 21
27.31461870188284
 31
0.0
  0
LINE
  5
F4
330
EE
100
AcDbEntity
  8
치수문자_일반주서
 62
     0
370
    -2
100
AcDbLine
 10
29.24489868344793
 20
-1.189618701882754
 30
0.0
 11
29.24489868344792
 21
1.189618701882834
 31
0.0
  0
LINE
  5
F5
330
EE
100
AcDbEntity
  8
치수문자_일반주서
 62
     0
370
    -2
100
AcDbLine
 10
29.24489868344794
 20
-3.689618701882754
 30
0.0
 11
29.24489868344795
 21
-6.189618701882754
 31
0.0
  0
LINE
  5
F6
330
EE
100
AcDbEntity
  8
치수문자_일반주서
 62
     0
370
    -2
100
AcDbLine
 10
29.24489868344792
 20
3.689618701882834
 30
0.0
 11
29.24489868344791
 21
6.189618701882834
 31
0.0
  0
SOLID
  5
F7
330
EE
100
AcDbEntity
  8
치수문자_일반주서
 62
     0
100
AcDbTrace
 10
29.66156535011461
 20
-3.689618701882753
 30
0.0
 11
28.82823201678127
 21
-3.689618701882755
 31
0.0
 12
29.24489868344793
 22
-1.189618701882754
 32
0.0
 13
29.24489868344793
 23
-1.189618701882754
 33
0.0
  0
SOLID
  5
F8
330
EE
100
AcDbEntity
  8
치수문자_일반주서
 62
     0
100
AcDbTrace
 10
28.82823201678125
 20
3.689618701882833
 30
0.0
 11
29.66156535011459
 21
3.689618701882835
 31
0.0
 12
29.24489868344792
 22
1.189618701882834
 32
0.0
 13
29.24489868344792
 23
1.189618701882834
 33
0.0
  0
MTEXT
  5
F9
330
EE
100
AcDbEntity
  8
치수문자_일반주서
 62
     0
100
AcDbMText
 10
25.86989868344788
 20
16.75211870188283
 30
0.0
 40
2.5
 41
0.0
 71
     2
 72
     1
  1
\A1;%%c2.38 [3/32]
  7
SLDTEXTSTYLE0
 11
-2.986430587529992E-15
 21
1.0
 31
0.0
 73
     1
 44
1.0
  0
POINT
  5
FA
330
EE
100
AcDbEntity
  8
Defpoints
 62
     0
100
AcDbPoint
 10
19.05000000000001
 20
-1.189618701882793
 30
0.0
  0
POINT
  5
FB
330
EE
100
AcDbEntity
  8
Defpoints
 62
     0
100
AcDbPoint
 10
19.05000000000001
 20
1.189618701882796
 30
0.0
  0
POINT
  5
FC
330
EE
100
AcDbEntity
  8
Defpoints
 62
     0
100
AcDbPoint
 10
29.24489868344792
 20
1.189618701882834
 30
0.0
  0
ENDBLK
  5
F0
330
EE
100
AcDbEntity
  8
0
100
AcDbBlockEnd
  0
BLOCK
  5
103
330
102
100
AcDbEntity
  8
0
100
AcDbBlockBegin
  2
_D_2
 70
     0
 10
0.0
 20
0.0
 30
0.0
  3
_D_2
  1
_D_2
  0
LINE
  5
105
330
102
100
AcDbEntity
  8
치수문자_일반주서
 62
     0
370
    -2
100
AcDbLine
 10
19.05000000000001
 20
1.252118701882796
 30
0.0
 11
19.05000000000001
 21
13.58507242606173
 31
0.0
  0
LINE
  5
106
330
102
100
AcDbEntity
  8
치수문자_일반주서
 62
     0
370
    -2
100
AcDbLine
 10
14.28750000000001
 20
1.100767073927448
 30
0.0
 11
14.28750000000001
 21
13.58507242606173
 31
0.0
  0
LINE
  5
107
330
102
100
AcDbEntity
  8
치수문자_일반주서
 62
     0
370
    -2
100
AcDbLine
 10
14.28750000000001
 20
13.58507242606173
 30
0.0
 11
-9.33749999999999
 21
13.58507242606173
 31
0.0
  0
LINE
  5
108
330
102
100
AcDbEntity
  8
치수문자_일반주서
 62
     0
370
    -2
100
AcDbLine
 10
19.05000000000001
 20
13.58507242606173
 30
0.0
 11
14.28750000000001
 21
13.58507242606173
 31
0.0
  0
LINE
  5
109
330
102
100
AcDbEntity
  8
치수문자_일반주서
 62
     0
370
    -2
100
AcDbLine
 10
21.55000000000001
 20
13.58507242606173
 30
0.0
 11
24.05000000000001
 21
13.58507242606173
 31
0.0
  0
LINE
  5
10A
330
102
100
AcDbEntity
  8
치수문자_일반주서
 62
     0
370
    -2
100
AcDbLine
 10
11.78750000000001
 20
13.58507242606173
 30
0.0
 11
9.28750000000001
 21
13.58507242606173
 31
0.0
  0
SOLID
  5
10B
330
102
100
AcDbEntity
  8
치수문자_일반주서
 62
     0
100
AcDbTrace
 10
21.55000000000001
 20
14.00173909272839
 30
0.0
 11
21.55000000000001
 21
13.16840575939506
 31
0.0
 12
19.05000000000001
 22
13.58507242606173
 32
0.0
 13
19.05000000000001
 23
13.58507242606173
 33
0.0
  0
SOLID
  5
10C
330
102
100
AcDbEntity
  8
치수문자_일반주서
 62
     0
100
AcDbTrace
 10
11.78750000000001
 20
13.16840575939506
 30
0.0
 11
11.78750000000001
 21
14.00173909272839
 31
0.0
 12
14.28750000000001
 22
13.58507242606173
 32
0.0
 13
14.28750000000001
 23
13.58507242606173
 33
0.0
  0
MTEXT
  5
10D
330
102
100
AcDbEntity
  8
치수문자_일반주서
 62
     0
100
AcDbMText
 10
-0.0249999999999897
 20
16.96007242606173
 30
0.0
 40
2.5
 41
0.0
 71
     2
 72
     1
  1
\A1;4.76 [3/16]
  7
SLDTEXTSTYLE0
 73
     1
 44
1.0
  0
POINT
  5
10E
330
102
100
AcDbEntity
  8
Defpoints
 62
     0
100
AcDbPoint
 10
19.05000000000001
 20
1.189618701882796
 30
0.0
  0
POINT
  5
10F
330
102
100
AcDbEntity
  8
Defpoints
 62
     0
100
AcDbPoint
 10
14.28750000000001
 20
1.038267073927448
 30
0.0
  0
POINT
  5
110
330
102
100
AcDbEntity
  8
Defpoints
 62
     0
100
AcDbPoint
 10
14.28750000000001
 20
13.58507242606173
 30
0.0
  0
ENDBLK
  5
104
330
102
100
AcDbEntity
  8
0
100
AcDbBlockEnd
  0
BLOCK
  5
119
330
118
100
AcDbEntity
  8
0
100
AcDbBlockBegin
  2
_D_3
 70
     0
 10
0.0
 20
0.0
 30
0.0
  3
_D_3
  1
_D_3
  0
LINE
  5
11B
330
118
100
AcDbEntity
  8
치수문자_일반주서
 62
     0
370
    -2
100
AcDbLine
 10
-19.04999999999998
 20
1.252118701882796
 30
0.0
 11
-19.04999999999998
 21
21.38307187380641
 31
0.0
  0
LINE
  5
11C
330
118
100
AcDbEntity
  8
치수문자_일반주서
 62
     0
370
    -2
100
AcDbLine
 10
19.05000000000001
 20
1.252118701882796
 30
0.0
 11
19.05000000000001
 21
21.38307187380641
 31
0.0
  0
LINE
  5
11D
330
118
100
AcDbEntity
  8
치수문자_일반주서
 62
     0
370
    -2
100
AcDbLine
 10
-16.54999999999998
 20
21.38307187380641
 30
0.0
 11
16.55000000000001
 21
21.38307187380641
 31
0.0
  0
SOLID
  5
11E
330
118
100
AcDbEntity
  8
치수문자_일반주서
 62
     0
100
AcDbTrace
 10
-16.54999999999998
 20
21.79973854047308
 30
0.0
 11
-16.54999999999998
 21
20.96640520713975
 31
0.0
 12
-19.04999999999998
 22
21.38307187380641
 32
0.0
 13
-19.04999999999998
 23
21.38307187380641
 33
0.0
  0
SOLID
  5
11F
330
118
100
AcDbEntity
  8
치수문자_일반주서
 62
     0
100
AcDbTrace
 10
16.55000000000001
 20
20.96640520713975
 30
0.0
 11
16.55000000000001
 21
21.79973854047308
 31
0.0
 12
19.05000000000001
 22
21.38307187380641
 32
0.0
 13
19.05000000000001
 23
21.38307187380641
 33
0.0
  0
MTEXT
  5
120
330
118
100
AcDbEntity
  8
치수문자_일반주서
 62
     0
100
AcDbMText
 10
5.360139025846197
 20
24.75807187380641
 30
0.0
 40
2.5
 41
0.0
 71
     2
 72
     1
  1
\A1;38.1 [1 1/2]
  7
SLDTEXTSTYLE0
 73
     1
 44
1.0
  0
POINT
  5
121
330
118
100
AcDbEntity
  8
Defpoints
 62
     0
100
AcDbPoint
 10
-19.04999999999998
 20
1.189618701882796
 30
0.0
  0
POINT
  5
122
330
118
100
AcDbEntity
  8
Defpoints
 62
     0
100
AcDbPoint
 10
19.05000000000001
 20
1.189618701882796
 30
0.0
  0
POINT
  5
123
330
118
100
AcDbEntity
  8
Defpoints
 62
     0
100
AcDbPoint
 10
19.05000000000001
 20
21.38307187380641
 30
0.0
  0
ENDBLK
  5
11A
330
118
100
AcDbEntity
  8
0
100
AcDbBlockEnd
  0
BLOCK
  5
132
330
131
100
AcDbEntity
  8
0
100
AcDbBlockBegin
  2
SW_DOWELSYMBOL_0
 70
     0
 10
0.0
 20
0.0
 30
0.0
  3
SW_DOWELSYMBOL_0
  1
SW_DOWELSYMBOL_0
  0
CIRCLE
  5
134
330
131
100
AcDbEntity
  8
해칭선
 62
     0
100
AcDbCircle
 10
0.0
 20
0.0
 30
0.0
 40
3.000000000000001
  0
HATCH
  5
135
330
131
100
AcDbEntity
  8
0
  6
Continuous
 62
     0
370
     0
100
AcDbHatch
 10
0.0
 20
0.0
 30
0.0
210
0.0
220
0.0
230
1.0
  2
SOLID
 70
     1
 71
     0
 91
        1
 92
        0
 93
        3
 72
     2
 10
0.0
 20
0.0
 40
3.000000000000001
 50
0.0
 51
90.0
 73
     1
 72
     1
 10
0.0
 20
3.000000000000001
 11
0.0
 21
0.0
 72
     1
 10
0.0
 20
0.0
 11
3.000000000000001
 21
0.0
 97
        0
 75
     0
 76
     1
 98
        1
 10
0.0
 20
0.0
  0
HATCH
  5
136
330
131
100
AcDbEntity
  8
0
  6
Continuous
 62
     0
370
     0
100
AcDbHatch
 10
0.0
 20
0.0
 30
0.0
210
0.0
220
0.0
230
1.0
  2
SOLID
 70
     1
 71
     0
 91
        1
 92
        0
 93
        3
 72
     2
 10
0.0
 20
0.0
 40
3.000000000000001
 50
180.0
 51
270.0000000000007
 73
     1
 72
     1
 10
0.0
 20
-3.000000000000001
 11
0.0
 21
0.0
 72
     1
 10
0.0
 20
0.0
 11
-3.000000000000001
 21
0.0
 97
        0
 75
     0
 76
     1
 98
        1
 10
0.0
 20
0.0
  0
ENDBLK
  5
133
330
131
100
AcDbEntity
  8
0
100
AcDbBlockEnd
  0
BLOCK
  5
218
330
217
100
AcDbEntity
  8
0
100
AcDbBlockBegin
  2
*D7
 70
     1
 10
0.0
 20
0.0
 30
0.0
  3
*D7
  1
*D8
  0
LINE
  5
21A
330
217
100
AcDbEntity
  8
치수문자_일반주서
 62
     0
370
    -2
100
AcDbLine
 10
71.43750000000006
 20
10.20053740206972
 30
0.0
 11
79.375
 21
10.20053740206975
 31
0.0
  0
LINE
  5
21B
330
217
100
AcDbEntity
  8
치수문자_일반주서
 62
     0
370
    -2
100
AcDbLine
 10
71.43750000000006
 20
11.70053740206973
 30
0.0
 11
79.375
 21
11.70053740206976
 31
0.0
  0
LINE
  5
21C
330
217
100
AcDbEntity
  8
치수문자_일반주서
 62
     0
370
    -2
100
AcDbLine
 10
79.375
 20
11.70053740206976
 30
0.0
 11
79.375
 21
35.42953740206976
 31
0.0
  0
LINE
  5
21D
330
217
100
AcDbEntity
  8
치수문자_일반주서
 62
     0
370
    -2
100
AcDbLine
 10
79.375
 20
10.20053740206975
 30
0.0
 11
79.375
 21
11.70053740206976
 31
0.0
  0
LINE
  5
21E
330
217
100
AcDbEntity
  8
치수문자_일반주서
 62
     0
370
    -2
100
AcDbLine
 10
79.375
 20
7.700537402069752
 30
0.0
 11
79.375
 21
5.200537402069752
 31
0.0
  0
LINE
  5
21F
330
217
100
AcDbEntity
  8
치수문자_일반주서
 62
     0
370
    -2
100
AcDbLine
 10
79.375
 20
14.20053740206976
 30
0.0
 11
79.375
 21
16.70053740206976
 31
0.0
  0
SOLID
  5
220
330
217
100
AcDbEntity
  8
치수문자_일반주서
 62
     0
100
AcDbTrace
 10
79.79166666666667
 20
7.700537402069752
 30
0.0
 11
78.95833333333333
 21
7.700537402069752
 31
0.0
 12
79.375
 22
10.20053740206975
 32
0.0
 13
79.375
 23
10.20053740206975
 33
0.0
  0
SOLID
  5
221
330
217
100
AcDbEntity
  8
치수문자_일반주서
 62
     0
100
AcDbTrace
 10
78.95833333333333
 20
14.20053740206976
 30
0.0
 11
79.79166666666667
 21
14.20053740206976
 31
0.0
 12
79.375
 22
11.70053740206976
 32
0.0
 13
79.375
 23
11.70053740206976
 33
0.0
  0
MTEXT
  5
222
330
217
100
AcDbEntity
  8
치수문자_일반주서
 62
     0
100
AcDbMText
 10
76.0
 20
27.05453740206976
 30
0.0
 40
2.5
 41
0.0
 71
     2
 72
     1
  1
\A1;%%c1.5 [0.06]
  7
SLDTEXTSTYLE0
 11
0.0
 21
1.0
 31
0.0
 73
     1
 44
1.0
  0
POINT
  5
223
330
217
100
AcDbEntity
  8
Defpoints
 62
     0
100
AcDbPoint
 10
71.37500000000006
 20
10.20053740206972
 30
0.0
  0
POINT
  5
224
330
217
100
AcDbEntity
  8
Defpoints
 62
     0
100
AcDbPoint
 10
71.37500000000006
 20
11.70053740206973
 30
0.0
  0
POINT
  5
225
330
217
100
AcDbEntity
  8
Defpoints
 62
     0
100
AcDbPoint
 10
79.37500000000003
 20
11.70053740206976
 30
0.0
  0
ENDBLK
  5
219
330
217
100
AcDbEntity
  8
0
100
AcDbBlockEnd
  0
BLOCK
  5
227
330
226
100
AcDbEntity
  8
0
100
AcDbBlockBegin
  2
*D8
 70
     1
 10
0.0
 20
0.0
 30
0.0
  3
*D8
  1
*D9
  0
LINE
  5
229
330
226
100
AcDbEntity
  8
치수문자_일반주서
 62
     0
370
    -2
100
AcDbLine
 10
11.37500000000006
 20
13.51303740206972
 30
0.0
 11
11.37500000000006
 21
31.33967000365137
 31
0.0
  0
LINE
  5
22A
330
226
100
AcDbEntity
  8
치수문자_일반주서
 62
     0
370
    -2
100
AcDbLine
 10
71.37500000000006
 20
11.76303740206973
 30
0.0
 11
71.37500000000006
 21
31.33967000365137
 31
0.0
  0
LINE
  5
22B
330
226
100
AcDbEntity
  8
치수문자_일반주서
 62
     0
370
    -2
100
AcDbLine
 10
13.87500000000006
 20
31.33967000365137
 30
0.0
 11
68.87500000000006
 21
31.33967000365137
 31
0.0
  0
SOLID
  5
22C
330
226
100
AcDbEntity
  8
치수문자_일반주서
 62
     0
100
AcDbTrace
 10
13.87500000000006
 20
31.75633667031804
 30
0.0
 11
13.87500000000006
 21
30.9230033369847
 31
0.0
 12
11.37500000000006
 22
31.33967000365137
 32
0.0
 13
11.37500000000006
 23
31.33967000365137
 33
0.0
  0
SOLID
  5
22D
330
226
100
AcDbEntity
  8
치수문자_일반주서
 62
     0
100
AcDbTrace
 10
68.87500000000006
 20
30.9230033369847
 30
0.0
 11
68.87500000000006
 21
31.75633667031804
 31
0.0
 12
71.37500000000006
 22
31.33967000365137
 32
0.0
 13
71.37500000000006
 23
31.33967000365137
 33
0.0
  0
MTEXT
  5
22E
330
226
100
AcDbEntity
  8
치수문자_일반주서
 62
     0
100
AcDbMText
 10
41.37500000000006
 20
34.71467000365137
 30
0.0
 40
2.5
 41
0.0
 71
     2
 72
     1
  1
\A1;60 [2.36]
  7
SLDTEXTSTYLE0
 73
     1
 44
1.0
  0
POINT
  5
22F
330
226
100
AcDbEntity
  8
Defpoints
 62
     0
100
AcDbPoint
 10
11.37500000000006
 20
13.45053740206972
 30
0.0
  0
POINT
  5
230
330
226
100
AcDbEntity
  8
Defpoints
 62
     0
100
AcDbPoint
 10
71.37500000000006
 20
11.70053740206973
 30
0.0
  0
POINT
  5
231
330
226
100
AcDbEntity
  8
Defpoints
 62
     0
100
AcDbPoint
 10
71.37500000000006
 20
31.33967000365137
 30
0.0
  0
ENDBLK
  5
228
330
226
100
AcDbEntity
  8
0
100
AcDbBlockEnd
  0
BLOCK
  5
233
330
232
100
AcDbEntity
  8
0
100
AcDbBlockBegin
  2
*D9
 70
     1
 10
0.0
 20
0.0
 30
0.0
  3
*D9
  1
*D10
  0
LINE
  5
235
330
232
100
AcDbEntity
  8
치수문자_일반주서
 62
     0
370
    -2
100
AcDbLine
 10
11.81250000000006
 20
13.95053740206973
 30
0.0
 11
3.375000000000041
 21
13.9505374020697
 31
0.0
  0
LINE
  5
236
330
232
100
AcDbEntity
  8
치수문자_일반주서
 62
     0
370
    -2
100
AcDbLine
 10
11.81250000000006
 20
7.950537402069727
 30
0.0
 11
3.375000000000062
 21
7.950537402069696
 31
0.0
  0
LINE
  5
237
330
232
100
AcDbEntity
  8
치수문자_일반주서
 62
     0
370
    -2
100
AcDbLine
 10
3.375000000000041
 20
13.9505374020697
 30
0.0
 11
3.374999999999971
 21
34.1380374020697
 31
0.0
  0
LINE
  5
238
330
232
100
AcDbEntity
  8
치수문자_일반주서
 62
     0
370
    -2
100
AcDbLine
 10
3.375000000000041
 20
13.9505374020697
 30
0.0
 11
3.375000000000062
 21
7.950537402069696
 31
0.0
  0
LINE
  5
239
330
232
100
AcDbEntity
  8
치수문자_일반주서
 62
     0
370
    -2
100
AcDbLine
 10
3.375000000000032
 20
16.4505374020697
 30
0.0
 11
3.375000000000023
 21
18.9505374020697
 31
0.0
  0
LINE
  5
23A
330
232
100
AcDbEntity
  8
치수문자_일반주서
 62
     0
370
    -2
100
AcDbLine
 10
3.375000000000071
 20
5.450537402069696
 30
0.0
 11
3.375000000000079
 21
2.950537402069696
 31
0.0
  0
SOLID
  5
23B
330
232
100
AcDbEntity
  8
치수문자_일반주서
 62
     0
100
AcDbTrace
 10
2.958333333333365
 20
16.4505374020697
 30
0.0
 11
3.791666666666698
 21
16.4505374020697
 31
0.0
 12
3.375000000000041
 22
13.9505374020697
 32
0.0
 13
3.375000000000041
 23
13.9505374020697
 33
0.0
  0
SOLID
  5
23C
330
232
100
AcDbEntity
  8
치수문자_일반주서
 62
     0
100
AcDbTrace
 10
3.791666666666737
 20
5.450537402069697
 30
0.0
 11
2.958333333333404
 21
5.450537402069694
 31
0.0
 12
3.375000000000062
 22
7.950537402069696
 32
0.0
 13
3.375000000000062
 23
7.950537402069696
 33
0.0
  0
MTEXT
  5
23D
330
232
100
AcDbEntity
  8
치수문자_일반주서
 62
     0
100
AcDbMText
 10
-0.0000000000000031
 20
26.54428740206969
 30
0.0
 40
2.5
 41
0.0
 71
     2
 72
     1
  1
\A1;%%c6 [0.24]
  7
SLDTEXTSTYLE0
 11
-3.478698810492154E-15
 21
1.0
 31
0.0
 73
     1
 44
1.0
  0
POINT
  5
23E
330
232
100
AcDbEntity
  8
Defpoints
 62
     0
100
AcDbPoint
 10
11.87500000000006
 20
13.95053740206973
 30
0.0
  0
POINT
  5
23F
330
232
100
AcDbEntity
  8
Defpoints
 62
     0
100
AcDbPoint
 10
11.87500000000006
 20
7.950537402069727
 30
0.0
  0
POINT
  5
240
330
232
100
AcDbEntity
  8
Defpoints
 62
     0
100
AcDbPoint
 10
3.375000000000057
 20
7.950537402069696
 30
0.0
  0
ENDBLK
  5
234
330
232
100
AcDbEntity
  8
0
100
AcDbBlockEnd
  0
BLOCK
  5
242
330
241
100
AcDbEntity
  8
0
100
AcDbBlockBegin
  2
*D10
 70
     1
 10
0.0
 20
0.0
 30
0.0
  3
*D10
  1
*D11
  0
LINE
  5
244
330
241
100
AcDbEntity
  8
치수문자_일반주서
 62
     0
370
    -2
100
AcDbLine
 10
65.37500000000006
 20
11.72584006941095
 30
0.0
 11
65.37500000000006
 21
22.5092583719986
 31
0.0
  0
LINE
  5
245
330
241
100
AcDbEntity
  8
치수문자_일반주서
 62
     0
370
    -2
100
AcDbLine
 10
71.37500000000006
 20
11.76303740206973
 30
0.0
 11
71.37500000000006
 21
22.5092583719986
 31
0.0
  0
LINE
  5
246
330
241
100
AcDbEntity
  8
치수문자_일반주서
 62
     0
370
    -2
100
AcDbLine
 10
65.37500000000006
 20
22.5092583719986
 30
0.0
 11
71.37500000000006
 21
22.5092583719986
 31
0.0
  0
LINE
  5
247
330
241
100
AcDbEntity
  8
치수문자_일반주서
 62
     0
370
    -2
100
AcDbLine
 10
62.87500000000006
 20
22.5092583719986
 30
0.0
 11
60.37500000000006
 21
22.5092583719986
 31
0.0
  0
LINE
  5
248
330
241
100
AcDbEntity
  8
치수문자_일반주서
 62
     0
370
    -2
100
AcDbLine
 10
73.87500000000006
 20
22.5092583719986
 30
0.0
 11
76.37500000000006
 21
22.5092583719986
 31
0.0
  0
SOLID
  5
249
330
241
100
AcDbEntity
  8
치수문자_일반주서
 62
     0
100
AcDbTrace
 10
62.87500000000006
 20
22.09259170533193
 30
0.0
 11
62.87500000000006
 21
22.92592503866527
 31
0.0
 12
65.37500000000006
 22
22.5092583719986
 32
0.0
 13
65.37500000000006
 23
22.5092583719986
 33
0.0
  0
SOLID
  5
24A
330
241
100
AcDbEntity
  8
치수문자_일반주서
 62
     0
100
AcDbTrace
 10
73.87500000000006
 20
22.92592503866527
 30
0.0
 11
73.87500000000006
 21
22.09259170533193
 31
0.0
 12
71.37500000000006
 22
22.5092583719986
 32
0.0
 13
71.37500000000006
 23
22.5092583719986
 33
0.0
  0
MTEXT
  5
24B
330
241
100
AcDbEntity
  8
치수문자_일반주서
 62
     0
100
AcDbMText
 10
68.37500000000006
 20
25.8842583719986
 30
0.0
 40
2.5
 41
0.0
 71
     2
 72
     1
  1
\A1;6 [0.24]
  7
SLDTEXTSTYLE0
 73
     1
 44
1.0
  0
POINT
  5
24C
330
241
100
AcDbEntity
  8
Defpoints
 62
     0
100
AcDbPoint
 10
65.37500000000006
 20
11.66334006941095
 30
0.0
  0
POINT
  5
24D
330
241
100
AcDbEntity
  8
Defpoints
 62
     0
100
AcDbPoint
 10
71.37500000000006
 20
11.70053740206973
 30
0.0
  0
POINT
  5
24E
330
241
100
AcDbEntity
  8
Defpoints
 62
     0
100
AcDbPoint
 10
71.37500000000006
 20
22.5092583719986
 30
0.0
  0
ENDBLK
  5
243
330
241
100
AcDbEntity
  8
0
100
AcDbBlockEnd
  0
BLOCK
  5
2A3
330
2A2
100
AcDbEntity
  8
0
100
AcDbBlockBegin
  2
*D11
 70
     1
 10
0.0
 20
0.0
 30
0.0
  3
*D11
  1
*D12
  0
LINE
  5
2A5
330
2A2
100
AcDbEntity
  8
치수문자_일반주서
 62
     0
370
    -2
100
AcDbLine
 10
23.06904262640184
 20
71.01043365246346
 30
0.0
 11
31.00654262640182
 21
71.01043365246349
 31
0.0
  0
LINE
  5
2A6
330
2A2
100
AcDbEntity
  8
치수문자_일반주서
 62
     0
370
    -2
100
AcDbLine
 10
23.06904262640184
 20
72.51043365246346
 30
0.0
 11
31.00654262640182
 21
72.51043365246349
 31
0.0
  0
LINE
  5
2A7
330
2A2
100
AcDbEntity
  8
치수문자_일반주서
 62
     0
370
    -2
100
AcDbLine
 10
31.00654262640182
 20
72.51043365246349
 30
0.0
 11
31.00654262640176
 21
96.2394336524635
 31
0.0
  0
LINE
  5
2A8
330
2A2
100
AcDbEntity
  8
치수문자_일반주서
 62
     0
370
    -2
100
AcDbLine
 10
31.00654262640182
 20
71.01043365246349
 30
0.0
 11
31.00654262640182
 21
72.51043365246349
 31
0.0
  0
LINE
  5
2A9
330
2A2
100
AcDbEntity
  8
치수문자_일반주서
 62
     0
370
    -2
100
AcDbLine
 10
31.00654262640183
 20
68.51043365246349
 30
0.0
 11
31.00654262640183
 21
66.01043365246349
 31
0.0
  0
LINE
  5
2AA
330
2A2
100
AcDbEntity
  8
치수문자_일반주서
 62
     0
370
    -2
100
AcDbLine
 10
31.00654262640181
 20
75.01043365246349
 30
0.0
 11
31.0065426264018
 21
77.51043365246349
 31
0.0
  0
SOLID
  5
2AB
330
2A2
100
AcDbEntity
  8
치수문자_일반주서
 62
     0
100
AcDbTrace
 10
31.4232092930685
 20
68.51043365246349
 30
0.0
 11
30.58987595973516
 21
68.51043365246349
 31
0.0
 12
31.00654262640182
 22
71.01043365246349
 32
0.0
 13
31.00654262640182
 23
71.01043365246349
 33
0.0
  0
SOLID
  5
2AC
330
2A2
100
AcDbEntity
  8
치수문자_일반주서
 62
     0
100
AcDbTrace
 10
30.58987595973514
 20
75.01043365246349
 30
0.0
 11
31.42320929306848
 21
75.01043365246349
 31
0.0
 12
31.00654262640182
 22
72.51043365246349
 32
0.0
 13
31.00654262640182
 23
72.51043365246349
 33
0.0
  0
MTEXT
  5
2AD
330
2A2
100
AcDbEntity
  8
치수문자_일반주서
 62
     0
100
AcDbMText
 10
27.63154262640178
 20
87.8644336524635
 30
0.0
 40
2.5
 41
0.0
 71
     2
 72
     1
  1
\A1;%%c1.5 [0.06]
  7
SLDTEXTSTYLE0
 11
-2.368475785867000E-15
 21
1.0
 31
0.0
 73
     1
 44
1.0
  0
POINT
  5
2AE
330
2A2
100
AcDbEntity
  8
Defpoints
 62
     0
100
AcDbPoint
 10
23.00654262640184
 20
71.01043365246346
 30
0.0
  0
POINT
  5
2AF
330
2A2
100
AcDbEntity
  8
Defpoints
 62
     0
100
AcDbPoint
 10
23.00654262640184
 20
72.51043365246346
 30
0.0
  0
POINT
  5
2B0
330
2A2
100
AcDbEntity
  8
Defpoints
 62
     0
100
AcDbPoint
 10
31.00654262640178
 20
72.51043365246349
 30
0.0
  0
ENDBLK
  5
2A4
330
2A2
100
AcDbEntity
  8
0
100
AcDbBlockEnd
  0
BLOCK
  5
2B2
330
2B1
100
AcDbEntity
  8
0
100
AcDbBlockBegin
  2
*D12
 70
     1
 10
0.0
 20
0.0
 30
0.0
  3
*D12
  1
*D13
  0
LINE
  5
2B4
330
2B1
100
AcDbEntity
  8
치수문자_일반주서
 62
     0
370
    -2
100
AcDbLine
 10
-36.99345737359816
 20
74.32293365246346
 30
0.0
 11
-36.99345737359816
 21
92.14956625404511
 31
0.0
  0
LINE
  5
2B5
330
2B1
100
AcDbEntity
  8
치수문자_일반주서
 62
     0
370
    -2
100
AcDbLine
 10
23.00654262640184
 20
72.57293365246346
 30
0.0
 11
23.00654262640184
 21
92.14956625404511
 31
0.0
  0
LINE
  5
2B6
330
2B1
100
AcDbEntity
  8
치수문자_일반주서
 62
     0
370
    -2
100
AcDbLine
 10
-34.49345737359816
 20
92.14956625404511
 30
0.0
 11
20.50654262640184
 21
92.14956625404511
 31
0.0
  0
SOLID
  5
2B7
330
2B1
100
AcDbEntity
  8
치수문자_일반주서
 62
     0
100
AcDbTrace
 10
-34.49345737359816
 20
92.56623292071178
 30
0.0
 11
-34.49345737359816
 21
91.73289958737844
 31
0.0
 12
-36.99345737359816
 22
92.14956625404511
 32
0.0
 13
-36.99345737359816
 23
92.14956625404511
 33
0.0
  0
SOLID
  5
2B8
330
2B1
100
AcDbEntity
  8
치수문자_일반주서
 62
     0
100
AcDbTrace
 10
20.50654262640184
 20
91.73289958737844
 30
0.0
 11
20.50654262640184
 21
92.56623292071178
 31
0.0
 12
23.00654262640184
 22
92.14956625404511
 32
0.0
 13
23.00654262640184
 23
92.14956625404511
 33
0.0
  0
MTEXT
  5
2B9
330
2B1
100
AcDbEntity
  8
치수문자_일반주서
 62
     0
100
AcDbMText
 10
-6.993457373598162
 20
95.52456625404511
 30
0.0
 40
2.5
 41
0.0
 71
     2
 72
     1
  1
\A1;60 [2.36]
  7
SLDTEXTSTYLE0
 73
     1
 44
1.0
  0
POINT
  5
2BA
330
2B1
100
AcDbEntity
  8
Defpoints
 62
     0
100
AcDbPoint
 10
-36.99345737359816
 20
74.26043365246346
 30
0.0
  0
POINT
  5
2BB
330
2B1
100
AcDbEntity
  8
Defpoints
 62
     0
100
AcDbPoint
 10
23.00654262640184
 20
72.51043365246346
 30
0.0
  0
POINT
  5
2BC
330
2B1
100
AcDbEntity
  8
Defpoints
 62
     0
100
AcDbPoint
 10
23.00654262640184
 20
92.14956625404511
 30
0.0
  0
ENDBLK
  5
2B3
330
2B1
100
AcDbEntity
  8
0
100
AcDbBlockEnd
  0
BLOCK
  5
2BE
330
2BD
100
AcDbEntity
  8
0
100
AcDbBlockBegin
  2
*D13
 70
     1
 10
0.0
 20
0.0
 30
0.0
  3
*D13
  1
*D14
  0
LINE
  5
2C0
330
2BD
100
AcDbEntity
  8
치수문자_일반주서
 62
     0
370
    -2
100
AcDbLine
 10
-36.55595737359815
 20
74.76043365246346
 30
0.0
 11
-44.99345737359818
 21
74.76043365246343
 31
0.0
  0
LINE
  5
2C1
330
2BD
100
AcDbEntity
  8
치수문자_일반주서
 62
     0
370
    -2
100
AcDbLine
 10
-36.55595737359815
 20
68.76043365246346
 30
0.0
 11
-44.99345737359815
 21
68.76043365246343
 31
0.0
  0
LINE
  5
2C2
330
2BD
100
AcDbEntity
  8
치수문자_일반주서
 62
     0
370
    -2
100
AcDbLine
 10
-44.99345737359818
 20
74.76043365246343
 30
0.0
 11
-44.99345737359825
 21
94.94793365246343
 31
0.0
  0
LINE
  5
2C3
330
2BD
100
AcDbEntity
  8
치수문자_일반주서
 62
     0
370
    -2
100
AcDbLine
 10
-44.99345737359818
 20
74.76043365246343
 30
0.0
 11
-44.99345737359815
 21
68.76043365246343
 31
0.0
  0
LINE
  5
2C4
330
2BD
100
AcDbEntity
  8
치수문자_일반주서
 62
     0
370
    -2
100
AcDbLine
 10
-44.99345737359818
 20
77.26043365246343
 30
0.0
 11
-44.99345737359819
 21
79.76043365246343
 31
0.0
  0
LINE
  5
2C5
330
2BD
100
AcDbEntity
  8
치수문자_일반주서
 62
     0
370
    -2
100
AcDbLine
 10
-44.99345737359815
 20
66.26043365246343
 30
0.0
 11
-44.99345737359814
 21
63.76043365246343
 31
0.0
  0
SOLID
  5
2C6
330
2BD
100
AcDbEntity
  8
치수문자_일반주서
 62
     0
100
AcDbTrace
 10
-45.41012404026485
 20
77.26043365246343
 30
0.0
 11
-44.57679070693152
 21
77.26043365246343
 31
0.0
 12
-44.99345737359818
 22
74.76043365246343
 32
0.0
 13
-44.99345737359818
 23
74.76043365246343
 33
0.0
  0
SOLID
  5
2C7
330
2BD
100
AcDbEntity
  8
치수문자_일반주서
 62
     0
100
AcDbTrace
 10
-44.57679070693148
 20
66.26043365246343
 30
0.0
 11
-45.41012404026481
 21
66.26043365246343
 31
0.0
 12
-44.99345737359815
 22
68.76043365246343
 32
0.0
 13
-44.99345737359815
 23
68.76043365246343
 33
0.0
  0
MTEXT
  5
2C8
330
2BD
100
AcDbEntity
  8
치수문자_일반주서
 62
     0
100
AcDbMText
 10
-48.36845737359822
 20
87.35418365246342
 30
0.0
 40
2.5
 41
0.0
 71
     2
 72
     1
  1
\A1;%%c6 [0.24]
  7
SLDTEXTSTYLE0
 11
-3.552713678800501E-15
 21
1.0
 31
0.0
 73
     1
 44
1.0
  0
POINT
  5
2C9
330
2BD
100
AcDbEntity
  8
Defpoints
 62
     0
100
AcDbPoint
 10
-36.49345737359815
 20
74.76043365246346
 30
0.0
  0
POINT
  5
2CA
330
2BD
100
AcDbEntity
  8
Defpoints
 62
     0
100
AcDbPoint
 10
-36.49345737359815
 20
68.76043365246346
 30
0.0
  0
POINT
  5
2CB
330
2BD
100
AcDbEntity
  8
Defpoints
 62
     0
100
AcDbPoint
 10
-44.99345737359815
 20
68.76043365246343
 30
0.0
  0
ENDBLK
  5
2BF
330
2BD
100
AcDbEntity
  8
0
100
AcDbBlockEnd
  0
BLOCK
  5
2CD
330
2CC
100
AcDbEntity
  8
0
100
AcDbBlockBegin
  2
*D14
 70
     1
 10
0.0
 20
0.0
 30
0.0
  3
*D14
  1
*D15
  0
LINE
  5
2CF
330
2CC
100
AcDbEntity
  8
치수문자_일반주서
 62
     0
370
    -2
100
AcDbLine
 10
17.00654262640184
 20
72.53573631980468
 30
0.0
 11
17.00654262640184
 21
83.31915462239233
 31
0.0
  0
LINE
  5
2D0
330
2CC
100
AcDbEntity
  8
치수문자_일반주서
 62
     0
370
    -2
100
AcDbLine
 10
23.00654262640184
 20
72.57293365246346
 30
0.0
 11
23.00654262640184
 21
83.31915462239233
 31
0.0
  0
LINE
  5
2D1
330
2CC
100
AcDbEntity
  8
치수문자_일반주서
 62
     0
370
    -2
100
AcDbLine
 10
17.00654262640184
 20
83.31915462239233
 30
0.0
 11
23.00654262640184
 21
83.31915462239233
 31
0.0
  0
LINE
  5
2D2
330
2CC
100
AcDbEntity
  8
치수문자_일반주서
 62
     0
370
    -2
100
AcDbLine
 10
14.50654262640184
 20
83.31915462239233
 30
0.0
 11
12.00654262640184
 21
83.31915462239233
 31
0.0
  0
LINE
  5
2D3
330
2CC
100
AcDbEntity
  8
치수문자_일반주서
 62
     0
370
    -2
100
AcDbLine
 10
25.50654262640184
 20
83.31915462239233
 30
0.0
 11
28.00654262640184
 21
83.31915462239233
 31
0.0
  0
SOLID
  5
2D4
330
2CC
100
AcDbEntity
  8
치수문자_일반주서
 62
     0
100
AcDbTrace
 10
14.50654262640184
 20
82.90248795572566
 30
0.0
 11
14.50654262640184
 21
83.735821289059
 31
0.0
 12
17.00654262640184
 22
83.31915462239233
 32
0.0
 13
17.00654262640184
 23
83.31915462239233
 33
0.0
  0
SOLID
  5
2D5
330
2CC
100
AcDbEntity
  8
치수문자_일반주서
 62
     0
100
AcDbTrace
 10
25.50654262640184
 20
83.735821289059
 30
0.0
 11
25.50654262640184
 21
82.90248795572566
 31
0.0
 12
23.00654262640184
 22
83.31915462239233
 32
0.0
 13
23.00654262640184
 23
83.31915462239233
 33
0.0
  0
MTEXT
  5
2D6
330
2CC
100
AcDbEntity
  8
치수문자_일반주서
 62
     0
100
AcDbMText
 10
20.00654262640184
 20
86.69415462239233
 30
0.0
 40
2.5
 41
0.0
 71
     2
 72
     1
  1
\A1;6 [0.24]
  7
SLDTEXTSTYLE0
 73
     1
 44
1.0
  0
POINT
  5
2D7
330
2CC
100
AcDbEntity
  8
Defpoints
 62
     0
100
AcDbPoint
 10
17.00654262640184
 20
72.47323631980468
 30
0.0
  0
POINT
  5
2D8
330
2CC
100
AcDbEntity
  8
Defpoints
 62
     0
100
AcDbPoint
 10
23.00654262640184
 20
72.51043365246346
 30
0.0
  0
POINT
  5
2D9
330
2CC
100
AcDbEntity
  8
Defpoints
 62
     0
100
AcDbPoint
 10
23.00654262640184
 20
83.31915462239233
 30
0.0
  0
ENDBLK
  5
2CE
330
2CC
100
AcDbEntity
  8
0
100
AcDbBlockEnd
  0
BLOCK
  5
313
330
312
100
AcDbEntity
  8
0
100
AcDbBlockBegin
  2
*D15
 70
     1
 10
0.0
 20
0.0
 30
0.0
  3
*D15
  1
*D16
  0
LINE
  5
315
330
312
100
AcDbEntity
  8
치수문자_일반주서
 62
     0
370
    -2
100
AcDbLine
 10
76.3913781988272
 20
-32.17206324250267
 30
0.0
 11
86.52377688227516
 21
-32.17206324250263
 31
0.0
  0
LINE
  5
316
330
312
100
AcDbEntity
  8
치수문자_일반주서
 62
     0
370
    -2
100
AcDbLine
 10
76.3913781988272
 20
-29.79282583873708
 30
0.0
 11
86.52377688227514
 21
-29.79282583873704
 31
0.0
  0
LINE
  5
317
330
312
100
AcDbEntity
  8
치수문자_일반주서
 62
     0
370
    -2
100
AcDbLine
 10
86.52377688227514
 20
-29.79282583873704
 30
0.0
 11
86.523776882275
 21
-5.542825838737045
 31
0.0
  0
LINE
  5
318
330
312
100
AcDbEntity
  8
치수문자_일반주서
 62
     0
370
    -2
100
AcDbLine
 10
86.52377688227516
 20
-32.17206324250263
 30
0.0
 11
86.52377688227514
 21
-29.79282583873704
 31
0.0
  0
LINE
  5
319
330
312
100
AcDbEntity
  8
치수문자_일반주서
 62
     0
370
    -2
100
AcDbLine
 10
86.52377688227517
 20
-34.67206324250263
 30
0.0
 11
86.52377688227519
 21
-37.17206324250263
 31
0.0
  0
LINE
  5
31A
330
312
100
AcDbEntity
  8
치수문자_일반주서
 62
     0
370
    -2
100
AcDbLine
 10
86.52377688227513
 20
-27.29282583873704
 30
0.0
 11
86.52377688227511
 21
-24.79282583873704
 31
0.0
  0
SOLID
  5
31B
330
312
100
AcDbEntity
  8
치수문자_일반주서
 62
     0
100
AcDbTrace
 10
86.94044354894184
 20
-34.67206324250263
 30
0.0
 11
86.1071102156085
 21
-34.67206324250263
 31
0.0
 12
86.52377688227516
 22
-32.17206324250263
 32
0.0
 13
86.52377688227516
 23
-32.17206324250263
 33
0.0
  0
SOLID
  5
31C
330
312
100
AcDbEntity
  8
치수문자_일반주서
 62
     0
100
AcDbTrace
 10
86.10711021560846
 20
-27.29282583873705
 30
0.0
 11
86.9404435489418
 21
-27.29282583873704
 31
0.0
 12
86.52377688227514
 22
-29.79282583873704
 32
0.0
 13
86.52377688227514
 23
-29.79282583873704
 33
0.0
  0
MTEXT
  5
31D
330
312
100
AcDbEntity
  8
치수문자_일반주서
 62
     0
100
AcDbMText
 10
83.14877688227506
 20
-15.16782583873706
 30
0.0
 40
2.5
 41
0.0
 71
     2
 72
     1
  1
\A1;%%c2.38 [0.09]
  7
SLDTEXTSTYLE0
 11
-5.972861175059983E-15
 21
1.0
 31
0.0
 73
     1
 44
1.0
  0
POINT
  5
31E
330
312
100
AcDbEntity
  8
Defpoints
 62
     0
100
AcDbPoint
 10
76.3288781988272
 20
-32.17206324250267
 30
0.0
  0
POINT
  5
31F
330
312
100
AcDbEntity
  8
Defpoints
 62
     0
100
AcDbPoint
 10
76.3288781988272
 20
-29.79282583873708
 30
0.0
  0
POINT
  5
320
330
312
100
AcDbEntity
  8
Defpoints
 62
     0
100
AcDbPoint
 10
86.52377688227511
 20
-29.79282583873704
 30
0.0
  0
ENDBLK
  5
314
330
312
100
AcDbEntity
  8
0
100
AcDbBlockEnd
  0
BLOCK
  5
322
330
321
100
AcDbEntity
  8
0
100
AcDbBlockBegin
  2
*D16
 70
     1
 10
0.0
 20
0.0
 30
0.0
  3
*D16
  1
*D17
  0
LINE
  5
324
330
321
100
AcDbEntity
  8
치수문자_일반주서
 62
     0
370
    -2
100
AcDbLine
 10
76.3288781988272
 20
-29.73032583873708
 30
0.0
 11
76.3288781988272
 21
-17.39737211455815
 31
0.0
  0
LINE
  5
325
330
321
100
AcDbEntity
  8
치수문자_일반주서
 62
     0
370
    -2
100
AcDbLine
 10
71.5663781988272
 20
-29.88167746669243
 30
0.0
 11
71.5663781988272
 21
-17.39737211455815
 31
0.0
  0
LINE
  5
326
330
321
100
AcDbEntity
  8
치수문자_일반주서
 62
     0
370
    -2
100
AcDbLine
 10
71.5663781988272
 20
-17.39737211455815
 30
0.0
 11
49.29588891457462
 21
-17.39737211455815
 31
0.0
  0
LINE
  5
327
330
321
100
AcDbEntity
  8
치수문자_일반주서
 62
     0
370
    -2
100
AcDbLine
 10
76.3288781988272
 20
-17.39737211455815
 30
0.0
 11
71.5663781988272
 21
-17.39737211455815
 31
0.0
  0
LINE
  5
328
330
321
100
AcDbEntity
  8
치수문자_일반주서
 62
     0
370
    -2
100
AcDbLine
 10
78.8288781988272
 20
-17.39737211455815
 30
0.0
 11
81.3288781988272
 21
-17.39737211455815
 31
0.0
  0
LINE
  5
329
330
321
100
AcDbEntity
  8
치수문자_일반주서
 62
     0
370
    -2
100
AcDbLine
 10
69.0663781988272
 20
-17.39737211455815
 30
0.0
 11
66.5663781988272
 21
-17.39737211455815
 31
0.0
  0
SOLID
  5
32A
330
321
100
AcDbEntity
  8
치수문자_일반주서
 62
     0
100
AcDbTrace
 10
78.8288781988272
 20
-16.98070544789148
 30
0.0
 11
78.8288781988272
 21
-17.81403878122482
 31
0.0
 12
76.3288781988272
 22
-17.39737211455815
 32
0.0
 13
76.3288781988272
 23
-17.39737211455815
 33
0.0
  0
SOLID
  5
32B
330
321
100
AcDbEntity
  8
치수문자_일반주서
 62
     0
100
AcDbTrace
 10
69.0663781988272
 20
-17.81403878122482
 30
0.0
 11
69.0663781988272
 21
-16.98070544789148
 31
0.0
 12
71.5663781988272
 22
-17.39737211455815
 32
0.0
 13
71.5663781988272
 23
-17.39737211455815
 33
0.0
  0
MTEXT
  5
32C
330
321
100
AcDbEntity
  8
치수문자_일반주서
 62
     0
100
AcDbMText
 10
57.82713891457462
 20
-14.02237211455815
 30
0.0
 40
2.5
 41
0.0
 71
     2
 72
     1
  1
\A1;4.76 [0.19]
  7
SLDTEXTSTYLE0
 73
     1
 44
1.0
  0
POINT
  5
32D
330
321
100
AcDbEntity
  8
Defpoints
 62
     0
100
AcDbPoint
 10
76.3288781988272
 20
-29.79282583873708
 30
0.0
  0
POINT
  5
32E
330
321
100
AcDbEntity
  8
Defpoints
 62
     0
100
AcDbPoint
 10
71.5663781988272
 20
-29.94417746669243
 30
0.0
  0
POINT
  5
32F
330
321
100
AcDbEntity
  8
Defpoints
 62
     0
100
AcDbPoint
 10
71.5663781988272
 20
-17.39737211455815
 30
0.0
  0
ENDBLK
  5
323
330
321
100
AcDbEntity
  8
0
100
AcDbBlockEnd
  0
BLOCK
  5
331
330
330
100
AcDbEntity
  8
0
100
AcDbBlockBegin
  2
*D17
 70
     1
 10
0.0
 20
0.0
 30
0.0
  3
*D17
  1
*D18
  0
LINE
  5
333
330
330
100
AcDbEntity
  8
치수문자_일반주서
 62
     0
370
    -2
100
AcDbLine
 10
38.2288781988272
 20
-29.76244454061988
 30
0.0
 11
38.2288781988272
 21
-9.599372666813462
 31
0.0
  0
LINE
  5
334
330
330
100
AcDbEntity
  8
치수문자_일반주서
 62
     0
370
    -2
100
AcDbLine
 10
76.3288781988272
 20
-29.73032583873708
 30
0.0
 11
76.3288781988272
 21
-9.599372666813462
 31
0.0
  0
LINE
  5
335
330
330
100
AcDbEntity
  8
치수문자_일반주서
 62
     0
370
    -2
100
AcDbLine
 10
40.7288781988272
 20
-9.599372666813462
 30
0.0
 11
73.8288781988272
 21
-9.599372666813462
 31
0.0
  0
SOLID
  5
336
330
330
100
AcDbEntity
  8
치수문자_일반주서
 62
     0
100
AcDbTrace
 10
40.7288781988272
 20
-9.182706000146796
 30
0.0
 11
40.7288781988272
 21
-10.01603933348013
 31
0.0
 12
38.2288781988272
 22
-9.599372666813462
 32
0.0
 13
38.2288781988272
 23
-9.599372666813462
 33
0.0
  0
SOLID
  5
337
330
330
100
AcDbEntity
  8
치수문자_일반주서
 62
     0
100
AcDbTrace
 10
73.8288781988272
 20
-10.01603933348013
 30
0.0
 11
73.8288781988272
 21
-9.182706000146796
 31
0.0
 12
76.3288781988272
 22
-9.599372666813462
 32
0.0
 13
76.3288781988272
 23
-9.599372666813462
 33
0.0
  0
MTEXT
  5
338
330
330
100
AcDbEntity
  8
치수문자_일반주서
 62
     0
100
AcDbMText
 10
62.63901722467338
 20
-6.224372666813462
 30
0.0
 40
2.5
 41
0.0
 71
     2
 72
     1
  1
\A1;38.1 [1.50]
  7
SLDTEXTSTYLE0
 73
     1
 44
1.0
  0
POINT
  5
339
330
330
100
AcDbEntity
  8
Defpoints
 62
     0
100
AcDbPoint
 10
38.2288781988272
 20
-29.82494454061988
 30
0.0
  0
POINT
  5
33A
330
330
100
AcDbEntity
  8
Defpoints
 62
     0
100
AcDbPoint
 10
76.3288781988272
 20
-29.79282583873708
 30
0.0
  0
POINT
  5
33B
330
330
100
AcDbEntity
  8
Defpoints
 62
     0
100
AcDbPoint
 10
76.3288781988272
 20
-9.599372666813462
 30
0.0
  0
ENDBLK
  5
332
330
330
100
AcDbEntity
  8
0
100
AcDbBlockEnd
  0
BLOCK
  5
372
330
371
100
AcDbEntity
  8
0
100
AcDbBlockBegin
  2
*D18
 70
     1
 10
0.0
 20
0.0
 30
0.0
  3
*D18
  1
*D19
  0
LINE
  5
374
330
371
100
AcDbEntity
  8
치수문자_일반주서
 62
     0
370
    -2
100
AcDbLine
 10
72.94068740376278
 20
-33.30256791644111
 30
0.0
 11
83.07308608721074
 21
-33.30256791644108
 31
0.0
  0
LINE
  5
375
330
371
100
AcDbEntity
  8
치수문자_일반주서
 62
     0
370
    -2
100
AcDbLine
 10
72.94068740376278
 20
-30.92333051267553
 30
0.0
 11
83.07308608721073
 21
-30.92333051267549
 31
0.0
  0
LINE
  5
376
330
371
100
AcDbEntity
  8
치수문자_일반주서
 62
     0
370
    -2
100
AcDbLine
 10
83.07308608721073
 20
-30.92333051267549
 30
0.0
 11
83.07308608721058
 21
-6.673330512675491
 31
0.0
  0
LINE
  5
377
330
371
100
AcDbEntity
  8
치수문자_일반주서
 62
     0
370
    -2
100
AcDbLine
 10
83.07308608721074
 20
-33.30256791644108
 30
0.0
 11
83.07308608721073
 21
-30.92333051267549
 31
0.0
  0
LINE
  5
378
330
371
100
AcDbEntity
  8
치수문자_일반주서
 62
     0
370
    -2
100
AcDbLine
 10
83.07308608721075
 20
-35.80256791644108
 30
0.0
 11
83.07308608721077
 21
-38.30256791644108
 31
0.0
  0
LINE
  5
379
330
371
100
AcDbEntity
  8
치수문자_일반주서
 62
     0
370
    -2
100
AcDbLine
 10
83.07308608721071
 20
-28.42333051267549
 30
0.0
 11
83.0730860872107
 21
-25.92333051267549
 31
0.0
  0
SOLID
  5
37A
330
371
100
AcDbEntity
  8
치수문자_일반주서
 62
     0
100
AcDbTrace
 10
83.48975275387743
 20
-35.80256791644108
 30
0.0
 11
82.65641942054408
 21
-35.80256791644108
 31
0.0
 12
83.07308608721074
 22
-33.30256791644108
 32
0.0
 13
83.07308608721074
 23
-33.30256791644108
 33
0.0
  0
SOLID
  5
37B
330
371
100
AcDbEntity
  8
치수문자_일반주서
 62
     0
100
AcDbTrace
 10
82.65641942054404
 20
-28.42333051267549
 30
0.0
 11
83.48975275387738
 21
-28.42333051267549
 31
0.0
 12
83.07308608721073
 22
-30.92333051267549
 32
0.0
 13
83.07308608721073
 23
-30.92333051267549
 33
0.0
  0
MTEXT
  5
37C
330
371
100
AcDbEntity
  8
치수문자_일반주서
 62
     0
100
AcDbMText
 10
79.69808608721064
 20
-16.29833051267551
 30
0.0
 40
2.5
 41
0.0
 71
     2
 72
     1
  1
\A1;%%c2.38 [0.09]
  7
SLDTEXTSTYLE0
 11
-5.972861175059983E-15
 21
1.0
 31
0.0
 73
     1
 44
1.0
  0
POINT
  5
37D
330
371
100
AcDbEntity
  8
Defpoints
 62
     0
100
AcDbPoint
 10
72.87818740376278
 20
-33.30256791644111
 30
0.0
  0
POINT
  5
37E
330
371
100
AcDbEntity
  8
Defpoints
 62
     0
100
AcDbPoint
 10
72.87818740376278
 20
-30.92333051267553
 30
0.0
  0
POINT
  5
37F
330
371
100
AcDbEntity
  8
Defpoints
 62
     0
100
AcDbPoint
 10
83.0730860872107
 20
-30.92333051267549
 30
0.0
  0
ENDBLK
  5
373
330
371
100
AcDbEntity
  8
0
100
AcDbBlockEnd
  0
BLOCK
  5
381
330
380
100
AcDbEntity
  8
0
100
AcDbBlockBegin
  2
*D19
 70
     1
 10
0.0
 20
0.0
 30
0.0
  3
*D19
  1
*D20
  0
LINE
  5
383
330
380
100
AcDbEntity
  8
치수문자_일반주서
 62
     0
370
    -2
100
AcDbLine
 10
72.87818740376278
 20
-30.86083051267553
 30
0.0
 11
72.87818740376278
 21
-18.5278767884966
 31
0.0
  0
LINE
  5
384
330
380
100
AcDbEntity
  8
치수문자_일반주서
 62
     0
370
    -2
100
AcDbLine
 10
68.11568740376278
 20
-31.01218214063087
 30
0.0
 11
68.11568740376278
 21
-18.5278767884966
 31
0.0
  0
LINE
  5
385
330
380
100
AcDbEntity
  8
치수문자_일반주서
 62
     0
370
    -2
100
AcDbLine
 10
68.11568740376278
 20
-18.5278767884966
 30
0.0
 11
45.8451981195102
 21
-18.5278767884966
 31
0.0
  0
LINE
  5
386
330
380
100
AcDbEntity
  8
치수문자_일반주서
 62
     0
370
    -2
100
AcDbLine
 10
72.87818740376278
 20
-18.5278767884966
 30
0.0
 11
68.11568740376278
 21
-18.5278767884966
 31
0.0
  0
LINE
  5
387
330
380
100
AcDbEntity
  8
치수문자_일반주서
 62
     0
370
    -2
100
AcDbLine
 10
75.37818740376278
 20
-18.5278767884966
 30
0.0
 11
77.87818740376278
 21
-18.5278767884966
 31
0.0
  0
LINE
  5
388
330
380
100
AcDbEntity
  8
치수문자_일반주서
 62
     0
370
    -2
100
AcDbLine
 10
65.61568740376278
 20
-18.5278767884966
 30
0.0
 11
63.11568740376278
 21
-18.5278767884966
 31
0.0
  0
SOLID
  5
389
330
380
100
AcDbEntity
  8
치수문자_일반주서
 62
     0
100
AcDbTrace
 10
75.37818740376278
 20
-18.11121012182993
 30
0.0
 11
75.37818740376278
 21
-18.94454345516326
 31
0.0
 12
72.87818740376278
 22
-18.5278767884966
 32
0.0
 13
72.87818740376278
 23
-18.5278767884966
 33
0.0
  0
SOLID
  5
38A
330
380
100
AcDbEntity
  8
치수문자_일반주서
 62
     0
100
AcDbTrace
 10
65.61568740376278
 20
-18.94454345516326
 30
0.0
 11
65.61568740376278
 21
-18.11121012182993
 31
0.0
 12
68.11568740376278
 22
-18.5278767884966
 32
0.0
 13
68.11568740376278
 23
-18.5278767884966
 33
0.0
  0
MTEXT
  5
38B
330
380
100
AcDbEntity
  8
치수문자_일반주서
 62
     0
100
AcDbMText
 10
54.3764481195102
 20
-15.1528767884966
 30
0.0
 40
2.5
 41
0.0
 71
     2
 72
     1
  1
\A1;4.76 [0.19]
  7
SLDTEXTSTYLE0
 73
     1
 44
1.0
  0
POINT
  5
38C
330
380
100
AcDbEntity
  8
Defpoints
 62
     0
100
AcDbPoint
 10
72.87818740376278
 20
-30.92333051267553
 30
0.0
  0
POINT
  5
38D
330
380
100
AcDbEntity
  8
Defpoints
 62
     0
100
AcDbPoint
 10
68.11568740376278
 20
-31.07468214063087
 30
0.0
  0
POINT
  5
38E
330
380
100
AcDbEntity
  8
Defpoints
 62
     0
100
AcDbPoint
 10
68.11568740376278
 20
-18.5278767884966
 30
0.0
  0
ENDBLK
  5
382
330
380
100
AcDbEntity
  8
0
100
AcDbBlockEnd
  0
BLOCK
  5
390
330
38F
100
AcDbEntity
  8
0
100
AcDbBlockBegin
  2
*D20
 70
     1
 10
0.0
 20
0.0
 30
0.0
  3
*D20
  1
*D21
  0
LINE
  5
392
330
38F
100
AcDbEntity
  8
치수문자_일반주서
 62
     0
370
    -2
100
AcDbLine
 10
34.77818740376278
 20
-30.89294921455832
 30
0.0
 11
34.77818740376278
 21
-10.72987734075191
 31
0.0
  0
LINE
  5
393
330
38F
100
AcDbEntity
  8
치수문자_일반주서
 62
     0
370
    -2
100
AcDbLine
 10
72.87818740376278
 20
-30.86083051267553
 30
0.0
 11
72.87818740376278
 21
-10.72987734075191
 31
0.0
  0
LINE
  5
394
330
38F
100
AcDbEntity
  8
치수문자_일반주서
 62
     0
370
    -2
100
AcDbLine
 10
37.27818740376278
 20
-10.72987734075191
 30
0.0
 11
70.37818740376278
 21
-10.72987734075191
 31
0.0
  0
SOLID
  5
395
330
38F
100
AcDbEntity
  8
치수문자_일반주서
 62
     0
100
AcDbTrace
 10
37.27818740376278
 20
-10.31321067408524
 30
0.0
 11
37.27818740376278
 21
-11.14654400741857
 31
0.0
 12
34.77818740376278
 22
-10.72987734075191
 32
0.0
 13
34.77818740376278
 23
-10.72987734075191
 33
0.0
  0
SOLID
  5
396
330
38F
100
AcDbEntity
  8
치수문자_일반주서
 62
     0
100
AcDbTrace
 10
70.37818740376278
 20
-11.14654400741857
 30
0.0
 11
70.37818740376278
 21
-10.31321067408524
 31
0.0
 12
72.87818740376278
 22
-10.72987734075191
 32
0.0
 13
72.87818740376278
 23
-10.72987734075191
 33
0.0
  0
MTEXT
  5
397
330
38F
100
AcDbEntity
  8
치수문자_일반주서
 62
     0
100
AcDbMText
 10
59.18832642960896
 20
-7.354877340751909
 30
0.0
 40
2.5
 41
0.0
 71
     2
 72
     1
  1
\A1;38.1 [1.50]
  7
SLDTEXTSTYLE0
 73
     1
 44
1.0
  0
POINT
  5
398
330
38F
100
AcDbEntity
  8
Defpoints
 62
     0
100
AcDbPoint
 10
34.77818740376278
 20
-30.95544921455832
 30
0.0
  0
POINT
  5
399
330
38F
100
AcDbEntity
  8
Defpoints
 62
     0
100
AcDbPoint
 10
72.87818740376278
 20
-30.92333051267553
 30
0.0
  0
POINT
  5
39A
330
38F
100
AcDbEntity
  8
Defpoints
 62
     0
100
AcDbPoint
 10
72.87818740376278
 20
-10.72987734075191
 30
0.0
  0
ENDBLK
  5
391
330
38F
100
AcDbEntity
  8
0
100
AcDbBlockEnd
  0
ENDSEC
  0
SECTION
  2
ENTITIES
  0
LINE
  5
96
330
1F
100
AcDbEntity
  8
외형선
  6
Continuous
370
    15
100
AcDbLine
 10
11.80634233574612
 20
1.5875
 30
0.0
 11
-11.80634233574609
 21
1.587499999999999
 31
0.0
  0
LINE
  5
97
330
1F
100
AcDbEntity
  8
외형선
  6
Continuous
370
    15
100
AcDbLine
 10
-11.80634233574608
 20
-1.587499999999999
 30
0.0
 11
11.80634233574612
 21
-1.587499999999997
 31
0.0
  0
LINE
  5
98
330
1F
100
AcDbEntity
  8
외형선
  6
Continuous
370
    15
100
AcDbLine
 10
11.80634233574612
 20
-1.587499999999998
 30
0.0
 11
13.28750000000001
 21
-1.190624999999998
 31
0.0
  0
LINE
  5
99
330
1F
100
AcDbEntity
  8
외형선
  6
Continuous
370
    15
100
AcDbLine
 10
13.28750000000001
 20
1.190625000000002
 30
0.0
 11
11.80634233574612
 21
1.587500000000001
 31
0.0
  0
LINE
  5
9C
330
1F
100
AcDbEntity
  8
외형선
  6
Continuous
370
    15
100
AcDbLine
 10
13.39740833341476
 20
1.190625000000002
 30
0.0
 11
13.28750000000001
 21
1.190625000000002
 31
0.0
  0
LINE
  5
9D
330
1F
100
AcDbEntity
  8
외형선
  6
Continuous
370
    15
100
AcDbLine
 10
13.28750000000001
 20
-1.190624999999998
 30
0.0
 11
13.39740833341476
 21
-1.190624999999998
 31
0.0
  0
LINE
  5
9E
330
1F
100
AcDbEntity
  8
외형선
  6
Continuous
370
    15
100
AcDbLine
 10
13.78160069582132
 20
-0.9907678398589601
 30
0.0
 11
14.2875
 21
-0.950135758703326
 31
0.0
  0
LINE
  5
9F
330
1F
100
AcDbEntity
  8
0
  6
Continuous
 62
     1
370
    25
100
AcDbLine
 10
15.96605576816273
 20
0.3050693724985968
 30
0.0
 11
15.63443310290254
 21
0.470291755446173
 31
0.0
  0
SPLINE
  5
A0
330
1F
100
AcDbEntity
  8
0
  6
Continuous
 62
     1
370
    25
100
AcDbSpline
210
0.0
220
0.0
230
1.0
 70
     8
 71
     3
 72
    10
 73
     6
 74
     0
 42
0.000000001
 43
0.00000001
 40
0.0
 40
0.0
 40
0.0
 40
0.0
 40
0.5808511542730419
 40
0.8207844531423091
 40
1.0
 40
1.0
 40
1.0
 40
1.0
 10
15.57095203708551
 20
0.9461085140925276
 30
0.0
 10
15.37818547404697
 20
0.9387427832038752
 30
0.0
 10
15.10579245758526
 20
0.9283344757485816
 30
0.0
 10
14.77554360045056
 20
0.9298515143837892
 30
0.0
 10
14.63673803972625
 20
0.9360939647022232
 30
0.0
 10
14.57738892132667
 20
0.9387630503002279
 30
0.0
  0
SPLINE
  5
A1
330
1F
100
AcDbEntity
  8
0
  6
Continuous
 62
     1
370
    25
100
AcDbSpline
210
0.0
220
0.0
230
1.0
 70
     8
 71
     3
 72
    17
 73
    13
 74
     0
 42
0.000000001
 43
0.00000001
 40
0.0
 40
0.0
 40
0.0
 40
0.0
 40
0.1267033907522397
 40
0.2214226035160727
 40
0.3038143424513116
 40
0.3937214327202818
 40
0.4832755589266613
 40
0.7150743485874331
 40
0.7569028806755483
 40
0.8126138303592083
 40
0.8932262114967477
 40
1.0
 40
1.0
 40
1.0
 40
1.0
 10
18.61061125779389
 20
0.8146239563029932
 30
0.0
 10
18.52192416224785
 20
0.8077346716642153
 30
0.0
 10
18.36693756340865
 20
0.7956951884899697
 30
0.0
 10
18.1566006722343
 20
0.7869546209024856
 30
0.0
 10
17.97230424646535
 20
0.7831893306331863
 30
0.0
 10
17.79030673632605
 20
0.7834970563781487
 30
0.0
 10
17.50521978925341
 20
0.7906248176728877
 30
0.0
 10
17.25293412126997
 20
0.8072447930416145
 30
0.0
 10
17.02428414191805
 20
0.8297762336501324
 30
0.0
 10
16.90083286404497
 20
0.8434843930319933
 30
0.0
 10
16.73236960662708
 20
0.8647146205554338
 30
0.0
 10
16.6019231436571
 20
0.8843358296968233
 30
0.0
 10
16.5275939491661
 20
0.895516114981788
 30
0.0
  0
SPLINE
  5
A2
330
1F
100
AcDbEntity
  8
0
  6
Continuous
 62
     1
370
    25
100
AcDbSpline
210
0.0
220
0.0
230
1.0
 70
     8
 71
     3
 72
    12
 73
     8
 74
     0
 42
0.000000001
 43
0.00000001
 40
0.0
 40
0.0
 40
0.0
 40
0.0
 40
0.3074386691909383
 40
0.5168495027078474
 40
0.648895092906396
 40
0.7767647523916953
 40
1.0
 40
1.0
 40
1.0
 40
1.0
 10
16.5275939491661
 20
-0.8955161149817845
 30
0.0
 10
16.61902245440873
 20
-0.8818869687835567
 30
0.0
 10
16.77272718385066
 20
-0.8589743746930856
 30
0.0
 10
16.96462995382917
 20
-0.8359739251393495
 30
0.0
 10
17.1037949691834
 20
-0.8218402733690929
 30
0.0
 10
17.24713642239834
 20
-0.8086128807781862
 30
0.0
 10
17.35124629608063
 20
-0.8033283410837666
 30
0.0
 10
17.4174401685113
 20
-0.799968389390283
 30
0.0
  0
SPLINE
  5
A3
330
1F
100
AcDbEntity
  8
0
  6
Continuous
 62
     1
370
    25
100
AcDbSpline
210
0.0
220
0.0
230
1.0
 70
     8
 71
     3
 72
    10
 73
     6
 74
     0
 42
0.000000001
 43
0.00000001
 40
0.0
 40
0.0
 40
0.0
 40
0.0
 40
0.4011058482252002
 40
0.5782764232643598
 40
1.0
 40
1.0
 40
1.0
 40
1.0
 10
14.2875
 20
-0.9501357587033259
 30
0.0
 10
14.45919201475244
 20
-0.9420656958434014
 30
0.0
 10
14.70672130068385
 20
-0.9304310435270495
 30
0.0
 10
15.1339737431507
 20
-0.9285349762425409
 30
0.0
 10
15.39039075157562
 20
-0.9388470536740279
 30
0.0
 10
15.57095203708551
 20
-0.9461085140925243
 30
0.0
  0
LINE
  5
A4
330
1F
100
AcDbEntity
  8
외형선
  6
Continuous
370
    15
100
AcDbLine
 10
11.80634233574612
 20
1.587500000000001
 30
0.0
 11
11.80634233574612
 21
-1.587499999999999
 31
0.0
  0
LINE
  5
A6
330
1F
100
AcDbEntity
  8
외형선
  6
Continuous
370
    15
100
AcDbLine
 10
13.28750000000001
 20
1.190625000000002
 30
0.0
 11
13.28750000000001
 21
-1.190624999999999
 31
0.0
  0
LINE
  5
A7
330
1F
100
AcDbEntity
  8
외형선
  6
Continuous
370
    15
100
AcDbLine
 10
-19.04999999999999
 20
1.157499999999998
 30
0.0
 11
-19.04999999999999
 21
-1.157499999999998
 31
0.0
  0
SPLINE
  5
A8
330
1F
100
AcDbEntity
  8
외형선
  6
Continuous
370
    15
100
AcDbSpline
210
0.0
220
0.0
230
1.0
 70
     8
 71
     3
 72
    10
 73
     6
 74
     0
 42
0.000000001
 43
0.00000001
 40
0.0
 40
0.0
 40
0.0
 40
0.0
 40
0.5000000000000001
 40
0.5000000000000001
 40
1.0
 40
1.0
 40
1.0
 40
1.0
 10
14.28750000000259
 20
1.038267073926723
 30
0.0
 10
14.13824473966725
 20
1.080263885587396
 30
0.0
 10
13.99270725033245
 20
1.11387119839505
 30
0.0
 10
13.69578074165656
 20
1.163836918235518
 30
0.0
 10
13.5450669694522
 20
1.179999490069958
 30
0.0
 10
13.39731248760729
 20
1.186825751661606
 30
0.0
  0
LINE
  5
A9
330
1F
100
AcDbEntity
  8
외형선
  6
Continuous
370
    15
100
AcDbLine
 10
14.28750000000001
 20
1.038267073927448
 30
0.0
 11
14.28750000000001
 21
0.8369420036101328
 31
0.0
  0
SPLINE
  5
AA
330
1F
100
AcDbEntity
  8
외형선
  6
Continuous
370
    15
100
AcDbSpline
210
0.0
220
0.0
230
1.0
 70
     8
 71
     3
 72
    10
 73
     6
 74
     0
 42
0.000000001
 43
0.00000001
 40
0.0
 40
0.0
 40
0.0
 40
0.0
 40
0.5
 40
0.5
 40
1.0
 40
1.0
 40
1.0
 40
1.0
 10
13.39740833341476
 20
1.114397363208945
 30
0.0
 10
13.54514811305306
 20
1.084293210487318
 30
0.0
 10
13.69584543094874
 20
1.045268542038396
 30
0.0
 10
13.99273886604131
 20
0.9519985939226216
 30
0.0
 10
14.13826087615159
 20
0.897964085030369
 30
0.0
 10
14.28749999999978
 20
0.836942003607121
 30
0.0
  0
SPLINE
  5
AB
330
1F
100
AcDbEntity
  8
외형선
  6
Continuous
370
    15
100
AcDbSpline
210
0.0
220
0.0
230
1.0
 70
     8
 71
     3
 72
    10
 73
     6
 74
     0
 42
0.000000001
 43
0.00000001
 40
0.0
 40
0.0
 40
0.0
 40
0.0
 40
0.5000000000000001
 40
0.5000000000000001
 40
1.0
 40
1.0
 40
1.0
 40
1.0
 10
14.28750000000259
 20
-1.03826707392672
 30
0.0
 10
14.13824473966725
 20
-1.080263885587393
 30
0.0
 10
13.99270725033245
 20
-1.113871198395046
 30
0.0
 10
13.69578074165656
 20
-1.163836918235515
 30
0.0
 10
13.5450669694522
 20
-1.179999490069954
 30
0.0
 10
13.39731248760729
 20
-1.186825751661603
 30
0.0
  0
LINE
  5
AC
330
1F
100
AcDbEntity
  8
외형선
  6
Continuous
370
    15
100
AcDbLine
 10
13.39740833341476
 20
1.186829823701597
 30
0.0
 11
13.39740833341476
 21
1.190625000000002
 31
0.0
  0
LINE
  5
AD
330
1F
100
AcDbEntity
  8
외형선
  6
Continuous
370
    15
100
AcDbLine
 10
13.39740833341476
 20
-1.190624999999998
 30
0.0
 11
13.39740833341476
 21
1.11454050446652
 31
0.0
  0
SPLINE
  5
AE
330
1F
100
AcDbEntity
  8
외형선
  6
Continuous
370
    15
100
AcDbSpline
210
0.0
220
0.0
230
1.0
 70
    24
 71
     3
 72
    10
 73
     6
 74
     0
 42
0.000000001
 43
0.00000001
 40
0.0
 40
0.0
 40
0.0
 40
0.0
 40
0.5
 40
0.5
 40
1.0
 40
1.0
 40
1.0
 40
1.0
 10
14.28749999999992
 20
0.560997819862144
 30
0.0
 10
14.28749999999992
 20
0.3783456917417487
 30
0.0
 10
14.28749999999992
 20
0.1563850347805215
 30
0.0
 10
14.28749999999992
 20
-0.2934143332440976
 30
0.0
 10
14.28749999999992
 20
-0.5177679600076137
 30
0.0
 10
14.28749999999992
 20
-0.704411301480729
 30
0.0
  0
SPLINE
  5
AF
330
1F
100
AcDbEntity
  8
외형선
  6
Continuous
370
    15
100
AcDbSpline
210
0.0
220
0.0
230
1.0
 70
     8
 71
     3
 72
    10
 73
     6
 74
     0
 42
0.000000001
 43
0.00000001
 40
0.0
 40
0.0
 40
0.0
 40
0.0
 40
0.5
 40
0.5
 40
1.0
 40
1.0
 40
1.0
 40
1.0
 10
14.28750000000001
 20
-0.7044113014807567
 30
0.0
 10
14.1382549803182
 20
-0.6582091078023682
 30
0.0
 10
13.99272731454019
 20
-0.6069378805836737
 30
0.0
 10
13.69582179525614
 20
-0.4951630294381787
 30
0.0
 10
13.54511846537787
 20
-0.4346723823912748
 30
0.0
 10
13.39737331386646
 20
-0.3716866461768228
 30
0.0
  0
SPLINE
  5
B0
330
1F
100
AcDbEntity
  8
외형선
  6
Continuous
370
    15
100
AcDbSpline
210
0.0
220
0.0
230
1.0
 70
     8
 71
     3
 72
    10
 73
     6
 74
     0
 42
0.000000001
 43
0.00000001
 40
0.0
 40
0.0
 40
0.0
 40
0.0
 40
0.5
 40
0.5
 40
1.0
 40
1.0
 40
1.0
 40
1.0
 10
14.28750000000001
 20
0.5609978198621172
 30
0.0
 10
14.1382569858072
 20
0.6054136729634613
 30
0.0
 10
13.99273124382748
 20
0.6451163051611509
 30
0.0
 10
13.69582983502416
 20
0.714485221673607
 30
0.0
 10
13.54512855014007
 20
0.7440033452565903
 30
0.0
 10
13.39738522587941
 20
0.7673612872197676
 30
0.0
  0
SPLINE
  5
B1
330
1F
100
AcDbEntity
  8
외형선
  6
Continuous
370
    15
100
AcDbSpline
210
0.0
220
0.0
230
1.0
 70
    24
 71
     3
 72
    12
 73
     8
 74
     0
 42
0.000000001
 43
0.00000001
 40
0.0
 40
0.0
 40
0.0
 40
0.0
 40
0.1828308434951437
 40
0.3680940490856137
 40
0.6344093538796868
 40
0.9084478205542683
 40
1.0
 40
1.0
 40
1.0
 40
1.0
 10
14.2875
 20
-0.7044113014807518
 30
0.0
 10
14.28750000000001
 20
-0.7320983139478963
 30
0.0
 10
14.28750000000001
 20
-0.7878406839511598
 30
0.0
 10
14.28750000000001
 20
-0.8626539999207793
 30
0.0
 10
14.28750000000001
 20
-0.9219090979437776
 30
0.0
 10
14.28750000000001
 20
-0.9512020365372461
 30
0.0
 10
14.28750000000001
 20
-0.9476024293617
 30
0.0
 10
14.28750000000001
 20
-0.9467010061837083
 30
0.0
  0
LINE
  5
B2
330
1F
100
AcDbEntity
  8
외형선
  6
Continuous
370
    15
100
AcDbLine
 10
13.78228800692214
 20
-0.9879082718169601
 30
0.0
 11
13.39731248760729
 21
-1.011836869080326
 31
0.0
  0
SPLINE
  5
B3
330
1F
100
AcDbEntity
  8
외형선
  6
Continuous
370
    15
100
AcDbSpline
210
0.0
220
0.0
230
1.0
 70
    24
 71
     3
 72
    10
 73
     6
 74
     0
 42
0.000000001
 43
0.00000001
 40
0.0
 40
0.0
 40
0.0
 40
0.0
 40
0.5
 40
0.5
 40
1.0
 40
1.0
 40
1.0
 40
1.0
 10
14.28750000000003
 20
0.8369420036070192
 30
0.0
 10
14.28750000000003
 20
0.808088840312925
 30
0.0
 10
14.28750000000003
 20
0.767585808472778
 30
0.0
 10
14.28750000000003
 20
0.671671876827149
 30
0.0
 10
14.28750000000003
 20
0.6165751877873038
 30
0.0
 10
14.28750000000003
 20
0.5609978198621123
 30
0.0
  0
SPLINE
  5
B4
330
1F
100
AcDbEntity
  8
외형선
  6
Continuous
370
    15
100
AcDbSpline
210
0.0
220
0.0
230
1.0
 70
    24
 71
     3
 72
     9
 73
     5
 74
     0
 42
0.000000001
 43
0.00000001
 40
0.0
 40
0.0
 40
0.0
 40
0.0
 40
0.7499194830424266
 40
1.0
 40
1.0
 40
1.0
 40
1.0
 10
14.28750000000001
 20
-0.9703028727013963
 30
0.0
 10
14.28750000000001
 20
-0.9878740287213419
 30
0.0
 10
14.28750000000001
 20
-1.011304752175358
 30
0.0
 10
14.28750000000001
 20
-1.03287322027521
 30
0.0
 10
14.28750000000001
 20
-1.038267073927603
 30
0.0
  0
SPLINE
  5
B5
330
1F
100
AcDbEntity
  8
0
  6
Continuous
 62
     1
370
    25
100
AcDbSpline
210
0.0
220
0.0
230
1.0
 70
     8
 71
     3
 72
    30
 73
    26
 74
     0
 42
0.000000001
 43
0.00000001
 40
0.0
 40
0.0
 40
0.0
 40
0.0
 40
0.1249999999999993
 40
0.1249999999999993
 40
0.1874999999999991
 40
0.1874999999999991
 40
0.249999999999999
 40
0.249999999999999
 40
0.3749999999999992
 40
0.3749999999999992
 40
0.4374999999999992
 40
0.4374999999999992
 40
0.4999999999999993
 40
0.4999999999999993
 40
0.5624999999999994
 40
0.5624999999999994
 40
0.6249999999999994
 40
0.6249999999999994
 40
0.7499999999999997
 40
0.7499999999999997
 40
0.8749999999999998
 40
0.8749999999999998
 40
0.9374999999999999
 40
0.9374999999999999
 40
1.0
 40
1.0
 40
1.0
 40
1.0
 10
19.05000000000001
 20
-1.129832722429229
 30
0.0
 10
18.85460184818464
 20
-1.093879545855949
 30
0.0
 10
18.65171416101618
 20
-1.041622961934429
 30
0.0
 10
18.35474486185979
 20
-0.9432947958372302
 30
0.0
 10
18.25753514467664
 20
-0.907354780426136
 30
0.0
 10
18.05883792844119
 20
-0.8289213159525752
 30
0.0
 10
17.95850721710195
 20
-0.7865437708527437
 30
0.0
 10
17.65926105134634
 20
-0.6518776408719935
 30
0.0
 10
17.46431833407804
 20
-0.5524865098027056
 30
0.0
 10
17.16443185143109
 20
-0.3927637818578
 30
0.0
 10
17.064401093587
 20
-0.3379484019455544
 30
0.0
 10
16.86729980955512
 20
-0.2269091562018345
 30
0.0
 10
16.76957863566483
 20
-0.1705714057161727
 30
0.0
 10
16.57032626686646
 20
-0.0563784912102597
 30
0.0
 10
16.46997138328619
 20
0.0012530431892556
 30
0.0
 10
16.27093488662991
 20
0.1157881430078665
 30
0.0
 10
16.17349341627656
 20
0.1724540418633234
 30
0.0
 10
15.87725264082945
 20
0.3408284759642943
 30
0.0
 10
15.67426467358003
 20
0.4508502037071962
 30
0.0
 10
15.28213494644987
 20
0.6530508690429142
 30
0.0
 10
15.08069224411007
 20
0.7473259515528846
 30
0.0
 10
14.7830741146515
 20
0.8705916422814666
 30
0.0
 10
14.68592691581553
 20
0.9085381403982388
 30
0.0
 10
14.48762275945036
 20
0.9784012264599871
 30
0.0
 10
14.38734400535186
 20
1.010173391475061
 30
0.0
 10
14.28750000000263
 20
1.03826707392671
 30
0.0
  0
SPLINE
  5
B6
330
1F
100
AcDbEntity
  8
0
  6
Continuous
 62
     1
370
    25
100
AcDbSpline
210
0.0
220
0.0
230
1.0
 70
     8
 71
     3
 72
    14
 73
    10
 74
     0
 42
0.000000001
 43
0.00000001
 40
0.0
 40
0.0
 40
0.0
 40
0.0
 40
0.1520500652008823
 40
0.3034163359792982
 40
0.4556050015062017
 40
0.6075085159654582
 40
0.7588926119967254
 40
0.9111865712046011
 40
1.0
 40
1.0
 40
1.0
 40
1.0
 10
19.05000000000001
 20
-0.9393701022634058
 30
0.0
 10
18.89271427759359
 20
-0.9060057975434397
 30
0.0
 10
18.57885017282414
 20
-0.8394272329288539
 30
0.0
 10
18.10823103171369
 20
-0.681914835880354
 30
0.0
 10
17.63696019230986
 20
-0.4936930912702743
 30
0.0
 10
17.16593543023882
 20
-0.2783971701776662
 30
0.0
 10
16.69533267523289
 20
-0.0484535478532908
 30
0.0
 10
16.2890823147815
 20
0.1525379811915907
 30
0.0
 10
16.03983807771532
 20
0.2684396031717759
 30
0.0
 10
15.94802738918909
 20
0.3111326974657949
 30
0.0
  0
LINE
  5
B7
330
1F
100
AcDbEntity
  8
0
  6
Continuous
 62
     1
370
    25
100
AcDbLine
 10
19.04999999999998
 20
-1.12983272242923
 30
0.0
 11
19.05000000000001
 21
-0.9393701022634058
 31
0.0
  0
SPLINE
  5
B8
330
1F
100
AcDbEntity
  8
0
  6
Continuous
 62
     1
370
    25
100
AcDbSpline
210
0.0
220
0.0
230
1.0
 70
     8
 71
     3
 72
    30
 73
    26
 74
     0
 42
0.000000001
 43
0.00000001
 40
0.0
 40
0.0
 40
0.0
 40
0.0
 40
0.0625000000000001
 40
0.0625000000000001
 40
0.1250000000000002
 40
0.1250000000000002
 40
0.2500000000000002
 40
0.2500000000000002
 40
0.3750000000000003
 40
0.3750000000000003
 40
0.4375000000000003
 40
0.4375000000000003
 40
0.5000000000000004
 40
0.5000000000000004
 40
0.5625000000000004
 40
0.5625000000000004
 40
0.6250000000000004
 40
0.6250000000000004
 40
0.7500000000000006
 40
0.7500000000000006
 40
0.8125000000000004
 40
0.8125000000000004
 40
0.8750000000000002
 40
0.8750000000000002
 40
1.0
 40
1.0
 40
1.0
 40
1.0
 10
14.2875000000005
 20
0.8369420036062869
 30
0.0
 10
14.38734400534976
 20
0.7961169915924214
 30
0.0
 10
14.48762275944831
 20
0.7523008712116352
 30
0.0
 10
14.6859269158136
 20
0.6600895047142121
 30
0.0
 10
14.78307411464962
 20
0.6118613105135783
 30
0.0
 10
15.08069224410827
 20
0.4603273305253598
 30
0.0
 10
15.28213494644824
 20
0.350900189718923
 30
0.0
 10
15.67426467357851
 20
0.1273466412546967
 30
0.0
 10
15.87725264082802
 20
0.010925666480024
 30
0.0
 10
16.1734934162753
 20
-0.159996692895882
 30
0.0
 10
16.27093488662868
 20
-0.2163673281521041
 30
0.0
 10
16.46997138328503
 20
-0.3280043162615626
 30
0.0
 10
16.57032626686534
 20
-0.3830263397658372
 30
0.0
 10
16.76957863566382
 20
-0.4897582736171995
 30
0.0
 10
16.86729980955417
 20
-0.5412702273092967
 30
0.0
 10
17.06440109358611
 20
-0.6405024401659648
 30
0.0
 10
17.16443185143024
 20
-0.6883132118540033
 30
0.0
 10
17.46431833407732
 20
-0.8240016166924834
 30
0.0
 10
17.65926105134573
 20
-0.9035057579641533
 30
0.0
 10
17.95850721710146
 20
-1.003319254241183
 30
0.0
 10
18.05883792844075
 20
-1.033257066457614
 30
0.0
 10
18.25753514467629
 20
-1.085560524035543
 30
0.0
 10
18.35474486185948
 20
-1.107869366937894
 30
0.0
 10
18.651714161016
 20
-1.163496795589916
 30
0.0
 10
18.85460184818455
 20
-1.18493380244786
 30
0.0
 10
19.05000000000001
 20
-1.189618701881673
 30
0.0
  0
SPLINE
  5
B9
330
1F
100
AcDbEntity
  8
0
  6
Continuous
 62
     1
370
    25
100
AcDbSpline
210
0.0
220
0.0
230
1.0
 70
     8
 71
     3
 72
    11
 73
     7
 74
     0
 42
0.000000001
 43
0.00000001
 40
0.0
 40
0.0
 40
0.0
 40
0.0
 40
0.1885441951019743
 40
0.4486295883508299
 40
0.7104071439955868
 40
1.0
 40
1.0
 40
1.0
 40
1.0
 10
16.09321885609392
 20
-0.1135427242127681
 30
0.0
 10
15.97972850951799
 20
-0.0679837846174005
 30
0.0
 10
15.70968504602863
 20
0.0404209758967889
 30
0.0
 10
15.28238314554336
 20
0.2133466896105278
 30
0.0
 10
14.79360651143178
 20
0.399352371156849
 30
0.0
 10
14.46178208308896
 20
0.505333834345503
 30
0.0
 10
14.28750000000001
 20
0.5609978198621172
 30
0.0
  0
SPLINE
  5
BA
330
1F
100
AcDbEntity
  8
외형선
  6
Continuous
370
    15
100
AcDbSpline
210
0.0
220
0.0
230
1.0
 70
    24
 71
     3
 72
    10
 73
     6
 74
     0
 42
0.000000001
 43
0.00000001
 40
0.0
 40
0.0
 40
0.0
 40
0.0
 40
0.5
 40
0.5
 40
1.0
 40
1.0
 40
1.0
 40
1.0
 10
14.28750000000003
 20
0.8369420036070189
 30
0.0
 10
14.28750000000003
 20
0.8080888403129245
 30
0.0
 10
14.28750000000003
 20
0.7675858084727778
 30
0.0
 10
14.28750000000003
 20
0.6716718768271487
 30
0.0
 10
14.28750000000003
 20
0.6165751877873036
 30
0.0
 10
14.28750000000003
 20
0.5609978198621122
 30
0.0
  0
LINE
  5
BB
330
1F
100
AcDbEntity
  8
0
  6
Continuous
 62
     1
370
    25
100
AcDbLine
 10
19.05000000000001
 20
-1.189618701882793
 30
0.0
 11
19.04999999999986
 21
-1.129832722429227
 31
0.0
  0
SPLINE
  5
BC
330
1F
100
AcDbEntity
  8
0
  6
Continuous
 62
     1
370
    25
100
AcDbSpline
210
0.0
220
0.0
230
1.0
 70
     8
 71
     3
 72
     8
 73
     4
 74
     0
 42
0.000000001
 43
0.00000001
 40
0.0
 40
0.0
 40
0.0
 40
0.0
 40
1.0
 40
1.0
 40
1.0
 40
1.0
 10
18.31311867067989
 20
0.3332246836425575
 30
0.0
 10
18.27085961301171
 20
0.383247697711785
 30
0.0
 10
18.23314615656604
 20
0.4314055764532065
 30
0.0
 10
18.20104480894123
 20
0.4772607141681072
 30
0.0
  0
LINE
  5
BD
330
1F
100
AcDbEntity
  8
0
  6
Continuous
 62
     1
370
    25
100
AcDbLine
 10
18.21614158570376
 20
0.4899284139927398
 30
0.0
 11
19.05000000000001
 21
0.0000000000000023
 31
0.0
  0
LINE
  5
BE
330
1F
100
AcDbEntity
  8
0
  6
Continuous
 62
     1
370
    25
100
AcDbLine
 10
19.05000000000001
 20
0.0000000000000023
 30
0.0
 11
19.05000000000001
 21
-0.3181861326165436
 31
0.0
  0
SPLINE
  5
BF
330
1F
100
AcDbEntity
  8
0
  6
Continuous
 62
     1
370
    25
100
AcDbSpline
210
0.0
220
0.0
230
1.0
 70
     8
 71
     3
 72
    10
 73
     6
 74
     0
 42
0.000000001
 43
0.00000001
 40
0.0
 40
0.0
 40
0.0
 40
0.0
 40
0.5
 40
0.5
 40
1.0
 40
1.0
 40
1.0
 40
1.0
 10
19.05000000000001
 20
-0.3181861326165435
 30
0.0
 10
18.92244037202746
 20
-0.2179006366655498
 30
0.0
 10
18.79701330534632
 20
-0.1135000420721148
 30
0.0
 10
18.55052308936826
 20
0.1037219838688968
 30
0.0
 10
18.42830137272726
 20
0.2176860461589317
 30
0.0
 10
18.31311867067878
 20
0.3332246836399434
 30
0.0
  0
SPLINE
  5
C0
330
1F
100
AcDbEntity
  8
0
  6
Continuous
 62
     1
370
    25
100
AcDbSpline
210
0.0
220
0.0
230
1.0
 70
     8
 71
     3
 72
    14
 73
    10
 74
     0
 42
0.000000001
 43
0.00000001
 40
0.0
 40
0.0
 40
0.0
 40
0.0
 40
0.1233029728948284
 40
0.2466677435875952
 40
0.4184871035679016
 40
0.5897108341634597
 40
0.7619782096465588
 40
0.9336493791159686
 40
1.0
 40
1.0
 40
1.0
 40
1.0
 10
18.31311867067895
 20
0.3332246836429646
 30
0.0
 10
18.20041826111841
 20
0.381105993185218
 30
0.0
 10
17.97496095806209
 20
0.476892609740529
 30
0.0
 10
17.59245921282103
 20
0.6222353142012124
 30
0.0
 10
17.16595133029657
 20
0.7603493053770803
 30
0.0
 10
16.6953277009798
 20
0.874546006195585
 30
0.0
 10
16.22399412041076
 20
0.9395157626453079
 30
0.0
 10
15.84900998771542
 20
0.9619891549923474
 30
0.0
 10
15.63151504016108
 20
0.9449806269754446
 30
0.0
 10
15.57088645322397
 20
0.9402393535291389
 30
0.0
  0
SPLINE
  5
C1
330
1F
100
AcDbEntity
  8
0
  6
Continuous
 62
     1
370
    25
100
AcDbSpline
210
0.0
220
0.0
230
1.0
 70
    24
 71
     3
 72
    10
 73
     6
 74
     0
 42
0.000000001
 43
0.00000001
 40
0.0
 40
0.0
 40
0.0
 40
0.0
 40
0.5
 40
0.5
 40
1.0
 40
1.0
 40
1.0
 40
1.0
 10
19.05000000000001
 20
-0.9393701022634054
 30
0.0
 10
19.05000000000001
 20
-0.8673600600326535
 30
0.0
 10
19.05000000000001
 20
-0.7763726105261377
 30
0.0
 10
19.05000000000001
 20
-0.5648355469887765
 30
0.0
 10
19.05000000000001
 20
-0.4444691743829635
 30
0.0
 10
19.05000000000001
 20
-0.3181861326165815
 30
0.0
  0
SPLINE
  5
C2
330
1F
100
AcDbEntity
  8
0
  6
Continuous
 62
     1
370
    25
100
AcDbSpline
210
0.0
220
0.0
230
1.0
 70
    24
 71
     3
 72
     8
 73
     4
 74
     0
 42
0.000000001
 43
0.00000001
 40
0.0
 40
0.0
 40
0.0
 40
0.0
 40
1.0
 40
1.0
 40
1.0
 40
1.0
 10
18.32532161587651
 20
0.5815413370426156
 30
0.0
 10
18.28600547470796
 20
0.54855117748877
 30
0.0
 10
18.24439779872908
 20
0.5136381919207438
 30
0.0
 10
18.20104480893629
 20
0.477260714175175
 30
0.0
  0
LINE
  5
C3
330
1F
100
AcDbEntity
  8
0
  6
Continuous
 62
     1
370
    25
100
AcDbLine
 10
19.05000000000001
 20
0.8334375000000015
 30
0.0
 11
18.6101624882716
 21
0.8132384921541398
 31
0.0
  0
SPLINE
  5
C4
330
1F
100
AcDbEntity
  8
0
  6
Continuous
 62
     1
370
    25
100
AcDbSpline
210
0.0
220
0.0
230
1.0
 70
     8
 71
     3
 72
     8
 73
     4
 74
     0
 42
0.000000001
 43
0.00000001
 40
0.0
 40
0.0
 40
0.0
 40
0.0
 40
1.0
 40
1.0
 40
1.0
 40
1.0
 10
19.05000000000001
 20
0.8334375000000023
 30
0.0
 10
18.80508565133288
 20
0.7668707096745614
 30
0.0
 10
18.56254529027892
 20
0.6850608002371765
 30
0.0
 10
18.32532161589075
 20
0.5815413370488371
 30
0.0
  0
SPLINE
  5
C5
330
1F
100
AcDbEntity
  8
0
  6
Continuous
 62
     1
370
    25
100
AcDbSpline
210
0.0
220
0.0
230
1.0
 70
     8
 71
     3
 72
    12
 73
     8
 74
     0
 42
0.000000001
 43
0.00000001
 40
0.0
 40
0.0
 40
0.0
 40
0.0
 40
0.1367777281514708
 40
0.3466905136898529
 40
0.5561062260760902
 40
0.7668488476528674
 40
1.0
 40
1.0
 40
1.0
 40
1.0
 10
16.53041502048472
 20
-0.8897537301336037
 30
0.0
 10
16.42811409543926
 20
-0.9060718807622082
 30
0.0
 10
16.16881193613098
 20
-0.9474334978935753
 30
0.0
 10
15.7530888362493
 20
-0.9594413785184046
 30
0.0
 10
15.28242319389897
 20
-0.9291329573277011
 30
0.0
 10
14.79356936136696
 20
-0.8491579652047668
 30
0.0
 10
14.46177300640173
 20
-0.7542571095448223
 30
0.0
 10
14.28750000000001
 20
-0.7044113014807564
 30
0.0
  0
SPLINE
  5
C6
330
1F
100
AcDbEntity
  8
외형선
  6
Continuous
370
    15
100
AcDbSpline
210
0.0
220
0.0
230
1.0
 70
    24
 71
     3
 72
    10
 73
     6
 74
     0
 42
0.000000001
 43
0.00000001
 40
0.0
 40
0.0
 40
0.0
 40
0.0
 40
0.5
 40
0.5
 40
1.0
 40
1.0
 40
1.0
 40
1.0
 10
14.28749999999992
 20
0.560997819862144
 30
0.0
 10
14.28749999999992
 20
0.3783456917417487
 30
0.0
 10
14.28749999999992
 20
0.1563850347805215
 30
0.0
 10
14.28749999999992
 20
-0.2934143332440976
 30
0.0
 10
14.28749999999992
 20
-0.5177679600076137
 30
0.0
 10
14.28749999999992
 20
-0.704411301480729
 30
0.0
  0
LINE
  5
C7
330
1F
100
AcDbEntity
  8
0
  6
Continuous
 62
     1
370
    25
100
AcDbLine
 10
19.05000000000001
 20
0.0000000000000023
 30
0.0
 11
19.05000000000001
 21
0.8334375000000024
 31
0.0
  0
SPLINE
  5
C8
330
1F
100
AcDbEntity
  8
외형선
  6
Continuous
370
    15
100
AcDbSpline
210
0.0
220
0.0
230
1.0
 70
    24
 71
     3
 72
    12
 73
     8
 74
     0
 42
0.000000001
 43
0.00000001
 40
0.0
 40
0.0
 40
0.0
 40
0.0
 40
0.1833074579240648
 40
0.3690536187711239
 40
0.6360631703043185
 40
0.9108160169204882
 40
1.0
 40
1.0
 40
1.0
 40
1.0
 10
14.2875
 20
-0.7044113014807516
 30
0.0
 10
14.2875
 20
-0.7320980198237161
 30
0.0
 10
14.28750000000001
 20
-0.787839797665623
 30
0.0
 10
14.28750000000001
 20
-0.8626582573131999
 30
0.0
 10
14.28750000000001
 20
-0.921884867413565
 30
0.0
 10
14.28750000000001
 20
-0.951147289302731
 30
0.0
 10
14.28750000000001
 20
-0.9476084241064043
 30
0.0
 10
14.28750000000001
 20
-0.9467412129091928
 30
0.0
  0
SPLINE
  5
C9
330
1F
100
AcDbEntity
  8
0
  6
Continuous
 62
     1
370
    25
100
AcDbSpline
210
0.0
220
0.0
230
1.0
 70
    24
 71
     3
 72
    10
 73
     6
 74
     0
 42
0.000000001
 43
0.00000001
 40
0.0
 40
0.0
 40
0.0
 40
0.0
 40
0.5
 40
0.5
 40
1.0
 40
1.0
 40
1.0
 40
1.0
 10
19.05000000000001
 20
0.8334375000000016
 30
0.0
 10
19.05000000000001
 20
0.8839584057612095
 30
0.0
 10
19.05000000000001
 20
0.9426683769949128
 30
0.0
 10
19.05000000000001
 20
1.06584173851902
 30
0.0
 10
19.05000000000001
 20
1.129990559501129
 30
0.0
 10
19.05000000000001
 20
1.189618701882796
 30
0.0
  0
SPLINE
  5
CA
330
1F
100
AcDbEntity
  8
0
  6
Continuous
 62
     1
370
    25
100
AcDbSpline
210
0.0
220
0.0
230
1.0
 70
     8
 71
     3
 72
    16
 73
    12
 74
     0
 42
0.000000001
 43
0.00000001
 40
0.0
 40
0.0
 40
0.0
 40
0.0
 40
0.0187862191305383
 40
0.1243008192851233
 40
0.2301842891838987
 40
0.3251029928982706
 40
0.5153396257777363
 40
0.6106956321046226
 40
0.707797349367501
 40
0.9024306159292899
 40
1.0
 40
1.0
 40
1.0
 40
1.0
 10
17.41865943432052
 20
0.8009557167510128
 30
0.0
 10
17.42888548259062
 20
0.8054300317745823
 30
0.0
 10
17.49654711099979
 20
0.8350347659312987
 30
0.0
 10
17.62142631200026
 20
0.8849969351466881
 30
0.0
 10
17.78783795300328
 20
0.9469527176532322
 30
0.0
 10
18.00073309570212
 20
1.017182064124017
 30
0.0
 10
18.20804395443431
 20
1.074473427170534
 30
0.0
 10
18.41555770402024
 20
1.120238634723334
 30
0.0
 10
18.62613638656243
 20
1.157174328916085
 30
0.0
 10
18.83837632069473
 20
1.181675474908507
 30
0.0
 10
18.99702546564093
 20
1.187630319714612
 30
0.0
 10
19.05000000000001
 20
1.189618701882641
 30
0.0
  0
LINE
  5
CB
330
1F
100
AcDbEntity
  8
0
  6
Continuous
 62
     1
370
    25
100
AcDbLine
 10
14.5754420973493
 20
-0.9394312952892212
 30
0.0
 11
14.28750000000263
 21
-1.038267073926707
 31
0.0
  0
SPLINE
  5
CC
330
1F
100
AcDbEntity
  8
외형선
  6
Continuous
370
    15
100
AcDbSpline
210
0.0
220
0.0
230
1.0
 70
    24
 71
     3
 72
    10
 73
     6
 74
     0
 42
0.000000001
 43
0.00000001
 40
0.0
 40
0.0
 40
0.0
 40
0.0
 40
0.3616683073560688
 40
0.7500792908683342
 40
1.0
 40
1.0
 40
1.0
 40
1.0
 10
14.28750000000001
 20
-0.9703028727013964
 30
0.0
 10
14.28750000000001
 20
-0.9788444193629208
 30
0.0
 10
14.28750000000001
 20
-0.9965590964094978
 30
0.0
 10
14.28750000000001
 20
-1.019060424132783
 30
0.0
 10
14.28750000000001
 20
-1.032863047406347
 30
0.0
 10
14.28750000000001
 20
-1.038267073927603
 30
0.0
  0
LINE
  5
CD
330
1F
100
AcDbEntity
  8
중심선
 62
     1
100
AcDbLine
 10
-22.05
 20
-0.0000000000000027
 30
0.0
 11
22.05
 21
0.0000000000000027
 31
0.0
  0
LINE
  5
CE
330
1F
100
AcDbEntity
  8
참조1
100
AcDbLine
 10
-3.881711678730516
 20
0.0010749287238892
 30
0.0
 11
-3.881711678730509
 21
-39.99892507127611
 31
0.0
  0
LINE
  5
CF
330
1F
100
AcDbEntity
  8
참조1
100
AcDbLine
 10
-3.881711678730509
 20
-39.99892507127611
 30
0.0
 11
-29.45992727542973
 21
-39.9989250712761
 31
0.0
  0
CIRCLE
  5
D0
330
1F
100
AcDbEntity
  8
해칭선
100
AcDbCircle
 10
0.0000000000000009
 20
0.0
 30
0.0
 40
3.0
  0
INSERT
  5
D1
330
1F
100
AcDbEntity
  8
0
  6
Continuous
 62
     7
100
AcDbBlockReference
 66
     1
  2
블럭10
 10
-13.14318494220892
 20
-24.75310130581367
 30
0.0
  0
ATTRIB
  5
D2
330
D1
100
AcDbEntity
  8
FORMAT
 62
     2
100
AcDbText
 10
-22.3244802309502
 20
-22.67773439298148
 30
0.0
 40
4.233333333333333
  1
E5022006 [ 2 FLUTE ]
 41
0.75
  7
SLDTEXTSTYLE0
 11
-22.3244802309502
 21
-24.79440105964815
 31
0.0
100
AcDbAttribute
  2
AUTOATTR0
 70
     0
 74
     1
  0
SEQEND
  5
D3
330
D1
100
AcDbEntity
  8
0
  6
Continuous
 62
     7
  0
HATCH
  5
D4
330
1F
100
AcDbEntity
  8
중심선
100
AcDbHatch
 10
0.0
 20
0.0
 30
0.0
210
0.0
220
0.0
230
1.0
  2
SOLID
 70
     1
 71
     0
 91
        1
 92
        0
 93
        4
 72
     1
 10
-7.428275637828065
 20
-8.505927004169735
 11
-10.87455088166535
 21
-8.505927004169735
 72
     1
 10
-10.87455088166535
 20
-8.505927004169735
 11
-13.00278074086937
 21
-11.04225258474234
 72
     1
 10
-13.00278074086937
 20
-11.04225258474234
 11
-9.55647241191894
 21
-11.04221315543985
 72
     1
 10
-9.55647241191894
 20
-11.04221315543985
 11
-7.428275637828065
 21
-8.505927004169735
 97
        0
 75
     0
 76
     1
 98
        1
 10
4.678799668646803
 20
27.29299806710637
  0
HATCH
  5
D5
330
1F
100
AcDbEntity
  8
중심선
100
AcDbHatch
 10
0.0
 20
0.0
 30
0.0
210
0.0
220
0.0
230
1.0
  2
SOLID
 70
     1
 71
     0
 91
        1
 92
        0
 93
        4
 72
     1
 10
-2.415511646792114
 20
-8.505927004169735
 11
-5.861786890629368
 21
-8.505927004169735
 72
     1
 10
-5.861786890629368
 20
-8.505927004169735
 11
-10.39292489898678
 21
-13.90592700416975
 72
     1
 10
-10.39292489898678
 20
-13.90592700416975
 11
-6.946649655149502
 21
-13.90592700416975
 72
     1
 10
-6.946649655149502
 20
-13.90592700416975
 11
-2.415511646792114
 21
-8.505927004169735
 97
        0
 75
     0
 76
     1
 98
        1
 10
4.678799668646803
 20
27.29299806710637
  0
HATCH
  5
D6
330
1F
100
AcDbEntity
  8
중심선
100
AcDbHatch
 10
0.0
 20
0.0
 30
0.0
210
0.0
220
0.0
230
1.0
  2
SOLID
 70
     1
 71
     0
 91
        1
 92
        0
 93
        4
 72
     1
 10
2.59725234424381
 20
-8.505927004169713
 11
-0.8490228995933338
 21
-8.505927004169763
 72
     1
 10
-0.8490228995933338
 20
-8.505927004169763
 11
-7.897459801482583
 21
-16.90592700416975
 72
     1
 10
-7.897459801482583
 20
-16.90592700416975
 11
-4.4511845576453
 21
-16.90592700416975
 72
     1
 10
-4.4511845576453
 20
-16.90592700416975
 11
2.59725234424381
 21
-8.505927004169713
 97
        0
 75
     0
 76
     1
 98
        1
 10
4.678799668646803
 20
27.29299806710637
  0
HATCH
  5
D7
330
1F
100
AcDbEntity
  8
중심선
100
AcDbHatch
 10
0.0
 20
0.0
 30
0.0
210
0.0
220
0.0
230
1.0
  2
SOLID
 70
     1
 71
     0
 91
        1
 92
        0
 93
        6
 72
     3
 10
7.397142775255981
 20
-12.70592700422101
 11
3.960054785062285
 21
1.540882976769353E-10
 40
0.3939339440162626
 50
17.09539180608436
 51
320.0019657685081
 73
     0
 72
     1
 10
9.080142430956577
 20
-11.29382100880804
 11
11.38544430465764
 21
-9.35949429876009
 72
     3
 10
7.397142775203134
 20
-12.70592700416989
 11
6.600054785286829
 21
-1.278976924368180E-13
 40
0.636358354079598
 50
39.99873849337411
 51
368.4976242363724
 73
     1
 72
     1
 10
13.82247526710374
 20
-11.74592700409976
 11
6.077210082039057
 21
-11.74592700409976
 72
     1
 10
6.077210082039057
 20
-11.74592700409976
 11
6.077185037593123
 21
-13.66592700409965
 72
     1
 10
6.077185037593123
 20
-13.66592700409965
 11
10.51856480706516
 21
-13.66592700409962
 97
        0
 75
     0
 76
     1
 98
        1
 10
4.678799668646803
 20
27.29299806710637
  0
DIMENSION
  5
D8
330
1F
100
AcDbEntity
  8
치수문자_일반주서
100
AcDbDimension
  2
_D
 10
-24.05773123120566
 20
-1.587500000000041
 30
0.0
 11
-24.05773123120572
 21
15.74374999999997
 31
0.0
 70
   160
  1
%%c<>
 71
     2
 42
3.175000000000004
 52
-270.0
  3
SLDDIMSTYLE0
100
AcDbAlignedDimension
 13
-11.80634233574608
 23
1.587500000000009
 33
0.0
 14
-11.80634233574608
 24
-1.587499999999995
 34
0.0
 50
90.0000000000002
100
AcDbRotatedDimension
1001
ACAD
1000
DSTYLE
1002
{
1070
   171
1070
     6
1070
   273
1070
     5
1070
    41
1040
2.5
1070
   140
1040
2.5
1002
}
  0
DIMENSION
  5
ED
330
1F
100
AcDbEntity
  8
치수문자_일반주서
100
AcDbDimension
  2
_D_1
 10
29.24489868344792
 20
1.189618701882834
 30
0.0
 11
29.24489868344788
 21
16.75211870188284
 31
0.0
 70
   160
  1
%%c<>
 71
     2
 42
2.379237403765589
 52
-270.0
  3
SLDDIMSTYLE0
100
AcDbAlignedDimension
 13
19.05000000000001
 23
-1.189618701882793
 33
0.0
 14
19.05000000000001
 24
1.189618701882796
 34
0.0
 50
90.0000000000002
100
AcDbRotatedDimension
1001
ACAD
1000
DSTYLE
1002
{
1070
   171
1070
     6
1070
   273
1070
     5
1070
    41
1040
2.5
1070
   140
1040
2.5
1002
}
  0
DIMENSION
  5
101
330
1F
100
AcDbEntity
  8
치수문자_일반주서
100
AcDbDimension
  2
_D_2
 10
14.28750000000001
 20
13.58507242606173
 30
0.0
 11
-0.0249999999999897
 21
13.58507242606173
 31
0.0
 70
   160
  1
<>
 71
     2
 42
4.762500000000001
  3
SLDDIMSTYLE0
100
AcDbAlignedDimension
 13
19.05000000000001
 23
1.189618701882796
 33
0.0
 14
14.28750000000001
 24
1.038267073927448
 34
0.0
100
AcDbRotatedDimension
1001
ACAD
1000
DSTYLE
1002
{
1070
   171
1070
     6
1070
   273
1070
     5
1070
    41
1040
2.5
1070
   140
1040
2.5
1002
}
  0
DIMENSION
  5
116
330
1F
100
AcDbEntity
  8
치수문자_일반주서
100
AcDbDimension
  2
_D_3
 10
19.05000000000001
 20
21.38307187380641
 30
0.0
 11
5.360139025846197
 21
21.38307187380641
 31
0.0
 70
   160
  1
<>
 71
     2
 42
38.09999999999999
  3
SLDDIMSTYLE0
100
AcDbAlignedDimension
 13
-19.04999999999998
 23
1.189618701882796
 33
0.0
 14
19.05000000000001
 24
1.189618701882796
 34
0.0
100
AcDbRotatedDimension
1001
ACAD
1000
DSTYLE
1002
{
1070
   171
1070
     6
1070
   273
1070
     5
1070
    41
1040
2.5
1070
   140
1040
2.5
1002
}
  0
LINE
  5
12A
330
1F
100
AcDbEntity
  8
참조1
100
AcDbLine
 10
68.51241335422453
 20
7.441074928723896
 30
0.0
 11
68.51241335422453
 21
-7.438925071276109
 31
0.0
  0
LINE
  5
12B
330
1F
100
AcDbEntity
  8
참조1
100
AcDbLine
 10
81.21241335422454
 20
5.441074928723896
 30
0.0
 11
68.51241335422453
 21
5.441074928723896
 31
0.0
  0
SOLID
  5
12C
330
1F
100
AcDbEntity
  8
참조1
100
AcDbTrace
 10
68.51241335422453
 20
5.441074928723896
 30
0.0
 11
74.86241335422453
 21
4.425074928723896
 31
0.0
 12
74.86241335422453
 22
6.457074928723896
 32
0.0
 13
74.86241335422453
 23
6.457074928723896
 33
0.0
  0
LINE
  5
12D
330
1F
100
AcDbEntity
  8
참조1
100
AcDbLine
 10
81.21241335422454
 20
-5.438925071276109
 30
0.0
 11
68.51241335422453
 21
-5.438925071276109
 31
0.0
  0
SOLID
  5
12E
330
1F
100
AcDbEntity
  8
참조1
100
AcDbTrace
 10
68.51241335422453
 20
-5.438925071276109
 30
0.0
 11
74.86241335422453
 21
-6.454925071276109
 31
0.0
 12
74.86241335422453
 22
-4.422925071276109
 32
0.0
 13
74.86241335422453
 23
-4.422925071276109
 33
0.0
  0
MTEXT
  5
12F
330
1F
100
AcDbEntity
  8
참조1
100
AcDbMText
 10
77.89676348685053
 20
11.01136670591222
 30
0.0
 40
3.5
 41
0.0
 71
     1
 72
     1
  1
A
  7
SLDTEXTSTYLE0
 73
     1
 44
1.0
  0
MTEXT
  5
130
330
1F
100
AcDbEntity
  8
참조1
100
AcDbMText
 10
77.89676348685053
 20
0.1313667059122192
 30
0.0
 40
3.5
 41
0.0
 71
     1
 72
     1
  1
A
  7
SLDTEXTSTYLE0
 73
     1
 44
1.0
  0
INSERT
  5
137
330
1F
100
AcDbEntity
  8
해칭선
100
AcDbBlockReference
  2
SW_DOWELSYMBOL_0
 10
0.0000000000000009
 20
0.0
 30
0.0
  0
LINE
  5
33C
330
1F
100
AcDbEntity
  8
외형선
  6
Continuous
370
    15
100
AcDbLine
 10
-11.80634233574608
 20
1.587500000000002
 30
0.0
 11
-13.28749999999998
 21
1.190625000000007
 31
0.0
  0
LINE
  5
33D
330
1F
100
AcDbEntity
  8
외형선
  6
Continuous
370
    15
100
AcDbLine
 10
-13.28749999999998
 20
-1.190624999999994
 30
0.0
 11
-11.80634233574608
 21
-1.587499999999995
 31
0.0
  0
LINE
  5
33E
330
1F
100
AcDbEntity
  8
외형선
  6
Continuous
370
    15
100
AcDbLine
 10
-13.39740833341473
 20
-1.190624999999994
 30
0.0
 11
-13.28749999999998
 21
-1.190624999999994
 31
0.0
  0
LINE
  5
33F
330
1F
100
AcDbEntity
  8
외형선
  6
Continuous
370
    15
100
AcDbLine
 10
-13.28749999999998
 20
1.190625000000007
 30
0.0
 11
-13.39740833341473
 21
1.190625000000007
 31
0.0
  0
LINE
  5
340
330
1F
100
AcDbEntity
  8
외형선
  6
Continuous
370
    15
100
AcDbLine
 10
-13.78160069582128
 20
0.9907678398589642
 30
0.0
 11
-14.28749999999996
 21
0.9501357587033358
 31
0.0
  0
LINE
  5
341
330
1F
100
AcDbEntity
  8
0
  6
Continuous
 62
     1
370
    25
100
AcDbLine
 10
-15.96605576816269
 20
-0.3050693724985901
 30
0.0
 11
-15.6344331029025
 21
-0.470291755446166
 31
0.0
  0
SPLINE
  5
342
330
1F
100
AcDbEntity
  8
0
  6
Continuous
 62
     1
370
    25
100
AcDbSpline
210
0.0
220
0.0
230
1.0
 70
     8
 71
     3
 72
    10
 73
     6
 74
     0
 42
0.000000001
 43
0.00000001
 40
0.0
 40
0.0
 40
0.0
 40
0.0
 40
0.5808511542730419
 40
0.8207844531423091
 40
1.0
 40
1.0
 40
1.0
 40
1.0
 10
-15.57095203708547
 20
-0.9461085140925259
 30
0.0
 10
-15.37818547404694
 20
-0.9387427832038678
 30
0.0
 10
-15.10579245758522
 20
-0.9283344757485746
 30
0.0
 10
-14.77554360045053
 20
-0.9298515143837814
 30
0.0
 10
-14.63673803972621
 20
-0.9360939647022203
 30
0.0
 10
-14.57738892132663
 20
-0.938763050300221
 30
0.0
  0
SPLINE
  5
343
330
1F
100
AcDbEntity
  8
0
  6
Continuous
 62
     1
370
    25
100
AcDbSpline
210
0.0
220
0.0
230
1.0
 70
     8
 71
     3
 72
    17
 73
    13
 74
     0
 42
0.000000001
 43
0.00000001
 40
0.0
 40
0.0
 40
0.0
 40
0.0
 40
0.1267033907522397
 40
0.2214226035160727
 40
0.3038143424513116
 40
0.3937214327202818
 40
0.4832755589266613
 40
0.7150743485874331
 40
0.7569028806755483
 40
0.8126138303592083
 40
0.8932262114967477
 40
1.0
 40
1.0
 40
1.0
 40
1.0
 10
-18.61061125779386
 20
-0.8146239563029919
 30
0.0
 10
-18.52192416224781
 20
-0.8077346716642037
 30
0.0
 10
-18.36693756340861
 20
-0.795695188489962
 30
0.0
 10
-18.15660067223426
 20
-0.7869546209024744
 30
0.0
 10
-17.97230424646531
 20
-0.7831893306331746
 30
0.0
 10
-17.79030673632601
 20
-0.7834970563781422
 30
0.0
 10
-17.50521978925337
 20
-0.790624817672882
 30
0.0
 10
-17.25293412126993
 20
-0.8072447930416086
 30
0.0
 10
-17.02428414191801
 20
-0.8297762336501261
 30
0.0
 10
-16.90083286404494
 20
-0.8434843930319825
 30
0.0
 10
-16.73236960662704
 20
-0.8647146205554289
 30
0.0
 10
-16.60192314365707
 20
-0.8843358296968201
 30
0.0
 10
-16.52759394916606
 20
-0.8955161149817851
 30
0.0
  0
SPLINE
  5
344
330
1F
100
AcDbEntity
  8
0
  6
Continuous
 62
     1
370
    25
100
AcDbSpline
210
0.0
220
0.0
230
1.0
 70
     8
 71
     3
 72
    12
 73
     8
 74
     0
 42
0.000000001
 43
0.00000001
 40
0.0
 40
0.0
 40
0.0
 40
0.0
 40
0.3074386691909383
 40
0.5168495027078474
 40
0.648895092906396
 40
0.7767647523916953
 40
1.0
 40
1.0
 40
1.0
 40
1.0
 10
-16.52759394916606
 20
0.8955161149817915
 30
0.0
 10
-16.6190224544087
 20
0.8818869687835648
 30
0.0
 10
-16.77272718385062
 20
0.8589743746930939
 30
0.0
 10
-16.96462995382913
 20
0.8359739251393524
 30
0.0
 10
-17.10379496918337
 20
0.8218402733691011
 30
0.0
 10
-17.24713642239831
 20
0.808612880778195
 30
0.0
 10
-17.3512462960806
 20
0.8033283410837729
 30
0.0
 10
-17.41744016851126
 20
0.7999683893902901
 30
0.0
  0
SPLINE
  5
345
330
1F
100
AcDbEntity
  8
0
  6
Continuous
 62
     1
370
    25
100
AcDbSpline
210
0.0
220
0.0
230
1.0
 70
     8
 71
     3
 72
    10
 73
     6
 74
     0
 42
0.000000001
 43
0.00000001
 40
0.0
 40
0.0
 40
0.0
 40
0.0
 40
0.4011058482252002
 40
0.5782764232643598
 40
1.0
 40
1.0
 40
1.0
 40
1.0
 10
-14.28749999999996
 20
0.9501357587033358
 30
0.0
 10
-14.45919201475241
 20
0.9420656958434069
 30
0.0
 10
-14.70672130068381
 20
0.9304310435270541
 30
0.0
 10
-15.13397374315066
 20
0.9285349762425487
 30
0.0
 10
-15.39039075157558
 20
0.9388470536740346
 30
0.0
 10
-15.57095203708547
 20
0.9461085140925324
 30
0.0
  0
LINE
  5
346
330
1F
100
AcDbEntity
  8
외형선
  6
Continuous
370
    15
100
AcDbLine
 10
-13.28749999999998
 20
-1.190624999999994
 30
0.0
 11
-13.28749999999998
 21
1.190625000000007
 31
0.0
  0
SPLINE
  5
347
330
1F
100
AcDbEntity
  8
외형선
  6
Continuous
370
    15
100
AcDbSpline
210
0.0
220
0.0
230
1.0
 70
     8
 71
     3
 72
    10
 73
     6
 74
     0
 42
0.000000001
 43
0.00000001
 40
0.0
 40
0.0
 40
0.0
 40
0.0
 40
0.5000000000000001
 40
0.5000000000000001
 40
1.0
 40
1.0
 40
1.0
 40
1.0
 10
-14.28750000000255
 20
-1.038267073926715
 30
0.0
 10
-14.13824473966721
 20
-1.080263885587389
 30
0.0
 10
-13.99270725033241
 20
-1.113871198395043
 30
0.0
 10
-13.69578074165652
 20
-1.163836918235515
 30
0.0
 10
-13.54506696945216
 20
-1.17999949006995
 30
0.0
 10
-13.39731248760725
 20
-1.186825751661598
 30
0.0
  0
LINE
  5
348
330
1F
100
AcDbEntity
  8
외형선
  6
Continuous
370
    15
100
AcDbLine
 10
-14.28749999999998
 20
-1.03826707392744
 30
0.0
 11
-14.28749999999998
 21
-0.8369420036101299
 31
0.0
  0
SPLINE
  5
349
330
1F
100
AcDbEntity
  8
외형선
  6
Continuous
370
    15
100
AcDbSpline
210
0.0
220
0.0
230
1.0
 70
     8
 71
     3
 72
    10
 73
     6
 74
     0
 42
0.000000001
 43
0.00000001
 40
0.0
 40
0.0
 40
0.0
 40
0.0
 40
0.5
 40
0.5
 40
1.0
 40
1.0
 40
1.0
 40
1.0
 10
-13.39740833341473
 20
-1.114397363208934
 30
0.0
 10
-13.54514811305303
 20
-1.084293210487314
 30
0.0
 10
-13.6958454309487
 20
-1.04526854203839
 30
0.0
 10
-13.99273886604128
 20
-0.9519985939226142
 30
0.0
 10
-14.13826087615156
 20
-0.8979640850303635
 30
0.0
 10
-14.28749999999975
 20
-0.8369420036071172
 30
0.0
  0
SPLINE
  5
34A
330
1F
100
AcDbEntity
  8
외형선
  6
Continuous
370
    15
100
AcDbSpline
210
0.0
220
0.0
230
1.0
 70
     8
 71
     3
 72
    10
 73
     6
 74
     0
 42
0.000000001
 43
0.00000001
 40
0.0
 40
0.0
 40
0.0
 40
0.0
 40
0.5000000000000001
 40
0.5000000000000001
 40
1.0
 40
1.0
 40
1.0
 40
1.0
 10
-14.28750000000255
 20
1.038267073926729
 30
0.0
 10
-14.13824473966721
 20
1.080263885587402
 30
0.0
 10
-13.99270725033241
 20
1.113871198395056
 30
0.0
 10
-13.69578074165652
 20
1.163836918235521
 30
0.0
 10
-13.54506696945216
 20
1.179999490069963
 30
0.0
 10
-13.39731248760725
 20
1.186825751661611
 30
0.0
  0
LINE
  5
34B
330
1F
100
AcDbEntity
  8
외형선
  6
Continuous
370
    15
100
AcDbLine
 10
-13.39740833341473
 20
-1.18682982370159
 30
0.0
 11
-13.39740833341473
 21
-1.190624999999994
 31
0.0
  0
LINE
  5
34C
330
1F
100
AcDbEntity
  8
외형선
  6
Continuous
370
    15
100
AcDbLine
 10
-13.39740833341473
 20
1.190625000000007
 30
0.0
 11
-13.39740833341473
 21
-1.114540504466515
 31
0.0
  0
SPLINE
  5
34D
330
1F
100
AcDbEntity
  8
외형선
  6
Continuous
370
    15
100
AcDbSpline
210
0.0
220
0.0
230
1.0
 70
    24
 71
     3
 72
    10
 73
     6
 74
     0
 42
0.000000001
 43
0.00000001
 40
0.0
 40
0.0
 40
0.0
 40
0.0
 40
0.5
 40
0.5
 40
1.0
 40
1.0
 40
1.0
 40
1.0
 10
-14.28749999999989
 20
-0.5609978198621345
 30
0.0
 10
-14.28749999999989
 20
-0.3783456917417393
 30
0.0
 10
-14.28749999999989
 20
-0.1563850347805168
 30
0.0
 10
-14.28749999999989
 20
0.2934143332441043
 30
0.0
 10
-14.28749999999989
 20
0.5177679600076207
 30
0.0
 10
-14.28749999999989
 20
0.7044113014807355
 30
0.0
  0
SPLINE
  5
34E
330
1F
100
AcDbEntity
  8
외형선
  6
Continuous
370
    15
100
AcDbSpline
210
0.0
220
0.0
230
1.0
 70
     8
 71
     3
 72
    10
 73
     6
 74
     0
 42
0.000000001
 43
0.00000001
 40
0.0
 40
0.0
 40
0.0
 40
0.0
 40
0.5
 40
0.5
 40
1.0
 40
1.0
 40
1.0
 40
1.0
 10
-14.28749999999998
 20
0.7044113014807639
 30
0.0
 10
-14.13825498031816
 20
0.6582091078023741
 30
0.0
 10
-13.99272731454016
 20
0.6069378805836824
 30
0.0
 10
-13.6958217952561
 20
0.4951630294381847
 30
0.0
 10
-13.54511846537784
 20
0.43467238239128
 30
0.0
 10
-13.39737331386642
 20
0.3716866461768294
 30
0.0
  0
SPLINE
  5
34F
330
1F
100
AcDbEntity
  8
외형선
  6
Continuous
370
    15
100
AcDbSpline
210
0.0
220
0.0
230
1.0
 70
     8
 71
     3
 72
    10
 73
     6
 74
     0
 42
0.000000001
 43
0.00000001
 40
0.0
 40
0.0
 40
0.0
 40
0.0
 40
0.5
 40
0.5
 40
1.0
 40
1.0
 40
1.0
 40
1.0
 10
-14.28749999999998
 20
-0.5609978198621061
 30
0.0
 10
-14.13825698580717
 20
-0.6054136729634546
 30
0.0
 10
-13.99273124382745
 20
-0.6451163051611427
 30
0.0
 10
-13.69582983502412
 20
-0.7144852216736023
 30
0.0
 10
-13.54512855014003
 20
-0.7440033452565838
 30
0.0
 10
-13.39738522587937
 20
-0.7673612872197605
 30
0.0
  0
SPLINE
  5
350
330
1F
100
AcDbEntity
  8
외형선
  6
Continuous
370
    15
100
AcDbSpline
210
0.0
220
0.0
230
1.0
 70
    24
 71
     3
 72
    12
 73
     8
 74
     0
 42
0.000000001
 43
0.00000001
 40
0.0
 40
0.0
 40
0.0
 40
0.0
 40
0.1828308434951437
 40
0.3680940490856137
 40
0.6344093538796868
 40
0.9084478205542683
 40
1.0
 40
1.0
 40
1.0
 40
1.0
 10
-14.28749999999996
 20
0.7044113014807568
 30
0.0
 10
-14.28749999999998
 20
0.7320983139479044
 30
0.0
 10
-14.28749999999998
 20
0.787840683951163
 30
0.0
 10
-14.28749999999998
 20
0.862653999920784
 30
0.0
 10
-14.28749999999998
 20
0.9219090979437855
 30
0.0
 10
-14.28749999999998
 20
0.9512020365372497
 30
0.0
 10
-14.28749999999998
 20
0.9476024293617048
 30
0.0
 10
-14.28749999999998
 20
0.9467010061837119
 30
0.0
  0
LINE
  5
351
330
1F
100
AcDbEntity
  8
외형선
  6
Continuous
370
    15
100
AcDbLine
 10
-13.7822880069221
 20
0.9879082718169659
 30
0.0
 11
-13.39731248760725
 21
1.01183686908033
 31
0.0
  0
SPLINE
  5
352
330
1F
100
AcDbEntity
  8
외형선
  6
Continuous
370
    15
100
AcDbSpline
210
0.0
220
0.0
230
1.0
 70
    24
 71
     3
 72
    10
 73
     6
 74
     0
 42
0.000000001
 43
0.00000001
 40
0.0
 40
0.0
 40
0.0
 40
0.0
 40
0.5
 40
0.5
 40
1.0
 40
1.0
 40
1.0
 40
1.0
 10
-14.28749999999999
 20
-0.8369420036070178
 30
0.0
 10
-14.28749999999999
 20
-0.8080888403129162
 30
0.0
 10
-14.28749999999999
 20
-0.7675858084727704
 30
0.0
 10
-14.28749999999999
 20
-0.6716718768271445
 30
0.0
 10
-14.28749999999999
 20
-0.6165751877873017
 30
0.0
 10
-14.28749999999999
 20
-0.5609978198621061
 30
0.0
  0
SPLINE
  5
353
330
1F
100
AcDbEntity
  8
외형선
  6
Continuous
370
    15
100
AcDbSpline
210
0.0
220
0.0
230
1.0
 70
    24
 71
     3
 72
     9
 73
     5
 74
     0
 42
0.000000001
 43
0.00000001
 40
0.0
 40
0.0
 40
0.0
 40
0.0
 40
0.7499194830424266
 40
1.0
 40
1.0
 40
1.0
 40
1.0
 10
-14.28749999999998
 20
0.9703028727014061
 30
0.0
 10
-14.28749999999998
 20
0.9878740287213464
 30
0.0
 10
-14.28749999999998
 20
1.011304752175366
 30
0.0
 10
-14.28749999999998
 20
1.032873220275217
 30
0.0
 10
-14.28749999999998
 20
1.03826707392761
 30
0.0
  0
SPLINE
  5
354
330
1F
100
AcDbEntity
  8
0
  6
Continuous
 62
     1
370
    25
100
AcDbSpline
210
0.0
220
0.0
230
1.0
 70
     8
 71
     3
 72
    30
 73
    26
 74
     0
 42
0.000000001
 43
0.00000001
 40
0.0
 40
0.0
 40
0.0
 40
0.0
 40
0.1249999999999993
 40
0.1249999999999993
 40
0.1874999999999991
 40
0.1874999999999991
 40
0.249999999999999
 40
0.249999999999999
 40
0.3749999999999992
 40
0.3749999999999992
 40
0.4374999999999992
 40
0.4374999999999992
 40
0.4999999999999993
 40
0.4999999999999993
 40
0.5624999999999994
 40
0.5624999999999994
 40
0.6249999999999994
 40
0.6249999999999994
 40
0.7499999999999997
 40
0.7499999999999997
 40
0.8749999999999998
 40
0.8749999999999998
 40
0.9374999999999999
 40
0.9374999999999999
 40
1.0
 40
1.0
 40
1.0
 40
1.0
 10
-19.04999999999998
 20
1.129832722429238
 30
0.0
 10
-18.8546018481846
 20
1.093879545855951
 30
0.0
 10
-18.65171416101614
 20
1.041622961934432
 30
0.0
 10
-18.35474486185975
 20
0.9432947958372356
 30
0.0
 10
-18.25753514467661
 20
0.9073547804261427
 30
0.0
 10
-18.05883792844116
 20
0.8289213159525805
 30
0.0
 10
-17.95850721710191
 20
0.7865437708527484
 30
0.0
 10
-17.6592610513463
 20
0.6518776408719976
 30
0.0
 10
-17.464318334078
 20
0.5524865098027153
 30
0.0
 10
-17.16443185143106
 20
0.3927637818578052
 30
0.0
 10
-17.06440109358696
 20
0.3379484019455635
 30
0.0
 10
-16.86729980955509
 20
0.2269091562018378
 30
0.0
 10
-16.7695786356648
 20
0.1705714057161774
 30
0.0
 10
-16.57032626686643
 20
0.0563784912102637
 30
0.0
 10
-16.46997138328615
 20
-0.0012530431892483
 30
0.0
 10
-16.27093488662987
 20
-0.1157881430078586
 30
0.0
 10
-16.17349341627652
 20
-0.1724540418633151
 30
0.0
 10
-15.87725264082942
 20
-0.3408284759642836
 30
0.0
 10
-15.67426467357999
 20
-0.4508502037071874
 30
0.0
 10
-15.28213494644983
 20
-0.6530508690429112
 30
0.0
 10
-15.08069224411004
 20
-0.7473259515528777
 30
0.0
 10
-14.78307411465147
 20
-0.8705916422814649
 30
0.0
 10
-14.6859269158155
 20
-0.9085381403982321
 30
0.0
 10
-14.48762275945031
 20
-0.9784012264599763
 30
0.0
 10
-14.38734400535183
 20
-1.010173391475054
 30
0.0
 10
-14.28750000000261
 20
-1.038267073926701
 30
0.0
  0
SPLINE
  5
355
330
1F
100
AcDbEntity
  8
0
  6
Continuous
 62
     1
370
    25
100
AcDbSpline
210
0.0
220
0.0
230
1.0
 70
     8
 71
     3
 72
    14
 73
    10
 74
     0
 42
0.000000001
 43
0.00000001
 40
0.0
 40
0.0
 40
0.0
 40
0.0
 40
0.1520500652008823
 40
0.3034163359792982
 40
0.4556050015062017
 40
0.6075085159654582
 40
0.7588926119967254
 40
0.9111865712046011
 40
1.0
 40
1.0
 40
1.0
 40
1.0
 10
-19.04999999999998
 20
0.9393701022634137
 30
0.0
 10
-18.89271427759357
 20
0.9060057975434465
 30
0.0
 10
-18.5788501728241
 20
0.8394272329288587
 30
0.0
 10
-18.10823103171365
 20
0.6819148358803592
 30
0.0
 10
-17.63696019230983
 20
0.4936930912702838
 30
0.0
 10
-17.16593543023879
 20
0.2783971701776725
 30
0.0
 10
-16.69533267523286
 20
0.0484535478532951
 30
0.0
 10
-16.28908231478146
 20
-0.1525379811915823
 30
0.0
 10
-16.03983807771528
 20
-0.2684396031717678
 30
0.0
 10
-15.94802738918906
 20
-0.311132697465791
 30
0.0
  0
LINE
  5
356
330
1F
100
AcDbEntity
  8
0
  6
Continuous
 62
     1
370
    25
100
AcDbLine
 10
-19.04999999999994
 20
1.129832722429238
 30
0.0
 11
-19.04999999999998
 21
0.9393701022634137
 31
0.0
  0
SPLINE
  5
357
330
1F
100
AcDbEntity
  8
0
  6
Continuous
 62
     1
370
    25
100
AcDbSpline
210
0.0
220
0.0
230
1.0
 70
     8
 71
     3
 72
    30
 73
    26
 74
     0
 42
0.000000001
 43
0.00000001
 40
0.0
 40
0.0
 40
0.0
 40
0.0
 40
0.0625000000000001
 40
0.0625000000000001
 40
0.1250000000000002
 40
0.1250000000000002
 40
0.2500000000000002
 40
0.2500000000000002
 40
0.3750000000000003
 40
0.3750000000000003
 40
0.4375000000000003
 40
0.4375000000000003
 40
0.5000000000000004
 40
0.5000000000000004
 40
0.5625000000000004
 40
0.5625000000000004
 40
0.6250000000000004
 40
0.6250000000000004
 40
0.7500000000000006
 40
0.7500000000000006
 40
0.8125000000000004
 40
0.8125000000000004
 40
0.8750000000000002
 40
0.8750000000000002
 40
1.0
 40
1.0
 40
1.0
 40
1.0
 10
-14.28750000000046
 20
-0.8369420036062788
 30
0.0
 10
-14.38734400534973
 20
-0.7961169915924099
 30
0.0
 10
-14.48762275944827
 20
-0.7523008712116276
 30
0.0
 10
-14.68592691581356
 20
-0.6600895047142042
 30
0.0
 10
-14.78307411464959
 20
-0.6118613105135718
 30
0.0
 10
-15.08069224410823
 20
-0.4603273305253562
 30
0.0
 10
-15.28213494644821
 20
-0.3509001897189176
 30
0.0
 10
-15.67426467357847
 20
-0.1273466412546863
 30
0.0
 10
-15.87725264082799
 20
-0.0109256664800167
 30
0.0
 10
-16.17349341627526
 20
0.159996692895891
 30
0.0
 10
-16.27093488662865
 20
0.2163673281521131
 30
0.0
 10
-16.469971383285
 20
0.3280043162615659
 30
0.0
 10
-16.5703262668653
 20
0.3830263397658445
 30
0.0
 10
-16.76957863566377
 20
0.4897582736172087
 30
0.0
 10
-16.86729980955414
 20
0.5412702273093007
 30
0.0
 10
-17.06440109358607
 20
0.6405024401659706
 30
0.0
 10
-17.16443185143021
 20
0.6883132118540122
 30
0.0
 10
-17.46431833407729
 20
0.8240016166924878
 30
0.0
 10
-17.65926105134569
 20
0.9035057579641578
 30
0.0
 10
-17.95850721710142
 20
1.003319254241187
 30
0.0
 10
-18.05883792844071
 20
1.033257066457618
 30
0.0
 10
-18.25753514467625
 20
1.085560524035546
 30
0.0
 10
-18.35474486185944
 20
1.107869366937901
 30
0.0
 10
-18.65171416101596
 20
1.163496795589924
 30
0.0
 10
-18.85460184818451
 20
1.184933802447869
 30
0.0
 10
-19.04999999999998
 20
1.189618701881681
 30
0.0
  0
SPLINE
  5
358
330
1F
100
AcDbEntity
  8
0
  6
Continuous
 62
     1
370
    25
100
AcDbSpline
210
0.0
220
0.0
230
1.0
 70
     8
 71
     3
 72
    11
 73
     7
 74
     0
 42
0.000000001
 43
0.00000001
 40
0.0
 40
0.0
 40
0.0
 40
0.0
 40
0.1885441951019743
 40
0.4486295883508299
 40
0.7104071439955868
 40
1.0
 40
1.0
 40
1.0
 40
1.0
 10
-16.09321885609388
 20
0.1135427242127737
 30
0.0
 10
-15.97972850951795
 20
0.067983784617407
 30
0.0
 10
-15.70968504602859
 20
-0.0404209758967834
 30
0.0
 10
-15.28238314554333
 20
-0.2133466896105215
 30
0.0
 10
-14.79360651143174
 20
-0.3993523711568411
 30
0.0
 10
-14.46178208308893
 20
-0.5053338343454964
 30
0.0
 10
-14.28749999999998
 20
-0.5609978198621061
 30
0.0
  0
SPLINE
  5
359
330
1F
100
AcDbEntity
  8
외형선
  6
Continuous
370
    15
100
AcDbSpline
210
0.0
220
0.0
230
1.0
 70
    24
 71
     3
 72
    10
 73
     6
 74
     0
 42
0.000000001
 43
0.00000001
 40
0.0
 40
0.0
 40
0.0
 40
0.0
 40
0.5
 40
0.5
 40
1.0
 40
1.0
 40
1.0
 40
1.0
 10
-14.28749999999999
 20
-0.8369420036070107
 30
0.0
 10
-14.28749999999999
 20
-0.8080888403129162
 30
0.0
 10
-14.28749999999999
 20
-0.7675858084727704
 30
0.0
 10
-14.28749999999999
 20
-0.6716718768271445
 30
0.0
 10
-14.28749999999999
 20
-0.6165751877873017
 30
0.0
 10
-14.28749999999999
 20
-0.5609978198621061
 30
0.0
  0
LINE
  5
35A
330
1F
100
AcDbEntity
  8
0
  6
Continuous
 62
     1
370
    25
100
AcDbLine
 10
-19.04999999999998
 20
1.189618701882796
 30
0.0
 11
-19.04999999999982
 21
1.129832722429231
 31
0.0
  0
SPLINE
  5
35B
330
1F
100
AcDbEntity
  8
0
  6
Continuous
 62
     1
370
    25
100
AcDbSpline
210
0.0
220
0.0
230
1.0
 70
     8
 71
     3
 72
     8
 73
     4
 74
     0
 42
0.000000001
 43
0.00000001
 40
0.0
 40
0.0
 40
0.0
 40
0.0
 40
1.0
 40
1.0
 40
1.0
 40
1.0
 10
-18.31311867067985
 20
-0.3332246836425522
 30
0.0
 10
-18.27085961301168
 20
-0.3832476977117775
 30
0.0
 10
-18.233146156566
 20
-0.4314055764531982
 30
0.0
 10
-18.2010448089412
 20
-0.4772607141681003
 30
0.0
  0
LINE
  5
35C
330
1F
100
AcDbEntity
  8
0
  6
Continuous
 62
     1
370
    25
100
AcDbLine
 10
-18.21614158570372
 20
-0.4899284139927328
 30
0.0
 11
-19.04999999999998
 21
0.0000000000000032
 31
0.0
  0
LINE
  5
35D
330
1F
100
AcDbEntity
  8
0
  6
Continuous
 62
     1
370
    25
100
AcDbLine
 10
-19.04999999999998
 20
0.0000000000000032
 30
0.0
 11
-19.04999999999998
 21
0.3181861326165493
 31
0.0
  0
SPLINE
  5
35E
330
1F
100
AcDbEntity
  8
0
  6
Continuous
 62
     1
370
    25
100
AcDbSpline
210
0.0
220
0.0
230
1.0
 70
     8
 71
     3
 72
    10
 73
     6
 74
     0
 42
0.000000001
 43
0.00000001
 40
0.0
 40
0.0
 40
0.0
 40
0.0
 40
0.5
 40
0.5
 40
1.0
 40
1.0
 40
1.0
 40
1.0
 10
-19.04999999999998
 20
0.3181861326165493
 30
0.0
 10
-18.92244037202742
 20
0.2179006366655575
 30
0.0
 10
-18.79701330534629
 20
0.1135000420721216
 30
0.0
 10
-18.55052308936822
 20
-0.1037219838688909
 30
0.0
 10
-18.42830137272723
 20
-0.2176860461589282
 30
0.0
 10
-18.31311867067874
 20
-0.3332246836399374
 30
0.0
  0
SPLINE
  5
35F
330
1F
100
AcDbEntity
  8
0
  6
Continuous
 62
     1
370
    25
100
AcDbSpline
210
0.0
220
0.0
230
1.0
 70
     8
 71
     3
 72
    14
 73
    10
 74
     0
 42
0.000000001
 43
0.00000001
 40
0.0
 40
0.0
 40
0.0
 40
0.0
 40
0.1233029728948284
 40
0.2466677435875952
 40
0.4184871035679016
 40
0.5897108341634597
 40
0.7619782096465588
 40
0.9336493791159686
 40
1.0
 40
1.0
 40
1.0
 40
1.0
 10
-18.31311867067891
 20
-0.3332246836429572
 30
0.0
 10
-18.20041826111838
 20
-0.3811059931852124
 30
0.0
 10
-17.97496095806205
 20
-0.4768926097405209
 30
0.0
 10
-17.59245921282099
 20
-0.6222353142012021
 30
0.0
 10
-17.16595133029653
 20
-0.760349305377073
 30
0.0
 10
-16.69532770097976
 20
-0.8745460061955835
 30
0.0
 10
-16.22399412041073
 20
-0.9395157626452967
 30
0.0
 10
-15.84900998771539
 20
-0.9619891549923419
 30
0.0
 10
-15.63151504016104
 20
-0.944980626975433
 30
0.0
 10
-15.57088645322395
 20
-0.9402393535291335
 30
0.0
  0
SPLINE
  5
360
330
1F
100
AcDbEntity
  8
0
  6
Continuous
 62
     1
370
    25
100
AcDbSpline
210
0.0
220
0.0
230
1.0
 70
    24
 71
     3
 72
    10
 73
     6
 74
     0
 42
0.000000001
 43
0.00000001
 40
0.0
 40
0.0
 40
0.0
 40
0.0
 40
0.5
 40
0.5
 40
1.0
 40
1.0
 40
1.0
 40
1.0
 10
-19.04999999999998
 20
0.9393701022634137
 30
0.0
 10
-19.04999999999998
 20
0.8673600600326626
 30
0.0
 10
-19.04999999999998
 20
0.7763726105261416
 30
0.0
 10
-19.04999999999998
 20
0.564835546988785
 30
0.0
 10
-19.04999999999998
 20
0.4444691743829697
 30
0.0
 10
-19.04999999999998
 20
0.3181861326165848
 30
0.0
  0
SPLINE
  5
361
330
1F
100
AcDbEntity
  8
0
  6
Continuous
 62
     1
370
    25
100
AcDbSpline
210
0.0
220
0.0
230
1.0
 70
    24
 71
     3
 72
     8
 73
     4
 74
     0
 42
0.000000001
 43
0.00000001
 40
0.0
 40
0.0
 40
0.0
 40
0.0
 40
1.0
 40
1.0
 40
1.0
 40
1.0
 10
-18.32532161587647
 20
-0.5815413370426054
 30
0.0
 10
-18.28600547470792
 20
-0.5485511774887651
 30
0.0
 10
-18.24439779872905
 20
-0.5136381919207377
 30
0.0
 10
-18.20104480893626
 20
-0.4772607141751702
 30
0.0
  0
LINE
  5
362
330
1F
100
AcDbEntity
  8
0
  6
Continuous
 62
     1
370
    25
100
AcDbLine
 10
-19.04999999999998
 20
-0.833437499999992
 30
0.0
 11
-18.61016248827157
 21
-0.8132384921541383
 31
0.0
  0
SPLINE
  5
363
330
1F
100
AcDbEntity
  8
0
  6
Continuous
 62
     1
370
    25
100
AcDbSpline
210
0.0
220
0.0
230
1.0
 70
     8
 71
     3
 72
     8
 73
     4
 74
     0
 42
0.000000001
 43
0.00000001
 40
0.0
 40
0.0
 40
0.0
 40
0.0
 40
1.0
 40
1.0
 40
1.0
 40
1.0
 10
-19.04999999999998
 20
-0.833437499999992
 30
0.0
 10
-18.80508565133286
 20
-0.7668707096745461
 30
0.0
 10
-18.56254529027889
 20
-0.6850608002371711
 30
0.0
 10
-18.32532161589071
 20
-0.5815413370488297
 30
0.0
  0
SPLINE
  5
364
330
1F
100
AcDbEntity
  8
0
  6
Continuous
 62
     1
370
    25
100
AcDbSpline
210
0.0
220
0.0
230
1.0
 70
     8
 71
     3
 72
    12
 73
     8
 74
     0
 42
0.000000001
 43
0.00000001
 40
0.0
 40
0.0
 40
0.0
 40
0.0
 40
0.1367777281514708
 40
0.3466905136898529
 40
0.5561062260760902
 40
0.7668488476528674
 40
1.0
 40
1.0
 40
1.0
 40
1.0
 10
-16.53041502048468
 20
0.889753730133609
 30
0.0
 10
-16.42811409543922
 20
0.9060718807622156
 30
0.0
 10
-16.16881193613095
 20
0.9474334978935804
 30
0.0
 10
-15.75308883624926
 20
0.9594413785184092
 30
0.0
 10
-15.28242319389893
 20
0.9291329573277057
 30
0.0
 10
-14.79356936136693
 20
0.8491579652047708
 30
0.0
 10
-14.4617730064017
 20
0.754257109544827
 30
0.0
 10
-14.28749999999998
 20
0.7044113014807639
 30
0.0
  0
SPLINE
  5
365
330
1F
100
AcDbEntity
  8
외형선
  6
Continuous
370
    15
100
AcDbSpline
210
0.0
220
0.0
230
1.0
 70
    24
 71
     3
 72
    10
 73
     6
 74
     0
 42
0.000000001
 43
0.00000001
 40
0.0
 40
0.0
 40
0.0
 40
0.0
 40
0.5
 40
0.5
 40
1.0
 40
1.0
 40
1.0
 40
1.0
 10
-14.28749999999989
 20
-0.5609978198621345
 30
0.0
 10
-14.28749999999989
 20
-0.3783456917417393
 30
0.0
 10
-14.28749999999989
 20
-0.1563850347805168
 30
0.0
 10
-14.28749999999989
 20
0.2934143332441043
 30
0.0
 10
-14.28749999999989
 20
0.5177679600076207
 30
0.0
 10
-14.28749999999989
 20
0.7044113014807355
 30
0.0
  0
LINE
  5
366
330
1F
100
AcDbEntity
  8
0
  6
Continuous
 62
     1
370
    25
100
AcDbLine
 10
-19.04999999999998
 20
0.0000000000000032
 30
0.0
 11
-19.04999999999998
 21
-0.833437499999992
 31
0.0
  0
SPLINE
  5
367
330
1F
100
AcDbEntity
  8
외형선
  6
Continuous
370
    15
100
AcDbSpline
210
0.0
220
0.0
230
1.0
 70
    24
 71
     3
 72
    12
 73
     8
 74
     0
 42
0.000000001
 43
0.00000001
 40
0.0
 40
0.0
 40
0.0
 40
0.0
 40
0.1833074579240648
 40
0.3690536187711239
 40
0.6360631703043185
 40
0.9108160169204882
 40
1.0
 40
1.0
 40
1.0
 40
1.0
 10
-14.28749999999996
 20
0.7044113014807568
 30
0.0
 10
-14.28749999999996
 20
0.7320980198237198
 30
0.0
 10
-14.28749999999998
 20
0.7878397976656292
 30
0.0
 10
-14.28749999999998
 20
0.862658257313203
 30
0.0
 10
-14.28749999999998
 20
0.9218848674135703
 30
0.0
 10
-14.28749999999998
 20
0.951147289302735
 30
0.0
 10
-14.28749999999998
 20
0.947608424106409
 30
0.0
 10
-14.28749999999998
 20
0.9467412129091987
 30
0.0
  0
SPLINE
  5
368
330
1F
100
AcDbEntity
  8
0
  6
Continuous
 62
     1
370
    25
100
AcDbSpline
210
0.0
220
0.0
230
1.0
 70
    24
 71
     3
 72
    10
 73
     6
 74
     0
 42
0.000000001
 43
0.00000001
 40
0.0
 40
0.0
 40
0.0
 40
0.0
 40
0.5
 40
0.5
 40
1.0
 40
1.0
 40
1.0
 40
1.0
 10
-19.04999999999998
 20
-0.833437499999992
 30
0.0
 10
-19.04999999999998
 20
-0.8839584057612025
 30
0.0
 10
-19.04999999999998
 20
-0.942668376994899
 30
0.0
 10
-19.04999999999998
 20
-1.065841738519009
 30
0.0
 10
-19.04999999999998
 20
-1.129990559501121
 30
0.0
 10
-19.04999999999998
 20
-1.18961870188279
 30
0.0
  0
SPLINE
  5
369
330
1F
100
AcDbEntity
  8
0
  6
Continuous
 62
     1
370
    25
100
AcDbSpline
210
0.0
220
0.0
230
1.0
 70
     8
 71
     3
 72
    16
 73
    12
 74
     0
 42
0.000000001
 43
0.00000001
 40
0.0
 40
0.0
 40
0.0
 40
0.0
 40
0.0187862191305383
 40
0.1243008192851233
 40
0.2301842891838987
 40
0.3251029928982706
 40
0.5153396257777363
 40
0.6106956321046226
 40
0.707797349367501
 40
0.9024306159292899
 40
1.0
 40
1.0
 40
1.0
 40
1.0
 10
-17.41865943432049
 20
-0.8009557167510021
 30
0.0
 10
-17.42888548259058
 20
-0.8054300317745738
 30
0.0
 10
-17.49654711099975
 20
-0.8350347659312941
 30
0.0
 10
-17.62142631200022
 20
-0.884996935146685
 30
0.0
 10
-17.78783795300324
 20
-0.9469527176532292
 30
0.0
 10
-18.00073309570208
 20
-1.017182064124011
 30
0.0
 10
-18.20804395443427
 20
-1.074473427170528
 30
0.0
 10
-18.41555770402021
 20
-1.120238634723333
 30
0.0
 10
-18.62613638656239
 20
-1.157174328916082
 30
0.0
 10
-18.83837632069469
 20
-1.181675474908499
 30
0.0
 10
-18.9970254656409
 20
-1.187630319714597
 30
0.0
 10
-19.04999999999998
 20
-1.189618701882634
 30
0.0
  0
LINE
  5
36A
330
1F
100
AcDbEntity
  8
0
  6
Continuous
 62
     1
370
    25
100
AcDbLine
 10
-14.57544209734926
 20
0.9394312952892282
 30
0.0
 11
-14.28750000000261
 21
1.038267073926714
 31
0.0
  0
SPLINE
  5
36B
330
1F
100
AcDbEntity
  8
외형선
  6
Continuous
370
    15
100
AcDbSpline
210
0.0
220
0.0
230
1.0
 70
    24
 71
     3
 72
    10
 73
     6
 74
     0
 42
0.000000001
 43
0.00000001
 40
0.0
 40
0.0
 40
0.0
 40
0.0
 40
0.3616683073560688
 40
0.7500792908683342
 40
1.0
 40
1.0
 40
1.0
 40
1.0
 10
-14.28749999999998
 20
0.9703028727014061
 30
0.0
 10
-14.28749999999998
 20
0.978844419362925
 30
0.0
 10
-14.28749999999998
 20
0.9965590964095018
 30
0.0
 10
-14.28749999999998
 20
1.019060424132792
 30
0.0
 10
-14.28749999999998
 20
1.032863047406355
 30
0.0
 10
-14.28749999999998
 20
1.03826707392761
 30
0.0
  0
LINE
  5
370
330
1F
100
AcDbEntity
  8
외형선
  6
Continuous
370
    15
100
AcDbLine
 10
-11.80634233574608
 20
-1.587499999999995
 30
0.0
 11
-11.80634233574608
 21
1.587500000000009
 31
0.0
  0
ENDSEC
  0
SECTION
  2
OBJECTS
  0
DICTIONARY
  5
C
330
0
100
AcDbDictionary
281
     1
  3
ACAD_GROUP
350
D
  3
ACAD_IMAGE_VARS
350
15B
  3
ACAD_LAYOUT
350
1A
  3
ACAD_MLINESTYLE
350
17
  3
ACAD_PLOTSETTINGS
350
19
  3
ACAD_PLOTSTYLENAME
350
E
  3
ACAD_SCALELIST
350
47
  3
APPDATA
350
159
  3
DWGPROPS
350
3C1
  0
DICTIONARY
  5
3BF
330
1F
100
AcDbDictionary
280
     1
281
     1
  3
DIM_BOUNDING_BOXES_V1
360
3C0
  0
DICTIONARY
  5
D
102
{ACAD_REACTORS
330
C
102
}
330
C
100
AcDbDictionary
281
     1
  0
RASTERVARIABLES
  5
15B
102
{ACAD_REACTORS
330
C
102
}
330
C
100
AcDbRasterVariables
 90
        0
 70
     1
 71
     1
 72
     1
  0
DICTIONARY
  5
1A
102
{ACAD_REACTORS
330
C
102
}
330
C
100
AcDbDictionary
281
     1
  3
Layout1
350
1E
  3
Layout2
350
26
  3
Model
350
22
  0
DICTIONARY
  5
17
102
{ACAD_REACTORS
330
C
102
}
330
C
100
AcDbDictionary
281
     1
  3
Standard
350
18
  0
DICTIONARY
  5
19
102
{ACAD_REACTORS
330
C
102
}
330
C
100
AcDbDictionary
281
     1
  0
ACDBDICTIONARYWDFLT
  5
E
102
{ACAD_REACTORS
330
C
102
}
330
C
100
AcDbDictionary
281
     1
  3
Normal
350
F
100
AcDbDictionaryWithDefault
340
F
  0
DICTIONARY
  5
47
102
{ACAD_REACTORS
330
C
102
}
330
C
100
AcDbDictionary
281
     1
  3
A0
350
48
  3
A1
350
49
  3
A2
350
4A
  3
A3
350
4B
  3
A4
350
4C
  3
A5
350
4D
  3
A6
350
4E
  3
A7
350
4F
  3
A8
350
50
  3
A9
350
51
  3
B0
350
52
  3
B1
350
53
  3
B2
350
54
  3
B3
350
55
  3
B4
350
56
  3
B5
350
57
  3
B6
350
58
  3
B7
350
59
  3
B8
350
5A
  3
B9
350
5B
  3
C0
350
5C
  3
C1
350
5D
  3
C2
350
5E
  3
C3
350
5F
  3
C4
350
60
  3
C5
350
61
  3
C6
350
62
  3
C7
350
63
  3
C8
350
64
  3
C9
350
65
  3
D0
350
66
  3
D1
350
67
  3
D2
350
68
  0
DICTIONARY
  5
159
102
{ACAD_REACTORS
330
C
102
}
330
C
100
AcDbDictionary
281
     1
  0
XRECORD
  5
3C1
102
{ACAD_REACTORS
330
C
102
}
330
C
100
AcDbXrecord
280
     1
  1
DWGPROPS COOKIE
  2

  3

  4

  6

  7

  8
12011056
  9

300
=
301
=
302
=
303
=
304
=
305
=
306
=
307
=
308
=
309
=
 40
0.0
 41
2458313.048896528
 42
2459719.258908264
  1

 90
        0
  0
DICTIONARY
  5
3C0
102
{ACAD_REACTORS
330
3BF
102
}
330
3BF
100
AcDbDictionary
281
     1
  0
LAYOUT
  5
1E
102
{ACAD_REACTORS
330
1A
102
}
330
1A
100
AcDbPlotSettings
  1

  2
none_device
  4

  6

 40
0.0
 41
0.0
 42
0.0
 43
0.0
 44
0.0
 45
0.0
 46
0.0
 47
0.0
 48
0.0
 49
0.0
140
0.0
141
0.0
142
1.0
143
1.0
 70
   688
 72
     1
 73
     0
 74
     5
  7

 75
    16
147
1.0
148
0.0
149
0.0
100
AcDbLayout
  1
Layout1
 70
     1
 71
     1
 10
0.0
 20
0.0
 11
420.0
 21
297.0
 12
0.0
 22
0.0
 32
0.0
 14
1.000000000000000E+20
 24
1.000000000000000E+20
 34
1.000000000000000E+20
 15
-1.000000000000000E+20
 25
-1.000000000000000E+20
 35
-1.000000000000000E+20
146
0.0
 13
0.0
 23
0.0
 33
0.0
 16
1.0
 26
0.0
 36
0.0
 17
0.0
 27
1.0
 37
0.0
 76
     0
330
1B
  0
LAYOUT
  5
26
102
{ACAD_REACTORS
330
1A
102
}
330
1A
100
AcDbPlotSettings
  1

  2
none_device
  4

  6

 40
0.0
 41
0.0
 42
0.0
 43
0.0
 44
0.0
 45
0.0
 46
0.0
 47
0.0
 48
0.0
 49
0.0
140
0.0
141
0.0
142
1.0
143
1.0
 70
   688
 72
     1
 73
     0
 74
     5
  7

 75
    16
147
1.0
148
0.0
149
0.0
100
AcDbLayout
  1
Layout2
 70
     1
 71
     2
 10
0.0
 20
0.0
 11
0.0
 21
0.0
 12
0.0
 22
0.0
 32
0.0
 14
0.0
 24
0.0
 34
0.0
 15
0.0
 25
0.0
 35
0.0
146
0.0
 13
0.0
 23
0.0
 33
0.0
 16
1.0
 26
0.0
 36
0.0
 17
0.0
 27
1.0
 37
0.0
 76
     0
330
23
  0
LAYOUT
  5
22
102
{ACAD_REACTORS
330
1A
102
}
330
1A
100
AcDbPlotSettings
  1

  2
none_device
  4
ANSI_A_(11.00_x_8.50_Inches)
  6

 40
6.35
 41
19.05
 42
6.35000508
 43
19.05000254
 44
279.4
 45
215.9
 46
96.06782957866224
 47
93.58433770087605
 48
0.0
 49
0.0
140
0.0
141
0.0
142
0.0851200155195541
143
1.0
 70
  1696
 72
     0
 73
     0
 74
     0
  7

 75
     0
147
0.0235690232323232
148
0.0
149
0.0
100
AcDbLayout
  1
Model
 70
     1
 71
     0
 10
0.0
 20
0.0
 11
420.0
 21
297.0
 12
0.0
 22
0.0
 32
0.0
 14
-29.45992727542973
 24
-39.99892507127611
 34
0.0
 15
81.21241335422454
 25
27.31461870188284
 35
0.0
146
0.0
 13
0.0
 23
0.0
 33
0.0
 16
1.0
 26
0.0
 36
0.0
 17
0.0
 27
1.0
 37
0.0
 76
     0
330
1F
331
29
  0
MLINESTYLE
  5
18
102
{ACAD_REACTORS
330
17
102
}
330
17
100
AcDbMlineStyle
  2
Standard
 70
     0
  3

 62
   256
 51
90.0
 52
90.0
 71
     2
 49
0.5
 62
   256
  6
BYLAYER
 49
-0.5
 62
   256
  6
BYLAYER
  0
ACDBPLACEHOLDER
  5
F
102
{ACAD_REACTORS
330
E
102
}
330
E
  0
SCALE
  5
48
102
{ACAD_REACTORS
330
47
102
}
330
47
100
AcDbScale
 70
     0
300
1:1
140
1.0
141
1.0
290
     1
  0
SCALE
  5
49
102
{ACAD_REACTORS
330
47
102
}
330
47
100
AcDbScale
 70
     0
300
1:2
140
1.0
141
2.0
290
     0
  0
SCALE
  5
4A
102
{ACAD_REACTORS
330
47
102
}
330
47
100
AcDbScale
 70
     0
300
1:4
140
1.0
141
4.0
290
     0
  0
SCALE
  5
4B
102
{ACAD_REACTORS
330
47
102
}
330
47
100
AcDbScale
 70
     0
300
1:5
140
1.0
141
5.0
290
     0
  0
SCALE
  5
4C
102
{ACAD_REACTORS
330
47
102
}
330
47
100
AcDbScale
 70
     0
300
1:8
140
1.0
141
8.0
290
     0
  0
SCALE
  5
4D
102
{ACAD_REACTORS
330
47
102
}
330
47
100
AcDbScale
 70
     0
300
1:10
140
1.0
141
10.0
290
     0
  0
SCALE
  5
4E
102
{ACAD_REACTORS
330
47
102
}
330
47
100
AcDbScale
 70
     0
300
1:16
140
1.0
141
16.0
290
     0
  0
SCALE
  5
4F
102
{ACAD_REACTORS
330
47
102
}
330
47
100
AcDbScale
 70
     0
300
1:20
140
1.0
141
20.0
290
     0
  0
SCALE
  5
50
102
{ACAD_REACTORS
330
47
102
}
330
47
100
AcDbScale
 70
     0
300
1:30
140
1.0
141
30.0
290
     0
  0
SCALE
  5
51
102
{ACAD_REACTORS
330
47
102
}
330
47
100
AcDbScale
 70
     0
300
1:40
140
1.0
141
40.0
290
     0
  0
SCALE
  5
52
102
{ACAD_REACTORS
330
47
102
}
330
47
100
AcDbScale
 70
     0
300
1:50
140
1.0
141
50.0
290
     0
  0
SCALE
  5
53
102
{ACAD_REACTORS
330
47
102
}
330
47
100
AcDbScale
 70
     0
300
1:100
140
1.0
141
100.0
290
     0
  0
SCALE
  5
54
102
{ACAD_REACTORS
330
47
102
}
330
47
100
AcDbScale
 70
     0
300
2:1
140
2.0
141
1.0
290
     0
  0
SCALE
  5
55
102
{ACAD_REACTORS
330
47
102
}
330
47
100
AcDbScale
 70
     0
300
4:1
140
4.0
141
1.0
290
     0
  0
SCALE
  5
56
102
{ACAD_REACTORS
330
47
102
}
330
47
100
AcDbScale
 70
     0
300
8:1
140
8.0
141
1.0
290
     0
  0
SCALE
  5
57
102
{ACAD_REACTORS
330
47
102
}
330
47
100
AcDbScale
 70
     0
300
10:1
140
10.0
141
1.0
290
     0
  0
SCALE
  5
58
102
{ACAD_REACTORS
330
47
102
}
330
47
100
AcDbScale
 70
     0
300
100:1
140
100.0
141
1.0
290
     0
  0
SCALE
  5
59
102
{ACAD_REACTORS
330
47
102
}
330
47
100
AcDbScale
 70
     0
300
1/128" = 1'-0"
140
0.0078125
141
12.0
290
     0
  0
SCALE
  5
5A
102
{ACAD_REACTORS
330
47
102
}
330
47
100
AcDbScale
 70
     0
300
1/64" = 1'-0"
140
0.015625
141
12.0
290
     0
  0
SCALE
  5
5B
102
{ACAD_REACTORS
330
47
102
}
330
47
100
AcDbScale
 70
     0
300
1/32" = 1'-0"
140
0.03125
141
12.0
290
     0
  0
SCALE
  5
5C
102
{ACAD_REACTORS
330
47
102
}
330
47
100
AcDbScale
 70
     0
300
1/16" = 1'-0"
140
0.0625
141
12.0
290
     0
  0
SCALE
  5
5D
102
{ACAD_REACTORS
330
47
102
}
330
47
100
AcDbScale
 70
     0
300
3/32" = 1'-0"
140
0.09375
141
12.0
290
     0
  0
SCALE
  5
5E
102
{ACAD_REACTORS
330
47
102
}
330
47
100
AcDbScale
 70
     0
300
1/8" = 1'-0"
140
0.125
141
12.0
290
     0
  0
SCALE
  5
5F
102
{ACAD_REACTORS
330
47
102
}
330
47
100
AcDbScale
 70
     0
300
3/16" = 1'-0"
140
0.1875
141
12.0
290
     0
  0
SCALE
  5
60
102
{ACAD_REACTORS
330
47
102
}
330
47
100
AcDbScale
 70
     0
300
1/4" = 1'-0"
140
0.25
141
12.0
290
     0
  0
SCALE
  5
61
102
{ACAD_REACTORS
330
47
102
}
330
47
100
AcDbScale
 70
     0
300
3/8" = 1'-0"
140
0.375
141
12.0
290
     0
  0
SCALE
  5
62
102
{ACAD_REACTORS
330
47
102
}
330
47
100
AcDbScale
 70
     0
300
1/2" = 1'-0"
140
0.5
141
12.0
290
     0
  0
SCALE
  5
63
102
{ACAD_REACTORS
330
47
102
}
330
47
100
AcDbScale
 70
     0
300
3/4" = 1'-0"
140
0.75
141
12.0
290
     0
  0
SCALE
  5
64
102
{ACAD_REACTORS
330
47
102
}
330
47
100
AcDbScale
 70
     0
300
1" = 1'-0"
140
1.0
141
12.0
290
     0
  0
SCALE
  5
65
102
{ACAD_REACTORS
330
47
102
}
330
47
100
AcDbScale
 70
     0
300
1-1/2" = 1'-0"
140
1.5
141
12.0
290
     0
  0
SCALE
  5
66
102
{ACAD_REACTORS
330
47
102
}
330
47
100
AcDbScale
 70
     0
300
3" = 1'-0"
140
3.0
141
12.0
290
     0
  0
SCALE
  5
67
102
{ACAD_REACTORS
330
47
102
}
330
47
100
AcDbScale
 70
     0
300
6" = 1'-0"
140
6.0
141
12.0
290
     0
  0
SCALE
  5
68
102
{ACAD_REACTORS
330
47
102
}
330
47
100
AcDbScale
 70
     0
300
1'-0" = 1'-0"
140
12.0
141
12.0
290
     0
  0
ENDSEC
  0
EOF
