  0
SECTION
  2
HEADER
  9
$ACADVER
  1
AC1015
  9
$ACADMAINTVER
 70
     6
  9
$DWGCODEPAGE
  3
ANSI_949
  9
$INSBASE
 10
0.0
 20
0.0
 30
0.0
  9
$EXTMIN
 10
-51.84831462715433
 20
-39.99892507127611
 30
0.0
  9
$EXTMAX
 10
81.21241335422454
 20
102.8053491874645
 30
0.0
  9
$LIMMIN
 10
0.0
 20
0.0
  9
$LIMMAX
 10
420.0
 20
297.0
  9
$ORTHOMODE
 70
     0
  9
$REGENMODE
 70
     1
  9
$FILLMODE
 70
     1
  9
$QTEXTMODE
 70
     0
  9
$MIRRTEXT
 70
     1
  9
$LTSCALE
 40
1.0
  9
$ATTMODE
 70
     1
  9
$TEXTSIZE
 40
3.5
  9
$TRACEWID
 40
1.0
  9
$TEXTSTYLE
  7
Standard
  9
$CLAYER
  8
0
  9
$CELTYPE
  6
ByLayer
  9
$CECOLOR
 62
   256
  9
$CELTSCALE
 40
1.0
  9
$DISPSILH
 70
     0
  9
$DIMSCALE
 40
1.0
  9
$DIMASZ
 40
3.302
  9
$DIMEXO
 40
1.0
  9
$DIMDLI
 40
3.75
  9
$DIMRND
 40
0.0
  9
$DIMDLE
 40
0.0
  9
$DIMEXE
 40
1.0
  9
$DIMTP
 40
0.0
  9
$DIMTM
 40
0.0
  9
$DIMTXT
 40
3.5
  9
$DIMCEN
 40
2.5
  9
$DIMTSZ
 40
0.0
  9
$DIMTOL
 70
     0
  9
$DIMLIM
 70
     0
  9
$DIMTIH
 70
     1
  9
$DIMTOH
 70
     1
  9
$DIMSE1
 70
     0
  9
$DIMSE2
 70
     0
  9
$DIMTAD
 70
     1
  9
$DIMZIN
 70
     0
  9
$DIMBLK
  1

  9
$DIMASO
 70
     1
  9
$DIMSHO
 70
     1
  9
$DIMPOST
  1

  9
$DIMAPOST
  1

  9
$DIMALT
 70
     0
  9
$DIMALTD
 70
     3
  9
$DIMALTF
 40
0.0393700787401575
  9
$DIMLFAC
 40
1.0
  9
$DIMTOFL
 70
     1
  9
$DIMTVP
 40
0.0
  9
$DIMTIX
 70
     0
  9
$DIMSOXD
 70
     0
  9
$DIMSAH
 70
     0
  9
$DIMBLK1
  1

  9
$DIMBLK2
  1

  9
$DIMSTYLE
  2
ISO-25
  9
$DIMCLRD
 70
     0
  9
$DIMCLRE
 70
     0
  9
$DIMCLRT
 70
     0
  9
$DIMTFAC
 40
1.0
  9
$DIMGAP
 40
1.524
  9
$DIMJUST
 70
     0
  9
$DIMSD1
 70
     0
  9
$DIMSD2
 70
     0
  9
$DIMTOLJ
 70
     0
  9
$DIMTZIN
 70
     0
  9
$DIMALTZ
 70
     0
  9
$DIMALTTZ
 70
     0
  9
$DIMUPT
 70
     0
  9
$DIMDEC
 70
     2
  9
$DIMTDEC
 70
     2
  9
$DIMALTU
 70
     2
  9
$DIMALTTD
 70
     3
  9
$DIMTXSTY
  7
Standard
  9
$DIMAUNIT
 70
     0
  9
$DIMADEC
 70
     2
  9
$DIMALTRND
 40
0.0
  9
$DIMAZIN
 70
     0
  9
$DIMDSEP
 70
    44
  9
$DIMATFIT
 70
     3
  9
$DIMFRAC
 70
     0
  9
$DIMLDRBLK
  1

  9
$DIMLUNIT
 70
     2
  9
$DIMLWD
 70
    -2
  9
$DIMLWE
 70
    -2
  9
$DIMTMOVE
 70
     0
  9
$LUNITS
 70
     2
  9
$LUPREC
 70
     2
  9
$SKETCHINC
 40
1.0
  9
$FILLETRAD
 40
10.0
  9
$AUNITS
 70
     0
  9
$AUPREC
 70
     2
  9
$MENU
  1
.
  9
$ELEVATION
 40
0.0
  9
$PELEVATION
 40
0.0
  9
$THICKNESS
 40
0.0
  9
$LIMCHECK
 70
     0
  9
$CHAMFERA
 40
0.0
  9
$CHAMFERB
 40
0.0
  9
$CHAMFERC
 40
0.0
  9
$CHAMFERD
 40
0.0
  9
$SKPOLY
 70
     0
  9
$TDCREATE
 40
2458313.424108298
  9
$TDUCREATE
 40
2458313.049108298
  9
$TDUPDATE
 40
2459719.634512963
  9
$TDUUPDATE
 40
2459719.259512963
  9
$TDINDWG
 40
0.0021453009
  9
$TDUSRTIMER
 40
0.0005540741
  9
$USRTIMER
 70
     1
  9
$ANGBASE
 50
0.0
  9
$ANGDIR
 70
     0
  9
$PDMODE
 70
     0
  9
$PDSIZE
 40
-1.0
  9
$PLINEWID
 40
0.0
  9
$SPLFRAME
 70
     0
  9
$SPLINETYPE
 70
     6
  9
$SPLINESEGS
 70
     8
  9
$HANDSEED
  5
363
  9
$SURFTAB1
 70
     6
  9
$SURFTAB2
 70
     6
  9
$SURFTYPE
 70
     6
  9
$SURFU
 70
     6
  9
$SURFV
 70
     6
  9
$UCSBASE
  2

  9
$UCSNAME
  2

  9
$UCSORG
 10
0.0
 20
0.0
 30
0.0
  9
$UCSXDIR
 10
1.0
 20
0.0
 30
0.0
  9
$UCSYDIR
 10
0.0
 20
1.0
 30
0.0
  9
$UCSORTHOREF
  2

  9
$UCSORTHOVIEW
 70
     0
  9
$UCSORGTOP
 10
0.0
 20
0.0
 30
0.0
  9
$UCSORGBOTTOM
 10
0.0
 20
0.0
 30
0.0
  9
$UCSORGLEFT
 10
0.0
 20
0.0
 30
0.0
  9
$UCSORGRIGHT
 10
0.0
 20
0.0
 30
0.0
  9
$UCSORGFRONT
 10
0.0
 20
0.0
 30
0.0
  9
$UCSORGBACK
 10
0.0
 20
0.0
 30
0.0
  9
$PUCSBASE
  2

  9
$PUCSNAME
  2

  9
$PUCSORG
 10
0.0
 20
0.0
 30
0.0
  9
$PUCSXDIR
 10
1.0
 20
0.0
 30
0.0
  9
$PUCSYDIR
 10
0.0
 20
1.0
 30
0.0
  9
$PUCSORTHOREF
  2

  9
$PUCSORTHOVIEW
 70
     0
  9
$PUCSORGTOP
 10
0.0
 20
0.0
 30
0.0
  9
$PUCSORGBOTTOM
 10
0.0
 20
0.0
 30
0.0
  9
$PUCSORGLEFT
 10
0.0
 20
0.0
 30
0.0
  9
$PUCSORGRIGHT
 10
0.0
 20
0.0
 30
0.0
  9
$PUCSORGFRONT
 10
0.0
 20
0.0
 30
0.0
  9
$PUCSORGBACK
 10
0.0
 20
0.0
 30
0.0
  9
$USERI1
 70
     0
  9
$USERI2
 70
     0
  9
$USERI3
 70
     0
  9
$USERI4
 70
     0
  9
$USERI5
 70
     0
  9
$USERR1
 40
0.0
  9
$USERR2
 40
0.0
  9
$USERR3
 40
0.0
  9
$USERR4
 40
0.0
  9
$USERR5
 40
0.0
  9
$WORLDVIEW
 70
     1
  9
$SHADEDGE
 70
     3
  9
$SHADEDIF
 70
    70
  9
$TILEMODE
 70
     1
  9
$MAXACTVP
 70
    64
  9
$PINSBASE
 10
0.0
 20
0.0
 30
0.0
  9
$PLIMCHECK
 70
     0
  9
$PEXTMIN
 10
1.000000000000000E+20
 20
1.000000000000000E+20
 30
1.000000000000000E+20
  9
$PEXTMAX
 10
-1.000000000000000E+20
 20
-1.000000000000000E+20
 30
-1.000000000000000E+20
  9
$PLIMMIN
 10
0.0
 20
0.0
  9
$PLIMMAX
 10
0.0
 20
0.0
  9
$UNITMODE
 70
     0
  9
$VISRETAIN
 70
     1
  9
$PLINEGEN
 70
     0
  9
$PSLTSCALE
 70
     1
  9
$TREEDEPTH
 70
  3020
  9
$CMLSTYLE
  2
Standard
  9
$CMLJUST
 70
     0
  9
$CMLSCALE
 40
20.0
  9
$PROXYGRAPHICS
 70
     1
  9
$MEASUREMENT
 70
     1
  9
$CELWEIGHT
370
    -1
  9
$ENDCAPS
280
     0
  9
$JOINSTYLE
280
     0
  9
$LWDISPLAY
290
     1
  9
$INSUNITS
 70
     4
  9
$HYPERLINKBASE
  1

  9
$STYLESHEET
  1

  9
$XEDIT
290
     1
  9
$CEPSNTYPE
380
     0
  9
$PSTYLEMODE
290
     1
  9
$FINGERPRINTGUID
  2
{AC8D1928-8F6F-4E46-BC4C-1630CF36EABB}
  9
$VERSIONGUID
  2
{FAEB1C32-E019-11D5-929B-00C0DF256EC4}
  9
$EXTNAMES
290
     1
  9
$PSVPSCALE
 40
0.0
  9
$OLESTARTUP
290
     0
  0
ENDSEC
  0
SECTION
  2
CLASSES
  0
CLASS
  1
ACDBDICTIONARYWDFLT
  2
AcDbDictionaryWithDefault
  3
ObjectDBX Classes
 90
        0
280
     0
281
     0
  0
CLASS
  1
VISUALSTYLE
  2
AcDbVisualStyle
  3
ObjectDBX Classes
 90
     4095
280
     0
281
     0
  0
CLASS
  1
MATERIAL
  2
AcDbMaterial
  3
ObjectDBX Classes
 90
     1153
280
     0
281
     0
  0
CLASS
  1
SCALE
  2
AcDbScale
  3
ObjectDBX Classes
 90
     1153
280
     0
281
     0
  0
CLASS
  1
SUN
  2
AcDbSun
  3
SCENEOE
 90
     1153
280
     0
281
     0
  0
CLASS
  1
ACDBPLACEHOLDER
  2
AcDbPlaceHolder
  3
ObjectDBX Classes
 90
        0
280
     0
281
     0
  0
CLASS
  1
LAYOUT
  2
AcDbLayout
  3
ObjectDBX Classes
 90
        0
280
     0
281
     0
  0
CLASS
  1
TABLESTYLE
  2
AcDbTableStyle
  3
ObjectDBX Classes
 90
     4095
280
     0
281
     0
  0
CLASS
  1
MLEADERSTYLE
  2
AcDbMLeaderStyle
  3
ACDB_MLEADERSTYLE_CLASS
 90
     4095
280
     0
281
     0
  0
CLASS
  1
RASTERVARIABLES
  2
AcDbRasterVariables
  3
ISM
 90
        0
280
     0
281
     0
  0
ENDSEC
  0
SECTION
  2
TABLES
  0
TABLE
  2
VPORT
  5
8
330
0
100
AcDbSymbolTable
 70
     1
  0
VPORT
  5
29
330
8
100
AcDbSymbolTableRecord
100
AcDbViewportTableRecord
  2
*Active
 70
     0
 10
0.0
 20
0.0
 11
1.0
 21
1.0
 12
0.2456365183516382
 22
2.858926404122894
 13
0.0
 23
0.0
 14
10.0
 24
10.0
 15
10.0
 25
10.0
 16
0.0
 26
0.0
 36
1.0
 17
0.0
 27
0.0
 37
0.0
 40
66.65741377230164
 41
1.519944979367263
 42
50.0
 43
0.0
 44
0.0
 50
0.0
 51
0.0
 71
    16
 72
  2000
 73
     1
 74
     3
 75
     0
 76
     0
 77
     0
 78
     0
281
     0
 65
     1
110
0.0
120
0.0
130
0.0
111
1.0
121
0.0
131
0.0
112
0.0
122
1.0
132
0.0
 79
     0
146
0.0
  0
ENDTAB
  0
TABLE
  2
LTYPE
  5
5
330
0
100
AcDbSymbolTable
 70
     6
  0
LTYPE
  5
14
330
5
100
AcDbSymbolTableRecord
100
AcDbLinetypeTableRecord
  2
ByBlock
 70
     0
  3

 72
    65
 73
     0
 40
0.0
  0
LTYPE
  5
15
330
5
100
AcDbSymbolTableRecord
100
AcDbLinetypeTableRecord
  2
ByLayer
 70
     0
  3

 72
    65
 73
     0
 40
0.0
  0
LTYPE
  5
16
330
5
100
AcDbSymbolTableRecord
100
AcDbLinetypeTableRecord
  2
Continuous
 70
     0
  3
Solid line
 72
    65
 73
     0
 40
0.0
  0
LTYPE
  5
6A
330
5
100
AcDbSymbolTableRecord
100
AcDbLinetypeTableRecord
  2
HIDDEN
 70
     0
  3
Hidden __ __ __ __ __ __ __ __ __ __ __ __ __ __
 72
    65
 73
     2
 40
1.905
 49
1.27
 74
     0
 49
-0.635
 74
     0
  0
LTYPE
  5
6B
330
5
100
AcDbSymbolTableRecord
100
AcDbLinetypeTableRecord
  2
PHANTOM
 70
     0
  3
Phantom ______  __  __  ______  __  __  ______
 72
    65
 73
     6
 40
12.7
 49
6.35
 74
     0
 49
-1.27
 74
     0
 49
1.27
 74
     0
 49
-1.27
 74
     0
 49
1.27
 74
     0
 49
-1.27
 74
     0
  0
LTYPE
  5
6C
330
5
100
AcDbSymbolTableRecord
100
AcDbLinetypeTableRecord
  2
CENTER
 70
     0
  3
Center ____ _ ____ _ ____ _ ____ _ ____ _ ____
 72
    65
 73
     4
 40
10.16
 49
6.35
 74
     0
 49
-1.27
 74
     0
 49
1.27
 74
     0
 49
-1.27
 74
     0
  0
LTYPE
  5
6D
330
5
100
AcDbSymbolTableRecord
100
AcDbLinetypeTableRecord
  2
CENTERX2
 70
     0
  3
Center (2x) ________  __  ________  __  _____
 72
    65
 73
     4
 40
20.32
 49
12.7
 74
     0
 49
-2.54
 74
     0
 49
2.54
 74
     0
 49
-2.54
 74
     0
  0
LTYPE
  5
6E
330
5
100
AcDbSymbolTableRecord
100
AcDbLinetypeTableRecord
  2
DOT2
 70
     0
  3
Dot (.5x) ........................................
 72
    65
 73
     2
 40
0.635
 49
0.0
 74
     0
 49
-0.635
 74
     0
  0
ENDTAB
  0
TABLE
  2
LAYER
  5
2
330
0
100
AcDbSymbolTable
 70
    18
  0
LAYER
  5
10
330
2
100
AcDbSymbolTableRecord
100
AcDbLayerTableRecord
  2
0
 70
     0
 62
     7
  6
Continuous
370
    -3
390
F
  0
LAYER
  5
6F
330
2
100
AcDbSymbolTableRecord
100
AcDbLayerTableRecord
  2
FORMAT
 70
     0
 62
     2
  6
Continuous
370
    -3
390
F
  0
LAYER
  5
70
330
2
100
AcDbSymbolTableRecord
100
AcDbLayerTableRecord
  2
외형선
 70
     0
 62
     4
  6
Continuous
370
    30
390
F
  0
LAYER
  5
71
330
2
100
AcDbSymbolTableRecord
100
AcDbLayerTableRecord
  2
숨은선
 70
     0
 62
     2
  6
HIDDEN
370
    15
390
F
  0
LAYER
  5
72
330
2
100
AcDbSymbolTableRecord
100
AcDbLayerTableRecord
  2
중심선
 70
     0
 62
     1
  6
CENTERX2
370
    -3
390
F
  0
LAYER
  5
73
330
2
100
AcDbSymbolTableRecord
100
AcDbLayerTableRecord
  2
파단선
 70
     0
 62
     4
  6
Continuous
370
    -3
390
F
  0
LAYER
  5
74
330
2
100
AcDbSymbolTableRecord
100
AcDbLayerTableRecord
  2
해칭선
 70
     0
 62
   100
  6
Continuous
370
    -3
390
F
  0
LAYER
  5
75
330
2
100
AcDbSymbolTableRecord
100
AcDbLayerTableRecord
  2
가는실선
 70
     0
 62
     4
  6
Continuous
370
    -3
390
F
  0
LAYER
  5
76
330
2
100
AcDbSymbolTableRecord
100
AcDbLayerTableRecord
  2
치수_보조선
 70
     0
 62
     4
  6
Continuous
370
    -3
390
F
  0
LAYER
  5
77
330
2
100
AcDbSymbolTableRecord
100
AcDbLayerTableRecord
  2
치수문자_일반주서
 70
     0
 62
     7
  6
Continuous
370
    15
390
F
  0
LAYER
  5
78
330
2
100
AcDbSymbolTableRecord
100
AcDbLayerTableRecord
  2
개별주서
 70
     0
 62
   100
  6
Continuous
370
    30
390
F
  0
LAYER
  5
79
330
2
100
AcDbSymbolTableRecord
100
AcDbLayerTableRecord
  2
중간선
 70
     0
 62
     2
  6
Continuous
370
    15
390
F
  0
LAYER
  5
7A
330
2
100
AcDbSymbolTableRecord
100
AcDbLayerTableRecord
  2
윤곽선
 70
     0
 62
     3
  6
Continuous
370
    40
390
F
  0
LAYER
  5
7B
330
2
100
AcDbSymbolTableRecord
100
AcDbLayerTableRecord
  2
중심마크
 70
     0
 62
   100
  6
Continuous
370
    30
390
F
  0
LAYER
  5
7C
330
2
100
AcDbSymbolTableRecord
100
AcDbLayerTableRecord
  2
가상선
 70
     0
 62
     4
  6
PHANTOM
370
    -3
390
F
  0
LAYER
  5
7D
330
2
100
AcDbSymbolTableRecord
100
AcDbLayerTableRecord
  2
특수지정선
 70
     0
 62
     5
  6
CENTERX2
370
    60
390
F
  0
LAYER
  5
7E
330
2
100
AcDbSymbolTableRecord
100
AcDbLayerTableRecord
  2
참조1
 70
     0
 62
    -4
  6
Continuous
370
    -3
390
F
  0
LAYER
  5
15C
330
2
100
AcDbSymbolTableRecord
100
AcDbLayerTableRecord
  2
Defpoints
 70
     0
 62
     7
  6
Continuous
290
     0
370
    -3
390
F
  0
ENDTAB
  0
TABLE
  2
STYLE
  5
3
330
0
100
AcDbSymbolTable
 70
     2
  0
STYLE
  5
11
330
3
100
AcDbSymbolTableRecord
100
AcDbTextStyleTableRecord
  2
Standard
 70
     0
 40
0.0
 41
1.0
 50
0.0
 71
     0
 42
3.5
  3
txt
  4

  0
STYLE
  5
94
330
3
100
AcDbSymbolTableRecord
100
AcDbTextStyleTableRecord
  2
SLDTEXTSTYLE0
 70
     0
 40
0.0
 41
0.75
 50
0.0
 71
     0
 42
3.5
  3
TXT
  4

  0
ENDTAB
  0
TABLE
  2
VIEW
  5
6
330
0
100
AcDbSymbolTable
 70
     0
  0
ENDTAB
  0
TABLE
  2
UCS
  5
7
330
0
100
AcDbSymbolTable
 70
     0
  0
ENDTAB
  0
TABLE
  2
APPID
  5
9
330
0
100
AcDbSymbolTable
 70
     3
  0
APPID
  5
12
330
9
100
AcDbSymbolTableRecord
100
AcDbRegAppTableRecord
  2
ACAD
 70
     0
  0
APPID
  5
33D
330
9
100
AcDbSymbolTableRecord
100
AcDbRegAppTableRecord
  2
ACAD_DSTYLE_DIMFLIPARROW_SYMBOL
 70
     0
  0
APPID
  5
33E
330
9
100
AcDbSymbolTableRecord
100
AcDbRegAppTableRecord
  2
ACAD_DSTYLE_DIMFLIPARROW_WHICH_SYMBOL
 70
     0
  0
ENDTAB
  0
TABLE
  2
DIMSTYLE
  5
A
330
0
100
AcDbSymbolTable
 70
     3
100
AcDbDimStyleTable
  0
DIMSTYLE
105
27
330
A
100
AcDbSymbolTableRecord
100
AcDbDimStyleTableRecord
  2
ISO-25
 70
     0
 41
2.5
 42
0.625
 43
3.75
 44
1.25
 73
     0
 74
     0
 77
     1
 78
     8
140
2.5
141
2.5
143
0.03937007874016
147
0.625
171
     3
172
     1
178
     0
271
     2
272
     2
274
     3
278
    44
283
     0
284
     8
340
11
  0
DIMSTYLE
105
D8
102
{ACAD_REACTORS
330
D7
330
EC
330
100
330
29B
330
29C
330
29D
330
29E
330
115
102
}
330
A
100
AcDbSymbolTableRecord
100
AcDbDimStyleTableRecord
  2
SLDDIMSTYLE0
 70
     0
 41
3.302
 44
0.0
 45
0.000000001
 73
     0
 74
     0
 77
     1
 78
    12
 79
     3
140
3.5
143
0.0393700787401575
147
0.875
148
0.000000001
170
     1
172
     1
173
     1
178
     0
271
     2
272
     2
276
     2
284
    12
289
     0
340
94
  0
DIMSTYLE
105
116
330
A
100
AcDbSymbolTableRecord
100
AcDbDimStyleTableRecord
  2
SLDDIMSTYLE1
 70
     0
 41
3.302
 44
0.0
 45
0.000000001
 73
     0
 74
     0
 77
     1
 78
     4
 79
     1
140
3.5
143
0.0393700787401575
147
0.875
148
0.000000001
170
     1
173
     1
178
     0
271
     2
272
     2
276
     2
284
    12
340
94
  0
ENDTAB
  0
TABLE
  2
BLOCK_RECORD
  5
1
330
0
100
AcDbSymbolTable
 70
    18
  0
BLOCK_RECORD
  5
1F
102
{ACAD_XDICTIONARY
360
360
102
}
330
1
100
AcDbSymbolTableRecord
100
AcDbBlockTableRecord
  2
*Model_Space
340
22
  0
BLOCK_RECORD
  5
1B
330
1
100
AcDbSymbolTableRecord
100
AcDbBlockTableRecord
  2
*Paper_Space
340
1E
  0
BLOCK_RECORD
  5
23
330
1
100
AcDbSymbolTableRecord
100
AcDbBlockTableRecord
  2
*Paper_Space0
340
26
  0
BLOCK_RECORD
  5
7F
330
1
100
AcDbSymbolTableRecord
100
AcDbBlockTableRecord
  2
블럭10
340
0
102
{BLKREFS
331
D0
102
}
  0
BLOCK_RECORD
  5
D9
330
1
100
AcDbSymbolTableRecord
100
AcDbBlockTableRecord
  2
_D
340
0
  0
BLOCK_RECORD
  5
ED
330
1
100
AcDbSymbolTableRecord
100
AcDbBlockTableRecord
  2
_D_1
340
0
  0
BLOCK_RECORD
  5
101
330
1
100
AcDbSymbolTableRecord
100
AcDbBlockTableRecord
  2
_D_2
340
0
  0
BLOCK_RECORD
  5
117
330
1
100
AcDbSymbolTableRecord
100
AcDbBlockTableRecord
  2
_D_3
340
0
  0
BLOCK_RECORD
  5
130
330
1
100
AcDbSymbolTableRecord
100
AcDbBlockTableRecord
  2
SW_DOWELSYMBOL_0
340
0
102
{BLKREFS
331
136
331
29F
102
}
  0
BLOCK_RECORD
  5
216
330
1
100
AcDbSymbolTableRecord
100
AcDbBlockTableRecord
  2
*D7
340
0
  0
BLOCK_RECORD
  5
225
330
1
100
AcDbSymbolTableRecord
100
AcDbBlockTableRecord
  2
*D8
340
0
  0
BLOCK_RECORD
  5
231
330
1
100
AcDbSymbolTableRecord
100
AcDbBlockTableRecord
  2
*D9
340
0
  0
BLOCK_RECORD
  5
240
330
1
100
AcDbSymbolTableRecord
100
AcDbBlockTableRecord
  2
*D10
340
0
  0
BLOCK_RECORD
  5
2A1
330
1
100
AcDbSymbolTableRecord
100
AcDbBlockTableRecord
  2
*D11
340
0
  0
BLOCK_RECORD
  5
2B0
330
1
100
AcDbSymbolTableRecord
100
AcDbBlockTableRecord
  2
*D12
340
0
  0
BLOCK_RECORD
  5
2BC
330
1
100
AcDbSymbolTableRecord
100
AcDbBlockTableRecord
  2
*D13
340
0
  0
BLOCK_RECORD
  5
2CB
330
1
100
AcDbSymbolTableRecord
100
AcDbBlockTableRecord
  2
*D14
340
0
  0
BLOCK_RECORD
  5
310
330
1
100
AcDbSymbolTableRecord
100
AcDbBlockTableRecord
  2
*D15
340
0
  0
BLOCK_RECORD
  5
31F
330
1
100
AcDbSymbolTableRecord
100
AcDbBlockTableRecord
  2
*D16
340
0
  0
BLOCK_RECORD
  5
32E
330
1
100
AcDbSymbolTableRecord
100
AcDbBlockTableRecord
  2
*D17
340
0
  0
ENDTAB
  0
ENDSEC
  0
SECTION
  2
BLOCKS
  0
BLOCK
  5
20
330
1F
100
AcDbEntity
  8
0
100
AcDbBlockBegin
  2
*Model_Space
 70
     0
 10
0.0
 20
0.0
 30
0.0
  3
*Model_Space
  1
*Model_Space
  0
ENDBLK
  5
21
330
1F
100
AcDbEntity
  8
0
100
AcDbBlockEnd
  0
BLOCK
  5
1C
330
1B
100
AcDbEntity
 67
     1
  8
0
100
AcDbBlockBegin
  2
*Paper_Space
 70
     0
 10
0.0
 20
0.0
 30
0.0
  3
*Paper_Space
  1
*Paper_Space
  0
ENDBLK
  5
1D
330
1B
100
AcDbEntity
 67
     1
  8
0
100
AcDbBlockEnd
  0
BLOCK
  5
24
330
23
100
AcDbEntity
  8
0
100
AcDbBlockBegin
  2
*Paper_Space0
 70
     0
 10
0.0
 20
0.0
 30
0.0
  3
*Paper_Space0
  1
*Paper_Space0
  0
ENDBLK
  5
25
330
23
100
AcDbEntity
  8
0
100
AcDbBlockEnd
  0
BLOCK
  5
80
330
7F
100
AcDbEntity
  8
0
100
AcDbBlockBegin
  2
블럭10
 70
     2
 10
0.0
 20
0.0
 30
0.0
  3
블럭10
  1
블럭10
  0
ELLIPSE
  5
82
330
7F
100
AcDbEntity
  8
중심선
100
AcDbEllipse
 10
20.54032771741204
 20
12.0471743016438
 30
0.0
 11
6.600054785286829
 21
-1.261213355974178E-13
 31
0.0
210
0.0
220
0.0
230
1.0
 40
0.636358354079598
 41
0.9219305317359503
 42
6.513795318482858
  0
ELLIPSE
  5
83
330
7F
100
AcDbEntity
  8
중심선
100
AcDbEllipse
 10
20.54032771746488
 20
12.04717430159265
 30
0.0
 11
3.960054785062283
 21
1.540847449632565E-10
 31
0.0
210
0.0
220
0.0
230
1.0
 40
0.3939339440162632
 41
1.131841032648279
 42
5.62031148352944
  0
LINE
  5
84
330
7F
100
AcDbEntity
  8
중심선
100
AcDbLine
 10
2.268634060543552
 20
16.24717430164393
 30
0.0
 11
5.714909304380834
 21
16.24717430164393
 31
0.0
  0
LINE
  5
85
330
7F
100
AcDbEntity
  8
중심선
100
AcDbLine
 10
5.245725140726316
 20
7.84717430164391
 30
0.0
 11
8.692000384563599
 21
7.84717430164391
 31
0.0
  0
LINE
  5
86
330
7F
100
AcDbEntity
  8
중심선
100
AcDbLine
 10
15.74043728645272
 20
16.24717430164393
 30
0.0
 11
8.692000384563599
 21
7.84717430164391
 31
0.0
  0
LINE
  5
87
330
7F
100
AcDbEntity
  8
중심선
100
AcDbLine
 10
0.1404042013395286
 20
13.71084872107135
 30
0.0
 11
3.58671253028996
 21
13.71088815037384
 31
0.0
  0
LINE
  5
88
330
7F
100
AcDbEntity
  8
중심선
100
AcDbLine
 10
2.750260043222114
 20
10.84717430164391
 30
0.0
 11
6.196535287059397
 21
10.84717430164391
 31
0.0
  0
LINE
  5
89
330
7F
100
AcDbEntity
  8
중심선
100
AcDbLine
 10
12.29416204261559
 20
16.24717430164393
 30
0.0
 11
5.245725140726316
 21
7.84717430164391
 31
0.0
  0
LINE
  5
8A
330
7F
100
AcDbEntity
  8
중심선
100
AcDbLine
 10
10.72767329541681
 20
16.24717430164393
 30
0.0
 11
6.196535287059397
 21
10.84717430164391
 31
0.0
  0
LINE
  5
8B
330
7F
100
AcDbEntity
  8
중심선
100
AcDbLine
 10
7.28139805157953
 20
16.24717430164393
 30
0.0
 11
2.750260043222114
 21
10.84717430164391
 31
0.0
  0
LINE
  5
8C
330
7F
100
AcDbEntity
  8
중심선
100
AcDbLine
 10
5.714909304380834
 20
16.24717430164393
 30
0.0
 11
3.58671253028996
 21
13.71088815037384
 31
0.0
  0
LINE
  5
8D
330
7F
100
AcDbEntity
  8
중심선
100
AcDbLine
 10
2.268634060543552
 20
16.24717430164393
 30
0.0
 11
0.1404042013395286
 21
13.71084872107135
 31
0.0
  0
LINE
  5
8E
330
7F
100
AcDbEntity
  8
중심선
100
AcDbLine
 10
7.28139805157953
 20
16.24717430164393
 30
0.0
 11
10.72767329541681
 21
16.24717430164393
 31
0.0
  0
LINE
  5
8F
330
7F
100
AcDbEntity
  8
중심선
100
AcDbLine
 10
12.29416204261559
 20
16.24717430164393
 30
0.0
 11
15.74043728645272
 21
16.24717430164393
 31
0.0
  0
LINE
  5
90
330
7F
100
AcDbEntity
  8
중심선
100
AcDbLine
 10
19.22036997980202
 20
11.08717430171403
 30
0.0
 11
23.66174974927406
 21
11.08717430171406
 31
0.0
  0
LINE
  5
91
330
7F
100
AcDbEntity
  8
중심선
100
AcDbLine
 10
19.22039502424796
 20
13.00717430171391
 30
0.0
 11
19.22036997980202
 21
11.08717430171403
 31
0.0
  0
LINE
  5
92
330
7F
100
AcDbEntity
  8
중심선
100
AcDbLine
 10
19.22039502424796
 20
13.00717430171391
 30
0.0
 11
26.96566020931264
 21
13.00717430171391
 31
0.0
  0
LINE
  5
93
330
7F
100
AcDbEntity
  8
중심선
100
AcDbLine
 10
22.22332737316547
 20
13.45928029700563
 30
0.0
 11
24.52862924686651
 21
15.39360700705356
 31
0.0
  0
ATTDEF
  5
95
330
7F
100
AcDbEntity
  8
FORMAT
 62
     2
100
AcDbText
 10
4.408487351596664
 20
2.075366912832191
 30
0.0
 40
4.233333333333333
  1
E5022007
 41
0.75
  7
SLDTEXTSTYLE0
 11
4.408487351596664
 21
-0.0412997538344756
 31
0.0
100
AcDbAttributeDefinition
  3

  2
AUTOATTR0
 70
     0
 74
     1
  0
ENDBLK
  5
81
330
7F
100
AcDbEntity
  8
0
100
AcDbBlockEnd
  0
BLOCK
  5
DA
330
D9
100
AcDbEntity
  8
0
100
AcDbBlockBegin
  2
_D
 70
     0
 10
0.0
 20
0.0
 30
0.0
  3
_D
  1
_D
  0
LINE
  5
DC
330
D9
100
AcDbEntity
  8
치수문자_일반주서
 62
     0
370
    -2
100
AcDbLine
 10
-12.60942116787305
 20
1.587500000000001
 30
0.0
 11
-27.76268819926754
 21
1.587499999999945
 31
0.0
  0
LINE
  5
DD
330
D9
100
AcDbEntity
  8
치수문자_일반주서
 62
     0
370
    -2
100
AcDbLine
 10
-12.60942116787305
 20
-1.587499999999999
 30
0.0
 11
-27.76268819926753
 21
-1.587500000000057
 31
0.0
  0
LINE
  5
DE
330
D9
100
AcDbEntity
  8
치수문자_일반주서
 62
     0
370
    -2
100
AcDbLine
 10
-27.76268819926754
 20
1.587499999999945
 30
0.0
 11
-27.76268819926761
 21
24.74374999999996
 31
0.0
  0
LINE
  5
DF
330
D9
100
AcDbEntity
  8
치수문자_일반주서
 62
     0
370
    -2
100
AcDbLine
 10
-27.76268819926754
 20
1.587499999999945
 30
0.0
 11
-27.76268819926753
 21
-1.587500000000057
 31
0.0
  0
LINE
  5
E0
330
D9
100
AcDbEntity
  8
치수문자_일반주서
 62
     0
370
    -2
100
AcDbLine
 10
-27.76268819926754
 20
4.087499999999945
 30
0.0
 11
-27.76268819926755
 21
6.587499999999945
 31
0.0
  0
LINE
  5
E1
330
D9
100
AcDbEntity
  8
치수문자_일반주서
 62
     0
370
    -2
100
AcDbLine
 10
-27.76268819926752
 20
-4.087500000000057
 30
0.0
 11
-27.76268819926751
 21
-6.587500000000057
 31
0.0
  0
SOLID
  5
E2
330
D9
100
AcDbEntity
  8
치수문자_일반주서
 62
     0
100
AcDbTrace
 10
-28.17935486593421
 20
4.087499999999944
 30
0.0
 11
-27.34602153260088
 21
4.087499999999947
 31
0.0
 12
-27.76268819926754
 22
1.587499999999945
 32
0.0
 13
-27.76268819926754
 23
1.587499999999945
 33
0.0
  0
SOLID
  5
E3
330
D9
100
AcDbEntity
  8
치수문자_일반주서
 62
     0
100
AcDbTrace
 10
-27.34602153260085
 20
-4.087500000000055
 30
0.0
 11
-28.17935486593419
 21
-4.087500000000059
 31
0.0
 12
-27.76268819926753
 22
-1.587500000000057
 32
0.0
 13
-27.76268819926753
 23
-1.587500000000057
 33
0.0
  0
MTEXT
  5
E4
330
D9
100
AcDbEntity
  8
치수문자_일반주서
 62
     0
100
AcDbMText
 10
-31.13768819926758
 20
15.74374999999995
 30
0.0
 40
2.5
 41
0.0
 71
     2
 72
     1
  1
\A1;%%c3.18 [1/8]
  7
SLDTEXTSTYLE0
 11
-3.356894814614646E-15
 21
1.0
 31
0.0
 73
     1
 44
1.0
  0
POINT
  5
2D9
330
D9
100
AcDbEntity
  8
Defpoints
 62
     0
100
AcDbPoint
 10
-12.54692116787305
 20
1.587500000000002
 30
0.0
  0
POINT
  5
2DA
330
D9
100
AcDbEntity
  8
Defpoints
 62
     0
100
AcDbPoint
 10
-12.54692116787305
 20
-1.587499999999999
 30
0.0
  0
POINT
  5
2DB
330
D9
100
AcDbEntity
  8
Defpoints
 62
     0
100
AcDbPoint
 10
-27.76268819926753
 20
-1.587500000000056
 30
0.0
  0
ENDBLK
  5
DB
330
D9
100
AcDbEntity
  8
0
100
AcDbBlockEnd
  0
BLOCK
  5
EE
330
ED
100
AcDbEntity
  8
0
100
AcDbBlockBegin
  2
_D_1
 70
     0
 10
0.0
 20
0.0
 30
0.0
  3
_D_1
  1
_D_1
  0
LINE
  5
F0
330
ED
100
AcDbEntity
  8
치수문자_일반주서
 62
     0
370
    -2
100
AcDbLine
 10
19.11250000000001
 20
-1.387888485529925
 30
0.0
 11
29.11155289289154
 21
-1.387888485529885
 31
0.0
  0
LINE
  5
F1
330
ED
100
AcDbEntity
  8
치수문자_일반주서
 62
     0
370
    -2
100
AcDbLine
 10
19.11250000000001
 20
1.387888485529928
 30
0.0
 11
29.11155289289153
 21
1.387888485529965
 31
0.0
  0
LINE
  5
F2
330
ED
100
AcDbEntity
  8
치수문자_일반주서
 62
     0
370
    -2
100
AcDbLine
 10
29.11155289289153
 20
1.387888485529965
 30
0.0
 11
29.11155289289143
 21
27.51288848552996
 31
0.0
  0
LINE
  5
F3
330
ED
100
AcDbEntity
  8
치수문자_일반주서
 62
     0
370
    -2
100
AcDbLine
 10
29.11155289289154
 20
-1.387888485529885
 30
0.0
 11
29.11155289289153
 21
1.387888485529965
 31
0.0
  0
LINE
  5
F4
330
ED
100
AcDbEntity
  8
치수문자_일반주서
 62
     0
370
    -2
100
AcDbLine
 10
29.11155289289155
 20
-3.887888485529885
 30
0.0
 11
29.11155289289156
 21
-6.387888485529885
 31
0.0
  0
LINE
  5
F5
330
ED
100
AcDbEntity
  8
치수문자_일반주서
 62
     0
370
    -2
100
AcDbLine
 10
29.11155289289152
 20
3.887888485529965
 30
0.0
 11
29.11155289289151
 21
6.387888485529965
 31
0.0
  0
SOLID
  5
F6
330
ED
100
AcDbEntity
  8
치수문자_일반주서
 62
     0
100
AcDbTrace
 10
29.52821955955822
 20
-3.887888485529883
 30
0.0
 11
28.69488622622488
 21
-3.887888485529887
 31
0.0
 12
29.11155289289154
 22
-1.387888485529885
 32
0.0
 13
29.11155289289154
 23
-1.387888485529885
 33
0.0
  0
SOLID
  5
F7
330
ED
100
AcDbEntity
  8
치수문자_일반주서
 62
     0
100
AcDbTrace
 10
28.69488622622485
 20
3.887888485529963
 30
0.0
 11
29.52821955955818
 21
3.887888485529967
 31
0.0
 12
29.11155289289153
 22
1.387888485529965
 32
0.0
 13
29.11155289289153
 23
1.387888485529965
 33
0.0
  0
MTEXT
  5
F8
330
ED
100
AcDbEntity
  8
치수문자_일반주서
 62
     0
100
AcDbMText
 10
25.73655289289147
 20
16.95038848552995
 30
0.0
 40
2.5
 41
0.0
 71
     2
 72
     1
  1
\A1;%%c2.78 [7/64]
  7
SLDTEXTSTYLE0
 11
-3.839696469681420E-15
 21
1.0
 31
0.0
 73
     1
 44
1.0
  0
POINT
  5
F9
330
ED
100
AcDbEntity
  8
Defpoints
 62
     0
100
AcDbPoint
 10
19.05000000000001
 20
-1.387888485529925
 30
0.0
  0
POINT
  5
FA
330
ED
100
AcDbEntity
  8
Defpoints
 62
     0
100
AcDbPoint
 10
19.05000000000001
 20
1.387888485529928
 30
0.0
  0
POINT
  5
FB
330
ED
100
AcDbEntity
  8
Defpoints
 62
     0
100
AcDbPoint
 10
29.11155289289152
 20
1.387888485529966
 30
0.0
  0
ENDBLK
  5
EF
330
ED
100
AcDbEntity
  8
0
100
AcDbBlockEnd
  0
BLOCK
  5
102
330
101
100
AcDbEntity
  8
0
100
AcDbBlockBegin
  2
_D_2
 70
     0
 10
0.0
 20
0.0
 30
0.0
  3
_D_2
  1
_D_2
  0
LINE
  5
104
330
101
100
AcDbEntity
  8
치수문자_일반주서
 62
     0
370
    -2
100
AcDbLine
 10
19.05000000000001
 20
1.450388485529928
 30
0.0
 11
19.05000000000001
 21
14.7257637852778
 31
0.0
  0
LINE
  5
105
330
101
100
AcDbEntity
  8
치수문자_일반주서
 62
     0
370
    -2
100
AcDbLine
 10
14.28750000000001
 20
1.147285504261195
 30
0.0
 11
14.28750000000001
 21
14.7257637852778
 31
0.0
  0
LINE
  5
106
330
101
100
AcDbEntity
  8
치수문자_일반주서
 62
     0
370
    -2
100
AcDbLine
 10
14.28750000000001
 20
14.7257637852778
 30
0.0
 11
-9.33749999999999
 21
14.7257637852778
 31
0.0
  0
LINE
  5
107
330
101
100
AcDbEntity
  8
치수문자_일반주서
 62
     0
370
    -2
100
AcDbLine
 10
19.05000000000001
 20
14.7257637852778
 30
0.0
 11
14.28750000000001
 21
14.7257637852778
 31
0.0
  0
LINE
  5
108
330
101
100
AcDbEntity
  8
치수문자_일반주서
 62
     0
370
    -2
100
AcDbLine
 10
21.55000000000001
 20
14.7257637852778
 30
0.0
 11
24.05000000000001
 21
14.7257637852778
 31
0.0
  0
LINE
  5
109
330
101
100
AcDbEntity
  8
치수문자_일반주서
 62
     0
370
    -2
100
AcDbLine
 10
11.78750000000001
 20
14.7257637852778
 30
0.0
 11
9.28750000000001
 21
14.7257637852778
 31
0.0
  0
SOLID
  5
10A
330
101
100
AcDbEntity
  8
치수문자_일반주서
 62
     0
100
AcDbTrace
 10
21.55000000000001
 20
15.14243045194446
 30
0.0
 11
21.55000000000001
 21
14.30909711861113
 31
0.0
 12
19.05000000000001
 22
14.7257637852778
 32
0.0
 13
19.05000000000001
 23
14.7257637852778
 33
0.0
  0
SOLID
  5
10B
330
101
100
AcDbEntity
  8
치수문자_일반주서
 62
     0
100
AcDbTrace
 10
11.78750000000001
 20
14.30909711861113
 30
0.0
 11
11.78750000000001
 21
15.14243045194446
 31
0.0
 12
14.28750000000001
 22
14.7257637852778
 32
0.0
 13
14.28750000000001
 23
14.7257637852778
 33
0.0
  0
MTEXT
  5
10C
330
101
100
AcDbEntity
  8
치수문자_일반주서
 62
     0
100
AcDbMText
 10
-0.0249999999999897
 20
18.1007637852778
 30
0.0
 40
2.5
 41
0.0
 71
     2
 72
     1
  1
\A1;4.76 [3/16]
  7
SLDTEXTSTYLE0
 73
     1
 44
1.0
  0
POINT
  5
10D
330
101
100
AcDbEntity
  8
Defpoints
 62
     0
100
AcDbPoint
 10
19.05000000000001
 20
1.387888485529928
 30
0.0
  0
POINT
  5
10E
330
101
100
AcDbEntity
  8
Defpoints
 62
     0
100
AcDbPoint
 10
14.28750000000001
 20
1.084785504261195
 30
0.0
  0
POINT
  5
10F
330
101
100
AcDbEntity
  8
Defpoints
 62
     0
100
AcDbPoint
 10
14.28750000000001
 20
14.7257637852778
 30
0.0
  0
ENDBLK
  5
103
330
101
100
AcDbEntity
  8
0
100
AcDbBlockEnd
  0
BLOCK
  5
118
330
117
100
AcDbEntity
  8
0
100
AcDbBlockBegin
  2
_D_3
 70
     0
 10
0.0
 20
0.0
 30
0.0
  3
_D_3
  1
_D_3
  0
LINE
  5
11A
330
117
100
AcDbEntity
  8
치수문자_일반주서
 62
     0
370
    -2
100
AcDbLine
 10
-19.04999999999999
 20
1.450388485529924
 30
0.0
 11
-19.05
 21
24.20813111373534
 31
0.0
  0
LINE
  5
11B
330
117
100
AcDbEntity
  8
치수문자_일반주서
 62
     0
370
    -2
100
AcDbLine
 10
19.05000000000001
 20
1.450388485529928
 30
0.0
 11
19.05000000000001
 21
24.20813111373534
 31
0.0
  0
LINE
  5
11C
330
117
100
AcDbEntity
  8
치수문자_일반주서
 62
     0
370
    -2
100
AcDbLine
 10
-16.55
 20
24.20813111373534
 30
0.0
 11
16.55000000000001
 21
24.20813111373534
 31
0.0
  0
SOLID
  5
11D
330
117
100
AcDbEntity
  8
치수문자_일반주서
 62
     0
100
AcDbTrace
 10
-16.55
 20
24.62479778040201
 30
0.0
 11
-16.55
 21
23.79146444706867
 31
0.0
 12
-19.05
 22
24.20813111373534
 32
0.0
 13
-19.05
 23
24.20813111373534
 33
0.0
  0
SOLID
  5
11E
330
117
100
AcDbEntity
  8
치수문자_일반주서
 62
     0
100
AcDbTrace
 10
16.55000000000001
 20
23.79146444706867
 30
0.0
 11
16.55000000000001
 21
24.62479778040201
 31
0.0
 12
19.05000000000001
 22
24.20813111373534
 32
0.0
 13
19.05000000000001
 23
24.20813111373534
 33
0.0
  0
MTEXT
  5
11F
330
117
100
AcDbEntity
  8
치수문자_일반주서
 62
     0
100
AcDbMText
 10
1.277886314951859
 20
27.58313111373534
 30
0.0
 40
2.5
 41
0.0
 71
     2
 72
     1
  1
\A1;38.1 [1 1/2]
  7
SLDTEXTSTYLE0
 73
     1
 44
1.0
  0
POINT
  5
120
330
117
100
AcDbEntity
  8
Defpoints
 62
     0
100
AcDbPoint
 10
-19.04999999999999
 20
1.387888485529924
 30
0.0
  0
POINT
  5
121
330
117
100
AcDbEntity
  8
Defpoints
 62
     0
100
AcDbPoint
 10
19.05000000000001
 20
1.387888485529928
 30
0.0
  0
POINT
  5
122
330
117
100
AcDbEntity
  8
Defpoints
 62
     0
100
AcDbPoint
 10
19.05000000000001
 20
24.20813111373534
 30
0.0
  0
ENDBLK
  5
119
330
117
100
AcDbEntity
  8
0
100
AcDbBlockEnd
  0
BLOCK
  5
131
330
130
100
AcDbEntity
  8
0
100
AcDbBlockBegin
  2
SW_DOWELSYMBOL_0
 70
     0
 10
0.0
 20
0.0
 30
0.0
  3
SW_DOWELSYMBOL_0
  1
SW_DOWELSYMBOL_0
  0
CIRCLE
  5
133
330
130
100
AcDbEntity
  8
해칭선
 62
     0
100
AcDbCircle
 10
0.0
 20
0.0
 30
0.0
 40
3.000000000000001
  0
HATCH
  5
134
330
130
100
AcDbEntity
  8
0
  6
Continuous
 62
     0
370
     0
100
AcDbHatch
 10
0.0
 20
0.0
 30
0.0
210
0.0
220
0.0
230
1.0
  2
SOLID
 70
     1
 71
     0
 91
        1
 92
        0
 93
        3
 72
     2
 10
0.0
 20
0.0
 40
3.000000000000001
 50
0.0
 51
90.0
 73
     1
 72
     1
 10
0.0
 20
3.000000000000001
 11
0.0
 21
0.0
 72
     1
 10
0.0
 20
0.0
 11
3.000000000000001
 21
0.0
 97
        0
 75
     0
 76
     1
 98
        1
 10
0.0
 20
0.0
  0
HATCH
  5
135
330
130
100
AcDbEntity
  8
0
  6
Continuous
 62
     0
370
     0
100
AcDbHatch
 10
0.0
 20
0.0
 30
0.0
210
0.0
220
0.0
230
1.0
  2
SOLID
 70
     1
 71
     0
 91
        1
 92
        0
 93
        3
 72
     2
 10
0.0
 20
0.0
 40
3.000000000000001
 50
180.0
 51
270.0000000000007
 73
     1
 72
     1
 10
0.0
 20
-3.000000000000001
 11
0.0
 21
0.0
 72
     1
 10
0.0
 20
0.0
 11
-3.000000000000001
 21
0.0
 97
        0
 75
     0
 76
     1
 98
        1
 10
0.0
 20
0.0
  0
ENDBLK
  5
132
330
130
100
AcDbEntity
  8
0
100
AcDbBlockEnd
  0
BLOCK
  5
217
330
216
100
AcDbEntity
  8
0
100
AcDbBlockBegin
  2
*D7
 70
     1
 10
0.0
 20
0.0
 30
0.0
  3
*D7
  1
*D8
  0
LINE
  5
219
330
216
100
AcDbEntity
  8
치수문자_일반주서
 62
     0
370
    -2
100
AcDbLine
 10
71.43750000000006
 20
10.20053740206972
 30
0.0
 11
79.375
 21
10.20053740206975
 31
0.0
  0
LINE
  5
21A
330
216
100
AcDbEntity
  8
치수문자_일반주서
 62
     0
370
    -2
100
AcDbLine
 10
71.43750000000006
 20
11.70053740206973
 30
0.0
 11
79.375
 21
11.70053740206976
 31
0.0
  0
LINE
  5
21B
330
216
100
AcDbEntity
  8
치수문자_일반주서
 62
     0
370
    -2
100
AcDbLine
 10
79.375
 20
11.70053740206976
 30
0.0
 11
79.375
 21
35.42953740206976
 31
0.0
  0
LINE
  5
21C
330
216
100
AcDbEntity
  8
치수문자_일반주서
 62
     0
370
    -2
100
AcDbLine
 10
79.375
 20
10.20053740206975
 30
0.0
 11
79.375
 21
11.70053740206976
 31
0.0
  0
LINE
  5
21D
330
216
100
AcDbEntity
  8
치수문자_일반주서
 62
     0
370
    -2
100
AcDbLine
 10
79.375
 20
7.700537402069752
 30
0.0
 11
79.375
 21
5.200537402069752
 31
0.0
  0
LINE
  5
21E
330
216
100
AcDbEntity
  8
치수문자_일반주서
 62
     0
370
    -2
100
AcDbLine
 10
79.375
 20
14.20053740206976
 30
0.0
 11
79.375
 21
16.70053740206976
 31
0.0
  0
SOLID
  5
21F
330
216
100
AcDbEntity
  8
치수문자_일반주서
 62
     0
100
AcDbTrace
 10
79.79166666666667
 20
7.700537402069752
 30
0.0
 11
78.95833333333333
 21
7.700537402069752
 31
0.0
 12
79.375
 22
10.20053740206975
 32
0.0
 13
79.375
 23
10.20053740206975
 33
0.0
  0
SOLID
  5
220
330
216
100
AcDbEntity
  8
치수문자_일반주서
 62
     0
100
AcDbTrace
 10
78.95833333333333
 20
14.20053740206976
 30
0.0
 11
79.79166666666667
 21
14.20053740206976
 31
0.0
 12
79.375
 22
11.70053740206976
 32
0.0
 13
79.375
 23
11.70053740206976
 33
0.0
  0
MTEXT
  5
221
330
216
100
AcDbEntity
  8
치수문자_일반주서
 62
     0
100
AcDbMText
 10
76.0
 20
27.05453740206976
 30
0.0
 40
2.5
 41
0.0
 71
     2
 72
     1
  1
\A1;%%c1.5 [0.06]
  7
SLDTEXTSTYLE0
 11
0.0
 21
1.0
 31
0.0
 73
     1
 44
1.0
  0
POINT
  5
222
330
216
100
AcDbEntity
  8
Defpoints
 62
     0
100
AcDbPoint
 10
71.37500000000006
 20
10.20053740206972
 30
0.0
  0
POINT
  5
223
330
216
100
AcDbEntity
  8
Defpoints
 62
     0
100
AcDbPoint
 10
71.37500000000006
 20
11.70053740206973
 30
0.0
  0
POINT
  5
224
330
216
100
AcDbEntity
  8
Defpoints
 62
     0
100
AcDbPoint
 10
79.37500000000003
 20
11.70053740206976
 30
0.0
  0
ENDBLK
  5
218
330
216
100
AcDbEntity
  8
0
100
AcDbBlockEnd
  0
BLOCK
  5
226
330
225
100
AcDbEntity
  8
0
100
AcDbBlockBegin
  2
*D8
 70
     1
 10
0.0
 20
0.0
 30
0.0
  3
*D8
  1
*D9
  0
LINE
  5
228
330
225
100
AcDbEntity
  8
치수문자_일반주서
 62
     0
370
    -2
100
AcDbLine
 10
11.37500000000006
 20
13.51303740206972
 30
0.0
 11
11.37500000000006
 21
31.33967000365137
 31
0.0
  0
LINE
  5
229
330
225
100
AcDbEntity
  8
치수문자_일반주서
 62
     0
370
    -2
100
AcDbLine
 10
71.37500000000006
 20
11.76303740206973
 30
0.0
 11
71.37500000000006
 21
31.33967000365137
 31
0.0
  0
LINE
  5
22A
330
225
100
AcDbEntity
  8
치수문자_일반주서
 62
     0
370
    -2
100
AcDbLine
 10
13.87500000000006
 20
31.33967000365137
 30
0.0
 11
68.87500000000006
 21
31.33967000365137
 31
0.0
  0
SOLID
  5
22B
330
225
100
AcDbEntity
  8
치수문자_일반주서
 62
     0
100
AcDbTrace
 10
13.87500000000006
 20
31.75633667031804
 30
0.0
 11
13.87500000000006
 21
30.9230033369847
 31
0.0
 12
11.37500000000006
 22
31.33967000365137
 32
0.0
 13
11.37500000000006
 23
31.33967000365137
 33
0.0
  0
SOLID
  5
22C
330
225
100
AcDbEntity
  8
치수문자_일반주서
 62
     0
100
AcDbTrace
 10
68.87500000000006
 20
30.9230033369847
 30
0.0
 11
68.87500000000006
 21
31.75633667031804
 31
0.0
 12
71.37500000000006
 22
31.33967000365137
 32
0.0
 13
71.37500000000006
 23
31.33967000365137
 33
0.0
  0
MTEXT
  5
22D
330
225
100
AcDbEntity
  8
치수문자_일반주서
 62
     0
100
AcDbMText
 10
41.37500000000006
 20
34.71467000365137
 30
0.0
 40
2.5
 41
0.0
 71
     2
 72
     1
  1
\A1;60 [2.36]
  7
SLDTEXTSTYLE0
 73
     1
 44
1.0
  0
POINT
  5
22E
330
225
100
AcDbEntity
  8
Defpoints
 62
     0
100
AcDbPoint
 10
11.37500000000006
 20
13.45053740206972
 30
0.0
  0
POINT
  5
22F
330
225
100
AcDbEntity
  8
Defpoints
 62
     0
100
AcDbPoint
 10
71.37500000000006
 20
11.70053740206973
 30
0.0
  0
POINT
  5
230
330
225
100
AcDbEntity
  8
Defpoints
 62
     0
100
AcDbPoint
 10
71.37500000000006
 20
31.33967000365137
 30
0.0
  0
ENDBLK
  5
227
330
225
100
AcDbEntity
  8
0
100
AcDbBlockEnd
  0
BLOCK
  5
232
330
231
100
AcDbEntity
  8
0
100
AcDbBlockBegin
  2
*D9
 70
     1
 10
0.0
 20
0.0
 30
0.0
  3
*D9
  1
*D10
  0
LINE
  5
234
330
231
100
AcDbEntity
  8
치수문자_일반주서
 62
     0
370
    -2
100
AcDbLine
 10
11.81250000000006
 20
13.95053740206973
 30
0.0
 11
3.375000000000041
 21
13.9505374020697
 31
0.0
  0
LINE
  5
235
330
231
100
AcDbEntity
  8
치수문자_일반주서
 62
     0
370
    -2
100
AcDbLine
 10
11.81250000000006
 20
7.950537402069727
 30
0.0
 11
3.375000000000062
 21
7.950537402069696
 31
0.0
  0
LINE
  5
236
330
231
100
AcDbEntity
  8
치수문자_일반주서
 62
     0
370
    -2
100
AcDbLine
 10
3.375000000000041
 20
13.9505374020697
 30
0.0
 11
3.374999999999971
 21
34.1380374020697
 31
0.0
  0
LINE
  5
237
330
231
100
AcDbEntity
  8
치수문자_일반주서
 62
     0
370
    -2
100
AcDbLine
 10
3.375000000000041
 20
13.9505374020697
 30
0.0
 11
3.375000000000062
 21
7.950537402069696
 31
0.0
  0
LINE
  5
238
330
231
100
AcDbEntity
  8
치수문자_일반주서
 62
     0
370
    -2
100
AcDbLine
 10
3.375000000000032
 20
16.4505374020697
 30
0.0
 11
3.375000000000023
 21
18.9505374020697
 31
0.0
  0
LINE
  5
239
330
231
100
AcDbEntity
  8
치수문자_일반주서
 62
     0
370
    -2
100
AcDbLine
 10
3.375000000000071
 20
5.450537402069696
 30
0.0
 11
3.375000000000079
 21
2.950537402069696
 31
0.0
  0
SOLID
  5
23A
330
231
100
AcDbEntity
  8
치수문자_일반주서
 62
     0
100
AcDbTrace
 10
2.958333333333365
 20
16.4505374020697
 30
0.0
 11
3.791666666666698
 21
16.4505374020697
 31
0.0
 12
3.375000000000041
 22
13.9505374020697
 32
0.0
 13
3.375000000000041
 23
13.9505374020697
 33
0.0
  0
SOLID
  5
23B
330
231
100
AcDbEntity
  8
치수문자_일반주서
 62
     0
100
AcDbTrace
 10
3.791666666666737
 20
5.450537402069697
 30
0.0
 11
2.958333333333404
 21
5.450537402069694
 31
0.0
 12
3.375000000000062
 22
7.950537402069696
 32
0.0
 13
3.375000000000062
 23
7.950537402069696
 33
0.0
  0
MTEXT
  5
23C
330
231
100
AcDbEntity
  8
치수문자_일반주서
 62
     0
100
AcDbMText
 10
-0.0000000000000031
 20
26.54428740206969
 30
0.0
 40
2.5
 41
0.0
 71
     2
 72
     1
  1
\A1;%%c6 [0.24]
  7
SLDTEXTSTYLE0
 11
-3.478698810492154E-15
 21
1.0
 31
0.0
 73
     1
 44
1.0
  0
POINT
  5
23D
330
231
100
AcDbEntity
  8
Defpoints
 62
     0
100
AcDbPoint
 10
11.87500000000006
 20
13.95053740206973
 30
0.0
  0
POINT
  5
23E
330
231
100
AcDbEntity
  8
Defpoints
 62
     0
100
AcDbPoint
 10
11.87500000000006
 20
7.950537402069727
 30
0.0
  0
POINT
  5
23F
330
231
100
AcDbEntity
  8
Defpoints
 62
     0
100
AcDbPoint
 10
3.375000000000057
 20
7.950537402069696
 30
0.0
  0
ENDBLK
  5
233
330
231
100
AcDbEntity
  8
0
100
AcDbBlockEnd
  0
BLOCK
  5
241
330
240
100
AcDbEntity
  8
0
100
AcDbBlockBegin
  2
*D10
 70
     1
 10
0.0
 20
0.0
 30
0.0
  3
*D10
  1
*D11
  0
LINE
  5
243
330
240
100
AcDbEntity
  8
치수문자_일반주서
 62
     0
370
    -2
100
AcDbLine
 10
65.37500000000006
 20
11.72584006941095
 30
0.0
 11
65.37500000000006
 21
22.5092583719986
 31
0.0
  0
LINE
  5
244
330
240
100
AcDbEntity
  8
치수문자_일반주서
 62
     0
370
    -2
100
AcDbLine
 10
71.37500000000006
 20
11.76303740206973
 30
0.0
 11
71.37500000000006
 21
22.5092583719986
 31
0.0
  0
LINE
  5
245
330
240
100
AcDbEntity
  8
치수문자_일반주서
 62
     0
370
    -2
100
AcDbLine
 10
65.37500000000006
 20
22.5092583719986
 30
0.0
 11
71.37500000000006
 21
22.5092583719986
 31
0.0
  0
LINE
  5
246
330
240
100
AcDbEntity
  8
치수문자_일반주서
 62
     0
370
    -2
100
AcDbLine
 10
62.87500000000006
 20
22.5092583719986
 30
0.0
 11
60.37500000000006
 21
22.5092583719986
 31
0.0
  0
LINE
  5
247
330
240
100
AcDbEntity
  8
치수문자_일반주서
 62
     0
370
    -2
100
AcDbLine
 10
73.87500000000006
 20
22.5092583719986
 30
0.0
 11
76.37500000000006
 21
22.5092583719986
 31
0.0
  0
SOLID
  5
248
330
240
100
AcDbEntity
  8
치수문자_일반주서
 62
     0
100
AcDbTrace
 10
62.87500000000006
 20
22.09259170533193
 30
0.0
 11
62.87500000000006
 21
22.92592503866527
 31
0.0
 12
65.37500000000006
 22
22.5092583719986
 32
0.0
 13
65.37500000000006
 23
22.5092583719986
 33
0.0
  0
SOLID
  5
249
330
240
100
AcDbEntity
  8
치수문자_일반주서
 62
     0
100
AcDbTrace
 10
73.87500000000006
 20
22.92592503866527
 30
0.0
 11
73.87500000000006
 21
22.09259170533193
 31
0.0
 12
71.37500000000006
 22
22.5092583719986
 32
0.0
 13
71.37500000000006
 23
22.5092583719986
 33
0.0
  0
MTEXT
  5
24A
330
240
100
AcDbEntity
  8
치수문자_일반주서
 62
     0
100
AcDbMText
 10
68.37500000000006
 20
25.8842583719986
 30
0.0
 40
2.5
 41
0.0
 71
     2
 72
     1
  1
\A1;6 [0.24]
  7
SLDTEXTSTYLE0
 73
     1
 44
1.0
  0
POINT
  5
24B
330
240
100
AcDbEntity
  8
Defpoints
 62
     0
100
AcDbPoint
 10
65.37500000000006
 20
11.66334006941095
 30
0.0
  0
POINT
  5
24C
330
240
100
AcDbEntity
  8
Defpoints
 62
     0
100
AcDbPoint
 10
71.37500000000006
 20
11.70053740206973
 30
0.0
  0
POINT
  5
24D
330
240
100
AcDbEntity
  8
Defpoints
 62
     0
100
AcDbPoint
 10
71.37500000000006
 20
22.5092583719986
 30
0.0
  0
ENDBLK
  5
242
330
240
100
AcDbEntity
  8
0
100
AcDbBlockEnd
  0
BLOCK
  5
2A2
330
2A1
100
AcDbEntity
  8
0
100
AcDbBlockBegin
  2
*D11
 70
     1
 10
0.0
 20
0.0
 30
0.0
  3
*D11
  1
*D12
  0
LINE
  5
2A4
330
2A1
100
AcDbEntity
  8
치수문자_일반주서
 62
     0
370
    -2
100
AcDbLine
 10
19.58918537284575
 20
77.57634918746447
 30
0.0
 11
27.52668537284573
 21
77.5763491874645
 31
0.0
  0
LINE
  5
2A5
330
2A1
100
AcDbEntity
  8
치수문자_일반주서
 62
     0
370
    -2
100
AcDbLine
 10
19.58918537284575
 20
79.07634918746447
 30
0.0
 11
27.52668537284573
 21
79.0763491874645
 31
0.0
  0
LINE
  5
2A6
330
2A1
100
AcDbEntity
  8
치수문자_일반주서
 62
     0
370
    -2
100
AcDbLine
 10
27.52668537284573
 20
79.0763491874645
 30
0.0
 11
27.52668537284567
 21
102.8053491874645
 31
0.0
  0
LINE
  5
2A7
330
2A1
100
AcDbEntity
  8
치수문자_일반주서
 62
     0
370
    -2
100
AcDbLine
 10
27.52668537284573
 20
77.5763491874645
 30
0.0
 11
27.52668537284573
 21
79.0763491874645
 31
0.0
  0
LINE
  5
2A8
330
2A1
100
AcDbEntity
  8
치수문자_일반주서
 62
     0
370
    -2
100
AcDbLine
 10
27.52668537284574
 20
75.0763491874645
 30
0.0
 11
27.52668537284574
 21
72.5763491874645
 31
0.0
  0
LINE
  5
2A9
330
2A1
100
AcDbEntity
  8
치수문자_일반주서
 62
     0
370
    -2
100
AcDbLine
 10
27.52668537284572
 20
81.5763491874645
 30
0.0
 11
27.52668537284571
 21
84.0763491874645
 31
0.0
  0
SOLID
  5
2AA
330
2A1
100
AcDbEntity
  8
치수문자_일반주서
 62
     0
100
AcDbTrace
 10
27.9433520395124
 20
75.0763491874645
 30
0.0
 11
27.11001870617907
 21
75.0763491874645
 31
0.0
 12
27.52668537284573
 22
77.5763491874645
 32
0.0
 13
27.52668537284573
 23
77.5763491874645
 33
0.0
  0
SOLID
  5
2AB
330
2A1
100
AcDbEntity
  8
치수문자_일반주서
 62
     0
100
AcDbTrace
 10
27.11001870617905
 20
81.5763491874645
 30
0.0
 11
27.94335203951239
 21
81.5763491874645
 31
0.0
 12
27.52668537284573
 22
79.0763491874645
 32
0.0
 13
27.52668537284573
 23
79.0763491874645
 33
0.0
  0
MTEXT
  5
2AC
330
2A1
100
AcDbEntity
  8
치수문자_일반주서
 62
     0
100
AcDbMText
 10
24.15168537284569
 20
94.43034918746451
 30
0.0
 40
2.5
 41
0.0
 71
     2
 72
     1
  1
\A1;%%c1.5 [0.06]
  7
SLDTEXTSTYLE0
 11
-2.368475785867000E-15
 21
1.0
 31
0.0
 73
     1
 44
1.0
  0
POINT
  5
2AD
330
2A1
100
AcDbEntity
  8
Defpoints
 62
     0
100
AcDbPoint
 10
19.52668537284575
 20
77.57634918746447
 30
0.0
  0
POINT
  5
2AE
330
2A1
100
AcDbEntity
  8
Defpoints
 62
     0
100
AcDbPoint
 10
19.52668537284575
 20
79.07634918746447
 30
0.0
  0
POINT
  5
2AF
330
2A1
100
AcDbEntity
  8
Defpoints
 62
     0
100
AcDbPoint
 10
27.52668537284569
 20
79.0763491874645
 30
0.0
  0
ENDBLK
  5
2A3
330
2A1
100
AcDbEntity
  8
0
100
AcDbBlockEnd
  0
BLOCK
  5
2B1
330
2B0
100
AcDbEntity
  8
0
100
AcDbBlockBegin
  2
*D12
 70
     1
 10
0.0
 20
0.0
 30
0.0
  3
*D12
  1
*D13
  0
LINE
  5
2B3
330
2B0
100
AcDbEntity
  8
치수문자_일반주서
 62
     0
370
    -2
100
AcDbLine
 10
-40.47331462715425
 20
80.88884918746447
 30
0.0
 11
-40.47331462715425
 21
98.71548178904612
 31
0.0
  0
LINE
  5
2B4
330
2B0
100
AcDbEntity
  8
치수문자_일반주서
 62
     0
370
    -2
100
AcDbLine
 10
19.52668537284575
 20
79.13884918746447
 30
0.0
 11
19.52668537284575
 21
98.71548178904612
 31
0.0
  0
LINE
  5
2B5
330
2B0
100
AcDbEntity
  8
치수문자_일반주서
 62
     0
370
    -2
100
AcDbLine
 10
-37.97331462715425
 20
98.71548178904612
 30
0.0
 11
17.02668537284575
 21
98.71548178904612
 31
0.0
  0
SOLID
  5
2B6
330
2B0
100
AcDbEntity
  8
치수문자_일반주서
 62
     0
100
AcDbTrace
 10
-37.97331462715425
 20
99.1321484557128
 30
0.0
 11
-37.97331462715425
 21
98.29881512237945
 31
0.0
 12
-40.47331462715425
 22
98.71548178904612
 32
0.0
 13
-40.47331462715425
 23
98.71548178904612
 33
0.0
  0
SOLID
  5
2B7
330
2B0
100
AcDbEntity
  8
치수문자_일반주서
 62
     0
100
AcDbTrace
 10
17.02668537284575
 20
98.29881512237945
 30
0.0
 11
17.02668537284575
 21
99.1321484557128
 31
0.0
 12
19.52668537284575
 22
98.71548178904612
 32
0.0
 13
19.52668537284575
 23
98.71548178904612
 33
0.0
  0
MTEXT
  5
2B8
330
2B0
100
AcDbEntity
  8
치수문자_일반주서
 62
     0
100
AcDbMText
 10
-10.47331462715425
 20
102.0904817890461
 30
0.0
 40
2.5
 41
0.0
 71
     2
 72
     1
  1
\A1;60 [2.36]
  7
SLDTEXTSTYLE0
 73
     1
 44
1.0
  0
POINT
  5
2B9
330
2B0
100
AcDbEntity
  8
Defpoints
 62
     0
100
AcDbPoint
 10
-40.47331462715425
 20
80.82634918746447
 30
0.0
  0
POINT
  5
2BA
330
2B0
100
AcDbEntity
  8
Defpoints
 62
     0
100
AcDbPoint
 10
19.52668537284575
 20
79.07634918746447
 30
0.0
  0
POINT
  5
2BB
330
2B0
100
AcDbEntity
  8
Defpoints
 62
     0
100
AcDbPoint
 10
19.52668537284575
 20
98.71548178904612
 30
0.0
  0
ENDBLK
  5
2B2
330
2B0
100
AcDbEntity
  8
0
100
AcDbBlockEnd
  0
BLOCK
  5
2BD
330
2BC
100
AcDbEntity
  8
0
100
AcDbBlockBegin
  2
*D13
 70
     1
 10
0.0
 20
0.0
 30
0.0
  3
*D13
  1
*D14
  0
LINE
  5
2BF
330
2BC
100
AcDbEntity
  8
치수문자_일반주서
 62
     0
370
    -2
100
AcDbLine
 10
-40.03581462715425
 20
81.32634918746447
 30
0.0
 11
-48.47331462715427
 21
81.32634918746444
 31
0.0
  0
LINE
  5
2C0
330
2BC
100
AcDbEntity
  8
치수문자_일반주서
 62
     0
370
    -2
100
AcDbLine
 10
-40.03581462715425
 20
75.32634918746447
 30
0.0
 11
-48.47331462715425
 21
75.32634918746444
 31
0.0
  0
LINE
  5
2C1
330
2BC
100
AcDbEntity
  8
치수문자_일반주서
 62
     0
370
    -2
100
AcDbLine
 10
-48.47331462715427
 20
81.32634918746444
 30
0.0
 11
-48.47331462715434
 21
101.5138491874644
 31
0.0
  0
LINE
  5
2C2
330
2BC
100
AcDbEntity
  8
치수문자_일반주서
 62
     0
370
    -2
100
AcDbLine
 10
-48.47331462715427
 20
81.32634918746444
 30
0.0
 11
-48.47331462715425
 21
75.32634918746444
 31
0.0
  0
LINE
  5
2C3
330
2BC
100
AcDbEntity
  8
치수문자_일반주서
 62
     0
370
    -2
100
AcDbLine
 10
-48.47331462715427
 20
83.82634918746444
 30
0.0
 11
-48.47331462715428
 21
86.32634918746444
 31
0.0
  0
LINE
  5
2C4
330
2BC
100
AcDbEntity
  8
치수문자_일반주서
 62
     0
370
    -2
100
AcDbLine
 10
-48.47331462715424
 20
72.82634918746444
 30
0.0
 11
-48.47331462715423
 21
70.32634918746444
 31
0.0
  0
SOLID
  5
2C5
330
2BC
100
AcDbEntity
  8
치수문자_일반주서
 62
     0
100
AcDbTrace
 10
-48.88998129382094
 20
83.82634918746444
 30
0.0
 11
-48.05664796048761
 21
83.82634918746444
 31
0.0
 12
-48.47331462715427
 22
81.32634918746444
 32
0.0
 13
-48.47331462715427
 23
81.32634918746444
 33
0.0
  0
SOLID
  5
2C6
330
2BC
100
AcDbEntity
  8
치수문자_일반주서
 62
     0
100
AcDbTrace
 10
-48.05664796048757
 20
72.82634918746444
 30
0.0
 11
-48.8899812938209
 21
72.82634918746444
 31
0.0
 12
-48.47331462715425
 22
75.32634918746444
 32
0.0
 13
-48.47331462715425
 23
75.32634918746444
 33
0.0
  0
MTEXT
  5
2C7
330
2BC
100
AcDbEntity
  8
치수문자_일반주서
 62
     0
100
AcDbMText
 10
-51.84831462715431
 20
93.92009918746443
 30
0.0
 40
2.5
 41
0.0
 71
     2
 72
     1
  1
\A1;%%c6 [0.24]
  7
SLDTEXTSTYLE0
 11
-3.552713678800501E-15
 21
1.0
 31
0.0
 73
     1
 44
1.0
  0
POINT
  5
2C8
330
2BC
100
AcDbEntity
  8
Defpoints
 62
     0
100
AcDbPoint
 10
-39.97331462715425
 20
81.32634918746447
 30
0.0
  0
POINT
  5
2C9
330
2BC
100
AcDbEntity
  8
Defpoints
 62
     0
100
AcDbPoint
 10
-39.97331462715425
 20
75.32634918746447
 30
0.0
  0
POINT
  5
2CA
330
2BC
100
AcDbEntity
  8
Defpoints
 62
     0
100
AcDbPoint
 10
-48.47331462715425
 20
75.32634918746444
 30
0.0
  0
ENDBLK
  5
2BE
330
2BC
100
AcDbEntity
  8
0
100
AcDbBlockEnd
  0
BLOCK
  5
2CC
330
2CB
100
AcDbEntity
  8
0
100
AcDbBlockBegin
  2
*D14
 70
     1
 10
0.0
 20
0.0
 30
0.0
  3
*D14
  1
*D15
  0
LINE
  5
2CE
330
2CB
100
AcDbEntity
  8
치수문자_일반주서
 62
     0
370
    -2
100
AcDbLine
 10
13.52668537284575
 20
79.1016518548057
 30
0.0
 11
13.52668537284575
 21
89.88507015739334
 31
0.0
  0
LINE
  5
2CF
330
2CB
100
AcDbEntity
  8
치수문자_일반주서
 62
     0
370
    -2
100
AcDbLine
 10
19.52668537284575
 20
79.13884918746447
 30
0.0
 11
19.52668537284575
 21
89.88507015739334
 31
0.0
  0
LINE
  5
2D0
330
2CB
100
AcDbEntity
  8
치수문자_일반주서
 62
     0
370
    -2
100
AcDbLine
 10
13.52668537284575
 20
89.88507015739334
 30
0.0
 11
19.52668537284575
 21
89.88507015739334
 31
0.0
  0
LINE
  5
2D1
330
2CB
100
AcDbEntity
  8
치수문자_일반주서
 62
     0
370
    -2
100
AcDbLine
 10
11.02668537284575
 20
89.88507015739334
 30
0.0
 11
8.526685372845748
 21
89.88507015739334
 31
0.0
  0
LINE
  5
2D2
330
2CB
100
AcDbEntity
  8
치수문자_일반주서
 62
     0
370
    -2
100
AcDbLine
 10
22.02668537284575
 20
89.88507015739334
 30
0.0
 11
24.52668537284575
 21
89.88507015739334
 31
0.0
  0
SOLID
  5
2D3
330
2CB
100
AcDbEntity
  8
치수문자_일반주서
 62
     0
100
AcDbTrace
 10
11.02668537284575
 20
89.46840349072667
 30
0.0
 11
11.02668537284575
 21
90.30173682406001
 31
0.0
 12
13.52668537284575
 22
89.88507015739334
 32
0.0
 13
13.52668537284575
 23
89.88507015739334
 33
0.0
  0
SOLID
  5
2D4
330
2CB
100
AcDbEntity
  8
치수문자_일반주서
 62
     0
100
AcDbTrace
 10
22.02668537284575
 20
90.30173682406001
 30
0.0
 11
22.02668537284575
 21
89.46840349072667
 31
0.0
 12
19.52668537284575
 22
89.88507015739334
 32
0.0
 13
19.52668537284575
 23
89.88507015739334
 33
0.0
  0
MTEXT
  5
2D5
330
2CB
100
AcDbEntity
  8
치수문자_일반주서
 62
     0
100
AcDbMText
 10
16.52668537284575
 20
93.26007015739334
 30
0.0
 40
2.5
 41
0.0
 71
     2
 72
     1
  1
\A1;6 [0.24]
  7
SLDTEXTSTYLE0
 73
     1
 44
1.0
  0
POINT
  5
2D6
330
2CB
100
AcDbEntity
  8
Defpoints
 62
     0
100
AcDbPoint
 10
13.52668537284575
 20
79.0391518548057
 30
0.0
  0
POINT
  5
2D7
330
2CB
100
AcDbEntity
  8
Defpoints
 62
     0
100
AcDbPoint
 10
19.52668537284575
 20
79.07634918746447
 30
0.0
  0
POINT
  5
2D8
330
2CB
100
AcDbEntity
  8
Defpoints
 62
     0
100
AcDbPoint
 10
19.52668537284575
 20
89.88507015739334
 30
0.0
  0
ENDBLK
  5
2CD
330
2CB
100
AcDbEntity
  8
0
100
AcDbBlockEnd
  0
BLOCK
  5
311
330
310
100
AcDbEntity
  8
0
100
AcDbBlockBegin
  2
*D15
 70
     1
 10
0.0
 20
0.0
 30
0.0
  3
*D15
  1
*D16
  0
LINE
  5
313
330
310
100
AcDbEntity
  8
치수문자_일반주서
 62
     0
370
    -2
100
AcDbLine
 10
73.61006947817701
 20
-33.77648683575447
 30
0.0
 11
83.60912237106857
 21
-33.77648683575443
 31
0.0
  0
LINE
  5
314
330
310
100
AcDbEntity
  8
치수문자_일반주서
 62
     0
370
    -2
100
AcDbLine
 10
73.61006947817701
 20
-31.00070986469462
 30
0.0
 11
83.60912237106855
 21
-31.00070986469458
 31
0.0
  0
LINE
  5
315
330
310
100
AcDbEntity
  8
치수문자_일반주서
 62
     0
370
    -2
100
AcDbLine
 10
83.60912237106855
 20
-31.00070986469458
 30
0.0
 11
83.60912237106844
 21
-7.688209864694581
 31
0.0
  0
LINE
  5
316
330
310
100
AcDbEntity
  8
치수문자_일반주서
 62
     0
370
    -2
100
AcDbLine
 10
83.60912237106857
 20
-33.77648683575443
 30
0.0
 11
83.60912237106855
 21
-31.00070986469458
 31
0.0
  0
LINE
  5
317
330
310
100
AcDbEntity
  8
치수문자_일반주서
 62
     0
370
    -2
100
AcDbLine
 10
83.60912237106858
 20
-36.27648683575443
 30
0.0
 11
83.6091223710686
 21
-38.77648683575443
 31
0.0
  0
LINE
  5
318
330
310
100
AcDbEntity
  8
치수문자_일반주서
 62
     0
370
    -2
100
AcDbLine
 10
83.60912237106854
 20
-28.50070986469458
 30
0.0
 11
83.60912237106852
 21
-26.00070986469458
 31
0.0
  0
SOLID
  5
319
330
310
100
AcDbEntity
  8
치수문자_일반주서
 62
     0
100
AcDbTrace
 10
84.02578903773525
 20
-36.27648683575443
 30
0.0
 11
83.19245570440191
 21
-36.27648683575443
 31
0.0
 12
83.60912237106857
 22
-33.77648683575443
 32
0.0
 13
83.60912237106857
 23
-33.77648683575443
 33
0.0
  0
SOLID
  5
31A
330
310
100
AcDbEntity
  8
치수문자_일반주서
 62
     0
100
AcDbTrace
 10
83.19245570440187
 20
-28.50070986469458
 30
0.0
 11
84.02578903773521
 21
-28.50070986469458
 31
0.0
 12
83.60912237106855
 22
-31.00070986469458
 32
0.0
 13
83.60912237106855
 23
-31.00070986469458
 33
0.0
  0
MTEXT
  5
31B
330
310
100
AcDbEntity
  8
치수문자_일반주서
 62
     0
100
AcDbMText
 10
80.23412237106848
 20
-16.8444598646946
 30
0.0
 40
2.5
 41
0.0
 71
     2
 72
     1
  1
\A1;%%c2.78 [0.11]
  7
SLDTEXTSTYLE0
 11
-5.119595292908556E-15
 21
1.0
 31
0.0
 73
     1
 44
1.0
  0
POINT
  5
31C
330
310
100
AcDbEntity
  8
Defpoints
 62
     0
100
AcDbPoint
 10
73.54756947817701
 20
-33.77648683575447
 30
0.0
  0
POINT
  5
31D
330
310
100
AcDbEntity
  8
Defpoints
 62
     0
100
AcDbPoint
 10
73.54756947817701
 20
-31.00070986469462
 30
0.0
  0
POINT
  5
31E
330
310
100
AcDbEntity
  8
Defpoints
 62
     0
100
AcDbPoint
 10
83.60912237106852
 20
-31.00070986469458
 30
0.0
  0
ENDBLK
  5
312
330
310
100
AcDbEntity
  8
0
100
AcDbBlockEnd
  0
BLOCK
  5
320
330
31F
100
AcDbEntity
  8
0
100
AcDbBlockBegin
  2
*D16
 70
     1
 10
0.0
 20
0.0
 30
0.0
  3
*D16
  1
*D17
  0
LINE
  5
322
330
31F
100
AcDbEntity
  8
치수문자_일반주서
 62
     0
370
    -2
100
AcDbLine
 10
73.54756947817701
 20
-30.93820986469462
 30
0.0
 11
73.54756947817701
 21
-17.66283456494675
 31
0.0
  0
LINE
  5
323
330
31F
100
AcDbEntity
  8
치수문자_일반주서
 62
     0
370
    -2
100
AcDbLine
 10
68.78506947817701
 20
-31.24131284596335
 30
0.0
 11
68.78506947817701
 21
-17.66283456494675
 31
0.0
  0
LINE
  5
324
330
31F
100
AcDbEntity
  8
치수문자_일반주서
 62
     0
370
    -2
100
AcDbLine
 10
68.78506947817701
 20
-17.66283456494675
 30
0.0
 11
46.72256947817701
 21
-17.66283456494675
 31
0.0
  0
LINE
  5
325
330
31F
100
AcDbEntity
  8
치수문자_일반주서
 62
     0
370
    -2
100
AcDbLine
 10
73.54756947817701
 20
-17.66283456494675
 30
0.0
 11
68.78506947817701
 21
-17.66283456494675
 31
0.0
  0
LINE
  5
326
330
31F
100
AcDbEntity
  8
치수문자_일반주서
 62
     0
370
    -2
100
AcDbLine
 10
76.04756947817701
 20
-17.66283456494675
 30
0.0
 11
78.54756947817701
 21
-17.66283456494675
 31
0.0
  0
LINE
  5
327
330
31F
100
AcDbEntity
  8
치수문자_일반주서
 62
     0
370
    -2
100
AcDbLine
 10
66.28506947817701
 20
-17.66283456494675
 30
0.0
 11
63.78506947817701
 21
-17.66283456494675
 31
0.0
  0
SOLID
  5
328
330
31F
100
AcDbEntity
  8
치수문자_일반주서
 62
     0
100
AcDbTrace
 10
76.04756947817701
 20
-17.24616789828008
 30
0.0
 11
76.04756947817701
 21
-18.07950123161342
 31
0.0
 12
73.54756947817701
 22
-17.66283456494675
 32
0.0
 13
73.54756947817701
 23
-17.66283456494675
 33
0.0
  0
SOLID
  5
329
330
31F
100
AcDbEntity
  8
치수문자_일반주서
 62
     0
100
AcDbTrace
 10
66.28506947817701
 20
-18.07950123161342
 30
0.0
 11
66.28506947817701
 21
-17.24616789828008
 31
0.0
 12
68.78506947817701
 22
-17.66283456494675
 32
0.0
 13
68.78506947817701
 23
-17.66283456494675
 33
0.0
  0
MTEXT
  5
32A
330
31F
100
AcDbEntity
  8
치수문자_일반주서
 62
     0
100
AcDbMText
 10
55.25381947817701
 20
-14.28783456494675
 30
0.0
 40
2.5
 41
0.0
 71
     2
 72
     1
  1
\A1;4.76 [0.19]
  7
SLDTEXTSTYLE0
 73
     1
 44
1.0
  0
POINT
  5
32B
330
31F
100
AcDbEntity
  8
Defpoints
 62
     0
100
AcDbPoint
 10
73.54756947817701
 20
-31.00070986469462
 30
0.0
  0
POINT
  5
32C
330
31F
100
AcDbEntity
  8
Defpoints
 62
     0
100
AcDbPoint
 10
68.78506947817701
 20
-31.30381284596335
 30
0.0
  0
POINT
  5
32D
330
31F
100
AcDbEntity
  8
Defpoints
 62
     0
100
AcDbPoint
 10
68.78506947817701
 20
-17.66283456494675
 30
0.0
  0
ENDBLK
  5
321
330
31F
100
AcDbEntity
  8
0
100
AcDbBlockEnd
  0
BLOCK
  5
32F
330
32E
100
AcDbEntity
  8
0
100
AcDbBlockBegin
  2
*D17
 70
     1
 10
0.0
 20
0.0
 30
0.0
  3
*D17
  1
*D18
  0
LINE
  5
331
330
32E
100
AcDbEntity
  8
치수문자_일반주서
 62
     0
370
    -2
100
AcDbLine
 10
35.44756947817701
 20
-31.16859835022455
 30
0.0
 11
35.44756947817701
 21
-8.180467236489207
 31
0.0
  0
LINE
  5
332
330
32E
100
AcDbEntity
  8
치수문자_일반주서
 62
     0
370
    -2
100
AcDbLine
 10
73.54756947817701
 20
-30.93820986469462
 30
0.0
 11
73.54756947817701
 21
-8.180467236489207
 31
0.0
  0
LINE
  5
333
330
32E
100
AcDbEntity
  8
치수문자_일반주서
 62
     0
370
    -2
100
AcDbLine
 10
37.94756947817701
 20
-8.180467236489207
 30
0.0
 11
71.04756947817701
 21
-8.180467236489207
 31
0.0
  0
SOLID
  5
334
330
32E
100
AcDbEntity
  8
치수문자_일반주서
 62
     0
100
AcDbTrace
 10
37.94756947817701
 20
-7.76380056982254
 30
0.0
 11
37.94756947817701
 21
-8.597133903155873
 31
0.0
 12
35.44756947817701
 22
-8.180467236489207
 32
0.0
 13
35.44756947817701
 23
-8.180467236489207
 33
0.0
  0
SOLID
  5
335
330
32E
100
AcDbEntity
  8
치수문자_일반주서
 62
     0
100
AcDbTrace
 10
71.04756947817701
 20
-8.597133903155873
 30
0.0
 11
71.04756947817701
 21
-7.76380056982254
 31
0.0
 12
73.54756947817701
 22
-8.180467236489207
 32
0.0
 13
73.54756947817701
 23
-8.180467236489207
 33
0.0
  0
MTEXT
  5
336
330
32E
100
AcDbEntity
  8
치수문자_일반주서
 62
     0
100
AcDbMText
 10
55.77545579312886
 20
-4.805467236489207
 30
0.0
 40
2.5
 41
0.0
 71
     2
 72
     1
  1
\A1;38.1 [1.50]
  7
SLDTEXTSTYLE0
 73
     1
 44
1.0
  0
POINT
  5
337
330
32E
100
AcDbEntity
  8
Defpoints
 62
     0
100
AcDbPoint
 10
35.44756947817701
 20
-31.23109835022455
 30
0.0
  0
POINT
  5
338
330
32E
100
AcDbEntity
  8
Defpoints
 62
     0
100
AcDbPoint
 10
73.54756947817701
 20
-31.00070986469462
 30
0.0
  0
POINT
  5
339
330
32E
100
AcDbEntity
  8
Defpoints
 62
     0
100
AcDbPoint
 10
73.54756947817701
 20
-8.180467236489207
 30
0.0
  0
ENDBLK
  5
330
330
32E
100
AcDbEntity
  8
0
100
AcDbBlockEnd
  0
ENDSEC
  0
SECTION
  2
ENTITIES
  0
LINE
  5
96
330
1F
100
AcDbEntity
  8
외형선
  6
Continuous
370
    15
100
AcDbLine
 10
12.54692116787306
 20
1.5875
 30
0.0
 11
-12.54692116787303
 21
1.587499999999999
 31
0.0
  0
LINE
  5
97
330
1F
100
AcDbEntity
  8
외형선
  6
Continuous
370
    15
100
AcDbLine
 10
-12.54692116787305
 20
-1.587499999999999
 30
0.0
 11
12.54692116787306
 21
-1.587499999999997
 31
0.0
  0
LINE
  5
98
330
1F
100
AcDbEntity
  8
외형선
  6
Continuous
370
    15
100
AcDbLine
 10
12.54692116787306
 20
-1.587499999999998
 30
0.0
 11
13.28750000000001
 21
-1.389062499999999
 31
0.0
  0
LINE
  5
99
330
1F
100
AcDbEntity
  8
외형선
  6
Continuous
370
    15
100
AcDbLine
 10
13.28750000000001
 20
1.389062500000002
 30
0.0
 11
12.54692116787306
 21
1.587500000000001
 31
0.0
  0
LINE
  5
9C
330
1F
100
AcDbEntity
  8
외형선
  6
Continuous
370
    15
100
AcDbLine
 10
13.39739132263167
 20
1.389062500000002
 30
0.0
 11
13.28750000000001
 21
1.389062500000002
 31
0.0
  0
LINE
  5
9D
330
1F
100
AcDbEntity
  8
외형선
  6
Continuous
370
    15
100
AcDbLine
 10
13.28750000000001
 20
-1.389062499999999
 30
0.0
 11
13.39739132263167
 21
-1.389062499999999
 31
0.0
  0
SPLINE
  5
9E
330
1F
100
AcDbEntity
  8
외형선
  6
Continuous
370
    15
100
AcDbSpline
210
0.0
220
0.0
230
1.0
 70
     8
 71
     3
 72
     9
 73
     5
 74
     0
 42
0.000000001
 43
0.00000001
 40
0.0
 40
0.0
 40
0.0
 40
0.0
 40
0.9109528692181204
 40
1.0
 40
1.0
 40
1.0
 40
1.0
 10
14.2875000000653
 20
1.08476900760807
 30
0.0
 10
14.15860616423183
 20
1.084816827418316
 30
0.0
 10
14.01711274542948
 20
1.084869321693116
 30
0.0
 10
13.87202758777039
 20
1.091646005242383
 30
0.0
 10
13.85910817076181
 20
1.092249449468661
 30
0.0
  0
LINE
  5
9F
330
1F
100
AcDbEntity
  8
외형선
  6
Continuous
370
    15
100
AcDbLine
 10
13.39734973489066
 20
-1.114529938423558
 30
0.0
 11
14.28750000000002
 21
-1.084668747126661
 31
0.0
  0
SPLINE
  5
A0
330
1F
100
AcDbEntity
  8
0
  6
Continuous
 62
     1
370
    25
100
AcDbSpline
210
0.0
220
0.0
230
1.0
 70
     8
 71
     3
 72
     9
 73
     5
 74
     0
 42
0.000000001
 43
0.00000001
 40
0.0
 40
0.0
 40
0.0
 40
0.0
 40
0.4992987282724429
 40
1.0
 40
1.0
 40
1.0
 40
1.0
 10
15.45198771020111
 20
0.3559503807066413
 30
0.0
 10
15.38761255336692
 20
0.386510338676515
 30
0.0
 10
15.25868140816466
 20
0.4477160983539133
 30
0.0
 10
15.12973312115959
 20
0.5149909256917959
 30
0.0
 10
15.06516854986905
 20
0.5486755172951256
 30
0.0
  0
LINE
  5
A1
330
1F
100
AcDbEntity
  8
0
  6
Continuous
 62
     1
370
    25
100
AcDbLine
 10
14.99112163471339
 20
1.103793850967527
 30
0.0
 11
14.28750000000002
 21
1.084668747126664
 31
0.0
  0
SPLINE
  5
A2
330
1F
100
AcDbEntity
  8
0
  6
Continuous
 62
     1
370
    25
100
AcDbSpline
210
0.0
220
0.0
230
1.0
 70
     8
 71
     3
 72
    19
 73
    15
 74
     0
 42
0.000000001
 43
0.00000001
 40
0.0
 40
0.0
 40
0.0
 40
0.0
 40
0.1321472659453555
 40
0.2321227352109907
 40
0.3006800780506524
 40
0.3598798242437941
 40
0.4271946680938711
 40
0.5012769975894991
 40
0.5676093233900796
 40
0.620195923985699
 40
0.6678208317417923
 40
0.745533150999481
 40
0.855572572413672
 40
1.0
 40
1.0
 40
1.0
 40
1.0
 10
18.53345294575133
 20
0.9500595063203076
 30
0.0
 10
18.426963339302
 20
0.9418531012001649
 30
0.0
 10
18.23990946010344
 20
0.9274381741177934
 30
0.0
 10
17.99820961487357
 20
0.917844513759961
 30
0.0
 10
17.81311828161293
 20
0.914247502234802
 30
0.0
 10
17.65376033073261
 20
0.9138260122960469
 30
0.0
 10
17.49077020634937
 20
0.9160036176931998
 30
0.0
 10
17.32247008490772
 20
0.921399803964194
 30
0.0
 10
17.16652206295348
 20
0.9291756776864097
 30
0.0
 10
17.03278660533514
 20
0.9377894222210318
 30
0.0
 10
16.89140882083935
 20
0.948526801808336
 30
0.0
 10
16.70103400665021
 20
0.9659045480649902
 30
0.0
 10
16.43239077051729
 20
0.9964536764889765
 30
0.0
 10
16.22502599412318
 20
1.02726145801854
 30
0.0
 10
16.10733223030188
 20
1.044746991609391
 30
0.0
  0
SPLINE
  5
A3
330
1F
100
AcDbEntity
  8
0
  6
Continuous
 62
     1
370
    25
100
AcDbSpline
210
0.0
220
0.0
230
1.0
 70
     8
 71
     3
 72
    12
 73
     8
 74
     0
 42
0.000000001
 43
0.00000001
 40
0.0
 40
0.0
 40
0.0
 40
0.0
 40
0.3091043196116253
 40
0.55642680221269
 40
0.7558562020190528
 40
0.9404005866074824
 40
1.0
 40
1.0
 40
1.0
 40
1.0
 10
16.10733223030188
 20
-1.044746991609387
 30
0.0
 10
16.2110000145762
 20
-1.029162302124358
 30
0.0
 10
16.39761511516332
 20
-1.001107893358643
 30
0.0
 10
16.65660324648516
 20
-0.969922487361255
 30
0.0
 10
16.87980729091265
 20
-0.9494016006257584
 30
0.0
 10
17.03563468840574
 20
-0.9371275479021651
 30
0.0
 10
17.12006924195225
 20
-0.9325197204666639
 30
0.0
 10
17.14068106950243
 20
-0.9313948759510916
 30
0.0
  0
LINE
  5
A4
330
1F
100
AcDbEntity
  8
0
  6
Continuous
 62
     1
370
    25
100
AcDbLine
 10
14.28750000000002
 20
-1.084668747126661
 30
0.0
 11
14.99112163471339
 21
-1.103793850967524
 31
0.0
  0
LINE
  5
A5
330
1F
100
AcDbEntity
  8
외형선
  6
Continuous
370
    15
100
AcDbLine
 10
12.54692116787306
 20
1.587500000000001
 30
0.0
 11
12.54692116787306
 21
-1.587499999999999
 31
0.0
  0
LINE
  5
A7
330
1F
100
AcDbEntity
  8
외형선
  6
Continuous
370
    15
100
AcDbLine
 10
13.28750000000001
 20
1.389062500000002
 30
0.0
 11
13.28750000000001
 21
-1.389062499999999
 31
0.0
  0
LINE
  5
A8
330
1F
100
AcDbEntity
  8
외형선
  6
Continuous
370
    15
100
AcDbLine
 10
-19.04999999999999
 20
1.157499999999998
 30
0.0
 11
-19.04999999999999
 21
-1.157499999999999
 31
0.0
  0
SPLINE
  5
A9
330
1F
100
AcDbEntity
  8
외형선
  6
Continuous
370
    15
100
AcDbSpline
210
0.0
220
0.0
230
1.0
 70
     8
 71
     3
 72
    10
 73
     6
 74
     0
 42
0.000000001
 43
0.00000001
 40
0.0
 40
0.0
 40
0.0
 40
0.0
 40
0.5
 40
0.5
 40
1.0
 40
1.0
 40
1.0
 40
1.0
 10
14.28750000000001
 20
0.9256588340415051
 30
0.0
 10
14.13842181859056
 20
0.989620407667341
 30
0.0
 10
13.99292176185572
 20
1.047808413681349
 30
0.0
 10
13.69644347532954
 20
1.152366956838001
 30
0.0
 10
13.54602944085858
 20
1.198575350508502
 30
0.0
 10
13.39727740778611
 20
1.237511058400592
 30
0.0
  0
LINE
  5
AA
330
1F
100
AcDbEntity
  8
외형선
  6
Continuous
370
    15
100
AcDbLine
 10
14.28750000000001
 20
0.9256588340415042
 30
0.0
 11
14.28750000000001
 21
0.6036187775027557
 31
0.0
  0
SPLINE
  5
AB
330
1F
100
AcDbEntity
  8
외형선
  6
Continuous
370
    15
100
AcDbSpline
210
0.0
220
0.0
230
1.0
 70
     8
 71
     3
 72
    10
 73
     6
 74
     0
 42
0.000000001
 43
0.00000001
 40
0.0
 40
0.0
 40
0.0
 40
0.0
 40
0.5
 40
0.5
 40
1.0
 40
1.0
 40
1.0
 40
1.0
 10
13.39739132263168
 20
1.015085944315979
 30
0.0
 10
13.54612521717672
 20
0.9565771062674737
 30
0.0
 10
13.69651970922295
 20
0.892007008589287
 30
0.0
 10
13.99295904949994
 20
0.7540742925139081
 30
0.0
 10
14.13844084597156
 20
0.6808710160409793
 30
0.0
 10
14.28750000000001
 20
0.6036187775027559
 30
0.0
  0
SPLINE
  5
AC
330
1F
100
AcDbEntity
  8
외형선
  6
Continuous
370
    15
100
AcDbSpline
210
0.0
220
0.0
230
1.0
 70
     8
 71
     3
 72
     9
 73
     5
 74
     0
 42
0.000000001
 43
0.00000001
 40
0.0
 40
0.0
 40
0.0
 40
0.0
 40
0.1103082684613061
 40
1.0
 40
1.0
 40
1.0
 40
1.0
 10
13.83999842385409
 20
-1.099680740825629
 30
0.0
 10
13.82374348494675
 20
-1.106080128916175
 30
0.0
 10
13.67638427847853
 20
-1.164093804407695
 30
0.0
 10
13.52868459496182
 20
-1.202945249205579
 30
0.0
 10
13.39727740778611
 20
-1.237511058400589
 30
0.0
  0
LINE
  5
AD
330
1F
100
AcDbEntity
  8
외형선
  6
Continuous
370
    15
100
AcDbLine
 10
13.39739132263168
 20
1.237538096753024
 30
0.0
 11
13.39739132263167
 21
1.389062500000002
 31
0.0
  0
LINE
  5
AE
330
1F
100
AcDbEntity
  8
외형선
  6
Continuous
370
    15
100
AcDbLine
 10
13.39739132263167
 20
-1.389062499999999
 30
0.0
 11
13.39739132263168
 21
1.015409829964263
 31
0.0
  0
SPLINE
  5
AF
330
1F
100
AcDbEntity
  8
외형선
  6
Continuous
370
    15
100
AcDbSpline
210
0.0
220
0.0
230
1.0
 70
    24
 71
     3
 72
    10
 73
     6
 74
     0
 42
0.000000001
 43
0.00000001
 40
0.0
 40
0.0
 40
0.0
 40
0.0
 40
0.5
 40
0.5
 40
1.0
 40
1.0
 40
1.0
 40
1.0
 10
14.28750000000007
 20
0.6036187775027205
 30
0.0
 10
14.28750000000007
 20
0.5923257307187073
 30
0.0
 10
14.28750000000007
 20
0.5664768579414735
 30
0.0
 10
14.28750000000007
 20
0.4905760561921467
 30
0.0
 10
14.28750000000007
 20
0.440818241086107
 30
0.0
 10
14.28750000000007
 20
0.3861784260944314
 30
0.0
  0
SPLINE
  5
B0
330
1F
100
AcDbEntity
  8
외형선
  6
Continuous
370
    15
100
AcDbSpline
210
0.0
220
0.0
230
1.0
 70
     8
 71
     3
 72
    10
 73
     6
 74
     0
 42
0.000000001
 43
0.00000001
 40
0.0
 40
0.0
 40
0.0
 40
0.0
 40
0.5
 40
0.5
 40
1.0
 40
1.0
 40
1.0
 40
1.0
 10
14.2875000008497
 20
0.3861784257803466
 30
0.0
 10
14.13843626386754
 20
0.4412834752158161
 30
0.0
 10
13.99295006922472
 20
0.4937524235438948
 30
0.0
 10
13.69650134834534
 20
0.5931456414540279
 30
0.0
 10
13.54610214928182
 20
0.6399593479468257
 30
0.0
 10
13.39736388580641
 20
0.6826839981640538
 30
0.0
  0
SPLINE
  5
B1
330
1F
100
AcDbEntity
  8
외형선
  6
Continuous
370
    15
100
AcDbSpline
210
0.0
220
0.0
230
1.0
 70
     8
 71
     3
 72
    10
 73
     6
 74
     0
 42
0.000000001
 43
0.00000001
 40
0.0
 40
0.0
 40
0.0
 40
0.0
 40
0.5000000000000001
 40
0.5000000000000001
 40
1.0
 40
1.0
 40
1.0
 40
1.0
 10
14.28750000006542
 20
-1.019847826280907
 30
0.0
 10
14.13843389957059
 20
-0.9925935402271177
 30
0.0
 10
13.99294543671197
 20
-0.9597626256170965
 30
0.0
 10
13.69649187804681
 20
-0.8831992461901559
 30
0.0
 10
13.54609025148425
 20
-0.8394360437936598
 30
0.0
 10
13.39734973489066
 20
-0.7912908611290828
 30
0.0
  0
SPLINE
  5
B2
330
1F
100
AcDbEntity
  8
외형선
  6
Continuous
370
    15
100
AcDbSpline
210
0.0
220
0.0
230
1.0
 70
    24
 71
     3
 72
    10
 73
     6
 74
     0
 42
0.000000001
 43
0.00000001
 40
0.0
 40
0.0
 40
0.0
 40
0.0
 40
0.4999999999999999
 40
0.4999999999999999
 40
1.0
 40
1.0
 40
1.0
 40
1.0
 10
14.28750000000001
 20
0.386178426094455
 30
0.0
 10
14.28750000000001
 20
0.1446906429060479
 30
0.0
 10
14.28750000000001
 20
-0.1250413479778385
 30
0.0
 10
14.28750000000001
 20
-0.6248241526631225
 30
0.0
 10
14.28750000000001
 20
-0.8510026061861891
 30
0.0
 10
14.28750000000001
 20
-1.019847826268947
 30
0.0
  0
SPLINE
  5
B3
330
1F
100
AcDbEntity
  8
외형선
  6
Continuous
370
    15
100
AcDbSpline
210
0.0
220
0.0
230
1.0
 70
    24
 71
     3
 72
    11
 73
     7
 74
     0
 42
0.000000001
 43
0.00000001
 40
0.0
 40
0.0
 40
0.0
 40
0.0
 40
0.2156913117166019
 40
0.595640092600323
 40
0.9264687118737669
 40
1.0
 40
1.0
 40
1.0
 40
1.0
 10
14.28750000000001
 20
1.079628944984226
 30
0.0
 10
14.28750000000001
 20
1.0799990990923
 30
0.0
 10
14.28750000000001
 20
1.081021294309412
 30
0.0
 10
14.28750000000001
 20
1.033891103215903
 30
0.0
 10
14.28750000000001
 20
0.9793435874394671
 30
0.0
 10
14.28750000000001
 20
0.9339191014560306
 30
0.0
 10
14.28750000000001
 20
0.9256588340415051
 30
0.0
  0
SPLINE
  5
B4
330
1F
100
AcDbEntity
  8
외형선
  6
Continuous
370
    15
100
AcDbSpline
210
0.0
220
0.0
230
1.0
 70
    24
 71
     3
 72
    10
 73
     6
 74
     0
 42
0.000000001
 43
0.00000001
 40
0.0
 40
0.0
 40
0.0
 40
0.0
 40
0.4048118037032389
 40
0.815009180585735
 40
1.0
 40
1.0
 40
1.0
 40
1.0
 10
14.28750000000001
 20
-1.019847826268947
 30
0.0
 10
14.28750000000001
 20
-1.03441856170615
 30
0.0
 10
14.28750000000001
 20
-1.063753880095018
 30
0.0
 10
14.28750000000001
 20
-1.084552482047623
 30
0.0
 10
14.28750000000001
 20
-1.081196086590095
 30
0.0
 10
14.28750000000001
 20
-1.0801528831969
 30
0.0
  0
SPLINE
  5
B5
330
1F
100
AcDbEntity
  8
0
  6
Continuous
 62
     1
370
    25
100
AcDbSpline
210
0.0
220
0.0
230
1.0
 70
     8
 71
     3
 72
    28
 73
    24
 74
     0
 42
0.000000001
 43
0.00000001
 40
0.0
 40
0.0
 40
0.0
 40
0.0
 40
0.1249999999999999
 40
0.1249999999999999
 40
0.2499999999999999
 40
0.2499999999999999
 40
0.3124999999999997
 40
0.3124999999999997
 40
0.3749999999999994
 40
0.3749999999999994
 40
0.4999999999999993
 40
0.4999999999999993
 40
0.5624999999999994
 40
0.5624999999999994
 40
0.6249999999999996
 40
0.6249999999999996
 40
0.6874999999999996
 40
0.6874999999999996
 40
0.7499999999999997
 40
0.7499999999999997
 40
0.8749999999999998
 40
0.8749999999999998
 40
1.0
 40
1.0
 40
1.0
 40
1.0
 10
19.05000000000001
 20
-1.318138176167434
 30
0.0
 10
18.85461677662043
 20
-1.282187746419972
 30
0.0
 10
18.65281946567395
 20
-1.232335140385981
 30
0.0
 10
18.25458380110805
 20
-1.108856253052636
 30
0.0
 10
18.05992305386012
 20
-1.03567379732777
 30
0.0
 10
17.76023697523305
 20
-0.9102708832395823
 30
0.0
 10
17.66007434996062
 20
-0.8659848087576436
 30
0.0
 10
17.4615095779814
 20
-0.773486086514075
 30
0.0
 10
17.36416279720841
 20
-0.7254587115952764
 30
0.0
 10
17.06811179537113
 20
-0.575585437991827
 30
0.0
 10
16.86591798516261
 20
-0.467900976470945
 30
0.0
 10
16.56911453253953
 20
-0.3020121149375646
 30
0.0
 10
16.47193377785659
 20
-0.2461383592528633
 30
0.0
 10
16.27378307967742
 20
-0.1327102279947109
 30
0.0
 10
16.1737029384912
 20
-0.0753204626690754
 30
0.0
 10
15.9738218344337
 20
0.0394997334131195
 30
0.0
 10
15.87402672881802
 20
0.0969267966376181
 30
0.0
 10
15.67699463114015
 20
0.2105073278805148
 30
0.0
 10
15.57944365228075
 20
0.2667256494709126
 30
0.0
 10
15.28125517700661
 20
0.4339599897420194
 30
0.0
 10
15.07927051633835
 20
0.5426794269981201
 30
0.0
 10
14.6871581840946
 20
0.7448807338513795
 30
0.0
 10
14.48688810872184
 20
0.8401119278775435
 30
0.0
 10
14.28750000000006
 20
0.9256588340414822
 30
0.0
  0
SPLINE
  5
B6
330
1F
100
AcDbEntity
  8
0
  6
Continuous
 62
     1
370
    25
100
AcDbSpline
210
0.0
220
0.0
230
1.0
 70
     8
 71
     3
 72
    15
 73
    11
 74
     0
 42
0.000000001
 43
0.00000001
 40
0.0
 40
0.0
 40
0.0
 40
0.0
 40
0.130605835547164
 40
0.2607763282917706
 40
0.3917839759663235
 40
0.5217594314690155
 40
0.6528615531707466
 40
0.7828838762217737
 40
0.9137722524578038
 40
1.0
 40
1.0
 40
1.0
 40
1.0
 10
19.05000000000001
 20
-1.095931785973973
 30
0.0
 10
18.89284732098644
 20
-1.063257245338848
 30
0.0
 10
18.57906579321102
 20
-0.9980170767066332
 30
0.0
 10
18.10830551129222
 20
-0.849759895213617
 30
0.0
 10
17.63707573269784
 20
-0.6741302079616455
 30
0.0
 10
17.16628833740542
 20
-0.4689283575270453
 30
0.0
 10
16.69498208527256
 20
-0.2495064273215892
 30
0.0
 10
16.22420787920911
 20
-0.0173731666869917
 30
0.0
 10
15.80613200674582
 20
0.1881425084854612
 30
0.0
 10
15.54509243142825
 20
0.3104606310428075
 30
0.0
 10
15.44142046912849
 20
0.3590393179140034
 30
0.0
  0
LINE
  5
B7
330
1F
100
AcDbEntity
  8
0
  6
Continuous
 62
     1
370
    25
100
AcDbLine
 10
19.04999999999998
 20
-1.318138176167434
 30
0.0
 11
19.05000000000001
 21
-1.095931785973973
 31
0.0
  0
SPLINE
  5
B8
330
1F
100
AcDbEntity
  8
0
  6
Continuous
 62
     1
370
    25
100
AcDbSpline
210
0.0
220
0.0
230
1.0
 70
     8
 71
     3
 72
    28
 73
    24
 74
     0
 42
0.000000001
 43
0.00000001
 40
0.0
 40
0.0
 40
0.0
 40
0.0
 40
0.1249999999999997
 40
0.1249999999999997
 40
0.2499999999999994
 40
0.2499999999999994
 40
0.3124999999999993
 40
0.3124999999999993
 40
0.3749999999999992
 40
0.3749999999999992
 40
0.4374999999999991
 40
0.4374999999999991
 40
0.499999999999999
 40
0.499999999999999
 40
0.6249999999999991
 40
0.6249999999999991
 40
0.6874999999999991
 40
0.6874999999999991
 40
0.7499999999999991
 40
0.7499999999999991
 40
0.8749999999999996
 40
0.8749999999999996
 40
1.0
 40
1.0
 40
1.0
 40
1.0
 10
14.28750000000001
 20
0.6036187775027563
 30
0.0
 10
14.48688810872179
 20
0.5002827708210054
 30
0.0
 10
14.68715818409456
 20
0.390570421834167
 30
0.0
 10
15.0792705163383
 20
0.1670255378260537
 30
0.0
 10
15.28125517700657
 20
0.0512788309434344
 30
0.0
 10
15.57944365228071
 20
-0.120474484141903
 30
0.0
 10
15.67699463114011
 20
-0.1772099144229371
 30
0.0
 10
15.87402672881798
 20
-0.2898656075609395
 30
0.0
 10
15.97382183443367
 20
-0.3458415039256328
 30
0.0
 10
16.17370293849117
 20
-0.4557869370454917
 30
0.0
 10
16.27378307967739
 20
-0.5097532210039609
 30
0.0
 10
16.47193377785656
 20
-0.6144573918235778
 30
0.0
 10
16.5691145325395
 20
-0.6650539345652727
 30
0.0
 10
16.86591798516259
 20
-0.8122952237881254
 30
0.0
 10
17.06811179537111
 20
-0.9037708933280038
 30
0.0
 10
17.36416279720839
 20
-1.02477859661382
 30
0.0
 10
17.46150957798139
 20
-1.062446981411342
 30
0.0
 10
17.66007434996061
 20
-1.13267374599223
 30
0.0
 10
17.76023697523303
 20
-1.165079451761835
 30
0.0
 10
18.0599230538601
 20
-1.253004610860669
 30
0.0
 10
18.25458380110805
 20
-1.298947118362299
 30
0.0
 10
18.65281946567395
 20
-1.364239596990146
 30
0.0
 10
18.85461677662043
 20
-1.383203944022865
 30
0.0
 10
19.05000000000001
 20
-1.387888485529925
 30
0.0
  0
SPLINE
  5
B9
330
1F
100
AcDbEntity
  8
0
  6
Continuous
 62
     1
370
    25
100
AcDbSpline
210
0.0
220
0.0
230
1.0
 70
     8
 71
     3
 72
    10
 73
     6
 74
     0
 42
0.000000001
 43
0.00000001
 40
0.0
 40
0.0
 40
0.0
 40
0.0
 40
0.0586833461833321
 40
0.5991635138139805
 40
1.0
 40
1.0
 40
1.0
 40
1.0
 10
15.59583002155282
 20
-0.1298016899664153
 30
0.0
 10
15.57024091542544
 20
-0.1198364370865739
 30
0.0
 10
15.30897328602432
 20
-0.0180900930236904
 30
0.0
 10
14.87279351568165
 20
0.164287533375865
 30
0.0
 10
14.4622989778667
 20
0.3199103055657734
 30
0.0
 10
14.28750000084962
 20
0.386178425780376
 30
0.0
  0
SPLINE
  5
BA
330
1F
100
AcDbEntity
  8
외형선
  6
Continuous
370
    15
100
AcDbSpline
210
0.0
220
0.0
230
1.0
 70
    24
 71
     3
 72
    10
 73
     6
 74
     0
 42
0.000000001
 43
0.00000001
 40
0.0
 40
0.0
 40
0.0
 40
0.0
 40
0.5
 40
0.5
 40
1.0
 40
1.0
 40
1.0
 40
1.0
 10
14.28750000000007
 20
0.6036187775027207
 30
0.0
 10
14.28750000000007
 20
0.5923257307187075
 30
0.0
 10
14.28750000000007
 20
0.5664768579414735
 30
0.0
 10
14.28750000000007
 20
0.4905760561921466
 30
0.0
 10
14.28750000000007
 20
0.440818241086107
 30
0.0
 10
14.28750000000007
 20
0.3861784260944314
 30
0.0
  0
LINE
  5
BB
330
1F
100
AcDbEntity
  8
0
  6
Continuous
 62
     1
370
    25
100
AcDbLine
 10
19.05000000000001
 20
-1.387888485529925
 30
0.0
 11
19.05
 21
-1.318138176167432
 31
0.0
  0
SPLINE
  5
BC
330
1F
100
AcDbEntity
  8
0
  6
Continuous
 62
     1
370
    25
100
AcDbSpline
210
0.0
220
0.0
230
1.0
 70
     8
 71
     3
 72
     8
 73
     4
 74
     0
 42
0.000000001
 43
0.00000001
 40
0.0
 40
0.0
 40
0.0
 40
0.0
 40
1.0
 40
1.0
 40
1.0
 40
1.0
 10
18.1903051157932
 20
0.3887621309163188
 30
0.0
 10
18.14100288184699
 20
0.4471223139970814
 30
0.0
 10
18.09700384932706
 20
0.5033065058620705
 30
0.0
 10
18.05955227709811
 20
0.5568041665294522
 30
0.0
  0
LINE
  5
BD
330
1F
100
AcDbEntity
  8
0
  6
Continuous
 62
     1
370
    25
100
AcDbLine
 10
18.07716518332106
 20
0.5715831496581959
 30
0.0
 11
19.05000000000001
 21
0.0000000000000023
 31
0.0
  0
LINE
  5
BE
330
1F
100
AcDbEntity
  8
0
  6
Continuous
 62
     1
370
    25
100
AcDbLine
 10
19.05000000000001
 20
0.0000000000000023
 30
0.0
 11
19.05000000000001
 21
-0.3712171547193013
 31
0.0
  0
SPLINE
  5
BF
330
1F
100
AcDbEntity
  8
0
  6
Continuous
 62
     1
370
    25
100
AcDbSpline
210
0.0
220
0.0
230
1.0
 70
     8
 71
     3
 72
    10
 73
     6
 74
     0
 42
0.000000001
 43
0.00000001
 40
0.0
 40
0.0
 40
0.0
 40
0.0
 40
0.5
 40
0.5
 40
1.0
 40
1.0
 40
1.0
 40
1.0
 10
19.05000000000001
 20
-0.3712171547193011
 30
0.0
 10
18.90118043403186
 20
-0.2542174094430051
 30
0.0
 10
18.75484885623703
 20
-0.1324167157505163
 30
0.0
 10
18.46727693759563
 20
0.1210089811809835
 30
0.0
 10
18.32468493484974
 20
0.2539670538550287
 30
0.0
 10
18.1903051157932
 20
0.3887621309163191
 30
0.0
  0
SPLINE
  5
C0
330
1F
100
AcDbEntity
  8
0
  6
Continuous
 62
     1
370
    25
100
AcDbSpline
210
0.0
220
0.0
230
1.0
 70
     8
 71
     3
 72
    12
 73
     8
 74
     0
 42
0.000000001
 43
0.00000001
 40
0.0
 40
0.0
 40
0.0
 40
0.0
 40
0.1732047442469726
 40
0.3937592711378541
 40
0.614288399306356
 40
0.8349634969273934
 40
1.0
 40
1.0
 40
1.0
 40
1.0
 10
18.19030511575266
 20
0.3887621309340127
 30
0.0
 10
18.00556698044328
 20
0.466485344733726
 30
0.0
 10
17.58558799068151
 20
0.6431793270453656
 30
0.0
 10
16.93057328511993
 20
0.8697256406545933
 30
0.0
 10
16.22491115979173
 20
1.038044794852176
 30
0.0
 10
15.5784223129636
 20
1.121108730665713
 30
0.0
 10
15.16699124433812
 20
1.102607899374046
 30
0.0
 10
14.99095001379368
 20
1.094691848897934
 30
0.0
  0
SPLINE
  5
C1
330
1F
100
AcDbEntity
  8
0
  6
Continuous
 62
     1
370
    25
100
AcDbSpline
210
0.0
220
0.0
230
1.0
 70
    24
 71
     3
 72
    10
 73
     6
 74
     0
 42
0.000000001
 43
0.00000001
 40
0.0
 40
0.0
 40
0.0
 40
0.0
 40
0.5
 40
0.5
 40
1.0
 40
1.0
 40
1.0
 40
1.0
 10
19.05000000000001
 20
-1.095931785973973
 30
0.0
 10
19.05000000000001
 20
-1.011920070038096
 30
0.0
 10
19.05000000000001
 20
-0.9057680456138274
 30
0.0
 10
19.05000000000001
 20
-0.6589748048202394
 30
0.0
 10
19.05000000000001
 20
-0.518547370113458
 30
0.0
 10
19.05000000000001
 20
-0.3712171547193455
 30
0.0
  0
SPLINE
  5
C2
330
1F
100
AcDbEntity
  8
외형선
  6
Continuous
370
    15
100
AcDbSpline
210
0.0
220
0.0
230
1.0
 70
    24
 71
     3
 72
    11
 73
     7
 74
     0
 42
0.000000001
 43
0.00000001
 40
0.0
 40
0.0
 40
0.0
 40
0.0
 40
0.2489327111205732
 40
0.6127781013787872
 40
0.9295851926087229
 40
1.0
 40
1.0
 40
1.0
 40
1.0
 10
14.28750000000001
 20
1.080243887675168
 30
0.0
 10
14.28750000000001
 20
1.080877811093708
 30
0.0
 10
14.28750000000001
 20
1.082438290578642
 30
0.0
 10
14.28750000000001
 20
1.034122596172217
 30
0.0
 10
14.28750000000001
 20
0.9793341133145657
 30
0.0
 10
14.28750000000001
 20
0.9339176437087143
 30
0.0
 10
14.28750000000001
 20
0.9256588340415055
 30
0.0
  0
SPLINE
  5
C3
330
1F
100
AcDbEntity
  8
0
  6
Continuous
 62
     1
370
    25
100
AcDbSpline
210
0.0
220
0.0
230
1.0
 70
    24
 71
     3
 72
     8
 73
     4
 74
     0
 42
0.000000001
 43
0.00000001
 40
0.0
 40
0.0
 40
0.0
 40
0.0
 40
1.0
 40
1.0
 40
1.0
 40
1.0
 10
18.20454188518926
 20
0.6784648932163847
 30
0.0
 10
18.15874130942262
 20
0.6400336469828931
 30
0.0
 10
18.11013097456621
 20
0.5992447329334646
 30
0.0
 10
18.05955227709233
 20
0.5568041665377047
 30
0.0
  0
LINE
  5
C4
330
1F
100
AcDbEntity
  8
0
  6
Continuous
 62
     1
370
    25
100
AcDbLine
 10
19.05000000000001
 20
0.9723437500000013
 30
0.0
 11
18.53129306218819
 21
0.9418048239703082
 31
0.0
  0
SPLINE
  5
C5
330
1F
100
AcDbEntity
  8
0
  6
Continuous
 62
     1
370
    25
100
AcDbSpline
210
0.0
220
0.0
230
1.0
 70
     8
 71
     3
 72
     8
 73
     4
 74
     0
 42
0.000000001
 43
0.00000001
 40
0.0
 40
0.0
 40
0.0
 40
0.0
 40
1.0
 40
1.0
 40
1.0
 40
1.0
 10
19.05000000000001
 20
0.972343750000002
 30
0.0
 10
18.7642159937474
 20
0.8946687418752715
 30
0.0
 10
18.48124966464621
 20
0.799214396248468
 30
0.0
 10
18.20454188518877
 20
0.678464893216682
 30
0.0
  0
SPLINE
  5
C6
330
1F
100
AcDbEntity
  8
0
  6
Continuous
 62
     1
370
    25
100
AcDbSpline
210
0.0
220
0.0
230
1.0
 70
     8
 71
     3
 72
    10
 73
     6
 74
     0
 42
0.000000001
 43
0.00000001
 40
0.0
 40
0.0
 40
0.0
 40
0.0
 40
0.3243238826902952
 40
0.7122812787502468
 40
1.0
 40
1.0
 40
1.0
 40
1.0
 10
16.11010382242821
 20
-1.038149580752298
 30
0.0
 10
15.91309713987749
 20
-1.065463496847076
 30
0.0
 10
15.48043035442349
 20
-1.125450417706195
 30
0.0
 10
14.87278496634935
 20
-1.110032482171524
 30
0.0
 10
14.46229587328978
 20
-1.046781553586298
 30
0.0
 10
14.2875000000653
 20
-1.019847826280884
 30
0.0
  0
SPLINE
  5
C7
330
1F
100
AcDbEntity
  8
외형선
  6
Continuous
370
    15
100
AcDbSpline
210
0.0
220
0.0
230
1.0
 70
    24
 71
     3
 72
    10
 73
     6
 74
     0
 42
0.000000001
 43
0.00000001
 40
0.0
 40
0.0
 40
0.0
 40
0.0
 40
0.4999999999999999
 40
0.4999999999999999
 40
1.0
 40
1.0
 40
1.0
 40
1.0
 10
14.28750000000001
 20
0.386178426094455
 30
0.0
 10
14.28750000000001
 20
0.1446906429060479
 30
0.0
 10
14.28750000000001
 20
-0.1250413479778385
 30
0.0
 10
14.28750000000001
 20
-0.6248241526631225
 30
0.0
 10
14.28750000000001
 20
-0.8510026061861891
 30
0.0
 10
14.28750000000001
 20
-1.019847826268947
 30
0.0
  0
LINE
  5
C8
330
1F
100
AcDbEntity
  8
0
  6
Continuous
 62
     1
370
    25
100
AcDbLine
 10
19.05000000000001
 20
0.0000000000000023
 30
0.0
 11
19.05000000000001
 21
0.9723437500000021
 31
0.0
  0
SPLINE
  5
C9
330
1F
100
AcDbEntity
  8
외형선
  6
Continuous
370
    15
100
AcDbSpline
210
0.0
220
0.0
230
1.0
 70
    24
 71
     3
 72
    10
 73
     6
 74
     0
 42
0.000000001
 43
0.00000001
 40
0.0
 40
0.0
 40
0.0
 40
0.0
 40
0.4090907656614701
 40
0.8236240313569654
 40
1.0
 40
1.0
 40
1.0
 40
1.0
 10
14.28750000000001
 20
-1.019847826268947
 30
0.0
 10
14.28750000000001
 20
-1.034406581766929
 30
0.0
 10
14.28750000000001
 20
-1.063717780897519
 30
0.0
 10
14.28750000000001
 20
-1.084446426270002
 30
0.0
 10
14.28750000000001
 20
-1.081209925873926
 30
0.0
 10
14.28750000000001
 20
-1.080243887675165
 30
0.0
  0
SPLINE
  5
CA
330
1F
100
AcDbEntity
  8
0
  6
Continuous
 62
     1
370
    25
100
AcDbSpline
210
0.0
220
0.0
230
1.0
 70
    24
 71
     3
 72
    10
 73
     6
 74
     0
 42
0.000000001
 43
0.00000001
 40
0.0
 40
0.0
 40
0.0
 40
0.0
 40
0.5
 40
0.5
 40
1.0
 40
1.0
 40
1.0
 40
1.0
 10
19.05000000000001
 20
0.9723437500000015
 30
0.0
 10
19.05000000000001
 20
1.031284806721411
 30
0.0
 10
19.05000000000001
 20
1.099779773160731
 30
0.0
 10
19.05000000000001
 20
1.243482028272189
 30
0.0
 10
19.05000000000001
 20
1.318322319417984
 30
0.0
 10
19.05000000000001
 20
1.387888485529928
 30
0.0
  0
SPLINE
  5
CB
330
1F
100
AcDbEntity
  8
0
  6
Continuous
 62
     1
370
    25
100
AcDbSpline
210
0.0
220
0.0
230
1.0
 70
     8
 71
     3
 72
    14
 73
    10
 74
     0
 42
0.000000001
 43
0.00000001
 40
0.0
 40
0.0
 40
0.0
 40
0.0
 40
0.0179225336429215
 40
0.2284019995346505
 40
0.3235983751745222
 40
0.5148101112792028
 40
0.7076878878611752
 40
0.9022528623968943
 40
1.0
 40
1.0
 40
1.0
 40
1.0
 10
17.14016209871633
 20
0.9311443458008194
 30
0.0
 10
17.15158600388179
 20
0.9363249465812775
 30
0.0
 10
17.29717048620277
 20
1.002345722472791
 30
0.0
 10
17.50249832995002
 20
1.079067872192027
 30
0.0
 10
17.81923641378989
 20
1.185013594062755
 30
0.0
 10
18.12471354082699
 20
1.269695189931164
 30
0.0
 10
18.49230288007139
 20
1.342960899417712
 30
0.0
 10
18.80210246067972
 20
1.378537540447494
 30
0.0
 10
18.98787796365948
 20
1.385545179695502
 30
0.0
 10
19.04999999999994
 20
1.387888485529927
 30
0.0
  0
LINE
  5
CC
330
1F
100
AcDbEntity
  8
중심선
 62
     1
100
AcDbLine
 10
-22.05
 20
-0.0000000000000027
 30
0.0
 11
22.05
 21
0.0000000000000027
 31
0.0
  0
LINE
  5
CD
330
1F
100
AcDbEntity
  8
참조1
100
AcDbLine
 10
-3.881711678730516
 20
0.0010749287238892
 30
0.0
 11
-3.881711678730509
 21
-39.99892507127611
 31
0.0
  0
LINE
  5
CE
330
1F
100
AcDbEntity
  8
참조1
100
AcDbLine
 10
-3.881711678730509
 20
-39.99892507127611
 30
0.0
 11
-29.45992727542973
 21
-39.9989250712761
 31
0.0
  0
CIRCLE
  5
CF
330
1F
100
AcDbEntity
  8
해칭선
100
AcDbCircle
 10
0.0
 20
-0.0000000000000004
 30
0.0
 40
3.000000000000001
  0
INSERT
  5
D0
330
1F
100
AcDbEntity
  8
0
  6
Continuous
 62
     7
100
AcDbBlockReference
 66
     1
  2
블럭10
 10
-12.36338499743445
 20
-24.90906129476855
 30
0.0
  0
ATTRIB
  5
D1
330
D0
100
AcDbEntity
  8
FORMAT
 62
     2
100
AcDbText
 10
-21.54468028617573
 20
-22.83369438193636
 30
0.0
 40
4.233333333333333
  1
E5022007 [ 2 FLUTE ]
 41
0.75
  7
SLDTEXTSTYLE0
 11
-21.54468028617573
 21
-24.95036104860303
 31
0.0
100
AcDbAttribute
  2
AUTOATTR0
 70
     0
 74
     1
  0
SEQEND
  5
D2
330
D0
100
AcDbEntity
  8
0
  6
Continuous
 62
     7
  0
HATCH
  5
D3
330
1F
100
AcDbEntity
  8
중심선
100
AcDbHatch
 10
0.0
 20
0.0
 30
0.0
210
0.0
220
0.0
230
1.0
  2
SOLID
 70
     1
 71
     0
 91
        1
 92
        0
 93
        4
 72
     1
 10
-6.648475693053598
 20
-8.661886993124615
 11
-10.09475093689088
 21
-8.661886993124615
 72
     1
 10
-10.09475093689088
 20
-8.661886993124615
 11
-12.2229807960949
 21
-11.19821257369722
 72
     1
 10
-12.2229807960949
 20
-11.19821257369722
 11
-8.776672467144472
 21
-11.19817314439473
 72
     1
 10
-8.776672467144472
 20
-11.19817314439473
 11
-6.648475693053598
 21
-8.661886993124615
 97
        0
 75
     0
 76
     1
 98
        1
 10
5.458599613421271
 20
27.13703807815149
  0
HATCH
  5
D4
330
1F
100
AcDbEntity
  8
중심선
100
AcDbHatch
 10
0.0
 20
0.0
 30
0.0
210
0.0
220
0.0
230
1.0
  2
SOLID
 70
     1
 71
     0
 91
        1
 92
        0
 93
        4
 72
     1
 10
-1.635711702017646
 20
-8.661886993124615
 11
-5.081986945854901
 21
-8.661886993124615
 72
     1
 10
-5.081986945854901
 20
-8.661886993124615
 11
-9.613124954212317
 21
-14.06188699312463
 72
     1
 10
-9.613124954212317
 20
-14.06188699312463
 11
-6.166849710375034
 21
-14.06188699312463
 72
     1
 10
-6.166849710375034
 20
-14.06188699312463
 11
-1.635711702017646
 21
-8.661886993124615
 97
        0
 75
     0
 76
     1
 98
        1
 10
5.458599613421271
 20
27.13703807815149
  0
HATCH
  5
D5
330
1F
100
AcDbEntity
  8
중심선
100
AcDbHatch
 10
0.0
 20
0.0
 30
0.0
210
0.0
220
0.0
230
1.0
  2
SOLID
 70
     1
 71
     0
 91
        1
 92
        0
 93
        4
 72
     1
 10
3.377052289018277
 20
-8.661886993124593
 11
-0.0692229548188665
 21
-8.661886993124643
 72
     1
 10
-0.0692229548188665
 20
-8.661886993124643
 11
-7.117659856708116
 21
-17.06188699312463
 72
     1
 10
-7.117659856708116
 20
-17.06188699312463
 11
-3.671384612870833
 21
-17.06188699312463
 72
     1
 10
-3.671384612870833
 20
-17.06188699312463
 11
3.377052289018277
 21
-8.661886993124593
 97
        0
 75
     0
 76
     1
 98
        1
 10
5.458599613421271
 20
27.13703807815149
  0
HATCH
  5
D6
330
1F
100
AcDbEntity
  8
중심선
100
AcDbHatch
 10
0.0
 20
0.0
 30
0.0
210
0.0
220
0.0
230
1.0
  2
SOLID
 70
     1
 71
     0
 91
        1
 92
        0
 93
        6
 72
     3
 10
8.176942720030448
 20
-12.86188699317589
 11
3.960054785062285
 21
1.540882976769353E-10
 40
0.3939339440162626
 50
17.09539180608436
 51
320.0019657685081
 73
     0
 72
     1
 10
9.859942375731045
 20
-11.44978099776292
 11
12.16524424943211
 21
-9.51545428771497
 72
     3
 10
8.176942719977601
 20
-12.86188699312477
 11
6.600054785286829
 21
-1.278976924368180E-13
 40
0.636358354079598
 50
39.99873849337411
 51
368.4976242363724
 73
     1
 72
     1
 10
14.60227521187821
 20
-11.90188699305464
 11
6.857010026813525
 21
-11.90188699305464
 72
     1
 10
6.857010026813525
 20
-11.90188699305464
 11
6.856984982367591
 21
-13.82188699305453
 72
     1
 10
6.856984982367591
 20
-13.82188699305453
 11
11.29836475183963
 21
-13.8218869930545
 97
        0
 75
     0
 76
     1
 98
        1
 10
5.458599613421271
 20
27.13703807815149
  0
DIMENSION
  5
D7
330
1F
100
AcDbEntity
  8
치수문자_일반주서
100
AcDbDimension
  2
_D
 10
-27.76268819926753
 20
-1.587500000000057
 30
0.0
 11
-27.76268819926758
 21
15.74374999999996
 31
0.0
 70
   160
  1
%%c<>
 71
     2
 42
3.175000000000001
 52
-270.0
  3
SLDDIMSTYLE0
100
AcDbAlignedDimension
 13
-12.54692116787305
 23
1.587500000000002
 33
0.0
 14
-12.54692116787305
 24
-1.587499999999999
 34
0.0
 50
90.0000000000002
100
AcDbRotatedDimension
1001
ACAD
1000
DSTYLE
1002
{
1070
   171
1070
     6
1070
   273
1070
     5
1070
    41
1040
2.5
1070
   140
1040
2.5
1002
}
  0
DIMENSION
  5
EC
330
1F
100
AcDbEntity
  8
치수문자_일반주서
100
AcDbDimension
  2
_D_1
 10
29.11155289289153
 20
1.387888485529965
 30
0.0
 11
29.11155289289147
 21
16.95038848552996
 31
0.0
 70
   160
  1
%%c<>
 71
     2
 42
2.775776971059853
 52
-270.0
  3
SLDDIMSTYLE0
100
AcDbAlignedDimension
 13
19.05000000000001
 23
-1.387888485529925
 33
0.0
 14
19.05000000000001
 24
1.387888485529928
 34
0.0
 50
90.0000000000002
100
AcDbRotatedDimension
1001
ACAD
1000
DSTYLE
1002
{
1070
   171
1070
     6
1070
   273
1070
     5
1070
    41
1040
2.5
1070
   140
1040
2.5
1002
}
  0
DIMENSION
  5
100
330
1F
100
AcDbEntity
  8
치수문자_일반주서
100
AcDbDimension
  2
_D_2
 10
14.28750000000001
 20
14.7257637852778
 30
0.0
 11
-0.0249999999999897
 21
14.7257637852778
 31
0.0
 70
   160
  1
<>
 71
     2
 42
4.762500000000001
  3
SLDDIMSTYLE0
100
AcDbAlignedDimension
 13
19.05000000000001
 23
1.387888485529928
 33
0.0
 14
14.28750000000001
 24
1.084785504261195
 34
0.0
100
AcDbRotatedDimension
1001
ACAD
1000
DSTYLE
1002
{
1070
   171
1070
     6
1070
   273
1070
     5
1070
    41
1040
2.5
1070
   140
1040
2.5
1002
}
  0
DIMENSION
  5
115
330
1F
100
AcDbEntity
  8
치수문자_일반주서
100
AcDbDimension
  2
_D_3
 10
19.05000000000001
 20
24.20813111373534
 30
0.0
 11
1.277886314951859
 21
24.20813111373534
 31
0.0
 70
   160
  1
<>
 71
     2
 42
38.10000000000001
  3
SLDDIMSTYLE0
100
AcDbAlignedDimension
 13
-19.04999999999999
 23
1.387888485529924
 33
0.0
 14
19.05000000000001
 24
1.387888485529928
 34
0.0
100
AcDbRotatedDimension
1001
ACAD
1000
DSTYLE
1002
{
1070
   171
1070
     6
1070
   273
1070
     5
1070
    41
1040
2.5
1070
   140
1040
2.5
1002
}
  0
LINE
  5
129
330
1F
100
AcDbEntity
  8
참조1
100
AcDbLine
 10
68.51241335422453
 20
7.441074928723896
 30
0.0
 11
68.51241335422453
 21
-7.438925071276109
 31
0.0
  0
LINE
  5
12A
330
1F
100
AcDbEntity
  8
참조1
100
AcDbLine
 10
81.21241335422454
 20
5.441074928723896
 30
0.0
 11
68.51241335422453
 21
5.441074928723896
 31
0.0
  0
SOLID
  5
12B
330
1F
100
AcDbEntity
  8
참조1
100
AcDbTrace
 10
68.51241335422453
 20
5.441074928723896
 30
0.0
 11
74.86241335422453
 21
4.425074928723896
 31
0.0
 12
74.86241335422453
 22
6.457074928723896
 32
0.0
 13
74.86241335422453
 23
6.457074928723896
 33
0.0
  0
LINE
  5
12C
330
1F
100
AcDbEntity
  8
참조1
100
AcDbLine
 10
81.21241335422454
 20
-5.438925071276109
 30
0.0
 11
68.51241335422453
 21
-5.438925071276109
 31
0.0
  0
SOLID
  5
12D
330
1F
100
AcDbEntity
  8
참조1
100
AcDbTrace
 10
68.51241335422453
 20
-5.438925071276109
 30
0.0
 11
74.86241335422453
 21
-6.454925071276109
 31
0.0
 12
74.86241335422453
 22
-4.422925071276109
 32
0.0
 13
74.86241335422453
 23
-4.422925071276109
 33
0.0
  0
MTEXT
  5
12E
330
1F
100
AcDbEntity
  8
참조1
100
AcDbMText
 10
77.89676348685053
 20
11.01136670591222
 30
0.0
 40
3.5
 41
0.0
 71
     1
 72
     1
  1
A
  7
SLDTEXTSTYLE0
 73
     1
 44
1.0
  0
MTEXT
  5
12F
330
1F
100
AcDbEntity
  8
참조1
100
AcDbMText
 10
77.89676348685053
 20
0.1313667059122192
 30
0.0
 40
3.5
 41
0.0
 71
     1
 72
     1
  1
A
  7
SLDTEXTSTYLE0
 73
     1
 44
1.0
  0
INSERT
  5
136
330
1F
100
AcDbEntity
  8
해칭선
100
AcDbBlockReference
  2
SW_DOWELSYMBOL_0
 10
0.0
 20
-0.0000000000000004
 30
0.0
  0
LINE
  5
24F
330
1F
100
AcDbEntity
  8
0
  6
Continuous
 62
     4
370
    25
100
AcDbLine
 10
4.129571055815795
 20
81.32634918746447
 30
0.0
 11
-39.97331462715425
 21
81.32634918746447
 31
0.0
  0
LINE
  5
250
330
1F
100
AcDbEntity
  8
0
  6
Continuous
 62
     4
370
    25
100
AcDbLine
 10
-39.97331462715425
 20
75.32634918746447
 30
0.0
 11
4.129571055815795
 21
75.32634918746447
 31
0.0
  0
LINE
  5
251
330
1F
100
AcDbEntity
  8
0
  6
Continuous
 62
     4
370
    25
100
AcDbLine
 10
4.129571055815795
 20
75.32634918746447
 30
0.0
 11
12.02649121619577
 21
77.44232256713134
 31
0.0
  0
LINE
  5
252
330
1F
100
AcDbEntity
  8
0
  6
Continuous
 62
     4
370
    25
100
AcDbLine
 10
12.02649121619577
 20
79.2103758077976
 30
0.0
 11
4.129571055815795
 21
81.32634918746447
 31
0.0
  0
LINE
  5
253
330
1F
100
AcDbEntity
  8
0
  6
Continuous
 62
     4
370
    25
100
AcDbLine
 10
-39.97331462715425
 20
81.32634918746447
 30
0.0
 11
-40.47331462715425
 21
80.82634918746447
 31
0.0
  0
LINE
  5
254
330
1F
100
AcDbEntity
  8
0
  6
Continuous
 62
     4
370
    25
100
AcDbLine
 10
-40.47331462715425
 20
75.82634918746447
 30
0.0
 11
-39.97331462715425
 21
75.32634918746447
 31
0.0
  0
LINE
  5
255
330
1F
100
AcDbEntity
  8
0
  6
Continuous
 62
     4
370
    25
100
AcDbLine
 10
13.11528999163596
 20
77.57634918746447
 30
0.0
 11
13.52668537284575
 21
77.57634918746447
 31
0.0
  0
LINE
  5
256
330
1F
100
AcDbEntity
  8
0
  6
Continuous
 62
     4
370
    25
100
AcDbLine
 10
13.52668537284575
 20
79.07634918746447
 30
0.0
 11
13.11528999163596
 21
79.07634918746447
 31
0.0
  0
LINE
  5
257
330
1F
100
AcDbEntity
  8
0
  6
Continuous
 62
     1
370
    25
100
AcDbLine
 10
17.19612178166051
 20
77.57634918746447
 30
0.0
 11
17.77645962675433
 21
77.57634918746447
 31
0.0
  0
LINE
  5
258
330
1F
100
AcDbEntity
  8
0
  6
Continuous
 62
     4
370
    25
100
AcDbLine
 10
13.69532562211015
 20
79.07634918746447
 30
0.0
 11
13.52668537284575
 21
79.07634918746447
 31
0.0
  0
LINE
  5
259
330
1F
100
AcDbEntity
  8
0
  6
Continuous
 62
     4
370
    25
100
AcDbLine
 10
15.37336496623379
 20
78.20308927178749
 30
0.0
 11
15.34293310653858
 21
78.21905311363251
 31
0.0
  0
LINE
  5
25A
330
1F
100
AcDbEntity
  8
0
  6
Continuous
 62
     4
370
    25
100
AcDbLine
 10
19.38361134346746
 20
78.24190161403806
 30
0.0
 11
19.36596591900212
 21
78.2522724768883
 31
0.0
  0
SPLINE
  5
25B
330
1F
100
AcDbEntity
  8
0
  6
Continuous
 62
     4
370
    25
100
AcDbSpline
210
0.0
220
0.0
230
1.0
 70
     8
 71
     3
 72
     9
 73
     5
 74
     0
 42
0.000000001
 43
0.00000001
 40
0.0
 40
0.0
 40
0.0
 40
0.0
 40
0.5608731443051318
 40
1.0
 40
1.0
 40
1.0
 40
1.0
 10
19.52668537284575
 20
78.15936556721557
 30
0.0
 10
19.50020920692548
 20
78.17426339746234
 30
0.0
 10
19.45300394101267
 20
78.20082525088327
 30
0.0
 10
19.40478539983917
 20
78.22936780986078
 30
0.0
 10
19.38361134346746
 20
78.24190161403806
 30
0.0
  0
LINE
  5
25C
330
1F
100
AcDbEntity
  8
0
  6
Continuous
 62
     4
370
    25
100
AcDbLine
 10
17.55203044209024
 20
78.45364457368963
 30
0.0
 11
17.59080574664412
 21
78.43350277904554
 31
0.0
  0
LINE
  5
25D
330
1F
100
AcDbEntity
  8
0
  6
Continuous
 62
     1
370
    25
100
AcDbLine
 10
19.23570436944847
 20
77.57634918746447
 30
0.0
 11
19.52668537284575
 21
77.57634918746447
 31
0.0
  0
LINE
  5
25E
330
1F
100
AcDbEntity
  8
0
  6
Continuous
 62
     1
370
    25
100
AcDbLine
 10
15.73647424603317
 20
79.07634918746447
 30
0.0
 11
15.15665545566218
 21
79.07634918746447
 31
0.0
  0
LINE
  5
25F
330
1F
100
AcDbEntity
  8
0
  6
Continuous
 62
     1
370
    25
100
AcDbLine
 10
15.15665545566216
 20
77.57634918746447
 30
0.0
 11
15.73647424603315
 21
77.57634918746447
 31
0.0
  0
LINE
  5
260
330
1F
100
AcDbEntity
  8
0
  6
Continuous
 62
     1
370
    25
100
AcDbLine
 10
19.52668537284575
 20
79.07634918746447
 30
0.0
 11
19.23570436944847
 21
79.07634918746447
 31
0.0
  0
LINE
  5
261
330
1F
100
AcDbEntity
  8
0
  6
Continuous
 62
     4
370
    25
100
AcDbLine
 10
13.52668537284575
 20
77.57634918746447
 30
0.0
 11
13.69532562211015
 21
77.57634918746447
 31
0.0
  0
LINE
  5
262
330
1F
100
AcDbEntity
  8
0
  6
Continuous
 62
     1
370
    25
100
AcDbLine
 10
17.77645962675433
 20
79.07634918746447
 30
0.0
 11
17.19612178166051
 21
79.07634918746447
 31
0.0
  0
LINE
  5
263
330
1F
100
AcDbEntity
  8
0
  6
Continuous
 62
     4
370
    25
100
AcDbLine
 10
4.129571055815795
 20
81.32634918746447
 30
0.0
 11
4.129571055815795
 21
75.32634918746447
 31
0.0
  0
LINE
  5
264
330
1F
100
AcDbEntity
  8
0
  6
Continuous
 62
     4
370
    25
100
AcDbLine
 10
-39.97331462715425
 20
81.32634918746447
 30
0.0
 11
-39.97331462715425
 21
75.32634918746447
 31
0.0
  0
SPLINE
  5
265
330
1F
100
AcDbEntity
  8
0
  6
Continuous
 62
     4
370
    25
100
AcDbSpline
210
0.0
220
0.0
230
1.0
 70
     8
 71
     3
 72
     8
 73
     4
 74
     0
 42
0.000000001
 43
0.00000001
 40
0.0
 40
0.0
 40
0.0
 40
0.0
 40
1.0
 40
1.0
 40
1.0
 40
1.0
 10
12.25625435440756
 20
78.83561064957607
 30
0.0
 10
12.34609029593878
 20
78.77644464469554
 30
0.0
 10
12.43619984013135
 20
78.71605682713599
 30
0.0
 10
12.52668537284575
 20
78.65455454721018
 30
0.0
  0
SPLINE
  5
266
330
1F
100
AcDbEntity
  8
0
  6
Continuous
 62
     4
370
    25
100
AcDbSpline
210
0.0
220
0.0
230
1.0
 70
     8
 71
     3
 72
    26
 73
    22
 74
     0
 42
0.000000001
 43
0.00000001
 40
0.0
 40
0.0
 40
0.0
 40
0.0
 40
0.0000472036532306
 40
0.0000472036532306
 40
0.0000472036532306
 40
0.0000943059610966
 40
0.0000943059610966
 40
0.0000943059610966
 40
0.000142896695421
 40
0.000142896695421
 40
0.000142896695421
 40
0.0001942367211245
 40
0.0001942367211245
 40
0.0001942367211245
 40
0.0002472393033591
 40
0.0002472393033591
 40
0.0002472393033591
 40
0.0003003270339193
 40
0.0003003270339193
 40
0.0003003270339193
 40
0.0003262052869102
 40
0.0003262052869102
 40
0.0003262052869102
 40
0.0003262052869102
 10
12.02649121619577
 20
78.76513487793936
 30
0.0
 10
12.02649121619577
 20
78.77879440516722
 30
0.0
 10
12.02904706059926
 20
78.79208248558368
 30
0.0
 10
12.03389761518403
 20
78.80391571230305
 30
0.0
 10
12.03874230637275
 20
78.81573463490658
 30
0.0
 10
12.04599001507981
 20
78.82642948154034
 30
0.0
 10
12.05501139517709
 20
78.83531492726127
 30
0.0
 10
12.06431916290795
 20
78.84448244531991
 30
0.0
 10
12.07574901338906
 20
78.85197320816633
 30
0.0
 10
12.08843599865012
 20
78.85740937283045
 30
0.0
 10
12.10182883788548
 20
78.86314798432129
 30
0.0
 10
12.11697913386658
 20
78.86675351464098
 30
0.0
 10
12.13274057913341
 20
78.86808002020696
 30
0.0
 10
12.14899837794815
 20
78.86944829959083
 30
0.0
 10
12.16635719891383
 20
78.86842763372118
 30
0.0
 10
12.18340447032466
 20
78.86512469737349
 30
0.0
 10
12.20047442287067
 20
78.86181736651926
 30
0.0
 10
12.21770842518006
 20
78.85612406959555
 30
0.0
 10
12.23361290922088
 20
78.84844045221081
 30
0.0
 10
12.24145255492982
 20
78.84465303993733
 30
0.0
 10
12.24905577583417
 20
78.84035163773456
 30
0.0
 10
12.25625435440756
 20
78.83561064957607
 30
0.0
  0
LINE
  5
267
330
1F
100
AcDbEntity
  8
0
  6
Continuous
 62
     4
370
    25
100
AcDbLine
 10
12.02649121619577
 20
78.76513487793936
 30
0.0
 11
12.02649121619577
 21
78.15143903967106
 31
0.0
  0
SPLINE
  5
268
330
1F
100
AcDbEntity
  8
0
  6
Continuous
 62
     4
370
    25
100
AcDbSpline
210
0.0
220
0.0
230
1.0
 70
     8
 71
     3
 72
    14
 73
    10
 74
     0
 42
0.000000001
 43
0.00000001
 40
0.0
 40
0.0
 40
0.0
 40
0.0
 40
0.0000509369177189
 40
0.0000509369177189
 40
0.0000509369177189
 40
0.0001020152221073
 40
0.0001020152221073
 40
0.0001020152221073
 40
0.0001494864860057
 40
0.0001494864860057
 40
0.0001494864860057
 40
0.0001494864860057
 10
12.09360850863488
 20
78.0351336724405
 30
0.0
 10
12.07994558185129
 20
78.04274760899825
 30
0.0
 10
12.06756146756297
 20
78.05287001066849
 30
0.0
 10
12.05746403253436
 20
78.06483087679186
 30
0.0
 10
12.04735051089425
 20
78.07681079823035
 30
0.0
 10
12.03925253962988
 20
78.09099641731174
 30
0.0
 10
12.03398166002038
 20
78.10624115066315
 30
0.0
 10
12.02907711211114
 20
78.1204263589443
 30
0.0
 10
12.0264912161957
 20
78.1359277792264
 30
0.0
 10
12.0264912161957
 20
78.15143903967103
 30
0.0
  0
SPLINE
  5
269
330
1F
100
AcDbEntity
  8
0
  6
Continuous
 62
     4
370
    25
100
AcDbSpline
210
0.0
220
0.0
230
1.0
 70
     8
 71
     3
 72
     8
 73
     4
 74
     0
 42
0.000000001
 43
0.00000001
 40
0.0
 40
0.0
 40
0.0
 40
0.0
 40
1.0
 40
1.0
 40
1.0
 40
1.0
 10
12.52668537284575
 20
77.85990233038221
 30
0.0
 10
12.37730981511731
 20
77.89912866782248
 30
0.0
 10
12.23383004157182
 20
77.95699244598703
 30
0.0
 10
12.09360850863488
 20
78.0351336724405
 30
0.0
  0
LINE
  5
26A
330
1F
100
AcDbEntity
  8
0
  6
Continuous
 62
     4
370
    25
100
AcDbLine
 10
12.52668537284575
 20
77.85990233038221
 30
0.0
 11
12.52668537284575
 21
77.65197448313891
 31
0.0
  0
SPLINE
  5
26B
330
1F
100
AcDbEntity
  8
0
  6
Continuous
 62
     4
370
    25
100
AcDbSpline
210
0.0
220
0.0
230
1.0
 70
     8
 71
     3
 72
     8
 73
     4
 74
     0
 42
0.000000001
 43
0.00000001
 40
0.0
 40
0.0
 40
0.0
 40
0.0
 40
1.0
 40
1.0
 40
1.0
 40
1.0
 10
12.25625435440756
 20
77.68051938693468
 30
0.0
 10
12.34609029593878
 20
77.66451965464142
 30
0.0
 10
12.43619984013135
 20
77.65494202304254
 30
0.0
 10
12.52668537284575
 20
77.6519744831389
 30
0.0
  0
SPLINE
  5
26C
330
1F
100
AcDbEntity
  8
0
  6
Continuous
 62
     4
370
    25
100
AcDbSpline
210
0.0
220
0.0
230
1.0
 70
     8
 71
     3
 72
    26
 73
    22
 74
     0
 42
0.000000001
 43
0.00000001
 40
0.0
 40
0.0
 40
0.0
 40
0.0
 40
0.0000472036532306
 40
0.0000472036532306
 40
0.0000472036532306
 40
0.0000943059610966
 40
0.0000943059610966
 40
0.0000943059610966
 40
0.000142896695421
 40
0.000142896695421
 40
0.000142896695421
 40
0.0001942367211245
 40
0.0001942367211245
 40
0.0001942367211245
 40
0.0002472393033591
 40
0.0002472393033591
 40
0.0002472393033591
 40
0.0003003270339193
 40
0.0003003270339193
 40
0.0003003270339193
 40
0.0003262052869102
 40
0.0003262052869102
 40
0.0003262052869102
 40
0.0003262052869102
 10
12.02649121619577
 20
77.55890525902925
 30
0.0
 10
12.02649121619577
 20
77.56671508703643
 30
0.0
 10
12.02904706059926
 20
77.57561117645153
 30
0.0
 10
12.03389761518403
 20
77.58477758050208
 30
0.0
 10
12.03874230637275
 20
77.5939329041171
 30
0.0
 10
12.04599001507981
 20
77.60359591961087
 30
0.0
 10
12.05501139517709
 20
77.61290405960759
 30
0.0
 10
12.06431916290795
 20
77.62250769055558
 30
0.0
 10
12.07574901338906
 20
77.63197807327717
 30
0.0
 10
12.08843599865012
 20
77.64048666737976
 30
0.0
 10
12.10182883788548
 20
77.64946864620218
 30
0.0
 10
12.11697913386658
 20
77.65760984207391
 30
0.0
 10
12.13274057913341
 20
77.66415147598889
 30
0.0
 10
12.14899837794815
 20
77.67089911659602
 30
0.0
 10
12.16635719891383
 20
77.67612038072558
 30
0.0
 10
12.18340447032466
 20
77.67931412671803
 30
0.0
 10
12.20047442287067
 20
77.6825121219409
 30
0.0
 10
12.21770842518006
 20
77.68376113953813
 30
0.0
 10
12.23361290922088
 20
77.68301394342748
 30
0.0
 10
12.24145255492982
 20
77.6826456351713
 30
0.0
 10
12.24905577583417
 20
77.68180144986076
 30
0.0
 10
12.25625435440756
 20
77.68051938693468
 30
0.0
  0
LINE
  5
26D
330
1F
100
AcDbEntity
  8
0
  6
Continuous
 62
     4
370
    25
100
AcDbLine
 10
12.02649121619577
 20
77.55890525902925
 30
0.0
 11
12.02649121619577
 21
77.44232256713134
 31
0.0
  0
SPLINE
  5
26E
330
1F
100
AcDbEntity
  8
0
  6
Continuous
 62
     4
370
    25
100
AcDbSpline
210
0.0
220
0.0
230
1.0
 70
     8
 71
     3
 72
    14
 73
    10
 74
     0
 42
0.000000001
 43
0.00000001
 40
0.0
 40
0.0
 40
0.0
 40
0.0
 40
0.0000509369177189
 40
0.0000509369177189
 40
0.0000509369177189
 40
0.0001020152221073
 40
0.0001020152221073
 40
0.0001020152221073
 40
0.0001494864860057
 40
0.0001494864860057
 40
0.0001494864860057
 40
0.0001494864860057
 10
12.09360850863488
 20
77.51073696223693
 30
0.0
 10
12.07994558185129
 20
77.50413106249249
 30
0.0
 10
12.06756146756297
 20
77.49715961369577
 30
0.0
 10
12.05746403253436
 20
77.49058200037064
 30
0.0
 10
12.04735051089425
 20
77.48399390799713
 30
0.0
 10
12.03925253962988
 20
77.4776221393774
 30
0.0
 10
12.03398166002038
 20
77.4722350500013
 30
0.0
 10
12.02907711211114
 20
77.46722236902698
 30
0.0
 10
12.0264912161957
 20
77.46292973294831
 30
0.0
 10
12.0264912161957
 20
77.45979883944278
 30
0.0
  0
SPLINE
  5
26F
330
1F
100
AcDbEntity
  8
0
  6
Continuous
 62
     4
370
    25
100
AcDbSpline
210
0.0
220
0.0
230
1.0
 70
     8
 71
     3
 72
     9
 73
     5
 74
     0
 42
0.000000001
 43
0.00000001
 40
0.0
 40
0.0
 40
0.0
 40
0.0
 40
0.372125059009373
 40
1.0
 40
1.0
 40
1.0
 40
1.0
 10
12.38527788021428
 20
77.66245660104715
 30
0.0
 10
12.34821137471317
 20
77.64215131123579
 30
0.0
 10
12.24860371700856
 20
77.58758554276697
 30
0.0
 10
12.15339050101093
 20
77.5403776285747
 30
0.0
 10
12.09360850863488
 20
77.51073696223695
 30
0.0
  0
SPLINE
  5
270
330
1F
100
AcDbEntity
  8
0
  6
Continuous
 62
     4
370
    25
100
AcDbSpline
210
0.0
220
0.0
230
1.0
 70
     8
 71
     3
 72
     9
 73
     5
 74
     0
 42
0.000000001
 43
0.00000001
 40
0.0
 40
0.0
 40
0.0
 40
0.0
 40
0.1057959433524142
 40
1.0
 40
1.0
 40
1.0
 40
1.0
 10
12.38527788021428
 20
78.9902417738818
 30
0.0
 10
12.39026370211955
 20
78.99093080144918
 30
0.0
 10
12.43739047983223
 20
78.99744359906268
 30
0.0
 10
12.48453159575379
 20
78.99917535162432
 30
0.0
 10
12.52668537284575
 20
79.00072389179005
 30
0.0
  0
LINE
  5
271
330
1F
100
AcDbEntity
  8
0
  6
Continuous
 62
     4
370
    25
100
AcDbLine
 10
12.02649121619577
 20
79.2103758077976
 30
0.0
 11
12.02649121619577
 21
79.19289953548616
 31
0.0
  0
SPLINE
  5
272
330
1F
100
AcDbEntity
  8
0
  6
Continuous
 62
     4
370
    25
100
AcDbSpline
210
0.0
220
0.0
230
1.0
 70
     8
 71
     3
 72
    14
 73
    10
 74
     0
 42
0.000000001
 43
0.00000001
 40
0.0
 40
0.0
 40
0.0
 40
0.0
 40
0.0000509369177189
 40
0.0000509369177189
 40
0.0000509369177189
 40
0.0001020152221073
 40
0.0001020152221073
 40
0.0001020152221073
 40
0.0001494864860057
 40
0.0001494864860057
 40
0.0001494864860057
 40
0.0001494864860057
 10
12.09360850863488
 20
79.14196141269201
 30
0.0
 10
12.07994558185129
 20
79.14856731243646
 30
0.0
 10
12.06756146756297
 20
79.15553876123317
 30
0.0
 10
12.05746403253436
 20
79.16211637455831
 30
0.0
 10
12.04735051089425
 20
79.16870446693181
 30
0.0
 10
12.03925253962988
 20
79.17507623555156
 30
0.0
 10
12.03398166002038
 20
79.18046332492766
 30
0.0
 10
12.02907711211114
 20
79.18547600590196
 30
0.0
 10
12.0264912161957
 20
79.18976864198065
 30
0.0
 10
12.0264912161957
 20
79.19289953548616
 30
0.0
  0
SPLINE
  5
273
330
1F
100
AcDbEntity
  8
0
  6
Continuous
 62
     4
370
    25
100
AcDbSpline
210
0.0
220
0.0
230
1.0
 70
     8
 71
     3
 72
     8
 73
     4
 74
     0
 42
0.000000001
 43
0.00000001
 40
0.0
 40
0.0
 40
0.0
 40
0.0
 40
1.0
 40
1.0
 40
1.0
 40
1.0
 10
12.52668537284575
 20
78.91365432920774
 30
0.0
 10
12.37730981511731
 20
78.995921269213
 30
0.0
 10
12.23383004157182
 20
79.07416558802971
 30
0.0
 10
12.09360850863488
 20
79.14196141269201
 30
0.0
  0
LINE
  5
274
330
1F
100
AcDbEntity
  8
0
  6
Continuous
 62
     4
370
    25
100
AcDbLine
 10
12.52668537284575
 20
78.91365432920774
 30
0.0
 11
12.52668537284575
 21
78.65455454721018
 31
0.0
  0
LINE
  5
275
330
1F
100
AcDbEntity
  8
0
  6
Continuous
 62
     4
370
    25
100
AcDbLine
 10
-40.47331462715425
 20
80.82634918746447
 30
0.0
 11
-40.47331462715425
 21
75.82634918746447
 31
0.0
  0
SPLINE
  5
276
330
1F
100
AcDbEntity
  8
0
  6
Continuous
 62
     4
370
    25
100
AcDbSpline
210
0.0
220
0.0
230
1.0
 70
     8
 71
     3
 72
    12
 73
     8
 74
     0
 42
0.000000001
 43
0.00000001
 40
0.0
 40
0.0
 40
0.0
 40
0.0
 40
0.25
 40
0.25
 40
0.5
 40
0.5
 40
1.0
 40
1.0
 40
1.0
 40
1.0
 10
13.52668537284575
 20
79.03915185480567
 30
0.0
 10
13.44293736050672
 20
79.05412898823772
 30
0.0
 10
13.35805952631762
 20
79.06472375073828
 30
0.0
 10
13.19073371799801
 20
79.07657226776799
 30
0.0
 10
13.11005604590899
 20
79.07787415640328
 30
0.0
 10
12.86184111620382
 20
79.06807280314855
 30
0.0
 10
12.68915245302628
 20
79.0424457791872
 30
0.0
 10
12.52668537284575
 20
79.00072389179005
 30
0.0
  0
SPLINE
  5
277
330
1F
100
AcDbEntity
  8
0
  6
Continuous
 62
     4
370
    25
100
AcDbSpline
210
0.0
220
0.0
230
1.0
 70
    24
 71
     3
 72
    16
 73
    12
 74
     0
 42
0.000000001
 43
0.00000001
 40
0.0
 40
0.0
 40
0.0
 40
0.0
 40
0.125
 40
0.125
 40
0.25
 40
0.25
 40
0.5
 40
0.5
 40
0.75
 40
0.75
 40
1.0
 40
1.0
 40
1.0
 40
1.0
 10
13.52668537284575
 20
79.0391518548057
 30
0.0
 10
13.52668537284575
 20
79.0131597997487
 30
0.0
 10
13.52668537284575
 20
78.98965706265072
 30
0.0
 10
13.52668537284575
 20
78.93765248849549
 30
0.0
 10
13.52668537284575
 20
78.9097573679031
 30
0.0
 10
13.52668537284575
 20
78.82093626805722
 30
0.0
 10
13.52668537284575
 20
78.75419553625234
 30
0.0
 10
13.52668537284575
 20
78.62059754310305
 30
0.0
 10
13.52668537284575
 20
78.55403508267894
 30
0.0
 10
13.52668537284575
 20
78.45542439561756
 30
0.0
 10
13.52668537284575
 20
78.4251299630336
 30
0.0
 10
13.52668537284575
 20
78.42386575425546
 30
0.0
  0
SPLINE
  5
278
330
1F
100
AcDbEntity
  8
0
  6
Continuous
 62
     4
370
    25
100
AcDbSpline
210
0.0
220
0.0
230
1.0
 70
     8
 71
     3
 72
    12
 73
     8
 74
     0
 42
0.000000001
 43
0.00000001
 40
0.0
 40
0.0
 40
0.0
 40
0.0
 40
0.2499999999999999
 40
0.2499999999999999
 40
0.4999999999999998
 40
0.4999999999999998
 40
1.0
 40
1.0
 40
1.0
 40
1.0
 10
13.52668537284575
 20
78.42386575425546
 30
0.0
 10
13.44293736050672
 20
78.47161194960816
 30
0.0
 10
13.35805952631762
 20
78.51896107627509
 30
0.0
 10
13.19073371799801
 20
78.61025121669681
 30
0.0
 10
13.11005604590899
 20
78.6538947198519
 30
0.0
 10
12.86184111620382
 20
78.77912767993462
 30
0.0
 10
12.68915245302628
 20
78.85435900489304
 30
0.0
 10
12.52668537284575
 20
78.91365432920773
 30
0.0
  0
SPLINE
  5
279
330
1F
100
AcDbEntity
  8
0
  6
Continuous
 62
     4
370
    25
100
AcDbSpline
210
0.0
220
0.0
230
1.0
 70
     8
 71
     3
 72
    12
 73
     8
 74
     0
 42
0.000000001
 43
0.00000001
 40
0.0
 40
0.0
 40
0.0
 40
0.0
 40
0.25
 40
0.25
 40
0.5
 40
0.5
 40
1.0
 40
1.0
 40
1.0
 40
1.0
 10
13.52668537284575
 20
78.09308462215016
 30
0.0
 10
13.44293736050672
 20
78.13885128475968
 30
0.0
 10
13.35805952631762
 20
78.18627657280409
 30
0.0
 10
13.19073371799801
 20
78.28182208507185
 30
0.0
 10
13.11005604590899
 20
78.32958938372872
 30
0.0
 10
12.86184111620382
 20
78.47313879601265
 30
0.0
 10
12.68915245302628
 20
78.56882716756238
 30
0.0
 10
12.52668537284575
 20
78.65455454721018
 30
0.0
  0
SPLINE
  5
27A
330
1F
100
AcDbEntity
  8
0
  6
Continuous
 62
     4
370
    25
100
AcDbSpline
210
0.0
220
0.0
230
1.0
 70
    24
 71
     3
 72
    13
 73
     9
 74
     0
 42
0.000000001
 43
0.00000001
 40
0.0
 40
0.0
 40
0.0
 40
0.0
 40
0.0225166633774753
 40
0.2427292659481431
 40
0.4629418685189206
 40
0.6831544710894788
 40
0.9033670736601059
 40
1.0
 40
1.0
 40
1.0
 40
1.0
 10
13.52668537284575
 20
78.09893199058423
 30
0.0
 10
13.52668537284575
 20
78.09933678943763
 30
0.0
 10
13.52668537284575
 20
78.10370051451056
 30
0.0
 10
13.52668537284575
 20
78.06652540534144
 30
0.0
 10
13.52668537284575
 20
77.97328193420121
 30
0.0
 10
13.52668537284575
 20
77.83127424485879
 30
0.0
 10
13.52668537284575
 20
77.69302477301146
 30
0.0
 10
13.52668537284575
 20
77.60849585970294
 30
0.0
 10
13.52668537284575
 20
77.58271586438025
 30
0.0
  0
SPLINE
  5
27B
330
1F
100
AcDbEntity
  8
0
  6
Continuous
 62
     4
370
    25
100
AcDbSpline
210
0.0
220
0.0
230
1.0
 70
     8
 71
     3
 72
    12
 73
     8
 74
     0
 42
0.000000001
 43
0.00000001
 40
0.0
 40
0.0
 40
0.0
 40
0.0
 40
0.2499999999999999
 40
0.2499999999999999
 40
0.4999999999999999
 40
0.4999999999999999
 40
1.0
 40
1.0
 40
1.0
 40
1.0
 10
13.52668537284575
 20
77.58271586438025
 30
0.0
 10
13.44293736050672
 20
77.58897707525338
 30
0.0
 10
13.35805952631762
 20
77.59990717783371
 30
0.0
 10
13.19073371799801
 20
77.63049218285408
 30
0.0
 10
13.11005604590899
 20
77.64995122618478
 30
0.0
 10
12.86184111620382
 20
77.72079758107765
 30
0.0
 10
12.68915245302628
 20
77.7852433454998
 30
0.0
 10
12.52668537284575
 20
77.85990233038221
 30
0.0
  0
LINE
  5
27C
330
1F
100
AcDbEntity
  8
0
  6
Continuous
 62
     4
370
    25
100
AcDbLine
 10
13.52668537284575
 20
78.42386575425546
 30
0.0
 11
13.52668537284575
 21
78.09308462215014
 31
0.0
  0
SPLINE
  5
27D
330
1F
100
AcDbEntity
  8
0
  6
Continuous
 62
     4
370
    25
100
AcDbSpline
210
0.0
220
0.0
230
1.0
 70
     8
 71
     3
 72
     9
 73
     5
 74
     0
 42
0.000000001
 43
0.00000001
 40
0.0
 40
0.0
 40
0.0
 40
0.0
 40
0.8504876679225448
 40
1.0
 40
1.0
 40
1.0
 40
1.0
 10
12.52668537284575
 20
77.65197448313891
 30
0.0
 10
12.69359259051703
 20
77.61183766870006
 30
0.0
 10
12.88984142982
 20
77.5646449627354
 30
0.0
 10
13.08596682623791
 20
77.58177606913817
 30
0.0
 10
13.11528999163596
 20
77.58433738080751
 30
0.0
  0
LINE
  5
27E
330
1F
100
AcDbEntity
  8
0
  6
Continuous
 62
     4
370
    25
100
AcDbLine
 10
13.52668537284575
 20
77.58271586438025
 30
0.0
 11
13.52668537284575
 21
77.57634918746447
 31
0.0
  0
LINE
  5
27F
330
1F
100
AcDbEntity
  8
0
  6
Continuous
 62
     4
370
    25
100
AcDbLine
 10
13.52668537284575
 20
79.07634918746447
 30
0.0
 11
13.52668537284575
 21
79.0391518548057
 31
0.0
  0
SPLINE
  5
280
330
1F
100
AcDbEntity
  8
0
  6
Continuous
 62
     1
370
    25
100
AcDbSpline
210
0.0
220
0.0
230
1.0
 70
     8
 71
     3
 72
    16
 73
    12
 74
     0
 42
0.000000001
 43
0.00000001
 40
0.0
 40
0.0
 40
0.0
 40
0.0
 40
0.1022856343700277
 40
0.229921788381697
 40
0.358054881299406
 40
0.4859732714334666
 40
0.6134817536288477
 40
0.7408827258873621
 40
0.8684824854603064
 40
0.9965726495691464
 40
1.0
 40
1.0
 40
1.0
 40
1.0
 10
13.52668537284575
 20
79.03915185480567
 30
0.0
 10
13.65158795849516
 20
79.0107277992206
 30
0.0
 10
13.93234904525853
 20
78.94683505677021
 30
0.0
 10
14.37038303037114
 20
78.76029808417812
 30
0.0
 10
14.84013629035617
 20
78.51120385863766
 30
0.0
 10
15.30950508493257
 20
78.23619546271878
 30
0.0
 10
15.77759464137704
 20
77.9739140795824
 30
0.0
 10
16.24525520261258
 20
77.75403160264139
 30
0.0
 10
16.71369146510841
 20
77.61896234794322
 30
0.0
 10
17.03098297613249
 20
77.56111683990935
 30
0.0
 10
17.19192756088448
 20
77.57719194897041
 30
0.0
 10
17.19612178166051
 20
77.57761086680169
 30
0.0
  0
SPLINE
  5
281
330
1F
100
AcDbEntity
  8
0
  6
Continuous
 62
     1
370
    25
100
AcDbSpline
210
0.0
220
0.0
230
1.0
 70
     8
 71
     3
 72
    18
 73
    14
 74
     0
 42
0.000000001
 43
0.00000001
 40
0.0
 40
0.0
 40
0.0
 40
0.0
 40
0.0633295836889166
 40
0.1752647225246249
 40
0.2731258238587402
 40
0.3710747546008312
 40
0.4686486791880289
 40
0.5660705936265248
 40
0.6635747195559143
 40
0.7613922969089608
 40
0.859374054769012
 40
0.9569758097238489
 40
1.0
 40
1.0
 40
1.0
 40
1.0
 10
18.49477255777501
 20
77.70148117370424
 30
0.0
 10
18.39343573999491
 20
77.6688588454672
 30
0.0
 10
18.11298593730866
 20
77.5785765007315
 30
0.0
 10
17.67587987367246
 20
77.56245013461616
 30
0.0
 10
17.18344682821619
 20
77.63773360057293
 30
0.0
 10
16.71370380282549
 20
77.80195255304005
 30
0.0
 10
16.24525196438492
 20
78.03296400167193
 30
0.0
 10
15.7775952987954
 20
78.301943226292
 30
0.0
 10
15.30950569519834
 20
78.57382988836416
 30
0.0
 10
14.84013317567627
 20
78.81480296456438
 30
0.0
 10
14.37039487745821
 20
78.98868371566822
 30
0.0
 10
13.98861720116045
 20
79.0732381513286
 30
0.0
 10
13.76403579577055
 20
79.06966715270623
 30
0.0
 10
13.69532562211015
 20
79.06857461374443
 30
0.0
  0
SPLINE
  5
282
330
1F
100
AcDbEntity
  8
0
  6
Continuous
 62
     1
370
    25
100
AcDbSpline
210
0.0
220
0.0
230
1.0
 70
     8
 71
     3
 72
    14
 73
    10
 74
     0
 42
0.000000001
 43
0.00000001
 40
0.0
 40
0.0
 40
0.0
 40
0.0
 40
0.0749595255586122
 40
0.2340279606893641
 40
0.3932306289983653
 40
0.5529450941421753
 40
0.712927629734803
 40
0.8722897046453966
 40
0.9999999999999999
 40
0.9999999999999999
 40
0.9999999999999999
 40
0.9999999999999999
 10
16.46530417689542
 20
77.70198843164683
 30
0.0
 10
16.39187292996431
 20
77.6772240201386
 30
0.0
 10
16.162616343265
 20
77.59990809958344
 30
0.0
 10
15.77760679883889
 20
77.5631039737134
 30
0.0
 10
15.30950181463363
 20
77.60024266979728
 30
0.0
 10
14.84013716973467
 20
77.73538913061765
 30
0.0
 10
14.37038279498496
 20
77.94489068124443
 30
0.0
 10
13.93234909060882
 20
78.18795484034338
 30
0.0
 10
13.65158797245834
 20
78.35122951607502
 30
0.0
 10
13.52668537284569
 20
78.42386575425549
 30
0.0
  0
SPLINE
  5
283
330
1F
100
AcDbEntity
  8
0
  6
Continuous
 62
     4
370
    25
100
AcDbSpline
210
0.0
220
0.0
230
1.0
 70
    24
 71
     3
 72
    16
 73
    12
 74
     0
 42
0.000000001
 43
0.00000001
 40
0.0
 40
0.0
 40
0.0
 40
0.0
 40
0.1249999999999999
 40
0.1249999999999999
 40
0.2499999999999997
 40
0.2499999999999997
 40
0.4999999999999998
 40
0.4999999999999998
 40
0.7499999999999999
 40
0.7499999999999999
 40
1.0
 40
1.0
 40
1.0
 40
1.0
 10
13.52668537284575
 20
79.0391518548057
 30
0.0
 10
13.52668537284575
 20
79.01315979974873
 30
0.0
 10
13.52668537284575
 20
78.98965706265076
 30
0.0
 10
13.52668537284575
 20
78.93765248849556
 30
0.0
 10
13.52668537284575
 20
78.9097573679032
 30
0.0
 10
13.52668537284575
 20
78.8209362680574
 30
0.0
 10
13.52668537284575
 20
78.75419553625257
 30
0.0
 10
13.52668537284575
 20
78.62059754310336
 30
0.0
 10
13.52668537284575
 20
78.55403508267928
 30
0.0
 10
13.52668537284575
 20
78.45542439561781
 30
0.0
 10
13.52668537284575
 20
78.42512996303375
 30
0.0
 10
13.52668537284575
 20
78.42386575425547
 30
0.0
  0
SPLINE
  5
284
330
1F
100
AcDbEntity
  8
0
  6
Continuous
 62
     1
370
    25
100
AcDbSpline
210
0.0
220
0.0
230
1.0
 70
     8
 71
     3
 72
    15
 73
    11
 74
     0
 42
0.000000001
 43
0.00000001
 40
0.0
 40
0.0
 40
0.0
 40
0.0
 40
0.1521846851362003
 40
0.3044024291278228
 40
0.4566730887704465
 40
0.589798170031754
 40
0.723042729787729
 40
0.8557771509476422
 40
0.9883047855179644
 40
1.0
 40
1.0
 40
1.0
 40
1.0
 10
19.26494008784505
 20
77.64307316581679
 30
0.0
 10
19.08593381780089
 20
77.69712757713114
 30
0.0
 10
18.72788239244369
 20
77.80524814192015
 30
0.0
 10
18.19070647944051
 20
78.08615516814683
 30
0.0
 10
17.67588119354583
 20
78.38654743386655
 30
0.0
 10
17.18344577338318
 20
78.66389444430553
 30
0.0
 10
16.71370680757732
 20
78.88685027596122
 30
0.0
 10
16.2452410529027
 20
79.02806974621969
 30
0.0
 10
15.91976694180707
 20
79.08941760293402
 30
0.0
 10
15.75022279665953
 20
79.07373347600101
 30
0.0
 10
15.73647424603317
 20
79.07246163017595
 30
0.0
  0
SPLINE
  5
285
330
1F
100
AcDbEntity
  8
0
  6
Continuous
 62
     1
370
    25
100
AcDbSpline
210
0.0
220
0.0
230
1.0
 70
     8
 71
     3
 72
    14
 73
    10
 74
     0
 42
0.000000001
 43
0.00000001
 40
0.0
 40
0.0
 40
0.0
 40
0.0
 40
0.0809951479279592
 40
0.2345502907092877
 40
0.3879677427860841
 40
0.5408584455017346
 40
0.6935837259046875
 40
0.8465109076008486
 40
1.0
 40
1.0
 40
1.0
 40
1.0
 10
16.46530417689542
 20
78.95070994328212
 30
0.0
 10
16.54792475098569
 20
78.97790806636262
 30
0.0
 10
16.78718204191225
 20
79.05666991615826
 30
0.0
 10
17.18343444904602
 20
79.09016937681879
 30
0.0
 10
17.65290197122125
 20
79.04685169258079
 30
0.0
 10
18.12111181266199
 20
78.90645982126922
 30
0.0
 10
18.58875118748992
 20
78.69293986666926
 30
0.0
 10
19.05708169628201
 20
78.4301930986002
 30
0.0
 10
19.36995956063686
 20
78.25033549299214
 30
0.0
 10
19.52668537284575
 20
78.16024177741723
 30
0.0
  0
LINE
  5
286
330
1F
100
AcDbEntity
  8
0
  6
Continuous
 62
     1
370
    25
100
AcDbLine
 10
19.52668537284575
 20
77.82634918746447
 30
0.0
 11
19.52668537284575
 21
78.1596372681945
 31
0.0
  0
SPLINE
  5
287
330
1F
100
AcDbEntity
  8
0
  6
Continuous
 62
     1
370
    25
100
AcDbSpline
210
0.0
220
0.0
230
1.0
 70
    24
 71
     3
 72
     8
 73
     4
 74
     0
 42
0.000000001
 43
0.00000001
 40
0.0
 40
0.0
 40
0.0
 40
0.0
 40
1.0
 40
1.0
 40
1.0
 40
1.0
 10
19.52668537284575
 20
77.82634918746447
 30
0.0
 10
19.43282452174736
 20
77.76062711198261
 30
0.0
 10
19.34355847831863
 20
77.69812235546765
 30
0.0
 10
19.26494008784574
 20
77.64307316581663
 30
0.0
  0
SPLINE
  5
288
330
1F
100
AcDbEntity
  8
0
  6
Continuous
 62
     1
370
    25
100
AcDbSpline
210
0.0
220
0.0
230
1.0
 70
     8
 71
     3
 72
    18
 73
    14
 74
     0
 42
0.000000001
 43
0.00000001
 40
0.0
 40
0.0
 40
0.0
 40
0.0
 40
0.0862015576762317
 40
0.1837920556301459
 40
0.2810698298247235
 40
0.3782655833789317
 40
0.475612994196664
 40
0.5733345406082446
 40
0.670968461504133
 40
0.7682671623532673
 40
0.8654605894622
 40
0.962782505309689
 40
0.9999999999999999
 40
0.9999999999999999
 40
0.9999999999999999
 40
0.9999999999999999
 10
14.42544242378756
 20
78.95668105374034
 30
0.0
 10
14.56375471841939
 20
78.99466717027946
 30
0.0
 10
14.85865311277074
 20
79.07565812487856
 30
0.0
 10
15.30950864584514
 20
79.08618466921756
 30
0.0
 10
15.7775949076202
 20
79.00703130422426
 30
0.0
 10
16.24525058575965
 20
78.83818225662792
 30
0.0
 10
16.71370972959784
 20
78.60378364852475
 30
0.0
 10
17.18342441811699
 20
78.33388025031066
 30
0.0
 10
17.65290537926687
 20
78.06327841798476
 30
0.0
 10
18.12110818436341
 20
77.8247000404534
 30
0.0
 10
18.58876229746173
 20
77.65696699227415
 30
0.0
 10
18.96014288329212
 20
77.57418180736013
 30
0.0
 10
19.17599376780332
 20
77.58488689800953
 30
0.0
 10
19.23570436944847
 20
77.5878482359016
 30
0.0
  0
LINE
  5
289
330
1F
100
AcDbEntity
  8
0
  6
Continuous
 62
     4
370
    25
100
AcDbLine
 10
19.26494008784574
 20
77.64307316581662
 30
0.0
 11
19.24694403903787
 21
77.63047219678336
 31
0.0
  0
ELLIPSE
  5
28A
330
1F
100
AcDbEntity
  8
0
  6
Continuous
 62
     1
370
    25
100
AcDbEllipse
 10
19.28245767986765
 20
78.32634918746447
 30
0.0
 11
1.041992479244975
 21
-0.412755754531322
 31
0.0
210
0.0
220
0.0
230
1.0
 40
0.6009688174887261
 41
4.912933762914529
 42
5.176132609328191
  0
LINE
  5
28B
330
1F
100
AcDbEntity
  8
0
  6
Continuous
 62
     4
370
    25
100
AcDbLine
 10
19.52668537284575
 20
77.57634918746447
 30
0.0
 11
19.52668537284575
 21
77.58165587886228
 31
0.0
  0
SPLINE
  5
28C
330
1F
100
AcDbEntity
  8
0
  6
Continuous
 62
     1
370
    25
100
AcDbSpline
210
0.0
220
0.0
230
1.0
 70
     8
 71
     3
 72
    11
 73
     7
 74
     0
 42
0.000000001
 43
0.00000001
 40
0.0
 40
0.0
 40
0.0
 40
0.0
 40
0.2302608048170448
 40
0.5175895555989937
 40
0.8060369928236121
 40
1.0
 40
1.0
 40
1.0
 40
1.0
 10
13.52668537284575
 20
78.09308462215014
 30
0.0
 10
13.65158841821221
 20
78.02601878664832
 30
0.0
 10
13.9323505383462
 20
77.87526548748895
 30
0.0
 10
14.37037528065322
 20
77.69795595898634
 30
0.0
 10
14.78903786801899
 20
77.58716304641125
 30
0.0
 10
15.05123409025538
 20
77.58708696195731
 30
0.0
 10
15.15665545566216
 20
77.58705637064308
 30
0.0
  0
SPLINE
  5
28D
330
1F
100
AcDbEntity
  8
0
  6
Continuous
 62
     1
370
    25
100
AcDbSpline
210
0.0
220
0.0
230
1.0
 70
     8
 71
     3
 72
    10
 73
     6
 74
     0
 42
0.000000001
 43
0.00000001
 40
0.0
 40
0.0
 40
0.0
 40
0.0
 40
0.0909379183598108
 40
0.5446354334233763
 40
1.0
 40
1.0
 40
1.0
 40
1.0
 10
18.49477255777501
 20
78.95121720122471
 30
0.0
 10
18.5260343713921
 20
78.9628886177516
 30
0.0
 10
18.71326420594336
 20
79.03278978894001
 30
0.0
 10
19.05708283812862
 20
79.0861102995809
 30
0.0
 10
19.36995994171743
 20
79.0671973016595
 30
0.0
 10
19.52668537284575
 20
79.05772346123092
 30
0.0
  0
LINE
  5
28E
330
1F
100
AcDbEntity
  8
0
  6
Continuous
 62
     4
370
    25
100
AcDbLine
 10
19.52668537284575
 20
79.05772346123092
 30
0.0
 11
19.52668537284575
 21
79.07634918746447
 31
0.0
  0
SPLINE
  5
28F
330
1F
100
AcDbEntity
  8
0
  6
Continuous
 62
     1
370
    25
100
AcDbSpline
210
0.0
220
0.0
230
1.0
 70
     8
 71
     3
 72
    10
 73
     6
 74
     0
 42
0.000000001
 43
0.00000001
 40
0.0
 40
0.0
 40
0.0
 40
0.0
 40
0.3608021648395728
 40
0.7216827062029885
 40
1.0
 40
1.0
 40
1.0
 40
1.0
 10
19.26494008784499
 20
78.63559646431801
 30
0.0
 10
19.08593401813941
 20
78.72385085413006
 30
0.0
 10
18.7278829935029
 20
78.90037880512554
 30
0.0
 10
18.23173029624745
 20
79.0552209707025
 30
0.0
 10
17.91456056556115
 20
79.06209481759181
 30
0.0
 10
17.77645962675433
 20
79.06508780404917
 30
0.0
  0
SPLINE
  5
290
330
1F
100
AcDbEntity
  8
0
  6
Continuous
 62
     1
370
    25
100
AcDbSpline
210
0.0
220
0.0
230
1.0
 70
     8
 71
     3
 72
    10
 73
     6
 74
     0
 42
0.000000001
 43
0.00000001
 40
0.0
 40
0.0
 40
0.0
 40
0.0
 40
0.0617916246516376
 40
0.58261790011622
 40
1.0
 40
1.0
 40
1.0
 40
1.0
 10
14.42544242378756
 20
77.6960173211886
 30
0.0
 10
14.40690617222107
 20
77.68903057300872
 30
0.0
 10
14.23213245451117
 20
77.62315425763178
 30
0.0
 10
13.93235574949865
 20
77.57542919199804
 30
0.0
 10
13.65159002270985
 20
77.58047232056991
 30
0.0
 10
13.52668537284569
 20
77.58271586438025
 30
0.0
  0
ELLIPSE
  5
291
330
1F
100
AcDbEntity
  8
0
  6
Continuous
 62
     1
370
    25
100
AcDbEllipse
 10
20.2407593762168
 20
78.32634918746447
 30
0.0
 11
1.071111005056586
 21
-1.972152263052530E-31
 31
0.0
210
0.0
220
0.0
230
1.0
 40
0.7002075382097099
 41
2.716582861747931
 42
2.759364833374628
  0
ELLIPSE
  5
292
330
1F
100
AcDbEntity
  8
0
  6
Continuous
 62
     1
370
    25
100
AcDbEllipse
 10
19.28245767986765
 20
78.32634918746447
 30
0.0
 11
1.064326924485588
 21
-0.7291305528055547
 31
0.0
210
0.0
220
0.0
230
1.0
 40
0.165075901574664
 41
1.453368357947251
 42
1.716567204360914
  0
LINE
  5
293
330
1F
100
AcDbEntity
  8
0
  6
Continuous
 62
     1
370
    25
100
AcDbLine
 10
19.52668537284575
 20
78.16024177741723
 30
0.0
 11
19.52668537284575
 21
78.41541026831979
 31
0.0
  0
SPLINE
  5
294
330
1F
100
AcDbEntity
  8
0
  6
Continuous
 62
     1
370
    25
100
AcDbSpline
210
0.0
220
0.0
230
1.0
 70
     8
 71
     3
 72
     8
 73
     4
 74
     0
 42
0.000000001
 43
0.00000001
 40
0.0
 40
0.0
 40
0.0
 40
0.0
 40
1.0
 40
1.0
 40
1.0
 40
1.0
 10
19.52668537284575
 20
78.52614413808183
 30
0.0
 10
19.43282452174736
 20
78.53178291835985
 30
0.0
 10
19.34355847831863
 20
78.57327956841867
 30
0.0
 10
19.26494008784574
 20
78.63559646431762
 30
0.0
  0
SPLINE
  5
295
330
1F
100
AcDbEntity
  8
0
  6
Continuous
 62
     4
370
    25
100
AcDbSpline
210
0.0
220
0.0
230
1.0
 70
    24
 71
     3
 72
    11
 73
     7
 74
     0
 42
0.000000001
 43
0.00000001
 40
0.0
 40
0.0
 40
0.0
 40
0.0
 40
0.2870953201560533
 40
0.5794111528956264
 40
0.8717269856352929
 40
1.0
 40
1.0
 40
1.0
 40
1.0
 10
13.52668537284575
 20
78.05813580976454
 30
0.0
 10
13.52668537284575
 20
78.03036420956028
 30
0.0
 10
13.52668537284575
 20
77.97431601315165
 30
0.0
 10
13.52668537284575
 20
77.83075574449333
 30
0.0
 10
13.52668537284575
 20
77.69307425943668
 30
0.0
 10
13.52668537284575
 20
77.6085074250414
 30
0.0
 10
13.52668537284575
 20
77.58271586438103
 30
0.0
  0
LINE
  5
296
330
1F
100
AcDbEntity
  8
0
  6
Continuous
 62
     1
370
    25
100
AcDbLine
 10
19.52668537284575
 20
78.52614413808183
 30
0.0
 11
19.52668537284575
 21
79.05772346123092
 31
0.0
  0
LINE
  5
297
330
1F
100
AcDbEntity
  8
0
  6
Continuous
 62
     1
370
    25
100
AcDbLine
 10
19.52668537284575
 20
78.41541026831979
 30
0.0
 11
19.52668537284575
 21
78.52614413808183
 31
0.0
  0
LINE
  5
298
330
1F
100
AcDbEntity
  8
0
  6
Continuous
 62
     1
370
    25
100
AcDbLine
 10
19.52668537284575
 20
77.82634918746447
 30
0.0
 11
19.52668537284575
 21
77.58165587886228
 31
0.0
  0
LINE
  5
299
330
1F
100
AcDbEntity
  8
중심선
 48
0.5
100
AcDbLine
 10
-42.47331462715425
 20
78.32634918746447
 30
0.0
 11
21.52668537284575
 21
78.32634918746447
 31
0.0
  0
CIRCLE
  5
29A
330
1F
100
AcDbEntity
  8
해칭선
100
AcDbCircle
 10
4.129550582349246
 20
78.32634918746447
 30
0.0
 40
3.0
  0
DIMENSION
  5
29B
330
1F
100
AcDbEntity
  8
치수문자_일반주서
100
AcDbDimension
  2
*D11
 10
27.52668537284573
 20
79.0763491874645
 30
0.0
 11
27.52668537284569
 21
94.43034918746451
 31
0.0
 70
   160
  1
%%c<>
 71
     2
 42
1.5
 52
-270.0
  3
SLDDIMSTYLE0
100
AcDbAlignedDimension
 13
19.52668537284575
 23
77.57634918746447
 33
0.0
 14
19.52668537284575
 24
79.07634918746447
 34
0.0
 50
90.0000000000002
100
AcDbRotatedDimension
1001
ACAD
1000
DSTYLE
1002
{
1070
    41
1040
2.5
1070
   140
1040
2.5
1002
}
  0
DIMENSION
  5
29C
330
1F
100
AcDbEntity
  8
치수문자_일반주서
100
AcDbDimension
  2
*D12
 10
19.52668537284575
 20
98.71548178904612
 30
0.0
 11
-10.47331462715425
 21
98.71548178904612
 31
0.0
 70
   160
  1
<>
 71
     2
 42
60.0
  3
SLDDIMSTYLE0
100
AcDbAlignedDimension
 13
-40.47331462715425
 23
80.82634918746447
 33
0.0
 14
19.52668537284575
 24
79.07634918746447
 34
0.0
 50
-0.0000000000000068
100
AcDbRotatedDimension
1001
ACAD
1000
DSTYLE
1002
{
1070
    41
1040
2.5
1070
   140
1040
2.5
1002
}
  0
DIMENSION
  5
29D
330
1F
100
AcDbEntity
  8
치수문자_일반주서
100
AcDbDimension
  2
*D13
 10
-48.47331462715425
 20
75.32634918746444
 30
0.0
 11
-48.47331462715431
 21
93.92009918746444
 31
0.0
 70
   160
  1
%%c<>
 71
     2
 42
6.0
 52
-270.0
  3
SLDDIMSTYLE0
100
AcDbAlignedDimension
 13
-39.97331462715425
 23
81.32634918746447
 33
0.0
 14
-39.97331462715425
 24
75.32634918746447
 34
0.0
 50
90.0000000000002
100
AcDbRotatedDimension
1001
ACAD
1000
DSTYLE
1002
{
1070
    41
1040
2.5
1070
   140
1040
2.5
1002
}
  0
DIMENSION
  5
29E
330
1F
100
AcDbEntity
  8
치수문자_일반주서
100
AcDbDimension
  2
*D14
 10
19.52668537284575
 20
89.88507015739334
 30
0.0
 11
16.52668537284575
 21
89.88507015739334
 31
0.0
 70
   160
  1
<>
 71
     2
 42
6.0
  3
SLDDIMSTYLE0
100
AcDbAlignedDimension
 13
13.52668537284575
 23
79.0391518548057
 33
0.0
 14
19.52668537284575
 24
79.07634918746447
 34
0.0
100
AcDbRotatedDimension
1001
ACAD
1000
DSTYLE
1002
{
1070
    41
1040
2.5
1070
   140
1040
2.5
1002
}
1001
ACAD_DSTYLE_DIMFLIPARROW_SYMBOL
1070
   385
1070
     0
1001
ACAD_DSTYLE_DIMFLIPARROW_WHICH_SYMBOL
1070
   386
1070
     3
  0
INSERT
  5
29F
330
1F
100
AcDbEntity
  8
해칭선
100
AcDbBlockReference
  2
SW_DOWELSYMBOL_0
 10
4.129550582349246
 20
78.32634918746447
 30
0.0
  0
LINE
  5
2A0
330
1F
100
AcDbEntity
  8
0
100
AcDbLine
 10
27.52668537284575
 20
82.58165587886228
 30
0.0
 11
27.52668537284575
 21
67.37581178539475
 31
0.0
  0
LINE
  5
2DC
330
1F
100
AcDbEntity
  8
외형선
  6
Continuous
370
    15
100
AcDbLine
 10
-12.54692116787305
 20
1.587499999999995
 30
0.0
 11
-13.28749999999999
 21
1.389062499999997
 31
0.0
  0
LINE
  5
2DD
330
1F
100
AcDbEntity
  8
외형선
  6
Continuous
370
    15
100
AcDbLine
 10
-13.28749999999999
 20
-1.389062500000005
 30
0.0
 11
-12.54692116787305
 21
-1.587500000000003
 31
0.0
  0
LINE
  5
2DE
330
1F
100
AcDbEntity
  8
외형선
  6
Continuous
370
    15
100
AcDbLine
 10
-13.39739132263166
 20
-1.389062500000005
 30
0.0
 11
-13.28749999999999
 21
-1.389062500000005
 31
0.0
  0
LINE
  5
2DF
330
1F
100
AcDbEntity
  8
외형선
  6
Continuous
370
    15
100
AcDbLine
 10
-13.28749999999999
 20
1.389062499999997
 30
0.0
 11
-13.39739132263166
 21
1.389062499999997
 31
0.0
  0
SPLINE
  5
2E0
330
1F
100
AcDbEntity
  8
외형선
  6
Continuous
370
    15
100
AcDbSpline
210
0.0
220
0.0
230
1.0
 70
     8
 71
     3
 72
     9
 73
     5
 74
     0
 42
0.000000001
 43
0.00000001
 40
0.0
 40
0.0
 40
0.0
 40
0.0
 40
0.9109528692181204
 40
1.0
 40
1.0
 40
1.0
 40
1.0
 10
-14.28750000006529
 20
-1.084769007608071
 30
0.0
 10
-14.15860616423181
 20
-1.084816827418319
 30
0.0
 10
-14.01711274542947
 20
-1.084869321693116
 30
0.0
 10
-13.87202758777037
 20
-1.091646005242378
 30
0.0
 10
-13.8591081707618
 20
-1.092249449468664
 30
0.0
  0
LINE
  5
2E1
330
1F
100
AcDbEntity
  8
외형선
  6
Continuous
370
    15
100
AcDbLine
 10
-13.39734973489064
 20
1.114529938423555
 30
0.0
 11
-14.2875
 21
1.084668747126659
 31
0.0
  0
SPLINE
  5
2E2
330
1F
100
AcDbEntity
  8
0
  6
Continuous
 62
     1
370
    25
100
AcDbSpline
210
0.0
220
0.0
230
1.0
 70
     8
 71
     3
 72
     9
 73
     5
 74
     0
 42
0.000000001
 43
0.00000001
 40
0.0
 40
0.0
 40
0.0
 40
0.0
 40
0.4992987282724429
 40
1.0
 40
1.0
 40
1.0
 40
1.0
 10
-15.45198771020109
 20
-0.3559503807066416
 30
0.0
 10
-15.3876125533669
 20
-0.3865103386765124
 30
0.0
 10
-15.25868140816464
 20
-0.4477160983539189
 30
0.0
 10
-15.12973312115957
 20
-0.5149909256918018
 30
0.0
 10
-15.06516854986904
 20
-0.5486755172951273
 30
0.0
  0
LINE
  5
2E3
330
1F
100
AcDbEntity
  8
0
  6
Continuous
 62
     1
370
    25
100
AcDbLine
 10
-14.99112163471338
 20
-1.103793850967531
 30
0.0
 11
-14.2875
 21
-1.084668747126667
 31
0.0
  0
SPLINE
  5
2E4
330
1F
100
AcDbEntity
  8
0
  6
Continuous
 62
     1
370
    25
100
AcDbSpline
210
0.0
220
0.0
230
1.0
 70
     8
 71
     3
 72
    19
 73
    15
 74
     0
 42
0.000000001
 43
0.00000001
 40
0.0
 40
0.0
 40
0.0
 40
0.0
 40
0.1321472659453555
 40
0.2321227352109907
 40
0.3006800780506524
 40
0.3598798242437941
 40
0.4271946680938711
 40
0.5012769975894991
 40
0.5676093233900796
 40
0.620195923985699
 40
0.6678208317417923
 40
0.745533150999481
 40
0.855572572413672
 40
1.0
 40
1.0
 40
1.0
 40
1.0
 10
-18.53345294575132
 20
-0.9500595063203047
 30
0.0
 10
-18.42696333930199
 20
-0.9418531012001633
 30
0.0
 10
-18.23990946010343
 20
-0.927438174117793
 30
0.0
 10
-17.99820961487356
 20
-0.9178445137599635
 30
0.0
 10
-17.81311828161291
 20
-0.9142475022347977
 30
0.0
 10
-17.65376033073259
 20
-0.9138260122960528
 30
0.0
 10
-17.49077020634936
 20
-0.9160036176932035
 30
0.0
 10
-17.3224700849077
 20
-0.9213998039641961
 30
0.0
 10
-17.16652206295347
 20
-0.929175677686413
 30
0.0
 10
-17.03278660533513
 20
-0.937789422221034
 30
0.0
 10
-16.89140882083933
 20
-0.9485268018083385
 30
0.0
 10
-16.7010340066502
 20
-0.9659045480649947
 30
0.0
 10
-16.43239077051728
 20
-0.9964536764889796
 30
0.0
 10
-16.22502599412317
 20
-1.02726145801854
 30
0.0
 10
-16.10733223030186
 20
-1.044746991609391
 30
0.0
  0
SPLINE
  5
2E5
330
1F
100
AcDbEntity
  8
0
  6
Continuous
 62
     1
370
    25
100
AcDbSpline
210
0.0
220
0.0
230
1.0
 70
     8
 71
     3
 72
    12
 73
     8
 74
     0
 42
0.000000001
 43
0.00000001
 40
0.0
 40
0.0
 40
0.0
 40
0.0
 40
0.3091043196116253
 40
0.55642680221269
 40
0.7558562020190528
 40
0.9404005866074824
 40
1.0
 40
1.0
 40
1.0
 40
1.0
 10
-16.10733223030186
 20
1.04474699160939
 30
0.0
 10
-16.2110000145762
 20
1.029162302124358
 30
0.0
 10
-16.39761511516332
 20
1.001107893358639
 30
0.0
 10
-16.65660324648514
 20
0.9699224873612554
 30
0.0
 10
-16.87980729091263
 20
0.9494016006257585
 30
0.0
 10
-17.03563468840572
 20
0.9371275479021609
 30
0.0
 10
-17.12006924195223
 20
0.9325197204666612
 30
0.0
 10
-17.14068106950242
 20
0.9313948759510883
 30
0.0
  0
LINE
  5
2E6
330
1F
100
AcDbEntity
  8
0
  6
Continuous
 62
     1
370
    25
100
AcDbLine
 10
-14.2875
 20
1.084668747126659
 30
0.0
 11
-14.99112163471338
 21
1.103793850967523
 31
0.0
  0
LINE
  5
2E7
330
1F
100
AcDbEntity
  8
외형선
  6
Continuous
370
    15
100
AcDbLine
 10
-13.28749999999999
 20
-1.389062500000005
 30
0.0
 11
-13.28749999999999
 21
1.389062499999997
 31
0.0
  0
SPLINE
  5
2E8
330
1F
100
AcDbEntity
  8
외형선
  6
Continuous
370
    15
100
AcDbSpline
210
0.0
220
0.0
230
1.0
 70
     8
 71
     3
 72
    10
 73
     6
 74
     0
 42
0.000000001
 43
0.00000001
 40
0.0
 40
0.0
 40
0.0
 40
0.0
 40
0.5
 40
0.5
 40
1.0
 40
1.0
 40
1.0
 40
1.0
 10
-14.28749999999999
 20
-0.9256588340415103
 30
0.0
 10
-14.13842181859055
 20
-0.9896204076673424
 30
0.0
 10
-13.99292176185571
 20
-1.047808413681349
 30
0.0
 10
-13.69644347532953
 20
-1.152366956838005
 30
0.0
 10
-13.54602944085857
 20
-1.198575350508503
 30
0.0
 10
-13.3972774077861
 20
-1.237511058400596
 30
0.0
  0
LINE
  5
2E9
330
1F
100
AcDbEntity
  8
외형선
  6
Continuous
370
    15
100
AcDbLine
 10
-14.28749999999999
 20
-0.9256588340415032
 30
0.0
 11
-14.28749999999999
 21
-0.6036187775027567
 31
0.0
  0
SPLINE
  5
2EA
330
1F
100
AcDbEntity
  8
외형선
  6
Continuous
370
    15
100
AcDbSpline
210
0.0
220
0.0
230
1.0
 70
     8
 71
     3
 72
    10
 73
     6
 74
     0
 42
0.000000001
 43
0.00000001
 40
0.0
 40
0.0
 40
0.0
 40
0.0
 40
0.5
 40
0.5
 40
1.0
 40
1.0
 40
1.0
 40
1.0
 10
-13.39739132263167
 20
-1.015085944315981
 30
0.0
 10
-13.54612521717671
 20
-0.956577106267471
 30
0.0
 10
-13.69651970922294
 20
-0.8920070085892856
 30
0.0
 10
-13.99295904949993
 20
-0.7540742925139096
 30
0.0
 10
-14.13844084597154
 20
-0.6808710160409784
 30
0.0
 10
-14.28749999999999
 20
-0.6036187775027567
 30
0.0
  0
SPLINE
  5
2EB
330
1F
100
AcDbEntity
  8
외형선
  6
Continuous
370
    15
100
AcDbSpline
210
0.0
220
0.0
230
1.0
 70
     8
 71
     3
 72
     9
 73
     5
 74
     0
 42
0.000000001
 43
0.00000001
 40
0.0
 40
0.0
 40
0.0
 40
0.0
 40
0.1103082684613061
 40
1.0
 40
1.0
 40
1.0
 40
1.0
 10
-13.83999842385408
 20
1.099680740825629
 30
0.0
 10
-13.82374348494673
 20
1.106080128916172
 30
0.0
 10
-13.67638427847852
 20
1.164093804407695
 30
0.0
 10
-13.5286845949618
 20
1.20294524920558
 30
0.0
 10
-13.3972774077861
 20
1.237511058400588
 30
0.0
  0
LINE
  5
2EC
330
1F
100
AcDbEntity
  8
외형선
  6
Continuous
370
    15
100
AcDbLine
 10
-13.39739132263166
 20
-1.237538096753025
 30
0.0
 11
-13.39739132263166
 21
-1.389062500000005
 31
0.0
  0
LINE
  5
2ED
330
1F
100
AcDbEntity
  8
외형선
  6
Continuous
370
    15
100
AcDbLine
 10
-13.39739132263166
 20
1.389062499999997
 30
0.0
 11
-13.39739132263167
 21
-1.015409829964267
 31
0.0
  0
SPLINE
  5
2EE
330
1F
100
AcDbEntity
  8
외형선
  6
Continuous
370
    15
100
AcDbSpline
210
0.0
220
0.0
230
1.0
 70
    24
 71
     3
 72
    10
 73
     6
 74
     0
 42
0.000000001
 43
0.00000001
 40
0.0
 40
0.0
 40
0.0
 40
0.0
 40
0.5
 40
0.5
 40
1.0
 40
1.0
 40
1.0
 40
1.0
 10
-14.28750000000006
 20
-0.6036187775027212
 30
0.0
 10
-14.28750000000006
 20
-0.5923257307187096
 30
0.0
 10
-14.28750000000006
 20
-0.566476857941478
 30
0.0
 10
-14.28750000000006
 20
-0.4905760561921507
 30
0.0
 10
-14.28750000000006
 20
-0.4408182410861027
 30
0.0
 10
-14.28750000000006
 20
-0.3861784260944287
 30
0.0
  0
SPLINE
  5
2EF
330
1F
100
AcDbEntity
  8
외형선
  6
Continuous
370
    15
100
AcDbSpline
210
0.0
220
0.0
230
1.0
 70
     8
 71
     3
 72
    10
 73
     6
 74
     0
 42
0.000000001
 43
0.00000001
 40
0.0
 40
0.0
 40
0.0
 40
0.0
 40
0.5
 40
0.5
 40
1.0
 40
1.0
 40
1.0
 40
1.0
 10
-14.28750000084969
 20
-0.3861784257803474
 30
0.0
 10
-14.13843626386753
 20
-0.4412834752158158
 30
0.0
 10
-13.9929500692247
 20
-0.4937524235438925
 30
0.0
 10
-13.69650134834533
 20
-0.593145641454026
 30
0.0
 10
-13.5461021492818
 20
-0.6399593479468247
 30
0.0
 10
-13.3973638858064
 20
-0.6826839981640557
 30
0.0
  0
SPLINE
  5
2F0
330
1F
100
AcDbEntity
  8
외형선
  6
Continuous
370
    15
100
AcDbSpline
210
0.0
220
0.0
230
1.0
 70
     8
 71
     3
 72
    10
 73
     6
 74
     0
 42
0.000000001
 43
0.00000001
 40
0.0
 40
0.0
 40
0.0
 40
0.0
 40
0.5000000000000001
 40
0.5000000000000001
 40
1.0
 40
1.0
 40
1.0
 40
1.0
 10
-14.28750000006542
 20
1.019847826280905
 30
0.0
 10
-14.13843389957057
 20
0.9925935402271154
 30
0.0
 10
-13.99294543671196
 20
0.9597626256170987
 30
0.0
 10
-13.6964918780468
 20
0.8831992461901553
 30
0.0
 10
-13.54609025148423
 20
0.8394360437936573
 30
0.0
 10
-13.39734973489064
 20
0.7912908611290806
 30
0.0
  0
SPLINE
  5
2F1
330
1F
100
AcDbEntity
  8
외형선
  6
Continuous
370
    15
100
AcDbSpline
210
0.0
220
0.0
230
1.0
 70
    24
 71
     3
 72
    10
 73
     6
 74
     0
 42
0.000000001
 43
0.00000001
 40
0.0
 40
0.0
 40
0.0
 40
0.0
 40
0.4999999999999999
 40
0.4999999999999999
 40
1.0
 40
1.0
 40
1.0
 40
1.0
 10
-14.28749999999999
 20
-0.3861784260944571
 30
0.0
 10
-14.28749999999999
 20
-0.1446906429060459
 30
0.0
 10
-14.28749999999999
 20
0.1250413479778377
 30
0.0
 10
-14.28749999999999
 20
0.6248241526631194
 30
0.0
 10
-14.28749999999999
 20
0.8510026061861883
 30
0.0
 10
-14.28749999999999
 20
1.019847826268947
 30
0.0
  0
SPLINE
  5
2F2
330
1F
100
AcDbEntity
  8
외형선
  6
Continuous
370
    15
100
AcDbSpline
210
0.0
220
0.0
230
1.0
 70
    24
 71
     3
 72
    11
 73
     7
 74
     0
 42
0.000000001
 43
0.00000001
 40
0.0
 40
0.0
 40
0.0
 40
0.0
 40
0.2156913117166019
 40
0.595640092600323
 40
0.9264687118737669
 40
1.0
 40
1.0
 40
1.0
 40
1.0
 10
-14.28749999999999
 20
-1.079628944984226
 30
0.0
 10
-14.28749999999999
 20
-1.079999099092302
 30
0.0
 10
-14.28749999999999
 20
-1.081021294309413
 30
0.0
 10
-14.28749999999999
 20
-1.033891103215904
 30
0.0
 10
-14.28749999999999
 20
-0.9793435874394699
 30
0.0
 10
-14.28749999999999
 20
-0.933919101456031
 30
0.0
 10
-14.28749999999999
 20
-0.9256588340415103
 30
0.0
  0
SPLINE
  5
2F3
330
1F
100
AcDbEntity
  8
외형선
  6
Continuous
370
    15
100
AcDbSpline
210
0.0
220
0.0
230
1.0
 70
    24
 71
     3
 72
    10
 73
     6
 74
     0
 42
0.000000001
 43
0.00000001
 40
0.0
 40
0.0
 40
0.0
 40
0.0
 40
0.4048118037032389
 40
0.815009180585735
 40
1.0
 40
1.0
 40
1.0
 40
1.0
 10
-14.28749999999999
 20
1.019847826268947
 30
0.0
 10
-14.28749999999999
 20
1.03441856170615
 30
0.0
 10
-14.28749999999999
 20
1.063753880095017
 30
0.0
 10
-14.28749999999999
 20
1.084552482047623
 30
0.0
 10
-14.28749999999999
 20
1.081196086590093
 30
0.0
 10
-14.28749999999999
 20
1.080152883196898
 30
0.0
  0
SPLINE
  5
2F4
330
1F
100
AcDbEntity
  8
0
  6
Continuous
 62
     1
370
    25
100
AcDbSpline
210
0.0
220
0.0
230
1.0
 70
     8
 71
     3
 72
    28
 73
    24
 74
     0
 42
0.000000001
 43
0.00000001
 40
0.0
 40
0.0
 40
0.0
 40
0.0
 40
0.1249999999999999
 40
0.1249999999999999
 40
0.2499999999999999
 40
0.2499999999999999
 40
0.3124999999999997
 40
0.3124999999999997
 40
0.3749999999999994
 40
0.3749999999999994
 40
0.4999999999999993
 40
0.4999999999999993
 40
0.5624999999999994
 40
0.5624999999999994
 40
0.6249999999999996
 40
0.6249999999999996
 40
0.6874999999999996
 40
0.6874999999999996
 40
0.7499999999999997
 40
0.7499999999999997
 40
0.8749999999999998
 40
0.8749999999999998
 40
1.0
 40
1.0
 40
1.0
 40
1.0
 10
-19.04999999999999
 20
1.318138176167433
 30
0.0
 10
-18.85461677662041
 20
1.282187746419968
 30
0.0
 10
-18.65281946567394
 20
1.232335140385981
 30
0.0
 10
-18.25458380110804
 20
1.108856253052632
 30
0.0
 10
-18.0599230538601
 20
1.035673797327771
 30
0.0
 10
-17.76023697523304
 20
0.9102708832395795
 30
0.0
 10
-17.66007434996061
 20
0.8659848087576411
 30
0.0
 10
-17.46150957798138
 20
0.7734860865140721
 30
0.0
 10
-17.36416279720839
 20
0.7254587115952763
 30
0.0
 10
-17.06811179537112
 20
0.5755854379918294
 30
0.0
 10
-16.86591798516261
 20
0.4679009764709466
 30
0.0
 10
-16.56911453253951
 20
0.3020121149375644
 30
0.0
 10
-16.47193377785657
 20
0.2461383592528637
 30
0.0
 10
-16.27378307967741
 20
0.1327102279947102
 30
0.0
 10
-16.17370293849119
 20
0.0753204626690721
 30
0.0
 10
-15.97382183443369
 20
-0.0394997334131201
 30
0.0
 10
-15.87402672881801
 20
-0.0969267966376218
 30
0.0
 10
-15.67699463114013
 20
-0.2105073278805175
 30
0.0
 10
-15.57944365228073
 20
-0.2667256494709104
 30
0.0
 10
-15.2812551770066
 20
-0.4339599897420182
 30
0.0
 10
-15.07927051633834
 20
-0.5426794269981169
 30
0.0
 10
-14.68715818409458
 20
-0.7448807338513784
 30
0.0
 10
-14.48688810872182
 20
-0.8401119278775407
 30
0.0
 10
-14.28750000000005
 20
-0.9256588340414819
 30
0.0
  0
SPLINE
  5
2F5
330
1F
100
AcDbEntity
  8
0
  6
Continuous
 62
     1
370
    25
100
AcDbSpline
210
0.0
220
0.0
230
1.0
 70
     8
 71
     3
 72
    15
 73
    11
 74
     0
 42
0.000000001
 43
0.00000001
 40
0.0
 40
0.0
 40
0.0
 40
0.0
 40
0.130605835547164
 40
0.2607763282917706
 40
0.3917839759663235
 40
0.5217594314690155
 40
0.6528615531707466
 40
0.7828838762217737
 40
0.9137722524578038
 40
1.0
 40
1.0
 40
1.0
 40
1.0
 10
-19.04999999999999
 20
1.09593178597397
 30
0.0
 10
-18.89284732098643
 20
1.063257245338849
 30
0.0
 10
-18.57906579321101
 20
0.9980170767066344
 30
0.0
 10
-18.10830551129221
 20
0.849759895213619
 30
0.0
 10
-17.63707573269783
 20
0.6741302079616421
 30
0.0
 10
-17.1662883374054
 20
0.4689283575270441
 30
0.0
 10
-16.69498208527255
 20
0.2495064273215878
 30
0.0
 10
-16.2242078792091
 20
0.0173731666869902
 30
0.0
 10
-15.80613200674581
 20
-0.1881425084854595
 30
0.0
 10
-15.54509243142823
 20
-0.310460631042805
 30
0.0
 10
-15.44142046912847
 20
-0.3590393179140076
 30
0.0
  0
LINE
  5
2F6
330
1F
100
AcDbEntity
  8
0
  6
Continuous
 62
     1
370
    25
100
AcDbLine
 10
-19.04999999999997
 20
1.318138176167433
 30
0.0
 11
-19.04999999999999
 21
1.09593178597397
 31
0.0
  0
SPLINE
  5
2F7
330
1F
100
AcDbEntity
  8
0
  6
Continuous
 62
     1
370
    25
100
AcDbSpline
210
0.0
220
0.0
230
1.0
 70
     8
 71
     3
 72
    28
 73
    24
 74
     0
 42
0.000000001
 43
0.00000001
 40
0.0
 40
0.0
 40
0.0
 40
0.0
 40
0.1249999999999997
 40
0.1249999999999997
 40
0.2499999999999994
 40
0.2499999999999994
 40
0.3124999999999993
 40
0.3124999999999993
 40
0.3749999999999992
 40
0.3749999999999992
 40
0.4374999999999991
 40
0.4374999999999991
 40
0.499999999999999
 40
0.499999999999999
 40
0.6249999999999991
 40
0.6249999999999991
 40
0.6874999999999991
 40
0.6874999999999991
 40
0.7499999999999991
 40
0.7499999999999991
 40
0.8749999999999996
 40
0.8749999999999996
 40
1.0
 40
1.0
 40
1.0
 40
1.0
 10
-14.28749999999999
 20
-0.6036187775027567
 30
0.0
 10
-14.48688810872178
 20
-0.5002827708210059
 30
0.0
 10
-14.68715818409454
 20
-0.3905704218341665
 30
0.0
 10
-15.07927051633829
 20
-0.1670255378260531
 30
0.0
 10
-15.28125517700655
 20
-0.0512788309434352
 30
0.0
 10
-15.5794436522807
 20
0.1204744841419046
 30
0.0
 10
-15.6769946311401
 20
0.1772099144229347
 30
0.0
 10
-15.87402672881796
 20
0.289865607560937
 30
0.0
 10
-15.97382183443366
 20
0.3458415039256298
 30
0.0
 10
-16.17370293849116
 20
0.4557869370454913
 30
0.0
 10
-16.27378307967738
 20
0.5097532210039578
 30
0.0
 10
-16.47193377785655
 20
0.614457391823574
 30
0.0
 10
-16.56911453253948
 20
0.665053934565275
 30
0.0
 10
-16.86591798516258
 20
0.8122952237881226
 30
0.0
 10
-17.06811179537109
 20
0.9037708933280048
 30
0.0
 10
-17.36416279720838
 20
1.024778596613817
 30
0.0
 10
-17.46150957798137
 20
1.062446981411344
 30
0.0
 10
-17.66007434996059
 20
1.132673745992232
 30
0.0
 10
-17.76023697523302
 20
1.165079451761837
 30
0.0
 10
-18.05992305386009
 20
1.253004610860667
 30
0.0
 10
-18.25458380110804
 20
1.298947118362296
 30
0.0
 10
-18.65281946567393
 20
1.364239596990142
 30
0.0
 10
-18.85461677662041
 20
1.383203944022863
 30
0.0
 10
-19.04999999999999
 20
1.387888485529924
 30
0.0
  0
SPLINE
  5
2F8
330
1F
100
AcDbEntity
  8
0
  6
Continuous
 62
     1
370
    25
100
AcDbSpline
210
0.0
220
0.0
230
1.0
 70
     8
 71
     3
 72
    10
 73
     6
 74
     0
 42
0.000000001
 43
0.00000001
 40
0.0
 40
0.0
 40
0.0
 40
0.0
 40
0.0586833461833321
 40
0.5991635138139805
 40
1.0
 40
1.0
 40
1.0
 40
1.0
 10
-15.59583002155281
 20
0.1298016899664166
 30
0.0
 10
-15.57024091542543
 20
0.1198364370865722
 30
0.0
 10
-15.30897328602431
 20
0.0180900930236906
 30
0.0
 10
-14.87279351568163
 20
-0.1642875333758664
 30
0.0
 10
-14.46229897786669
 20
-0.319910305565774
 30
0.0
 10
-14.2875000008496
 20
-0.3861784257803759
 30
0.0
  0
SPLINE
  5
2F9
330
1F
100
AcDbEntity
  8
외형선
  6
Continuous
370
    15
100
AcDbSpline
210
0.0
220
0.0
230
1.0
 70
    24
 71
     3
 72
    10
 73
     6
 74
     0
 42
0.000000001
 43
0.00000001
 40
0.0
 40
0.0
 40
0.0
 40
0.0
 40
0.5
 40
0.5
 40
1.0
 40
1.0
 40
1.0
 40
1.0
 10
-14.28750000000006
 20
-0.6036187775027212
 30
0.0
 10
-14.28750000000006
 20
-0.5923257307187096
 30
0.0
 10
-14.28750000000006
 20
-0.566476857941478
 30
0.0
 10
-14.28750000000006
 20
-0.4905760561921507
 30
0.0
 10
-14.28750000000006
 20
-0.4408182410861027
 30
0.0
 10
-14.28750000000006
 20
-0.3861784260944287
 30
0.0
  0
LINE
  5
2FA
330
1F
100
AcDbEntity
  8
0
  6
Continuous
 62
     1
370
    25
100
AcDbLine
 10
-19.04999999999999
 20
1.387888485529924
 30
0.0
 11
-19.04999999999999
 21
1.318138176167433
 31
0.0
  0
SPLINE
  5
2FB
330
1F
100
AcDbEntity
  8
0
  6
Continuous
 62
     1
370
    25
100
AcDbSpline
210
0.0
220
0.0
230
1.0
 70
     8
 71
     3
 72
     8
 73
     4
 74
     0
 42
0.000000001
 43
0.00000001
 40
0.0
 40
0.0
 40
0.0
 40
0.0
 40
1.0
 40
1.0
 40
1.0
 40
1.0
 10
-18.19030511579319
 20
-0.3887621309163162
 30
0.0
 10
-18.14100288184698
 20
-0.4471223139970814
 30
0.0
 10
-18.09700384932705
 20
-0.5033065058620675
 30
0.0
 10
-18.0595522770981
 20
-0.5568041665294498
 30
0.0
  0
LINE
  5
2FC
330
1F
100
AcDbEntity
  8
0
  6
Continuous
 62
     1
370
    25
100
AcDbLine
 10
-18.07716518332104
 20
-0.5715831496581923
 30
0.0
 11
-19.04999999999999
 21
-0.0000000000000039
 31
0.0
  0
LINE
  5
2FD
330
1F
100
AcDbEntity
  8
0
  6
Continuous
 62
     1
370
    25
100
AcDbLine
 10
-19.04999999999999
 20
-0.0000000000000039
 30
0.0
 11
-19.04999999999999
 21
0.3712171547192998
 31
0.0
  0
SPLINE
  5
2FE
330
1F
100
AcDbEntity
  8
0
  6
Continuous
 62
     1
370
    25
100
AcDbSpline
210
0.0
220
0.0
230
1.0
 70
     8
 71
     3
 72
    10
 73
     6
 74
     0
 42
0.000000001
 43
0.00000001
 40
0.0
 40
0.0
 40
0.0
 40
0.0
 40
0.5
 40
0.5
 40
1.0
 40
1.0
 40
1.0
 40
1.0
 10
-19.04999999999999
 20
0.3712171547192998
 30
0.0
 10
-18.90118043403184
 20
0.2542174094430042
 30
0.0
 10
-18.75484885623701
 20
0.132416715750519
 30
0.0
 10
-18.46727693759562
 20
-0.1210089811809819
 30
0.0
 10
-18.32468493484972
 20
-0.2539670538550322
 30
0.0
 10
-18.19030511579319
 20
-0.3887621309163162
 30
0.0
  0
SPLINE
  5
2FF
330
1F
100
AcDbEntity
  8
0
  6
Continuous
 62
     1
370
    25
100
AcDbSpline
210
0.0
220
0.0
230
1.0
 70
     8
 71
     3
 72
    12
 73
     8
 74
     0
 42
0.000000001
 43
0.00000001
 40
0.0
 40
0.0
 40
0.0
 40
0.0
 40
0.1732047442469726
 40
0.3937592711378541
 40
0.614288399306356
 40
0.8349634969273934
 40
1.0
 40
1.0
 40
1.0
 40
1.0
 10
-18.19030511575265
 20
-0.3887621309340087
 30
0.0
 10
-18.00556698044327
 20
-0.4664853447337233
 30
0.0
 10
-17.58558799068149
 20
-0.6431793270453706
 30
0.0
 10
-16.93057328511992
 20
-0.86972564065459
 30
0.0
 10
-16.22491115979171
 20
-1.03804479485218
 30
0.0
 10
-15.57842231296358
 20
-1.121108730665715
 30
0.0
 10
-15.1669912443381
 20
-1.102607899374047
 30
0.0
 10
-14.99095001379366
 20
-1.094691848897935
 30
0.0
  0
SPLINE
  5
300
330
1F
100
AcDbEntity
  8
0
  6
Continuous
 62
     1
370
    25
100
AcDbSpline
210
0.0
220
0.0
230
1.0
 70
    24
 71
     3
 72
    10
 73
     6
 74
     0
 42
0.000000001
 43
0.00000001
 40
0.0
 40
0.0
 40
0.0
 40
0.0
 40
0.5
 40
0.5
 40
1.0
 40
1.0
 40
1.0
 40
1.0
 10
-19.04999999999999
 20
1.09593178597397
 30
0.0
 10
-19.04999999999999
 20
1.011920070038097
 30
0.0
 10
-19.04999999999999
 20
0.905768045613829
 30
0.0
 10
-19.04999999999999
 20
0.6589748048202356
 30
0.0
 10
-19.04999999999999
 20
0.5185473701134559
 30
0.0
 10
-19.04999999999999
 20
0.3712171547193425
 30
0.0
  0
SPLINE
  5
301
330
1F
100
AcDbEntity
  8
외형선
  6
Continuous
370
    15
100
AcDbSpline
210
0.0
220
0.0
230
1.0
 70
    24
 71
     3
 72
    11
 73
     7
 74
     0
 42
0.000000001
 43
0.00000001
 40
0.0
 40
0.0
 40
0.0
 40
0.0
 40
0.2489327111205732
 40
0.6127781013787872
 40
0.9295851926087229
 40
1.0
 40
1.0
 40
1.0
 40
1.0
 10
-14.28749999999999
 20
-1.080243887675163
 30
0.0
 10
-14.28749999999999
 20
-1.080877811093711
 30
0.0
 10
-14.28749999999999
 20
-1.082438290578648
 30
0.0
 10
-14.28749999999999
 20
-1.034122596172221
 30
0.0
 10
-14.28749999999999
 20
-0.9793341133145613
 30
0.0
 10
-14.28749999999999
 20
-0.9339176437087143
 30
0.0
 10
-14.28749999999999
 20
-0.9256588340415103
 30
0.0
  0
SPLINE
  5
302
330
1F
100
AcDbEntity
  8
0
  6
Continuous
 62
     1
370
    25
100
AcDbSpline
210
0.0
220
0.0
230
1.0
 70
    24
 71
     3
 72
     8
 73
     4
 74
     0
 42
0.000000001
 43
0.00000001
 40
0.0
 40
0.0
 40
0.0
 40
0.0
 40
1.0
 40
1.0
 40
1.0
 40
1.0
 10
-18.20454188518924
 20
-0.6784648932163829
 30
0.0
 10
-18.15874130942261
 20
-0.6400336469828897
 30
0.0
 10
-18.1101309745662
 20
-0.5992447329334606
 30
0.0
 10
-18.05955227709232
 20
-0.5568041665376992
 30
0.0
  0
LINE
  5
303
330
1F
100
AcDbEntity
  8
0
  6
Continuous
 62
     1
370
    25
100
AcDbLine
 10
-19.04999999999999
 20
-0.9723437499999971
 30
0.0
 11
-18.53129306218818
 21
-0.9418048239703051
 31
0.0
  0
SPLINE
  5
304
330
1F
100
AcDbEntity
  8
0
  6
Continuous
 62
     1
370
    25
100
AcDbSpline
210
0.0
220
0.0
230
1.0
 70
     8
 71
     3
 72
     8
 73
     4
 74
     0
 42
0.000000001
 43
0.00000001
 40
0.0
 40
0.0
 40
0.0
 40
0.0
 40
1.0
 40
1.0
 40
1.0
 40
1.0
 10
-19.04999999999999
 20
-0.9723437500000042
 30
0.0
 10
-18.76421599374738
 20
-0.8946687418752685
 30
0.0
 10
-18.4812496646462
 20
-0.79921439624847
 30
0.0
 10
-18.20454188518876
 20
-0.6784648932166814
 30
0.0
  0
SPLINE
  5
305
330
1F
100
AcDbEntity
  8
0
  6
Continuous
 62
     1
370
    25
100
AcDbSpline
210
0.0
220
0.0
230
1.0
 70
     8
 71
     3
 72
    10
 73
     6
 74
     0
 42
0.000000001
 43
0.00000001
 40
0.0
 40
0.0
 40
0.0
 40
0.0
 40
0.3243238826902952
 40
0.7122812787502468
 40
1.0
 40
1.0
 40
1.0
 40
1.0
 10
-16.1101038224282
 20
1.0381495807523
 30
0.0
 10
-15.91309713987748
 20
1.065463496847076
 30
0.0
 10
-15.48043035442347
 20
1.125450417706193
 30
0.0
 10
-14.87278496634934
 20
1.110032482171522
 30
0.0
 10
-14.46229587328976
 20
1.046781553586296
 30
0.0
 10
-14.28750000006529
 20
1.019847826280884
 30
0.0
  0
SPLINE
  5
306
330
1F
100
AcDbEntity
  8
외형선
  6
Continuous
370
    15
100
AcDbSpline
210
0.0
220
0.0
230
1.0
 70
    24
 71
     3
 72
    10
 73
     6
 74
     0
 42
0.000000001
 43
0.00000001
 40
0.0
 40
0.0
 40
0.0
 40
0.0
 40
0.4999999999999999
 40
0.4999999999999999
 40
1.0
 40
1.0
 40
1.0
 40
1.0
 10
-14.28749999999999
 20
-0.3861784260944571
 30
0.0
 10
-14.28749999999999
 20
-0.1446906429060459
 30
0.0
 10
-14.28749999999999
 20
0.1250413479778377
 30
0.0
 10
-14.28749999999999
 20
0.6248241526631194
 30
0.0
 10
-14.28749999999999
 20
0.8510026061861883
 30
0.0
 10
-14.28749999999999
 20
1.019847826268947
 30
0.0
  0
LINE
  5
307
330
1F
100
AcDbEntity
  8
0
  6
Continuous
 62
     1
370
    25
100
AcDbLine
 10
-19.04999999999999
 20
-0.0000000000000039
 30
0.0
 11
-19.04999999999999
 21
-0.9723437500000042
 31
0.0
  0
SPLINE
  5
308
330
1F
100
AcDbEntity
  8
외형선
  6
Continuous
370
    15
100
AcDbSpline
210
0.0
220
0.0
230
1.0
 70
    24
 71
     3
 72
    10
 73
     6
 74
     0
 42
0.000000001
 43
0.00000001
 40
0.0
 40
0.0
 40
0.0
 40
0.0
 40
0.4090907656614701
 40
0.8236240313569654
 40
1.0
 40
1.0
 40
1.0
 40
1.0
 10
-14.28749999999999
 20
1.019847826268947
 30
0.0
 10
-14.28749999999999
 20
1.034406581766926
 30
0.0
 10
-14.28749999999999
 20
1.063717780897516
 30
0.0
 10
-14.28749999999999
 20
1.084446426270002
 30
0.0
 10
-14.28749999999999
 20
1.081209925873924
 30
0.0
 10
-14.28749999999999
 20
1.080243887675163
 30
0.0
  0
SPLINE
  5
309
330
1F
100
AcDbEntity
  8
0
  6
Continuous
 62
     1
370
    25
100
AcDbSpline
210
0.0
220
0.0
230
1.0
 70
    24
 71
     3
 72
    10
 73
     6
 74
     0
 42
0.000000001
 43
0.00000001
 40
0.0
 40
0.0
 40
0.0
 40
0.0
 40
0.5
 40
0.5
 40
1.0
 40
1.0
 40
1.0
 40
1.0
 10
-19.04999999999999
 20
-0.9723437499999971
 30
0.0
 10
-19.04999999999999
 20
-1.031284806721413
 30
0.0
 10
-19.04999999999999
 20
-1.09977977316073
 30
0.0
 10
-19.04999999999999
 20
-1.243482028272187
 30
0.0
 10
-19.04999999999999
 20
-1.318322319417984
 30
0.0
 10
-19.04999999999999
 20
-1.387888485529924
 30
0.0
  0
SPLINE
  5
30A
330
1F
100
AcDbEntity
  8
0
  6
Continuous
 62
     1
370
    25
100
AcDbSpline
210
0.0
220
0.0
230
1.0
 70
     8
 71
     3
 72
    14
 73
    10
 74
     0
 42
0.000000001
 43
0.00000001
 40
0.0
 40
0.0
 40
0.0
 40
0.0
 40
0.0179225336429215
 40
0.2284019995346505
 40
0.3235983751745222
 40
0.5148101112792028
 40
0.7076878878611752
 40
0.9022528623968943
 40
1.0
 40
1.0
 40
1.0
 40
1.0
 10
-17.14016209871631
 20
-0.931144345800821
 30
0.0
 10
-17.15158600388177
 20
-0.9363249465812767
 30
0.0
 10
-17.29717048620276
 20
-1.002345722472793
 30
0.0
 10
-17.50249832995001
 20
-1.079067872192024
 30
0.0
 10
-17.81923641378988
 20
-1.185013594062756
 30
0.0
 10
-18.12471354082697
 20
-1.269695189931167
 30
0.0
 10
-18.49230288007137
 20
-1.342960899417708
 30
0.0
 10
-18.8021024606797
 20
-1.378537540447493
 30
0.0
 10
-18.98787796365945
 20
-1.385545179695495
 30
0.0
 10
-19.04999999999992
 20
-1.387888485529924
 30
0.0
  0
LINE
  5
30F
330
1F
100
AcDbEntity
  8
외형선
  6
Continuous
370
    15
100
AcDbLine
 10
-12.54692116787305
 20
-1.587500000000003
 30
0.0
 11
-12.54692116787305
 21
1.587500000000002
 31
0.0
  0
LINE
  5
33A
330
1F
100
AcDbEntity
  8
0
100
AcDbLine
 10
-12.54692116787305
 20
0.0000000000000032
 30
0.0
 11
-22.64364420125796
 21
0.0000000000000032
 31
0.0
  0
ENDSEC
  0
SECTION
  2
OBJECTS
  0
DICTIONARY
  5
C
330
0
100
AcDbDictionary
281
     1
  3
ACAD_GROUP
350
D
  3
ACAD_IMAGE_VARS
350
15A
  3
ACAD_LAYOUT
350
1A
  3
ACAD_MLINESTYLE
350
17
  3
ACAD_PLOTSETTINGS
350
19
  3
ACAD_PLOTSTYLENAME
350
E
  3
ACAD_SCALELIST
350
47
  3
APPDATA
350
158
  3
DWGPROPS
350
362
  0
DICTIONARY
  5
360
330
1F
100
AcDbDictionary
280
     1
281
     1
  3
DIM_BOUNDING_BOXES_V1
360
361
  0
DICTIONARY
  5
D
102
{ACAD_REACTORS
330
C
102
}
330
C
100
AcDbDictionary
281
     1
  0
RASTERVARIABLES
  5
15A
102
{ACAD_REACTORS
330
C
102
}
330
C
100
AcDbRasterVariables
 90
        0
 70
     1
 71
     1
 72
     1
  0
DICTIONARY
  5
1A
102
{ACAD_REACTORS
330
C
102
}
330
C
100
AcDbDictionary
281
     1
  3
Layout1
350
1E
  3
Layout2
350
26
  3
Model
350
22
  0
DICTIONARY
  5
17
102
{ACAD_REACTORS
330
C
102
}
330
C
100
AcDbDictionary
281
     1
  3
Standard
350
18
  0
DICTIONARY
  5
19
102
{ACAD_REACTORS
330
C
102
}
330
C
100
AcDbDictionary
281
     1
  0
ACDBDICTIONARYWDFLT
  5
E
102
{ACAD_REACTORS
330
C
102
}
330
C
100
AcDbDictionary
281
     1
  3
Normal
350
F
100
AcDbDictionaryWithDefault
340
F
  0
DICTIONARY
  5
47
102
{ACAD_REACTORS
330
C
102
}
330
C
100
AcDbDictionary
281
     1
  3
A0
350
48
  3
A1
350
49
  3
A2
350
4A
  3
A3
350
4B
  3
A4
350
4C
  3
A5
350
4D
  3
A6
350
4E
  3
A7
350
4F
  3
A8
350
50
  3
A9
350
51
  3
B0
350
52
  3
B1
350
53
  3
B2
350
54
  3
B3
350
55
  3
B4
350
56
  3
B5
350
57
  3
B6
350
58
  3
B7
350
59
  3
B8
350
5A
  3
B9
350
5B
  3
C0
350
5C
  3
C1
350
5D
  3
C2
350
5E
  3
C3
350
5F
  3
C4
350
60
  3
C5
350
61
  3
C6
350
62
  3
C7
350
63
  3
C8
350
64
  3
C9
350
65
  3
D0
350
66
  3
D1
350
67
  3
D2
350
68
  0
DICTIONARY
  5
158
102
{ACAD_REACTORS
330
C
102
}
330
C
100
AcDbDictionary
281
     1
  0
XRECORD
  5
362
102
{ACAD_REACTORS
330
C
102
}
330
C
100
AcDbXrecord
280
     1
  1
DWGPROPS COOKIE
  2

  3

  4

  6

  7

  8
12011056
  9

300
=
301
=
302
=
303
=
304
=
305
=
306
=
307
=
308
=
309
=
 40
0.0
 41
2458313.049108298
 42
2459719.259512963
  1

 90
        0
  0
DICTIONARY
  5
361
102
{ACAD_REACTORS
330
360
102
}
330
360
100
AcDbDictionary
281
     1
  0
LAYOUT
  5
1E
102
{ACAD_REACTORS
330
1A
102
}
330
1A
100
AcDbPlotSettings
  1

  2
none_device
  4

  6

 40
0.0
 41
0.0
 42
0.0
 43
0.0
 44
0.0
 45
0.0
 46
0.0
 47
0.0
 48
0.0
 49
0.0
140
0.0
141
0.0
142
1.0
143
1.0
 70
   688
 72
     1
 73
     0
 74
     5
  7

 75
    16
147
1.0
148
0.0
149
0.0
100
AcDbLayout
  1
Layout1
 70
     1
 71
     1
 10
0.0
 20
0.0
 11
420.0
 21
297.0
 12
0.0
 22
0.0
 32
0.0
 14
1.000000000000000E+20
 24
1.000000000000000E+20
 34
1.000000000000000E+20
 15
-1.000000000000000E+20
 25
-1.000000000000000E+20
 35
-1.000000000000000E+20
146
0.0
 13
0.0
 23
0.0
 33
0.0
 16
1.0
 26
0.0
 36
0.0
 17
0.0
 27
1.0
 37
0.0
 76
     0
330
1B
  0
LAYOUT
  5
26
102
{ACAD_REACTORS
330
1A
102
}
330
1A
100
AcDbPlotSettings
  1

  2
none_device
  4

  6

 40
0.0
 41
0.0
 42
0.0
 43
0.0
 44
0.0
 45
0.0
 46
0.0
 47
0.0
 48
0.0
 49
0.0
140
0.0
141
0.0
142
1.0
143
1.0
 70
   688
 72
     1
 73
     0
 74
     5
  7

 75
    16
147
1.0
148
0.0
149
0.0
100
AcDbLayout
  1
Layout2
 70
     1
 71
     2
 10
0.0
 20
0.0
 11
0.0
 21
0.0
 12
0.0
 22
0.0
 32
0.0
 14
0.0
 24
0.0
 34
0.0
 15
0.0
 25
0.0
 35
0.0
146
0.0
 13
0.0
 23
0.0
 33
0.0
 16
1.0
 26
0.0
 36
0.0
 17
0.0
 27
1.0
 37
0.0
 76
     0
330
23
  0
LAYOUT
  5
22
102
{ACAD_REACTORS
330
1A
102
}
330
1A
100
AcDbPlotSettings
  1

  2
none_device
  4
ANSI_A_(11.00_x_8.50_Inches)
  6

 40
6.35
 41
19.05
 42
6.35000508
 43
19.05000254
 44
279.4
 45
215.9
 46
96.06782957866224
 47
93.58433770087605
 48
0.0
 49
0.0
140
0.0
141
0.0
142
0.0851200155195541
143
1.0
 70
  1696
 72
     0
 73
     0
 74
     0
  7

 75
     0
147
0.0235690232323232
148
0.0
149
0.0
100
AcDbLayout
  1
Model
 70
     1
 71
     0
 10
0.0
 20
0.0
 11
420.0
 21
297.0
 12
0.0
 22
0.0
 32
0.0
 14
-51.84831462715433
 24
-39.99892507127611
 34
0.0
 15
81.21241335422454
 25
102.8053491874645
 35
0.0
146
0.0
 13
0.0
 23
0.0
 33
0.0
 16
1.0
 26
0.0
 36
0.0
 17
0.0
 27
1.0
 37
0.0
 76
     0
330
1F
331
29
  0
MLINESTYLE
  5
18
102
{ACAD_REACTORS
330
17
102
}
330
17
100
AcDbMlineStyle
  2
Standard
 70
     0
  3

 62
   256
 51
90.0
 52
90.0
 71
     2
 49
0.5
 62
   256
  6
BYLAYER
 49
-0.5
 62
   256
  6
BYLAYER
  0
ACDBPLACEHOLDER
  5
F
102
{ACAD_REACTORS
330
E
102
}
330
E
  0
SCALE
  5
48
102
{ACAD_REACTORS
330
47
102
}
330
47
100
AcDbScale
 70
     0
300
1:1
140
1.0
141
1.0
290
     1
  0
SCALE
  5
49
102
{ACAD_REACTORS
330
47
102
}
330
47
100
AcDbScale
 70
     0
300
1:2
140
1.0
141
2.0
290
     0
  0
SCALE
  5
4A
102
{ACAD_REACTORS
330
47
102
}
330
47
100
AcDbScale
 70
     0
300
1:4
140
1.0
141
4.0
290
     0
  0
SCALE
  5
4B
102
{ACAD_REACTORS
330
47
102
}
330
47
100
AcDbScale
 70
     0
300
1:5
140
1.0
141
5.0
290
     0
  0
SCALE
  5
4C
102
{ACAD_REACTORS
330
47
102
}
330
47
100
AcDbScale
 70
     0
300
1:8
140
1.0
141
8.0
290
     0
  0
SCALE
  5
4D
102
{ACAD_REACTORS
330
47
102
}
330
47
100
AcDbScale
 70
     0
300
1:10
140
1.0
141
10.0
290
     0
  0
SCALE
  5
4E
102
{ACAD_REACTORS
330
47
102
}
330
47
100
AcDbScale
 70
     0
300
1:16
140
1.0
141
16.0
290
     0
  0
SCALE
  5
4F
102
{ACAD_REACTORS
330
47
102
}
330
47
100
AcDbScale
 70
     0
300
1:20
140
1.0
141
20.0
290
     0
  0
SCALE
  5
50
102
{ACAD_REACTORS
330
47
102
}
330
47
100
AcDbScale
 70
     0
300
1:30
140
1.0
141
30.0
290
     0
  0
SCALE
  5
51
102
{ACAD_REACTORS
330
47
102
}
330
47
100
AcDbScale
 70
     0
300
1:40
140
1.0
141
40.0
290
     0
  0
SCALE
  5
52
102
{ACAD_REACTORS
330
47
102
}
330
47
100
AcDbScale
 70
     0
300
1:50
140
1.0
141
50.0
290
     0
  0
SCALE
  5
53
102
{ACAD_REACTORS
330
47
102
}
330
47
100
AcDbScale
 70
     0
300
1:100
140
1.0
141
100.0
290
     0
  0
SCALE
  5
54
102
{ACAD_REACTORS
330
47
102
}
330
47
100
AcDbScale
 70
     0
300
2:1
140
2.0
141
1.0
290
     0
  0
SCALE
  5
55
102
{ACAD_REACTORS
330
47
102
}
330
47
100
AcDbScale
 70
     0
300
4:1
140
4.0
141
1.0
290
     0
  0
SCALE
  5
56
102
{ACAD_REACTORS
330
47
102
}
330
47
100
AcDbScale
 70
     0
300
8:1
140
8.0
141
1.0
290
     0
  0
SCALE
  5
57
102
{ACAD_REACTORS
330
47
102
}
330
47
100
AcDbScale
 70
     0
300
10:1
140
10.0
141
1.0
290
     0
  0
SCALE
  5
58
102
{ACAD_REACTORS
330
47
102
}
330
47
100
AcDbScale
 70
     0
300
100:1
140
100.0
141
1.0
290
     0
  0
SCALE
  5
59
102
{ACAD_REACTORS
330
47
102
}
330
47
100
AcDbScale
 70
     0
300
1/128" = 1'-0"
140
0.0078125
141
12.0
290
     0
  0
SCALE
  5
5A
102
{ACAD_REACTORS
330
47
102
}
330
47
100
AcDbScale
 70
     0
300
1/64" = 1'-0"
140
0.015625
141
12.0
290
     0
  0
SCALE
  5
5B
102
{ACAD_REACTORS
330
47
102
}
330
47
100
AcDbScale
 70
     0
300
1/32" = 1'-0"
140
0.03125
141
12.0
290
     0
  0
SCALE
  5
5C
102
{ACAD_REACTORS
330
47
102
}
330
47
100
AcDbScale
 70
     0
300
1/16" = 1'-0"
140
0.0625
141
12.0
290
     0
  0
SCALE
  5
5D
102
{ACAD_REACTORS
330
47
102
}
330
47
100
AcDbScale
 70
     0
300
3/32" = 1'-0"
140
0.09375
141
12.0
290
     0
  0
SCALE
  5
5E
102
{ACAD_REACTORS
330
47
102
}
330
47
100
AcDbScale
 70
     0
300
1/8" = 1'-0"
140
0.125
141
12.0
290
     0
  0
SCALE
  5
5F
102
{ACAD_REACTORS
330
47
102
}
330
47
100
AcDbScale
 70
     0
300
3/16" = 1'-0"
140
0.1875
141
12.0
290
     0
  0
SCALE
  5
60
102
{ACAD_REACTORS
330
47
102
}
330
47
100
AcDbScale
 70
     0
300
1/4" = 1'-0"
140
0.25
141
12.0
290
     0
  0
SCALE
  5
61
102
{ACAD_REACTORS
330
47
102
}
330
47
100
AcDbScale
 70
     0
300
3/8" = 1'-0"
140
0.375
141
12.0
290
     0
  0
SCALE
  5
62
102
{ACAD_REACTORS
330
47
102
}
330
47
100
AcDbScale
 70
     0
300
1/2" = 1'-0"
140
0.5
141
12.0
290
     0
  0
SCALE
  5
63
102
{ACAD_REACTORS
330
47
102
}
330
47
100
AcDbScale
 70
     0
300
3/4" = 1'-0"
140
0.75
141
12.0
290
     0
  0
SCALE
  5
64
102
{ACAD_REACTORS
330
47
102
}
330
47
100
AcDbScale
 70
     0
300
1" = 1'-0"
140
1.0
141
12.0
290
     0
  0
SCALE
  5
65
102
{ACAD_REACTORS
330
47
102
}
330
47
100
AcDbScale
 70
     0
300
1-1/2" = 1'-0"
140
1.5
141
12.0
290
     0
  0
SCALE
  5
66
102
{ACAD_REACTORS
330
47
102
}
330
47
100
AcDbScale
 70
     0
300
3" = 1'-0"
140
3.0
141
12.0
290
     0
  0
SCALE
  5
67
102
{ACAD_REACTORS
330
47
102
}
330
47
100
AcDbScale
 70
     0
300
6" = 1'-0"
140
6.0
141
12.0
290
     0
  0
SCALE
  5
68
102
{ACAD_REACTORS
330
47
102
}
330
47
100
AcDbScale
 70
     0
300
1'-0" = 1'-0"
140
12.0
141
12.0
290
     0
  0
ENDSEC
  0
EOF
