  0
SECTION
  2
HEADER
  9
$ACADVER
  1
AC1015
  9
$ACADMAINTVER
 70
     6
  9
$DWGCODEPAGE
  3
ANSI_949
  9
$INSBASE
 10
0.0
 20
0.0
 30
0.0
  9
$EXTMIN
 10
-39.28294653049104
 20
-39.9989250712761
 30
0.0
  9
$EXTMAX
 10
81.21241335422454
 20
37.26342805282424
 30
0.0
  9
$LIMMIN
 10
0.0
 20
0.0
  9
$LIMMAX
 10
420.0
 20
297.0
  9
$ORTHOMODE
 70
     0
  9
$REGENMODE
 70
     1
  9
$FILLMODE
 70
     1
  9
$QTEXTMODE
 70
     0
  9
$MIRRTEXT
 70
     1
  9
$LTSCALE
 40
1.0
  9
$ATTMODE
 70
     1
  9
$TEXTSIZE
 40
3.5
  9
$TRACEWID
 40
1.0
  9
$TEXTSTYLE
  7
Standard
  9
$CLAYER
  8
0
  9
$CELTYPE
  6
ByLayer
  9
$CECOLOR
 62
   256
  9
$CELTSCALE
 40
1.0
  9
$DISPSILH
 70
     0
  9
$DIMSCALE
 40
1.0
  9
$DIMASZ
 40
3.302
  9
$DIMEXO
 40
1.0
  9
$DIMDLI
 40
3.75
  9
$DIMRND
 40
0.0
  9
$DIMDLE
 40
0.0
  9
$DIMEXE
 40
1.0
  9
$DIMTP
 40
0.0
  9
$DIMTM
 40
0.0
  9
$DIMTXT
 40
3.5
  9
$DIMCEN
 40
2.5
  9
$DIMTSZ
 40
0.0
  9
$DIMTOL
 70
     0
  9
$DIMLIM
 70
     0
  9
$DIMTIH
 70
     1
  9
$DIMTOH
 70
     1
  9
$DIMSE1
 70
     0
  9
$DIMSE2
 70
     0
  9
$DIMTAD
 70
     1
  9
$DIMZIN
 70
     0
  9
$DIMBLK
  1

  9
$DIMASO
 70
     1
  9
$DIMSHO
 70
     1
  9
$DIMPOST
  1

  9
$DIMAPOST
  1

  9
$DIMALT
 70
     0
  9
$DIMALTD
 70
     3
  9
$DIMALTF
 40
0.0393700787401575
  9
$DIMLFAC
 40
1.0
  9
$DIMTOFL
 70
     1
  9
$DIMTVP
 40
0.0
  9
$DIMTIX
 70
     0
  9
$DIMSOXD
 70
     0
  9
$DIMSAH
 70
     0
  9
$DIMBLK1
  1

  9
$DIMBLK2
  1

  9
$DIMSTYLE
  2
ISO-25
  9
$DIMCLRD
 70
     0
  9
$DIMCLRE
 70
     0
  9
$DIMCLRT
 70
     0
  9
$DIMTFAC
 40
1.0
  9
$DIMGAP
 40
1.524
  9
$DIMJUST
 70
     0
  9
$DIMSD1
 70
     0
  9
$DIMSD2
 70
     0
  9
$DIMTOLJ
 70
     0
  9
$DIMTZIN
 70
     0
  9
$DIMALTZ
 70
     0
  9
$DIMALTTZ
 70
     0
  9
$DIMUPT
 70
     0
  9
$DIMDEC
 70
     2
  9
$DIMTDEC
 70
     2
  9
$DIMALTU
 70
     2
  9
$DIMALTTD
 70
     3
  9
$DIMTXSTY
  7
Standard
  9
$DIMAUNIT
 70
     0
  9
$DIMADEC
 70
     2
  9
$DIMALTRND
 40
0.0
  9
$DIMAZIN
 70
     0
  9
$DIMDSEP
 70
    44
  9
$DIMATFIT
 70
     3
  9
$DIMFRAC
 70
     0
  9
$DIMLDRBLK
  1

  9
$DIMLUNIT
 70
     2
  9
$DIMLWD
 70
    -2
  9
$DIMLWE
 70
    -2
  9
$DIMTMOVE
 70
     0
  9
$LUNITS
 70
     2
  9
$LUPREC
 70
     2
  9
$SKETCHINC
 40
1.0
  9
$FILLETRAD
 40
10.0
  9
$AUNITS
 70
     0
  9
$AUPREC
 70
     2
  9
$MENU
  1
.
  9
$ELEVATION
 40
0.0
  9
$PELEVATION
 40
0.0
  9
$THICKNESS
 40
0.0
  9
$LIMCHECK
 70
     0
  9
$CHAMFERA
 40
0.0
  9
$CHAMFERB
 40
0.0
  9
$CHAMFERC
 40
0.0
  9
$CHAMFERD
 40
0.0
  9
$SKPOLY
 70
     0
  9
$TDCREATE
 40
2458313.424531725
  9
$TDUCREATE
 40
2458313.049531725
  9
$TDUPDATE
 40
2459719.638556215
  9
$TDUUPDATE
 40
2459719.263556215
  9
$TDINDWG
 40
0.0019960417
  9
$TDUSRTIMER
 40
0.0004980671
  9
$USRTIMER
 70
     1
  9
$ANGBASE
 50
0.0
  9
$ANGDIR
 70
     0
  9
$PDMODE
 70
     0
  9
$PDSIZE
 40
-1.0
  9
$PLINEWID
 40
0.0
  9
$SPLFRAME
 70
     0
  9
$SPLINETYPE
 70
     6
  9
$SPLINESEGS
 70
     8
  9
$HANDSEED
  5
352
  9
$SURFTAB1
 70
     6
  9
$SURFTAB2
 70
     6
  9
$SURFTYPE
 70
     6
  9
$SURFU
 70
     6
  9
$SURFV
 70
     6
  9
$UCSBASE
  2

  9
$UCSNAME
  2

  9
$UCSORG
 10
0.0
 20
0.0
 30
0.0
  9
$UCSXDIR
 10
1.0
 20
0.0
 30
0.0
  9
$UCSYDIR
 10
0.0
 20
1.0
 30
0.0
  9
$UCSORTHOREF
  2

  9
$UCSORTHOVIEW
 70
     0
  9
$UCSORGTOP
 10
0.0
 20
0.0
 30
0.0
  9
$UCSORGBOTTOM
 10
0.0
 20
0.0
 30
0.0
  9
$UCSORGLEFT
 10
0.0
 20
0.0
 30
0.0
  9
$UCSORGRIGHT
 10
0.0
 20
0.0
 30
0.0
  9
$UCSORGFRONT
 10
0.0
 20
0.0
 30
0.0
  9
$UCSORGBACK
 10
0.0
 20
0.0
 30
0.0
  9
$PUCSBASE
  2

  9
$PUCSNAME
  2

  9
$PUCSORG
 10
0.0
 20
0.0
 30
0.0
  9
$PUCSXDIR
 10
1.0
 20
0.0
 30
0.0
  9
$PUCSYDIR
 10
0.0
 20
1.0
 30
0.0
  9
$PUCSORTHOREF
  2

  9
$PUCSORTHOVIEW
 70
     0
  9
$PUCSORGTOP
 10
0.0
 20
0.0
 30
0.0
  9
$PUCSORGBOTTOM
 10
0.0
 20
0.0
 30
0.0
  9
$PUCSORGLEFT
 10
0.0
 20
0.0
 30
0.0
  9
$PUCSORGRIGHT
 10
0.0
 20
0.0
 30
0.0
  9
$PUCSORGFRONT
 10
0.0
 20
0.0
 30
0.0
  9
$PUCSORGBACK
 10
0.0
 20
0.0
 30
0.0
  9
$USERI1
 70
     0
  9
$USERI2
 70
     0
  9
$USERI3
 70
     0
  9
$USERI4
 70
     0
  9
$USERI5
 70
     0
  9
$USERR1
 40
0.0
  9
$USERR2
 40
0.0
  9
$USERR3
 40
0.0
  9
$USERR4
 40
0.0
  9
$USERR5
 40
0.0
  9
$WORLDVIEW
 70
     1
  9
$SHADEDGE
 70
     3
  9
$SHADEDIF
 70
    70
  9
$TILEMODE
 70
     1
  9
$MAXACTVP
 70
    64
  9
$PINSBASE
 10
0.0
 20
0.0
 30
0.0
  9
$PLIMCHECK
 70
     0
  9
$PEXTMIN
 10
1.000000000000000E+20
 20
1.000000000000000E+20
 30
1.000000000000000E+20
  9
$PEXTMAX
 10
-1.000000000000000E+20
 20
-1.000000000000000E+20
 30
-1.000000000000000E+20
  9
$PLIMMIN
 10
0.0
 20
0.0
  9
$PLIMMAX
 10
0.0
 20
0.0
  9
$UNITMODE
 70
     0
  9
$VISRETAIN
 70
     1
  9
$PLINEGEN
 70
     0
  9
$PSLTSCALE
 70
     1
  9
$TREEDEPTH
 70
  3020
  9
$CMLSTYLE
  2
Standard
  9
$CMLJUST
 70
     0
  9
$CMLSCALE
 40
20.0
  9
$PROXYGRAPHICS
 70
     1
  9
$MEASUREMENT
 70
     1
  9
$CELWEIGHT
370
    -1
  9
$ENDCAPS
280
     0
  9
$JOINSTYLE
280
     0
  9
$LWDISPLAY
290
     1
  9
$INSUNITS
 70
     4
  9
$HYPERLINKBASE
  1

  9
$STYLESHEET
  1

  9
$XEDIT
290
     1
  9
$CEPSNTYPE
380
     0
  9
$PSTYLEMODE
290
     1
  9
$FINGERPRINTGUID
  2
{BC24F1A0-EEAE-45C4-AE46-3AC2AE058388}
  9
$VERSIONGUID
  2
{FAEB1C32-E019-11D5-929B-00C0DF256EC4}
  9
$EXTNAMES
290
     1
  9
$PSVPSCALE
 40
0.0
  9
$OLESTARTUP
290
     0
  0
ENDSEC
  0
SECTION
  2
CLASSES
  0
CLASS
  1
ACDBDICTIONARYWDFLT
  2
AcDbDictionaryWithDefault
  3
ObjectDBX Classes
 90
        0
280
     0
281
     0
  0
CLASS
  1
VISUALSTYLE
  2
AcDbVisualStyle
  3
ObjectDBX Classes
 90
     4095
280
     0
281
     0
  0
CLASS
  1
MATERIAL
  2
AcDbMaterial
  3
ObjectDBX Classes
 90
     1153
280
     0
281
     0
  0
CLASS
  1
SCALE
  2
AcDbScale
  3
ObjectDBX Classes
 90
     1153
280
     0
281
     0
  0
CLASS
  1
SUN
  2
AcDbSun
  3
SCENEOE
 90
     1153
280
     0
281
     0
  0
CLASS
  1
ACDBPLACEHOLDER
  2
AcDbPlaceHolder
  3
ObjectDBX Classes
 90
        0
280
     0
281
     0
  0
CLASS
  1
LAYOUT
  2
AcDbLayout
  3
ObjectDBX Classes
 90
        0
280
     0
281
     0
  0
CLASS
  1
TABLESTYLE
  2
AcDbTableStyle
  3
ObjectDBX Classes
 90
     4095
280
     0
281
     0
  0
CLASS
  1
MLEADERSTYLE
  2
AcDbMLeaderStyle
  3
ACDB_MLEADERSTYLE_CLASS
 90
     4095
280
     0
281
     0
  0
CLASS
  1
RASTERVARIABLES
  2
AcDbRasterVariables
  3
ISM
 90
        0
280
     0
281
     0
  0
ENDSEC
  0
SECTION
  2
TABLES
  0
TABLE
  2
VPORT
  5
8
330
0
100
AcDbSymbolTable
 70
     1
  0
VPORT
  5
29
330
8
100
AcDbSymbolTableRecord
100
AcDbViewportTableRecord
  2
*Active
 70
     0
 10
0.0
 20
0.0
 11
1.0
 21
1.0
 12
-1.936200501275664
 22
4.70678105142947
 13
0.0
 23
0.0
 14
10.0
 24
10.0
 15
10.0
 25
10.0
 16
0.0
 26
0.0
 36
1.0
 17
0.0
 27
0.0
 37
0.0
 40
88.57430384362559
 41
1.519944979367263
 42
50.0
 43
0.0
 44
0.0
 50
0.0
 51
0.0
 71
    16
 72
  2000
 73
     1
 74
     3
 75
     0
 76
     0
 77
     0
 78
     0
281
     0
 65
     1
110
0.0
120
0.0
130
0.0
111
1.0
121
0.0
131
0.0
112
0.0
122
1.0
132
0.0
 79
     0
146
0.0
  0
ENDTAB
  0
TABLE
  2
LTYPE
  5
5
330
0
100
AcDbSymbolTable
 70
     6
  0
LTYPE
  5
14
330
5
100
AcDbSymbolTableRecord
100
AcDbLinetypeTableRecord
  2
ByBlock
 70
     0
  3

 72
    65
 73
     0
 40
0.0
  0
LTYPE
  5
15
330
5
100
AcDbSymbolTableRecord
100
AcDbLinetypeTableRecord
  2
ByLayer
 70
     0
  3

 72
    65
 73
     0
 40
0.0
  0
LTYPE
  5
16
330
5
100
AcDbSymbolTableRecord
100
AcDbLinetypeTableRecord
  2
Continuous
 70
     0
  3
Solid line
 72
    65
 73
     0
 40
0.0
  0
LTYPE
  5
6A
330
5
100
AcDbSymbolTableRecord
100
AcDbLinetypeTableRecord
  2
HIDDEN
 70
     0
  3
Hidden __ __ __ __ __ __ __ __ __ __ __ __ __ __
 72
    65
 73
     2
 40
1.905
 49
1.27
 74
     0
 49
-0.635
 74
     0
  0
LTYPE
  5
6B
330
5
100
AcDbSymbolTableRecord
100
AcDbLinetypeTableRecord
  2
PHANTOM
 70
     0
  3
Phantom ______  __  __  ______  __  __  ______
 72
    65
 73
     6
 40
12.7
 49
6.35
 74
     0
 49
-1.27
 74
     0
 49
1.27
 74
     0
 49
-1.27
 74
     0
 49
1.27
 74
     0
 49
-1.27
 74
     0
  0
LTYPE
  5
6C
330
5
100
AcDbSymbolTableRecord
100
AcDbLinetypeTableRecord
  2
CENTER
 70
     0
  3
Center ____ _ ____ _ ____ _ ____ _ ____ _ ____
 72
    65
 73
     4
 40
10.16
 49
6.35
 74
     0
 49
-1.27
 74
     0
 49
1.27
 74
     0
 49
-1.27
 74
     0
  0
LTYPE
  5
6D
330
5
100
AcDbSymbolTableRecord
100
AcDbLinetypeTableRecord
  2
CENTERX2
 70
     0
  3
Center (2x) ________  __  ________  __  _____
 72
    65
 73
     4
 40
20.32
 49
12.7
 74
     0
 49
-2.54
 74
     0
 49
2.54
 74
     0
 49
-2.54
 74
     0
  0
LTYPE
  5
6E
330
5
100
AcDbSymbolTableRecord
100
AcDbLinetypeTableRecord
  2
DOT2
 70
     0
  3
Dot (.5x) ........................................
 72
    65
 73
     2
 40
0.635
 49
0.0
 74
     0
 49
-0.635
 74
     0
  0
ENDTAB
  0
TABLE
  2
LAYER
  5
2
102
{ACAD_XDICTIONARY
360
214
102
}
330
0
100
AcDbSymbolTable
 70
    18
  0
LAYER
  5
10
330
2
100
AcDbSymbolTableRecord
100
AcDbLayerTableRecord
  2
0
 70
     0
 62
     7
  6
Continuous
370
    -3
390
F
  0
LAYER
  5
6F
330
2
100
AcDbSymbolTableRecord
100
AcDbLayerTableRecord
  2
FORMAT
 70
     0
 62
     2
  6
Continuous
370
    -3
390
F
  0
LAYER
  5
70
330
2
100
AcDbSymbolTableRecord
100
AcDbLayerTableRecord
  2
외형선
 70
     0
 62
     4
  6
Continuous
370
    30
390
F
  0
LAYER
  5
71
330
2
100
AcDbSymbolTableRecord
100
AcDbLayerTableRecord
  2
숨은선
 70
     0
 62
     2
  6
HIDDEN
370
    15
390
F
  0
LAYER
  5
72
330
2
100
AcDbSymbolTableRecord
100
AcDbLayerTableRecord
  2
중심선
 70
     0
 62
     1
  6
CENTERX2
370
    -3
390
F
  0
LAYER
  5
73
330
2
100
AcDbSymbolTableRecord
100
AcDbLayerTableRecord
  2
파단선
 70
     0
 62
     4
  6
Continuous
370
    -3
390
F
  0
LAYER
  5
74
330
2
100
AcDbSymbolTableRecord
100
AcDbLayerTableRecord
  2
해칭선
 70
     0
 62
   100
  6
Continuous
370
    -3
390
F
  0
LAYER
  5
75
330
2
100
AcDbSymbolTableRecord
100
AcDbLayerTableRecord
  2
가는실선
 70
     0
 62
     4
  6
Continuous
370
    -3
390
F
  0
LAYER
  5
76
330
2
100
AcDbSymbolTableRecord
100
AcDbLayerTableRecord
  2
치수_보조선
 70
     0
 62
     4
  6
Continuous
370
    -3
390
F
  0
LAYER
  5
77
330
2
100
AcDbSymbolTableRecord
100
AcDbLayerTableRecord
  2
치수문자_일반주서
 70
     0
 62
     7
  6
Continuous
370
    15
390
F
  0
LAYER
  5
78
330
2
100
AcDbSymbolTableRecord
100
AcDbLayerTableRecord
  2
개별주서
 70
     0
 62
   100
  6
Continuous
370
    30
390
F
  0
LAYER
  5
79
330
2
100
AcDbSymbolTableRecord
100
AcDbLayerTableRecord
  2
중간선
 70
     0
 62
     2
  6
Continuous
370
    15
390
F
  0
LAYER
  5
7A
330
2
100
AcDbSymbolTableRecord
100
AcDbLayerTableRecord
  2
윤곽선
 70
     0
 62
     3
  6
Continuous
370
    40
390
F
  0
LAYER
  5
7B
330
2
100
AcDbSymbolTableRecord
100
AcDbLayerTableRecord
  2
중심마크
 70
     0
 62
   100
  6
Continuous
370
    30
390
F
  0
LAYER
  5
7C
330
2
100
AcDbSymbolTableRecord
100
AcDbLayerTableRecord
  2
가상선
 70
     0
 62
     4
  6
PHANTOM
370
    -3
390
F
  0
LAYER
  5
7D
330
2
100
AcDbSymbolTableRecord
100
AcDbLayerTableRecord
  2
특수지정선
 70
     0
 62
     5
  6
CENTERX2
370
    60
390
F
  0
LAYER
  5
7E
330
2
100
AcDbSymbolTableRecord
100
AcDbLayerTableRecord
  2
참조1
 70
     0
 62
    -4
  6
Continuous
370
    -3
390
F
  0
LAYER
  5
15C
330
2
100
AcDbSymbolTableRecord
100
AcDbLayerTableRecord
  2
Defpoints
 70
     0
 62
     7
  6
Continuous
290
     0
370
    -3
390
F
  0
ENDTAB
  0
TABLE
  2
STYLE
  5
3
330
0
100
AcDbSymbolTable
 70
     2
  0
STYLE
  5
11
330
3
100
AcDbSymbolTableRecord
100
AcDbTextStyleTableRecord
  2
Standard
 70
     0
 40
0.0
 41
1.0
 50
0.0
 71
     0
 42
3.5
  3
txt
  4

  0
STYLE
  5
94
330
3
100
AcDbSymbolTableRecord
100
AcDbTextStyleTableRecord
  2
SLDTEXTSTYLE0
 70
     0
 40
0.0
 41
0.75
 50
0.0
 71
     0
 42
3.5
  3
TXT
  4

  0
ENDTAB
  0
TABLE
  2
VIEW
  5
6
330
0
100
AcDbSymbolTable
 70
     0
  0
ENDTAB
  0
TABLE
  2
UCS
  5
7
330
0
100
AcDbSymbolTable
 70
     0
  0
ENDTAB
  0
TABLE
  2
APPID
  5
9
330
0
100
AcDbSymbolTable
 70
     3
  0
APPID
  5
12
330
9
100
AcDbSymbolTableRecord
100
AcDbRegAppTableRecord
  2
ACAD
 70
     0
  0
APPID
  5
168
330
9
100
AcDbSymbolTableRecord
100
AcDbRegAppTableRecord
  2
PE_URL
 70
     0
  0
APPID
  5
169
330
9
100
AcDbSymbolTableRecord
100
AcDbRegAppTableRecord
  2
ACAD_DSTYLE_DIMRADIAL_EXTENSION
 70
     0
  0
ENDTAB
  0
TABLE
  2
DIMSTYLE
  5
A
330
0
100
AcDbSymbolTable
 70
     4
100
AcDbDimStyleTable
  0
DIMSTYLE
105
27
330
A
100
AcDbSymbolTableRecord
100
AcDbDimStyleTableRecord
  2
ISO-25
 70
     0
 41
2.5
 42
0.625
 43
3.75
 44
1.25
 73
     0
 74
     0
 77
     1
 78
     8
140
2.5
141
2.5
143
0.03937007874016
147
0.625
171
     3
172
     1
178
     0
271
     2
272
     2
274
     3
278
    44
283
     0
284
     8
340
11
  0
DIMSTYLE
105
D8
102
{ACAD_REACTORS
330
D7
330
EC
330
100
330
115
102
}
330
A
100
AcDbSymbolTableRecord
100
AcDbDimStyleTableRecord
  2
SLDDIMSTYLE0
 70
     0
 41
3.302
 44
0.0
 45
0.000000001
 73
     0
 74
     0
 77
     1
 78
    12
 79
     3
140
3.5
143
0.0393700787401575
147
0.875
148
0.000000001
170
     1
172
     1
173
     1
178
     0
271
     2
272
     2
276
     2
284
    12
289
     0
340
94
  0
DIMSTYLE
105
101
102
{ACAD_REACTORS
102
}
330
A
100
AcDbSymbolTableRecord
100
AcDbDimStyleTableRecord
  2
SLDDIMSTYLE1
 70
     0
 41
3.302
 44
0.0
 45
0.000000001
 73
     0
 74
     0
 77
     1
 78
    12
 79
     3
140
3.5
143
0.0393700787401575
147
0.875
148
0.000000001
170
     1
173
     1
178
     0
271
     2
272
     2
276
     2
284
    12
340
94
  0
DIMSTYLE
105
116
102
{ACAD_REACTORS
102
}
330
A
100
AcDbSymbolTableRecord
100
AcDbDimStyleTableRecord
  2
SLDDIMSTYLE2
 70
     0
 41
3.302
 44
0.0
 45
0.000000001
 73
     0
 74
     0
 77
     1
 78
     4
 79
     1
140
3.5
143
0.0393700787401575
147
0.875
148
0.000000001
170
     1
173
     1
178
     0
271
     2
272
     2
276
     2
284
    12
340
94
  0
ENDTAB
  0
TABLE
  2
BLOCK_RECORD
  5
1
330
0
100
AcDbSymbolTable
 70
    20
  0
BLOCK_RECORD
  5
1F
102
{ACAD_XDICTIONARY
360
34F
102
}
330
1
100
AcDbSymbolTableRecord
100
AcDbBlockTableRecord
  2
*Model_Space
340
22
  0
BLOCK_RECORD
  5
1B
330
1
100
AcDbSymbolTableRecord
100
AcDbBlockTableRecord
  2
*Paper_Space
340
1E
  0
BLOCK_RECORD
  5
23
330
1
100
AcDbSymbolTableRecord
100
AcDbBlockTableRecord
  2
*Paper_Space0
340
26
  0
BLOCK_RECORD
  5
7F
330
1
100
AcDbSymbolTableRecord
100
AcDbBlockTableRecord
  2
블럭10
340
0
102
{BLKREFS
331
D0
102
}
  0
BLOCK_RECORD
  5
D9
330
1
100
AcDbSymbolTableRecord
100
AcDbBlockTableRecord
  2
_D
340
0
  0
BLOCK_RECORD
  5
ED
330
1
100
AcDbSymbolTableRecord
100
AcDbBlockTableRecord
  2
_D_1
340
0
  0
BLOCK_RECORD
  5
102
330
1
100
AcDbSymbolTableRecord
100
AcDbBlockTableRecord
  2
_D_2
340
0
  0
BLOCK_RECORD
  5
117
330
1
100
AcDbSymbolTableRecord
100
AcDbBlockTableRecord
  2
_D_3
340
0
  0
BLOCK_RECORD
  5
130
330
1
100
AcDbSymbolTableRecord
100
AcDbBlockTableRecord
  2
SW_DOWELSYMBOL_0
340
0
102
{BLKREFS
331
136
102
}
  0
BLOCK_RECORD
  5
1F2
330
1
100
AcDbSymbolTableRecord
100
AcDbBlockTableRecord
  2
_D_4
340
0
  0
BLOCK_RECORD
  5
20C
330
1
100
AcDbSymbolTableRecord
100
AcDbBlockTableRecord
  2
*D8
340
0
  0
BLOCK_RECORD
  5
218
330
1
100
AcDbSymbolTableRecord
100
AcDbBlockTableRecord
  2
*D9
340
0
  0
BLOCK_RECORD
  5
224
330
1
100
AcDbSymbolTableRecord
100
AcDbBlockTableRecord
  2
*D10
340
0
  0
BLOCK_RECORD
  5
230
330
1
100
AcDbSymbolTableRecord
100
AcDbBlockTableRecord
  2
*D11
340
0
  0
BLOCK_RECORD
  5
28B
330
1
100
AcDbSymbolTableRecord
100
AcDbBlockTableRecord
  2
*D12
340
0
  0
BLOCK_RECORD
  5
297
330
1
100
AcDbSymbolTableRecord
100
AcDbBlockTableRecord
  2
*D13
340
0
  0
BLOCK_RECORD
  5
2A3
330
1
100
AcDbSymbolTableRecord
100
AcDbBlockTableRecord
  2
*D14
340
0
  0
BLOCK_RECORD
  5
2B1
330
1
100
AcDbSymbolTableRecord
100
AcDbBlockTableRecord
  2
*D15
340
0
  0
BLOCK_RECORD
  5
2BF
330
1
100
AcDbSymbolTableRecord
100
AcDbBlockTableRecord
  2
*D16
340
0
  0
BLOCK_RECORD
  5
300
330
1
100
AcDbSymbolTableRecord
100
AcDbBlockTableRecord
  2
*D17
340
0
  0
BLOCK_RECORD
  5
30F
330
1
100
AcDbSymbolTableRecord
100
AcDbBlockTableRecord
  2
*D18
340
0
  0
BLOCK_RECORD
  5
31E
330
1
100
AcDbSymbolTableRecord
100
AcDbBlockTableRecord
  2
*D19
340
0
  0
ENDTAB
  0
ENDSEC
  0
SECTION
  2
BLOCKS
  0
BLOCK
  5
20
330
1F
100
AcDbEntity
  8
0
100
AcDbBlockBegin
  2
*Model_Space
 70
     0
 10
0.0
 20
0.0
 30
0.0
  3
*Model_Space
  1
*Model_Space
  0
ENDBLK
  5
21
330
1F
100
AcDbEntity
  8
0
100
AcDbBlockEnd
  0
BLOCK
  5
1C
330
1B
100
AcDbEntity
 67
     1
  8
0
100
AcDbBlockBegin
  2
*Paper_Space
 70
     0
 10
0.0
 20
0.0
 30
0.0
  3
*Paper_Space
  1
*Paper_Space
  0
ENDBLK
  5
1D
330
1B
100
AcDbEntity
 67
     1
  8
0
100
AcDbBlockEnd
  0
BLOCK
  5
24
330
23
100
AcDbEntity
  8
0
100
AcDbBlockBegin
  2
*Paper_Space0
 70
     0
 10
0.0
 20
0.0
 30
0.0
  3
*Paper_Space0
  1
*Paper_Space0
  0
ENDBLK
  5
25
330
23
100
AcDbEntity
  8
0
100
AcDbBlockEnd
  0
BLOCK
  5
80
330
7F
100
AcDbEntity
  8
0
100
AcDbBlockBegin
  2
블럭10
 70
     2
 10
0.0
 20
0.0
 30
0.0
  3
블럭10
  1
블럭10
  0
ELLIPSE
  5
82
330
7F
100
AcDbEntity
  8
중심선
100
AcDbEllipse
 10
20.54032771741204
 20
12.0471743016438
 30
0.0
 11
6.600054785286829
 21
-1.261213355974178E-13
 31
0.0
210
0.0
220
0.0
230
1.0
 40
0.636358354079598
 41
0.9219305317359503
 42
6.513795318482858
  0
ELLIPSE
  5
83
330
7F
100
AcDbEntity
  8
중심선
100
AcDbEllipse
 10
20.54032771746488
 20
12.04717430159265
 30
0.0
 11
3.960054785062283
 21
1.540847449632565E-10
 31
0.0
210
0.0
220
0.0
230
1.0
 40
0.3939339440162632
 41
1.131841032648279
 42
5.62031148352944
  0
LINE
  5
84
330
7F
100
AcDbEntity
  8
중심선
100
AcDbLine
 10
2.268634060543552
 20
16.24717430164393
 30
0.0
 11
5.714909304380834
 21
16.24717430164393
 31
0.0
  0
LINE
  5
85
330
7F
100
AcDbEntity
  8
중심선
100
AcDbLine
 10
5.245725140726316
 20
7.84717430164391
 30
0.0
 11
8.692000384563599
 21
7.84717430164391
 31
0.0
  0
LINE
  5
86
330
7F
100
AcDbEntity
  8
중심선
100
AcDbLine
 10
15.74043728645272
 20
16.24717430164393
 30
0.0
 11
8.692000384563599
 21
7.84717430164391
 31
0.0
  0
LINE
  5
87
330
7F
100
AcDbEntity
  8
중심선
100
AcDbLine
 10
0.1404042013395286
 20
13.71084872107135
 30
0.0
 11
3.58671253028996
 21
13.71088815037384
 31
0.0
  0
LINE
  5
88
330
7F
100
AcDbEntity
  8
중심선
100
AcDbLine
 10
2.750260043222114
 20
10.84717430164391
 30
0.0
 11
6.196535287059397
 21
10.84717430164391
 31
0.0
  0
LINE
  5
89
330
7F
100
AcDbEntity
  8
중심선
100
AcDbLine
 10
12.29416204261559
 20
16.24717430164393
 30
0.0
 11
5.245725140726316
 21
7.84717430164391
 31
0.0
  0
LINE
  5
8A
330
7F
100
AcDbEntity
  8
중심선
100
AcDbLine
 10
10.72767329541681
 20
16.24717430164393
 30
0.0
 11
6.196535287059397
 21
10.84717430164391
 31
0.0
  0
LINE
  5
8B
330
7F
100
AcDbEntity
  8
중심선
100
AcDbLine
 10
7.28139805157953
 20
16.24717430164393
 30
0.0
 11
2.750260043222114
 21
10.84717430164391
 31
0.0
  0
LINE
  5
8C
330
7F
100
AcDbEntity
  8
중심선
100
AcDbLine
 10
5.714909304380834
 20
16.24717430164393
 30
0.0
 11
3.58671253028996
 21
13.71088815037384
 31
0.0
  0
LINE
  5
8D
330
7F
100
AcDbEntity
  8
중심선
100
AcDbLine
 10
2.268634060543552
 20
16.24717430164393
 30
0.0
 11
0.1404042013395286
 21
13.71084872107135
 31
0.0
  0
LINE
  5
8E
330
7F
100
AcDbEntity
  8
중심선
100
AcDbLine
 10
7.28139805157953
 20
16.24717430164393
 30
0.0
 11
10.72767329541681
 21
16.24717430164393
 31
0.0
  0
LINE
  5
8F
330
7F
100
AcDbEntity
  8
중심선
100
AcDbLine
 10
12.29416204261559
 20
16.24717430164393
 30
0.0
 11
15.74043728645272
 21
16.24717430164393
 31
0.0
  0
LINE
  5
90
330
7F
100
AcDbEntity
  8
중심선
100
AcDbLine
 10
19.22036997980202
 20
11.08717430171403
 30
0.0
 11
23.66174974927406
 21
11.08717430171406
 31
0.0
  0
LINE
  5
91
330
7F
100
AcDbEntity
  8
중심선
100
AcDbLine
 10
19.22039502424796
 20
13.00717430171391
 30
0.0
 11
19.22036997980202
 21
11.08717430171403
 31
0.0
  0
LINE
  5
92
330
7F
100
AcDbEntity
  8
중심선
100
AcDbLine
 10
19.22039502424796
 20
13.00717430171391
 30
0.0
 11
26.96566020931264
 21
13.00717430171391
 31
0.0
  0
LINE
  5
93
330
7F
100
AcDbEntity
  8
중심선
100
AcDbLine
 10
22.22332737316547
 20
13.45928029700563
 30
0.0
 11
24.52862924686651
 21
15.39360700705356
 31
0.0
  0
ATTDEF
  5
95
330
7F
100
AcDbEntity
  8
FORMAT
 62
     2
100
AcDbText
 10
4.408487351596664
 20
2.075366912832191
 30
0.0
 40
4.233333333333333
  1
E5022009
 41
0.75
  7
SLDTEXTSTYLE0
 11
4.408487351596664
 21
-0.0412997538344756
 31
0.0
100
AcDbAttributeDefinition
  3

  2
AUTOATTR0
 70
     0
 74
     1
  0
ENDBLK
  5
81
330
7F
100
AcDbEntity
  8
0
100
AcDbBlockEnd
  0
BLOCK
  5
DA
330
D9
100
AcDbEntity
  8
0
100
AcDbBlockBegin
  2
_D
 70
     0
 10
0.0
 20
0.0
 30
0.0
  3
_D
  1
_D
  0
LINE
  5
DC
330
D9
100
AcDbEntity
  8
치수문자_일반주서
 62
     0
370
    -2
100
AcDbLine
 10
-14.30326350361915
 20
2.381249999999997
 30
0.0
 11
-34.90794653049093
 21
2.38124999999992
 31
0.0
  0
LINE
  5
DD
330
D9
100
AcDbEntity
  8
치수문자_일반주서
 62
     0
370
    -2
100
AcDbLine
 10
-14.30326350361915
 20
-2.381250000000007
 30
0.0
 11
-34.90794653049092
 21
-2.381250000000083
 31
0.0
  0
LINE
  5
DE
330
D9
100
AcDbEntity
  8
치수문자_일반주서
 62
     0
370
    -2
100
AcDbLine
 10
-34.90794653049093
 20
2.38124999999992
 30
0.0
 11
-34.90794653049104
 21
36.98524999999992
 31
0.0
  0
LINE
  5
DF
330
D9
100
AcDbEntity
  8
치수문자_일반주서
 62
     0
370
    -2
100
AcDbLine
 10
-34.90794653049093
 20
2.38124999999992
 30
0.0
 11
-34.90794653049092
 21
-2.381250000000083
 31
0.0
  0
LINE
  5
E0
330
D9
100
AcDbEntity
  8
치수문자_일반주서
 62
     0
370
    -2
100
AcDbLine
 10
-34.90794653049094
 20
5.683249999999919
 30
0.0
 11
-34.90794653049095
 21
8.985249999999919
 31
0.0
  0
LINE
  5
E1
330
D9
100
AcDbEntity
  8
치수문자_일반주서
 62
     0
370
    -2
100
AcDbLine
 10
-34.90794653049091
 20
-5.683250000000083
 30
0.0
 11
-34.9079465304909
 21
-8.985250000000082
 31
0.0
  0
SOLID
  5
E2
330
D9
100
AcDbEntity
  8
치수문자_일반주서
 62
     0
100
AcDbTrace
 10
-35.45827986382427
 20
5.683249999999918
 30
0.0
 11
-34.3576131971576
 21
5.683249999999921
 31
0.0
 12
-34.90794653049093
 22
2.38124999999992
 32
0.0
 13
-34.90794653049093
 23
2.38124999999992
 33
0.0
  0
SOLID
  5
E3
330
D9
100
AcDbEntity
  8
치수문자_일반주서
 62
     0
100
AcDbTrace
 10
-34.35761319715758
 20
-5.683250000000081
 30
0.0
 11
-35.45827986382425
 21
-5.683250000000085
 31
0.0
 12
-34.90794653049092
 22
-2.381250000000083
 32
0.0
 13
-34.90794653049092
 23
-2.381250000000083
 33
0.0
  0
MTEXT
  5
E4
330
D9
100
AcDbEntity
  8
치수문자_일반주서
 62
     0
100
AcDbMText
 10
-39.282946530491
 20
22.98524999999991
 30
0.0
 40
3.5
 41
0.0
 71
     2
 72
     1
  1
\A1;%%c4.76 [3/16]
  7
SLDTEXTSTYLE0
 11
-2.983906501879683E-15
 21
1.0
 31
0.0
 73
     1
 44
1.0
  0
POINT
  5
2C9
330
D9
100
AcDbEntity
  8
Defpoints
 62
     0
100
AcDbPoint
 10
-14.24076350361915
 20
2.381249999999998
 30
0.0
  0
POINT
  5
2CA
330
D9
100
AcDbEntity
  8
Defpoints
 62
     0
100
AcDbPoint
 10
-14.24076350361915
 20
-2.381250000000006
 30
0.0
  0
POINT
  5
2CB
330
D9
100
AcDbEntity
  8
Defpoints
 62
     0
100
AcDbPoint
 10
-34.90794653049092
 20
-2.381250000000084
 30
0.0
  0
ENDBLK
  5
DB
330
D9
100
AcDbEntity
  8
0
100
AcDbBlockEnd
  0
BLOCK
  5
EE
330
ED
100
AcDbEntity
  8
0
100
AcDbBlockBegin
  2
_D_1
 70
     0
 10
0.0
 20
0.0
 30
0.0
  3
_D_1
  1
_D_1
  0
LINE
  5
F0
330
ED
100
AcDbEntity
  8
치수문자_일반주서
 62
     0
370
    -2
100
AcDbLine
 10
25.46250000000001
 20
-1.784428052824191
 30
0.0
 11
38.28850027588551
 21
-1.784428052824143
 31
0.0
  0
LINE
  5
F1
330
ED
100
AcDbEntity
  8
치수문자_일반주서
 62
     0
370
    -2
100
AcDbLine
 10
25.46250000000001
 20
1.784428052824193
 30
0.0
 11
38.2885002758855
 21
1.784428052824239
 31
0.0
  0
LINE
  5
F2
330
ED
100
AcDbEntity
  8
치수문자_일반주서
 62
     0
370
    -2
100
AcDbLine
 10
38.2885002758855
 20
1.784428052824239
 30
0.0
 11
38.28850027588535
 21
37.26342805282424
 31
0.0
  0
LINE
  5
F3
330
ED
100
AcDbEntity
  8
치수문자_일반주서
 62
     0
370
    -2
100
AcDbLine
 10
38.28850027588551
 20
-1.784428052824143
 30
0.0
 11
38.2885002758855
 21
1.784428052824239
 31
0.0
  0
LINE
  5
F4
330
ED
100
AcDbEntity
  8
치수문자_일반주서
 62
     0
370
    -2
100
AcDbLine
 10
38.28850027588553
 20
-5.086428052824143
 30
0.0
 11
38.28850027588554
 21
-8.388428052824143
 31
0.0
  0
LINE
  5
F5
330
ED
100
AcDbEntity
  8
치수문자_일반주서
 62
     0
370
    -2
100
AcDbLine
 10
38.28850027588548
 20
5.086428052824239
 30
0.0
 11
38.28850027588547
 21
8.388428052824239
 31
0.0
  0
SOLID
  5
F6
330
ED
100
AcDbEntity
  8
치수문자_일반주서
 62
     0
100
AcDbTrace
 10
38.83883360921886
 20
-5.086428052824141
 30
0.0
 11
37.73816694255219
 21
-5.086428052824145
 31
0.0
 12
38.28850027588551
 22
-1.784428052824143
 32
0.0
 13
38.28850027588551
 23
-1.784428052824143
 33
0.0
  0
SOLID
  5
F7
330
ED
100
AcDbEntity
  8
치수문자_일반주서
 62
     0
100
AcDbTrace
 10
37.73816694255215
 20
5.086428052824237
 30
0.0
 11
38.83883360921882
 21
5.086428052824241
 31
0.0
 12
38.2885002758855
 22
1.784428052824239
 32
0.0
 13
38.2885002758855
 23
1.784428052824239
 33
0.0
  0
MTEXT
  5
F8
330
ED
100
AcDbEntity
  8
치수문자_일반주서
 62
     0
100
AcDbMText
 10
33.91350027588541
 20
22.82592805282422
 30
0.0
 40
3.5
 41
0.0
 71
     2
 72
     1
  1
\A1;%%c3.57 [9/64]
  7
SLDTEXTSTYLE0
 11
-3.981907450039989E-15
 21
1.0
 31
0.0
 73
     1
 44
1.0
  0
POINT
  5
F9
330
ED
100
AcDbEntity
  8
Defpoints
 62
     0
100
AcDbPoint
 10
25.40000000000001
 20
-1.784428052824191
 30
0.0
  0
POINT
  5
FA
330
ED
100
AcDbEntity
  8
Defpoints
 62
     0
100
AcDbPoint
 10
25.40000000000001
 20
1.784428052824193
 30
0.0
  0
POINT
  5
FB
330
ED
100
AcDbEntity
  8
Defpoints
 62
     0
100
AcDbPoint
 10
38.2885002758855
 20
1.784428052824241
 30
0.0
  0
ENDBLK
  5
EF
330
ED
100
AcDbEntity
  8
0
100
AcDbBlockEnd
  0
BLOCK
  5
103
330
102
100
AcDbEntity
  8
0
100
AcDbBlockBegin
  2
_D_2
 70
     0
 10
0.0
 20
0.0
 30
0.0
  3
_D_2
  1
_D_2
  0
LINE
  5
105
330
102
100
AcDbEntity
  8
치수문자_일반주서
 62
     0
370
    -2
100
AcDbLine
 10
25.40000000000001
 20
1.846928052824193
 30
0.0
 11
25.40000000000001
 21
15.95769619268846
 31
0.0
  0
LINE
  5
106
330
102
100
AcDbEntity
  8
치수문자_일반주서
 62
     0
370
    -2
100
AcDbLine
 10
17.46250000000001
 20
1.790949055667567
 30
0.0
 11
17.46250000000001
 21
15.95769619268846
 31
0.0
  0
LINE
  5
107
330
102
100
AcDbEntity
  8
치수문자_일반주서
 62
     0
370
    -2
100
AcDbLine
 10
17.46250000000001
 20
15.95769619268846
 30
0.0
 11
-14.5165
 21
15.95769619268846
 31
0.0
  0
LINE
  5
108
330
102
100
AcDbEntity
  8
치수문자_일반주서
 62
     0
370
    -2
100
AcDbLine
 10
25.40000000000001
 20
15.95769619268846
 30
0.0
 11
17.46250000000001
 21
15.95769619268846
 31
0.0
  0
LINE
  5
109
330
102
100
AcDbEntity
  8
치수문자_일반주서
 62
     0
370
    -2
100
AcDbLine
 10
28.70200000000001
 20
15.95769619268846
 30
0.0
 11
32.004
 21
15.95769619268846
 31
0.0
  0
LINE
  5
10A
330
102
100
AcDbEntity
  8
치수문자_일반주서
 62
     0
370
    -2
100
AcDbLine
 10
14.16050000000001
 20
15.95769619268846
 30
0.0
 11
10.85850000000001
 21
15.95769619268846
 31
0.0
  0
SOLID
  5
10B
330
102
100
AcDbEntity
  8
치수문자_일반주서
 62
     0
100
AcDbTrace
 10
28.70200000000001
 20
16.50802952602179
 30
0.0
 11
28.70200000000001
 21
15.40736285935513
 31
0.0
 12
25.40000000000001
 22
15.95769619268846
 32
0.0
 13
25.40000000000001
 23
15.95769619268846
 33
0.0
  0
SOLID
  5
10C
330
102
100
AcDbEntity
  8
치수문자_일반주서
 62
     0
100
AcDbTrace
 10
14.16050000000001
 20
15.40736285935513
 30
0.0
 11
14.16050000000001
 21
16.50802952602179
 31
0.0
 12
17.46250000000001
 22
15.95769619268846
 32
0.0
 13
17.46250000000001
 23
15.95769619268846
 33
0.0
  0
MTEXT
  5
10D
330
102
100
AcDbEntity
  8
치수문자_일반주서
 62
     0
100
AcDbMText
 10
-1.828999999999995
 20
20.33269619268846
 30
0.0
 40
3.5
 41
0.0
 71
     2
 72
     1
  1
\A1;7.94 [5/16]
  7
SLDTEXTSTYLE0
 73
     1
 44
1.0
  0
POINT
  5
10E
330
102
100
AcDbEntity
  8
Defpoints
 62
     0
100
AcDbPoint
 10
25.40000000000001
 20
1.784428052824193
 30
0.0
  0
POINT
  5
10F
330
102
100
AcDbEntity
  8
Defpoints
 62
     0
100
AcDbPoint
 10
17.46250000000001
 20
1.728449055667567
 30
0.0
  0
POINT
  5
110
330
102
100
AcDbEntity
  8
Defpoints
 62
     0
100
AcDbPoint
 10
17.46250000000001
 20
15.95769619268846
 30
0.0
  0
ENDBLK
  5
104
330
102
100
AcDbEntity
  8
0
100
AcDbBlockEnd
  0
BLOCK
  5
118
330
117
100
AcDbEntity
  8
0
100
AcDbBlockBegin
  2
_D_3
 70
     0
 10
0.0
 20
0.0
 30
0.0
  3
_D_3
  1
_D_3
  0
LINE
  5
11A
330
117
100
AcDbEntity
  8
치수문자_일반주서
 62
     0
370
    -2
100
AcDbLine
 10
-25.39999999999999
 20
1.846928052824185
 30
0.0
 11
-25.39999999999999
 21
27.89468996488094
 31
0.0
  0
LINE
  5
11B
330
117
100
AcDbEntity
  8
치수문자_일반주서
 62
     0
370
    -2
100
AcDbLine
 10
25.40000000000001
 20
1.846928052824193
 30
0.0
 11
25.40000000000001
 21
27.89468996488094
 31
0.0
  0
LINE
  5
11C
330
117
100
AcDbEntity
  8
치수문자_일반주서
 62
     0
370
    -2
100
AcDbLine
 10
-22.09799999999999
 20
27.89468996488094
 30
0.0
 11
22.09800000000001
 21
27.89468996488094
 31
0.0
  0
SOLID
  5
11D
330
117
100
AcDbEntity
  8
치수문자_일반주서
 62
     0
100
AcDbTrace
 10
-22.09799999999999
 20
28.44502329821427
 30
0.0
 11
-22.09799999999999
 21
27.3443566315476
 31
0.0
 12
-25.39999999999999
 22
27.89468996488094
 32
0.0
 13
-25.39999999999999
 23
27.89468996488094
 33
0.0
  0
SOLID
  5
11E
330
117
100
AcDbEntity
  8
치수문자_일반주서
 62
     0
100
AcDbTrace
 10
22.09800000000001
 20
27.3443566315476
 30
0.0
 11
22.09800000000001
 21
28.44502329821427
 31
0.0
 12
25.40000000000001
 22
27.89468996488094
 32
0.0
 13
25.40000000000001
 23
27.89468996488094
 33
0.0
  0
MTEXT
  5
11F
330
117
100
AcDbEntity
  8
치수문자_일반주서
 62
     0
100
AcDbMText
 10
4.26733810707978
 20
32.26968996488094
 30
0.0
 40
3.5
 41
0.0
 71
     2
 72
     1
  1
\A1;50.8 [2]
  7
SLDTEXTSTYLE0
 73
     1
 44
1.0
  0
POINT
  5
120
330
117
100
AcDbEntity
  8
Defpoints
 62
     0
100
AcDbPoint
 10
-25.39999999999999
 20
1.784428052824185
 30
0.0
  0
POINT
  5
121
330
117
100
AcDbEntity
  8
Defpoints
 62
     0
100
AcDbPoint
 10
25.40000000000001
 20
1.784428052824193
 30
0.0
  0
POINT
  5
122
330
117
100
AcDbEntity
  8
Defpoints
 62
     0
100
AcDbPoint
 10
25.40000000000001
 20
27.89468996488094
 30
0.0
  0
ENDBLK
  5
119
330
117
100
AcDbEntity
  8
0
100
AcDbBlockEnd
  0
BLOCK
  5
131
330
130
100
AcDbEntity
  8
0
100
AcDbBlockBegin
  2
SW_DOWELSYMBOL_0
 70
     0
 10
0.0
 20
0.0
 30
0.0
  3
SW_DOWELSYMBOL_0
  1
SW_DOWELSYMBOL_0
  0
CIRCLE
  5
133
330
130
100
AcDbEntity
  8
해칭선
 62
     0
100
AcDbCircle
 10
0.0
 20
0.0
 30
0.0
 40
3.000000000000001
  0
HATCH
  5
134
330
130
100
AcDbEntity
  8
0
  6
Continuous
 62
     0
370
     0
100
AcDbHatch
 10
0.0
 20
0.0
 30
0.0
210
0.0
220
0.0
230
1.0
  2
SOLID
 70
     1
 71
     0
 91
        1
 92
        0
 93
        3
 72
     2
 10
0.0
 20
0.0
 40
3.000000000000001
 50
0.0
 51
90.0
 73
     1
 72
     1
 10
0.0
 20
3.000000000000001
 11
0.0
 21
0.0
 72
     1
 10
0.0
 20
0.0
 11
3.000000000000001
 21
0.0
 97
        0
 75
     0
 76
     1
 98
        1
 10
0.0
 20
0.0
  0
HATCH
  5
135
330
130
100
AcDbEntity
  8
0
  6
Continuous
 62
     0
370
     0
100
AcDbHatch
 10
0.0
 20
0.0
 30
0.0
210
0.0
220
0.0
230
1.0
  2
SOLID
 70
     1
 71
     0
 91
        1
 92
        0
 93
        3
 72
     2
 10
0.0
 20
0.0
 40
3.000000000000001
 50
180.0
 51
270.0000000000007
 73
     1
 72
     1
 10
0.0
 20
-3.000000000000001
 11
0.0
 21
0.0
 72
     1
 10
0.0
 20
0.0
 11
-3.000000000000001
 21
0.0
 97
        0
 75
     0
 76
     1
 98
        1
 10
0.0
 20
0.0
  0
ENDBLK
  5
132
330
130
100
AcDbEntity
  8
0
100
AcDbBlockEnd
  0
BLOCK
  5
1F3
330
1F2
100
AcDbEntity
  8
0
100
AcDbBlockBegin
  2
_D_4
 70
     0
 10
0.0
 20
0.0
 30
0.0
  3
_D_4
  1
_D_4
  0
LINE
  5
1F4
330
1F2
100
AcDbEntity
  8
치수문자_일반주서
 62
     0
370
    -2
100
AcDbLine
 10
102.4375000000001
 20
36.22143424691529
 30
0.0
 11
117.3750000000001
 21
36.22143424691535
 31
0.0
  0
LINE
  5
1F5
330
1F2
100
AcDbEntity
  8
치수문자_일반주서
 62
     0
370
    -2
100
AcDbLine
 10
102.4375000000001
 20
22.22143424691529
 30
0.0
 11
117.3750000000001
 21
22.22143424691535
 31
0.0
  0
LINE
  5
1F6
330
1F2
100
AcDbEntity
  8
치수문자_일반주서
 62
     0
370
    -2
100
AcDbLine
 10
117.3750000000001
 20
36.22143424691535
 30
0.0
 11
117.3750000000001
 21
22.22143424691535
 31
0.0
  0
LINE
  5
1F7
330
1F2
100
AcDbEntity
  8
치수문자_일반주서
 62
     0
370
    -2
100
AcDbLine
 10
117.3750000000001
 20
39.52343424691535
 30
0.0
 11
117.375
 21
42.82543424691535
 31
0.0
  0
LINE
  5
1F8
330
1F2
100
AcDbEntity
  8
치수문자_일반주서
 62
     0
370
    -2
100
AcDbLine
 10
117.3750000000001
 20
18.91943424691535
 30
0.0
 11
117.3750000000001
 21
15.61743424691535
 31
0.0
  0
SOLID
  5
1F9
330
1F2
100
AcDbEntity
  8
치수문자_일반주서
 62
     0
100
AcDbTrace
 10
116.8246666666667
 20
39.52343424691535
 30
0.0
 11
117.9253333333334
 21
39.52343424691535
 31
0.0
 12
117.3750000000001
 22
36.22143424691535
 32
0.0
 13
117.3750000000001
 23
36.22143424691535
 33
0.0
  0
SOLID
  5
1FA
330
1F2
100
AcDbEntity
  8
치수문자_일반주서
 62
     0
100
AcDbTrace
 10
117.9253333333335
 20
18.91943424691535
 30
0.0
 11
116.8246666666668
 21
18.91943424691535
 31
0.0
 12
117.3750000000001
 22
22.22143424691535
 32
0.0
 13
117.3750000000001
 23
22.22143424691535
 33
0.0
  0
MTEXT
  5
1FB
330
1F2
100
AcDbEntity
  8
치수문자_일반주서
 62
     0
100
AcDbMText
 10
113.0000000000001
 20
29.28713862862833
 30
0.0
 40
3.5
 41
0.0
 71
     2
 72
     1
  1
\A1;%%c14.00 [0.55]
  7
SLDTEXTSTYLE0
 11
-3.045183153257572E-15
 21
1.0
 31
0.0
 73
     1
 44
1.0
  0
POINT
  5
1FC
330
1F2
100
AcDbEntity
  8
Defpoints
 62
     0
100
AcDbPoint
 10
102.3750000000001
 20
36.22143424691529
 30
0.0
  0
POINT
  5
1FD
330
1F2
100
AcDbEntity
  8
Defpoints
 62
     0
100
AcDbPoint
 10
102.3750000000001
 20
22.22143424691529
 30
0.0
  0
POINT
  5
1FE
330
1F2
100
AcDbEntity
  8
Defpoints
 62
     0
100
AcDbPoint
 10
117.3750000000001
 20
22.22143424691535
 30
0.0
  0
ENDBLK
  5
1FF
330
1F2
100
AcDbEntity
  8
0
100
AcDbBlockEnd
  0
BLOCK
  5
20D
330
20C
100
AcDbEntity
  8
0
100
AcDbBlockBegin
  2
*D8
 70
     1
 10
0.0
 20
0.0
 30
0.0
  3
*D8
  1
*D8
  0
LINE
  5
20E
330
20C
100
AcDbEntity
  8
치수문자_일반주서
 62
     0
370
    -2
100
AcDbLine
 10
103.8657751816695
 20
19.48229575403651
 30
0.0
 11
119.6194267469468
 21
-6.150060756304035
 31
0.0
  0
MTEXT
  5
20F
330
20C
100
AcDbEntity
  8
치수문자_일반주서
 62
     0
100
AcDbMText
 10
115.6706384014277
 20
5.288158154535728
 30
0.0
 40
3.5
 41
0.0
 71
     5
 72
     1
  1
\A1;R.5 [R0.02]
  7
SLDTEXTSTYLE0
 11
0.5236126201129557
 21
-0.8519564684057781
 31
0.0
 73
     1
 44
1.0
  0
SOLID
  5
210
330
20C
100
AcDbEntity
  8
치수문자_일반주서
 62
     0
100
AcDbTrace
 10
104.3346352247821
 20
19.77045723263868
 30
0.0
 11
103.3969151385569
 21
19.19413427543435
 31
0.0
 12
102.1368063100565
 22
22.29545601271239
 32
0.0
 13
102.1368063100565
 23
22.29545601271239
 33
0.0
  0
LINE
  5
211
330
20C
100
AcDbEntity
  8
치수문자_일반주서
 62
     0
100
AcDbLine
 10
101.785
 20
22.72143424691529
 30
0.0
 11
101.965
 21
22.72143424691529
 31
0.0
  0
LINE
  5
212
330
20C
100
AcDbEntity
  8
치수문자_일반주서
 62
     0
100
AcDbLine
 10
101.875
 20
22.63143424691529
 30
0.0
 11
101.875
 21
22.81143424691529
 31
0.0
  0
POINT
  5
23E
330
20C
100
AcDbEntity
  8
Defpoints
 62
     0
100
AcDbPoint
 10
102.1368063100565
 20
22.29545601271239
 30
0.0
  0
POINT
  5
23F
330
20C
100
AcDbEntity
  8
Defpoints
 62
     0
100
AcDbPoint
 10
101.875
 20
22.72143424691529
 30
0.0
  0
ENDBLK
  5
213
330
20C
100
AcDbEntity
  8
0
100
AcDbBlockEnd
  0
BLOCK
  5
219
330
218
100
AcDbEntity
  8
0
100
AcDbBlockBegin
  2
*D9
 70
     1
 10
0.0
 20
0.0
 30
0.0
  3
*D9
  1
*D10
  0
LINE
  5
21B
330
218
100
AcDbEntity
  8
치수문자_일반주서
 62
     0
370
    -2
100
AcDbLine
 10
19.37500000000004
 20
35.78393424691529
 30
0.0
 11
19.37500000000004
 21
70.88391841499404
 31
0.0
  0
LINE
  5
21C
330
218
100
AcDbEntity
  8
치수문자_일반주서
 62
     0
370
    -2
100
AcDbLine
 10
102.3750000000001
 20
36.34643424691529
 30
0.0
 11
102.3750000000001
 21
70.88391841499404
 31
0.0
  0
LINE
  5
21D
330
218
100
AcDbEntity
  8
치수문자_일반주서
 62
     0
370
    -2
100
AcDbLine
 10
22.67700000000004
 20
70.88391841499404
 30
0.0
 11
99.07300000000006
 21
70.88391841499404
 31
0.0
  0
SOLID
  5
21E
330
218
100
AcDbEntity
  8
치수문자_일반주서
 62
     0
100
AcDbTrace
 10
22.67700000000004
 20
71.43425174832737
 30
0.0
 11
22.67700000000004
 21
70.33358508166071
 31
0.0
 12
19.37500000000004
 22
70.88391841499404
 32
0.0
 13
19.37500000000004
 23
70.88391841499404
 33
0.0
  0
SOLID
  5
21F
330
218
100
AcDbEntity
  8
치수문자_일반주서
 62
     0
100
AcDbTrace
 10
99.07300000000006
 20
70.33358508166071
 30
0.0
 11
99.07300000000006
 21
71.43425174832737
 31
0.0
 12
102.3750000000001
 22
70.88391841499404
 32
0.0
 13
102.3750000000001
 23
70.88391841499404
 33
0.0
  0
MTEXT
  5
220
330
218
100
AcDbEntity
  8
치수문자_일반주서
 62
     0
100
AcDbMText
 10
60.87500000000005
 20
75.25891841499404
 30
0.0
 40
3.5
 41
0.0
 71
     2
 72
     1
  1
\A1;83 [3.27]
  7
SLDTEXTSTYLE0
 73
     1
 44
1.0
  0
POINT
  5
221
330
218
100
AcDbEntity
  8
Defpoints
 62
     0
100
AcDbPoint
 10
19.37500000000004
 20
35.72143424691529
 30
0.0
  0
POINT
  5
222
330
218
100
AcDbEntity
  8
Defpoints
 62
     0
100
AcDbPoint
 10
102.3750000000001
 20
36.28393424691529
 30
0.0
  0
POINT
  5
223
330
218
100
AcDbEntity
  8
Defpoints
 62
     0
100
AcDbPoint
 10
102.3750000000001
 20
70.88391841499404
 30
0.0
  0
ENDBLK
  5
21A
330
218
100
AcDbEntity
  8
0
100
AcDbBlockEnd
  0
BLOCK
  5
225
330
224
100
AcDbEntity
  8
0
100
AcDbBlockBegin
  2
*D10
 70
     1
 10
0.0
 20
0.0
 30
0.0
  3
*D10
  1
*D11
  0
LINE
  5
227
330
224
100
AcDbEntity
  8
치수문자_일반주서
 62
     0
370
    -2
100
AcDbLine
 10
76.37504186422882
 20
28.62038676313042
 30
0.0
 11
76.37504186422882
 21
61.90091383617725
 31
0.0
  0
LINE
  5
228
330
224
100
AcDbEntity
  8
치수문자_일반주서
 62
     0
370
    -2
100
AcDbLine
 10
102.3750000000001
 20
36.28393424691529
 30
0.0
 11
102.3750000000001
 21
61.90091383617725
 31
0.0
  0
LINE
  5
229
330
224
100
AcDbEntity
  8
치수문자_일반주서
 62
     0
370
    -2
100
AcDbLine
 10
79.67704186422881
 20
61.90091383617725
 30
0.0
 11
99.07300000000006
 21
61.90091383617725
 31
0.0
  0
SOLID
  5
22A
330
224
100
AcDbEntity
  8
치수문자_일반주서
 62
     0
100
AcDbTrace
 10
79.67704186422881
 20
62.45124716951059
 30
0.0
 11
79.67704186422881
 21
61.35058050284392
 31
0.0
 12
76.37504186422882
 22
61.90091383617725
 32
0.0
 13
76.37504186422882
 23
61.90091383617725
 33
0.0
  0
SOLID
  5
22B
330
224
100
AcDbEntity
  8
치수문자_일반주서
 62
     0
100
AcDbTrace
 10
99.07300000000006
 20
61.35058050284392
 30
0.0
 11
99.07300000000006
 21
62.45124716951059
 31
0.0
 12
102.3750000000001
 22
61.90091383617725
 32
0.0
 13
102.3750000000001
 23
61.90091383617725
 33
0.0
  0
MTEXT
  5
22C
330
224
100
AcDbEntity
  8
치수문자_일반주서
 62
     0
100
AcDbMText
 10
89.42159572693208
 20
66.27591383617725
 30
0.0
 40
3.5
 41
0.0
 71
     2
 72
     1
  1
\A1;26 [1.02]
  7
SLDTEXTSTYLE0
 73
     1
 44
1.0
  0
POINT
  5
22D
330
224
100
AcDbEntity
  8
Defpoints
 62
     0
100
AcDbPoint
 10
76.37504186422882
 20
28.55788676313042
 30
0.0
  0
POINT
  5
22E
330
224
100
AcDbEntity
  8
Defpoints
 62
     0
100
AcDbPoint
 10
102.3750000000001
 20
36.22143424691529
 30
0.0
  0
POINT
  5
22F
330
224
100
AcDbEntity
  8
Defpoints
 62
     0
100
AcDbPoint
 10
102.3750000000001
 20
61.90091383617725
 30
0.0
  0
ENDBLK
  5
226
330
224
100
AcDbEntity
  8
0
100
AcDbBlockEnd
  0
BLOCK
  5
231
330
230
100
AcDbEntity
  8
0
100
AcDbBlockBegin
  2
*D11
 70
     1
 10
0.0
 20
0.0
 30
0.0
  3
*D11
  1
*D12
  0
LINE
  5
233
330
230
100
AcDbEntity
  8
치수문자_일반주서
 62
     0
370
    -2
100
AcDbLine
 10
19.81250000000005
 20
36.22143424691529
 30
0.0
 11
4.374999999999983
 21
36.22143424691524
 31
0.0
  0
LINE
  5
234
330
230
100
AcDbEntity
  8
치수문자_일반주서
 62
     0
370
    -2
100
AcDbLine
 10
19.81250000000005
 20
22.22143424691529
 30
0.0
 11
4.375000000000032
 21
22.22143424691524
 31
0.0
  0
LINE
  5
235
330
230
100
AcDbEntity
  8
치수문자_일반주서
 62
     0
370
    -2
100
AcDbLine
 10
4.374999999999983
 20
36.22143424691524
 30
0.0
 11
4.375000000000032
 21
22.22143424691524
 31
0.0
  0
LINE
  5
236
330
230
100
AcDbEntity
  8
치수문자_일반주서
 62
     0
370
    -2
100
AcDbLine
 10
4.374999999999972
 20
39.52343424691524
 30
0.0
 11
4.37499999999996
 21
42.82543424691524
 31
0.0
  0
LINE
  5
237
330
230
100
AcDbEntity
  8
치수문자_일반주서
 62
     0
370
    -2
100
AcDbLine
 10
4.375000000000044
 20
18.91943424691524
 30
0.0
 11
4.375000000000055
 21
15.61743424691524
 31
0.0
  0
SOLID
  5
238
330
230
100
AcDbEntity
  8
치수문자_일반주서
 62
     0
100
AcDbTrace
 10
3.824666666666638
 20
39.52343424691524
 30
0.0
 11
4.925333333333305
 21
39.52343424691524
 31
0.0
 12
4.374999999999983
 22
36.22143424691524
 32
0.0
 13
4.374999999999983
 23
36.22143424691524
 33
0.0
  0
SOLID
  5
239
330
230
100
AcDbEntity
  8
치수문자_일반주서
 62
     0
100
AcDbTrace
 10
4.925333333333377
 20
18.91943424691524
 30
0.0
 11
3.82466666666671
 21
18.91943424691523
 31
0.0
 12
4.375000000000032
 22
22.22143424691524
 32
0.0
 13
4.375000000000032
 23
22.22143424691524
 33
0.0
  0
MTEXT
  5
23A
330
230
100
AcDbEntity
  8
치수문자_일반주서
 62
     0
100
AcDbMText
 10
0.0000000000000071
 20
29.22143424691528
 30
0.0
 40
3.5
 41
0.0
 71
     2
 72
     1
  1
\A1;%%c14.00 [0.55]
  7
SLDTEXTSTYLE0
 11
-3.489272363107635E-15
 21
1.0
 31
0.0
 73
     1
 44
1.0
  0
POINT
  5
23B
330
230
100
AcDbEntity
  8
Defpoints
 62
     0
100
AcDbPoint
 10
19.87500000000005
 20
36.22143424691529
 30
0.0
  0
POINT
  5
23C
330
230
100
AcDbEntity
  8
Defpoints
 62
     0
100
AcDbPoint
 10
19.87500000000005
 20
22.22143424691529
 30
0.0
  0
POINT
  5
23D
330
230
100
AcDbEntity
  8
Defpoints
 62
     0
100
AcDbPoint
 10
4.375000000000043
 20
22.22143424691524
 30
0.0
  0
ENDBLK
  5
232
330
230
100
AcDbEntity
  8
0
100
AcDbBlockEnd
  0
BLOCK
  5
28C
330
28B
100
AcDbEntity
  8
0
100
AcDbBlockBegin
  2
*D12
 70
     1
 10
0.0
 20
0.0
 30
0.0
  3
*D12
  1
*D13
  0
LINE
  5
28E
330
28B
100
AcDbEntity
  8
치수문자_일반주서
 62
     0
370
    -2
100
AcDbLine
 10
-62.59245813282948
 20
99.79810314204127
 30
0.0
 11
-62.59245813282948
 21
134.89808731012
 31
0.0
  0
LINE
  5
28F
330
28B
100
AcDbEntity
  8
치수문자_일반주서
 62
     0
370
    -2
100
AcDbLine
 10
20.40754186717054
 20
100.3606031420413
 30
0.0
 11
20.40754186717054
 21
134.89808731012
 31
0.0
  0
LINE
  5
290
330
28B
100
AcDbEntity
  8
치수문자_일반주서
 62
     0
370
    -2
100
AcDbLine
 10
-59.29045813282948
 20
134.89808731012
 30
0.0
 11
17.10554186717054
 21
134.89808731012
 31
0.0
  0
SOLID
  5
291
330
28B
100
AcDbEntity
  8
치수문자_일반주서
 62
     0
100
AcDbTrace
 10
-59.29045813282948
 20
135.4484206434534
 30
0.0
 11
-59.29045813282948
 21
134.3477539767867
 31
0.0
 12
-62.59245813282948
 22
134.89808731012
 32
0.0
 13
-62.59245813282948
 23
134.89808731012
 33
0.0
  0
SOLID
  5
292
330
28B
100
AcDbEntity
  8
치수문자_일반주서
 62
     0
100
AcDbTrace
 10
17.10554186717054
 20
134.3477539767867
 30
0.0
 11
17.10554186717054
 21
135.4484206434534
 31
0.0
 12
20.40754186717054
 22
134.89808731012
 32
0.0
 13
20.40754186717054
 23
134.89808731012
 33
0.0
  0
MTEXT
  5
293
330
28B
100
AcDbEntity
  8
치수문자_일반주서
 62
     0
100
AcDbMText
 10
-21.09245813282947
 20
139.27308731012
 30
0.0
 40
3.5
 41
0.0
 71
     2
 72
     1
  1
\A1;83 [3.27]
  7
SLDTEXTSTYLE0
 73
     1
 44
1.0
  0
POINT
  5
294
330
28B
100
AcDbEntity
  8
Defpoints
 62
     0
100
AcDbPoint
 10
-62.59245813282948
 20
99.73560314204127
 30
0.0
  0
POINT
  5
295
330
28B
100
AcDbEntity
  8
Defpoints
 62
     0
100
AcDbPoint
 10
20.40754186717054
 20
100.2981031420413
 30
0.0
  0
POINT
  5
296
330
28B
100
AcDbEntity
  8
Defpoints
 62
     0
100
AcDbPoint
 10
20.40754186717054
 20
134.89808731012
 30
0.0
  0
ENDBLK
  5
28D
330
28B
100
AcDbEntity
  8
0
100
AcDbBlockEnd
  0
BLOCK
  5
298
330
297
100
AcDbEntity
  8
0
100
AcDbBlockBegin
  2
*D13
 70
     1
 10
0.0
 20
0.0
 30
0.0
  3
*D13
  1
*D14
  0
LINE
  5
29A
330
297
100
AcDbEntity
  8
치수문자_일반주서
 62
     0
370
    -2
100
AcDbLine
 10
-5.592416268600701
 20
92.63455565825642
 30
0.0
 11
-5.592416268600701
 21
125.9150827313032
 31
0.0
  0
LINE
  5
29B
330
297
100
AcDbEntity
  8
치수문자_일반주서
 62
     0
370
    -2
100
AcDbLine
 10
20.40754186717054
 20
100.2981031420413
 30
0.0
 11
20.40754186717054
 21
125.9150827313032
 31
0.0
  0
LINE
  5
29C
330
297
100
AcDbEntity
  8
치수문자_일반주서
 62
     0
370
    -2
100
AcDbLine
 10
-2.290416268600701
 20
125.9150827313032
 30
0.0
 11
17.10554186717054
 21
125.9150827313032
 31
0.0
  0
SOLID
  5
29D
330
297
100
AcDbEntity
  8
치수문자_일반주서
 62
     0
100
AcDbTrace
 10
-2.290416268600701
 20
126.4654160646366
 30
0.0
 11
-2.290416268600701
 21
125.3647493979699
 31
0.0
 12
-5.592416268600701
 22
125.9150827313032
 32
0.0
 13
-5.592416268600701
 23
125.9150827313032
 33
0.0
  0
SOLID
  5
29E
330
297
100
AcDbEntity
  8
치수문자_일반주서
 62
     0
100
AcDbTrace
 10
17.10554186717054
 20
125.3647493979699
 30
0.0
 11
17.10554186717054
 21
126.4654160646366
 31
0.0
 12
20.40754186717054
 22
125.9150827313032
 32
0.0
 13
20.40754186717054
 23
125.9150827313032
 33
0.0
  0
MTEXT
  5
29F
330
297
100
AcDbEntity
  8
치수문자_일반주서
 62
     0
100
AcDbMText
 10
7.454137594102562
 20
130.2900827313032
 30
0.0
 40
3.5
 41
0.0
 71
     2
 72
     1
  1
\A1;26 [1.02]
  7
SLDTEXTSTYLE0
 73
     1
 44
1.0
  0
POINT
  5
2A0
330
297
100
AcDbEntity
  8
Defpoints
 62
     0
100
AcDbPoint
 10
-5.592416268600701
 20
92.57205565825642
 30
0.0
  0
POINT
  5
2A1
330
297
100
AcDbEntity
  8
Defpoints
 62
     0
100
AcDbPoint
 10
20.40754186717054
 20
100.2356031420413
 30
0.0
  0
POINT
  5
2A2
330
297
100
AcDbEntity
  8
Defpoints
 62
     0
100
AcDbPoint
 10
20.40754186717054
 20
125.9150827313032
 30
0.0
  0
ENDBLK
  5
299
330
297
100
AcDbEntity
  8
0
100
AcDbBlockEnd
  0
BLOCK
  5
2A4
330
2A3
100
AcDbEntity
  8
0
100
AcDbBlockBegin
  2
*D14
 70
     1
 10
0.0
 20
0.0
 30
0.0
  3
*D14
  1
*D15
  0
LINE
  5
2A6
330
2A3
100
AcDbEntity
  8
치수문자_일반주서
 62
     0
370
    -2
100
AcDbLine
 10
-62.15495813282947
 20
100.2356031420413
 30
0.0
 11
-77.59245813282952
 21
100.2356031420412
 31
0.0
  0
LINE
  5
2A7
330
2A3
100
AcDbEntity
  8
치수문자_일반주서
 62
     0
370
    -2
100
AcDbLine
 10
-62.15495813282947
 20
86.23560314204128
 30
0.0
 11
-77.59245813282948
 21
86.23560314204123
 31
0.0
  0
LINE
  5
2A8
330
2A3
100
AcDbEntity
  8
치수문자_일반주서
 62
     0
370
    -2
100
AcDbLine
 10
-77.59245813282952
 20
100.2356031420412
 30
0.0
 11
-77.59245813282948
 21
86.23560314204123
 31
0.0
  0
LINE
  5
2A9
330
2A3
100
AcDbEntity
  8
치수문자_일반주서
 62
     0
370
    -2
100
AcDbLine
 10
-77.59245813282953
 20
103.5376031420412
 30
0.0
 11
-77.59245813282955
 21
106.8396031420412
 31
0.0
  0
LINE
  5
2AA
330
2A3
100
AcDbEntity
  8
치수문자_일반주서
 62
     0
370
    -2
100
AcDbLine
 10
-77.59245813282946
 20
82.93360314204122
 30
0.0
 11
-77.59245813282945
 21
79.63160314204123
 31
0.0
  0
SOLID
  5
2AB
330
2A3
100
AcDbEntity
  8
치수문자_일반주서
 62
     0
100
AcDbTrace
 10
-78.14279146616286
 20
103.5376031420412
 30
0.0
 11
-77.04212479949621
 21
103.5376031420412
 31
0.0
 12
-77.59245813282952
 22
100.2356031420412
 32
0.0
 13
-77.59245813282952
 23
100.2356031420412
 33
0.0
  0
SOLID
  5
2AC
330
2A3
100
AcDbEntity
  8
치수문자_일반주서
 62
     0
100
AcDbTrace
 10
-77.04212479949614
 20
82.93360314204122
 30
0.0
 11
-78.14279146616279
 21
82.93360314204122
 31
0.0
 12
-77.59245813282948
 22
86.23560314204123
 32
0.0
 13
-77.59245813282948
 23
86.23560314204123
 33
0.0
  0
MTEXT
  5
2AD
330
2A3
100
AcDbEntity
  8
치수문자_일반주서
 62
     0
100
AcDbMText
 10
-81.9674581328295
 20
93.23560314204127
 30
0.0
 40
3.5
 41
0.0
 71
     2
 72
     1
  1
\A1;%%c14.00 [0.55]
  7
SLDTEXTSTYLE0
 11
-3.045183153257572E-15
 21
1.0
 31
0.0
 73
     1
 44
1.0
  0
POINT
  5
2AE
330
2A3
100
AcDbEntity
  8
Defpoints
 62
     0
100
AcDbPoint
 10
-62.09245813282947
 20
100.2356031420413
 30
0.0
  0
POINT
  5
2AF
330
2A3
100
AcDbEntity
  8
Defpoints
 62
     0
100
AcDbPoint
 10
-62.09245813282947
 20
86.23560314204128
 30
0.0
  0
POINT
  5
2B0
330
2A3
100
AcDbEntity
  8
Defpoints
 62
     0
100
AcDbPoint
 10
-77.59245813282949
 20
86.23560314204123
 30
0.0
  0
ENDBLK
  5
2A5
330
2A3
100
AcDbEntity
  8
0
100
AcDbBlockEnd
  0
BLOCK
  5
2B2
330
2B1
100
AcDbEntity
  8
0
100
AcDbBlockBegin
  2
*D15
 70
     1
 10
0.0
 20
0.0
 30
0.0
  3
*D15
  1
*D16
  0
LINE
  5
2B4
330
2B1
100
AcDbEntity
  8
치수문자_일반주서
 62
     0
370
    -2
100
AcDbLine
 10
20.47004186717055
 20
100.2356031420413
 30
0.0
 11
35.40754186717054
 21
100.2356031420413
 31
0.0
  0
LINE
  5
2B5
330
2B1
100
AcDbEntity
  8
치수문자_일반주서
 62
     0
370
    -2
100
AcDbLine
 10
20.47004186717054
 20
86.23560314204128
 30
0.0
 11
35.40754186717059
 21
86.23560314204134
 31
0.0
  0
LINE
  5
2B6
330
2B1
100
AcDbEntity
  8
치수문자_일반주서
 62
     0
370
    -2
100
AcDbLine
 10
35.40754186717054
 20
100.2356031420413
 30
0.0
 11
35.40754186717059
 21
86.23560314204134
 31
0.0
  0
LINE
  5
2B7
330
2B1
100
AcDbEntity
  8
치수문자_일반주서
 62
     0
370
    -2
100
AcDbLine
 10
35.40754186717053
 20
103.5376031420413
 30
0.0
 11
35.40754186717052
 21
106.8396031420413
 31
0.0
  0
LINE
  5
2B8
330
2B1
100
AcDbEntity
  8
치수문자_일반주서
 62
     0
370
    -2
100
AcDbLine
 10
35.40754186717061
 20
82.93360314204133
 30
0.0
 11
35.40754186717062
 21
79.63160314204134
 31
0.0
  0
SOLID
  5
2B9
330
2B1
100
AcDbEntity
  8
치수문자_일반주서
 62
     0
100
AcDbTrace
 10
34.85720853383719
 20
103.5376031420413
 30
0.0
 11
35.95787520050386
 21
103.5376031420413
 31
0.0
 12
35.40754186717054
 22
100.2356031420413
 32
0.0
 13
35.40754186717054
 23
100.2356031420413
 33
0.0
  0
SOLID
  5
2BA
330
2B1
100
AcDbEntity
  8
치수문자_일반주서
 62
     0
100
AcDbTrace
 10
35.95787520050394
 20
82.93360314204133
 30
0.0
 11
34.85720853383727
 21
82.93360314204133
 31
0.0
 12
35.40754186717059
 22
86.23560314204134
 32
0.0
 13
35.40754186717059
 23
86.23560314204134
 33
0.0
  0
MTEXT
  5
2BB
330
2B1
100
AcDbEntity
  8
치수문자_일반주서
 62
     0
100
AcDbMText
 10
31.03254186717056
 20
93.30130752375432
 30
0.0
 40
3.5
 41
0.0
 71
     2
 72
     1
  1
\A1;%%c14.00 [0.55]
  7
SLDTEXTSTYLE0
 11
-3.552713678800501E-15
 21
1.0
 31
0.0
 73
     1
 44
1.0
  0
POINT
  5
2BC
330
2B1
100
AcDbEntity
  8
Defpoints
 62
     0
100
AcDbPoint
 10
20.40754186717055
 20
100.2356031420413
 30
0.0
  0
POINT
  5
2BD
330
2B1
100
AcDbEntity
  8
Defpoints
 62
     0
100
AcDbPoint
 10
20.40754186717054
 20
86.23560314204128
 30
0.0
  0
POINT
  5
2BE
330
2B1
100
AcDbEntity
  8
Defpoints
 62
     0
100
AcDbPoint
 10
35.40754186717059
 20
86.23560314204134
 30
0.0
  0
ENDBLK
  5
2B3
330
2B1
100
AcDbEntity
  8
0
100
AcDbBlockEnd
  0
BLOCK
  5
2C0
330
2BF
100
AcDbEntity
  8
0
100
AcDbBlockBegin
  2
*D16
 70
     1
 10
0.0
 20
0.0
 30
0.0
  3
*D16
  1
*D17
  0
LINE
  5
2C2
330
2BF
100
AcDbEntity
  8
치수문자_일반주서
 62
     0
370
    -2
100
AcDbLine
 10
21.89831704883999
 20
83.4964646491625
 30
0.0
 11
37.65196861411727
 21
57.86410813882195
 31
0.0
  0
MTEXT
  5
2C3
330
2BF
100
AcDbEntity
  8
치수문자_일반주서
 62
     0
100
AcDbMText
 10
33.70318026859815
 20
69.30232704966171
 30
0.0
 40
3.5
 41
0.0
 71
     5
 72
     1
  1
\A1;R.5 [R0.02]
  7
SLDTEXTSTYLE0
 11
0.5236126201129557
 21
-0.8519564684057781
 31
0.0
 73
     1
 44
1.0
  0
SOLID
  5
2C4
330
2BF
100
AcDbEntity
  8
치수문자_일반주서
 62
     0
100
AcDbTrace
 10
22.36717709195263
 20
83.78462612776467
 30
0.0
 11
21.42945700572734
 21
83.20830317056034
 31
0.0
 12
20.16934817722701
 22
86.30962490783838
 32
0.0
 13
20.16934817722701
 23
86.30962490783838
 33
0.0
  0
LINE
  5
2C5
330
2BF
100
AcDbEntity
  8
치수문자_일반주서
 62
     0
100
AcDbLine
 10
19.81754186717052
 20
86.73560314204128
 30
0.0
 11
19.99754186717052
 21
86.73560314204128
 31
0.0
  0
LINE
  5
2C6
330
2BF
100
AcDbEntity
  8
치수문자_일반주서
 62
     0
100
AcDbLine
 10
19.90754186717052
 20
86.64560314204128
 30
0.0
 11
19.90754186717052
 21
86.82560314204129
 31
0.0
  0
POINT
  5
2C7
330
2BF
100
AcDbEntity
  8
Defpoints
 62
     0
100
AcDbPoint
 10
20.16934817722701
 20
86.30962490783838
 30
0.0
  0
POINT
  5
2C8
330
2BF
100
AcDbEntity
  8
Defpoints
 62
     0
100
AcDbPoint
 10
19.90754186717052
 20
86.73560314204128
 30
0.0
  0
ENDBLK
  5
2C1
330
2BF
100
AcDbEntity
  8
0
100
AcDbBlockEnd
  0
BLOCK
  5
301
330
300
100
AcDbEntity
  8
0
100
AcDbBlockBegin
  2
*D17
 70
     1
 10
0.0
 20
0.0
 30
0.0
  3
*D17
  1
*D18
  0
LINE
  5
303
330
300
100
AcDbEntity
  8
치수문자_일반주서
 62
     0
370
    -2
100
AcDbLine
 10
113.6560602197609
 20
-39.98007424765864
 30
0.0
 11
126.4820604956464
 21
-39.98007424765859
 31
0.0
  0
LINE
  5
304
330
300
100
AcDbEntity
  8
치수문자_일반주서
 62
     0
370
    -2
100
AcDbLine
 10
113.6560602197609
 20
-36.41121814201025
 30
0.0
 11
126.4820604956464
 21
-36.4112181420102
 31
0.0
  0
LINE
  5
305
330
300
100
AcDbEntity
  8
치수문자_일반주서
 62
     0
370
    -2
100
AcDbLine
 10
126.4820604956464
 20
-36.4112181420102
 30
0.0
 11
126.4820604956463
 21
-3.9947181420102
 31
0.0
  0
LINE
  5
306
330
300
100
AcDbEntity
  8
치수문자_일반주서
 62
     0
370
    -2
100
AcDbLine
 10
126.4820604956464
 20
-39.98007424765859
 30
0.0
 11
126.4820604956464
 21
-36.4112181420102
 31
0.0
  0
LINE
  5
307
330
300
100
AcDbEntity
  8
치수문자_일반주서
 62
     0
370
    -2
100
AcDbLine
 10
126.4820604956465
 20
-43.28207424765858
 30
0.0
 11
126.4820604956465
 21
-46.58407424765858
 31
0.0
  0
LINE
  5
308
330
300
100
AcDbEntity
  8
치수문자_일반주서
 62
     0
370
    -2
100
AcDbLine
 10
126.4820604956464
 20
-33.1092181420102
 30
0.0
 11
126.4820604956464
 21
-29.8072181420102
 31
0.0
  0
SOLID
  5
309
330
300
100
AcDbEntity
  8
치수문자_일반주서
 62
     0
100
AcDbTrace
 10
127.0323938289798
 20
-43.28207424765858
 30
0.0
 11
125.9317271623131
 21
-43.28207424765858
 31
0.0
 12
126.4820604956464
 22
-39.98007424765859
 32
0.0
 13
126.4820604956464
 23
-39.98007424765859
 33
0.0
  0
SOLID
  5
30A
330
300
100
AcDbEntity
  8
치수문자_일반주서
 62
     0
100
AcDbTrace
 10
125.9317271623131
 20
-33.1092181420102
 30
0.0
 11
127.0323938289797
 21
-33.1092181420102
 31
0.0
 12
126.4820604956464
 22
-36.4112181420102
 32
0.0
 13
126.4820604956464
 23
-36.4112181420102
 33
0.0
  0
MTEXT
  5
30B
330
300
100
AcDbEntity
  8
치수문자_일반주서
 62
     0
100
AcDbMText
 10
122.1070604956464
 20
-16.90096814201022
 30
0.0
 40
3.5
 41
0.0
 71
     2
 72
     1
  1
\A1;%%c3.57 [0.14]
  7
SLDTEXTSTYLE0
 11
-3.981907450039987E-15
 21
1.0
 31
0.0
 73
     1
 44
1.0
  0
POINT
  5
30C
330
300
100
AcDbEntity
  8
Defpoints
 62
     0
100
AcDbPoint
 10
113.5935602197609
 20
-39.98007424765864
 30
0.0
  0
POINT
  5
30D
330
300
100
AcDbEntity
  8
Defpoints
 62
     0
100
AcDbPoint
 10
113.5935602197609
 20
-36.41121814201025
 30
0.0
  0
POINT
  5
30E
330
300
100
AcDbEntity
  8
Defpoints
 62
     0
100
AcDbPoint
 10
126.4820604956464
 20
-36.4112181420102
 30
0.0
  0
ENDBLK
  5
302
330
300
100
AcDbEntity
  8
0
100
AcDbBlockEnd
  0
BLOCK
  5
310
330
30F
100
AcDbEntity
  8
0
100
AcDbBlockBegin
  2
*D18
 70
     1
 10
0.0
 20
0.0
 30
0.0
  3
*D18
  1
*D19
  0
LINE
  5
312
330
30F
100
AcDbEntity
  8
치수문자_일반주서
 62
     0
370
    -2
100
AcDbLine
 10
113.5935602197609
 20
-36.34871814201025
 30
0.0
 11
113.5935602197609
 21
-22.23795000214598
 31
0.0
  0
LINE
  5
313
330
30F
100
AcDbEntity
  8
치수문자_일반주서
 62
     0
370
    -2
100
AcDbLine
 10
105.6560602197609
 20
-36.40469713916687
 30
0.0
 11
105.6560602197609
 21
-22.23795000214598
 31
0.0
  0
LINE
  5
314
330
30F
100
AcDbEntity
  8
치수문자_일반주서
 62
     0
370
    -2
100
AcDbLine
 10
105.6560602197609
 20
-22.23795000214598
 30
0.0
 11
75.86456021976095
 21
-22.23795000214598
 31
0.0
  0
LINE
  5
315
330
30F
100
AcDbEntity
  8
치수문자_일반주서
 62
     0
370
    -2
100
AcDbLine
 10
113.5935602197609
 20
-22.23795000214598
 30
0.0
 11
105.6560602197609
 21
-22.23795000214598
 31
0.0
  0
LINE
  5
316
330
30F
100
AcDbEntity
  8
치수문자_일반주서
 62
     0
370
    -2
100
AcDbLine
 10
116.8955602197609
 20
-22.23795000214598
 30
0.0
 11
120.1975602197609
 21
-22.23795000214598
 31
0.0
  0
LINE
  5
317
330
30F
100
AcDbEntity
  8
치수문자_일반주서
 62
     0
370
    -2
100
AcDbLine
 10
102.354060219761
 20
-22.23795000214598
 30
0.0
 11
99.05206021976096
 21
-22.23795000214598
 31
0.0
  0
SOLID
  5
318
330
30F
100
AcDbEntity
  8
치수문자_일반주서
 62
     0
100
AcDbTrace
 10
116.8955602197609
 20
-21.68761666881264
 30
0.0
 11
116.8955602197609
 21
-22.78828333547931
 31
0.0
 12
113.5935602197609
 22
-22.23795000214598
 32
0.0
 13
113.5935602197609
 23
-22.23795000214598
 33
0.0
  0
SOLID
  5
319
330
30F
100
AcDbEntity
  8
치수문자_일반주서
 62
     0
100
AcDbTrace
 10
102.354060219761
 20
-22.78828333547931
 30
0.0
 11
102.354060219761
 21
-21.68761666881264
 31
0.0
 12
105.6560602197609
 22
-22.23795000214598
 32
0.0
 13
105.6560602197609
 23
-22.23795000214598
 33
0.0
  0
MTEXT
  5
31A
330
30F
100
AcDbEntity
  8
치수문자_일반주서
 62
     0
100
AcDbMText
 10
87.45831021976095
 20
-17.86295000214598
 30
0.0
 40
3.5
 41
0.0
 71
     2
 72
     1
  1
\A1;7.94 [0.31]
  7
SLDTEXTSTYLE0
 73
     1
 44
1.0
  0
POINT
  5
31B
330
30F
100
AcDbEntity
  8
Defpoints
 62
     0
100
AcDbPoint
 10
113.5935602197609
 20
-36.41121814201025
 30
0.0
  0
POINT
  5
31C
330
30F
100
AcDbEntity
  8
Defpoints
 62
     0
100
AcDbPoint
 10
105.6560602197609
 20
-36.46719713916687
 30
0.0
  0
POINT
  5
31D
330
30F
100
AcDbEntity
  8
Defpoints
 62
     0
100
AcDbPoint
 10
105.6560602197609
 20
-22.23795000214598
 30
0.0
  0
ENDBLK
  5
311
330
30F
100
AcDbEntity
  8
0
100
AcDbBlockEnd
  0
BLOCK
  5
31F
330
31E
100
AcDbEntity
  8
0
100
AcDbBlockBegin
  2
*D19
 70
     1
 10
0.0
 20
0.0
 30
0.0
  3
*D19
  1
*D20
  0
LINE
  5
321
330
31E
100
AcDbEntity
  8
치수문자_일반주서
 62
     0
370
    -2
100
AcDbLine
 10
62.79356021976096
 20
-36.18189619483444
 30
0.0
 11
62.79356021976096
 21
-10.30095622995351
 31
0.0
  0
LINE
  5
322
330
31E
100
AcDbEntity
  8
치수문자_일반주서
 62
     0
370
    -2
100
AcDbLine
 10
113.5935602197609
 20
-36.34871814201025
 30
0.0
 11
113.5935602197609
 21
-10.30095622995351
 31
0.0
  0
LINE
  5
323
330
31E
100
AcDbEntity
  8
치수문자_일반주서
 62
     0
370
    -2
100
AcDbLine
 10
66.09556021976096
 20
-10.30095622995351
 30
0.0
 11
110.291560219761
 21
-10.30095622995351
 31
0.0
  0
SOLID
  5
324
330
31E
100
AcDbEntity
  8
치수문자_일반주서
 62
     0
100
AcDbTrace
 10
66.09556021976096
 20
-9.750622896620174
 30
0.0
 11
66.09556021976096
 21
-10.85128956328684
 31
0.0
 12
62.79356021976096
 22
-10.30095622995351
 32
0.0
 13
62.79356021976096
 23
-10.30095622995351
 33
0.0
  0
SOLID
  5
325
330
31E
100
AcDbEntity
  8
치수문자_일반주서
 62
     0
100
AcDbTrace
 10
110.291560219761
 20
-10.85128956328684
 30
0.0
 11
110.291560219761
 21
-9.750622896620174
 31
0.0
 12
113.5935602197609
 22
-10.30095622995351
 32
0.0
 13
113.5935602197609
 23
-10.30095622995351
 33
0.0
  0
MTEXT
  5
326
330
31E
100
AcDbEntity
  8
치수문자_일반주서
 62
     0
100
AcDbMText
 10
92.46089832684072
 20
-5.925956229953506
 30
0.0
 40
3.5
 41
0.0
 71
     2
 72
     1
  1
\A1;50.8 [2.00]
  7
SLDTEXTSTYLE0
 73
     1
 44
1.0
  0
POINT
  5
327
330
31E
100
AcDbEntity
  8
Defpoints
 62
     0
100
AcDbPoint
 10
62.79356021976096
 20
-36.24439619483444
 30
0.0
  0
POINT
  5
328
330
31E
100
AcDbEntity
  8
Defpoints
 62
     0
100
AcDbPoint
 10
113.5935602197609
 20
-36.41121814201025
 30
0.0
  0
POINT
  5
329
330
31E
100
AcDbEntity
  8
Defpoints
 62
     0
100
AcDbPoint
 10
113.5935602197609
 20
-10.30095622995351
 30
0.0
  0
ENDBLK
  5
320
330
31E
100
AcDbEntity
  8
0
100
AcDbBlockEnd
  0
ENDSEC
  0
SECTION
  2
ENTITIES
  0
LINE
  5
96
330
1F
100
AcDbEntity
  8
외형선
  6
Continuous
370
    15
100
AcDbLine
 10
14.24076350361916
 20
2.38125
 30
0.0
 11
-14.24076350361915
 21
2.381249999999998
 31
0.0
  0
LINE
  5
97
330
1F
100
AcDbEntity
  8
외형선
  6
Continuous
370
    15
100
AcDbLine
 10
-14.24076350361915
 20
-2.38125
 30
0.0
 11
14.24076350361916
 21
-2.381249999999998
 31
0.0
  0
LINE
  5
98
330
1F
100
AcDbEntity
  8
외형선
  6
Continuous
370
    15
100
AcDbLine
 10
14.24076350361916
 20
-2.381249999999999
 30
0.0
 11
16.46250000000001
 21
-1.785937499999999
 31
0.0
  0
LINE
  5
99
330
1F
100
AcDbEntity
  8
외형선
  6
Continuous
370
    15
100
AcDbLine
 10
16.46250000000001
 20
1.785937500000001
 30
0.0
 11
14.24076350361916
 21
2.381250000000001
 31
0.0
  0
LINE
  5
9C
330
1F
100
AcDbEntity
  8
외형선
  6
Continuous
370
    15
100
AcDbLine
 10
16.6749269841592
 20
1.785937500000001
 30
0.0
 11
16.46250000000001
 21
1.785937500000001
 31
0.0
  0
LINE
  5
9D
330
1F
100
AcDbEntity
  8
외형선
  6
Continuous
370
    15
100
AcDbLine
 10
16.46250000000001
 20
-1.785937499999999
 30
0.0
 11
16.6749269841592
 21
-1.785937499999999
 31
0.0
  0
LINE
  5
9E
330
1F
100
AcDbEntity
  8
0
  6
Continuous
 62
     1
370
    15
100
AcDbLine
 10
20.77220233760718
 20
0.4576773090890808
 30
0.0
 11
20.27854049983292
 21
0.7053615939574767
 31
0.0
  0
SPLINE
  5
9F
330
1F
100
AcDbEntity
  8
0
  6
Continuous
 62
     1
370
    15
100
AcDbSpline
210
0.0
220
0.0
230
1.0
 70
     8
 71
     3
 72
    17
 73
    13
 74
     0
 42
0.000000001
 43
0.00000001
 40
0.0
 40
0.0
 40
0.0
 40
0.0
 40
0.1875463946761066
 40
0.3155651651815437
 40
0.3985593936923583
 40
0.4783684638101871
 40
0.5600624531853032
 40
0.6472019049699532
 40
0.739593808221955
 40
0.835967337438324
 40
0.9851486723860066
 40
1.0
 40
1.0
 40
1.0
 40
1.0
 10
20.18316879074377
 20
1.419175078987847
 30
0.0
 10
20.09133423571756
 20
1.414692473759255
 30
0.0
 10
19.93681360856145
 20
1.407150051726311
 30
0.0
 10
19.74225645245905
 20
1.40106203430444
 30
0.0
 10
19.6011876990158
 20
1.397785806126359
 30
0.0
 10
19.48214452954233
 20
1.395875965348972
 30
0.0
 10
19.36077595142132
 20
1.39479471655839
 30
0.0
 10
19.23331422555125
 20
1.394607635785644
 30
0.0
 10
19.09871752153338
 20
1.395420827439103
 30
0.0
 10
18.93363964760989
 20
1.397923948757261
 30
0.0
 10
18.80725143548705
 20
1.400599032522511
 30
0.0
 10
18.72605845739873
 20
1.403663200005697
 30
0.0
 10
18.71870733903783
 20
1.403940626186839
 30
0.0
  0
SPLINE
  5
A0
330
1F
100
AcDbEntity
  8
0
  6
Continuous
 62
     1
370
    15
100
AcDbSpline
210
0.0
220
0.0
230
1.0
 70
     8
 71
     3
 72
    12
 73
     8
 74
     0
 42
0.000000001
 43
0.00000001
 40
0.0
 40
0.0
 40
0.0
 40
0.0
 40
0.1194393956465541
 40
0.500494443713957
 40
0.685503523364053
 40
0.7883433223862428
 40
0.9999999999999999
 40
0.9999999999999999
 40
0.9999999999999999
 40
0.9999999999999999
 10
24.73573639970262
 20
1.221497014014559
 30
0.0
 10
24.61083938687933
 20
1.211842108509326
 30
0.0
 10
24.08747554519089
 20
1.171384548139116
 30
0.0
 10
23.37571815115817
 20
1.168432119107463
 30
0.0
 10
22.68616253798837
 20
1.212298743511329
 30
0.0
 10
22.16393911201342
 20
1.263805403088794
 30
0.0
 10
21.83631707798077
 20
1.31130479492703
 30
0.0
 10
21.61582687733321
 20
1.343271968526856
 30
0.0
  0
SPLINE
  5
A1
330
1F
100
AcDbEntity
  8
0
  6
Continuous
 62
     1
370
    15
100
AcDbSpline
210
0.0
220
0.0
230
1.0
 70
     8
 71
     3
 72
    15
 73
    11
 74
     0
 42
0.000000001
 43
0.00000001
 40
0.0
 40
0.0
 40
0.0
 40
0.0
 40
0.211741547480768
 40
0.358637471181615
 40
0.4440164309181709
 40
0.5188106933551845
 40
0.5970304036272873
 40
0.6811669884834679
 40
0.838902792590955
 40
1.0
 40
1.0
 40
1.0
 40
1.0
 10
21.61582687733321
 20
-1.343271968526855
 30
0.0
 10
21.71092797302757
 20
-1.328794251907245
 30
0.0
 10
21.87200555497698
 20
-1.304272603989223
 30
0.0
 10
22.07103419774376
 20
-1.27843719888903
 30
0.0
 10
22.20738998030787
 20
-1.262079625579882
 30
0.0
 10
22.31334130065629
 20
-1.250182998553033
 30
0.0
 10
22.41917384988148
 20
-1.239057491038031
 30
0.0
 10
22.56222803369442
 20
-1.225161677013413
 30
0.0
 10
22.74233182213328
 20
-1.209811829539664
 30
0.0
 10
22.88488699902431
 20
-1.200897826231898
 30
0.0
 10
22.95691605520521
 20
-1.196393835152413
 30
0.0
  0
SPLINE
  5
A2
330
1F
100
AcDbEntity
  8
0
  6
Continuous
 62
     1
370
    15
100
AcDbSpline
210
0.0
220
0.0
230
1.0
 70
     8
 71
     3
 72
    11
 73
     7
 74
     0
 42
0.000000001
 43
0.00000001
 40
0.0
 40
0.0
 40
0.0
 40
0.0
 40
0.2125729080253984
 40
0.4920024102963326
 40
0.6765909661782388
 40
1.0
 40
1.0
 40
1.0
 40
1.0
 10
17.60001901370897
 20
-1.474989644916038
 30
0.0
 10
17.77834893399064
 20
-1.459899812372497
 30
0.0
 10
18.191095560179
 20
-1.424974223541098
 30
0.0
 10
18.78255517166508
 20
-1.398565760343691
 30
0.0
 10
19.46297215026588
 20
-1.390414648665232
 30
0.0
 10
19.90301935114587
 20
-1.407987553269691
 30
0.0
 10
20.18316879074377
 20
-1.419175078987845
 30
0.0
  0
LINE
  5
A3
330
1F
100
AcDbEntity
  8
외형선
  6
Continuous
370
    15
100
AcDbLine
 10
14.24076350361916
 20
2.381250000000001
 30
0.0
 11
14.24076350361916
 21
-2.381249999999998
 31
0.0
  0
LINE
  5
A5
330
1F
100
AcDbEntity
  8
외형선
  6
Continuous
370
    15
100
AcDbLine
 10
16.46250000000001
 20
1.785937500000001
 30
0.0
 11
16.46250000000001
 21
-1.7859375
 31
0.0
  0
SPLINE
  5
A7
330
1F
100
AcDbEntity
  8
외형선
  6
Continuous
370
    15
100
AcDbSpline
210
0.0
220
0.0
230
1.0
 70
     8
 71
     3
 72
     9
 73
     5
 74
     0
 42
0.000000001
 43
0.00000001
 40
0.0
 40
0.0
 40
0.0
 40
0.0
 40
0.6347457442134384
 40
1.0
 40
1.0
 40
1.0
 40
1.0
 10
17.46250000000001
 20
1.728449055667567
 30
0.0
 10
17.29569029051476
 20
1.749375901894602
 30
0.0
 10
17.0328926097017
 20
1.782344766070237
 30
0.0
 10
16.77069556909532
 20
1.782956421812071
 30
0.0
 10
16.6749269841592
 20
1.783179831674852
 30
0.0
  0
LINE
  5
A8
330
1F
100
AcDbEntity
  8
외형선
  6
Continuous
370
    15
100
AcDbLine
 10
17.46250000000001
 20
1.728449055667566
 30
0.0
 11
17.46250000000001
 21
1.537083181377274
 31
0.0
  0
SPLINE
  5
A9
330
1F
100
AcDbEntity
  8
외형선
  6
Continuous
370
    15
100
AcDbSpline
210
0.0
220
0.0
230
1.0
 70
     8
 71
     3
 72
    10
 73
     6
 74
     0
 42
0.000000001
 43
0.00000001
 40
0.0
 40
0.0
 40
0.0
 40
0.0
 40
0.5
 40
0.5
 40
1.0
 40
1.0
 40
1.0
 40
1.0
 10
17.46250000000001
 20
1.537083181377273
 30
0.0
 10
17.31452759353755
 20
1.580640738806892
 30
0.0
 10
17.16488392016775
 20
1.619044294999766
 30
0.0
 10
16.86687579329094
 20
1.684279944418841
 30
0.0
 10
16.71985240921245
 20
1.711051229656034
 30
0.0
 10
16.57257233117166
 20
1.731902103773463
 30
0.0
  0
SPLINE
  5
AA
330
1F
100
AcDbEntity
  8
외형선
  6
Continuous
370
    15
100
AcDbSpline
210
0.0
220
0.0
230
1.0
 70
     8
 71
     3
 72
    10
 73
     6
 74
     0
 42
0.000000001
 43
0.00000001
 40
0.0
 40
0.0
 40
0.0
 40
0.0
 40
0.5
 40
0.5
 40
1.0
 40
1.0
 40
1.0
 40
1.0
 10
17.46250000000001
 20
-1.728449055667565
 30
0.0
 10
17.31454024312729
 20
-1.749976988007994
 30
0.0
 10
17.16490950549629
 20
-1.765607376446096
 30
0.0
 10
16.86692663468324
 20
-1.784506250064249
 30
0.0
 10
16.71991464998153
 20
-1.787787598502637
 30
0.0
 10
16.57264787342085
 20
-1.784954687916178
 30
0.0
  0
LINE
  5
AB
330
1F
100
AcDbEntity
  8
외형선
  6
Continuous
370
    15
100
AcDbLine
 10
16.57257233117167
 20
-1.784952147367123
 30
0.0
 11
16.57257233117166
 21
1.732050954410127
 31
0.0
  0
SPLINE
  5
AC
330
1F
100
AcDbEntity
  8
외형선
  6
Continuous
370
    15
100
AcDbSpline
210
0.0
220
0.0
230
1.0
 70
    24
 71
     3
 72
    10
 73
     6
 74
     0
 42
0.000000001
 43
0.00000001
 40
0.0
 40
0.0
 40
0.0
 40
0.0
 40
0.5
 40
0.5
 40
1.0
 40
1.0
 40
1.0
 40
1.0
 10
17.46250000000001
 20
-0.7774245591663218
 30
0.0
 10
17.46250000000001
 20
-0.9896710292306634
 30
0.0
 10
17.46250000000001
 20
-1.173512286503087
 30
0.0
 10
17.46250000000001
 20
-1.422431340351268
 30
0.0
 10
17.4625
 20
-1.486437692009973
 30
0.0
 10
17.46250000000001
 20
-1.489538341148344
 30
0.0
  0
SPLINE
  5
AD
330
1F
100
AcDbEntity
  8
외형선
  6
Continuous
370
    15
100
AcDbSpline
210
0.0
220
0.0
230
1.0
 70
     8
 71
     3
 72
    10
 73
     6
 74
     0
 42
0.000000001
 43
0.00000001
 40
0.0
 40
0.0
 40
0.0
 40
0.0
 40
0.5
 40
0.5
 40
1.0
 40
1.0
 40
1.0
 40
1.0
 10
17.46249999999989
 20
-1.489538341148355
 30
0.0
 10
17.3145402431272
 20
-1.503562721744414
 30
0.0
 10
17.16490950549621
 20
-1.512487762862365
 30
0.0
 10
16.8669266346832
 20
-1.519791510386877
 30
0.0
 10
16.71991464998151
 20
-1.518194698383878
 30
0.0
 10
16.57264787342085
 20
-1.511418191923606
 30
0.0
  0
SPLINE
  5
AE
330
1F
100
AcDbEntity
  8
외형선
  6
Continuous
370
    15
100
AcDbSpline
210
0.0
220
0.0
230
1.0
 70
     8
 71
     3
 72
    10
 73
     6
 74
     0
 42
0.000000001
 43
0.00000001
 40
0.0
 40
0.0
 40
0.0
 40
0.0
 40
0.5
 40
0.5
 40
1.0
 40
1.0
 40
1.0
 40
1.0
 10
17.46249999999999
 20
-0.7774245591663177
 30
0.0
 10
17.31453221707671
 20
-0.7200089744751941
 30
0.0
 10
17.16489327183897
 20
-0.6596890109638651
 30
0.0
 10
16.86689437626913
 20
-0.5350722825486212
 30
0.0
 10
16.71987515881834
 20
-0.4709799026940136
 30
0.0
 10
16.57259994258755
 20
-0.4054624631429332
 30
0.0
  0
SPLINE
  5
AF
330
1F
100
AcDbEntity
  8
외형선
  6
Continuous
370
    15
100
AcDbSpline
210
0.0
220
0.0
230
1.0
 70
    24
 71
     3
 72
    14
 73
    10
 74
     0
 42
0.000000001
 43
0.00000001
 40
0.0
 40
0.0
 40
0.0
 40
0.0
 40
0.25
 40
0.25
 40
0.5
 40
0.5
 40
0.75
 40
0.75
 40
1.0
 40
1.0
 40
1.0
 40
1.0
 10
17.46249999999997
 20
1.048882912077985
 30
0.0
 10
17.46249999999997
 20
0.9365129052738129
 30
0.0
 10
17.46249999999997
 20
0.8068837745117315
 30
0.0
 10
17.46249999999997
 20
0.520988928081493
 30
0.0
 10
17.46249999999997
 20
0.3648104006656375
 30
0.0
 10
17.46249999999997
 20
0.0402229085537721
 30
0.0
 10
17.46249999999997
 20
-0.128013102356015
 30
0.0
 10
17.46249999999997
 20
-0.4598508567489641
 30
0.0
 10
17.46249999999997
 20
-0.6233008826866268
 30
0.0
 10
17.46249999999997
 20
-0.77742455916631
 30
0.0
  0
SPLINE
  5
B0
330
1F
100
AcDbEntity
  8
외형선
  6
Continuous
370
    15
100
AcDbSpline
210
0.0
220
0.0
230
1.0
 70
     8
 71
     3
 72
    10
 73
     6
 74
     0
 42
0.000000001
 43
0.00000001
 40
0.0
 40
0.0
 40
0.0
 40
0.0
 40
0.5
 40
0.5
 40
1.0
 40
1.0
 40
1.0
 40
1.0
 10
17.46249999999995
 20
1.048882912077991
 30
0.0
 10
17.31453064456718
 20
1.081465213657652
 30
0.0
 10
17.16489009124729
 20
1.110541365340734
 30
0.0
 10
16.8668880560209
 20
1.160730299954528
 30
0.0
 10
16.71986742146735
 20
1.181793128191379
 30
0.0
 10
16.57259055168878
 20
1.19875962535873
 30
0.0
  0
SPLINE
  5
B1
330
1F
100
AcDbEntity
  8
외형선
  6
Continuous
370
    15
100
AcDbSpline
210
0.0
220
0.0
230
1.0
 70
    24
 71
     3
 72
    10
 73
     6
 74
     0
 42
0.000000001
 43
0.00000001
 40
0.0
 40
0.0
 40
0.0
 40
0.0
 40
0.5
 40
0.5
 40
1.0
 40
1.0
 40
1.0
 40
1.0
 10
17.46250000000001
 20
1.537083181377274
 30
0.0
 10
17.46250000000001
 20
1.47449389669683
 30
0.0
 10
17.4625
 20
1.396716266368722
 30
0.0
 10
17.46250000000001
 20
1.227350095807131
 30
0.0
 10
17.46250000000001
 20
1.136270532896864
 30
0.0
 10
17.46250000000001
 20
1.048882912077978
 30
0.0
  0
SPLINE
  5
B2
330
1F
100
AcDbEntity
  8
외형선
  6
Continuous
370
    15
100
AcDbSpline
210
0.0
220
0.0
230
1.0
 70
    24
 71
     3
 72
     8
 73
     4
 74
     0
 42
0.000000001
 43
0.00000001
 40
0.0
 40
0.0
 40
0.0
 40
0.0
 40
1.0
 40
1.0
 40
1.0
 40
1.0
 10
17.46250000000001
 20
-1.489538341148345
 30
0.0
 10
17.46250000000001
 20
-1.572912359145889
 30
0.0
 10
17.46250000000001
 20
-1.653077675588802
 30
0.0
 10
17.46250000000001
 20
-1.728449055667328
 30
0.0
  0
SPLINE
  5
B3
330
1F
100
AcDbEntity
  8
0
  6
Continuous
 62
     1
370
    15
100
AcDbSpline
210
0.0
220
0.0
230
1.0
 70
     8
 71
     3
 72
    34
 73
    30
 74
     0
 42
0.000000001
 43
0.00000001
 40
0.0
 40
0.0
 40
0.0
 40
0.0
 40
0.1249999999999999
 40
0.1249999999999999
 40
0.2499999999999998
 40
0.2499999999999998
 40
0.3124999999999998
 40
0.3124999999999998
 40
0.3749999999999998
 40
0.3749999999999998
 40
0.4374999999999997
 40
0.4374999999999997
 40
0.4999999999999997
 40
0.4999999999999997
 40
0.5624999999999997
 40
0.5624999999999997
 40
0.6249999999999996
 40
0.6249999999999996
 40
0.6874999999999997
 40
0.6874999999999997
 40
0.7499999999999997
 40
0.7499999999999997
 40
0.8124999999999998
 40
0.8124999999999998
 40
0.8749999999999999
 40
0.8749999999999999
 40
0.9374999999999999
 40
0.9374999999999999
 40
1.0
 40
1.0
 40
1.0
 40
1.0
 10
25.40000000000001
 20
-1.78442805282419
 30
0.0
 10
25.07329672354645
 20
-1.776610253020768
 30
0.0
 10
24.73511481610608
 20
-1.737631972554136
 30
0.0
 10
24.08070525406822
 20
-1.602894559013958
 30
0.0
 10
23.74347503428326
 20
-1.50580669459991
 30
0.0
 10
23.25194687383102
 20
-1.325653533074111
 30
0.0
 10
23.08524590327342
 20
-1.259311850089125
 30
0.0
 10
22.75249039584985
 20
-1.11642131482866
 30
0.0
 10
22.58771254862633
 20
-1.040089775975051
 30
0.0
 10
22.25956739849057
 20
-0.8794643433723878
 30
0.0
 10
22.09276485530797
 20
-0.7945881265492651
 30
0.0
 10
21.76007555116431
 20
-0.6188657186036112
 30
0.0
 10
21.59575438238129
 20
-0.5283238898813085
 30
0.0
 10
21.26717057166056
 20
-0.3435356140276499
 30
0.0
 10
21.10027757742214
 20
-0.2487832111551814
 30
0.0
 10
20.76767652155575
 20
-0.0581667318348147
 30
0.0
 10
20.60375907696232
 20
0.0373422363080849
 30
0.0
 10
20.27475775029722
 20
0.2274501346496684
 30
0.0
 10
20.10778544685679
 20
0.3224083866979509
 30
0.0
 10
19.77529466476776
 20
0.5084638229177115
 30
0.0
 10
19.6117279019427
 20
0.5992070211615587
 30
0.0
 10
19.28233029491218
 20
0.7752316268885365
 30
0.0
 10
19.11528984192068
 20
0.860701199206144
 30
0.0
 10
18.78293133475454
 20
1.023210547641266
 30
0.0
 10
18.61966213464711
 20
1.099953096838132
 30
0.0
 10
18.2898895692741
 20
1.243913801121485
 30
0.0
 10
18.12279214168381
 20
1.311166580188514
 30
0.0
 10
17.79058788138545
 20
1.433553745812275
 30
0.0
 10
17.62756305989116
 20
1.488494773020602
 30
0.0
 10
17.46250000000001
 20
1.537083181377274
 30
0.0
  0
SPLINE
  5
B4
330
1F
100
AcDbEntity
  8
0
  6
Continuous
 62
     1
370
    15
100
AcDbSpline
210
0.0
220
0.0
230
1.0
 70
     8
 71
     3
 72
    12
 73
     8
 74
     0
 42
0.000000001
 43
0.00000001
 40
0.0
 40
0.0
 40
0.0
 40
0.0
 40
0.2046530145429562
 40
0.4145775303416384
 40
0.624827504267646
 40
0.8123965278313229
 40
1.0
 40
1.0
 40
1.0
 40
1.0
 10
20.96872969191587
 20
-0.1723236816673028
 30
0.0
 10
20.72957588647488
 20
-0.0755932719215736
 30
0.0
 10
20.24510809472039
 20
0.1203591525803474
 30
0.0
 10
19.51478044847851
 20
0.4115943789209093
 30
0.0
 10
18.8041357831799
 20
0.6702446876724572
 30
0.0
 10
18.12016255839454
 20
0.8903877529386082
 30
0.0
 10
17.68173427173036
 20
0.9960479584331611
 30
0.0
 10
17.46249999999995
 20
1.048882912077991
 30
0.0
  0
SPLINE
  5
B5
330
1F
100
AcDbEntity
  8
외형선
  6
Continuous
370
    15
100
AcDbSpline
210
0.0
220
0.0
230
1.0
 70
    24
 71
     3
 72
    10
 73
     6
 74
     0
 42
0.000000001
 43
0.00000001
 40
0.0
 40
0.0
 40
0.0
 40
0.0
 40
0.5
 40
0.5
 40
1.0
 40
1.0
 40
1.0
 40
1.0
 10
17.46250000000001
 20
1.537083181377274
 30
0.0
 10
17.46250000000001
 20
1.47449389669683
 30
0.0
 10
17.4625
 20
1.396716266368722
 30
0.0
 10
17.46250000000001
 20
1.22735009580713
 30
0.0
 10
17.46250000000001
 20
1.136270532896864
 30
0.0
 10
17.46250000000001
 20
1.048882912077978
 30
0.0
  0
SPLINE
  5
B6
330
1F
100
AcDbEntity
  8
0
  6
Continuous
 62
     1
370
    15
100
AcDbSpline
210
0.0
220
0.0
230
1.0
 70
     8
 71
     3
 72
    34
 73
    30
 74
     0
 42
0.000000001
 43
0.00000001
 40
0.0
 40
0.0
 40
0.0
 40
0.0
 40
0.1249999999999999
 40
0.1249999999999999
 40
0.2499999999999998
 40
0.2499999999999998
 40
0.3124999999999999
 40
0.3124999999999999
 40
0.3749999999999999
 40
0.3749999999999999
 40
0.4375000000000001
 40
0.4375000000000001
 40
0.5000000000000001
 40
0.5000000000000001
 40
0.5625000000000002
 40
0.5625000000000002
 40
0.6250000000000002
 40
0.6250000000000002
 40
0.6875000000000002
 40
0.6875000000000002
 40
0.7500000000000001
 40
0.7500000000000001
 40
0.8125000000000001
 40
0.8125000000000001
 40
0.8750000000000001
 40
0.8750000000000001
 40
0.9375
 40
0.9375
 40
1.0
 40
1.0
 40
1.0
 40
1.0
 10
25.40000000000001
 20
-1.694749083643846
 30
0.0
 10
25.07329672354645
 20
-1.634753188167392
 30
0.0
 10
24.73511481610609
 20
-1.544570529994208
 30
0.0
 10
24.08070525406822
 20
-1.316774704743852
 30
0.0
 10
23.74347503428326
 20
-1.176869429667795
 30
0.0
 10
23.25194687383103
 20
-0.9425293870776109
 30
0.0
 10
23.08524590327343
 20
-0.8595865171643513
 30
0.0
 10
22.75249039584985
 20
-0.6871030640995588
 30
0.0
 10
22.58771254862634
 20
-0.597809281421411
 30
0.0
 10
22.25956739849059
 20
-0.4151617548999927
 30
0.0
 10
22.09276485530798
 20
-0.3211595860345307
 30
0.0
 10
21.76007555116433
 20
-0.131360178952705
 30
0.0
 10
21.5957543823813
 20
-0.0358756469709724
 30
0.0
 10
21.26717057166058
 20
0.1545711019781969
 30
0.0
 10
21.10027757742216
 20
0.2500395901374422
 30
0.0
 10
20.76767652155577
 20
0.4377830010167674
 30
0.0
 10
20.60375907696234
 20
0.5297257366591797
 30
0.0
 10
20.27475775029724
 20
0.7085365143393504
 30
0.0
 10
20.10778544685681
 20
0.7957249878228709
 30
0.0
 10
19.77529466476778
 20
0.9622538856391948
 30
0.0
 10
19.61172790194272
 20
1.041297948896546
 30
0.0
 10
19.28233029491221
 20
1.190209027579114
 30
0.0
 10
19.11528984192071
 20
1.260213668190332
 30
0.0
 10
18.78293133475457
 20
1.388539697013006
 30
0.0
 10
18.61966213464714
 20
1.446652220306777
 30
0.0
 10
18.28988956927413
 20
1.550438440784411
 30
0.0
 10
18.12279214168383
 20
1.596108025754456
 30
0.0
 10
17.79058788138548
 20
1.673147507889787
 30
0.0
 10
17.62756305989118
 20
1.704432617276832
 30
0.0
 10
17.46250000000004
 20
1.728449055667563
 30
0.0
  0
SPLINE
  5
B7
330
1F
100
AcDbEntity
  8
0
  6
Continuous
 62
     1
370
    15
100
AcDbSpline
210
0.0
220
0.0
230
1.0
 70
     8
 71
     3
 72
    14
 73
    10
 74
     0
 42
0.000000001
 43
0.00000001
 40
0.0
 40
0.0
 40
0.0
 40
0.0
 40
0.1584360268583152
 40
0.3164622400994275
 40
0.4744659355412563
 40
0.6328350284512659
 40
0.7913324968424256
 40
0.9493864198498134
 40
1.0
 40
1.0
 40
1.0
 40
1.0
 10
25.40000000000001
 20
-1.409055153395111
 30
0.0
 10
25.15437197375348
 20
-1.35657886482876
 30
0.0
 10
24.66375126734881
 20
-1.25176202385444
 30
0.0
 10
23.92859665970055
 20
-1.00244334060939
 30
0.0
 10
23.1935466485616
 20
-0.7024555235624789
 30
0.0
 10
22.45743259177641
 20
-0.3611357674721922
 30
0.0
 10
21.7210598200331
 20
-0.0022554209445227
 30
0.0
 10
21.15217169870045
 20
0.282002902800753
 30
0.0
 10
20.82883375870442
 20
0.4293900718893104
 30
0.0
 10
20.75040616219828
 20
0.465139731912508
 30
0.0
  0
LINE
  5
B8
330
1F
100
AcDbEntity
  8
0
  6
Continuous
 62
     1
370
    15
100
AcDbLine
 10
25.40000000000001
 20
-1.694749083643846
 30
0.0
 11
25.40000000000001
 21
-1.409055153395111
 31
0.0
  0
LINE
  5
B9
330
1F
100
AcDbEntity
  8
0
  6
Continuous
 62
     1
370
    15
100
AcDbLine
 10
25.40000000000001
 20
-1.784428052824191
 30
0.0
 11
25.40000000000001
 21
-1.694749083643846
 31
0.0
  0
SPLINE
  5
BA
330
1F
100
AcDbEntity
  8
0
  6
Continuous
 62
     1
370
    15
100
AcDbSpline
210
0.0
220
0.0
230
1.0
 70
     8
 71
     3
 72
     8
 73
     4
 74
     0
 42
0.000000001
 43
0.00000001
 40
0.0
 40
0.0
 40
0.0
 40
0.0
 40
1.0
 40
1.0
 40
1.0
 40
1.0
 10
24.29435610163609
 20
0.5001697058188495
 30
0.0
 10
24.23111190382926
 20
0.5750934330415739
 30
0.0
 10
24.17465597961277
 20
0.6472264353891599
 30
0.0
 10
24.12659004714623
 20
0.7159102310471072
 30
0.0
  0
LINE
  5
BB
330
1F
100
AcDbEntity
  8
0
  6
Continuous
 62
     1
370
    15
100
AcDbLine
 10
24.14921237855563
 20
0.7348926209891085
 30
0.0
 11
25.40000000000001
 21
0.000000000000002
 31
0.0
  0
LINE
  5
BC
330
1F
100
AcDbEntity
  8
0
  6
Continuous
 62
     1
370
    15
100
AcDbLine
 10
25.40000000000001
 20
0.000000000000002
 30
0.0
 11
25.40000000000001
 21
-0.477279198924817
 31
0.0
  0
SPLINE
  5
BD
330
1F
100
AcDbEntity
  8
0
  6
Continuous
 62
     1
370
    15
100
AcDbSpline
210
0.0
220
0.0
230
1.0
 70
     8
 71
     3
 72
    10
 73
     6
 74
     0
 42
0.000000001
 43
0.00000001
 40
0.0
 40
0.0
 40
0.0
 40
0.0
 40
0.5
 40
0.5
 40
1.0
 40
1.0
 40
1.0
 40
1.0
 10
25.40000000000001
 20
-0.4772791989248167
 30
0.0
 10
25.20860029268922
 20
-0.3268046018107791
 30
0.0
 10
25.02040107205846
 20
-0.1701549815729978
 30
0.0
 10
24.65055667289952
 20
0.1557896361788871
 30
0.0
 10
24.46719088418342
 20
0.3268069389701391
 30
0.0
 10
24.29435610163609
 20
0.500169705818848
 30
0.0
  0
SPLINE
  5
BE
330
1F
100
AcDbEntity
  8
0
  6
Continuous
 62
     1
370
    15
100
AcDbSpline
210
0.0
220
0.0
230
1.0
 70
     8
 71
     3
 72
    14
 73
    10
 74
     0
 42
0.000000001
 43
0.00000001
 40
0.0
 40
0.0
 40
0.0
 40
0.0
 40
0.1342745451210757
 40
0.2676526463353784
 40
0.4467419336502111
 40
0.625978493755742
 40
0.8047064704250706
 40
0.9833569530680879
 40
1.0
 40
1.0
 40
1.0
 40
1.0
 10
24.29435610163609
 20
0.5001697058188469
 30
0.0
 10
24.11022368659625
 20
0.5779919720679555
 30
0.0
 10
23.74318816160453
 20
0.7331169474429118
 30
0.0
 10
23.13159051704896
 20
0.9635210940591108
 30
0.0
 10
22.45736205602421
 20
1.173963169902503
 30
0.0
 10
21.72107867960096
 20
1.339782852195063
 30
0.0
 10
20.9857478684885
 20
1.422209588059115
 30
0.0
 10
20.47331075957462
 20
1.445270051653668
 30
0.0
 10
20.20562282958187
 20
1.418113358071359
 30
0.0
 10
20.18281028278796
 20
1.415799046241419
 30
0.0
  0
SPLINE
  5
BF
330
1F
100
AcDbEntity
  8
0
  6
Continuous
 62
     1
370
    15
100
AcDbSpline
210
0.0
220
0.0
230
1.0
 70
    24
 71
     3
 72
    10
 73
     6
 74
     0
 42
0.000000001
 43
0.00000001
 40
0.0
 40
0.0
 40
0.0
 40
0.0
 40
0.5
 40
0.5
 40
1.0
 40
1.0
 40
1.0
 40
1.0
 10
25.40000000000001
 20
-1.40905515339511
 30
0.0
 10
25.40000000000001
 20
-1.301040090048983
 30
0.0
 10
25.40000000000001
 20
-1.164558915789208
 30
0.0
 10
25.40000000000001
 20
-0.8472533204831665
 30
0.0
 10
25.40000000000001
 20
-0.6667037615744472
 30
0.0
 10
25.40000000000001
 20
-0.4772791989248741
 30
0.0
  0
SPLINE
  5
C0
330
1F
100
AcDbEntity
  8
0
  6
Continuous
 62
     1
370
    15
100
AcDbSpline
210
0.0
220
0.0
230
1.0
 70
    24
 71
     3
 72
     8
 73
     4
 74
     0
 42
0.000000001
 43
0.00000001
 40
0.0
 40
0.0
 40
0.0
 40
0.0
 40
1.0
 40
1.0
 40
1.0
 40
1.0
 10
24.31313864972742
 20
0.8724430946696258
 30
0.0
 10
24.25422132641292
 20
0.8230055904064774
 30
0.0
 10
24.19167021350774
 20
0.7705189746379806
 30
0.0
 10
24.12659004714624
 20
0.7159102310470955
 30
0.0
  0
LINE
  5
C1
330
1F
100
AcDbEntity
  8
0
  6
Continuous
 62
     1
370
    15
100
AcDbLine
 10
25.40000000000001
 20
1.250156250000001
 30
0.0
 11
24.73483007414588
 21
1.218356094831966
 31
0.0
  0
SPLINE
  5
C2
330
1F
100
AcDbEntity
  8
0
  6
Continuous
 62
     1
370
    15
100
AcDbSpline
210
0.0
220
0.0
230
1.0
 70
     8
 71
     3
 72
    17
 73
    13
 74
     0
 42
0.000000001
 43
0.00000001
 40
0.0
 40
0.0
 40
0.0
 40
0.0
 40
0.0004646954522281
 40
0.0004646954522281
 40
0.0004646954522281
 40
0.0009294090712162
 40
0.0009294090712162
 40
0.0009294090712162
 40
0.001317453739494
 40
0.001317453739494
 40
0.001317453739494
 40
0.001468970435406
 40
0.001468970435406
 40
0.001468970435406
 40
0.001468970435406
 10
25.40000000000001
 20
1.250156250000002
 30
0.0
 10
25.28382905130724
 20
1.218601605831984
 30
0.0
 10
25.16802671177904
 20
1.184624524395231
 30
0.0
 10
25.05271526594922
 20
1.148090422770174
 30
0.0
 10
24.93740122597806
 20
1.111555499243848
 30
0.0
 10
24.82254250731154
 20
1.072454958949669
 30
0.0
 10
24.70830656343645
 20
1.030544063343239
 30
0.0
 10
24.61291442161558
 20
0.9955465838992956
 30
0.0
 10
24.51792914298406
 20
0.9585830591924345
 30
0.0
 10
24.42349282630748
 20
0.9194165157699904
 30
0.0
 10
24.38661823946836
 20
0.9041231396892067
 30
0.0
 10
24.34982853508788
 20
0.8884756114943327
 30
0.0
 10
24.31313864974238
 20
0.8724430946761655
 30
0.0
  0
SPLINE
  5
C3
330
1F
100
AcDbEntity
  8
0
  6
Continuous
 62
     1
370
    15
100
AcDbSpline
210
0.0
220
0.0
230
1.0
 70
     8
 71
     3
 72
    13
 73
     9
 74
     0
 42
0.000000001
 43
0.00000001
 40
0.0
 40
0.0
 40
0.0
 40
0.0
 40
0.1522068312822474
 40
0.328954570558263
 40
0.5060662223513415
 40
0.6834453014707013
 40
0.841708491909608
 40
1.0
 40
1.0
 40
1.0
 40
1.0
 10
21.61814412537317
 20
-1.33826518914896
 30
0.0
 10
21.4073115986603
 20
-1.36798297239684
 30
0.0
 10
20.951653185038
 20
-1.432210054347729
 30
0.0
 10
20.25078371473084
 20
-1.434614223502136
 30
0.0
 10
19.51480756398497
 20
-1.363994739259963
 30
0.0
 10
18.80409082441479
 20
-1.219393618161503
 30
0.0
 10
18.12017331854722
 20
-1.022326323556002
 30
0.0
 10
17.68173751305658
 20
-0.8590633489024835
 30
0.0
 10
17.46249999999999
 20
-0.7774245591663174
 30
0.0
  0
SPLINE
  5
C4
330
1F
100
AcDbEntity
  8
외형선
  6
Continuous
370
    15
100
AcDbSpline
210
0.0
220
0.0
230
1.0
 70
    24
 71
     3
 72
    14
 73
    10
 74
     0
 42
0.000000001
 43
0.00000001
 40
0.0
 40
0.0
 40
0.0
 40
0.0
 40
0.25
 40
0.25
 40
0.5
 40
0.5
 40
0.75
 40
0.75
 40
1.0
 40
1.0
 40
1.0
 40
1.0
 10
17.46249999999997
 20
1.048882912077985
 30
0.0
 10
17.46249999999997
 20
0.9365129052738129
 30
0.0
 10
17.46249999999997
 20
0.8068837745117315
 30
0.0
 10
17.46249999999997
 20
0.520988928081493
 30
0.0
 10
17.46249999999997
 20
0.3648104006656375
 30
0.0
 10
17.46249999999997
 20
0.0402229085537721
 30
0.0
 10
17.46249999999997
 20
-0.128013102356015
 30
0.0
 10
17.46249999999997
 20
-0.4598508567489641
 30
0.0
 10
17.46249999999997
 20
-0.6233008826866268
 30
0.0
 10
17.46249999999997
 20
-0.77742455916631
 30
0.0
  0
LINE
  5
C5
330
1F
100
AcDbEntity
  8
0
  6
Continuous
 62
     1
370
    15
100
AcDbLine
 10
17.6014991763044
 20
-1.469361642004255
 30
0.0
 11
17.46249999999989
 21
-1.489538341148355
 31
0.0
  0
SPLINE
  5
C6
330
1F
100
AcDbEntity
  8
외형선
  6
Continuous
370
    15
100
AcDbSpline
210
0.0
220
0.0
230
1.0
 70
    24
 71
     3
 72
    10
 73
     6
 74
     0
 42
0.000000001
 43
0.00000001
 40
0.0
 40
0.0
 40
0.0
 40
0.0
 40
0.5
 40
0.5
 40
1.0
 40
1.0
 40
1.0
 40
1.0
 10
17.46250000000001
 20
-0.7774245591663224
 30
0.0
 10
17.46250000000001
 20
-0.989671029230664
 30
0.0
 10
17.46250000000001
 20
-1.173512286503088
 30
0.0
 10
17.46250000000001
 20
-1.422431340351269
 30
0.0
 10
17.46250000000001
 20
-1.486437692009973
 30
0.0
 10
17.46250000000001
 20
-1.489538341148344
 30
0.0
  0
LINE
  5
C7
330
1F
100
AcDbEntity
  8
0
  6
Continuous
 62
     1
370
    15
100
AcDbLine
 10
25.40000000000001
 20
0.000000000000002
 30
0.0
 11
25.40000000000001
 21
1.250156250000001
 31
0.0
  0
SPLINE
  5
C8
330
1F
100
AcDbEntity
  8
0
  6
Continuous
 62
     1
370
    15
100
AcDbSpline
210
0.0
220
0.0
230
1.0
 70
     8
 71
     3
 72
    11
 73
     7
 74
     0
 42
0.000000001
 43
0.00000001
 40
0.0
 40
0.0
 40
0.0
 40
0.0
 40
0.1403879363493222
 40
0.4268031618875538
 40
0.7129747367696363
 40
1.0
 40
1.0
 40
1.0
 40
1.0
 10
22.96299836739023
 20
1.198978219527204
 30
0.0
 10
23.07710889780484
 20
1.249000485070574
 30
0.0
 10
23.42402428421268
 20
1.401076665217321
 30
0.0
 10
24.00299435743771
 20
1.583714810806015
 30
0.0
 10
24.70092253959746
 20
1.742060979949692
 30
0.0
 10
25.166742923976
 20
1.770291680107052
 30
0.0
 10
25.40000000000001
 20
1.784428052824192
 30
0.0
  0
SPLINE
  5
C9
330
1F
100
AcDbEntity
  8
0
  6
Continuous
 62
     1
370
    15
100
AcDbSpline
210
0.0
220
0.0
230
1.0
 70
    24
 71
     3
 72
    10
 73
     6
 74
     0
 42
0.000000001
 43
0.00000001
 40
0.0
 40
0.0
 40
0.0
 40
0.0
 40
0.5
 40
0.5
 40
1.0
 40
1.0
 40
1.0
 40
1.0
 10
25.40000000000001
 20
1.250156250000001
 30
0.0
 10
25.40000000000001
 20
1.325937608641813
 30
0.0
 10
25.40000000000001
 20
1.414002565492368
 30
0.0
 10
25.40000000000001
 20
1.598762607778528
 30
0.0
 10
25.40000000000001
 20
1.694985839251693
 30
0.0
 10
25.40000000000001
 20
1.784428052824193
 30
0.0
  0
SPLINE
  5
CA
330
1F
100
AcDbEntity
  8
0
  6
Continuous
 62
     1
370
    15
100
AcDbSpline
210
0.0
220
0.0
230
1.0
 70
     8
 71
     3
 72
     9
 73
     5
 74
     0
 42
0.000000001
 43
0.00000001
 40
0.0
 40
0.0
 40
0.0
 40
0.0
 40
0.4408069140438853
 40
1.0
 40
1.0
 40
1.0
 40
1.0
 10
18.71025729034767
 20
-1.406664945810143
 30
0.0
 10
18.52693682927235
 20
-1.470429850534225
 30
0.0
 10
18.11106208857565
 20
-1.615084806462919
 30
0.0
 10
17.6951020035693
 20
-1.687791804862111
 30
0.0
 10
17.46250000000003
 20
-1.728449055667561
 30
0.0
  0
SPLINE
  5
CB
330
1F
100
AcDbEntity
  8
외형선
  6
Continuous
370
    15
100
AcDbSpline
210
0.0
220
0.0
230
1.0
 70
    24
 71
     3
 72
     8
 73
     4
 74
     0
 42
0.000000001
 43
0.00000001
 40
0.0
 40
0.0
 40
0.0
 40
0.0
 40
1.0
 40
1.0
 40
1.0
 40
1.0
 10
17.46250000000001
 20
-1.489538341148345
 30
0.0
 10
17.46250000000001
 20
-1.572912359145889
 30
0.0
 10
17.46250000000001
 20
-1.653077675588802
 30
0.0
 10
17.46250000000001
 20
-1.728449055667328
 30
0.0
  0
LINE
  5
CC
330
1F
100
AcDbEntity
  8
중심선
 62
     1
100
AcDbLine
 10
-28.4
 20
-0.0000000000000035
 30
0.0
 11
28.4
 21
0.0000000000000035
 31
0.0
  0
LINE
  5
CD
330
1F
100
AcDbEntity
  8
참조1
100
AcDbLine
 10
-7.056711678730513
 20
0.0010749287238892
 30
0.0
 11
-7.056711678730506
 21
-39.99892507127611
 31
0.0
  0
LINE
  5
CE
330
1F
100
AcDbEntity
  8
참조1
100
AcDbLine
 10
-7.056711678730506
 20
-39.99892507127611
 30
0.0
 11
-29.45992727542973
 21
-39.9989250712761
 31
0.0
  0
CIRCLE
  5
CF
330
1F
100
AcDbEntity
  8
해칭선
100
AcDbCircle
 10
0.0
 20
0.0000000000000006
 30
0.0
 40
3.000000000000002
  0
INSERT
  5
D0
330
1F
100
AcDbEntity
  8
0
  6
Continuous
 62
     7
100
AcDbBlockReference
 66
     1
  2
블럭10
 10
-13.74360297844711
 20
-24.89772812019068
 30
0.0
  0
ATTRIB
  5
D1
330
D0
100
AcDbEntity
  8
FORMAT
 62
     2
100
AcDbText
 10
-22.92489826718839
 20
-22.82236120735849
 30
0.0
 40
4.233333333333333
  1
E5022009 [ 2 FLUTE ]
 41
0.75
  7
SLDTEXTSTYLE0
 11
-22.92489826718839
 21
-24.93902787402516
 31
0.0
100
AcDbAttribute
  2
AUTOATTR0
 70
     0
 74
     1
  0
SEQEND
  5
D2
330
D0
100
AcDbEntity
  8
0
  6
Continuous
 62
     7
  0
HATCH
  5
D3
330
1F
100
AcDbEntity
  8
중심선
100
AcDbHatch
 10
0.0
 20
0.0
 30
0.0
210
0.0
220
0.0
230
1.0
  2
SOLID
 70
     1
 71
     0
 91
        1
 92
        0
 93
        4
 72
     1
 10
-8.028693674066275
 20
-8.650553818546744
 11
-11.47496891790356
 21
-8.650553818546744
 72
     1
 10
-11.47496891790356
 20
-8.650553818546744
 11
-13.60319877710758
 21
-11.18687939911934
 72
     1
 10
-13.60319877710758
 20
-11.18687939911934
 11
-10.15689044815715
 21
-11.18683996981686
 72
     1
 10
-10.15689044815715
 20
-11.18683996981686
 11
-8.028693674066275
 21
-8.650553818546744
 97
        0
 75
     0
 76
     1
 98
        1
 10
7.253381632408605
 20
27.14837125272936
  0
HATCH
  5
D4
330
1F
100
AcDbEntity
  8
중심선
100
AcDbHatch
 10
0.0
 20
0.0
 30
0.0
210
0.0
220
0.0
230
1.0
  2
SOLID
 70
     1
 71
     0
 91
        1
 92
        0
 93
        4
 72
     1
 10
-3.015929683030295
 20
-8.650553818546744
 11
-6.462204926867578
 21
-8.650553818546744
 72
     1
 10
-6.462204926867578
 20
-8.650553818546744
 11
-10.99334293522499
 21
-14.05055381854676
 72
     1
 10
-10.99334293522499
 20
-14.05055381854676
 11
-7.547067691387712
 21
-14.05055381854676
 72
     1
 10
-7.547067691387712
 20
-14.05055381854676
 11
-3.015929683030295
 21
-8.650553818546744
 97
        0
 75
     0
 76
     1
 98
        1
 10
7.253381632408605
 20
27.14837125272936
  0
HATCH
  5
D5
330
1F
100
AcDbEntity
  8
중심선
100
AcDbHatch
 10
0.0
 20
0.0
 30
0.0
210
0.0
220
0.0
230
1.0
  2
SOLID
 70
     1
 71
     0
 91
        1
 92
        0
 93
        4
 72
     1
 10
1.996834308005599
 20
-8.650553818546744
 11
-1.449440935831516
 21
-8.650553818546744
 72
     1
 10
-1.449440935831516
 20
-8.650553818546744
 11
-8.497877837720793
 21
-17.05055381854676
 72
     1
 10
-8.497877837720793
 20
-17.05055381854676
 11
-5.05160259388351
 21
-17.05055381854676
 72
     1
 10
-5.05160259388351
 20
-17.05055381854676
 11
1.996834308005599
 21
-8.650553818546744
 97
        0
 75
     0
 76
     1
 98
        1
 10
7.253381632408605
 20
27.14837125272936
  0
HATCH
  5
D6
330
1F
100
AcDbEntity
  8
중심선
100
AcDbHatch
 10
0.0
 20
0.0
 30
0.0
210
0.0
220
0.0
230
1.0
  2
SOLID
 70
     1
 71
     0
 91
        1
 92
        0
 93
        6
 72
     3
 10
6.796724739017772
 20
-12.85055381859802
 11
3.960054785062284
 21
1.540882976769353E-10
 40
0.3939339440162627
 50
17.09539180608436
 51
320.0019657685081
 73
     0
 72
     1
 10
8.479724394718367
 20
-11.43844782318505
 11
10.78502626841943
 21
-9.5041211131371
 72
     3
 10
6.796724738964925
 20
-12.8505538185469
 11
6.60005478528683
 21
-1.278976924368180E-13
 40
0.636358354079598
 50
39.99873849337413
 51
368.4976242363724
 73
     1
 72
     1
 10
13.22205723086553
 20
-11.89055381847677
 11
5.476792045800847
 21
-11.89055381847677
 72
     1
 10
5.476792045800847
 20
-11.89055381847677
 11
5.476767001354913
 21
-13.81055381847666
 72
     1
 10
5.476767001354913
 20
-13.81055381847666
 11
9.91814677082695
 21
-13.81055381847663
 97
        0
 75
     0
 76
     1
 98
        1
 10
7.253381632408605
 20
27.14837125272936
  0
DIMENSION
  5
D7
330
1F
100
AcDbEntity
  8
치수문자_일반주서
100
AcDbDimension
  2
_D
 10
-34.90794653049092
 20
-2.381250000000083
 30
0.0
 11
-34.907946530491
 21
22.98524999999993
 31
0.0
 70
   160
  1
%%c<>
 71
     2
 42
4.762500000000005
 52
-270.0
  3
SLDDIMSTYLE0
100
AcDbAlignedDimension
 13
-14.24076350361915
 23
2.381249999999998
 33
0.0
 14
-14.24076350361915
 24
-2.381250000000006
 34
0.0
 50
90.0000000000002
100
AcDbRotatedDimension
1001
ACAD
1000
DSTYLE
1002
{
1070
   171
1070
     6
1070
   273
1070
     5
1002
}
  0
DIMENSION
  5
EC
330
1F
100
AcDbEntity
  8
치수문자_일반주서
100
AcDbDimension
  2
_D_1
 10
38.2885002758855
 20
1.784428052824239
 30
0.0
 11
38.28850027588541
 21
22.82592805282424
 31
0.0
 70
   160
  1
%%c<>
 71
     2
 42
3.568856105648384
 52
-270.0
  3
SLDDIMSTYLE0
100
AcDbAlignedDimension
 13
25.40000000000001
 23
-1.784428052824191
 33
0.0
 14
25.40000000000001
 24
1.784428052824193
 34
0.0
 50
90.0000000000002
100
AcDbRotatedDimension
1001
ACAD
1000
DSTYLE
1002
{
1070
   171
1070
     6
1070
   273
1070
     5
1002
}
  0
DIMENSION
  5
100
330
1F
100
AcDbEntity
  8
치수문자_일반주서
100
AcDbDimension
  2
_D_2
 10
17.46250000000001
 20
15.95769619268846
 30
0.0
 11
-1.828999999999995
 21
15.95769619268846
 31
0.0
 70
   160
  1
<>
 71
     2
 42
7.9375
  3
SLDDIMSTYLE0
100
AcDbAlignedDimension
 13
25.40000000000001
 23
1.784428052824193
 33
0.0
 14
17.46250000000001
 24
1.728449055667567
 34
0.0
100
AcDbRotatedDimension
1001
ACAD
1000
DSTYLE
1002
{
1070
   171
1070
     6
1070
   273
1070
     5
1002
}
  0
DIMENSION
  5
115
330
1F
100
AcDbEntity
  8
치수문자_일반주서
100
AcDbDimension
  2
_D_3
 10
25.40000000000001
 20
27.89468996488094
 30
0.0
 11
4.26733810707978
 21
27.89468996488094
 31
0.0
 70
   160
  1
<>
 71
     2
 42
50.8
  3
SLDDIMSTYLE0
100
AcDbAlignedDimension
 13
-25.39999999999999
 23
1.784428052824185
 33
0.0
 14
25.40000000000001
 24
1.784428052824193
 34
0.0
100
AcDbRotatedDimension
1001
ACAD
1000
DSTYLE
1002
{
1070
   171
1070
     6
1070
   273
1070
     5
1002
}
  0
LINE
  5
129
330
1F
100
AcDbEntity
  8
참조1
100
AcDbLine
 10
68.51241335422453
 20
7.441074928723896
 30
0.0
 11
68.51241335422453
 21
-7.438925071276109
 31
0.0
  0
LINE
  5
12A
330
1F
100
AcDbEntity
  8
참조1
100
AcDbLine
 10
81.21241335422454
 20
5.441074928723896
 30
0.0
 11
68.51241335422453
 21
5.441074928723896
 31
0.0
  0
SOLID
  5
12B
330
1F
100
AcDbEntity
  8
참조1
100
AcDbTrace
 10
68.51241335422453
 20
5.441074928723896
 30
0.0
 11
74.86241335422453
 21
4.425074928723896
 31
0.0
 12
74.86241335422453
 22
6.457074928723896
 32
0.0
 13
74.86241335422453
 23
6.457074928723896
 33
0.0
  0
LINE
  5
12C
330
1F
100
AcDbEntity
  8
참조1
100
AcDbLine
 10
81.21241335422454
 20
-5.438925071276109
 30
0.0
 11
68.51241335422453
 21
-5.438925071276109
 31
0.0
  0
SOLID
  5
12D
330
1F
100
AcDbEntity
  8
참조1
100
AcDbTrace
 10
68.51241335422453
 20
-5.438925071276109
 30
0.0
 11
74.86241335422453
 21
-6.454925071276109
 31
0.0
 12
74.86241335422453
 22
-4.422925071276109
 32
0.0
 13
74.86241335422453
 23
-4.422925071276109
 33
0.0
  0
MTEXT
  5
12E
330
1F
100
AcDbEntity
  8
참조1
100
AcDbMText
 10
77.89676348685053
 20
11.01136670591222
 30
0.0
 40
3.5
 41
0.0
 71
     1
 72
     1
  1
A
  7
SLDTEXTSTYLE0
 73
     1
 44
1.0
  0
MTEXT
  5
12F
330
1F
100
AcDbEntity
  8
참조1
100
AcDbMText
 10
77.89676348685053
 20
0.1313667059122192
 30
0.0
 40
3.5
 41
0.0
 71
     1
 72
     1
  1
A
  7
SLDTEXTSTYLE0
 73
     1
 44
1.0
  0
INSERT
  5
136
330
1F
100
AcDbEntity
  8
해칭선
100
AcDbBlockReference
  2
SW_DOWELSYMBOL_0
 10
0.0
 20
0.0000000000000006
 30
0.0
  0
LINE
  5
2CC
330
1F
100
AcDbEntity
  8
외형선
  6
Continuous
370
    15
100
AcDbLine
 10
-14.24076350361915
 20
2.381249999999997
 30
0.0
 11
-16.46249999999999
 21
1.785937499999998
 31
0.0
  0
LINE
  5
2CD
330
1F
100
AcDbEntity
  8
외형선
  6
Continuous
370
    15
100
AcDbLine
 10
-16.46249999999999
 20
-1.7859375
 30
0.0
 11
-14.24076350361915
 21
-2.381250000000006
 31
0.0
  0
LINE
  5
2CE
330
1F
100
AcDbEntity
  8
외형선
  6
Continuous
370
    15
100
AcDbLine
 10
-16.67492698415919
 20
-1.7859375
 30
0.0
 11
-16.46249999999999
 21
-1.7859375
 31
0.0
  0
LINE
  5
2CF
330
1F
100
AcDbEntity
  8
외형선
  6
Continuous
370
    15
100
AcDbLine
 10
-16.46249999999999
 20
1.785937499999998
 30
0.0
 11
-16.67492698415919
 21
1.785937499999998
 31
0.0
  0
LINE
  5
2D0
330
1F
100
AcDbEntity
  8
0
  6
Continuous
 62
     1
370
    15
100
AcDbLine
 10
-20.77220233760717
 20
-0.4576773090890829
 30
0.0
 11
-20.2785404998329
 21
-0.7053615939574815
 31
0.0
  0
SPLINE
  5
2D1
330
1F
100
AcDbEntity
  8
0
  6
Continuous
 62
     1
370
    15
100
AcDbSpline
210
0.0
220
0.0
230
1.0
 70
     8
 71
     3
 72
    17
 73
    13
 74
     0
 42
0.000000001
 43
0.00000001
 40
0.0
 40
0.0
 40
0.0
 40
0.0
 40
0.1875463946761066
 40
0.3155651651815437
 40
0.3985593936923583
 40
0.4783684638101871
 40
0.5600624531853032
 40
0.6472019049699532
 40
0.739593808221955
 40
0.835967337438324
 40
0.9851486723860066
 40
1.0
 40
1.0
 40
1.0
 40
1.0
 10
-20.18316879074375
 20
-1.419175078987846
 30
0.0
 10
-20.09133423571755
 20
-1.414692473759257
 30
0.0
 10
-19.93681360856144
 20
-1.407150051726316
 30
0.0
 10
-19.74225645245903
 20
-1.401062034304443
 30
0.0
 10
-19.6011876990158
 20
-1.397785806126362
 30
0.0
 10
-19.48214452954231
 20
-1.395875965348975
 30
0.0
 10
-19.3607759514213
 20
-1.394794716558392
 30
0.0
 10
-19.23331422555124
 20
-1.394607635785645
 30
0.0
 10
-19.09871752153336
 20
-1.395420827439108
 30
0.0
 10
-18.93363964760987
 20
-1.397923948757265
 30
0.0
 10
-18.80725143548705
 20
-1.400599032522512
 30
0.0
 10
-18.72605845739872
 20
-1.4036632000057
 30
0.0
 10
-18.71870733903781
 20
-1.403940626186843
 30
0.0
  0
SPLINE
  5
2D2
330
1F
100
AcDbEntity
  8
0
  6
Continuous
 62
     1
370
    15
100
AcDbSpline
210
0.0
220
0.0
230
1.0
 70
     8
 71
     3
 72
    12
 73
     8
 74
     0
 42
0.000000001
 43
0.00000001
 40
0.0
 40
0.0
 40
0.0
 40
0.0
 40
0.1194393956465541
 40
0.500494443713957
 40
0.685503523364053
 40
0.7883433223862428
 40
0.9999999999999999
 40
0.9999999999999999
 40
0.9999999999999999
 40
0.9999999999999999
 10
-24.73573639970262
 20
-1.221497014014564
 30
0.0
 10
-24.61083938687932
 20
-1.211842108509328
 30
0.0
 10
-24.08747554519087
 20
-1.171384548139121
 30
0.0
 10
-23.37571815115815
 20
-1.168432119107462
 30
0.0
 10
-22.68616253798835
 20
-1.212298743511331
 30
0.0
 10
-22.16393911201341
 20
-1.263805403088793
 30
0.0
 10
-21.83631707798077
 20
-1.31130479492703
 30
0.0
 10
-21.61582687733319
 20
-1.343271968526861
 30
0.0
  0
SPLINE
  5
2D3
330
1F
100
AcDbEntity
  8
0
  6
Continuous
 62
     1
370
    15
100
AcDbSpline
210
0.0
220
0.0
230
1.0
 70
     8
 71
     3
 72
    15
 73
    11
 74
     0
 42
0.000000001
 43
0.00000001
 40
0.0
 40
0.0
 40
0.0
 40
0.0
 40
0.211741547480768
 40
0.358637471181615
 40
0.4440164309181709
 40
0.5188106933551845
 40
0.5970304036272873
 40
0.6811669884834679
 40
0.838902792590955
 40
1.0
 40
1.0
 40
1.0
 40
1.0
 10
-21.61582687733319
 20
1.343271968526852
 30
0.0
 10
-21.71092797302757
 20
1.328794251907243
 30
0.0
 10
-21.87200555497697
 20
1.304272603989221
 30
0.0
 10
-22.07103419774374
 20
1.278437198889025
 30
0.0
 10
-22.20738998030787
 20
1.262079625579882
 30
0.0
 10
-22.31334130065628
 20
1.250182998553032
 30
0.0
 10
-22.41917384988147
 20
1.239057491038028
 30
0.0
 10
-22.56222803369441
 20
1.225161677013413
 30
0.0
 10
-22.74233182213327
 20
1.209811829539663
 30
0.0
 10
-22.8848869990243
 20
1.200897826231897
 30
0.0
 10
-22.9569160552052
 20
1.196393835152409
 30
0.0
  0
SPLINE
  5
2D4
330
1F
100
AcDbEntity
  8
0
  6
Continuous
 62
     1
370
    15
100
AcDbSpline
210
0.0
220
0.0
230
1.0
 70
     8
 71
     3
 72
    11
 73
     7
 74
     0
 42
0.000000001
 43
0.00000001
 40
0.0
 40
0.0
 40
0.0
 40
0.0
 40
0.2125729080253984
 40
0.4920024102963326
 40
0.6765909661782388
 40
1.0
 40
1.0
 40
1.0
 40
1.0
 10
-17.60001901370896
 20
1.474989644916038
 30
0.0
 10
-17.77834893399063
 20
1.459899812372494
 30
0.0
 10
-18.19109556017899
 20
1.424974223541094
 30
0.0
 10
-18.78255517166507
 20
1.398565760343689
 30
0.0
 10
-19.46297215026587
 20
1.39041464866523
 30
0.0
 10
-19.90301935114586
 20
1.407987553269687
 30
0.0
 10
-20.18316879074375
 20
1.419175078987844
 30
0.0
  0
LINE
  5
2D5
330
1F
100
AcDbEntity
  8
외형선
  6
Continuous
370
    15
100
AcDbLine
 10
-16.46249999999999
 20
-1.7859375
 30
0.0
 11
-16.46249999999999
 21
1.785937499999998
 31
0.0
  0
SPLINE
  5
2D6
330
1F
100
AcDbEntity
  8
외형선
  6
Continuous
370
    15
100
AcDbSpline
210
0.0
220
0.0
230
1.0
 70
     8
 71
     3
 72
     9
 73
     5
 74
     0
 42
0.000000001
 43
0.00000001
 40
0.0
 40
0.0
 40
0.0
 40
0.0
 40
0.6347457442134384
 40
1.0
 40
1.0
 40
1.0
 40
1.0
 10
-17.46249999999999
 20
-1.728449055667572
 30
0.0
 10
-17.29569029051474
 20
-1.749375901894607
 30
0.0
 10
-17.03289260970169
 20
-1.782344766070236
 30
0.0
 10
-16.77069556909531
 20
-1.782956421812071
 30
0.0
 10
-16.67492698415919
 20
-1.783179831674855
 30
0.0
  0
LINE
  5
2D7
330
1F
100
AcDbEntity
  8
외형선
  6
Continuous
370
    15
100
AcDbLine
 10
-17.46249999999999
 20
-1.728449055667565
 30
0.0
 11
-17.46249999999999
 21
-1.537083181377274
 31
0.0
  0
SPLINE
  5
2D8
330
1F
100
AcDbEntity
  8
외형선
  6
Continuous
370
    15
100
AcDbSpline
210
0.0
220
0.0
230
1.0
 70
     8
 71
     3
 72
    10
 73
     6
 74
     0
 42
0.000000001
 43
0.00000001
 40
0.0
 40
0.0
 40
0.0
 40
0.0
 40
0.5
 40
0.5
 40
1.0
 40
1.0
 40
1.0
 40
1.0
 10
-17.46249999999999
 20
-1.537083181377274
 30
0.0
 10
-17.31452759353753
 20
-1.580640738806897
 30
0.0
 10
-17.16488392016772
 20
-1.619044294999765
 30
0.0
 10
-16.86687579329092
 20
-1.684279944418845
 30
0.0
 10
-16.71985240921244
 20
-1.711051229656033
 30
0.0
 10
-16.57257233117164
 20
-1.731902103773469
 30
0.0
  0
SPLINE
  5
2D9
330
1F
100
AcDbEntity
  8
외형선
  6
Continuous
370
    15
100
AcDbSpline
210
0.0
220
0.0
230
1.0
 70
     8
 71
     3
 72
    10
 73
     6
 74
     0
 42
0.000000001
 43
0.00000001
 40
0.0
 40
0.0
 40
0.0
 40
0.0
 40
0.5
 40
0.5
 40
1.0
 40
1.0
 40
1.0
 40
1.0
 10
-17.46249999999999
 20
1.728449055667563
 30
0.0
 10
-17.31454024312728
 20
1.749976988007989
 30
0.0
 10
-17.16490950549627
 20
1.765607376446094
 30
0.0
 10
-16.86692663468322
 20
1.784506250064249
 30
0.0
 10
-16.71991464998152
 20
1.787787598502635
 30
0.0
 10
-16.57264787342083
 20
1.784954687916179
 30
0.0
  0
LINE
  5
2DA
330
1F
100
AcDbEntity
  8
외형선
  6
Continuous
370
    15
100
AcDbLine
 10
-16.57257233117166
 20
1.784952147367124
 30
0.0
 11
-16.57257233117164
 21
-1.732050954410132
 31
0.0
  0
SPLINE
  5
2DB
330
1F
100
AcDbEntity
  8
외형선
  6
Continuous
370
    15
100
AcDbSpline
210
0.0
220
0.0
230
1.0
 70
    24
 71
     3
 72
    10
 73
     6
 74
     0
 42
0.000000001
 43
0.00000001
 40
0.0
 40
0.0
 40
0.0
 40
0.0
 40
0.5
 40
0.5
 40
1.0
 40
1.0
 40
1.0
 40
1.0
 10
-17.46249999999999
 20
0.7774245591663227
 30
0.0
 10
-17.46249999999999
 20
0.989671029230659
 30
0.0
 10
-17.46249999999999
 20
1.173512286503086
 30
0.0
 10
-17.46249999999999
 20
1.422431340351269
 30
0.0
 10
-17.46249999999999
 20
1.486437692009974
 30
0.0
 10
-17.46249999999999
 20
1.489538341148342
 30
0.0
  0
SPLINE
  5
2DC
330
1F
100
AcDbEntity
  8
외형선
  6
Continuous
370
    15
100
AcDbSpline
210
0.0
220
0.0
230
1.0
 70
     8
 71
     3
 72
    10
 73
     6
 74
     0
 42
0.000000001
 43
0.00000001
 40
0.0
 40
0.0
 40
0.0
 40
0.0
 40
0.5
 40
0.5
 40
1.0
 40
1.0
 40
1.0
 40
1.0
 10
-17.46249999999988
 20
1.489538341148356
 30
0.0
 10
-17.31454024312718
 20
1.503562721744411
 30
0.0
 10
-17.1649095054962
 20
1.512487762862359
 30
0.0
 10
-16.86692663468318
 20
1.519791510386876
 30
0.0
 10
-16.7199146499815
 20
1.518194698383875
 30
0.0
 10
-16.57264787342083
 20
1.511418191923606
 30
0.0
  0
SPLINE
  5
2DD
330
1F
100
AcDbEntity
  8
외형선
  6
Continuous
370
    15
100
AcDbSpline
210
0.0
220
0.0
230
1.0
 70
     8
 71
     3
 72
    10
 73
     6
 74
     0
 42
0.000000001
 43
0.00000001
 40
0.0
 40
0.0
 40
0.0
 40
0.0
 40
0.5
 40
0.5
 40
1.0
 40
1.0
 40
1.0
 40
1.0
 10
-17.46249999999998
 20
0.7774245591663156
 30
0.0
 10
-17.31453221707669
 20
0.7200089744751945
 30
0.0
 10
-17.16489327183896
 20
0.6596890109638618
 30
0.0
 10
-16.86689437626912
 20
0.5350722825486212
 30
0.0
 10
-16.71987515881833
 20
0.4709799026940142
 30
0.0
 10
-16.57259994258753
 20
0.4054624631429344
 30
0.0
  0
SPLINE
  5
2DE
330
1F
100
AcDbEntity
  8
외형선
  6
Continuous
370
    15
100
AcDbSpline
210
0.0
220
0.0
230
1.0
 70
    24
 71
     3
 72
    14
 73
    10
 74
     0
 42
0.000000001
 43
0.00000001
 40
0.0
 40
0.0
 40
0.0
 40
0.0
 40
0.25
 40
0.25
 40
0.5
 40
0.5
 40
0.75
 40
0.75
 40
1.0
 40
1.0
 40
1.0
 40
1.0
 10
-17.46249999999996
 20
-1.04888291207799
 30
0.0
 10
-17.46249999999996
 20
-0.936512905273813
 30
0.0
 10
-17.46249999999996
 20
-0.8068837745117368
 30
0.0
 10
-17.46249999999996
 20
-0.5209889280814981
 30
0.0
 10
-17.46249999999996
 20
-0.3648104006656372
 30
0.0
 10
-17.46249999999996
 20
-0.0402229085537773
 30
0.0
 10
-17.46249999999996
 20
0.1280131023560098
 30
0.0
 10
-17.46249999999996
 20
0.4598508567489599
 30
0.0
 10
-17.46249999999996
 20
0.6233008826866235
 30
0.0
 10
-17.46249999999996
 20
0.7774245591663085
 30
0.0
  0
SPLINE
  5
2DF
330
1F
100
AcDbEntity
  8
외형선
  6
Continuous
370
    15
100
AcDbSpline
210
0.0
220
0.0
230
1.0
 70
     8
 71
     3
 72
    10
 73
     6
 74
     0
 42
0.000000001
 43
0.00000001
 40
0.0
 40
0.0
 40
0.0
 40
0.0
 40
0.5
 40
0.5
 40
1.0
 40
1.0
 40
1.0
 40
1.0
 10
-17.46249999999993
 20
-1.04888291207799
 30
0.0
 10
-17.31453064456717
 20
-1.081465213657656
 30
0.0
 10
-17.16489009124727
 20
-1.110541365340734
 30
0.0
 10
-16.86688805602088
 20
-1.160730299954527
 30
0.0
 10
-16.71986742146733
 20
-1.181793128191378
 30
0.0
 10
-16.57259055168876
 20
-1.19875962535873
 30
0.0
  0
SPLINE
  5
2E0
330
1F
100
AcDbEntity
  8
외형선
  6
Continuous
370
    15
100
AcDbSpline
210
0.0
220
0.0
230
1.0
 70
    24
 71
     3
 72
    10
 73
     6
 74
     0
 42
0.000000001
 43
0.00000001
 40
0.0
 40
0.0
 40
0.0
 40
0.0
 40
0.5
 40
0.5
 40
1.0
 40
1.0
 40
1.0
 40
1.0
 10
-17.46249999999999
 20
-1.537083181377274
 30
0.0
 10
-17.46249999999999
 20
-1.474493896696832
 30
0.0
 10
-17.46249999999999
 20
-1.396716266368725
 30
0.0
 10
-17.46249999999999
 20
-1.22735009580713
 30
0.0
 10
-17.46249999999999
 20
-1.136270532896863
 30
0.0
 10
-17.46249999999999
 20
-1.048882912077983
 30
0.0
  0
SPLINE
  5
2E1
330
1F
100
AcDbEntity
  8
외형선
  6
Continuous
370
    15
100
AcDbSpline
210
0.0
220
0.0
230
1.0
 70
    24
 71
     3
 72
     8
 73
     4
 74
     0
 42
0.000000001
 43
0.00000001
 40
0.0
 40
0.0
 40
0.0
 40
0.0
 40
1.0
 40
1.0
 40
1.0
 40
1.0
 10
-17.46249999999999
 20
1.489538341148342
 30
0.0
 10
-17.46249999999999
 20
1.572912359145884
 30
0.0
 10
-17.46249999999999
 20
1.653077675588799
 30
0.0
 10
-17.46249999999999
 20
1.728449055667329
 30
0.0
  0
SPLINE
  5
2E2
330
1F
100
AcDbEntity
  8
0
  6
Continuous
 62
     1
370
    15
100
AcDbSpline
210
0.0
220
0.0
230
1.0
 70
     8
 71
     3
 72
    34
 73
    30
 74
     0
 42
0.000000001
 43
0.00000001
 40
0.0
 40
0.0
 40
0.0
 40
0.0
 40
0.1249999999999999
 40
0.1249999999999999
 40
0.2499999999999998
 40
0.2499999999999998
 40
0.3124999999999998
 40
0.3124999999999998
 40
0.3749999999999998
 40
0.3749999999999998
 40
0.4374999999999997
 40
0.4374999999999997
 40
0.4999999999999997
 40
0.4999999999999997
 40
0.5624999999999997
 40
0.5624999999999997
 40
0.6249999999999996
 40
0.6249999999999996
 40
0.6874999999999997
 40
0.6874999999999997
 40
0.7499999999999997
 40
0.7499999999999997
 40
0.8124999999999998
 40
0.8124999999999998
 40
0.8749999999999999
 40
0.8749999999999999
 40
0.9374999999999999
 40
0.9374999999999999
 40
1.0
 40
1.0
 40
1.0
 40
1.0
 10
-25.39999999999999
 20
1.784428052824185
 30
0.0
 10
-25.07329672354643
 20
1.776610253020766
 30
0.0
 10
-24.73511481610606
 20
1.737631972554136
 30
0.0
 10
-24.08070525406821
 20
1.602894559013957
 30
0.0
 10
-23.74347503428324
 20
1.505806694599907
 30
0.0
 10
-23.25194687383102
 20
1.325653533074113
 30
0.0
 10
-23.0852459032734
 20
1.259311850089122
 30
0.0
 10
-22.75249039584983
 20
1.116421314828659
 30
0.0
 10
-22.58771254862631
 20
1.04008977597505
 30
0.0
 10
-22.25956739849056
 20
0.8794643433723859
 30
0.0
 10
-22.09276485530795
 20
0.7945881265492598
 30
0.0
 10
-21.76007555116429
 20
0.6188657186036106
 30
0.0
 10
-21.59575438238127
 20
0.5283238898813092
 30
0.0
 10
-21.26717057166054
 20
0.3435356140276464
 30
0.0
 10
-21.10027757742213
 20
0.2487832111551806
 30
0.0
 10
-20.76767652155573
 20
0.058166731834812
 30
0.0
 10
-20.60375907696231
 20
-0.0373422363080895
 30
0.0
 10
-20.27475775029721
 20
-0.2274501346496696
 30
0.0
 10
-20.10778544685677
 20
-0.3224083866979559
 30
0.0
 10
-19.77529466476774
 20
-0.5084638229177163
 30
0.0
 10
-19.61172790194269
 20
-0.5992070211615588
 30
0.0
 10
-19.28233029491216
 20
-0.7752316268885384
 30
0.0
 10
-19.11528984192067
 20
-0.8607011992061449
 30
0.0
 10
-18.78293133475454
 20
-1.023210547641267
 30
0.0
 10
-18.6196621346471
 20
-1.099953096838133
 30
0.0
 10
-18.28988956927408
 20
-1.243913801121484
 30
0.0
 10
-18.12279214168379
 20
-1.311166580188517
 30
0.0
 10
-17.79058788138543
 20
-1.43355374581228
 30
0.0
 10
-17.62756305989114
 20
-1.488494773020603
 30
0.0
 10
-17.46249999999999
 20
-1.537083181377274
 30
0.0
  0
SPLINE
  5
2E3
330
1F
100
AcDbEntity
  8
0
  6
Continuous
 62
     1
370
    15
100
AcDbSpline
210
0.0
220
0.0
230
1.0
 70
     8
 71
     3
 72
    12
 73
     8
 74
     0
 42
0.000000001
 43
0.00000001
 40
0.0
 40
0.0
 40
0.0
 40
0.0
 40
0.2046530145429562
 40
0.4145775303416384
 40
0.624827504267646
 40
0.8123965278313229
 40
1.0
 40
1.0
 40
1.0
 40
1.0
 10
-20.96872969191585
 20
0.1723236816673032
 30
0.0
 10
-20.72957588647488
 20
0.0755932719215717
 30
0.0
 10
-20.24510809472038
 20
-0.1203591525803465
 30
0.0
 10
-19.51478044847849
 20
-0.4115943789209144
 30
0.0
 10
-18.80413578317989
 20
-0.6702446876724626
 30
0.0
 10
-18.12016255839453
 20
-0.8903877529386126
 30
0.0
 10
-17.68173427173035
 20
-0.9960479584331641
 30
0.0
 10
-17.46249999999993
 20
-1.04888291207799
 30
0.0
  0
SPLINE
  5
2E4
330
1F
100
AcDbEntity
  8
외형선
  6
Continuous
370
    15
100
AcDbSpline
210
0.0
220
0.0
230
1.0
 70
    24
 71
     3
 72
    10
 73
     6
 74
     0
 42
0.000000001
 43
0.00000001
 40
0.0
 40
0.0
 40
0.0
 40
0.0
 40
0.5
 40
0.5
 40
1.0
 40
1.0
 40
1.0
 40
1.0
 10
-17.46249999999999
 20
-1.537083181377274
 30
0.0
 10
-17.46249999999999
 20
-1.474493896696832
 30
0.0
 10
-17.46249999999999
 20
-1.396716266368725
 30
0.0
 10
-17.46249999999999
 20
-1.22735009580713
 30
0.0
 10
-17.46249999999999
 20
-1.136270532896863
 30
0.0
 10
-17.46249999999999
 20
-1.048882912077983
 30
0.0
  0
SPLINE
  5
2E5
330
1F
100
AcDbEntity
  8
0
  6
Continuous
 62
     1
370
    15
100
AcDbSpline
210
0.0
220
0.0
230
1.0
 70
     8
 71
     3
 72
    34
 73
    30
 74
     0
 42
0.000000001
 43
0.00000001
 40
0.0
 40
0.0
 40
0.0
 40
0.0
 40
0.1249999999999999
 40
0.1249999999999999
 40
0.2499999999999998
 40
0.2499999999999998
 40
0.3124999999999999
 40
0.3124999999999999
 40
0.3749999999999999
 40
0.3749999999999999
 40
0.4375000000000001
 40
0.4375000000000001
 40
0.5000000000000001
 40
0.5000000000000001
 40
0.5625000000000002
 40
0.5625000000000002
 40
0.6250000000000002
 40
0.6250000000000002
 40
0.6875000000000002
 40
0.6875000000000002
 40
0.7500000000000001
 40
0.7500000000000001
 40
0.8125000000000001
 40
0.8125000000000001
 40
0.8750000000000001
 40
0.8750000000000001
 40
0.9375
 40
0.9375
 40
1.0
 40
1.0
 40
1.0
 40
1.0
 10
-25.39999999999999
 20
1.694749083643844
 30
0.0
 10
-25.07329672354643
 20
1.63475318816739
 30
0.0
 10
-24.73511481610608
 20
1.544570529994206
 30
0.0
 10
-24.08070525406821
 20
1.316774704743852
 30
0.0
 10
-23.74347503428325
 20
1.176869429667792
 30
0.0
 10
-23.25194687383102
 20
0.9425293870776084
 30
0.0
 10
-23.08524590327342
 20
0.8595865171643478
 30
0.0
 10
-22.75249039584983
 20
0.6871030640995552
 30
0.0
 10
-22.58771254862633
 20
0.5978092814214075
 30
0.0
 10
-22.25956739849057
 20
0.4151617548999933
 30
0.0
 10
-22.09276485530798
 20
0.321159586034528
 30
0.0
 10
-21.76007555116431
 20
0.1313601789526994
 30
0.0
 10
-21.59575438238129
 20
0.0358756469709671
 30
0.0
 10
-21.26717057166056
 20
-0.1545711019781966
 30
0.0
 10
-21.10027757742215
 20
-0.250039590137445
 30
0.0
 10
-20.76767652155576
 20
-0.4377830010167731
 30
0.0
 10
-20.60375907696232
 20
-0.5297257366591783
 30
0.0
 10
-20.27475775029723
 20
-0.7085365143393549
 30
0.0
 10
-20.10778544685679
 20
-0.7957249878228698
 30
0.0
 10
-19.77529466476777
 20
-0.9622538856391973
 30
0.0
 10
-19.61172790194271
 20
-1.041297948896547
 30
0.0
 10
-19.28233029491219
 20
-1.19020902757912
 30
0.0
 10
-19.1152898419207
 20
-1.260213668190336
 30
0.0
 10
-18.78293133475457
 20
-1.388539697013006
 30
0.0
 10
-18.61966213464713
 20
-1.446652220306779
 30
0.0
 10
-18.28988956927411
 20
-1.550438440784416
 30
0.0
 10
-18.12279214168382
 20
-1.596108025754458
 30
0.0
 10
-17.79058788138546
 20
-1.673147507889792
 30
0.0
 10
-17.62756305989117
 20
-1.704432617276834
 30
0.0
 10
-17.46250000000002
 20
-1.728449055667565
 30
0.0
  0
SPLINE
  5
2E6
330
1F
100
AcDbEntity
  8
0
  6
Continuous
 62
     1
370
    15
100
AcDbSpline
210
0.0
220
0.0
230
1.0
 70
     8
 71
     3
 72
    14
 73
    10
 74
     0
 42
0.000000001
 43
0.00000001
 40
0.0
 40
0.0
 40
0.0
 40
0.0
 40
0.1584360268583152
 40
0.3164622400994275
 40
0.4744659355412563
 40
0.6328350284512659
 40
0.7913324968424256
 40
0.9493864198498134
 40
1.0
 40
1.0
 40
1.0
 40
1.0
 10
-25.39999999999999
 20
1.409055153395111
 30
0.0
 10
-25.15437197375347
 20
1.356578864828758
 30
0.0
 10
-24.6637512673488
 20
1.251762023854435
 30
0.0
 10
-23.92859665970053
 20
1.002443340609384
 30
0.0
 10
-23.19354664856158
 20
0.7024555235624799
 30
0.0
 10
-22.4574325917764
 20
0.3611357674721869
 30
0.0
 10
-21.72105982003309
 20
0.0022554209445171
 30
0.0
 10
-21.15217169870043
 20
-0.2820029028007529
 30
0.0
 10
-20.82883375870441
 20
-0.4293900718893131
 30
0.0
 10
-20.75040616219826
 20
-0.4651397319125128
 30
0.0
  0
LINE
  5
2E7
330
1F
100
AcDbEntity
  8
0
  6
Continuous
 62
     1
370
    15
100
AcDbLine
 10
-25.39999999999999
 20
1.694749083643844
 30
0.0
 11
-25.39999999999999
 21
1.409055153395111
 31
0.0
  0
LINE
  5
2E8
330
1F
100
AcDbEntity
  8
0
  6
Continuous
 62
     1
370
    15
100
AcDbLine
 10
-25.39999999999999
 20
1.784428052824192
 30
0.0
 11
-25.39999999999999
 21
1.694749083643844
 31
0.0
  0
SPLINE
  5
2E9
330
1F
100
AcDbEntity
  8
0
  6
Continuous
 62
     1
370
    15
100
AcDbSpline
210
0.0
220
0.0
230
1.0
 70
     8
 71
     3
 72
     8
 73
     4
 74
     0
 42
0.000000001
 43
0.00000001
 40
0.0
 40
0.0
 40
0.0
 40
0.0
 40
1.0
 40
1.0
 40
1.0
 40
1.0
 10
-24.29435610163607
 20
-0.500169705818853
 30
0.0
 10
-24.23111190382924
 20
-0.5750934330415778
 30
0.0
 10
-24.17465597961275
 20
-0.6472264353891621
 30
0.0
 10
-24.12659004714621
 20
-0.7159102310471088
 30
0.0
  0
LINE
  5
2EA
330
1F
100
AcDbEntity
  8
0
  6
Continuous
 62
     1
370
    15
100
AcDbLine
 10
-24.14921237855562
 20
-0.7348926209891122
 30
0.0
 11
-25.39999999999999
 21
-0.0000000000000047
 31
0.0
  0
LINE
  5
2EB
330
1F
100
AcDbEntity
  8
0
  6
Continuous
 62
     1
370
    15
100
AcDbLine
 10
-25.39999999999999
 20
-0.0000000000000047
 30
0.0
 11
-25.39999999999999
 21
0.4772791989248144
 31
0.0
  0
SPLINE
  5
2EC
330
1F
100
AcDbEntity
  8
0
  6
Continuous
 62
     1
370
    15
100
AcDbSpline
210
0.0
220
0.0
230
1.0
 70
     8
 71
     3
 72
    10
 73
     6
 74
     0
 42
0.000000001
 43
0.00000001
 40
0.0
 40
0.0
 40
0.0
 40
0.0
 40
0.5
 40
0.5
 40
1.0
 40
1.0
 40
1.0
 40
1.0
 10
-25.39999999999999
 20
0.4772791989248144
 30
0.0
 10
-25.2086002926892
 20
0.3268046018107735
 30
0.0
 10
-25.02040107205845
 20
0.1701549815729943
 30
0.0
 10
-24.6505566728995
 20
-0.1557896361788924
 30
0.0
 10
-24.46719088418341
 20
-0.3268069389701413
 30
0.0
 10
-24.29435610163607
 20
-0.500169705818853
 30
0.0
  0
SPLINE
  5
2ED
330
1F
100
AcDbEntity
  8
0
  6
Continuous
 62
     1
370
    15
100
AcDbSpline
210
0.0
220
0.0
230
1.0
 70
     8
 71
     3
 72
    14
 73
    10
 74
     0
 42
0.000000001
 43
0.00000001
 40
0.0
 40
0.0
 40
0.0
 40
0.0
 40
0.1342745451210757
 40
0.2676526463353784
 40
0.4467419336502111
 40
0.625978493755742
 40
0.8047064704250706
 40
0.9833569530680879
 40
1.0
 40
1.0
 40
1.0
 40
1.0
 10
-24.29435610163607
 20
-0.5001697058188459
 30
0.0
 10
-24.11022368659623
 20
-0.5779919720679605
 30
0.0
 10
-23.74318816160452
 20
-0.7331169474429136
 30
0.0
 10
-23.13159051704895
 20
-0.9635210940591155
 30
0.0
 10
-22.45736205602419
 20
-1.173963169902504
 30
0.0
 10
-21.72107867960094
 20
-1.339782852195062
 30
0.0
 10
-20.98574786848849
 20
-1.422209588059116
 30
0.0
 10
-20.47331075957462
 20
-1.44527005165367
 30
0.0
 10
-20.20562282958186
 20
-1.418113358071364
 30
0.0
 10
-20.18281028278794
 20
-1.415799046241422
 30
0.0
  0
SPLINE
  5
2EE
330
1F
100
AcDbEntity
  8
0
  6
Continuous
 62
     1
370
    15
100
AcDbSpline
210
0.0
220
0.0
230
1.0
 70
    24
 71
     3
 72
    10
 73
     6
 74
     0
 42
0.000000001
 43
0.00000001
 40
0.0
 40
0.0
 40
0.0
 40
0.0
 40
0.5
 40
0.5
 40
1.0
 40
1.0
 40
1.0
 40
1.0
 10
-25.39999999999999
 20
1.409055153395111
 30
0.0
 10
-25.39999999999999
 20
1.301040090048981
 30
0.0
 10
-25.39999999999999
 20
1.164558915789203
 30
0.0
 10
-25.39999999999999
 20
0.8472533204831645
 30
0.0
 10
-25.39999999999999
 20
0.6667037615744416
 30
0.0
 10
-25.39999999999999
 20
0.4772791989248713
 30
0.0
  0
SPLINE
  5
2EF
330
1F
100
AcDbEntity
  8
0
  6
Continuous
 62
     1
370
    15
100
AcDbSpline
210
0.0
220
0.0
230
1.0
 70
    24
 71
     3
 72
     8
 73
     4
 74
     0
 42
0.000000001
 43
0.00000001
 40
0.0
 40
0.0
 40
0.0
 40
0.0
 40
1.0
 40
1.0
 40
1.0
 40
1.0
 10
-24.31313864972741
 20
-0.8724430946696249
 30
0.0
 10
-24.2542213264129
 20
-0.8230055904064788
 30
0.0
 10
-24.19167021350772
 20
-0.7705189746379848
 30
0.0
 10
-24.12659004714622
 20
-0.7159102310470946
 30
0.0
  0
LINE
  5
2F0
330
1F
100
AcDbEntity
  8
0
  6
Continuous
 62
     1
370
    15
100
AcDbLine
 10
-25.39999999999999
 20
-1.250156250000001
 30
0.0
 11
-24.73483007414588
 21
-1.218356094831966
 31
0.0
  0
SPLINE
  5
2F1
330
1F
100
AcDbEntity
  8
0
  6
Continuous
 62
     1
370
    15
100
AcDbSpline
210
0.0
220
0.0
230
1.0
 70
     8
 71
     3
 72
    17
 73
    13
 74
     0
 42
0.000000001
 43
0.00000001
 40
0.0
 40
0.0
 40
0.0
 40
0.0
 40
0.0004646954522281
 40
0.0004646954522281
 40
0.0004646954522281
 40
0.0009294090712162
 40
0.0009294090712162
 40
0.0009294090712162
 40
0.001317453739494
 40
0.001317453739494
 40
0.001317453739494
 40
0.001468970435406
 40
0.001468970435406
 40
0.001468970435406
 40
0.001468970435406
 10
-25.39999999999999
 20
-1.250156250000001
 30
0.0
 10
-25.28382905130722
 20
-1.21860160583199
 30
0.0
 10
-25.16802671177902
 20
-1.184624524395237
 30
0.0
 10
-25.0527152659492
 20
-1.148090422770179
 30
0.0
 10
-24.93740122597805
 20
-1.111555499243854
 30
0.0
 10
-24.82254250731152
 20
-1.072454958949668
 30
0.0
 10
-24.70830656343644
 20
-1.03054406334324
 30
0.0
 10
-24.61291442161557
 20
-0.9955465838992954
 30
0.0
 10
-24.51792914298404
 20
-0.9585830591924396
 30
0.0
 10
-24.42349282630747
 20
-0.9194165157699932
 30
0.0
 10
-24.38661823946835
 20
-0.9041231396892091
 30
0.0
 10
-24.34982853508787
 20
-0.8884756114943333
 30
0.0
 10
-24.31313864974237
 20
-0.872443094676169
 30
0.0
  0
SPLINE
  5
2F2
330
1F
100
AcDbEntity
  8
0
  6
Continuous
 62
     1
370
    15
100
AcDbSpline
210
0.0
220
0.0
230
1.0
 70
     8
 71
     3
 72
    13
 73
     9
 74
     0
 42
0.000000001
 43
0.00000001
 40
0.0
 40
0.0
 40
0.0
 40
0.0
 40
0.1522068312822474
 40
0.328954570558263
 40
0.5060662223513415
 40
0.6834453014707013
 40
0.841708491909608
 40
1.0
 40
1.0
 40
1.0
 40
1.0
 10
-21.61814412537315
 20
1.338265189148958
 30
0.0
 10
-21.40731159866029
 20
1.367982972396841
 30
0.0
 10
-20.95165318503798
 20
1.432210054347723
 30
0.0
 10
-20.25078371473083
 20
1.434614223502133
 30
0.0
 10
-19.51480756398495
 20
1.363994739259961
 30
0.0
 10
-18.80409082441479
 20
1.2193936181615
 30
0.0
 10
-18.1201733185472
 20
1.022326323555997
 30
0.0
 10
-17.68173751305656
 20
0.8590633489024835
 30
0.0
 10
-17.46249999999998
 20
0.7774245591663156
 30
0.0
  0
SPLINE
  5
2F3
330
1F
100
AcDbEntity
  8
외형선
  6
Continuous
370
    15
100
AcDbSpline
210
0.0
220
0.0
230
1.0
 70
    24
 71
     3
 72
    14
 73
    10
 74
     0
 42
0.000000001
 43
0.00000001
 40
0.0
 40
0.0
 40
0.0
 40
0.0
 40
0.25
 40
0.25
 40
0.5
 40
0.5
 40
0.75
 40
0.75
 40
1.0
 40
1.0
 40
1.0
 40
1.0
 10
-17.46249999999996
 20
-1.04888291207799
 30
0.0
 10
-17.46249999999996
 20
-0.936512905273813
 30
0.0
 10
-17.46249999999996
 20
-0.8068837745117368
 30
0.0
 10
-17.46249999999996
 20
-0.5209889280814981
 30
0.0
 10
-17.46249999999996
 20
-0.3648104006656372
 30
0.0
 10
-17.46249999999996
 20
-0.0402229085537773
 30
0.0
 10
-17.46249999999996
 20
0.1280131023560098
 30
0.0
 10
-17.46249999999996
 20
0.4598508567489599
 30
0.0
 10
-17.46249999999996
 20
0.6233008826866235
 30
0.0
 10
-17.46249999999996
 20
0.7774245591663085
 30
0.0
  0
LINE
  5
2F4
330
1F
100
AcDbEntity
  8
0
  6
Continuous
 62
     1
370
    15
100
AcDbLine
 10
-17.60149917630439
 20
1.469361642004254
 30
0.0
 11
-17.46249999999988
 21
1.489538341148356
 31
0.0
  0
SPLINE
  5
2F5
330
1F
100
AcDbEntity
  8
외형선
  6
Continuous
370
    15
100
AcDbSpline
210
0.0
220
0.0
230
1.0
 70
    24
 71
     3
 72
    10
 73
     6
 74
     0
 42
0.000000001
 43
0.00000001
 40
0.0
 40
0.0
 40
0.0
 40
0.0
 40
0.5
 40
0.5
 40
1.0
 40
1.0
 40
1.0
 40
1.0
 10
-17.46249999999999
 20
0.7774245591663227
 30
0.0
 10
-17.46249999999999
 20
0.989671029230659
 30
0.0
 10
-17.46249999999999
 20
1.173512286503086
 30
0.0
 10
-17.46249999999999
 20
1.422431340351269
 30
0.0
 10
-17.46249999999999
 20
1.486437692009974
 30
0.0
 10
-17.46249999999999
 20
1.489538341148342
 30
0.0
  0
LINE
  5
2F6
330
1F
100
AcDbEntity
  8
0
  6
Continuous
 62
     1
370
    15
100
AcDbLine
 10
-25.39999999999999
 20
-0.0000000000000047
 30
0.0
 11
-25.39999999999999
 21
-1.250156250000001
 31
0.0
  0
SPLINE
  5
2F7
330
1F
100
AcDbEntity
  8
0
  6
Continuous
 62
     1
370
    15
100
AcDbSpline
210
0.0
220
0.0
230
1.0
 70
     8
 71
     3
 72
    11
 73
     7
 74
     0
 42
0.000000001
 43
0.00000001
 40
0.0
 40
0.0
 40
0.0
 40
0.0
 40
0.1403879363493222
 40
0.4268031618875538
 40
0.7129747367696363
 40
1.0
 40
1.0
 40
1.0
 40
1.0
 10
-22.96299836739021
 20
-1.198978219527203
 30
0.0
 10
-23.07710889780482
 20
-1.249000485070579
 30
0.0
 10
-23.42402428421266
 20
-1.401076665217322
 30
0.0
 10
-24.0029943574377
 20
-1.58371481080602
 30
0.0
 10
-24.70092253959744
 20
-1.742060979949696
 30
0.0
 10
-25.16674292397599
 20
-1.770291680107055
 30
0.0
 10
-25.39999999999999
 20
-1.784428052824194
 30
0.0
  0
SPLINE
  5
2F8
330
1F
100
AcDbEntity
  8
0
  6
Continuous
 62
     1
370
    15
100
AcDbSpline
210
0.0
220
0.0
230
1.0
 70
    24
 71
     3
 72
    10
 73
     6
 74
     0
 42
0.000000001
 43
0.00000001
 40
0.0
 40
0.0
 40
0.0
 40
0.0
 40
0.5
 40
0.5
 40
1.0
 40
1.0
 40
1.0
 40
1.0
 10
-25.39999999999999
 20
-1.250156250000001
 30
0.0
 10
-25.39999999999999
 20
-1.325937608641813
 30
0.0
 10
-25.39999999999999
 20
-1.414002565492372
 30
0.0
 10
-25.39999999999999
 20
-1.59876260777853
 30
0.0
 10
-25.39999999999999
 20
-1.694985839251698
 30
0.0
 10
-25.39999999999999
 20
-1.784428052824194
 30
0.0
  0
SPLINE
  5
2F9
330
1F
100
AcDbEntity
  8
0
  6
Continuous
 62
     1
370
    15
100
AcDbSpline
210
0.0
220
0.0
230
1.0
 70
     8
 71
     3
 72
     9
 73
     5
 74
     0
 42
0.000000001
 43
0.00000001
 40
0.0
 40
0.0
 40
0.0
 40
0.0
 40
0.4408069140438853
 40
1.0
 40
1.0
 40
1.0
 40
1.0
 10
-18.71025729034766
 20
1.406664945810145
 30
0.0
 10
-18.52693682927234
 20
1.470429850534226
 30
0.0
 10
-18.11106208857564
 20
1.61508480646292
 30
0.0
 10
-17.69510200356929
 20
1.687791804862111
 30
0.0
 10
-17.46250000000002
 20
1.728449055667556
 30
0.0
  0
SPLINE
  5
2FA
330
1F
100
AcDbEntity
  8
외형선
  6
Continuous
370
    15
100
AcDbSpline
210
0.0
220
0.0
230
1.0
 70
    24
 71
     3
 72
     8
 73
     4
 74
     0
 42
0.000000001
 43
0.00000001
 40
0.0
 40
0.0
 40
0.0
 40
0.0
 40
1.0
 40
1.0
 40
1.0
 40
1.0
 10
-17.46249999999999
 20
1.489538341148342
 30
0.0
 10
-17.46249999999999
 20
1.572912359145884
 30
0.0
 10
-17.46249999999999
 20
1.653077675588799
 30
0.0
 10
-17.46249999999999
 20
1.728449055667329
 30
0.0
  0
LINE
  5
2FF
330
1F
100
AcDbEntity
  8
외형선
  6
Continuous
370
    15
100
AcDbLine
 10
-14.24076350361915
 20
-2.381250000000006
 30
0.0
 11
-14.24076350361915
 21
2.381249999999997
 31
0.0
  0
LINE
  5
32B
330
1F
100
AcDbEntity
  8
0
100
AcDbLine
 10
-14.24076350361915
 20
-0.0000000000000047
 30
0.0
 11
-31.90360979907013
 21
-0.0000000000000047
 31
0.0
  0
ENDSEC
  0
SECTION
  2
OBJECTS
  0
DICTIONARY
  5
C
330
0
100
AcDbDictionary
281
     1
  3
ACAD_GROUP
350
D
  3
ACAD_IMAGE_VARS
350
15A
  3
ACAD_LAYOUT
350
1A
  3
ACAD_MLINESTYLE
350
17
  3
ACAD_PLOTSETTINGS
350
19
  3
ACAD_PLOTSTYLENAME
350
E
  3
ACAD_SCALELIST
350
47
  3
APPDATA
350
158
  3
DWGPROPS
350
351
  0
DICTIONARY
  5
214
330
2
100
AcDbDictionary
280
     1
281
     1
  3
ACAD_LAYERSTATES
360
215
  0
DICTIONARY
  5
34F
330
1F
100
AcDbDictionary
280
     1
281
     1
  3
DIM_BOUNDING_BOXES_V1
360
350
  0
DICTIONARY
  5
D
102
{ACAD_REACTORS
330
C
102
}
330
C
100
AcDbDictionary
281
     1
  0
RASTERVARIABLES
  5
15A
102
{ACAD_REACTORS
330
C
102
}
330
C
100
AcDbRasterVariables
 90
        0
 70
     1
 71
     1
 72
     1
  0
DICTIONARY
  5
1A
102
{ACAD_REACTORS
330
C
102
}
330
C
100
AcDbDictionary
281
     1
  3
Layout1
350
1E
  3
Layout2
350
26
  3
Model
350
22
  0
DICTIONARY
  5
17
102
{ACAD_REACTORS
330
C
102
}
330
C
100
AcDbDictionary
281
     1
  3
Standard
350
18
  0
DICTIONARY
  5
19
102
{ACAD_REACTORS
330
C
102
}
330
C
100
AcDbDictionary
281
     1
  0
ACDBDICTIONARYWDFLT
  5
E
102
{ACAD_REACTORS
330
C
102
}
330
C
100
AcDbDictionary
281
     1
  3
Normal
350
F
100
AcDbDictionaryWithDefault
340
F
  0
DICTIONARY
  5
47
102
{ACAD_REACTORS
330
C
102
}
330
C
100
AcDbDictionary
281
     1
  3
A0
350
48
  3
A1
350
49
  3
A2
350
4A
  3
A3
350
4B
  3
A4
350
4C
  3
A5
350
4D
  3
A6
350
4E
  3
A7
350
4F
  3
A8
350
50
  3
A9
350
51
  3
B0
350
52
  3
B1
350
53
  3
B2
350
54
  3
B3
350
55
  3
B4
350
56
  3
B5
350
57
  3
B6
350
58
  3
B7
350
59
  3
B8
350
5A
  3
B9
350
5B
  3
C0
350
5C
  3
C1
350
5D
  3
C2
350
5E
  3
C3
350
5F
  3
C4
350
60
  3
C5
350
61
  3
C6
350
62
  3
C7
350
63
  3
C8
350
64
  3
C9
350
65
  3
D0
350
66
  3
D1
350
67
  3
D2
350
68
  0
DICTIONARY
  5
158
102
{ACAD_REACTORS
330
C
102
}
330
C
100
AcDbDictionary
281
     1
  0
XRECORD
  5
351
102
{ACAD_REACTORS
330
C
102
}
330
C
100
AcDbXrecord
280
     1
  1
DWGPROPS COOKIE
  2

  3

  4

  6

  7

  8
12011056
  9

300
=
301
=
302
=
303
=
304
=
305
=
306
=
307
=
308
=
309
=
 40
0.0
 41
2458313.049531725
 42
2459719.263556215
  1

 90
        0
  0
DICTIONARY
  5
215
102
{ACAD_REACTORS
330
214
102
}
330
214
100
AcDbDictionary
281
     1
  0
DICTIONARY
  5
350
102
{ACAD_REACTORS
330
34F
102
}
330
34F
100
AcDbDictionary
281
     1
  0
LAYOUT
  5
1E
102
{ACAD_REACTORS
330
1A
102
}
330
1A
100
AcDbPlotSettings
  1

  2
none_device
  4

  6

 40
0.0
 41
0.0
 42
0.0
 43
0.0
 44
0.0
 45
0.0
 46
0.0
 47
0.0
 48
0.0
 49
0.0
140
0.0
141
0.0
142
1.0
143
1.0
 70
   688
 72
     1
 73
     0
 74
     5
  7

 75
    16
147
1.0
148
0.0
149
0.0
100
AcDbLayout
  1
Layout1
 70
     1
 71
     1
 10
0.0
 20
0.0
 11
420.0
 21
297.0
 12
0.0
 22
0.0
 32
0.0
 14
1.000000000000000E+20
 24
1.000000000000000E+20
 34
1.000000000000000E+20
 15
-1.000000000000000E+20
 25
-1.000000000000000E+20
 35
-1.000000000000000E+20
146
0.0
 13
0.0
 23
0.0
 33
0.0
 16
1.0
 26
0.0
 36
0.0
 17
0.0
 27
1.0
 37
0.0
 76
     0
330
1B
  0
LAYOUT
  5
26
102
{ACAD_REACTORS
330
1A
102
}
330
1A
100
AcDbPlotSettings
  1

  2
none_device
  4

  6

 40
0.0
 41
0.0
 42
0.0
 43
0.0
 44
0.0
 45
0.0
 46
0.0
 47
0.0
 48
0.0
 49
0.0
140
0.0
141
0.0
142
1.0
143
1.0
 70
   688
 72
     1
 73
     0
 74
     5
  7

 75
    16
147
1.0
148
0.0
149
0.0
100
AcDbLayout
  1
Layout2
 70
     1
 71
     2
 10
0.0
 20
0.0
 11
0.0
 21
0.0
 12
0.0
 22
0.0
 32
0.0
 14
0.0
 24
0.0
 34
0.0
 15
0.0
 25
0.0
 35
0.0
146
0.0
 13
0.0
 23
0.0
 33
0.0
 16
1.0
 26
0.0
 36
0.0
 17
0.0
 27
1.0
 37
0.0
 76
     0
330
23
  0
LAYOUT
  5
22
102
{ACAD_REACTORS
330
1A
102
}
330
1A
100
AcDbPlotSettings
  1

  2
none_device
  4
ANSI_A_(11.00_x_8.50_Inches)
  6

 40
6.35
 41
19.05
 42
6.35000508
 43
19.05000254
 44
279.4
 45
215.9
 46
93.1455055270797
 47
87.26574839067487
 48
0.0
 49
0.0
140
0.0
141
0.0
142
0.0686608694179782
143
1.0
 70
  1696
 72
     0
 73
     0
 74
     0
  7

 75
     0
147
0.0235690232323232
148
0.0
149
0.0
100
AcDbLayout
  1
Model
 70
     1
 71
     0
 10
0.0
 20
0.0
 11
420.0
 21
297.0
 12
0.0
 22
0.0
 32
0.0
 14
-39.28294653049104
 24
-39.9989250712761
 34
0.0
 15
81.21241335422454
 25
37.26342805282424
 35
0.0
146
0.0
 13
0.0
 23
0.0
 33
0.0
 16
1.0
 26
0.0
 36
0.0
 17
0.0
 27
1.0
 37
0.0
 76
     0
330
1F
331
29
  0
MLINESTYLE
  5
18
102
{ACAD_REACTORS
330
17
102
}
330
17
100
AcDbMlineStyle
  2
Standard
 70
     0
  3

 62
   256
 51
90.0
 52
90.0
 71
     2
 49
0.5
 62
   256
  6
BYLAYER
 49
-0.5
 62
   256
  6
BYLAYER
  0
ACDBPLACEHOLDER
  5
F
102
{ACAD_REACTORS
330
E
102
}
330
E
  0
SCALE
  5
48
102
{ACAD_REACTORS
330
47
102
}
330
47
100
AcDbScale
 70
     0
300
1:1
140
1.0
141
1.0
290
     1
  0
SCALE
  5
49
102
{ACAD_REACTORS
330
47
102
}
330
47
100
AcDbScale
 70
     0
300
1:2
140
1.0
141
2.0
290
     0
  0
SCALE
  5
4A
102
{ACAD_REACTORS
330
47
102
}
330
47
100
AcDbScale
 70
     0
300
1:4
140
1.0
141
4.0
290
     0
  0
SCALE
  5
4B
102
{ACAD_REACTORS
330
47
102
}
330
47
100
AcDbScale
 70
     0
300
1:5
140
1.0
141
5.0
290
     0
  0
SCALE
  5
4C
102
{ACAD_REACTORS
330
47
102
}
330
47
100
AcDbScale
 70
     0
300
1:8
140
1.0
141
8.0
290
     0
  0
SCALE
  5
4D
102
{ACAD_REACTORS
330
47
102
}
330
47
100
AcDbScale
 70
     0
300
1:10
140
1.0
141
10.0
290
     0
  0
SCALE
  5
4E
102
{ACAD_REACTORS
330
47
102
}
330
47
100
AcDbScale
 70
     0
300
1:16
140
1.0
141
16.0
290
     0
  0
SCALE
  5
4F
102
{ACAD_REACTORS
330
47
102
}
330
47
100
AcDbScale
 70
     0
300
1:20
140
1.0
141
20.0
290
     0
  0
SCALE
  5
50
102
{ACAD_REACTORS
330
47
102
}
330
47
100
AcDbScale
 70
     0
300
1:30
140
1.0
141
30.0
290
     0
  0
SCALE
  5
51
102
{ACAD_REACTORS
330
47
102
}
330
47
100
AcDbScale
 70
     0
300
1:40
140
1.0
141
40.0
290
     0
  0
SCALE
  5
52
102
{ACAD_REACTORS
330
47
102
}
330
47
100
AcDbScale
 70
     0
300
1:50
140
1.0
141
50.0
290
     0
  0
SCALE
  5
53
102
{ACAD_REACTORS
330
47
102
}
330
47
100
AcDbScale
 70
     0
300
1:100
140
1.0
141
100.0
290
     0
  0
SCALE
  5
54
102
{ACAD_REACTORS
330
47
102
}
330
47
100
AcDbScale
 70
     0
300
2:1
140
2.0
141
1.0
290
     0
  0
SCALE
  5
55
102
{ACAD_REACTORS
330
47
102
}
330
47
100
AcDbScale
 70
     0
300
4:1
140
4.0
141
1.0
290
     0
  0
SCALE
  5
56
102
{ACAD_REACTORS
330
47
102
}
330
47
100
AcDbScale
 70
     0
300
8:1
140
8.0
141
1.0
290
     0
  0
SCALE
  5
57
102
{ACAD_REACTORS
330
47
102
}
330
47
100
AcDbScale
 70
     0
300
10:1
140
10.0
141
1.0
290
     0
  0
SCALE
  5
58
102
{ACAD_REACTORS
330
47
102
}
330
47
100
AcDbScale
 70
     0
300
100:1
140
100.0
141
1.0
290
     0
  0
SCALE
  5
59
102
{ACAD_REACTORS
330
47
102
}
330
47
100
AcDbScale
 70
     0
300
1/128" = 1'-0"
140
0.0078125
141
12.0
290
     0
  0
SCALE
  5
5A
102
{ACAD_REACTORS
330
47
102
}
330
47
100
AcDbScale
 70
     0
300
1/64" = 1'-0"
140
0.015625
141
12.0
290
     0
  0
SCALE
  5
5B
102
{ACAD_REACTORS
330
47
102
}
330
47
100
AcDbScale
 70
     0
300
1/32" = 1'-0"
140
0.03125
141
12.0
290
     0
  0
SCALE
  5
5C
102
{ACAD_REACTORS
330
47
102
}
330
47
100
AcDbScale
 70
     0
300
1/16" = 1'-0"
140
0.0625
141
12.0
290
     0
  0
SCALE
  5
5D
102
{ACAD_REACTORS
330
47
102
}
330
47
100
AcDbScale
 70
     0
300
3/32" = 1'-0"
140
0.09375
141
12.0
290
     0
  0
SCALE
  5
5E
102
{ACAD_REACTORS
330
47
102
}
330
47
100
AcDbScale
 70
     0
300
1/8" = 1'-0"
140
0.125
141
12.0
290
     0
  0
SCALE
  5
5F
102
{ACAD_REACTORS
330
47
102
}
330
47
100
AcDbScale
 70
     0
300
3/16" = 1'-0"
140
0.1875
141
12.0
290
     0
  0
SCALE
  5
60
102
{ACAD_REACTORS
330
47
102
}
330
47
100
AcDbScale
 70
     0
300
1/4" = 1'-0"
140
0.25
141
12.0
290
     0
  0
SCALE
  5
61
102
{ACAD_REACTORS
330
47
102
}
330
47
100
AcDbScale
 70
     0
300
3/8" = 1'-0"
140
0.375
141
12.0
290
     0
  0
SCALE
  5
62
102
{ACAD_REACTORS
330
47
102
}
330
47
100
AcDbScale
 70
     0
300
1/2" = 1'-0"
140
0.5
141
12.0
290
     0
  0
SCALE
  5
63
102
{ACAD_REACTORS
330
47
102
}
330
47
100
AcDbScale
 70
     0
300
3/4" = 1'-0"
140
0.75
141
12.0
290
     0
  0
SCALE
  5
64
102
{ACAD_REACTORS
330
47
102
}
330
47
100
AcDbScale
 70
     0
300
1" = 1'-0"
140
1.0
141
12.0
290
     0
  0
SCALE
  5
65
102
{ACAD_REACTORS
330
47
102
}
330
47
100
AcDbScale
 70
     0
300
1-1/2" = 1'-0"
140
1.5
141
12.0
290
     0
  0
SCALE
  5
66
102
{ACAD_REACTORS
330
47
102
}
330
47
100
AcDbScale
 70
     0
300
3" = 1'-0"
140
3.0
141
12.0
290
     0
  0
SCALE
  5
67
102
{ACAD_REACTORS
330
47
102
}
330
47
100
AcDbScale
 70
     0
300
6" = 1'-0"
140
6.0
141
12.0
290
     0
  0
SCALE
  5
68
102
{ACAD_REACTORS
330
47
102
}
330
47
100
AcDbScale
 70
     0
300
1'-0" = 1'-0"
140
12.0
141
12.0
290
     0
  0
ENDSEC
  0
EOF
