  0
SECTION
  2
HEADER
  9
$ACADVER
  1
AC1015
  9
$ACADMAINTVER
 70
     6
  9
$DWGCODEPAGE
  3
ANSI_949
  9
$INSBASE
 10
0.0
 20
0.0
 30
0.0
  9
$EXTMIN
 10
-40.27079831193222
 20
-39.99892507127611
 30
0.0
  9
$EXTMAX
 10
81.21241335422454
 20
40.75625000000002
 30
0.0
  9
$LIMMIN
 10
0.0
 20
0.0
  9
$LIMMAX
 10
420.0
 20
297.0
  9
$ORTHOMODE
 70
     0
  9
$REGENMODE
 70
     1
  9
$FILLMODE
 70
     1
  9
$QTEXTMODE
 70
     0
  9
$MIRRTEXT
 70
     1
  9
$LTSCALE
 40
1.0
  9
$ATTMODE
 70
     1
  9
$TEXTSIZE
 40
3.5
  9
$TRACEWID
 40
1.0
  9
$TEXTSTYLE
  7
Standard
  9
$CLAYER
  8
0
  9
$CELTYPE
  6
ByLayer
  9
$CECOLOR
 62
   256
  9
$CELTSCALE
 40
1.0
  9
$DISPSILH
 70
     0
  9
$DIMSCALE
 40
1.0
  9
$DIMASZ
 40
3.302
  9
$DIMEXO
 40
1.0
  9
$DIMDLI
 40
3.75
  9
$DIMRND
 40
0.0
  9
$DIMDLE
 40
0.0
  9
$DIMEXE
 40
1.0
  9
$DIMTP
 40
0.0
  9
$DIMTM
 40
0.0
  9
$DIMTXT
 40
3.5
  9
$DIMCEN
 40
2.5
  9
$DIMTSZ
 40
0.0
  9
$DIMTOL
 70
     0
  9
$DIMLIM
 70
     0
  9
$DIMTIH
 70
     1
  9
$DIMTOH
 70
     1
  9
$DIMSE1
 70
     0
  9
$DIMSE2
 70
     0
  9
$DIMTAD
 70
     1
  9
$DIMZIN
 70
     0
  9
$DIMBLK
  1

  9
$DIMASO
 70
     1
  9
$DIMSHO
 70
     1
  9
$DIMPOST
  1

  9
$DIMAPOST
  1

  9
$DIMALT
 70
     0
  9
$DIMALTD
 70
     3
  9
$DIMALTF
 40
0.0393700787401575
  9
$DIMLFAC
 40
1.0
  9
$DIMTOFL
 70
     1
  9
$DIMTVP
 40
0.0
  9
$DIMTIX
 70
     0
  9
$DIMSOXD
 70
     0
  9
$DIMSAH
 70
     0
  9
$DIMBLK1
  1

  9
$DIMBLK2
  1

  9
$DIMSTYLE
  2
ISO-25
  9
$DIMCLRD
 70
     0
  9
$DIMCLRE
 70
     0
  9
$DIMCLRT
 70
     0
  9
$DIMTFAC
 40
1.0
  9
$DIMGAP
 40
1.524
  9
$DIMJUST
 70
     0
  9
$DIMSD1
 70
     0
  9
$DIMSD2
 70
     0
  9
$DIMTOLJ
 70
     0
  9
$DIMTZIN
 70
     0
  9
$DIMALTZ
 70
     0
  9
$DIMALTTZ
 70
     0
  9
$DIMUPT
 70
     0
  9
$DIMDEC
 70
     2
  9
$DIMTDEC
 70
     2
  9
$DIMALTU
 70
     2
  9
$DIMALTTD
 70
     3
  9
$DIMTXSTY
  7
Standard
  9
$DIMAUNIT
 70
     0
  9
$DIMADEC
 70
     2
  9
$DIMALTRND
 40
0.0
  9
$DIMAZIN
 70
     0
  9
$DIMDSEP
 70
    44
  9
$DIMATFIT
 70
     3
  9
$DIMFRAC
 70
     0
  9
$DIMLDRBLK
  1

  9
$DIMLUNIT
 70
     2
  9
$DIMLWD
 70
    -2
  9
$DIMLWE
 70
    -2
  9
$DIMTMOVE
 70
     0
  9
$LUNITS
 70
     2
  9
$LUPREC
 70
     2
  9
$SKETCHINC
 40
1.0
  9
$FILLETRAD
 40
10.0
  9
$AUNITS
 70
     0
  9
$AUPREC
 70
     2
  9
$MENU
  1
.
  9
$ELEVATION
 40
0.0
  9
$PELEVATION
 40
0.0
  9
$THICKNESS
 40
0.0
  9
$LIMCHECK
 70
     0
  9
$CHAMFERA
 40
0.0
  9
$CHAMFERB
 40
0.0
  9
$CHAMFERC
 40
0.0
  9
$CHAMFERD
 40
0.0
  9
$SKPOLY
 70
     0
  9
$TDCREATE
 40
2458313.424743681
  9
$TDUCREATE
 40
2458313.049743681
  9
$TDUPDATE
 40
2459719.639243912
  9
$TDUUPDATE
 40
2459719.264243912
  9
$TDINDWG
 40
0.0018448032
  9
$TDUSRTIMER
 40
0.0006298611
  9
$USRTIMER
 70
     1
  9
$ANGBASE
 50
0.0
  9
$ANGDIR
 70
     0
  9
$PDMODE
 70
     0
  9
$PDSIZE
 40
-1.0
  9
$PLINEWID
 40
0.0
  9
$SPLFRAME
 70
     0
  9
$SPLINETYPE
 70
     6
  9
$SPLINESEGS
 70
     8
  9
$HANDSEED
  5
355
  9
$SURFTAB1
 70
     6
  9
$SURFTAB2
 70
     6
  9
$SURFTYPE
 70
     6
  9
$SURFU
 70
     6
  9
$SURFV
 70
     6
  9
$UCSBASE
  2

  9
$UCSNAME
  2

  9
$UCSORG
 10
0.0
 20
0.0
 30
0.0
  9
$UCSXDIR
 10
1.0
 20
0.0
 30
0.0
  9
$UCSYDIR
 10
0.0
 20
1.0
 30
0.0
  9
$UCSORTHOREF
  2

  9
$UCSORTHOVIEW
 70
     0
  9
$UCSORGTOP
 10
0.0
 20
0.0
 30
0.0
  9
$UCSORGBOTTOM
 10
0.0
 20
0.0
 30
0.0
  9
$UCSORGLEFT
 10
0.0
 20
0.0
 30
0.0
  9
$UCSORGRIGHT
 10
0.0
 20
0.0
 30
0.0
  9
$UCSORGFRONT
 10
0.0
 20
0.0
 30
0.0
  9
$UCSORGBACK
 10
0.0
 20
0.0
 30
0.0
  9
$PUCSBASE
  2

  9
$PUCSNAME
  2

  9
$PUCSORG
 10
0.0
 20
0.0
 30
0.0
  9
$PUCSXDIR
 10
1.0
 20
0.0
 30
0.0
  9
$PUCSYDIR
 10
0.0
 20
1.0
 30
0.0
  9
$PUCSORTHOREF
  2

  9
$PUCSORTHOVIEW
 70
     0
  9
$PUCSORGTOP
 10
0.0
 20
0.0
 30
0.0
  9
$PUCSORGBOTTOM
 10
0.0
 20
0.0
 30
0.0
  9
$PUCSORGLEFT
 10
0.0
 20
0.0
 30
0.0
  9
$PUCSORGRIGHT
 10
0.0
 20
0.0
 30
0.0
  9
$PUCSORGFRONT
 10
0.0
 20
0.0
 30
0.0
  9
$PUCSORGBACK
 10
0.0
 20
0.0
 30
0.0
  9
$USERI1
 70
     0
  9
$USERI2
 70
     0
  9
$USERI3
 70
     0
  9
$USERI4
 70
     0
  9
$USERI5
 70
     0
  9
$USERR1
 40
0.0
  9
$USERR2
 40
0.0
  9
$USERR3
 40
0.0
  9
$USERR4
 40
0.0
  9
$USERR5
 40
0.0
  9
$WORLDVIEW
 70
     1
  9
$SHADEDGE
 70
     3
  9
$SHADEDIF
 70
    70
  9
$TILEMODE
 70
     1
  9
$MAXACTVP
 70
    64
  9
$PINSBASE
 10
0.0
 20
0.0
 30
0.0
  9
$PLIMCHECK
 70
     0
  9
$PEXTMIN
 10
1.000000000000000E+20
 20
1.000000000000000E+20
 30
1.000000000000000E+20
  9
$PEXTMAX
 10
-1.000000000000000E+20
 20
-1.000000000000000E+20
 30
-1.000000000000000E+20
  9
$PLIMMIN
 10
0.0
 20
0.0
  9
$PLIMMAX
 10
0.0
 20
0.0
  9
$UNITMODE
 70
     0
  9
$VISRETAIN
 70
     1
  9
$PLINEGEN
 70
     0
  9
$PSLTSCALE
 70
     1
  9
$TREEDEPTH
 70
  3020
  9
$CMLSTYLE
  2
Standard
  9
$CMLJUST
 70
     0
  9
$CMLSCALE
 40
20.0
  9
$PROXYGRAPHICS
 70
     1
  9
$MEASUREMENT
 70
     1
  9
$CELWEIGHT
370
    -1
  9
$ENDCAPS
280
     0
  9
$JOINSTYLE
280
     0
  9
$LWDISPLAY
290
     1
  9
$INSUNITS
 70
     4
  9
$HYPERLINKBASE
  1

  9
$STYLESHEET
  1

  9
$XEDIT
290
     1
  9
$CEPSNTYPE
380
     0
  9
$PSTYLEMODE
290
     1
  9
$FINGERPRINTGUID
  2
{E584E4C1-2287-4B96-BA56-3E42ADDF7364}
  9
$VERSIONGUID
  2
{FAEB1C32-E019-11D5-929B-00C0DF256EC4}
  9
$EXTNAMES
290
     1
  9
$PSVPSCALE
 40
0.0
  9
$OLESTARTUP
290
     0
  0
ENDSEC
  0
SECTION
  2
CLASSES
  0
CLASS
  1
ACDBDICTIONARYWDFLT
  2
AcDbDictionaryWithDefault
  3
ObjectDBX Classes
 90
        0
280
     0
281
     0
  0
CLASS
  1
VISUALSTYLE
  2
AcDbVisualStyle
  3
ObjectDBX Classes
 90
     4095
280
     0
281
     0
  0
CLASS
  1
MATERIAL
  2
AcDbMaterial
  3
ObjectDBX Classes
 90
     1153
280
     0
281
     0
  0
CLASS
  1
SCALE
  2
AcDbScale
  3
ObjectDBX Classes
 90
     1153
280
     0
281
     0
  0
CLASS
  1
SUN
  2
AcDbSun
  3
SCENEOE
 90
     1153
280
     0
281
     0
  0
CLASS
  1
ACDBPLACEHOLDER
  2
AcDbPlaceHolder
  3
ObjectDBX Classes
 90
        0
280
     0
281
     0
  0
CLASS
  1
LAYOUT
  2
AcDbLayout
  3
ObjectDBX Classes
 90
        0
280
     0
281
     0
  0
CLASS
  1
TABLESTYLE
  2
AcDbTableStyle
  3
ObjectDBX Classes
 90
     4095
280
     0
281
     0
  0
CLASS
  1
MLEADERSTYLE
  2
AcDbMLeaderStyle
  3
ACDB_MLEADERSTYLE_CLASS
 90
     4095
280
     0
281
     0
  0
CLASS
  1
RASTERVARIABLES
  2
AcDbRasterVariables
  3
ISM
 90
        0
280
     0
281
     0
  0
ENDSEC
  0
SECTION
  2
TABLES
  0
TABLE
  2
VPORT
  5
8
330
0
100
AcDbSymbolTable
 70
     1
  0
VPORT
  5
29
330
8
100
AcDbSymbolTableRecord
100
AcDbViewportTableRecord
  2
*Active
 70
     0
 10
0.0
 20
0.0
 11
1.0
 21
1.0
 12
2.868831131070596
 22
5.867526535438365
 13
0.0
 23
0.0
 14
10.0
 24
10.0
 15
10.0
 25
10.0
 16
0.0
 26
0.0
 36
1.0
 17
0.0
 27
0.0
 37
0.0
 40
92.84493037229198
 41
1.519944979367263
 42
50.0
 43
0.0
 44
0.0
 50
0.0
 51
0.0
 71
    16
 72
  2000
 73
     1
 74
     3
 75
     0
 76
     0
 77
     0
 78
     0
281
     0
 65
     1
110
0.0
120
0.0
130
0.0
111
1.0
121
0.0
131
0.0
112
0.0
122
1.0
132
0.0
 79
     0
146
0.0
  0
ENDTAB
  0
TABLE
  2
LTYPE
  5
5
330
0
100
AcDbSymbolTable
 70
     6
  0
LTYPE
  5
14
330
5
100
AcDbSymbolTableRecord
100
AcDbLinetypeTableRecord
  2
ByBlock
 70
     0
  3

 72
    65
 73
     0
 40
0.0
  0
LTYPE
  5
15
330
5
100
AcDbSymbolTableRecord
100
AcDbLinetypeTableRecord
  2
ByLayer
 70
     0
  3

 72
    65
 73
     0
 40
0.0
  0
LTYPE
  5
16
330
5
100
AcDbSymbolTableRecord
100
AcDbLinetypeTableRecord
  2
Continuous
 70
     0
  3
Solid line
 72
    65
 73
     0
 40
0.0
  0
LTYPE
  5
6A
330
5
100
AcDbSymbolTableRecord
100
AcDbLinetypeTableRecord
  2
HIDDEN
 70
     0
  3
Hidden __ __ __ __ __ __ __ __ __ __ __ __ __ __
 72
    65
 73
     2
 40
1.905
 49
1.27
 74
     0
 49
-0.635
 74
     0
  0
LTYPE
  5
6B
330
5
100
AcDbSymbolTableRecord
100
AcDbLinetypeTableRecord
  2
PHANTOM
 70
     0
  3
Phantom ______  __  __  ______  __  __  ______
 72
    65
 73
     6
 40
12.7
 49
6.35
 74
     0
 49
-1.27
 74
     0
 49
1.27
 74
     0
 49
-1.27
 74
     0
 49
1.27
 74
     0
 49
-1.27
 74
     0
  0
LTYPE
  5
6C
330
5
100
AcDbSymbolTableRecord
100
AcDbLinetypeTableRecord
  2
CENTER
 70
     0
  3
Center ____ _ ____ _ ____ _ ____ _ ____ _ ____
 72
    65
 73
     4
 40
10.16
 49
6.35
 74
     0
 49
-1.27
 74
     0
 49
1.27
 74
     0
 49
-1.27
 74
     0
  0
LTYPE
  5
6D
330
5
100
AcDbSymbolTableRecord
100
AcDbLinetypeTableRecord
  2
CENTERX2
 70
     0
  3
Center (2x) ________  __  ________  __  _____
 72
    65
 73
     4
 40
20.32
 49
12.7
 74
     0
 49
-2.54
 74
     0
 49
2.54
 74
     0
 49
-2.54
 74
     0
  0
LTYPE
  5
6E
330
5
100
AcDbSymbolTableRecord
100
AcDbLinetypeTableRecord
  2
DOT2
 70
     0
  3
Dot (.5x) ........................................
 72
    65
 73
     2
 40
0.635
 49
0.0
 74
     0
 49
-0.635
 74
     0
  0
ENDTAB
  0
TABLE
  2
LAYER
  5
2
102
{ACAD_XDICTIONARY
360
215
102
}
330
0
100
AcDbSymbolTable
 70
    18
  0
LAYER
  5
10
330
2
100
AcDbSymbolTableRecord
100
AcDbLayerTableRecord
  2
0
 70
     0
 62
     7
  6
Continuous
370
    -3
390
F
  0
LAYER
  5
6F
330
2
100
AcDbSymbolTableRecord
100
AcDbLayerTableRecord
  2
FORMAT
 70
     0
 62
     2
  6
Continuous
370
    -3
390
F
  0
LAYER
  5
70
330
2
100
AcDbSymbolTableRecord
100
AcDbLayerTableRecord
  2
외형선
 70
     0
 62
     4
  6
Continuous
370
    30
390
F
  0
LAYER
  5
71
330
2
100
AcDbSymbolTableRecord
100
AcDbLayerTableRecord
  2
숨은선
 70
     0
 62
     2
  6
HIDDEN
370
    15
390
F
  0
LAYER
  5
72
330
2
100
AcDbSymbolTableRecord
100
AcDbLayerTableRecord
  2
중심선
 70
     0
 62
     1
  6
CENTERX2
370
    -3
390
F
  0
LAYER
  5
73
330
2
100
AcDbSymbolTableRecord
100
AcDbLayerTableRecord
  2
파단선
 70
     0
 62
     4
  6
Continuous
370
    -3
390
F
  0
LAYER
  5
74
330
2
100
AcDbSymbolTableRecord
100
AcDbLayerTableRecord
  2
해칭선
 70
     0
 62
   100
  6
Continuous
370
    -3
390
F
  0
LAYER
  5
75
330
2
100
AcDbSymbolTableRecord
100
AcDbLayerTableRecord
  2
가는실선
 70
     0
 62
     4
  6
Continuous
370
    -3
390
F
  0
LAYER
  5
76
330
2
100
AcDbSymbolTableRecord
100
AcDbLayerTableRecord
  2
치수_보조선
 70
     0
 62
     4
  6
Continuous
370
    -3
390
F
  0
LAYER
  5
77
330
2
100
AcDbSymbolTableRecord
100
AcDbLayerTableRecord
  2
치수문자_일반주서
 70
     0
 62
     7
  6
Continuous
370
    15
390
F
  0
LAYER
  5
78
330
2
100
AcDbSymbolTableRecord
100
AcDbLayerTableRecord
  2
개별주서
 70
     0
 62
   100
  6
Continuous
370
    30
390
F
  0
LAYER
  5
79
330
2
100
AcDbSymbolTableRecord
100
AcDbLayerTableRecord
  2
중간선
 70
     0
 62
     2
  6
Continuous
370
    15
390
F
  0
LAYER
  5
7A
330
2
100
AcDbSymbolTableRecord
100
AcDbLayerTableRecord
  2
윤곽선
 70
     0
 62
     3
  6
Continuous
370
    40
390
F
  0
LAYER
  5
7B
330
2
100
AcDbSymbolTableRecord
100
AcDbLayerTableRecord
  2
중심마크
 70
     0
 62
   100
  6
Continuous
370
    30
390
F
  0
LAYER
  5
7C
330
2
100
AcDbSymbolTableRecord
100
AcDbLayerTableRecord
  2
가상선
 70
     0
 62
     4
  6
PHANTOM
370
    -3
390
F
  0
LAYER
  5
7D
330
2
100
AcDbSymbolTableRecord
100
AcDbLayerTableRecord
  2
특수지정선
 70
     0
 62
     5
  6
CENTERX2
370
    60
390
F
  0
LAYER
  5
7E
330
2
100
AcDbSymbolTableRecord
100
AcDbLayerTableRecord
  2
참조1
 70
     0
 62
    -4
  6
Continuous
370
    -3
390
F
  0
LAYER
  5
15D
330
2
100
AcDbSymbolTableRecord
100
AcDbLayerTableRecord
  2
Defpoints
 70
     0
 62
     7
  6
Continuous
290
     0
370
    -3
390
F
  0
ENDTAB
  0
TABLE
  2
STYLE
  5
3
330
0
100
AcDbSymbolTable
 70
     2
  0
STYLE
  5
11
330
3
100
AcDbSymbolTableRecord
100
AcDbTextStyleTableRecord
  2
Standard
 70
     0
 40
0.0
 41
1.0
 50
0.0
 71
     0
 42
3.5
  3
txt
  4

  0
STYLE
  5
94
330
3
100
AcDbSymbolTableRecord
100
AcDbTextStyleTableRecord
  2
SLDTEXTSTYLE0
 70
     0
 40
0.0
 41
0.75
 50
0.0
 71
     0
 42
3.5
  3
TXT
  4

  0
ENDTAB
  0
TABLE
  2
VIEW
  5
6
330
0
100
AcDbSymbolTable
 70
     0
  0
ENDTAB
  0
TABLE
  2
UCS
  5
7
330
0
100
AcDbSymbolTable
 70
     0
  0
ENDTAB
  0
TABLE
  2
APPID
  5
9
330
0
100
AcDbSymbolTable
 70
     3
  0
APPID
  5
12
330
9
100
AcDbSymbolTableRecord
100
AcDbRegAppTableRecord
  2
ACAD
 70
     0
  0
APPID
  5
169
330
9
100
AcDbSymbolTableRecord
100
AcDbRegAppTableRecord
  2
PE_URL
 70
     0
  0
APPID
  5
16A
330
9
100
AcDbSymbolTableRecord
100
AcDbRegAppTableRecord
  2
ACAD_DSTYLE_DIMRADIAL_EXTENSION
 70
     0
  0
ENDTAB
  0
TABLE
  2
DIMSTYLE
  5
A
330
0
100
AcDbSymbolTable
 70
     4
100
AcDbDimStyleTable
  0
DIMSTYLE
105
27
330
A
100
AcDbSymbolTableRecord
100
AcDbDimStyleTableRecord
  2
ISO-25
 70
     0
 41
2.5
 42
0.625
 43
3.75
 44
1.25
 73
     0
 74
     0
 77
     1
 78
     8
140
2.5
141
2.5
143
0.03937007874016
147
0.625
171
     3
172
     1
178
     0
271
     2
272
     2
274
     3
278
    44
283
     0
284
     8
340
11
  0
DIMSTYLE
105
D9
102
{ACAD_REACTORS
330
D8
330
ED
330
101
330
116
102
}
330
A
100
AcDbSymbolTableRecord
100
AcDbDimStyleTableRecord
  2
SLDDIMSTYLE0
 70
     0
 41
3.302
 44
0.0
 45
0.000000001
 73
     0
 74
     0
 77
     1
 78
    12
 79
     3
140
3.5
143
0.0393700787401575
147
0.875
148
0.000000001
170
     1
172
     1
173
     1
178
     0
271
     2
272
     2
276
     2
284
    12
289
     0
340
94
  0
DIMSTYLE
105
102
102
{ACAD_REACTORS
102
}
330
A
100
AcDbSymbolTableRecord
100
AcDbDimStyleTableRecord
  2
SLDDIMSTYLE1
 70
     0
 41
3.302
 44
0.0
 45
0.000000001
 73
     0
 74
     0
 77
     1
 78
    12
 79
     3
140
3.5
143
0.0393700787401575
147
0.875
148
0.000000001
170
     1
173
     1
178
     0
271
     2
272
     2
276
     2
284
    12
340
94
  0
DIMSTYLE
105
117
102
{ACAD_REACTORS
102
}
330
A
100
AcDbSymbolTableRecord
100
AcDbDimStyleTableRecord
  2
SLDDIMSTYLE2
 70
     0
 41
3.302
 44
0.0
 45
0.000000001
 73
     0
 74
     0
 77
     1
 78
     4
 79
     1
140
3.5
143
0.0393700787401575
147
0.875
148
0.000000001
170
     1
173
     1
178
     0
271
     2
272
     2
276
     2
284
    12
340
94
  0
ENDTAB
  0
TABLE
  2
BLOCK_RECORD
  5
1
330
0
100
AcDbSymbolTable
 70
    20
  0
BLOCK_RECORD
  5
1F
102
{ACAD_XDICTIONARY
360
352
102
}
330
1
100
AcDbSymbolTableRecord
100
AcDbBlockTableRecord
  2
*Model_Space
340
22
  0
BLOCK_RECORD
  5
1B
330
1
100
AcDbSymbolTableRecord
100
AcDbBlockTableRecord
  2
*Paper_Space
340
1E
  0
BLOCK_RECORD
  5
23
330
1
100
AcDbSymbolTableRecord
100
AcDbBlockTableRecord
  2
*Paper_Space0
340
26
  0
BLOCK_RECORD
  5
7F
330
1
100
AcDbSymbolTableRecord
100
AcDbBlockTableRecord
  2
블럭10
340
0
102
{BLKREFS
331
D1
102
}
  0
BLOCK_RECORD
  5
DA
330
1
100
AcDbSymbolTableRecord
100
AcDbBlockTableRecord
  2
_D
340
0
  0
BLOCK_RECORD
  5
EE
330
1
100
AcDbSymbolTableRecord
100
AcDbBlockTableRecord
  2
_D_1
340
0
  0
BLOCK_RECORD
  5
103
330
1
100
AcDbSymbolTableRecord
100
AcDbBlockTableRecord
  2
_D_2
340
0
  0
BLOCK_RECORD
  5
118
330
1
100
AcDbSymbolTableRecord
100
AcDbBlockTableRecord
  2
_D_3
340
0
  0
BLOCK_RECORD
  5
131
330
1
100
AcDbSymbolTableRecord
100
AcDbBlockTableRecord
  2
SW_DOWELSYMBOL_0
340
0
102
{BLKREFS
331
137
102
}
  0
BLOCK_RECORD
  5
1F3
330
1
100
AcDbSymbolTableRecord
100
AcDbBlockTableRecord
  2
_D_4
340
0
  0
BLOCK_RECORD
  5
20D
330
1
100
AcDbSymbolTableRecord
100
AcDbBlockTableRecord
  2
*D8
340
0
  0
BLOCK_RECORD
  5
219
330
1
100
AcDbSymbolTableRecord
100
AcDbBlockTableRecord
  2
*D9
340
0
  0
BLOCK_RECORD
  5
225
330
1
100
AcDbSymbolTableRecord
100
AcDbBlockTableRecord
  2
*D10
340
0
  0
BLOCK_RECORD
  5
231
330
1
100
AcDbSymbolTableRecord
100
AcDbBlockTableRecord
  2
*D11
340
0
  0
BLOCK_RECORD
  5
28C
330
1
100
AcDbSymbolTableRecord
100
AcDbBlockTableRecord
  2
*D12
340
0
  0
BLOCK_RECORD
  5
298
330
1
100
AcDbSymbolTableRecord
100
AcDbBlockTableRecord
  2
*D13
340
0
  0
BLOCK_RECORD
  5
2A4
330
1
100
AcDbSymbolTableRecord
100
AcDbBlockTableRecord
  2
*D14
340
0
  0
BLOCK_RECORD
  5
2B2
330
1
100
AcDbSymbolTableRecord
100
AcDbBlockTableRecord
  2
*D15
340
0
  0
BLOCK_RECORD
  5
2C0
330
1
100
AcDbSymbolTableRecord
100
AcDbBlockTableRecord
  2
*D16
340
0
  0
BLOCK_RECORD
  5
304
330
1
100
AcDbSymbolTableRecord
100
AcDbBlockTableRecord
  2
*D17
340
0
  0
BLOCK_RECORD
  5
313
330
1
100
AcDbSymbolTableRecord
100
AcDbBlockTableRecord
  2
*D18
340
0
  0
BLOCK_RECORD
  5
322
330
1
100
AcDbSymbolTableRecord
100
AcDbBlockTableRecord
  2
*D19
340
0
  0
ENDTAB
  0
ENDSEC
  0
SECTION
  2
BLOCKS
  0
BLOCK
  5
20
330
1F
100
AcDbEntity
  8
0
100
AcDbBlockBegin
  2
*Model_Space
 70
     0
 10
0.0
 20
0.0
 30
0.0
  3
*Model_Space
  1
*Model_Space
  0
ENDBLK
  5
21
330
1F
100
AcDbEntity
  8
0
100
AcDbBlockEnd
  0
BLOCK
  5
1C
330
1B
100
AcDbEntity
 67
     1
  8
0
100
AcDbBlockBegin
  2
*Paper_Space
 70
     0
 10
0.0
 20
0.0
 30
0.0
  3
*Paper_Space
  1
*Paper_Space
  0
ENDBLK
  5
1D
330
1B
100
AcDbEntity
 67
     1
  8
0
100
AcDbBlockEnd
  0
BLOCK
  5
24
330
23
100
AcDbEntity
  8
0
100
AcDbBlockBegin
  2
*Paper_Space0
 70
     0
 10
0.0
 20
0.0
 30
0.0
  3
*Paper_Space0
  1
*Paper_Space0
  0
ENDBLK
  5
25
330
23
100
AcDbEntity
  8
0
100
AcDbBlockEnd
  0
BLOCK
  5
80
330
7F
100
AcDbEntity
  8
0
100
AcDbBlockBegin
  2
블럭10
 70
     2
 10
0.0
 20
0.0
 30
0.0
  3
블럭10
  1
블럭10
  0
ELLIPSE
  5
82
330
7F
100
AcDbEntity
  8
중심선
100
AcDbEllipse
 10
20.54032771741204
 20
12.0471743016438
 30
0.0
 11
6.600054785286829
 21
-1.261213355974178E-13
 31
0.0
210
0.0
220
0.0
230
1.0
 40
0.636358354079598
 41
0.9219305317359503
 42
6.513795318482858
  0
ELLIPSE
  5
83
330
7F
100
AcDbEntity
  8
중심선
100
AcDbEllipse
 10
20.54032771746488
 20
12.04717430159265
 30
0.0
 11
3.960054785062283
 21
1.540847449632565E-10
 31
0.0
210
0.0
220
0.0
230
1.0
 40
0.3939339440162632
 41
1.131841032648279
 42
5.62031148352944
  0
LINE
  5
84
330
7F
100
AcDbEntity
  8
중심선
100
AcDbLine
 10
2.268634060543552
 20
16.24717430164393
 30
0.0
 11
5.714909304380834
 21
16.24717430164393
 31
0.0
  0
LINE
  5
85
330
7F
100
AcDbEntity
  8
중심선
100
AcDbLine
 10
5.245725140726316
 20
7.84717430164391
 30
0.0
 11
8.692000384563599
 21
7.84717430164391
 31
0.0
  0
LINE
  5
86
330
7F
100
AcDbEntity
  8
중심선
100
AcDbLine
 10
15.74043728645272
 20
16.24717430164393
 30
0.0
 11
8.692000384563599
 21
7.84717430164391
 31
0.0
  0
LINE
  5
87
330
7F
100
AcDbEntity
  8
중심선
100
AcDbLine
 10
0.1404042013395286
 20
13.71084872107135
 30
0.0
 11
3.58671253028996
 21
13.71088815037384
 31
0.0
  0
LINE
  5
88
330
7F
100
AcDbEntity
  8
중심선
100
AcDbLine
 10
2.750260043222114
 20
10.84717430164391
 30
0.0
 11
6.196535287059397
 21
10.84717430164391
 31
0.0
  0
LINE
  5
89
330
7F
100
AcDbEntity
  8
중심선
100
AcDbLine
 10
12.29416204261559
 20
16.24717430164393
 30
0.0
 11
5.245725140726316
 21
7.84717430164391
 31
0.0
  0
LINE
  5
8A
330
7F
100
AcDbEntity
  8
중심선
100
AcDbLine
 10
10.72767329541681
 20
16.24717430164393
 30
0.0
 11
6.196535287059397
 21
10.84717430164391
 31
0.0
  0
LINE
  5
8B
330
7F
100
AcDbEntity
  8
중심선
100
AcDbLine
 10
7.28139805157953
 20
16.24717430164393
 30
0.0
 11
2.750260043222114
 21
10.84717430164391
 31
0.0
  0
LINE
  5
8C
330
7F
100
AcDbEntity
  8
중심선
100
AcDbLine
 10
5.714909304380834
 20
16.24717430164393
 30
0.0
 11
3.58671253028996
 21
13.71088815037384
 31
0.0
  0
LINE
  5
8D
330
7F
100
AcDbEntity
  8
중심선
100
AcDbLine
 10
2.268634060543552
 20
16.24717430164393
 30
0.0
 11
0.1404042013395286
 21
13.71084872107135
 31
0.0
  0
LINE
  5
8E
330
7F
100
AcDbEntity
  8
중심선
100
AcDbLine
 10
7.28139805157953
 20
16.24717430164393
 30
0.0
 11
10.72767329541681
 21
16.24717430164393
 31
0.0
  0
LINE
  5
8F
330
7F
100
AcDbEntity
  8
중심선
100
AcDbLine
 10
12.29416204261559
 20
16.24717430164393
 30
0.0
 11
15.74043728645272
 21
16.24717430164393
 31
0.0
  0
LINE
  5
90
330
7F
100
AcDbEntity
  8
중심선
100
AcDbLine
 10
19.22036997980202
 20
11.08717430171403
 30
0.0
 11
23.66174974927406
 21
11.08717430171406
 31
0.0
  0
LINE
  5
91
330
7F
100
AcDbEntity
  8
중심선
100
AcDbLine
 10
19.22039502424796
 20
13.00717430171391
 30
0.0
 11
19.22036997980202
 21
11.08717430171403
 31
0.0
  0
LINE
  5
92
330
7F
100
AcDbEntity
  8
중심선
100
AcDbLine
 10
19.22039502424796
 20
13.00717430171391
 30
0.0
 11
26.96566020931264
 21
13.00717430171391
 31
0.0
  0
LINE
  5
93
330
7F
100
AcDbEntity
  8
중심선
100
AcDbLine
 10
22.22332737316547
 20
13.45928029700563
 30
0.0
 11
24.52862924686651
 21
15.39360700705356
 31
0.0
  0
ATTDEF
  5
95
330
7F
100
AcDbEntity
  8
FORMAT
 62
     2
100
AcDbText
 10
4.408487351596664
 20
2.075366912832191
 30
0.0
 40
4.233333333333333
  1
E5022010
 41
0.75
  7
SLDTEXTSTYLE0
 11
4.408487351596664
 21
-0.0412997538344756
 31
0.0
100
AcDbAttributeDefinition
  3

  2
AUTOATTR0
 70
     0
 74
     1
  0
ENDBLK
  5
81
330
7F
100
AcDbEntity
  8
0
100
AcDbBlockEnd
  0
BLOCK
  5
DB
330
DA
100
AcDbEntity
  8
0
100
AcDbBlockBegin
  2
_D
 70
     0
 10
0.0
 20
0.0
 30
0.0
  3
_D
  1
_D
  0
LINE
  5
DD
330
DA
100
AcDbEntity
  8
치수문자_일반주서
 62
     0
370
    -2
100
AcDbLine
 10
-15.04384233574609
 20
2.381249999999997
 30
0.0
 11
-35.89579831193213
 21
2.38124999999992
 31
0.0
  0
LINE
  5
DE
330
DA
100
AcDbEntity
  8
치수문자_일반주서
 62
     0
370
    -2
100
AcDbLine
 10
-15.04384233574608
 20
-2.381250000000001
 30
0.0
 11
-35.89579831193211
 21
-2.38125000000008
 31
0.0
  0
LINE
  5
DF
330
DA
100
AcDbEntity
  8
치수문자_일반주서
 62
     0
370
    -2
100
AcDbLine
 10
-35.89579831193213
 20
2.38124999999992
 30
0.0
 11
-35.89579831193223
 21
36.98524999999992
 31
0.0
  0
LINE
  5
E0
330
DA
100
AcDbEntity
  8
치수문자_일반주서
 62
     0
370
    -2
100
AcDbLine
 10
-35.89579831193213
 20
2.38124999999992
 30
0.0
 11
-35.89579831193211
 21
-2.38125000000008
 31
0.0
  0
LINE
  5
E1
330
DA
100
AcDbEntity
  8
치수문자_일반주서
 62
     0
370
    -2
100
AcDbLine
 10
-35.89579831193213
 20
5.683249999999919
 30
0.0
 11
-35.89579831193214
 21
8.985249999999919
 31
0.0
  0
LINE
  5
E2
330
DA
100
AcDbEntity
  8
치수문자_일반주서
 62
     0
370
    -2
100
AcDbLine
 10
-35.8957983119321
 20
-5.683250000000079
 30
0.0
 11
-35.8957983119321
 21
-8.985250000000079
 31
0.0
  0
SOLID
  5
E3
330
DA
100
AcDbEntity
  8
치수문자_일반주서
 62
     0
100
AcDbTrace
 10
-36.44613164526547
 20
5.683249999999918
 30
0.0
 11
-35.3454649785988
 21
5.683249999999921
 31
0.0
 12
-35.89579831193213
 22
2.38124999999992
 32
0.0
 13
-35.89579831193213
 23
2.38124999999992
 33
0.0
  0
SOLID
  5
E4
330
DA
100
AcDbEntity
  8
치수문자_일반주서
 62
     0
100
AcDbTrace
 10
-35.34546497859877
 20
-5.683250000000077
 30
0.0
 11
-36.44613164526544
 21
-5.683250000000081
 31
0.0
 12
-35.89579831193211
 22
-2.38125000000008
 32
0.0
 13
-35.89579831193211
 23
-2.38125000000008
 33
0.0
  0
MTEXT
  5
E5
330
DA
100
AcDbEntity
  8
치수문자_일반주서
 62
     0
100
AcDbMText
 10
-40.27079831193218
 20
22.9852499999999
 30
0.0
 40
3.5
 41
0.0
 71
     2
 72
     1
  1
\A1;%%c4.76 [3/16]
  7
SLDTEXTSTYLE0
 11
-2.983906501879687E-15
 21
1.0
 31
0.0
 73
     1
 44
1.0
  0
POINT
  5
2CA
330
DA
100
AcDbEntity
  8
Defpoints
 62
     0
100
AcDbPoint
 10
-14.98134233574609
 20
2.381249999999998
 30
0.0
  0
POINT
  5
2CB
330
DA
100
AcDbEntity
  8
Defpoints
 62
     0
100
AcDbPoint
 10
-14.98134233574608
 20
-2.38125
 30
0.0
  0
POINT
  5
2CC
330
DA
100
AcDbEntity
  8
Defpoints
 62
     0
100
AcDbPoint
 10
-35.89579831193211
 20
-2.381250000000078
 30
0.0
  0
ENDBLK
  5
DC
330
DA
100
AcDbEntity
  8
0
100
AcDbBlockEnd
  0
BLOCK
  5
EF
330
EE
100
AcDbEntity
  8
0
100
AcDbBlockBegin
  2
_D_1
 70
     0
 10
0.0
 20
0.0
 30
0.0
  3
_D_1
  1
_D_1
  0
LINE
  5
F1
330
EE
100
AcDbEntity
  8
치수문자_일반주서
 62
     0
370
    -2
100
AcDbLine
 10
25.46250000000001
 20
-1.982697836471322
 30
0.0
 11
40.14168367778851
 21
-1.982697836471271
 31
0.0
  0
LINE
  5
F2
330
EE
100
AcDbEntity
  8
치수문자_일반주서
 62
     0
370
    -2
100
AcDbLine
 10
25.46250000000001
 20
1.982697836471325
 30
0.0
 11
40.14168367778849
 21
1.982697836471377
 31
0.0
  0
LINE
  5
F3
330
EE
100
AcDbEntity
  8
치수문자_일반주서
 62
     0
370
    -2
100
AcDbLine
 10
40.14168367778849
 20
1.982697836471377
 30
0.0
 11
40.14168367778836
 21
37.46169783647137
 31
0.0
  0
LINE
  5
F4
330
EE
100
AcDbEntity
  8
치수문자_일반주서
 62
     0
370
    -2
100
AcDbLine
 10
40.14168367778851
 20
-1.982697836471271
 30
0.0
 11
40.14168367778849
 21
1.982697836471377
 31
0.0
  0
LINE
  5
F5
330
EE
100
AcDbEntity
  8
치수문자_일반주서
 62
     0
370
    -2
100
AcDbLine
 10
40.14168367778852
 20
-5.28469783647127
 30
0.0
 11
40.14168367778854
 21
-8.58669783647127
 31
0.0
  0
LINE
  5
F6
330
EE
100
AcDbEntity
  8
치수문자_일반주서
 62
     0
370
    -2
100
AcDbLine
 10
40.14168367778848
 20
5.284697836471377
 30
0.0
 11
40.14168367778846
 21
8.586697836471377
 31
0.0
  0
SOLID
  5
F7
330
EE
100
AcDbEntity
  8
치수문자_일반주서
 62
     0
100
AcDbTrace
 10
40.69201701112186
 20
-5.284697836471269
 30
0.0
 11
39.59135034445519
 21
-5.284697836471272
 31
0.0
 12
40.14168367778851
 22
-1.982697836471271
 32
0.0
 13
40.14168367778851
 23
-1.982697836471271
 33
0.0
  0
SOLID
  5
F8
330
EE
100
AcDbEntity
  8
치수문자_일반주서
 62
     0
100
AcDbTrace
 10
39.59135034445514
 20
5.284697836471375
 30
0.0
 11
40.69201701112181
 21
5.284697836471379
 31
0.0
 12
40.14168367778849
 22
1.982697836471377
 32
0.0
 13
40.14168367778849
 23
1.982697836471377
 33
0.0
  0
MTEXT
  5
F9
330
EE
100
AcDbEntity
  8
치수문자_일반주서
 62
     0
100
AcDbMText
 10
35.76668367778841
 20
23.02419783647136
 30
0.0
 40
3.5
 41
0.0
 71
     2
 72
     1
  1
\A1;%%c3.97 [5/32]
  7
SLDTEXTSTYLE0
 11
-3.583716705035992E-15
 21
1.0
 31
0.0
 73
     1
 44
1.0
  0
POINT
  5
FA
330
EE
100
AcDbEntity
  8
Defpoints
 62
     0
100
AcDbPoint
 10
25.40000000000001
 20
-1.982697836471323
 30
0.0
  0
POINT
  5
FB
330
EE
100
AcDbEntity
  8
Defpoints
 62
     0
100
AcDbPoint
 10
25.40000000000001
 20
1.982697836471324
 30
0.0
  0
POINT
  5
FC
330
EE
100
AcDbEntity
  8
Defpoints
 62
     0
100
AcDbPoint
 10
40.14168367778849
 20
1.982697836471379
 30
0.0
  0
ENDBLK
  5
F0
330
EE
100
AcDbEntity
  8
0
100
AcDbBlockEnd
  0
BLOCK
  5
104
330
103
100
AcDbEntity
  8
0
100
AcDbBlockBegin
  2
_D_2
 70
     0
 10
0.0
 20
0.0
 30
0.0
  3
_D_2
  1
_D_2
  0
LINE
  5
106
330
103
100
AcDbEntity
  8
치수문자_일반주서
 62
     0
370
    -2
100
AcDbLine
 10
25.40000000000001
 20
2.045197836471324
 30
0.0
 11
25.40000000000001
 21
17.91635712269518
 31
0.0
  0
LINE
  5
107
330
103
100
AcDbEntity
  8
치수문자_일반주서
 62
     0
370
    -2
100
AcDbLine
 10
17.46250000000001
 20
1.79330396124958
 30
0.0
 11
17.46250000000001
 21
17.91635712269518
 31
0.0
  0
LINE
  5
108
330
103
100
AcDbEntity
  8
치수문자_일반주서
 62
     0
370
    -2
100
AcDbLine
 10
17.46250000000001
 20
17.91635712269518
 30
0.0
 11
-14.51649999999999
 21
17.91635712269518
 31
0.0
  0
LINE
  5
109
330
103
100
AcDbEntity
  8
치수문자_일반주서
 62
     0
370
    -2
100
AcDbLine
 10
25.40000000000001
 20
17.91635712269518
 30
0.0
 11
17.46250000000001
 21
17.91635712269518
 31
0.0
  0
LINE
  5
10A
330
103
100
AcDbEntity
  8
치수문자_일반주서
 62
     0
370
    -2
100
AcDbLine
 10
28.70200000000001
 20
17.91635712269518
 30
0.0
 11
32.004
 21
17.91635712269518
 31
0.0
  0
LINE
  5
10B
330
103
100
AcDbEntity
  8
치수문자_일반주서
 62
     0
370
    -2
100
AcDbLine
 10
14.16050000000001
 20
17.91635712269518
 30
0.0
 11
10.85850000000001
 21
17.91635712269518
 31
0.0
  0
SOLID
  5
10C
330
103
100
AcDbEntity
  8
치수문자_일반주서
 62
     0
100
AcDbTrace
 10
28.70200000000001
 20
18.46669045602851
 30
0.0
 11
28.70200000000001
 21
17.36602378936184
 31
0.0
 12
25.40000000000001
 22
17.91635712269518
 32
0.0
 13
25.40000000000001
 23
17.91635712269518
 33
0.0
  0
SOLID
  5
10D
330
103
100
AcDbEntity
  8
치수문자_일반주서
 62
     0
100
AcDbTrace
 10
14.16050000000001
 20
17.36602378936184
 30
0.0
 11
14.16050000000001
 21
18.46669045602851
 31
0.0
 12
17.46250000000001
 22
17.91635712269518
 32
0.0
 13
17.46250000000001
 23
17.91635712269518
 33
0.0
  0
MTEXT
  5
10E
330
103
100
AcDbEntity
  8
치수문자_일반주서
 62
     0
100
AcDbMText
 10
-1.828999999999994
 20
22.29135712269518
 30
0.0
 40
3.5
 41
0.0
 71
     2
 72
     1
  1
\A1;7.94 [5/16]
  7
SLDTEXTSTYLE0
 73
     1
 44
1.0
  0
POINT
  5
10F
330
103
100
AcDbEntity
  8
Defpoints
 62
     0
100
AcDbPoint
 10
25.40000000000001
 20
1.982697836471324
 30
0.0
  0
POINT
  5
110
330
103
100
AcDbEntity
  8
Defpoints
 62
     0
100
AcDbPoint
 10
17.46250000000001
 20
1.73080396124958
 30
0.0
  0
POINT
  5
111
330
103
100
AcDbEntity
  8
Defpoints
 62
     0
100
AcDbPoint
 10
17.46250000000001
 20
17.91635712269518
 30
0.0
  0
ENDBLK
  5
105
330
103
100
AcDbEntity
  8
0
100
AcDbBlockEnd
  0
BLOCK
  5
119
330
118
100
AcDbEntity
  8
0
100
AcDbBlockBegin
  2
_D_3
 70
     0
 10
0.0
 20
0.0
 30
0.0
  3
_D_3
  1
_D_3
  0
LINE
  5
11B
330
118
100
AcDbEntity
  8
치수문자_일반주서
 62
     0
370
    -2
100
AcDbLine
 10
-25.39999999999999
 20
2.045197836471323
 30
0.0
 11
-25.39999999999999
 21
36.38125000000002
 31
0.0
  0
LINE
  5
11C
330
118
100
AcDbEntity
  8
치수문자_일반주서
 62
     0
370
    -2
100
AcDbLine
 10
25.40000000000001
 20
2.045197836471324
 30
0.0
 11
25.40000000000001
 21
36.38125000000002
 31
0.0
  0
LINE
  5
11D
330
118
100
AcDbEntity
  8
치수문자_일반주서
 62
     0
370
    -2
100
AcDbLine
 10
-22.09799999999999
 20
36.38125000000002
 30
0.0
 11
22.09800000000001
 21
36.38125000000002
 31
0.0
  0
SOLID
  5
11E
330
118
100
AcDbEntity
  8
치수문자_일반주서
 62
     0
100
AcDbTrace
 10
-22.09799999999999
 20
36.93158333333336
 30
0.0
 11
-22.09799999999999
 21
35.83091666666669
 31
0.0
 12
-25.39999999999999
 22
36.38125000000002
 32
0.0
 13
-25.39999999999999
 23
36.38125000000002
 33
0.0
  0
SOLID
  5
11F
330
118
100
AcDbEntity
  8
치수문자_일반주서
 62
     0
100
AcDbTrace
 10
22.09800000000001
 20
35.83091666666669
 30
0.0
 11
22.09800000000001
 21
36.93158333333336
 31
0.0
 12
25.40000000000001
 22
36.38125000000002
 32
0.0
 13
25.40000000000001
 23
36.38125000000002
 33
0.0
  0
MTEXT
  5
120
330
118
100
AcDbEntity
  8
치수문자_일반주서
 62
     0
100
AcDbMText
 10
0.0000000000000124
 20
40.75625000000002
 30
0.0
 40
3.5
 41
0.0
 71
     2
 72
     1
  1
\A1;50.8 [2]
  7
SLDTEXTSTYLE0
 73
     1
 44
1.0
  0
POINT
  5
121
330
118
100
AcDbEntity
  8
Defpoints
 62
     0
100
AcDbPoint
 10
-25.39999999999999
 20
1.982697836471323
 30
0.0
  0
POINT
  5
122
330
118
100
AcDbEntity
  8
Defpoints
 62
     0
100
AcDbPoint
 10
25.40000000000001
 20
1.982697836471324
 30
0.0
  0
POINT
  5
123
330
118
100
AcDbEntity
  8
Defpoints
 62
     0
100
AcDbPoint
 10
25.40000000000001
 20
36.38125000000002
 30
0.0
  0
ENDBLK
  5
11A
330
118
100
AcDbEntity
  8
0
100
AcDbBlockEnd
  0
BLOCK
  5
132
330
131
100
AcDbEntity
  8
0
100
AcDbBlockBegin
  2
SW_DOWELSYMBOL_0
 70
     0
 10
0.0
 20
0.0
 30
0.0
  3
SW_DOWELSYMBOL_0
  1
SW_DOWELSYMBOL_0
  0
CIRCLE
  5
134
330
131
100
AcDbEntity
  8
해칭선
 62
     0
100
AcDbCircle
 10
0.0
 20
0.0
 30
0.0
 40
3.000000000000001
  0
HATCH
  5
135
330
131
100
AcDbEntity
  8
0
  6
Continuous
 62
     0
370
     0
100
AcDbHatch
 10
0.0
 20
0.0
 30
0.0
210
0.0
220
0.0
230
1.0
  2
SOLID
 70
     1
 71
     0
 91
        1
 92
        0
 93
        3
 72
     2
 10
0.0
 20
0.0
 40
3.000000000000001
 50
0.0
 51
90.0
 73
     1
 72
     1
 10
0.0
 20
3.000000000000001
 11
0.0
 21
0.0
 72
     1
 10
0.0
 20
0.0
 11
3.000000000000001
 21
0.0
 97
        0
 75
     0
 76
     1
 98
        1
 10
0.0
 20
0.0
  0
HATCH
  5
136
330
131
100
AcDbEntity
  8
0
  6
Continuous
 62
     0
370
     0
100
AcDbHatch
 10
0.0
 20
0.0
 30
0.0
210
0.0
220
0.0
230
1.0
  2
SOLID
 70
     1
 71
     0
 91
        1
 92
        0
 93
        3
 72
     2
 10
0.0
 20
0.0
 40
3.000000000000001
 50
180.0
 51
270.0000000000007
 73
     1
 72
     1
 10
0.0
 20
-3.000000000000001
 11
0.0
 21
0.0
 72
     1
 10
0.0
 20
0.0
 11
-3.000000000000001
 21
0.0
 97
        0
 75
     0
 76
     1
 98
        1
 10
0.0
 20
0.0
  0
ENDBLK
  5
133
330
131
100
AcDbEntity
  8
0
100
AcDbBlockEnd
  0
BLOCK
  5
1F4
330
1F3
100
AcDbEntity
  8
0
100
AcDbBlockBegin
  2
_D_4
 70
     0
 10
0.0
 20
0.0
 30
0.0
  3
_D_4
  1
_D_4
  0
LINE
  5
1F5
330
1F3
100
AcDbEntity
  8
치수문자_일반주서
 62
     0
370
    -2
100
AcDbLine
 10
102.4375000000001
 20
36.22143424691529
 30
0.0
 11
117.3750000000001
 21
36.22143424691535
 31
0.0
  0
LINE
  5
1F6
330
1F3
100
AcDbEntity
  8
치수문자_일반주서
 62
     0
370
    -2
100
AcDbLine
 10
102.4375000000001
 20
22.22143424691529
 30
0.0
 11
117.3750000000001
 21
22.22143424691535
 31
0.0
  0
LINE
  5
1F7
330
1F3
100
AcDbEntity
  8
치수문자_일반주서
 62
     0
370
    -2
100
AcDbLine
 10
117.3750000000001
 20
36.22143424691535
 30
0.0
 11
117.3750000000001
 21
22.22143424691535
 31
0.0
  0
LINE
  5
1F8
330
1F3
100
AcDbEntity
  8
치수문자_일반주서
 62
     0
370
    -2
100
AcDbLine
 10
117.3750000000001
 20
39.52343424691535
 30
0.0
 11
117.375
 21
42.82543424691535
 31
0.0
  0
LINE
  5
1F9
330
1F3
100
AcDbEntity
  8
치수문자_일반주서
 62
     0
370
    -2
100
AcDbLine
 10
117.3750000000001
 20
18.91943424691535
 30
0.0
 11
117.3750000000001
 21
15.61743424691535
 31
0.0
  0
SOLID
  5
1FA
330
1F3
100
AcDbEntity
  8
치수문자_일반주서
 62
     0
100
AcDbTrace
 10
116.8246666666667
 20
39.52343424691535
 30
0.0
 11
117.9253333333334
 21
39.52343424691535
 31
0.0
 12
117.3750000000001
 22
36.22143424691535
 32
0.0
 13
117.3750000000001
 23
36.22143424691535
 33
0.0
  0
SOLID
  5
1FB
330
1F3
100
AcDbEntity
  8
치수문자_일반주서
 62
     0
100
AcDbTrace
 10
117.9253333333335
 20
18.91943424691535
 30
0.0
 11
116.8246666666668
 21
18.91943424691535
 31
0.0
 12
117.3750000000001
 22
22.22143424691535
 32
0.0
 13
117.3750000000001
 23
22.22143424691535
 33
0.0
  0
MTEXT
  5
1FC
330
1F3
100
AcDbEntity
  8
치수문자_일반주서
 62
     0
100
AcDbMText
 10
113.0000000000001
 20
29.28713862862833
 30
0.0
 40
3.5
 41
0.0
 71
     2
 72
     1
  1
\A1;%%c14.00 [0.55]
  7
SLDTEXTSTYLE0
 11
-3.045183153257572E-15
 21
1.0
 31
0.0
 73
     1
 44
1.0
  0
POINT
  5
1FD
330
1F3
100
AcDbEntity
  8
Defpoints
 62
     0
100
AcDbPoint
 10
102.3750000000001
 20
36.22143424691529
 30
0.0
  0
POINT
  5
1FE
330
1F3
100
AcDbEntity
  8
Defpoints
 62
     0
100
AcDbPoint
 10
102.3750000000001
 20
22.22143424691529
 30
0.0
  0
POINT
  5
1FF
330
1F3
100
AcDbEntity
  8
Defpoints
 62
     0
100
AcDbPoint
 10
117.3750000000001
 20
22.22143424691535
 30
0.0
  0
ENDBLK
  5
200
330
1F3
100
AcDbEntity
  8
0
100
AcDbBlockEnd
  0
BLOCK
  5
20E
330
20D
100
AcDbEntity
  8
0
100
AcDbBlockBegin
  2
*D8
 70
     1
 10
0.0
 20
0.0
 30
0.0
  3
*D8
  1
*D8
  0
LINE
  5
20F
330
20D
100
AcDbEntity
  8
치수문자_일반주서
 62
     0
370
    -2
100
AcDbLine
 10
103.8657751816695
 20
19.48229575403651
 30
0.0
 11
119.6194267469468
 21
-6.150060756304035
 31
0.0
  0
MTEXT
  5
210
330
20D
100
AcDbEntity
  8
치수문자_일반주서
 62
     0
100
AcDbMText
 10
115.6706384014277
 20
5.288158154535728
 30
0.0
 40
3.5
 41
0.0
 71
     5
 72
     1
  1
\A1;R.5 [R0.02]
  7
SLDTEXTSTYLE0
 11
0.5236126201129557
 21
-0.8519564684057781
 31
0.0
 73
     1
 44
1.0
  0
SOLID
  5
211
330
20D
100
AcDbEntity
  8
치수문자_일반주서
 62
     0
100
AcDbTrace
 10
104.3346352247821
 20
19.77045723263868
 30
0.0
 11
103.3969151385569
 21
19.19413427543435
 31
0.0
 12
102.1368063100565
 22
22.29545601271239
 32
0.0
 13
102.1368063100565
 23
22.29545601271239
 33
0.0
  0
LINE
  5
212
330
20D
100
AcDbEntity
  8
치수문자_일반주서
 62
     0
100
AcDbLine
 10
101.785
 20
22.72143424691529
 30
0.0
 11
101.965
 21
22.72143424691529
 31
0.0
  0
LINE
  5
213
330
20D
100
AcDbEntity
  8
치수문자_일반주서
 62
     0
100
AcDbLine
 10
101.875
 20
22.63143424691529
 30
0.0
 11
101.875
 21
22.81143424691529
 31
0.0
  0
POINT
  5
23F
330
20D
100
AcDbEntity
  8
Defpoints
 62
     0
100
AcDbPoint
 10
102.1368063100565
 20
22.29545601271239
 30
0.0
  0
POINT
  5
240
330
20D
100
AcDbEntity
  8
Defpoints
 62
     0
100
AcDbPoint
 10
101.875
 20
22.72143424691529
 30
0.0
  0
ENDBLK
  5
214
330
20D
100
AcDbEntity
  8
0
100
AcDbBlockEnd
  0
BLOCK
  5
21A
330
219
100
AcDbEntity
  8
0
100
AcDbBlockBegin
  2
*D9
 70
     1
 10
0.0
 20
0.0
 30
0.0
  3
*D9
  1
*D10
  0
LINE
  5
21C
330
219
100
AcDbEntity
  8
치수문자_일반주서
 62
     0
370
    -2
100
AcDbLine
 10
19.37500000000004
 20
35.78393424691529
 30
0.0
 11
19.37500000000004
 21
70.88391841499404
 31
0.0
  0
LINE
  5
21D
330
219
100
AcDbEntity
  8
치수문자_일반주서
 62
     0
370
    -2
100
AcDbLine
 10
102.3750000000001
 20
36.34643424691529
 30
0.0
 11
102.3750000000001
 21
70.88391841499404
 31
0.0
  0
LINE
  5
21E
330
219
100
AcDbEntity
  8
치수문자_일반주서
 62
     0
370
    -2
100
AcDbLine
 10
22.67700000000004
 20
70.88391841499404
 30
0.0
 11
99.07300000000006
 21
70.88391841499404
 31
0.0
  0
SOLID
  5
21F
330
219
100
AcDbEntity
  8
치수문자_일반주서
 62
     0
100
AcDbTrace
 10
22.67700000000004
 20
71.43425174832737
 30
0.0
 11
22.67700000000004
 21
70.33358508166071
 31
0.0
 12
19.37500000000004
 22
70.88391841499404
 32
0.0
 13
19.37500000000004
 23
70.88391841499404
 33
0.0
  0
SOLID
  5
220
330
219
100
AcDbEntity
  8
치수문자_일반주서
 62
     0
100
AcDbTrace
 10
99.07300000000006
 20
70.33358508166071
 30
0.0
 11
99.07300000000006
 21
71.43425174832737
 31
0.0
 12
102.3750000000001
 22
70.88391841499404
 32
0.0
 13
102.3750000000001
 23
70.88391841499404
 33
0.0
  0
MTEXT
  5
221
330
219
100
AcDbEntity
  8
치수문자_일반주서
 62
     0
100
AcDbMText
 10
60.87500000000005
 20
75.25891841499404
 30
0.0
 40
3.5
 41
0.0
 71
     2
 72
     1
  1
\A1;83 [3.27]
  7
SLDTEXTSTYLE0
 73
     1
 44
1.0
  0
POINT
  5
222
330
219
100
AcDbEntity
  8
Defpoints
 62
     0
100
AcDbPoint
 10
19.37500000000004
 20
35.72143424691529
 30
0.0
  0
POINT
  5
223
330
219
100
AcDbEntity
  8
Defpoints
 62
     0
100
AcDbPoint
 10
102.3750000000001
 20
36.28393424691529
 30
0.0
  0
POINT
  5
224
330
219
100
AcDbEntity
  8
Defpoints
 62
     0
100
AcDbPoint
 10
102.3750000000001
 20
70.88391841499404
 30
0.0
  0
ENDBLK
  5
21B
330
219
100
AcDbEntity
  8
0
100
AcDbBlockEnd
  0
BLOCK
  5
226
330
225
100
AcDbEntity
  8
0
100
AcDbBlockBegin
  2
*D10
 70
     1
 10
0.0
 20
0.0
 30
0.0
  3
*D10
  1
*D11
  0
LINE
  5
228
330
225
100
AcDbEntity
  8
치수문자_일반주서
 62
     0
370
    -2
100
AcDbLine
 10
76.37504186422882
 20
28.62038676313042
 30
0.0
 11
76.37504186422882
 21
61.90091383617725
 31
0.0
  0
LINE
  5
229
330
225
100
AcDbEntity
  8
치수문자_일반주서
 62
     0
370
    -2
100
AcDbLine
 10
102.3750000000001
 20
36.28393424691529
 30
0.0
 11
102.3750000000001
 21
61.90091383617725
 31
0.0
  0
LINE
  5
22A
330
225
100
AcDbEntity
  8
치수문자_일반주서
 62
     0
370
    -2
100
AcDbLine
 10
79.67704186422881
 20
61.90091383617725
 30
0.0
 11
99.07300000000006
 21
61.90091383617725
 31
0.0
  0
SOLID
  5
22B
330
225
100
AcDbEntity
  8
치수문자_일반주서
 62
     0
100
AcDbTrace
 10
79.67704186422881
 20
62.45124716951059
 30
0.0
 11
79.67704186422881
 21
61.35058050284392
 31
0.0
 12
76.37504186422882
 22
61.90091383617725
 32
0.0
 13
76.37504186422882
 23
61.90091383617725
 33
0.0
  0
SOLID
  5
22C
330
225
100
AcDbEntity
  8
치수문자_일반주서
 62
     0
100
AcDbTrace
 10
99.07300000000006
 20
61.35058050284392
 30
0.0
 11
99.07300000000006
 21
62.45124716951059
 31
0.0
 12
102.3750000000001
 22
61.90091383617725
 32
0.0
 13
102.3750000000001
 23
61.90091383617725
 33
0.0
  0
MTEXT
  5
22D
330
225
100
AcDbEntity
  8
치수문자_일반주서
 62
     0
100
AcDbMText
 10
89.42159572693208
 20
66.27591383617725
 30
0.0
 40
3.5
 41
0.0
 71
     2
 72
     1
  1
\A1;26 [1.02]
  7
SLDTEXTSTYLE0
 73
     1
 44
1.0
  0
POINT
  5
22E
330
225
100
AcDbEntity
  8
Defpoints
 62
     0
100
AcDbPoint
 10
76.37504186422882
 20
28.55788676313042
 30
0.0
  0
POINT
  5
22F
330
225
100
AcDbEntity
  8
Defpoints
 62
     0
100
AcDbPoint
 10
102.3750000000001
 20
36.22143424691529
 30
0.0
  0
POINT
  5
230
330
225
100
AcDbEntity
  8
Defpoints
 62
     0
100
AcDbPoint
 10
102.3750000000001
 20
61.90091383617725
 30
0.0
  0
ENDBLK
  5
227
330
225
100
AcDbEntity
  8
0
100
AcDbBlockEnd
  0
BLOCK
  5
232
330
231
100
AcDbEntity
  8
0
100
AcDbBlockBegin
  2
*D11
 70
     1
 10
0.0
 20
0.0
 30
0.0
  3
*D11
  1
*D12
  0
LINE
  5
234
330
231
100
AcDbEntity
  8
치수문자_일반주서
 62
     0
370
    -2
100
AcDbLine
 10
19.81250000000005
 20
36.22143424691529
 30
0.0
 11
4.374999999999983
 21
36.22143424691524
 31
0.0
  0
LINE
  5
235
330
231
100
AcDbEntity
  8
치수문자_일반주서
 62
     0
370
    -2
100
AcDbLine
 10
19.81250000000005
 20
22.22143424691529
 30
0.0
 11
4.375000000000032
 21
22.22143424691524
 31
0.0
  0
LINE
  5
236
330
231
100
AcDbEntity
  8
치수문자_일반주서
 62
     0
370
    -2
100
AcDbLine
 10
4.374999999999983
 20
36.22143424691524
 30
0.0
 11
4.375000000000032
 21
22.22143424691524
 31
0.0
  0
LINE
  5
237
330
231
100
AcDbEntity
  8
치수문자_일반주서
 62
     0
370
    -2
100
AcDbLine
 10
4.374999999999972
 20
39.52343424691524
 30
0.0
 11
4.37499999999996
 21
42.82543424691524
 31
0.0
  0
LINE
  5
238
330
231
100
AcDbEntity
  8
치수문자_일반주서
 62
     0
370
    -2
100
AcDbLine
 10
4.375000000000044
 20
18.91943424691524
 30
0.0
 11
4.375000000000055
 21
15.61743424691524
 31
0.0
  0
SOLID
  5
239
330
231
100
AcDbEntity
  8
치수문자_일반주서
 62
     0
100
AcDbTrace
 10
3.824666666666638
 20
39.52343424691524
 30
0.0
 11
4.925333333333305
 21
39.52343424691524
 31
0.0
 12
4.374999999999983
 22
36.22143424691524
 32
0.0
 13
4.374999999999983
 23
36.22143424691524
 33
0.0
  0
SOLID
  5
23A
330
231
100
AcDbEntity
  8
치수문자_일반주서
 62
     0
100
AcDbTrace
 10
4.925333333333377
 20
18.91943424691524
 30
0.0
 11
3.82466666666671
 21
18.91943424691523
 31
0.0
 12
4.375000000000032
 22
22.22143424691524
 32
0.0
 13
4.375000000000032
 23
22.22143424691524
 33
0.0
  0
MTEXT
  5
23B
330
231
100
AcDbEntity
  8
치수문자_일반주서
 62
     0
100
AcDbMText
 10
0.0000000000000071
 20
29.22143424691528
 30
0.0
 40
3.5
 41
0.0
 71
     2
 72
     1
  1
\A1;%%c14.00 [0.55]
  7
SLDTEXTSTYLE0
 11
-3.489272363107635E-15
 21
1.0
 31
0.0
 73
     1
 44
1.0
  0
POINT
  5
23C
330
231
100
AcDbEntity
  8
Defpoints
 62
     0
100
AcDbPoint
 10
19.87500000000005
 20
36.22143424691529
 30
0.0
  0
POINT
  5
23D
330
231
100
AcDbEntity
  8
Defpoints
 62
     0
100
AcDbPoint
 10
19.87500000000005
 20
22.22143424691529
 30
0.0
  0
POINT
  5
23E
330
231
100
AcDbEntity
  8
Defpoints
 62
     0
100
AcDbPoint
 10
4.375000000000043
 20
22.22143424691524
 30
0.0
  0
ENDBLK
  5
233
330
231
100
AcDbEntity
  8
0
100
AcDbBlockEnd
  0
BLOCK
  5
28D
330
28C
100
AcDbEntity
  8
0
100
AcDbBlockBegin
  2
*D12
 70
     1
 10
0.0
 20
0.0
 30
0.0
  3
*D12
  1
*D13
  0
LINE
  5
28F
330
28C
100
AcDbEntity
  8
치수문자_일반주서
 62
     0
370
    -2
100
AcDbLine
 10
-56.86833005506305
 20
113.4965268916768
 30
0.0
 11
-56.86833005506305
 21
148.5965110597555
 31
0.0
  0
LINE
  5
290
330
28C
100
AcDbEntity
  8
치수문자_일반주서
 62
     0
370
    -2
100
AcDbLine
 10
26.13166994493696
 20
114.0590268916768
 30
0.0
 11
26.13166994493696
 21
148.5965110597555
 31
0.0
  0
LINE
  5
291
330
28C
100
AcDbEntity
  8
치수문자_일반주서
 62
     0
370
    -2
100
AcDbLine
 10
-53.56633005506306
 20
148.5965110597555
 30
0.0
 11
22.82966994493696
 21
148.5965110597555
 31
0.0
  0
SOLID
  5
292
330
28C
100
AcDbEntity
  8
치수문자_일반주서
 62
     0
100
AcDbTrace
 10
-53.56633005506306
 20
149.1468443930888
 30
0.0
 11
-53.56633005506306
 21
148.0461777264222
 31
0.0
 12
-56.86833005506305
 22
148.5965110597555
 32
0.0
 13
-56.86833005506305
 23
148.5965110597555
 33
0.0
  0
SOLID
  5
293
330
28C
100
AcDbEntity
  8
치수문자_일반주서
 62
     0
100
AcDbTrace
 10
22.82966994493696
 20
148.0461777264222
 30
0.0
 11
22.82966994493696
 21
149.1468443930888
 31
0.0
 12
26.13166994493696
 22
148.5965110597555
 32
0.0
 13
26.13166994493696
 23
148.5965110597555
 33
0.0
  0
MTEXT
  5
294
330
28C
100
AcDbEntity
  8
치수문자_일반주서
 62
     0
100
AcDbMText
 10
-15.36833005506305
 20
152.9715110597555
 30
0.0
 40
3.5
 41
0.0
 71
     2
 72
     1
  1
\A1;83 [3.27]
  7
SLDTEXTSTYLE0
 73
     1
 44
1.0
  0
POINT
  5
295
330
28C
100
AcDbEntity
  8
Defpoints
 62
     0
100
AcDbPoint
 10
-56.86833005506305
 20
113.4340268916768
 30
0.0
  0
POINT
  5
296
330
28C
100
AcDbEntity
  8
Defpoints
 62
     0
100
AcDbPoint
 10
26.13166994493696
 20
113.9965268916768
 30
0.0
  0
POINT
  5
297
330
28C
100
AcDbEntity
  8
Defpoints
 62
     0
100
AcDbPoint
 10
26.13166994493696
 20
148.5965110597555
 30
0.0
  0
ENDBLK
  5
28E
330
28C
100
AcDbEntity
  8
0
100
AcDbBlockEnd
  0
BLOCK
  5
299
330
298
100
AcDbEntity
  8
0
100
AcDbBlockBegin
  2
*D13
 70
     1
 10
0.0
 20
0.0
 30
0.0
  3
*D13
  1
*D14
  0
LINE
  5
29B
330
298
100
AcDbEntity
  8
치수문자_일반주서
 62
     0
370
    -2
100
AcDbLine
 10
0.1317118091657221
 20
106.3329794078919
 30
0.0
 11
0.1317118091657221
 21
139.6135064809387
 31
0.0
  0
LINE
  5
29C
330
298
100
AcDbEntity
  8
치수문자_일반주서
 62
     0
370
    -2
100
AcDbLine
 10
26.13166994493696
 20
113.9965268916768
 30
0.0
 11
26.13166994493696
 21
139.6135064809387
 31
0.0
  0
LINE
  5
29D
330
298
100
AcDbEntity
  8
치수문자_일반주서
 62
     0
370
    -2
100
AcDbLine
 10
3.433711809165722
 20
139.6135064809387
 30
0.0
 11
22.82966994493696
 21
139.6135064809387
 31
0.0
  0
SOLID
  5
29E
330
298
100
AcDbEntity
  8
치수문자_일반주서
 62
     0
100
AcDbTrace
 10
3.433711809165722
 20
140.1638398142721
 30
0.0
 11
3.433711809165722
 21
139.0631731476054
 31
0.0
 12
0.1317118091657221
 22
139.6135064809387
 32
0.0
 13
0.1317118091657221
 23
139.6135064809387
 33
0.0
  0
SOLID
  5
29F
330
298
100
AcDbEntity
  8
치수문자_일반주서
 62
     0
100
AcDbTrace
 10
22.82966994493696
 20
139.0631731476054
 30
0.0
 11
22.82966994493696
 21
140.1638398142721
 31
0.0
 12
26.13166994493696
 22
139.6135064809387
 32
0.0
 13
26.13166994493696
 23
139.6135064809387
 33
0.0
  0
MTEXT
  5
2A0
330
298
100
AcDbEntity
  8
치수문자_일반주서
 62
     0
100
AcDbMText
 10
13.17826567186899
 20
143.9885064809387
 30
0.0
 40
3.5
 41
0.0
 71
     2
 72
     1
  1
\A1;26 [1.02]
  7
SLDTEXTSTYLE0
 73
     1
 44
1.0
  0
POINT
  5
2A1
330
298
100
AcDbEntity
  8
Defpoints
 62
     0
100
AcDbPoint
 10
0.1317118091657221
 20
106.2704794078919
 30
0.0
  0
POINT
  5
2A2
330
298
100
AcDbEntity
  8
Defpoints
 62
     0
100
AcDbPoint
 10
26.13166994493696
 20
113.9340268916768
 30
0.0
  0
POINT
  5
2A3
330
298
100
AcDbEntity
  8
Defpoints
 62
     0
100
AcDbPoint
 10
26.13166994493696
 20
139.6135064809387
 30
0.0
  0
ENDBLK
  5
29A
330
298
100
AcDbEntity
  8
0
100
AcDbBlockEnd
  0
BLOCK
  5
2A5
330
2A4
100
AcDbEntity
  8
0
100
AcDbBlockBegin
  2
*D14
 70
     1
 10
0.0
 20
0.0
 30
0.0
  3
*D14
  1
*D15
  0
LINE
  5
2A7
330
2A4
100
AcDbEntity
  8
치수문자_일반주서
 62
     0
370
    -2
100
AcDbLine
 10
-56.43083005506305
 20
113.9340268916768
 30
0.0
 11
-71.86833005506311
 21
113.9340268916767
 31
0.0
  0
LINE
  5
2A8
330
2A4
100
AcDbEntity
  8
치수문자_일반주서
 62
     0
370
    -2
100
AcDbLine
 10
-56.43083005506305
 20
99.93402689167675
 30
0.0
 11
-71.86833005506307
 21
99.9340268916767
 31
0.0
  0
LINE
  5
2A9
330
2A4
100
AcDbEntity
  8
치수문자_일반주서
 62
     0
370
    -2
100
AcDbLine
 10
-71.86833005506311
 20
113.9340268916767
 30
0.0
 11
-71.86833005506307
 21
99.9340268916767
 31
0.0
  0
LINE
  5
2AA
330
2A4
100
AcDbEntity
  8
치수문자_일반주서
 62
     0
370
    -2
100
AcDbLine
 10
-71.86833005506313
 20
117.2360268916767
 30
0.0
 11
-71.86833005506314
 21
120.5380268916767
 31
0.0
  0
LINE
  5
2AB
330
2A4
100
AcDbEntity
  8
치수문자_일반주서
 62
     0
370
    -2
100
AcDbLine
 10
-71.86833005506305
 20
96.6320268916767
 30
0.0
 11
-71.86833005506304
 21
93.33002689167671
 31
0.0
  0
SOLID
  5
2AC
330
2A4
100
AcDbEntity
  8
치수문자_일반주서
 62
     0
100
AcDbTrace
 10
-72.41866338839645
 20
117.2360268916767
 30
0.0
 11
-71.3179967217298
 21
117.2360268916767
 31
0.0
 12
-71.86833005506311
 22
113.9340268916767
 32
0.0
 13
-71.86833005506311
 23
113.9340268916767
 33
0.0
  0
SOLID
  5
2AD
330
2A4
100
AcDbEntity
  8
치수문자_일반주서
 62
     0
100
AcDbTrace
 10
-71.31799672172973
 20
96.6320268916767
 30
0.0
 11
-72.41866338839638
 21
96.6320268916767
 31
0.0
 12
-71.86833005506307
 22
99.9340268916767
 32
0.0
 13
-71.86833005506307
 23
99.9340268916767
 33
0.0
  0
MTEXT
  5
2AE
330
2A4
100
AcDbEntity
  8
치수문자_일반주서
 62
     0
100
AcDbMText
 10
-76.2433300550631
 20
106.9340268916767
 30
0.0
 40
3.5
 41
0.0
 71
     2
 72
     1
  1
\A1;%%c14.00 [0.55]
  7
SLDTEXTSTYLE0
 11
-3.045183153257572E-15
 21
1.0
 31
0.0
 73
     1
 44
1.0
  0
POINT
  5
2AF
330
2A4
100
AcDbEntity
  8
Defpoints
 62
     0
100
AcDbPoint
 10
-56.36833005506305
 20
113.9340268916768
 30
0.0
  0
POINT
  5
2B0
330
2A4
100
AcDbEntity
  8
Defpoints
 62
     0
100
AcDbPoint
 10
-56.36833005506305
 20
99.93402689167675
 30
0.0
  0
POINT
  5
2B1
330
2A4
100
AcDbEntity
  8
Defpoints
 62
     0
100
AcDbPoint
 10
-71.86833005506307
 20
99.9340268916767
 30
0.0
  0
ENDBLK
  5
2A6
330
2A4
100
AcDbEntity
  8
0
100
AcDbBlockEnd
  0
BLOCK
  5
2B3
330
2B2
100
AcDbEntity
  8
0
100
AcDbBlockBegin
  2
*D15
 70
     1
 10
0.0
 20
0.0
 30
0.0
  3
*D15
  1
*D16
  0
LINE
  5
2B5
330
2B2
100
AcDbEntity
  8
치수문자_일반주서
 62
     0
370
    -2
100
AcDbLine
 10
26.19416994493697
 20
113.9340268916768
 30
0.0
 11
41.13166994493697
 21
113.9340268916768
 31
0.0
  0
LINE
  5
2B6
330
2B2
100
AcDbEntity
  8
치수문자_일반주서
 62
     0
370
    -2
100
AcDbLine
 10
26.19416994493696
 20
99.93402689167675
 30
0.0
 11
41.13166994493702
 21
99.93402689167681
 31
0.0
  0
LINE
  5
2B7
330
2B2
100
AcDbEntity
  8
치수문자_일반주서
 62
     0
370
    -2
100
AcDbLine
 10
41.13166994493697
 20
113.9340268916768
 30
0.0
 11
41.13166994493702
 21
99.93402689167681
 31
0.0
  0
LINE
  5
2B8
330
2B2
100
AcDbEntity
  8
치수문자_일반주서
 62
     0
370
    -2
100
AcDbLine
 10
41.13166994493695
 20
117.2360268916768
 30
0.0
 11
41.13166994493694
 21
120.5380268916768
 31
0.0
  0
LINE
  5
2B9
330
2B2
100
AcDbEntity
  8
치수문자_일반주서
 62
     0
370
    -2
100
AcDbLine
 10
41.13166994493703
 20
96.63202689167682
 30
0.0
 11
41.13166994493704
 21
93.33002689167682
 31
0.0
  0
SOLID
  5
2BA
330
2B2
100
AcDbEntity
  8
치수문자_일반주서
 62
     0
100
AcDbTrace
 10
40.58133661160362
 20
117.2360268916768
 30
0.0
 11
41.68200327827029
 21
117.2360268916768
 31
0.0
 12
41.13166994493697
 22
113.9340268916768
 32
0.0
 13
41.13166994493697
 23
113.9340268916768
 33
0.0
  0
SOLID
  5
2BB
330
2B2
100
AcDbEntity
  8
치수문자_일반주서
 62
     0
100
AcDbTrace
 10
41.68200327827036
 20
96.63202689167682
 30
0.0
 11
40.5813366116037
 21
96.63202689167682
 31
0.0
 12
41.13166994493702
 22
99.93402689167681
 32
0.0
 13
41.13166994493702
 23
99.93402689167681
 33
0.0
  0
MTEXT
  5
2BC
330
2B2
100
AcDbEntity
  8
치수문자_일반주서
 62
     0
100
AcDbMText
 10
36.75666994493699
 20
106.9997312733898
 30
0.0
 40
3.5
 41
0.0
 71
     2
 72
     1
  1
\A1;%%c14.00 [0.55]
  7
SLDTEXTSTYLE0
 11
-3.552713678800501E-15
 21
1.0
 31
0.0
 73
     1
 44
1.0
  0
POINT
  5
2BD
330
2B2
100
AcDbEntity
  8
Defpoints
 62
     0
100
AcDbPoint
 10
26.13166994493697
 20
113.9340268916768
 30
0.0
  0
POINT
  5
2BE
330
2B2
100
AcDbEntity
  8
Defpoints
 62
     0
100
AcDbPoint
 10
26.13166994493696
 20
99.93402689167675
 30
0.0
  0
POINT
  5
2BF
330
2B2
100
AcDbEntity
  8
Defpoints
 62
     0
100
AcDbPoint
 10
41.13166994493702
 20
99.93402689167681
 30
0.0
  0
ENDBLK
  5
2B4
330
2B2
100
AcDbEntity
  8
0
100
AcDbBlockEnd
  0
BLOCK
  5
2C1
330
2C0
100
AcDbEntity
  8
0
100
AcDbBlockBegin
  2
*D16
 70
     1
 10
0.0
 20
0.0
 30
0.0
  3
*D16
  1
*D17
  0
LINE
  5
2C3
330
2C0
100
AcDbEntity
  8
치수문자_일반주서
 62
     0
370
    -2
100
AcDbLine
 10
27.62244512660641
 20
97.19488839879797
 30
0.0
 11
43.3760966918837
 21
71.56253188845741
 31
0.0
  0
MTEXT
  5
2C4
330
2C0
100
AcDbEntity
  8
치수문자_일반주서
 62
     0
100
AcDbMText
 10
39.42730834636458
 20
83.00075079929718
 30
0.0
 40
3.5
 41
0.0
 71
     5
 72
     1
  1
\A1;R.5 [R0.02]
  7
SLDTEXTSTYLE0
 11
0.5236126201129557
 21
-0.8519564684057781
 31
0.0
 73
     1
 44
1.0
  0
SOLID
  5
2C5
330
2C0
100
AcDbEntity
  8
치수문자_일반주서
 62
     0
100
AcDbTrace
 10
28.09130516971906
 20
97.48304987740013
 30
0.0
 11
27.15358508349377
 21
96.90672692019581
 31
0.0
 12
25.89347625499343
 22
100.0080486574739
 32
0.0
 13
25.89347625499343
 23
100.0080486574739
 33
0.0
  0
LINE
  5
2C6
330
2C0
100
AcDbEntity
  8
치수문자_일반주서
 62
     0
100
AcDbLine
 10
25.54166994493695
 20
100.4340268916768
 30
0.0
 11
25.72166994493695
 21
100.4340268916768
 31
0.0
  0
LINE
  5
2C7
330
2C0
100
AcDbEntity
  8
치수문자_일반주서
 62
     0
100
AcDbLine
 10
25.63166994493695
 20
100.3440268916767
 30
0.0
 11
25.63166994493695
 21
100.5240268916768
 31
0.0
  0
POINT
  5
2C8
330
2C0
100
AcDbEntity
  8
Defpoints
 62
     0
100
AcDbPoint
 10
25.89347625499343
 20
100.0080486574739
 30
0.0
  0
POINT
  5
2C9
330
2C0
100
AcDbEntity
  8
Defpoints
 62
     0
100
AcDbPoint
 10
25.63166994493695
 20
100.4340268916768
 30
0.0
  0
ENDBLK
  5
2C2
330
2C0
100
AcDbEntity
  8
0
100
AcDbBlockEnd
  0
BLOCK
  5
305
330
304
100
AcDbEntity
  8
0
100
AcDbBlockBegin
  2
*D17
 70
     1
 10
0.0
 20
0.0
 30
0.0
  3
*D17
  1
*D18
  0
LINE
  5
307
330
304
100
AcDbEntity
  8
치수문자_일반주서
 62
     0
370
    -2
100
AcDbLine
 10
98.4287876544519
 20
-27.5936746051892
 30
0.0
 11
113.1079713322404
 21
-27.59367460518914
 31
0.0
  0
LINE
  5
308
330
304
100
AcDbEntity
  8
치수문자_일반주서
 62
     0
370
    -2
100
AcDbLine
 10
98.4287876544519
 20
-23.62827893224656
 30
0.0
 11
113.1079713322404
 21
-23.6282789322465
 31
0.0
  0
LINE
  5
309
330
304
100
AcDbEntity
  8
치수문자_일반주서
 62
     0
370
    -2
100
AcDbLine
 10
113.1079713322404
 20
-23.6282789322465
 30
0.0
 11
113.1079713322403
 21
8.7882210677535
 31
0.0
  0
LINE
  5
30A
330
304
100
AcDbEntity
  8
치수문자_일반주서
 62
     0
370
    -2
100
AcDbLine
 10
113.1079713322404
 20
-27.59367460518914
 30
0.0
 11
113.1079713322404
 21
-23.6282789322465
 31
0.0
  0
LINE
  5
30B
330
304
100
AcDbEntity
  8
치수문자_일반주서
 62
     0
370
    -2
100
AcDbLine
 10
113.1079713322404
 20
-30.89567460518914
 30
0.0
 11
113.1079713322404
 21
-34.19767460518914
 31
0.0
  0
LINE
  5
30C
330
304
100
AcDbEntity
  8
치수문자_일반주서
 62
     0
370
    -2
100
AcDbLine
 10
113.1079713322404
 20
-20.3262789322465
 30
0.0
 11
113.1079713322404
 21
-17.0242789322465
 31
0.0
  0
SOLID
  5
30D
330
304
100
AcDbEntity
  8
치수문자_일반주서
 62
     0
100
AcDbTrace
 10
113.6583046655737
 20
-30.89567460518914
 30
0.0
 11
112.5576379989071
 21
-30.89567460518915
 31
0.0
 12
113.1079713322404
 22
-27.59367460518914
 32
0.0
 13
113.1079713322404
 23
-27.59367460518914
 33
0.0
  0
SOLID
  5
30E
330
304
100
AcDbEntity
  8
치수문자_일반주서
 62
     0
100
AcDbTrace
 10
112.557637998907
 20
-20.3262789322465
 30
0.0
 11
113.6583046655737
 21
-20.3262789322465
 31
0.0
 12
113.1079713322404
 22
-23.6282789322465
 32
0.0
 13
113.1079713322404
 23
-23.6282789322465
 33
0.0
  0
MTEXT
  5
30F
330
304
100
AcDbEntity
  8
치수문자_일반주서
 62
     0
100
AcDbMText
 10
108.7329713322403
 20
-4.118028932246515
 30
0.0
 40
3.5
 41
0.0
 71
     2
 72
     1
  1
\A1;%%c3.97 [0.16]
  7
SLDTEXTSTYLE0
 11
-3.583716705035995E-15
 21
1.0
 31
0.0
 73
     1
 44
1.0
  0
POINT
  5
310
330
304
100
AcDbEntity
  8
Defpoints
 62
     0
100
AcDbPoint
 10
98.3662876544519
 20
-27.5936746051892
 30
0.0
  0
POINT
  5
311
330
304
100
AcDbEntity
  8
Defpoints
 62
     0
100
AcDbPoint
 10
98.3662876544519
 20
-23.62827893224656
 30
0.0
  0
POINT
  5
312
330
304
100
AcDbEntity
  8
Defpoints
 62
     0
100
AcDbPoint
 10
113.1079713322404
 20
-23.6282789322465
 30
0.0
  0
ENDBLK
  5
306
330
304
100
AcDbEntity
  8
0
100
AcDbBlockEnd
  0
BLOCK
  5
314
330
313
100
AcDbEntity
  8
0
100
AcDbBlockBegin
  2
*D18
 70
     1
 10
0.0
 20
0.0
 30
0.0
  3
*D18
  1
*D19
  0
LINE
  5
316
330
313
100
AcDbEntity
  8
치수문자_일반주서
 62
     0
370
    -2
100
AcDbLine
 10
98.3662876544519
 20
-23.56577893224656
 30
0.0
 11
98.3662876544519
 21
-7.694619646022701
 31
0.0
  0
LINE
  5
317
330
313
100
AcDbEntity
  8
치수문자_일반주서
 62
     0
370
    -2
100
AcDbLine
 10
90.4287876544519
 20
-23.8176728074683
 30
0.0
 11
90.4287876544519
 21
-7.694619646022701
 31
0.0
  0
LINE
  5
318
330
313
100
AcDbEntity
  8
치수문자_일반주서
 62
     0
370
    -2
100
AcDbLine
 10
90.4287876544519
 20
-7.694619646022701
 30
0.0
 11
60.6372876544519
 21
-7.694619646022701
 31
0.0
  0
LINE
  5
319
330
313
100
AcDbEntity
  8
치수문자_일반주서
 62
     0
370
    -2
100
AcDbLine
 10
98.3662876544519
 20
-7.694619646022701
 30
0.0
 11
90.4287876544519
 21
-7.694619646022701
 31
0.0
  0
LINE
  5
31A
330
313
100
AcDbEntity
  8
치수문자_일반주서
 62
     0
370
    -2
100
AcDbLine
 10
101.6682876544519
 20
-7.694619646022701
 30
0.0
 11
104.9702876544519
 21
-7.694619646022701
 31
0.0
  0
LINE
  5
31B
330
313
100
AcDbEntity
  8
치수문자_일반주서
 62
     0
370
    -2
100
AcDbLine
 10
87.1267876544519
 20
-7.694619646022701
 30
0.0
 11
83.82478765445191
 21
-7.694619646022701
 31
0.0
  0
SOLID
  5
31C
330
313
100
AcDbEntity
  8
치수문자_일반주서
 62
     0
100
AcDbTrace
 10
101.6682876544519
 20
-7.144286312689368
 30
0.0
 11
101.6682876544519
 21
-8.244952979356034
 31
0.0
 12
98.3662876544519
 22
-7.694619646022701
 32
0.0
 13
98.3662876544519
 23
-7.694619646022701
 33
0.0
  0
SOLID
  5
31D
330
313
100
AcDbEntity
  8
치수문자_일반주서
 62
     0
100
AcDbTrace
 10
87.1267876544519
 20
-8.244952979356034
 30
0.0
 11
87.1267876544519
 21
-7.144286312689368
 31
0.0
 12
90.4287876544519
 22
-7.694619646022701
 32
0.0
 13
90.4287876544519
 23
-7.694619646022701
 33
0.0
  0
MTEXT
  5
31E
330
313
100
AcDbEntity
  8
치수문자_일반주서
 62
     0
100
AcDbMText
 10
72.2310376544519
 20
-3.319619646022701
 30
0.0
 40
3.5
 41
0.0
 71
     2
 72
     1
  1
\A1;7.94 [0.31]
  7
SLDTEXTSTYLE0
 73
     1
 44
1.0
  0
POINT
  5
31F
330
313
100
AcDbEntity
  8
Defpoints
 62
     0
100
AcDbPoint
 10
98.3662876544519
 20
-23.62827893224656
 30
0.0
  0
POINT
  5
320
330
313
100
AcDbEntity
  8
Defpoints
 62
     0
100
AcDbPoint
 10
90.4287876544519
 20
-23.8801728074683
 30
0.0
  0
POINT
  5
321
330
313
100
AcDbEntity
  8
Defpoints
 62
     0
100
AcDbPoint
 10
90.4287876544519
 20
-7.694619646022701
 30
0.0
  0
ENDBLK
  5
315
330
313
100
AcDbEntity
  8
0
100
AcDbBlockEnd
  0
BLOCK
  5
323
330
322
100
AcDbEntity
  8
0
100
AcDbBlockBegin
  2
*D19
 70
     1
 10
0.0
 20
0.0
 30
0.0
  3
*D19
  1
*D20
  0
LINE
  5
325
330
322
100
AcDbEntity
  8
치수문자_일반주서
 62
     0
370
    -2
100
AcDbLine
 10
47.56628765445191
 20
-23.59722676871788
 30
0.0
 11
47.56628765445191
 21
10.77027323128215
 31
0.0
  0
LINE
  5
326
330
322
100
AcDbEntity
  8
치수문자_일반주서
 62
     0
370
    -2
100
AcDbLine
 10
98.3662876544519
 20
-23.56577893224656
 30
0.0
 11
98.3662876544519
 21
10.77027323128215
 31
0.0
  0
LINE
  5
327
330
322
100
AcDbEntity
  8
치수문자_일반주서
 62
     0
370
    -2
100
AcDbLine
 10
50.8682876544519
 20
10.77027323128215
 30
0.0
 11
95.0642876544519
 21
10.77027323128215
 31
0.0
  0
SOLID
  5
328
330
322
100
AcDbEntity
  8
치수문자_일반주서
 62
     0
100
AcDbTrace
 10
50.8682876544519
 20
11.32060656461548
 30
0.0
 11
50.8682876544519
 21
10.21993989794881
 31
0.0
 12
47.56628765445191
 22
10.77027323128215
 32
0.0
 13
47.56628765445191
 23
10.77027323128215
 33
0.0
  0
SOLID
  5
329
330
322
100
AcDbEntity
  8
치수문자_일반주서
 62
     0
100
AcDbTrace
 10
95.0642876544519
 20
10.21993989794881
 30
0.0
 11
95.0642876544519
 21
11.32060656461548
 31
0.0
 12
98.3662876544519
 22
10.77027323128215
 32
0.0
 13
98.3662876544519
 23
10.77027323128215
 33
0.0
  0
MTEXT
  5
32A
330
322
100
AcDbEntity
  8
치수문자_일반주서
 62
     0
100
AcDbMText
 10
72.9662876544519
 20
15.14527323128215
 30
0.0
 40
3.5
 41
0.0
 71
     2
 72
     1
  1
\A1;50.8 [2.00]
  7
SLDTEXTSTYLE0
 73
     1
 44
1.0
  0
POINT
  5
32B
330
322
100
AcDbEntity
  8
Defpoints
 62
     0
100
AcDbPoint
 10
47.56628765445191
 20
-23.65972676871788
 30
0.0
  0
POINT
  5
32C
330
322
100
AcDbEntity
  8
Defpoints
 62
     0
100
AcDbPoint
 10
98.3662876544519
 20
-23.62827893224656
 30
0.0
  0
POINT
  5
32D
330
322
100
AcDbEntity
  8
Defpoints
 62
     0
100
AcDbPoint
 10
98.3662876544519
 20
10.77027323128215
 30
0.0
  0
ENDBLK
  5
324
330
322
100
AcDbEntity
  8
0
100
AcDbBlockEnd
  0
ENDSEC
  0
SECTION
  2
ENTITIES
  0
LINE
  5
96
330
1F
100
AcDbEntity
  8
외형선
  6
Continuous
370
    15
100
AcDbLine
 10
14.98134233574611
 20
2.38125
 30
0.0
 11
-14.98134233574609
 21
2.381249999999998
 31
0.0
  0
LINE
  5
97
330
1F
100
AcDbEntity
  8
외형선
  6
Continuous
370
    15
100
AcDbLine
 10
-14.98134233574608
 20
-2.38125
 30
0.0
 11
14.98134233574611
 21
-2.381249999999998
 31
0.0
  0
LINE
  5
98
330
1F
100
AcDbEntity
  8
외형선
  6
Continuous
370
    15
100
AcDbLine
 10
14.98134233574611
 20
-2.38125
 30
0.0
 11
16.46250000000001
 21
-1.984374999999999
 31
0.0
  0
LINE
  5
99
330
1F
100
AcDbEntity
  8
외형선
  6
Continuous
370
    15
100
AcDbLine
 10
16.46250000000001
 20
1.984375000000001
 30
0.0
 11
14.98134233574611
 21
2.381250000000001
 31
0.0
  0
LINE
  5
9C
330
1F
100
AcDbEntity
  8
외형선
  6
Continuous
370
    15
100
AcDbLine
 10
16.57261755520062
 20
1.984375000000001
 30
0.0
 11
16.46250000000001
 21
1.984375000000001
 31
0.0
  0
LINE
  5
9D
330
1F
100
AcDbEntity
  8
외형선
  6
Continuous
370
    15
100
AcDbLine
 10
16.46250000000001
 20
-1.984374999999999
 30
0.0
 11
16.57261755520062
 21
-1.984374999999999
 31
0.0
  0
LINE
  5
9E
330
1F
100
AcDbEntity
  8
외형선
  6
Continuous
370
    15
100
AcDbLine
 10
16.70265968178159
 20
-1.642395948874777
 30
0.0
 11
17.46250000000001
 21
-1.583635143339342
 31
0.0
  0
LINE
  5
9F
330
1F
100
AcDbEntity
  8
0
  6
Continuous
 62
     1
370
    15
100
AcDbLine
 10
20.25806204719436
 20
0.5085025466739055
 30
0.0
 11
19.70933445620789
 21
0.7838171860630254
 31
0.0
  0
SPLINE
  5
A0
330
1F
100
AcDbEntity
  8
0
  6
Continuous
 62
     1
370
    15
100
AcDbSpline
210
0.0
220
0.0
230
1.0
 70
     8
 71
     3
 72
    17
 73
    13
 74
     0
 42
0.000000001
 43
0.00000001
 40
0.0
 40
0.0
 40
0.0
 40
0.0
 40
0.1481418474816802
 40
0.2553669373004129
 40
0.3504884223113983
 40
0.4685247262237707
 40
0.5912191583491452
 40
0.7077217997793436
 40
0.7913352138542558
 40
0.8691159118359549
 40
0.943281568929291
 40
0.9999999999999999
 40
0.9999999999999999
 40
0.9999999999999999
 40
0.9999999999999999
 10
19.60352576057651
 20
1.57686145863983
 30
0.0
 10
19.52305139544311
 20
1.572844709442958
 30
0.0
 10
19.38432967362948
 20
1.565920636618524
 30
0.0
 10
19.19098270076186
 20
1.55904130367313
 30
0.0
 10
19.0127405593254
 20
1.554163151562165
 30
0.0
 10
18.82857671414118
 20
1.550802942295312
 30
0.0
 10
18.63012674986635
 20
1.549430806815382
 30
0.0
 10
18.44944271769115
 20
1.549604090706796
 30
0.0
 10
18.29435644977941
 20
1.551383671968812
 30
0.0
 10
18.17176353565011
 20
1.554260001095443
 30
0.0
 10
18.06187358699224
 20
1.557044037811179
 30
0.0
 10
17.98988797346917
 20
1.559435279218701
 30
0.0
 10
17.95869311154239
 20
1.560471520238129
 30
0.0
  0
SPLINE
  5
A1
330
1F
100
AcDbEntity
  8
0
  6
Continuous
 62
     1
370
    15
100
AcDbSpline
210
0.0
220
0.0
230
1.0
 70
     8
 71
     3
 72
    25
 73
    21
 74
     0
 42
0.000000001
 43
0.00000001
 40
0.0
 40
0.0
 40
0.0
 40
0.0
 40
0.0756437981284875
 40
0.1288985265215986
 40
0.1639730809571009
 40
0.20541169197932
 40
0.257562792319915
 40
0.307924286944304
 40
0.3719098173698422
 40
0.4255660457679722
 40
0.4790508906751419
 40
0.5520278536195624
 40
0.6363091879073594
 40
0.7105596616318964
 40
0.740165641326455
 40
0.7675829148401346
 40
0.7954775468785502
 40
0.8418736077684251
 40
0.9102434210447404
 40
1.0
 40
1.0
 40
1.0
 40
1.0
 10
24.6619268909972
 20
1.357218694867813
 30
0.0
 10
24.57480639702521
 20
1.350176869134781
 30
0.0
 10
24.42635135403875
 20
1.338177458958842
 30
0.0
 10
24.23777321220434
 20
1.326732489325651
 30
0.0
 10
24.08654576079142
 20
1.319189698799689
 30
0.0
 10
23.93724131207837
 20
1.313242666206695
 30
0.0
 10
23.77078563377648
 20
1.308594011195554
 30
0.0
 10
23.57842248670368
 20
1.305730693126115
 30
0.0
 10
23.38431806176016
 20
1.305667433394061
 30
0.0
 10
23.18677411339536
 20
1.308632526762003
 30
0.0
 10
22.97859487523443
 20
1.314631147048792
 30
0.0
 10
22.7351882334269
 20
1.325503218357001
 30
0.0
 10
22.4652688458421
 20
1.342821213291576
 30
0.0
 10
22.2470595192406
 20
1.361222310002381
 30
0.0
 10
22.09795338302965
 20
1.375787139065681
 30
0.0
 10
22.0010705578535
 20
1.385826754112312
 30
0.0
 10
21.88480901755392
 20
1.398569017402669
 30
0.0
 10
21.72002871151637
 20
1.418027542885055
 30
0.0
 10
21.48326842664554
 20
1.448688025384606
 30
0.0
 10
21.2996392431739
 20
1.47664720577561
 30
0.0
 10
21.19540662854101
 20
1.492517550674229
 30
0.0
  0
SPLINE
  5
A2
330
1F
100
AcDbEntity
  8
0
  6
Continuous
 62
     1
370
    15
100
AcDbSpline
210
0.0
220
0.0
230
1.0
 70
     8
 71
     3
 72
    14
 73
    10
 74
     0
 42
0.000000001
 43
0.00000001
 40
0.0
 40
0.0
 40
0.0
 40
0.0
 40
0.2160006876398907
 40
0.3531685127485772
 40
0.4819833389745078
 40
0.6453609473219524
 40
0.7852291243976854
 40
0.8966052504575374
 40
1.0
 40
1.0
 40
1.0
 40
1.0
 10
21.19540662854101
 20
-1.492517550674228
 30
0.0
 10
21.30128818674173
 20
-1.476389984185011
 30
0.0
 10
21.47440815615399
 20
-1.450020861320244
 30
0.0
 10
21.71343401791297
 20
-1.418871330693719
 30
0.0
 10
21.927311589625
 20
-1.393463951254359
 30
0.0
 10
22.14042366551539
 20
-1.371088736211048
 30
0.0
 10
22.34497131790395
 20
-1.352802252250001
 30
0.0
 10
22.52010864700093
 20
-1.339434248781934
 30
0.0
 10
22.62571497740281
 20
-1.332877807403045
 30
0.0
 10
22.67655585632262
 20
-1.329721412885591
 30
0.0
  0
SPLINE
  5
A3
330
1F
100
AcDbEntity
  8
0
  6
Continuous
 62
     1
370
    15
100
AcDbSpline
210
0.0
220
0.0
230
1.0
 70
     8
 71
     3
 72
    19
 73
    15
 74
     0
 42
0.000000001
 43
0.00000001
 40
0.0
 40
0.0
 40
0.0
 40
0.0
 40
0.125883979836829
 40
0.2120170214532305
 40
0.2672736683100226
 40
0.3213439411306415
 40
0.377800726814435
 40
0.4379095894858039
 40
0.5032164041668977
 40
0.5720362371134903
 40
0.6840974569352642
 40
0.7796123050883549
 40
0.8690920909447355
 40
1.0
 40
1.0
 40
1.0
 40
1.0
 10
17.46249999999999
 20
-1.583635143339343
 30
0.0
 10
17.55262918303798
 20
-1.578628439181389
 30
0.0
 10
17.70442706040487
 20
-1.570196019867645
 30
0.0
 10
17.89537284297203
 20
-1.562455386786594
 30
0.0
 10
18.03543880040962
 20
-1.557837810192203
 30
0.0
 10
18.15051086864258
 20
-1.554785271263505
 30
0.0
 10
18.26447492293963
 20
-1.552002563307453
 30
0.0
 10
18.39536118255072
 20
-1.55005894630755
 30
0.0
 10
18.53674111667019
 20
-1.549503836081879
 30
0.0
 10
18.7157834096788
 20
-1.549760829803774
 30
0.0
 10
18.91373188123415
 20
-1.551993964123934
 30
0.0
 10
19.12730098990486
 20
-1.557048546157393
 30
0.0
 10
19.35543725984063
 20
-1.564586420269664
 30
0.0
 10
19.51107727410172
 20
-1.572287249374281
 30
0.0
 10
19.60352576057651
 20
-1.576861458639829
 30
0.0
  0
LINE
  5
A4
330
1F
100
AcDbEntity
  8
외형선
  6
Continuous
370
    15
100
AcDbLine
 10
14.98134233574611
 20
2.381250000000001
 30
0.0
 11
14.98134233574611
 21
-2.381249999999998
 31
0.0
  0
LINE
  5
A6
330
1F
100
AcDbEntity
  8
외형선
  6
Continuous
370
    15
100
AcDbLine
 10
16.46250000000001
 20
1.984375000000001
 30
0.0
 11
16.46250000000001
 21
-1.984374999999999
 31
0.0
  0
SPLINE
  5
A8
330
1F
100
AcDbEntity
  8
외형선
  6
Continuous
370
    15
100
AcDbSpline
210
0.0
220
0.0
230
1.0
 70
     8
 71
     3
 72
    10
 73
     6
 74
     0
 42
0.000000001
 43
0.00000001
 40
0.0
 40
0.0
 40
0.0
 40
0.0
 40
0.5
 40
0.5
 40
1.0
 40
1.0
 40
1.0
 40
1.0
 10
17.46249999999652
 20
1.730803961250559
 30
0.0
 10
17.31347254427084
 20
1.772761137966199
 30
0.0
 10
17.16376953092345
 20
1.809909245649793
 30
0.0
 10
16.8667710990722
 20
1.873689723186005
 30
0.0
 10
16.72085319620113
 20
1.900274463541906
 30
0.0
 10
16.5727405687819
 20
1.92163090854268
 30
0.0
  0
LINE
  5
A9
330
1F
100
AcDbEntity
  8
외형선
  6
Continuous
370
    15
100
AcDbLine
 10
17.46250000000001
 20
1.730803961249579
 30
0.0
 11
17.46250000000001
 21
1.395424869965086
 31
0.0
  0
SPLINE
  5
AA
330
1F
100
AcDbEntity
  8
외형선
  6
Continuous
370
    15
100
AcDbSpline
210
0.0
220
0.0
230
1.0
 70
     8
 71
     3
 72
    10
 73
     6
 74
     0
 42
0.000000001
 43
0.00000001
 40
0.0
 40
0.0
 40
0.0
 40
0.0
 40
0.5
 40
0.5
 40
1.0
 40
1.0
 40
1.0
 40
1.0
 10
17.46249999999652
 20
1.395424869966509
 30
0.0
 10
17.31345191543018
 20
1.456422284677929
 30
0.0
 10
17.1637280870807
 20
1.513582037690168
 30
0.0
 10
16.86668920873253
 20
1.618819581065117
 30
0.0
 10
16.7207514975303
 20
1.666777817264872
 30
0.0
 10
16.57261755520062
 20
1.710202004736456
 30
0.0
  0
SPLINE
  5
AB
330
1F
100
AcDbEntity
  8
외형선
  6
Continuous
370
    15
100
AcDbSpline
210
0.0
220
0.0
230
1.0
 70
     8
 71
     3
 72
    10
 73
     6
 74
     0
 42
0.000000001
 43
0.00000001
 40
0.0
 40
0.0
 40
0.0
 40
0.0
 40
0.5
 40
0.5
 40
1.0
 40
1.0
 40
1.0
 40
1.0
 10
17.46249999999652
 20
-1.730803961250558
 30
0.0
 10
17.31347254427084
 20
-1.772761137966198
 30
0.0
 10
17.16376953092345
 20
-1.809909245649792
 30
0.0
 10
16.8667710990722
 20
-1.873689723186003
 30
0.0
 10
16.72085319620113
 20
-1.900274463541904
 30
0.0
 10
16.5727405687819
 20
-1.921630908542679
 30
0.0
  0
LINE
  5
AC
330
1F
100
AcDbEntity
  8
외형선
  6
Continuous
370
    15
100
AcDbLine
 10
16.57261755520062
 20
1.921652123413923
 30
0.0
 11
16.57261755520062
 21
1.984375000000001
 31
0.0
  0
LINE
  5
AD
330
1F
100
AcDbEntity
  8
외형선
  6
Continuous
370
    15
100
AcDbLine
 10
16.57261755520062
 20
-1.984374999999999
 30
0.0
 11
16.57261755520062
 21
1.710545750159087
 31
0.0
  0
SPLINE
  5
AE
330
1F
100
AcDbEntity
  8
외형선
  6
Continuous
370
    15
100
AcDbSpline
210
0.0
220
0.0
230
1.0
 70
    24
 71
     3
 72
    14
 73
    10
 74
     0
 42
0.000000001
 43
0.00000001
 40
0.0
 40
0.0
 40
0.0
 40
0.0
 40
0.25
 40
0.25
 40
0.5
 40
0.5
 40
0.75
 40
0.75
 40
1.0
 40
1.0
 40
1.0
 40
1.0
 10
17.46249999999986
 20
0.9353759660443435
 30
0.0
 10
17.46249999999986
 20
0.7831983689630794
 30
0.0
 10
17.46249999999986
 20
0.6153485484900769
 30
0.0
 10
17.46249999999986
 20
0.2605375327508981
 30
0.0
 10
17.46249999999986
 20
0.0737116617387263
 30
0.0
 10
17.46249999999986
 20
-0.3011184064597862
 30
0.0
 10
17.46249999999986
 20
-0.4889228785148124
 30
0.0
 10
17.46249999999986
 20
-0.8474626804195887
 30
0.0
 10
17.46249999999986
 20
-1.018057448733968
 30
0.0
 10
17.46249999999986
 20
-1.173623827952734
 30
0.0
  0
SPLINE
  5
AF
330
1F
100
AcDbEntity
  8
외형선
  6
Continuous
370
    15
100
AcDbSpline
210
0.0
220
0.0
230
1.0
 70
     8
 71
     3
 72
    10
 73
     6
 74
     0
 42
0.000000001
 43
0.00000001
 40
0.0
 40
0.0
 40
0.0
 40
0.0
 40
0.5
 40
0.5
 40
1.0
 40
1.0
 40
1.0
 40
1.0
 10
17.4624999999935
 20
-1.173623827950762
 30
0.0
 10
17.31345945072677
 20
-1.127408837044688
 30
0.0
 10
17.16374322568081
 20
-1.077820668264581
 30
0.0
 10
16.86671912158481
 20
-0.9731654661533798
 30
0.0
 10
16.72078864608633
 20
-0.9182893417145738
 30
0.0
 10
16.57266248965714
 20
-0.8607404229177201
 30
0.0
  0
SPLINE
  5
B0
330
1F
100
AcDbEntity
  8
외형선
  6
Continuous
370
    15
100
AcDbSpline
210
0.0
220
0.0
230
1.0
 70
     8
 71
     3
 72
    10
 73
     6
 74
     0
 42
0.000000001
 43
0.00000001
 40
0.0
 40
0.0
 40
0.0
 40
0.0
 40
0.5
 40
0.5
 40
1.0
 40
1.0
 40
1.0
 40
1.0
 10
17.46249999999144
 20
0.9353759660468524
 30
0.0
 10
17.31345688726806
 20
0.9797725095332195
 30
0.0
 10
17.1637380756314
 20
1.021602028377462
 30
0.0
 10
16.86670894543249
 20
1.099096000689075
 30
0.0
 10
16.72077600841328
 20
1.134669814824166
 30
0.0
 10
16.57264720327391
 20
1.167163545661167
 30
0.0
  0
SPLINE
  5
B1
330
1F
100
AcDbEntity
  8
외형선
  6
Continuous
370
    15
100
AcDbSpline
210
0.0
220
0.0
230
1.0
 70
    24
 71
     3
 72
    10
 73
     6
 74
     0
 42
0.000000001
 43
0.00000001
 40
0.0
 40
0.0
 40
0.0
 40
0.0
 40
0.5
 40
0.5
 40
1.0
 40
1.0
 40
1.0
 40
1.0
 10
17.46250000000001
 20
1.395424869965086
 30
0.0
 10
17.46250000000001
 20
1.347302778812061
 30
0.0
 10
17.46250000000001
 20
1.27976700753637
 30
0.0
 10
17.46250000000001
 20
1.119861646271867
 30
0.0
 10
17.46250000000001
 20
1.028015826705614
 30
0.0
 10
17.46250000000001
 20
0.9353759660443012
 30
0.0
  0
LINE
  5
B2
330
1F
100
AcDbEntity
  8
외형선
  6
Continuous
370
    15
100
AcDbLine
 10
16.70450050358264
 20
-1.635410581967208
 30
0.0
 11
16.5727405687819
 21
-1.655778969003488
 31
0.0
  0
SPLINE
  5
B3
330
1F
100
AcDbEntity
  8
외형선
  6
Continuous
370
    15
100
AcDbSpline
210
0.0
220
0.0
230
1.0
 70
    24
 71
     3
 72
    11
 73
     7
 74
     0
 42
0.000000001
 43
0.00000001
 40
0.0
 40
0.0
 40
0.0
 40
0.0
 40
0.3662738626813687
 40
0.632496536083778
 40
0.9064396850500622
 40
1.0
 40
1.0
 40
1.0
 40
1.0
 10
17.46250000000001
 20
-1.173623827952778
 30
0.0
 10
17.46250000000001
 20
-1.262345661771481
 30
0.0
 10
17.46250000000001
 20
-1.415554116654179
 30
0.0
 10
17.46250000000001
 20
-1.535285838916732
 30
0.0
 10
17.46250000000001
 20
-1.585346711782033
 30
0.0
 10
17.46250000000001
 20
-1.579365142214558
 30
0.0
 10
17.46250000000001
 20
-1.577842333349945
 30
0.0
  0
SPLINE
  5
B4
330
1F
100
AcDbEntity
  8
외형선
  6
Continuous
370
    15
100
AcDbSpline
210
0.0
220
0.0
230
1.0
 70
    24
 71
     3
 72
    10
 73
     6
 74
     0
 42
0.000000001
 43
0.00000001
 40
0.0
 40
0.0
 40
0.0
 40
0.0
 40
0.1930989994318934
 40
0.8003557422223421
 40
1.0
 40
1.0
 40
1.0
 40
1.0
 10
17.46250000000001
 20
-1.583635143339342
 30
0.0
 10
17.46250000000001
 20
-1.593875342533636
 30
0.0
 10
17.46250000000001
 20
-1.636318867620594
 30
0.0
 10
17.46250000000001
 20
-1.684467201697
 30
0.0
 10
17.46250000000001
 20
-1.721613248868029
 30
0.0
 10
17.46250000000001
 20
-1.730803961249861
 30
0.0
  0
SPLINE
  5
B5
330
1F
100
AcDbEntity
  8
0
  6
Continuous
 62
     1
370
    15
100
AcDbSpline
210
0.0
220
0.0
230
1.0
 70
     8
 71
     3
 72
    34
 73
    30
 74
     0
 42
0.000000001
 43
0.00000001
 40
0.0
 40
0.0
 40
0.0
 40
0.0
 40
0.125
 40
0.125
 40
0.1875
 40
0.1875
 40
0.25
 40
0.25
 40
0.3125
 40
0.3125
 40
0.375
 40
0.375
 40
0.4375
 40
0.4375
 40
0.5
 40
0.5
 40
0.5625
 40
0.5625
 40
0.625
 40
0.625
 40
0.6875
 40
0.6875
 40
0.75
 40
0.75
 40
0.875
 40
0.875
 40
0.9375
 40
0.9375
 40
1.0
 40
1.0
 40
1.0
 40
1.0
 10
25.40000000000001
 20
-1.982697836471323
 30
0.0
 10
25.07330548933972
 20
-1.97488024642771
 30
0.0
 10
24.73537292780006
 20
-1.939087431326621
 30
0.0
 10
24.2426165992159
 20
-1.846501514513194
 30
0.0
 10
24.07853909736303
 20
-1.809168260048665
 30
0.0
 10
23.74608862476356
 20
-1.721835395472809
 30
0.0
 10
23.57917665609028
 20
-1.671925622449911
 30
0.0
 10
23.24917345348128
 20
-1.561260898220078
 30
0.0
 10
23.08628143950635
 20
-1.500585926499059
 30
0.0
 10
22.75447890384774
 20
-1.36850209339555
 30
0.0
 10
22.58742953051084
 20
-1.297290625910555
 30
0.0
 10
22.25624287773005
 20
-1.146766105830371
 30
0.0
 10
22.09364920321635
 20
-1.06773596225293
 30
0.0
 10
21.76281594529909
 20
-0.901934610352849
 30
0.0
 10
21.59579355888594
 20
-0.8153284837371108
 30
0.0
 10
21.26374280459994
 20
-0.6373835396956182
 30
0.0
 10
21.10055936267906
 20
-0.546401798822339
 30
0.0
 10
20.77101359012218
 20
-0.3607169217463646
 30
0.0
 10
20.60418249329216
 20
-0.2659098812907509
 30
0.0
 10
20.27158978246829
 20
-0.0752990439400111
 30
0.0
 10
20.1069303606079
 20
0.0202853307401184
 30
0.0
 10
19.77898613657619
 20
0.2103886483843582
 30
0.0
 10
19.61251000215601
 20
0.3055220822531552
 30
0.0
 10
19.11329385610281
 20
0.586693963140635
 30
0.0
 10
18.78704205520829
 20
0.767343058572689
 30
0.0
 10
18.28798574700856
 20
1.020415336656866
 30
0.0
 10
18.12125819016496
 20
1.101553085393891
 30
0.0
 10
17.79222745840093
 20
1.25494532869862
 30
0.0
 10
17.62863669069466
 20
1.327434002114826
 30
0.0
 10
17.46249999999652
 20
1.39542486996651
 30
0.0
  0
SPLINE
  5
B6
330
1F
100
AcDbEntity
  8
0
  6
Continuous
 62
     1
370
    15
100
AcDbSpline
210
0.0
220
0.0
230
1.0
 70
     8
 71
     3
 72
    12
 73
     8
 74
     0
 42
0.000000001
 43
0.00000001
 40
0.0
 40
0.0
 40
0.0
 40
0.0
 40
0.0749634355579704
 40
0.3187200646570896
 40
0.5627179801119299
 40
0.7820366745136809
 40
0.9999999999999999
 40
0.9999999999999999
 40
0.9999999999999999
 40
0.9999999999999999
 10
20.47457588873005
 20
-0.1897925907641595
 30
0.0
 10
20.39928023265642
 20
-0.1600597980622751
 30
0.0
 10
20.07914767478253
 20
-0.0336456664013513
 30
0.0
 10
19.51437430632121
 20
0.1983317219083765
 30
0.0
 10
18.80454870182444
 20
0.4771976789618907
 30
0.0
 10
18.12006784244254
 20
0.728227202931678
 30
0.0
 10
17.68123588982116
 20
0.8664692067713958
 30
0.0
 10
17.4625
 20
0.9353759660443022
 30
0.0
  0
SPLINE
  5
B7
330
1F
100
AcDbEntity
  8
외형선
  6
Continuous
370
    15
100
AcDbSpline
210
0.0
220
0.0
230
1.0
 70
    24
 71
     3
 72
    10
 73
     6
 74
     0
 42
0.000000001
 43
0.00000001
 40
0.0
 40
0.0
 40
0.0
 40
0.0
 40
0.5
 40
0.5
 40
1.0
 40
1.0
 40
1.0
 40
1.0
 10
17.46250000000001
 20
1.395424869965085
 30
0.0
 10
17.46250000000001
 20
1.34730277881206
 30
0.0
 10
17.46250000000001
 20
1.279767007536369
 30
0.0
 10
17.46250000000001
 20
1.119861646271866
 30
0.0
 10
17.46250000000001
 20
1.028015826705613
 30
0.0
 10
17.46250000000001
 20
0.9353759660443012
 30
0.0
  0
SPLINE
  5
B8
330
1F
100
AcDbEntity
  8
0
  6
Continuous
 62
     1
370
    15
100
AcDbSpline
210
0.0
220
0.0
230
1.0
 70
     8
 71
     3
 72
    34
 73
    30
 74
     0
 42
0.000000001
 43
0.00000001
 40
0.0
 40
0.0
 40
0.0
 40
0.0
 40
0.1250000000000004
 40
0.1250000000000004
 40
0.1875000000000004
 40
0.1875000000000004
 40
0.2500000000000003
 40
0.2500000000000003
 40
0.3125000000000003
 40
0.3125000000000003
 40
0.3750000000000003
 40
0.3750000000000003
 40
0.4375000000000003
 40
0.4375000000000003
 40
0.5000000000000002
 40
0.5000000000000002
 40
0.5625000000000002
 40
0.5625000000000002
 40
0.6250000000000002
 40
0.6250000000000002
 40
0.6875000000000002
 40
0.6875000000000002
 40
0.7500000000000002
 40
0.7500000000000002
 40
0.8750000000000001
 40
0.8750000000000001
 40
0.9375
 40
0.9375
 40
1.0
 40
1.0
 40
1.0
 40
1.0
 10
25.40000000000001
 20
-1.883054537382051
 30
0.0
 10
25.07330548933972
 20
-1.823060251658713
 30
0.0
 10
24.73537292780006
 20
-1.735910283883908
 30
0.0
 10
24.24261659921591
 20
-1.572249600665587
 30
0.0
 10
24.07853909736305
 20
-1.512097641606441
 30
0.0
 10
23.74608862476358
 20
-1.381157555654424
 30
0.0
 10
23.5791766560903
 20
-1.310531721633595
 30
0.0
 10
23.2491734534813
 20
-1.16123748720035
 30
0.0
 10
23.08628143950638
 20
-1.082642995032197
 30
0.0
 10
22.75447890384777
 20
-0.9175285952090151
 30
0.0
 10
22.58742953051087
 20
-0.8312840303073649
 30
0.0
 10
22.25624287773009
 20
-0.654120542536325
 30
0.0
 10
22.09364920321638
 20
-0.5635072598212952
 30
0.0
 10
21.76281594529913
 20
-0.3779773489897493
 30
0.0
 10
21.59579355888598
 20
-0.2832702451677692
 30
0.0
 10
21.26374280459999
 20
-0.0929159002990641
 30
0.0
 10
21.10055936267911
 20
0.0023687010357564
 30
0.0
 10
20.77101359012223
 20
0.1928716395471147
 30
0.0
 10
20.60418249329221
 20
0.2881781451843252
 30
0.0
 10
20.27158978246834
 20
0.4759180570928254
 30
0.0
 10
20.10693036060795
 20
0.5681444605216633
 30
0.0
 10
19.77898613657625
 20
0.747797073563533
 30
0.0
 10
19.61251000215607
 20
0.8357949736257974
 30
0.0
 10
19.11329385610287
 20
1.090081080142387
 30
0.0
 10
18.78704205520835
 20
1.245665915240225
 30
0.0
 10
18.28798574700864
 20
1.451503806810693
 30
0.0
 10
18.12125819016503
 20
1.515319421118563
 30
0.0
 10
17.792227458401
 20
1.631484154765426
 30
0.0
 10
17.62863669069473
 20
1.684029852032673
 30
0.0
 10
17.4624999999966
 20
1.730803961250537
 30
0.0
  0
SPLINE
  5
B9
330
1F
100
AcDbEntity
  8
0
  6
Continuous
 62
     1
370
    15
100
AcDbSpline
210
0.0
220
0.0
230
1.0
 70
     8
 71
     3
 72
    14
 73
    10
 74
     0
 42
0.000000001
 43
0.00000001
 40
0.0
 40
0.0
 40
0.0
 40
0.0
 40
0.1431333759844981
 40
0.2857670907489614
 40
0.4287794859185463
 40
0.5720242592431893
 40
0.7146748307010135
 40
0.8575827626368403
 40
1.0
 40
1.0
 40
1.0
 40
1.0
 10
25.40000000000001
 20
-1.565616837105678
 30
0.0
 10
25.1543734400286
 20
-1.513937493101696
 30
0.0
 10
24.66397777255474
 20
-1.410759211402869
 30
0.0
 10
23.92886727427348
 20
-1.171600961953992
 30
0.0
 10
23.19304295935656
 20
-0.8846375025310504
 30
0.0
 10
22.45683587370882
 20
-0.5565583274615757
 30
0.0
 10
21.72168350141437
 20
-0.2023080528677079
 30
0.0
 10
20.98752761262608
 20
0.161454289574526
 30
0.0
 10
20.49783349967639
 20
0.3943680299838365
 30
0.0
 10
20.25340752460155
 20
0.5106246207869246
 30
0.0
  0
LINE
  5
BA
330
1F
100
AcDbEntity
  8
0
  6
Continuous
 62
     1
370
    15
100
AcDbLine
 10
25.40000000000001
 20
-1.883054537382051
 30
0.0
 11
25.40000000000001
 21
-1.565616837105678
 31
0.0
  0
LINE
  5
BB
330
1F
100
AcDbEntity
  8
0
  6
Continuous
 62
     1
370
    15
100
AcDbLine
 10
25.40000000000001
 20
-1.982697836471323
 30
0.0
 11
25.40000000000001
 21
-1.883054537382051
 31
0.0
  0
SPLINE
  5
BC
330
1F
100
AcDbEntity
  8
0
  6
Continuous
 62
     1
370
    15
100
AcDbSpline
210
0.0
220
0.0
230
1.0
 70
     8
 71
     3
 72
     8
 73
     4
 74
     0
 42
0.000000001
 43
0.00000001
 40
0.0
 40
0.0
 40
0.0
 40
0.0
 40
1.0
 40
1.0
 40
1.0
 40
1.0
 10
24.17150677959565
 20
0.5557441175765013
 30
0.0
 10
24.10123544869918
 20
0.6389927033795282
 30
0.0
 10
24.03850664401418
 20
0.7191404837657345
 30
0.0
 10
23.98510005238469
 20
0.7954558122745643
 30
0.0
  0
LINE
  5
BD
330
1F
100
AcDbEntity
  8
0
  6
Continuous
 62
     1
370
    15
100
AcDbLine
 10
24.01023597617293
 20
0.816547356654564
 30
0.0
 11
25.40000000000001
 21
0.000000000000002
 31
0.0
  0
LINE
  5
BE
330
1F
100
AcDbEntity
  8
0
  6
Continuous
 62
     1
370
    15
100
AcDbLine
 10
25.40000000000001
 20
0.000000000000002
 30
0.0
 11
25.40000000000001
 21
-0.5303102210275746
 31
0.0
  0
SPLINE
  5
BF
330
1F
100
AcDbEntity
  8
0
  6
Continuous
 62
     1
370
    15
100
AcDbSpline
210
0.0
220
0.0
230
1.0
 70
     8
 71
     3
 72
    10
 73
     6
 74
     0
 42
0.000000001
 43
0.00000001
 40
0.0
 40
0.0
 40
0.0
 40
0.0
 40
0.5
 40
0.5
 40
1.0
 40
1.0
 40
1.0
 40
1.0
 10
25.40000000000001
 20
-0.5303102210275745
 30
0.0
 10
25.18733365854358
 20
-0.3631162242341984
 30
0.0
 10
24.97822341339829
 20
-0.1890610906366634
 30
0.0
 10
24.56728519211057
 20
0.1730995957543219
 30
0.0
 10
24.36354542687046
 20
0.3631188210779366
 30
0.0
 10
24.17150677959565
 20
0.5557441175765029
 30
0.0
  0
SPLINE
  5
C0
330
1F
100
AcDbEntity
  8
0
  6
Continuous
 62
     1
370
    15
100
AcDbSpline
210
0.0
220
0.0
230
1.0
 70
     8
 71
     3
 72
    13
 73
     9
 74
     0
 42
0.000000001
 43
0.00000001
 40
0.0
 40
0.0
 40
0.0
 40
0.0
 40
0.2140364479730448
 40
0.3754093864909818
 40
0.5361035636801925
 40
0.6970916145789728
 40
0.8585510454697447
 40
1.0
 40
1.0
 40
1.0
 40
1.0
 10
24.17150677420213
 20
0.5557441199155159
 30
0.0
 10
23.84546842958016
 20
0.6925357832087551
 30
0.0
 10
23.27361323348533
 20
0.9324616223838808
 30
0.0
 10
22.45685028418545
 20
1.207524997349936
 30
0.0
 10
21.72162530978979
 20
1.403991483661128
 30
0.0
 10
20.98596207637421
 20
1.533383903968612
 30
0.0
 10
20.27906149575021
 20
1.597086127855263
 30
0.0
 10
19.81798209911575
 20
1.580679107544489
 30
0.0
 10
19.60267211844706
 20
1.573017530706034
 30
0.0
  0
SPLINE
  5
C1
330
1F
100
AcDbEntity
  8
0
  6
Continuous
 62
     1
370
    15
100
AcDbSpline
210
0.0
220
0.0
230
1.0
 70
    24
 71
     3
 72
    10
 73
     6
 74
     0
 42
0.000000001
 43
0.00000001
 40
0.0
 40
0.0
 40
0.0
 40
0.0
 40
0.5000000000000001
 40
0.5000000000000001
 40
1.0
 40
1.0
 40
1.0
 40
1.0
 10
25.40000000000001
 20
-1.565616837105677
 30
0.0
 10
25.40000000000001
 20
-1.445600100054424
 30
0.0
 10
25.40000000000001
 20
-1.293954350876897
 30
0.0
 10
25.40000000000001
 20
-0.9413925783146294
 30
0.0
 10
25.40000000000001
 20
-0.7407819573049415
 30
0.0
 10
25.40000000000001
 20
-0.5303102210276385
 30
0.0
  0
SPLINE
  5
C2
330
1F
100
AcDbEntity
  8
0
  6
Continuous
 62
     1
370
    15
100
AcDbSpline
210
0.0
220
0.0
230
1.0
 70
    24
 71
     3
 72
     8
 73
     4
 74
     0
 42
0.000000001
 43
0.00000001
 40
0.0
 40
0.0
 40
0.0
 40
0.0
 40
1.0
 40
1.0
 40
1.0
 40
1.0
 10
24.19237627747491
 20
0.9693812162995857
 30
0.0
 10
24.12691450026558
 20
0.9144522631870263
 30
0.0
 10
24.05741308150835
 20
0.8561336483415023
 30
0.0
 10
23.98510005238472
 20
0.7954558122745485
 30
0.0
  0
SPLINE
  5
C3
330
1F
100
AcDbEntity
  8
0
  6
Continuous
 62
     1
370
    15
100
AcDbSpline
210
0.0
220
0.0
230
1.0
 70
     8
 71
     3
 72
     9
 73
     5
 74
     0
 42
0.000000001
 43
0.00000001
 40
0.0
 40
0.0
 40
0.0
 40
0.0
 40
0.9982166367907005
 40
1.0
 40
1.0
 40
1.0
 40
1.0
 10
25.40000000000001
 20
1.389062500000001
 30
0.0
 10
25.1543639906465
 20
1.388831775900884
 30
0.0
 10
24.90828914045844
 20
1.388600639601795
 30
0.0
 10
24.66235303905905
 20
1.357218627600282
 30
0.0
 10
24.66191444566397
 20
1.357162662074645
 30
0.0
  0
SPLINE
  5
C4
330
1F
100
AcDbEntity
  8
0
  6
Continuous
 62
     1
370
    15
100
AcDbSpline
210
0.0
220
0.0
230
1.0
 70
     8
 71
     3
 72
    17
 73
    13
 74
     0
 42
0.000000001
 43
0.00000001
 40
0.0
 40
0.0
 40
0.0
 40
0.0
 40
0.0005163282802535
 40
0.0005163282802535
 40
0.0005163282802535
 40
0.0010326767457958
 40
0.0010326767457958
 40
0.0010326767457958
 40
0.0014638374883266
 40
0.0014638374883266
 40
0.0014638374883266
 40
0.0016321893726733
 40
0.0016321893726733
 40
0.0016321893726733
 40
0.0016321893726733
 10
25.40000000000001
 20
1.389062500000002
 30
0.0
 10
25.27092116811915
 20
1.35400178425776
 30
0.0
 10
25.1422519019767
 20
1.316249471550256
 30
0.0
 10
25.01412807327691
 20
1.275656025300192
 30
0.0
 10
24.88600136219784
 20
1.235061665826498
 30
0.0
 10
24.75838056367949
 20
1.191616621055186
 30
0.0
 10
24.63145173715161
 20
1.145048959270265
 30
0.0
 10
24.52546046846176
 20
1.106162870999216
 30
0.0
 10
24.41992126998228
 20
1.065092287991594
 30
0.0
 10
24.31499202923053
 20
1.0215739064111
 30
0.0
 10
24.27402026607596
 20
1.004581266321342
 30
0.0
 10
24.23314281676431
 20
0.9871951238825944
 30
0.0
 10
24.19237627749154
 20
0.969381216306855
 30
0.0
  0
SPLINE
  5
C5
330
1F
100
AcDbEntity
  8
0
  6
Continuous
 62
     1
370
    15
100
AcDbSpline
210
0.0
220
0.0
230
1.0
 70
     8
 71
     3
 72
    13
 73
     9
 74
     0
 42
0.000000001
 43
0.00000001
 40
0.0
 40
0.0
 40
0.0
 40
0.0
 40
0.0569797637199949
 40
0.2543570000685387
 40
0.4508458411052185
 40
0.6475241341721734
 40
0.8242940829443208
 40
1.0
 40
1.0
 40
1.0
 40
1.0
 10
21.19951659825148
 20
-1.485116432160279
 30
0.0
 10
21.12854456132549
 20
-1.498323943513859
 30
0.0
 10
20.81172621701018
 20
-1.557282120012734
 30
0.0
 10
20.2496573913495
 20
-1.592203220694948
 30
0.0
 10
19.51439243904838
 20
-1.5847016856599
 30
0.0
 10
18.80460601649061
 20
-1.501453932836323
 30
0.0
 10
18.12000598267403
 20
-1.36632249615586
 30
0.0
 10
17.6812271416758
 20
-1.237727319040993
 30
0.0
 10
17.46250000000001
 20
-1.173623827952779
 30
0.0
  0
SPLINE
  5
C6
330
1F
100
AcDbEntity
  8
외형선
  6
Continuous
370
    15
100
AcDbSpline
210
0.0
220
0.0
230
1.0
 70
    24
 71
     3
 72
    14
 73
    10
 74
     0
 42
0.000000001
 43
0.00000001
 40
0.0
 40
0.0
 40
0.0
 40
0.0
 40
0.25
 40
0.25
 40
0.5
 40
0.5
 40
0.75
 40
0.75
 40
1.0
 40
1.0
 40
1.0
 40
1.0
 10
17.46249999999986
 20
0.9353759660443435
 30
0.0
 10
17.46249999999986
 20
0.7831983689630794
 30
0.0
 10
17.46249999999986
 20
0.6153485484900769
 30
0.0
 10
17.46249999999986
 20
0.2605375327508981
 30
0.0
 10
17.46249999999986
 20
0.0737116617387263
 30
0.0
 10
17.46249999999986
 20
-0.3011184064597862
 30
0.0
 10
17.46249999999986
 20
-0.4889228785148124
 30
0.0
 10
17.46249999999986
 20
-0.8474626804195887
 30
0.0
 10
17.46249999999986
 20
-1.018057448733968
 30
0.0
 10
17.46249999999986
 20
-1.173623827952734
 30
0.0
  0
LINE
  5
C7
330
1F
100
AcDbEntity
  8
0
  6
Continuous
 62
     1
370
    15
100
AcDbLine
 10
25.40000000000001
 20
0.000000000000002
 30
0.0
 11
25.40000000000001
 21
1.389062500000001
 31
0.0
  0
SPLINE
  5
C8
330
1F
100
AcDbEntity
  8
외형선
  6
Continuous
370
    15
100
AcDbSpline
210
0.0
220
0.0
230
1.0
 70
    24
 71
     3
 72
    11
 73
     7
 74
     0
 42
0.000000001
 43
0.00000001
 40
0.0
 40
0.0
 40
0.0
 40
0.0
 40
0.3673639069384106
 40
0.6343788686414706
 40
0.9091372823227981
 40
1.0
 40
1.0
 40
1.0
 40
1.0
 10
17.46250000000001
 20
-1.173623827952778
 30
0.0
 10
17.46250000000001
 20
-1.262351566198813
 30
0.0
 10
17.46250000000001
 20
-1.415570217085691
 30
0.0
 10
17.46250000000001
 20
-1.535240853413699
 30
0.0
 10
17.4625
 20
-1.585238583090247
 30
0.0
 10
17.46250000000001
 20
-1.579372953502222
 30
0.0
 10
17.46250000000001
 20
-1.577915250433267
 30
0.0
  0
SPLINE
  5
C9
330
1F
100
AcDbEntity
  8
0
  6
Continuous
 62
     1
370
    15
100
AcDbSpline
210
0.0
220
0.0
230
1.0
 70
     8
 71
     3
 72
    11
 73
     7
 74
     0
 42
0.000000001
 43
0.00000001
 40
0.0
 40
0.0
 40
0.0
 40
0.0
 40
0.0379032431620224
 40
0.3582764781222624
 40
0.6788615323318427
 40
1.0
 40
1.0
 40
1.0
 40
1.0
 10
22.67763565484228
 20
1.330220212755154
 30
0.0
 10
22.712027366626
 20
1.346266669839795
 30
0.0
 10
23.03711145829049
 20
1.497944142557632
 30
0.0
 10
23.65297964390963
 20
1.704225942741856
 30
0.0
 10
24.52593366000239
 20
1.926139986959491
 30
0.0
 10
25.10847709421002
 20
1.963834384259028
 30
0.0
 10
25.40000000000001
 20
1.982697836471325
 30
0.0
  0
SPLINE
  5
CA
330
1F
100
AcDbEntity
  8
0
  6
Continuous
 62
     1
370
    15
100
AcDbSpline
210
0.0
220
0.0
230
1.0
 70
    24
 71
     3
 72
    10
 73
     6
 74
     0
 42
0.000000001
 43
0.00000001
 40
0.0
 40
0.0
 40
0.0
 40
0.0
 40
0.5
 40
0.5
 40
1.0
 40
1.0
 40
1.0
 40
1.0
 10
25.40000000000001
 20
1.389062500000001
 30
0.0
 10
25.40000000000001
 20
1.473264009602014
 30
0.0
 10
25.40000000000001
 20
1.571113961658187
 30
0.0
 10
25.40000000000001
 20
1.776402897531698
 30
0.0
 10
25.40000000000001
 20
1.883317599168547
 30
0.0
 10
25.40000000000001
 20
1.982697836471324
 30
0.0
  0
LINE
  5
CB
330
1F
100
AcDbEntity
  8
0
  6
Continuous
 62
     1
370
    15
100
AcDbLine
 10
17.95864161629835
 20
-1.560489197449706
 30
0.0
 11
17.4624999999966
 21
-1.730803961250536
 31
0.0
  0
SPLINE
  5
CC
330
1F
100
AcDbEntity
  8
외형선
  6
Continuous
370
    15
100
AcDbSpline
210
0.0
220
0.0
230
1.0
 70
    24
 71
     3
 72
    11
 73
     7
 74
     0
 42
0.000000001
 43
0.00000001
 40
0.0
 40
0.0
 40
0.0
 40
0.0
 40
0.1958530004568933
 40
0.4982772189295676
 40
0.8010592687691004
 40
1.0
 40
1.0
 40
1.0
 40
1.0
 10
17.46250000000001
 20
-1.583635143339342
 30
0.0
 10
17.46250000000001
 20
-1.593862670151352
 30
0.0
 10
17.46250000000001
 20
-1.619882918013407
 30
0.0
 10
17.46250000000001
 20
-1.659743196877746
 30
0.0
 10
17.46250000000001
 20
-1.698507553977248
 30
0.0
 10
17.46250000000001
 20
-1.7216339805585
 30
0.0
 10
17.46250000000001
 20
-1.730803961249861
 30
0.0
  0
LINE
  5
CD
330
1F
100
AcDbEntity
  8
중심선
 62
     1
100
AcDbLine
 10
-28.4
 20
-0.0000000000000035
 30
0.0
 11
28.4
 21
0.0000000000000035
 31
0.0
  0
LINE
  5
CE
330
1F
100
AcDbEntity
  8
참조1
100
AcDbLine
 10
-7.056711678730513
 20
0.0010749287238892
 30
0.0
 11
-7.056711678730506
 21
-39.99892507127611
 31
0.0
  0
LINE
  5
CF
330
1F
100
AcDbEntity
  8
참조1
100
AcDbLine
 10
-7.056711678730506
 20
-39.99892507127611
 30
0.0
 11
-29.45992727542973
 21
-39.9989250712761
 31
0.0
  0
CIRCLE
  5
D0
330
1F
100
AcDbEntity
  8
해칭선
100
AcDbCircle
 10
0.0
 20
0.0000000000000006
 30
0.0
 40
3.0
  0
INSERT
  5
D1
330
1F
100
AcDbEntity
  8
0
  6
Continuous
 62
     7
100
AcDbBlockReference
 66
     1
  2
블럭10
 10
-12.82907776529271
 20
-30.32294286876315
 30
0.0
  0
ATTRIB
  5
D2
330
D1
100
AcDbEntity
  8
FORMAT
 62
     2
100
AcDbText
 10
-22.01037305403399
 20
-28.24757595593096
 30
0.0
 40
4.233333333333333
  1
E5022010 [ 2 FLUTE ]
 41
0.75
  7
SLDTEXTSTYLE0
 11
-22.01037305403399
 21
-30.36424262259763
 31
0.0
100
AcDbAttribute
  2
AUTOATTR0
 70
     0
 74
     1
  0
SEQEND
  5
D3
330
D1
100
AcDbEntity
  8
0
  6
Continuous
 62
     7
  0
HATCH
  5
D4
330
1F
100
AcDbEntity
  8
중심선
100
AcDbHatch
 10
0.0
 20
0.0
 30
0.0
210
0.0
220
0.0
230
1.0
  2
SOLID
 70
     1
 71
     0
 91
        1
 92
        0
 93
        4
 72
     1
 10
-7.11416846091187
 20
-14.07576856711921
 11
-10.56044370474915
 21
-14.07576856711921
 72
     1
 10
-10.56044370474915
 20
-14.07576856711921
 11
-12.68867356395317
 21
-16.61209414769181
 72
     1
 10
-12.68867356395317
 20
-16.61209414769181
 11
-9.242365235002744
 21
-16.61205471838932
 72
     1
 10
-9.242365235002744
 20
-16.61205471838932
 11
-7.11416846091187
 21
-14.07576856711921
 97
        0
 75
     0
 76
     1
 98
        1
 10
8.16790684556301
 20
21.72315650415689
  0
HATCH
  5
D5
330
1F
100
AcDbEntity
  8
중심선
100
AcDbHatch
 10
0.0
 20
0.0
 30
0.0
210
0.0
220
0.0
230
1.0
  2
SOLID
 70
     1
 71
     0
 91
        1
 92
        0
 93
        4
 72
     1
 10
-2.10140446987589
 20
-14.07576856711921
 11
-5.547679713713173
 21
-14.07576856711921
 72
     1
 10
-5.547679713713173
 20
-14.07576856711921
 11
-10.07881772207059
 21
-19.47576856711923
 72
     1
 10
-10.07881772207059
 20
-19.47576856711923
 11
-6.632542478233306
 21
-19.47576856711923
 72
     1
 10
-6.632542478233306
 20
-19.47576856711923
 11
-2.10140446987589
 21
-14.07576856711921
 97
        0
 75
     0
 76
     1
 98
        1
 10
8.16790684556301
 20
21.72315650415689
  0
HATCH
  5
D6
330
1F
100
AcDbEntity
  8
중심선
100
AcDbHatch
 10
0.0
 20
0.0
 30
0.0
210
0.0
220
0.0
230
1.0
  2
SOLID
 70
     1
 71
     0
 91
        1
 92
        0
 93
        4
 72
     1
 10
2.911359521160005
 20
-14.07576856711921
 11
-0.5349157226771108
 21
-14.07576856711921
 72
     1
 10
-0.5349157226771108
 20
-14.07576856711921
 11
-7.583352624566388
 21
-22.47576856711923
 72
     1
 10
-7.583352624566388
 20
-22.47576856711923
 11
-4.137077380729105
 21
-22.47576856711923
 72
     1
 10
-4.137077380729105
 20
-22.47576856711923
 11
2.911359521160005
 21
-14.07576856711921
 97
        0
 75
     0
 76
     1
 98
        1
 10
8.16790684556301
 20
21.72315650415689
  0
HATCH
  5
D7
330
1F
100
AcDbEntity
  8
중심선
100
AcDbHatch
 10
0.0
 20
0.0
 30
0.0
210
0.0
220
0.0
230
1.0
  2
SOLID
 70
     1
 71
     0
 91
        1
 92
        0
 93
        6
 72
     3
 10
7.711249952172177
 20
-18.27576856717049
 11
3.960054785062284
 21
1.540882976769353E-10
 40
0.3939339440162627
 50
17.09539180608436
 51
320.0019657685081
 73
     0
 72
     1
 10
9.394249607872773
 20
-16.86366257175752
 11
11.69955148157384
 21
-14.92933586170957
 72
     3
 10
7.711249952119331
 20
-18.27576856711936
 11
6.60005478528683
 21
-1.278976924368180E-13
 40
0.636358354079598
 50
39.99873849337413
 51
368.4976242363724
 73
     1
 72
     1
 10
14.13658244401994
 20
-17.31576856704924
 11
6.391317258955253
 21
-17.31576856704924
 72
     1
 10
6.391317258955253
 20
-17.31576856704924
 11
6.391292214509319
 21
-19.23576856704913
 72
     1
 10
6.391292214509319
 20
-19.23576856704913
 11
10.83267198398136
 21
-19.2357685670491
 97
        0
 75
     0
 76
     1
 98
        1
 10
8.16790684556301
 20
21.72315650415689
  0
DIMENSION
  5
D8
330
1F
100
AcDbEntity
  8
치수문자_일반주서
100
AcDbDimension
  2
_D
 10
-35.89579831193211
 20
-2.38125000000008
 30
0.0
 11
-35.89579831193218
 21
22.98524999999992
 31
0.0
 70
   160
  1
%%c<>
 71
     2
 42
4.762499999999998
 52
-270.0
  3
SLDDIMSTYLE0
100
AcDbAlignedDimension
 13
-14.98134233574609
 23
2.381249999999998
 33
0.0
 14
-14.98134233574608
 24
-2.38125
 34
0.0
 50
90.0000000000002
100
AcDbRotatedDimension
1001
ACAD
1000
DSTYLE
1002
{
1070
   171
1070
     6
1070
   273
1070
     5
1002
}
  0
DIMENSION
  5
ED
330
1F
100
AcDbEntity
  8
치수문자_일반주서
100
AcDbDimension
  2
_D_1
 10
40.14168367778849
 20
1.982697836471377
 30
0.0
 11
40.14168367778841
 21
23.02419783647138
 31
0.0
 70
   160
  1
%%c<>
 71
     2
 42
3.965395672942647
 52
-270.0
  3
SLDDIMSTYLE0
100
AcDbAlignedDimension
 13
25.40000000000001
 23
-1.982697836471323
 33
0.0
 14
25.40000000000001
 24
1.982697836471324
 34
0.0
 50
90.0000000000002
100
AcDbRotatedDimension
1001
ACAD
1000
DSTYLE
1002
{
1070
   171
1070
     6
1070
   273
1070
     5
1002
}
  0
DIMENSION
  5
101
330
1F
100
AcDbEntity
  8
치수문자_일반주서
100
AcDbDimension
  2
_D_2
 10
17.46250000000001
 20
17.91635712269518
 30
0.0
 11
-1.828999999999994
 21
17.91635712269518
 31
0.0
 70
   160
  1
<>
 71
     2
 42
7.9375
  3
SLDDIMSTYLE0
100
AcDbAlignedDimension
 13
25.40000000000001
 23
1.982697836471324
 33
0.0
 14
17.46250000000001
 24
1.73080396124958
 34
0.0
100
AcDbRotatedDimension
1001
ACAD
1000
DSTYLE
1002
{
1070
   171
1070
     6
1070
   273
1070
     5
1002
}
  0
DIMENSION
  5
116
330
1F
100
AcDbEntity
  8
치수문자_일반주서
100
AcDbDimension
  2
_D_3
 10
25.40000000000001
 20
36.38125000000002
 30
0.0
 11
0.0000000000000124
 21
36.38125000000002
 31
0.0
 70
   160
  1
<>
 71
     2
 42
50.8
  3
SLDDIMSTYLE0
100
AcDbAlignedDimension
 13
-25.39999999999999
 23
1.982697836471323
 33
0.0
 14
25.40000000000001
 24
1.982697836471324
 34
0.0
100
AcDbRotatedDimension
1001
ACAD
1000
DSTYLE
1002
{
1070
   171
1070
     6
1070
   273
1070
     5
1002
}
  0
LINE
  5
12A
330
1F
100
AcDbEntity
  8
참조1
100
AcDbLine
 10
68.51241335422453
 20
7.441074928723896
 30
0.0
 11
68.51241335422453
 21
-7.438925071276109
 31
0.0
  0
LINE
  5
12B
330
1F
100
AcDbEntity
  8
참조1
100
AcDbLine
 10
81.21241335422454
 20
5.441074928723896
 30
0.0
 11
68.51241335422453
 21
5.441074928723896
 31
0.0
  0
SOLID
  5
12C
330
1F
100
AcDbEntity
  8
참조1
100
AcDbTrace
 10
68.51241335422453
 20
5.441074928723896
 30
0.0
 11
74.86241335422453
 21
4.425074928723896
 31
0.0
 12
74.86241335422453
 22
6.457074928723896
 32
0.0
 13
74.86241335422453
 23
6.457074928723896
 33
0.0
  0
LINE
  5
12D
330
1F
100
AcDbEntity
  8
참조1
100
AcDbLine
 10
81.21241335422454
 20
-5.438925071276109
 30
0.0
 11
68.51241335422453
 21
-5.438925071276109
 31
0.0
  0
SOLID
  5
12E
330
1F
100
AcDbEntity
  8
참조1
100
AcDbTrace
 10
68.51241335422453
 20
-5.438925071276109
 30
0.0
 11
74.86241335422453
 21
-6.454925071276109
 31
0.0
 12
74.86241335422453
 22
-4.422925071276109
 32
0.0
 13
74.86241335422453
 23
-4.422925071276109
 33
0.0
  0
MTEXT
  5
12F
330
1F
100
AcDbEntity
  8
참조1
100
AcDbMText
 10
77.89676348685053
 20
11.01136670591222
 30
0.0
 40
3.5
 41
0.0
 71
     1
 72
     1
  1
A
  7
SLDTEXTSTYLE0
 73
     1
 44
1.0
  0
MTEXT
  5
130
330
1F
100
AcDbEntity
  8
참조1
100
AcDbMText
 10
77.89676348685053
 20
0.1313667059122192
 30
0.0
 40
3.5
 41
0.0
 71
     1
 72
     1
  1
A
  7
SLDTEXTSTYLE0
 73
     1
 44
1.0
  0
INSERT
  5
137
330
1F
100
AcDbEntity
  8
해칭선
100
AcDbBlockReference
  2
SW_DOWELSYMBOL_0
 10
0.0
 20
0.0000000000000006
 30
0.0
  0
LINE
  5
2CF
330
1F
100
AcDbEntity
  8
외형선
  6
Continuous
370
    15
100
AcDbLine
 10
-14.98134233574609
 20
2.38125
 30
0.0
 11
-16.46249999999999
 21
1.984374999999999
 31
0.0
  0
LINE
  5
2D0
330
1F
100
AcDbEntity
  8
외형선
  6
Continuous
370
    15
100
AcDbLine
 10
-16.46249999999999
 20
-1.984375000000001
 30
0.0
 11
-14.98134233574609
 21
-2.381249999999999
 31
0.0
  0
LINE
  5
2D1
330
1F
100
AcDbEntity
  8
외형선
  6
Continuous
370
    15
100
AcDbLine
 10
-16.57261755520061
 20
-1.984375000000001
 30
0.0
 11
-16.46249999999999
 21
-1.984375000000001
 31
0.0
  0
LINE
  5
2D2
330
1F
100
AcDbEntity
  8
외형선
  6
Continuous
370
    15
100
AcDbLine
 10
-16.46249999999999
 20
1.984374999999999
 30
0.0
 11
-16.57261755520061
 21
1.984374999999999
 31
0.0
  0
LINE
  5
2D3
330
1F
100
AcDbEntity
  8
외형선
  6
Continuous
370
    15
100
AcDbLine
 10
-16.70265968178157
 20
1.642395948874777
 30
0.0
 11
-17.46249999999999
 21
1.583635143339342
 31
0.0
  0
LINE
  5
2D4
330
1F
100
AcDbEntity
  8
0
  6
Continuous
 62
     1
370
    15
100
AcDbLine
 10
-20.25806204719434
 20
-0.5085025466739037
 30
0.0
 11
-19.70933445620788
 21
-0.783817186063023
 31
0.0
  0
SPLINE
  5
2D5
330
1F
100
AcDbEntity
  8
0
  6
Continuous
 62
     1
370
    15
100
AcDbSpline
210
0.0
220
0.0
230
1.0
 70
     8
 71
     3
 72
    17
 73
    13
 74
     0
 42
0.000000001
 43
0.00000001
 40
0.0
 40
0.0
 40
0.0
 40
0.0
 40
0.1481418474816802
 40
0.2553669373004129
 40
0.3504884223113983
 40
0.4685247262237707
 40
0.5912191583491452
 40
0.7077217997793436
 40
0.7913352138542558
 40
0.8691159118359549
 40
0.943281568929291
 40
0.9999999999999999
 40
0.9999999999999999
 40
0.9999999999999999
 40
0.9999999999999999
 10
-19.6035257605765
 20
-1.57686145863983
 30
0.0
 10
-19.5230513954431
 20
-1.572844709442955
 30
0.0
 10
-19.38432967362947
 20
-1.565920636618523
 30
0.0
 10
-19.19098270076185
 20
-1.559041303673127
 30
0.0
 10
-19.01274055932538
 20
-1.554163151562162
 30
0.0
 10
-18.82857671414116
 20
-1.55080294229531
 30
0.0
 10
-18.63012674986633
 20
-1.549430806815381
 30
0.0
 10
-18.44944271769114
 20
-1.549604090706795
 30
0.0
 10
-18.2943564497794
 20
-1.551383671968812
 30
0.0
 10
-18.17176353565009
 20
-1.554260001095441
 30
0.0
 10
-18.06187358699222
 20
-1.557044037811179
 30
0.0
 10
-17.98988797346915
 20
-1.559435279218698
 30
0.0
 10
-17.95869311154237
 20
-1.560471520238125
 30
0.0
  0
SPLINE
  5
2D6
330
1F
100
AcDbEntity
  8
0
  6
Continuous
 62
     1
370
    15
100
AcDbSpline
210
0.0
220
0.0
230
1.0
 70
     8
 71
     3
 72
    25
 73
    21
 74
     0
 42
0.000000001
 43
0.00000001
 40
0.0
 40
0.0
 40
0.0
 40
0.0
 40
0.0756437981284875
 40
0.1288985265215986
 40
0.1639730809571009
 40
0.20541169197932
 40
0.257562792319915
 40
0.307924286944304
 40
0.3719098173698422
 40
0.4255660457679722
 40
0.4790508906751419
 40
0.5520278536195624
 40
0.6363091879073594
 40
0.7105596616318964
 40
0.740165641326455
 40
0.7675829148401346
 40
0.7954775468785502
 40
0.8418736077684251
 40
0.9102434210447404
 40
1.0
 40
1.0
 40
1.0
 40
1.0
 10
-24.66192689099719
 20
-1.357218694867812
 30
0.0
 10
-24.5748063970252
 20
-1.350176869134779
 30
0.0
 10
-24.42635135403874
 20
-1.33817745895884
 30
0.0
 10
-24.23777321220433
 20
-1.326732489325651
 30
0.0
 10
-24.08654576079141
 20
-1.319189698799687
 30
0.0
 10
-23.93724131207836
 20
-1.313242666206695
 30
0.0
 10
-23.77078563377647
 20
-1.308594011195553
 30
0.0
 10
-23.57842248670366
 20
-1.305730693126113
 30
0.0
 10
-23.38431806176014
 20
-1.305667433394061
 30
0.0
 10
-23.18677411339534
 20
-1.308632526762002
 30
0.0
 10
-22.97859487523441
 20
-1.314631147048791
 30
0.0
 10
-22.7351882334269
 20
-1.325503218357001
 30
0.0
 10
-22.46526884584209
 20
-1.342821213291573
 30
0.0
 10
-22.24705951924058
 20
-1.36122231000238
 30
0.0
 10
-22.09795338302963
 20
-1.37578713906568
 30
0.0
 10
-22.00107055785348
 20
-1.385826754112309
 30
0.0
 10
-21.88480901755391
 20
-1.398569017402669
 30
0.0
 10
-21.72002871151635
 20
-1.418027542885054
 30
0.0
 10
-21.48326842664552
 20
-1.448688025384603
 30
0.0
 10
-21.29963924317389
 20
-1.476647205775607
 30
0.0
 10
-21.19540662854101
 20
-1.492517550674227
 30
0.0
  0
SPLINE
  5
2D7
330
1F
100
AcDbEntity
  8
0
  6
Continuous
 62
     1
370
    15
100
AcDbSpline
210
0.0
220
0.0
230
1.0
 70
     8
 71
     3
 72
    14
 73
    10
 74
     0
 42
0.000000001
 43
0.00000001
 40
0.0
 40
0.0
 40
0.0
 40
0.0
 40
0.2160006876398907
 40
0.3531685127485772
 40
0.4819833389745078
 40
0.6453609473219524
 40
0.7852291243976854
 40
0.8966052504575374
 40
1.0
 40
1.0
 40
1.0
 40
1.0
 10
-21.19540662854101
 20
1.492517550674228
 30
0.0
 10
-21.30128818674171
 20
1.476389984185011
 30
0.0
 10
-21.47440815615398
 20
1.450020861320246
 30
0.0
 10
-21.71343401791296
 20
1.418871330693721
 30
0.0
 10
-21.92731158962498
 20
1.39346395125436
 30
0.0
 10
-22.14042366551537
 20
1.371088736211049
 30
0.0
 10
-22.34497131790394
 20
1.352802252250003
 30
0.0
 10
-22.52010864700091
 20
1.339434248781937
 30
0.0
 10
-22.62571497740279
 20
1.332877807403046
 30
0.0
 10
-22.67655585632261
 20
1.329721412885592
 30
0.0
  0
SPLINE
  5
2D8
330
1F
100
AcDbEntity
  8
0
  6
Continuous
 62
     1
370
    15
100
AcDbSpline
210
0.0
220
0.0
230
1.0
 70
     8
 71
     3
 72
    19
 73
    15
 74
     0
 42
0.000000001
 43
0.00000001
 40
0.0
 40
0.0
 40
0.0
 40
0.0
 40
0.125883979836829
 40
0.2120170214532305
 40
0.2672736683100226
 40
0.3213439411306415
 40
0.377800726814435
 40
0.4379095894858039
 40
0.5032164041668977
 40
0.5720362371134903
 40
0.6840974569352642
 40
0.7796123050883549
 40
0.8690920909447355
 40
1.0
 40
1.0
 40
1.0
 40
1.0
 10
-17.46249999999998
 20
1.583635143339342
 30
0.0
 10
-17.55262918303796
 20
1.578628439181389
 30
0.0
 10
-17.70442706040487
 20
1.570196019867647
 30
0.0
 10
-17.89537284297202
 20
1.562455386786594
 30
0.0
 10
-18.03543880040959
 20
1.557837810192203
 30
0.0
 10
-18.15051086864257
 20
1.554785271263507
 30
0.0
 10
-18.26447492293963
 20
1.552002563307456
 30
0.0
 10
-18.3953611825507
 20
1.55005894630755
 30
0.0
 10
-18.53674111667017
 20
1.549503836081881
 30
0.0
 10
-18.71578340967878
 20
1.549760829803776
 30
0.0
 10
-18.91373188123414
 20
1.551993964123936
 30
0.0
 10
-19.12730098990484
 20
1.557048546157396
 30
0.0
 10
-19.35543725984061
 20
1.564586420269665
 30
0.0
 10
-19.51107727410171
 20
1.572287249374283
 30
0.0
 10
-19.6035257605765
 20
1.576861458639832
 30
0.0
  0
LINE
  5
2D9
330
1F
100
AcDbEntity
  8
외형선
  6
Continuous
370
    15
100
AcDbLine
 10
-16.46249999999999
 20
-1.984375000000001
 30
0.0
 11
-16.46249999999999
 21
1.984374999999999
 31
0.0
  0
SPLINE
  5
2DA
330
1F
100
AcDbEntity
  8
외형선
  6
Continuous
370
    15
100
AcDbSpline
210
0.0
220
0.0
230
1.0
 70
     8
 71
     3
 72
    10
 73
     6
 74
     0
 42
0.000000001
 43
0.00000001
 40
0.0
 40
0.0
 40
0.0
 40
0.0
 40
0.5
 40
0.5
 40
1.0
 40
1.0
 40
1.0
 40
1.0
 10
-17.46249999999651
 20
-1.730803961250559
 30
0.0
 10
-17.31347254427084
 20
-1.772761137966197
 30
0.0
 10
-17.16376953092343
 20
-1.809909245649792
 30
0.0
 10
-16.86677109907218
 20
-1.873689723186005
 30
0.0
 10
-16.72085319620112
 20
-1.900274463541906
 30
0.0
 10
-16.57274056878188
 20
-1.921630908542679
 30
0.0
  0
LINE
  5
2DB
330
1F
100
AcDbEntity
  8
외형선
  6
Continuous
370
    15
100
AcDbLine
 10
-17.46249999999999
 20
-1.730803961249579
 30
0.0
 11
-17.46249999999999
 21
-1.395424869965084
 31
0.0
  0
SPLINE
  5
2DC
330
1F
100
AcDbEntity
  8
외형선
  6
Continuous
370
    15
100
AcDbSpline
210
0.0
220
0.0
230
1.0
 70
     8
 71
     3
 72
    10
 73
     6
 74
     0
 42
0.000000001
 43
0.00000001
 40
0.0
 40
0.0
 40
0.0
 40
0.0
 40
0.5
 40
0.5
 40
1.0
 40
1.0
 40
1.0
 40
1.0
 10
-17.46249999999651
 20
-1.395424869966509
 30
0.0
 10
-17.31345191543016
 20
-1.456422284677928
 30
0.0
 10
-17.16372808708068
 20
-1.513582037690168
 30
0.0
 10
-16.86668920873252
 20
-1.618819581065116
 30
0.0
 10
-16.72075149753029
 20
-1.66677781726487
 30
0.0
 10
-16.57261755520061
 20
-1.710202004736453
 30
0.0
  0
SPLINE
  5
2DD
330
1F
100
AcDbEntity
  8
외형선
  6
Continuous
370
    15
100
AcDbSpline
210
0.0
220
0.0
230
1.0
 70
     8
 71
     3
 72
    10
 73
     6
 74
     0
 42
0.000000001
 43
0.00000001
 40
0.0
 40
0.0
 40
0.0
 40
0.0
 40
0.5
 40
0.5
 40
1.0
 40
1.0
 40
1.0
 40
1.0
 10
-17.46249999999651
 20
1.730803961250561
 30
0.0
 10
-17.31347254427084
 20
1.772761137966198
 30
0.0
 10
-17.16376953092343
 20
1.809909245649794
 30
0.0
 10
-16.86677109907218
 20
1.873689723186003
 30
0.0
 10
-16.72085319620112
 20
1.900274463541904
 30
0.0
 10
-16.57274056878188
 20
1.92163090854268
 30
0.0
  0
LINE
  5
2DE
330
1F
100
AcDbEntity
  8
외형선
  6
Continuous
370
    15
100
AcDbLine
 10
-16.57261755520061
 20
-1.921652123413922
 30
0.0
 11
-16.57261755520061
 21
-1.984375000000001
 31
0.0
  0
LINE
  5
2DF
330
1F
100
AcDbEntity
  8
외형선
  6
Continuous
370
    15
100
AcDbLine
 10
-16.57261755520061
 20
1.984374999999999
 30
0.0
 11
-16.57261755520061
 21
-1.710545750159086
 31
0.0
  0
SPLINE
  5
2E0
330
1F
100
AcDbEntity
  8
외형선
  6
Continuous
370
    15
100
AcDbSpline
210
0.0
220
0.0
230
1.0
 70
    24
 71
     3
 72
    14
 73
    10
 74
     0
 42
0.000000001
 43
0.00000001
 40
0.0
 40
0.0
 40
0.0
 40
0.0
 40
0.25
 40
0.25
 40
0.5
 40
0.5
 40
0.75
 40
0.75
 40
1.0
 40
1.0
 40
1.0
 40
1.0
 10
-17.46249999999985
 20
-0.9353759660443413
 30
0.0
 10
-17.46249999999985
 20
-0.7831983689630786
 30
0.0
 10
-17.46249999999985
 20
-0.6153485484900767
 30
0.0
 10
-17.46249999999985
 20
-0.2605375327508963
 30
0.0
 10
-17.46249999999985
 20
-0.0737116617387248
 30
0.0
 10
-17.46249999999985
 20
0.301118406459788
 30
0.0
 10
-17.46249999999985
 20
0.4889228785148123
 30
0.0
 10
-17.46249999999985
 20
0.8474626804195917
 30
0.0
 10
-17.46249999999985
 20
1.018057448733969
 30
0.0
 10
-17.46249999999985
 20
1.173623827952734
 30
0.0
  0
SPLINE
  5
2E1
330
1F
100
AcDbEntity
  8
외형선
  6
Continuous
370
    15
100
AcDbSpline
210
0.0
220
0.0
230
1.0
 70
     8
 71
     3
 72
    10
 73
     6
 74
     0
 42
0.000000001
 43
0.00000001
 40
0.0
 40
0.0
 40
0.0
 40
0.0
 40
0.5
 40
0.5
 40
1.0
 40
1.0
 40
1.0
 40
1.0
 10
-17.46249999999348
 20
1.173623827950762
 30
0.0
 10
-17.31345945072675
 20
1.127408837044689
 30
0.0
 10
-17.1637432256808
 20
1.077820668264581
 30
0.0
 10
-16.86671912158479
 20
0.9731654661533813
 30
0.0
 10
-16.72078864608632
 20
0.9182893417145752
 30
0.0
 10
-16.57266248965713
 20
0.8607404229177209
 30
0.0
  0
SPLINE
  5
2E2
330
1F
100
AcDbEntity
  8
외형선
  6
Continuous
370
    15
100
AcDbSpline
210
0.0
220
0.0
230
1.0
 70
     8
 71
     3
 72
    10
 73
     6
 74
     0
 42
0.000000001
 43
0.00000001
 40
0.0
 40
0.0
 40
0.0
 40
0.0
 40
0.5
 40
0.5
 40
1.0
 40
1.0
 40
1.0
 40
1.0
 10
-17.46249999999142
 20
-0.9353759660468495
 30
0.0
 10
-17.31345688726805
 20
-0.9797725095332173
 30
0.0
 10
-17.16373807563139
 20
-1.021602028377459
 30
0.0
 10
-16.86670894543248
 20
-1.099096000689074
 30
0.0
 10
-16.72077600841327
 20
-1.134669814824165
 30
0.0
 10
-16.57264720327389
 20
-1.167163545661166
 30
0.0
  0
SPLINE
  5
2E3
330
1F
100
AcDbEntity
  8
외형선
  6
Continuous
370
    15
100
AcDbSpline
210
0.0
220
0.0
230
1.0
 70
    24
 71
     3
 72
    10
 73
     6
 74
     0
 42
0.000000001
 43
0.00000001
 40
0.0
 40
0.0
 40
0.0
 40
0.0
 40
0.5
 40
0.5
 40
1.0
 40
1.0
 40
1.0
 40
1.0
 10
-17.46249999999999
 20
-1.395424869965084
 30
0.0
 10
-17.46249999999999
 20
-1.347302778812059
 30
0.0
 10
-17.46249999999999
 20
-1.279767007536369
 30
0.0
 10
-17.46249999999999
 20
-1.119861646271866
 30
0.0
 10
-17.46249999999999
 20
-1.028015826705613
 30
0.0
 10
-17.46249999999999
 20
-0.9353759660442986
 30
0.0
  0
LINE
  5
2E4
330
1F
100
AcDbEntity
  8
외형선
  6
Continuous
370
    15
100
AcDbLine
 10
-16.70450050358262
 20
1.63541058196721
 30
0.0
 11
-16.57274056878188
 21
1.655778969003488
 31
0.0
  0
SPLINE
  5
2E5
330
1F
100
AcDbEntity
  8
외형선
  6
Continuous
370
    15
100
AcDbSpline
210
0.0
220
0.0
230
1.0
 70
    24
 71
     3
 72
    11
 73
     7
 74
     0
 42
0.000000001
 43
0.00000001
 40
0.0
 40
0.0
 40
0.0
 40
0.0
 40
0.3662738626813687
 40
0.632496536083778
 40
0.9064396850500622
 40
1.0
 40
1.0
 40
1.0
 40
1.0
 10
-17.46249999999999
 20
1.17362382795278
 30
0.0
 10
-17.46249999999999
 20
1.262345661771483
 30
0.0
 10
-17.46249999999999
 20
1.415554116654181
 30
0.0
 10
-17.46249999999999
 20
1.535285838916734
 30
0.0
 10
-17.46249999999999
 20
1.585346711782033
 30
0.0
 10
-17.46249999999999
 20
1.579365142214558
 30
0.0
 10
-17.46249999999999
 20
1.577842333349948
 30
0.0
  0
SPLINE
  5
2E6
330
1F
100
AcDbEntity
  8
외형선
  6
Continuous
370
    15
100
AcDbSpline
210
0.0
220
0.0
230
1.0
 70
    24
 71
     3
 72
    10
 73
     6
 74
     0
 42
0.000000001
 43
0.00000001
 40
0.0
 40
0.0
 40
0.0
 40
0.0
 40
0.1930989994318934
 40
0.8003557422223421
 40
1.0
 40
1.0
 40
1.0
 40
1.0
 10
-17.46249999999999
 20
1.583635143339342
 30
0.0
 10
-17.46249999999999
 20
1.593875342533638
 30
0.0
 10
-17.46249999999999
 20
1.636318867620594
 30
0.0
 10
-17.46249999999999
 20
1.684467201697003
 30
0.0
 10
-17.46249999999999
 20
1.72161324886803
 30
0.0
 10
-17.46249999999999
 20
1.730803961249864
 30
0.0
  0
SPLINE
  5
2E7
330
1F
100
AcDbEntity
  8
0
  6
Continuous
 62
     1
370
    15
100
AcDbSpline
210
0.0
220
0.0
230
1.0
 70
     8
 71
     3
 72
    34
 73
    30
 74
     0
 42
0.000000001
 43
0.00000001
 40
0.0
 40
0.0
 40
0.0
 40
0.0
 40
0.125
 40
0.125
 40
0.1875
 40
0.1875
 40
0.25
 40
0.25
 40
0.3125
 40
0.3125
 40
0.375
 40
0.375
 40
0.4375
 40
0.4375
 40
0.5
 40
0.5
 40
0.5625
 40
0.5625
 40
0.625
 40
0.625
 40
0.6875
 40
0.6875
 40
0.75
 40
0.75
 40
0.875
 40
0.875
 40
0.9375
 40
0.9375
 40
1.0
 40
1.0
 40
1.0
 40
1.0
 10
-25.39999999999999
 20
1.982697836471323
 30
0.0
 10
-25.07330548933972
 20
1.974880246427712
 30
0.0
 10
-24.73537292780004
 20
1.939087431326622
 30
0.0
 10
-24.24261659921588
 20
1.846501514513195
 30
0.0
 10
-24.07853909736302
 20
1.809168260048667
 30
0.0
 10
-23.74608862476354
 20
1.721835395472811
 30
0.0
 10
-23.57917665609027
 20
1.671925622449911
 30
0.0
 10
-23.24917345348126
 20
1.561260898220079
 30
0.0
 10
-23.08628143950634
 20
1.500585926499059
 30
0.0
 10
-22.75447890384773
 20
1.368502093395551
 30
0.0
 10
-22.58742953051083
 20
1.297290625910555
 30
0.0
 10
-22.25624287773003
 20
1.146766105830372
 30
0.0
 10
-22.09364920321633
 20
1.067735962252931
 30
0.0
 10
-21.76281594529907
 20
0.9019346103528487
 30
0.0
 10
-21.59579355888593
 20
0.8153284837371106
 30
0.0
 10
-21.26374280459993
 20
0.6373835396956185
 30
0.0
 10
-21.10055936267905
 20
0.54640179882234
 30
0.0
 10
-20.77101359012217
 20
0.3607169217463653
 30
0.0
 10
-20.60418249329214
 20
0.2659098812907519
 30
0.0
 10
-20.27158978246827
 20
0.0752990439400125
 30
0.0
 10
-20.10693036060789
 20
-0.0202853307401168
 30
0.0
 10
-19.77898613657618
 20
-0.2103886483843571
 30
0.0
 10
-19.612510002156
 20
-0.3055220822531528
 30
0.0
 10
-19.1132938561028
 20
-0.5866939631406336
 30
0.0
 10
-18.78704205520827
 20
-0.7673430585726859
 30
0.0
 10
-18.28798574700855
 20
-1.020415336656865
 30
0.0
 10
-18.12125819016494
 20
-1.10155308539389
 30
0.0
 10
-17.79222745840092
 20
-1.254945328698619
 30
0.0
 10
-17.62863669069465
 20
-1.327434002114825
 30
0.0
 10
-17.46249999999651
 20
-1.395424869966509
 30
0.0
  0
SPLINE
  5
2E8
330
1F
100
AcDbEntity
  8
0
  6
Continuous
 62
     1
370
    15
100
AcDbSpline
210
0.0
220
0.0
230
1.0
 70
     8
 71
     3
 72
    12
 73
     8
 74
     0
 42
0.000000001
 43
0.00000001
 40
0.0
 40
0.0
 40
0.0
 40
0.0
 40
0.0749634355579704
 40
0.3187200646570896
 40
0.5627179801119299
 40
0.7820366745136809
 40
0.9999999999999999
 40
0.9999999999999999
 40
0.9999999999999999
 40
0.9999999999999999
 10
-20.47457588873004
 20
0.1897925907641624
 30
0.0
 10
-20.39928023265641
 20
0.1600597980622769
 30
0.0
 10
-20.07914767478252
 20
0.0336456664013542
 30
0.0
 10
-19.51437430632119
 20
-0.1983317219083756
 30
0.0
 10
-18.80454870182443
 20
-0.4771976789618908
 30
0.0
 10
-18.12006784244252
 20
-0.7282272029316783
 30
0.0
 10
-17.68123588982114
 20
-0.8664692067713962
 30
0.0
 10
-17.46249999999999
 20
-0.9353759660443022
 30
0.0
  0
SPLINE
  5
2E9
330
1F
100
AcDbEntity
  8
외형선
  6
Continuous
370
    15
100
AcDbSpline
210
0.0
220
0.0
230
1.0
 70
    24
 71
     3
 72
    10
 73
     6
 74
     0
 42
0.000000001
 43
0.00000001
 40
0.0
 40
0.0
 40
0.0
 40
0.0
 40
0.5
 40
0.5
 40
1.0
 40
1.0
 40
1.0
 40
1.0
 10
-17.46249999999999
 20
-1.395424869965084
 30
0.0
 10
-17.46249999999999
 20
-1.347302778812059
 30
0.0
 10
-17.46249999999999
 20
-1.279767007536369
 30
0.0
 10
-17.46249999999999
 20
-1.119861646271866
 30
0.0
 10
-17.46249999999999
 20
-1.028015826705613
 30
0.0
 10
-17.46249999999999
 20
-0.9353759660442986
 30
0.0
  0
SPLINE
  5
2EA
330
1F
100
AcDbEntity
  8
0
  6
Continuous
 62
     1
370
    15
100
AcDbSpline
210
0.0
220
0.0
230
1.0
 70
     8
 71
     3
 72
    34
 73
    30
 74
     0
 42
0.000000001
 43
0.00000001
 40
0.0
 40
0.0
 40
0.0
 40
0.0
 40
0.1250000000000004
 40
0.1250000000000004
 40
0.1875000000000004
 40
0.1875000000000004
 40
0.2500000000000003
 40
0.2500000000000003
 40
0.3125000000000003
 40
0.3125000000000003
 40
0.3750000000000003
 40
0.3750000000000003
 40
0.4375000000000003
 40
0.4375000000000003
 40
0.5000000000000002
 40
0.5000000000000002
 40
0.5625000000000002
 40
0.5625000000000002
 40
0.6250000000000002
 40
0.6250000000000002
 40
0.6875000000000002
 40
0.6875000000000002
 40
0.7500000000000002
 40
0.7500000000000002
 40
0.8750000000000001
 40
0.8750000000000001
 40
0.9375
 40
0.9375
 40
1.0
 40
1.0
 40
1.0
 40
1.0
 10
-25.39999999999999
 20
1.883054537382054
 30
0.0
 10
-25.07330548933972
 20
1.823060251658716
 30
0.0
 10
-24.73537292780004
 20
1.73591028388391
 30
0.0
 10
-24.24261659921591
 20
1.572249600665588
 30
0.0
 10
-24.07853909736303
 20
1.512097641606444
 30
0.0
 10
-23.74608862476357
 20
1.381157555654424
 30
0.0
 10
-23.57917665609028
 20
1.310531721633597
 30
0.0
 10
-23.24917345348129
 20
1.161237487200352
 30
0.0
 10
-23.08628143950637
 20
1.082642995032198
 30
0.0
 10
-22.75447890384775
 20
0.917528595209016
 30
0.0
 10
-22.58742953051086
 20
0.8312840303073645
 30
0.0
 10
-22.25624287773007
 20
0.6541205425363248
 30
0.0
 10
-22.09364920321637
 20
0.5635072598212953
 30
0.0
 10
-21.76281594529911
 20
0.3779773489897511
 30
0.0
 10
-21.59579355888597
 20
0.2832702451677693
 30
0.0
 10
-21.26374280459997
 20
0.092915900299064
 30
0.0
 10
-21.10055936267909
 20
-0.0023687010357538
 30
0.0
 10
-20.77101359012222
 20
-0.1928716395471118
 30
0.0
 10
-20.6041824932922
 20
-0.2881781451843228
 30
0.0
 10
-20.27158978246833
 20
-0.4759180570928241
 30
0.0
 10
-20.10693036060793
 20
-0.568144460521663
 30
0.0
 10
-19.77898613657624
 20
-0.74779707356353
 30
0.0
 10
-19.61251000215606
 20
-0.8357949736257961
 30
0.0
 10
-19.11329385610286
 20
-1.090081080142384
 30
0.0
 10
-18.78704205520835
 20
-1.245665915240225
 30
0.0
 10
-18.28798574700862
 20
-1.451503806810693
 30
0.0
 10
-18.12125819016501
 20
-1.515319421118563
 30
0.0
 10
-17.79222745840099
 20
-1.631484154765425
 30
0.0
 10
-17.62863669069472
 20
-1.68402985203267
 30
0.0
 10
-17.4624999999966
 20
-1.730803961250538
 30
0.0
  0
SPLINE
  5
2EB
330
1F
100
AcDbEntity
  8
0
  6
Continuous
 62
     1
370
    15
100
AcDbSpline
210
0.0
220
0.0
230
1.0
 70
     8
 71
     3
 72
    14
 73
    10
 74
     0
 42
0.000000001
 43
0.00000001
 40
0.0
 40
0.0
 40
0.0
 40
0.0
 40
0.1431333759844981
 40
0.2857670907489614
 40
0.4287794859185463
 40
0.5720242592431893
 40
0.7146748307010135
 40
0.8575827626368403
 40
1.0
 40
1.0
 40
1.0
 40
1.0
 10
-25.39999999999999
 20
1.565616837105678
 30
0.0
 10
-25.15437344002858
 20
1.513937493101696
 30
0.0
 10
-24.66397777255473
 20
1.410759211402872
 30
0.0
 10
-23.92886727427346
 20
1.171600961953994
 30
0.0
 10
-23.19304295935655
 20
0.8846375025310518
 30
0.0
 10
-22.4568358737088
 20
0.5565583274615757
 30
0.0
 10
-21.72168350141436
 20
0.2023080528677094
 30
0.0
 10
-20.98752761262607
 20
-0.1614542895745264
 30
0.0
 10
-20.49783349967637
 20
-0.3943680299838352
 30
0.0
 10
-20.25340752460153
 20
-0.5106246207869216
 30
0.0
  0
LINE
  5
2EC
330
1F
100
AcDbEntity
  8
0
  6
Continuous
 62
     1
370
    15
100
AcDbLine
 10
-25.39999999999999
 20
1.883054537382054
 30
0.0
 11
-25.39999999999999
 21
1.565616837105678
 31
0.0
  0
LINE
  5
2ED
330
1F
100
AcDbEntity
  8
0
  6
Continuous
 62
     1
370
    15
100
AcDbLine
 10
-25.39999999999999
 20
1.982697836471323
 30
0.0
 11
-25.39999999999999
 21
1.88305453738205
 31
0.0
  0
SPLINE
  5
2EE
330
1F
100
AcDbEntity
  8
0
  6
Continuous
 62
     1
370
    15
100
AcDbSpline
210
0.0
220
0.0
230
1.0
 70
     8
 71
     3
 72
     8
 73
     4
 74
     0
 42
0.000000001
 43
0.00000001
 40
0.0
 40
0.0
 40
0.0
 40
0.0
 40
1.0
 40
1.0
 40
1.0
 40
1.0
 10
-24.17150677959565
 20
-0.5557441175764997
 30
0.0
 10
-24.10123544869917
 20
-0.6389927033795264
 30
0.0
 10
-24.03850664401416
 20
-0.719140483765732
 30
0.0
 10
-23.98510005238468
 20
-0.7954558122745621
 30
0.0
  0
LINE
  5
2EF
330
1F
100
AcDbEntity
  8
0
  6
Continuous
 62
     1
370
    15
100
AcDbLine
 10
-24.01023597617291
 20
-0.8165473566545611
 30
0.0
 11
-25.39999999999999
 21
-0.0000000000000011
 31
0.0
  0
LINE
  5
2F0
330
1F
100
AcDbEntity
  8
0
  6
Continuous
 62
     1
370
    15
100
AcDbLine
 10
-25.39999999999999
 20
-1.389062499999999
 30
0.0
 11
-25.39999999999999
 21
1.565616837105678
 31
0.0
  0
SPLINE
  5
2F1
330
1F
100
AcDbEntity
  8
0
  6
Continuous
 62
     1
370
    15
100
AcDbSpline
210
0.0
220
0.0
230
1.0
 70
     8
 71
     3
 72
    10
 73
     6
 74
     0
 42
0.000000001
 43
0.00000001
 40
0.0
 40
0.0
 40
0.0
 40
0.0
 40
0.5
 40
0.5
 40
1.0
 40
1.0
 40
1.0
 40
1.0
 10
-25.39999999999999
 20
0.5303102210275756
 30
0.0
 10
-25.18733365854357
 20
0.3631162242341996
 30
0.0
 10
-24.97822341339828
 20
0.1890610906366656
 30
0.0
 10
-24.56728519211056
 20
-0.1730995957543205
 30
0.0
 10
-24.36354542687044
 20
-0.3631188210779339
 30
0.0
 10
-24.17150677959565
 20
-0.5557441175765032
 30
0.0
  0
SPLINE
  5
2F2
330
1F
100
AcDbEntity
  8
0
  6
Continuous
 62
     1
370
    15
100
AcDbSpline
210
0.0
220
0.0
230
1.0
 70
     8
 71
     3
 72
    13
 73
     9
 74
     0
 42
0.000000001
 43
0.00000001
 40
0.0
 40
0.0
 40
0.0
 40
0.0
 40
0.2140364479730448
 40
0.3754093864909818
 40
0.5361035636801925
 40
0.6970916145789728
 40
0.8585510454697447
 40
1.0
 40
1.0
 40
1.0
 40
1.0
 10
-24.17150677420211
 20
-0.555744119915514
 30
0.0
 10
-23.84546842958015
 20
-0.6925357832087553
 30
0.0
 10
-23.27361323348531
 20
-0.9324616223838806
 30
0.0
 10
-22.45685028418544
 20
-1.207524997349933
 30
0.0
 10
-21.72162530978977
 20
-1.403991483661128
 30
0.0
 10
-20.98596207637419
 20
-1.53338390396861
 30
0.0
 10
-20.2790614957502
 20
-1.597086127855261
 30
0.0
 10
-19.81798209911574
 20
-1.580679107544488
 30
0.0
 10
-19.60267211844705
 20
-1.573017530706033
 30
0.0
  0
SPLINE
  5
2F3
330
1F
100
AcDbEntity
  8
0
  6
Continuous
 62
     1
370
    15
100
AcDbSpline
210
0.0
220
0.0
230
1.0
 70
    24
 71
     3
 72
    10
 73
     6
 74
     0
 42
0.000000001
 43
0.00000001
 40
0.0
 40
0.0
 40
0.0
 40
0.0
 40
0.5000000000000001
 40
0.5000000000000001
 40
1.0
 40
1.0
 40
1.0
 40
1.0
 10
-25.39999999999999
 20
1.565616837105678
 30
0.0
 10
-25.39999999999999
 20
1.445600100054427
 30
0.0
 10
-25.39999999999999
 20
1.293954350876897
 30
0.0
 10
-25.39999999999999
 20
0.9413925783146293
 30
0.0
 10
-25.39999999999999
 20
0.7407819573049419
 30
0.0
 10
-25.39999999999999
 20
0.5303102210276396
 30
0.0
  0
SPLINE
  5
2F4
330
1F
100
AcDbEntity
  8
0
  6
Continuous
 62
     1
370
    15
100
AcDbSpline
210
0.0
220
0.0
230
1.0
 70
    24
 71
     3
 72
     8
 73
     4
 74
     0
 42
0.000000001
 43
0.00000001
 40
0.0
 40
0.0
 40
0.0
 40
0.0
 40
1.0
 40
1.0
 40
1.0
 40
1.0
 10
-24.19237627747489
 20
-0.9693812162995858
 30
0.0
 10
-24.12691450026557
 20
-0.9144522631870242
 30
0.0
 10
-24.05741308150833
 20
-0.8561336483415023
 30
0.0
 10
-23.98510005238471
 20
-0.7954558122745479
 30
0.0
  0
SPLINE
  5
2F5
330
1F
100
AcDbEntity
  8
0
  6
Continuous
 62
     1
370
    15
100
AcDbSpline
210
0.0
220
0.0
230
1.0
 70
     8
 71
     3
 72
     9
 73
     5
 74
     0
 42
0.000000001
 43
0.00000001
 40
0.0
 40
0.0
 40
0.0
 40
0.0
 40
0.9982166367907005
 40
1.0
 40
1.0
 40
1.0
 40
1.0
 10
-25.39999999999999
 20
-1.389062499999999
 30
0.0
 10
-25.15436399064649
 20
-1.388831775900884
 30
0.0
 10
-24.90828914045842
 20
-1.388600639601795
 30
0.0
 10
-24.66235303905903
 20
-1.35721862760028
 30
0.0
 10
-24.66191444566395
 20
-1.357162662074644
 30
0.0
  0
SPLINE
  5
2F6
330
1F
100
AcDbEntity
  8
0
  6
Continuous
 62
     1
370
    15
100
AcDbSpline
210
0.0
220
0.0
230
1.0
 70
     8
 71
     3
 72
    17
 73
    13
 74
     0
 42
0.000000001
 43
0.00000001
 40
0.0
 40
0.0
 40
0.0
 40
0.0
 40
0.0005163282802535
 40
0.0005163282802535
 40
0.0005163282802535
 40
0.0010326767457958
 40
0.0010326767457958
 40
0.0010326767457958
 40
0.0014638374883266
 40
0.0014638374883266
 40
0.0014638374883266
 40
0.0016321893726733
 40
0.0016321893726733
 40
0.0016321893726733
 40
0.0016321893726733
 10
-25.39999999999999
 20
-1.389062499999999
 30
0.0
 10
-25.27092116811913
 20
-1.354001784257759
 30
0.0
 10
-25.14225190197669
 20
-1.316249471550255
 30
0.0
 10
-25.01412807327689
 20
-1.275656025300191
 30
0.0
 10
-24.88600136219783
 20
-1.235061665826497
 30
0.0
 10
-24.75838056367947
 20
-1.191616621055183
 30
0.0
 10
-24.63145173715161
 20
-1.145048959270264
 30
0.0
 10
-24.52546046846174
 20
-1.106162870999215
 30
0.0
 10
-24.41992126998227
 20
-1.065092287991591
 30
0.0
 10
-24.31499202923051
 20
-1.0215739064111
 30
0.0
 10
-24.27402026607594
 20
-1.004581266321339
 30
0.0
 10
-24.2331428167643
 20
-0.987195123882594
 30
0.0
 10
-24.19237627749153
 20
-0.9693812163068547
 30
0.0
  0
SPLINE
  5
2F7
330
1F
100
AcDbEntity
  8
0
  6
Continuous
 62
     1
370
    15
100
AcDbSpline
210
0.0
220
0.0
230
1.0
 70
     8
 71
     3
 72
    13
 73
     9
 74
     0
 42
0.000000001
 43
0.00000001
 40
0.0
 40
0.0
 40
0.0
 40
0.0
 40
0.0569797637199949
 40
0.2543570000685387
 40
0.4508458411052185
 40
0.6475241341721734
 40
0.8242940829443208
 40
1.0
 40
1.0
 40
1.0
 40
1.0
 10
-21.19951659825146
 20
1.485116432160281
 30
0.0
 10
-21.12854456132548
 20
1.498323943513859
 30
0.0
 10
-20.81172621701016
 20
1.557282120012735
 30
0.0
 10
-20.24965739134949
 20
1.592203220694951
 30
0.0
 10
-19.51439243904836
 20
1.5847016856599
 30
0.0
 10
-18.8046060164906
 20
1.501453932836326
 30
0.0
 10
-18.12000598267402
 20
1.366322496155862
 30
0.0
 10
-17.68122714167579
 20
1.237727319040995
 30
0.0
 10
-17.46249999999999
 20
1.17362382795278
 30
0.0
  0
SPLINE
  5
2F8
330
1F
100
AcDbEntity
  8
외형선
  6
Continuous
370
    15
100
AcDbSpline
210
0.0
220
0.0
230
1.0
 70
    24
 71
     3
 72
    14
 73
    10
 74
     0
 42
0.000000001
 43
0.00000001
 40
0.0
 40
0.0
 40
0.0
 40
0.0
 40
0.25
 40
0.25
 40
0.5
 40
0.5
 40
0.75
 40
0.75
 40
1.0
 40
1.0
 40
1.0
 40
1.0
 10
-17.46249999999985
 20
-0.9353759660443413
 30
0.0
 10
-17.46249999999985
 20
-0.7831983689630786
 30
0.0
 10
-17.46249999999985
 20
-0.6153485484900767
 30
0.0
 10
-17.46249999999985
 20
-0.2605375327508963
 30
0.0
 10
-17.46249999999985
 20
-0.0737116617387248
 30
0.0
 10
-17.46249999999985
 20
0.301118406459788
 30
0.0
 10
-17.46249999999985
 20
0.4889228785148123
 30
0.0
 10
-17.46249999999985
 20
0.8474626804195917
 30
0.0
 10
-17.46249999999985
 20
1.018057448733969
 30
0.0
 10
-17.46249999999985
 20
1.173623827952734
 30
0.0
  0
SPLINE
  5
2FA
330
1F
100
AcDbEntity
  8
외형선
  6
Continuous
370
    15
100
AcDbSpline
210
0.0
220
0.0
230
1.0
 70
    24
 71
     3
 72
    11
 73
     7
 74
     0
 42
0.000000001
 43
0.00000001
 40
0.0
 40
0.0
 40
0.0
 40
0.0
 40
0.3673639069384106
 40
0.6343788686414706
 40
0.9091372823227981
 40
1.0
 40
1.0
 40
1.0
 40
1.0
 10
-17.46249999999999
 20
1.17362382795278
 30
0.0
 10
-17.46249999999999
 20
1.262351566198815
 30
0.0
 10
-17.46249999999999
 20
1.415570217085693
 30
0.0
 10
-17.46249999999999
 20
1.535240853413699
 30
0.0
 10
-17.46249999999999
 20
1.585238583090247
 30
0.0
 10
-17.46249999999999
 20
1.579372953502221
 30
0.0
 10
-17.46249999999999
 20
1.57791525043327
 30
0.0
  0
SPLINE
  5
2FB
330
1F
100
AcDbEntity
  8
0
  6
Continuous
 62
     1
370
    15
100
AcDbSpline
210
0.0
220
0.0
230
1.0
 70
     8
 71
     3
 72
    11
 73
     7
 74
     0
 42
0.000000001
 43
0.00000001
 40
0.0
 40
0.0
 40
0.0
 40
0.0
 40
0.0379032431620224
 40
0.3582764781222624
 40
0.6788615323318427
 40
1.0
 40
1.0
 40
1.0
 40
1.0
 10
-22.67763565484226
 20
-1.330220212755152
 30
0.0
 10
-22.71202736662597
 20
-1.346266669839794
 30
0.0
 10
-23.03711145829048
 20
-1.497944142557629
 30
0.0
 10
-23.65297964390962
 20
-1.704225942741855
 30
0.0
 10
-24.52593366000238
 20
-1.926139986959489
 30
0.0
 10
-25.10847709421
 20
-1.963834384259028
 30
0.0
 10
-25.39999999999999
 20
-1.982697836471325
 30
0.0
  0
SPLINE
  5
2FC
330
1F
100
AcDbEntity
  8
0
  6
Continuous
 62
     1
370
    15
100
AcDbSpline
210
0.0
220
0.0
230
1.0
 70
    24
 71
     3
 72
    10
 73
     6
 74
     0
 42
0.000000001
 43
0.00000001
 40
0.0
 40
0.0
 40
0.0
 40
0.0
 40
0.5
 40
0.5
 40
1.0
 40
1.0
 40
1.0
 40
1.0
 10
-25.39999999999999
 20
-1.389062499999999
 30
0.0
 10
-25.39999999999999
 20
-1.473264009602013
 30
0.0
 10
-25.39999999999999
 20
-1.571113961658186
 30
0.0
 10
-25.39999999999999
 20
-1.776402897531697
 30
0.0
 10
-25.39999999999999
 20
-1.883317599168547
 30
0.0
 10
-25.39999999999999
 20
-1.982697836471322
 30
0.0
  0
LINE
  5
2FD
330
1F
100
AcDbEntity
  8
0
  6
Continuous
 62
     1
370
    15
100
AcDbLine
 10
-17.95864161629834
 20
1.560489197449707
 30
0.0
 11
-17.4624999999966
 21
1.730803961250536
 31
0.0
  0
SPLINE
  5
2FE
330
1F
100
AcDbEntity
  8
외형선
  6
Continuous
370
    15
100
AcDbSpline
210
0.0
220
0.0
230
1.0
 70
    24
 71
     3
 72
    11
 73
     7
 74
     0
 42
0.000000001
 43
0.00000001
 40
0.0
 40
0.0
 40
0.0
 40
0.0
 40
0.1958530004568933
 40
0.4982772189295676
 40
0.8010592687691004
 40
1.0
 40
1.0
 40
1.0
 40
1.0
 10
-17.46249999999999
 20
1.583635143339342
 30
0.0
 10
-17.46249999999999
 20
1.593862670151352
 30
0.0
 10
-17.46249999999999
 20
1.619882918013409
 30
0.0
 10
-17.46249999999999
 20
1.659743196877747
 30
0.0
 10
-17.46249999999999
 20
1.69850755397725
 30
0.0
 10
-17.46249999999999
 20
1.7216339805585
 30
0.0
 10
-17.46249999999999
 20
1.730803961249861
 30
0.0
  0
LINE
  5
303
330
1F
100
AcDbEntity
  8
외형선
  6
Continuous
370
    15
100
AcDbLine
 10
-14.98134233574609
 20
-2.381249999999999
 30
0.0
 11
-14.98134233574609
 21
2.38125
 31
0.0
  0
ENDSEC
  0
SECTION
  2
OBJECTS
  0
DICTIONARY
  5
C
330
0
100
AcDbDictionary
281
     1
  3
ACAD_GROUP
350
D
  3
ACAD_IMAGE_VARS
350
15B
  3
ACAD_LAYOUT
350
1A
  3
ACAD_MLINESTYLE
350
17
  3
ACAD_PLOTSETTINGS
350
19
  3
ACAD_PLOTSTYLENAME
350
E
  3
ACAD_SCALELIST
350
47
  3
APPDATA
350
159
  3
DWGPROPS
350
354
  0
DICTIONARY
  5
215
330
2
100
AcDbDictionary
280
     1
281
     1
  3
ACAD_LAYERSTATES
360
216
  0
DICTIONARY
  5
352
330
1F
100
AcDbDictionary
280
     1
281
     1
  3
DIM_BOUNDING_BOXES_V1
360
353
  0
DICTIONARY
  5
D
102
{ACAD_REACTORS
330
C
102
}
330
C
100
AcDbDictionary
281
     1
  0
RASTERVARIABLES
  5
15B
102
{ACAD_REACTORS
330
C
102
}
330
C
100
AcDbRasterVariables
 90
        0
 70
     1
 71
     1
 72
     1
  0
DICTIONARY
  5
1A
102
{ACAD_REACTORS
330
C
102
}
330
C
100
AcDbDictionary
281
     1
  3
Layout1
350
1E
  3
Layout2
350
26
  3
Model
350
22
  0
DICTIONARY
  5
17
102
{ACAD_REACTORS
330
C
102
}
330
C
100
AcDbDictionary
281
     1
  3
Standard
350
18
  0
DICTIONARY
  5
19
102
{ACAD_REACTORS
330
C
102
}
330
C
100
AcDbDictionary
281
     1
  0
ACDBDICTIONARYWDFLT
  5
E
102
{ACAD_REACTORS
330
C
102
}
330
C
100
AcDbDictionary
281
     1
  3
Normal
350
F
100
AcDbDictionaryWithDefault
340
F
  0
DICTIONARY
  5
47
102
{ACAD_REACTORS
330
C
102
}
330
C
100
AcDbDictionary
281
     1
  3
A0
350
48
  3
A1
350
49
  3
A2
350
4A
  3
A3
350
4B
  3
A4
350
4C
  3
A5
350
4D
  3
A6
350
4E
  3
A7
350
4F
  3
A8
350
50
  3
A9
350
51
  3
B0
350
52
  3
B1
350
53
  3
B2
350
54
  3
B3
350
55
  3
B4
350
56
  3
B5
350
57
  3
B6
350
58
  3
B7
350
59
  3
B8
350
5A
  3
B9
350
5B
  3
C0
350
5C
  3
C1
350
5D
  3
C2
350
5E
  3
C3
350
5F
  3
C4
350
60
  3
C5
350
61
  3
C6
350
62
  3
C7
350
63
  3
C8
350
64
  3
C9
350
65
  3
D0
350
66
  3
D1
350
67
  3
D2
350
68
  0
DICTIONARY
  5
159
102
{ACAD_REACTORS
330
C
102
}
330
C
100
AcDbDictionary
281
     1
  0
XRECORD
  5
354
102
{ACAD_REACTORS
330
C
102
}
330
C
100
AcDbXrecord
280
     1
  1
DWGPROPS COOKIE
  2

  3

  4

  6

  7

  8
12011056
  9

300
=
301
=
302
=
303
=
304
=
305
=
306
=
307
=
308
=
309
=
 40
0.0
 41
2458313.049743681
 42
2459719.264243912
  1

 90
        0
  0
DICTIONARY
  5
216
102
{ACAD_REACTORS
330
215
102
}
330
215
100
AcDbDictionary
281
     1
  0
DICTIONARY
  5
353
102
{ACAD_REACTORS
330
352
102
}
330
352
100
AcDbDictionary
281
     1
  0
LAYOUT
  5
1E
102
{ACAD_REACTORS
330
1A
102
}
330
1A
100
AcDbPlotSettings
  1

  2
none_device
  4

  6

 40
0.0
 41
0.0
 42
0.0
 43
0.0
 44
0.0
 45
0.0
 46
0.0
 47
0.0
 48
0.0
 49
0.0
140
0.0
141
0.0
142
1.0
143
1.0
 70
   688
 72
     1
 73
     0
 74
     5
  7

 75
    16
147
1.0
148
0.0
149
0.0
100
AcDbLayout
  1
Layout1
 70
     1
 71
     1
 10
0.0
 20
0.0
 11
420.0
 21
297.0
 12
0.0
 22
0.0
 32
0.0
 14
1.000000000000000E+20
 24
1.000000000000000E+20
 34
1.000000000000000E+20
 15
-1.000000000000000E+20
 25
-1.000000000000000E+20
 35
-1.000000000000000E+20
146
0.0
 13
0.0
 23
0.0
 33
0.0
 16
1.0
 26
0.0
 36
0.0
 17
0.0
 27
1.0
 37
0.0
 76
     0
330
1B
  0
LAYOUT
  5
26
102
{ACAD_REACTORS
330
1A
102
}
330
1A
100
AcDbPlotSettings
  1

  2
none_device
  4

  6

 40
0.0
 41
0.0
 42
0.0
 43
0.0
 44
0.0
 45
0.0
 46
0.0
 47
0.0
 48
0.0
 49
0.0
140
0.0
141
0.0
142
1.0
143
1.0
 70
   688
 72
     1
 73
     0
 74
     5
  7

 75
    16
147
1.0
148
0.0
149
0.0
100
AcDbLayout
  1
Layout2
 70
     1
 71
     2
 10
0.0
 20
0.0
 11
0.0
 21
0.0
 12
0.0
 22
0.0
 32
0.0
 14
0.0
 24
0.0
 34
0.0
 15
0.0
 25
0.0
 35
0.0
146
0.0
 13
0.0
 23
0.0
 33
0.0
 16
1.0
 26
0.0
 36
0.0
 17
0.0
 27
1.0
 37
0.0
 76
     0
330
23
  0
LAYOUT
  5
22
102
{ACAD_REACTORS
330
1A
102
}
330
1A
100
AcDbPlotSettings
  1

  2
none_device
  4
ANSI_A_(11.00_x_8.50_Inches)
  6

 40
6.35
 41
19.05
 42
6.35000508
 43
19.05000254
 44
279.4
 45
215.9
 46
93.14550552708039
 47
82.86481260636198
 48
0.0
 49
0.0
140
0.0
141
0.0
142
0.0686608694179787
143
1.0
 70
  1696
 72
     0
 73
     0
 74
     0
  7

 75
     0
147
0.0235690232323232
148
0.0
149
0.0
100
AcDbLayout
  1
Model
 70
     1
 71
     0
 10
0.0
 20
0.0
 11
420.0
 21
297.0
 12
0.0
 22
0.0
 32
0.0
 14
-40.27079831193222
 24
-39.99892507127611
 34
0.0
 15
81.21241335422454
 25
40.75625000000002
 35
0.0
146
0.0
 13
0.0
 23
0.0
 33
0.0
 16
1.0
 26
0.0
 36
0.0
 17
0.0
 27
1.0
 37
0.0
 76
     0
330
1F
331
29
  0
MLINESTYLE
  5
18
102
{ACAD_REACTORS
330
17
102
}
330
17
100
AcDbMlineStyle
  2
Standard
 70
     0
  3

 62
   256
 51
90.0
 52
90.0
 71
     2
 49
0.5
 62
   256
  6
BYLAYER
 49
-0.5
 62
   256
  6
BYLAYER
  0
ACDBPLACEHOLDER
  5
F
102
{ACAD_REACTORS
330
E
102
}
330
E
  0
SCALE
  5
48
102
{ACAD_REACTORS
330
47
102
}
330
47
100
AcDbScale
 70
     0
300
1:1
140
1.0
141
1.0
290
     1
  0
SCALE
  5
49
102
{ACAD_REACTORS
330
47
102
}
330
47
100
AcDbScale
 70
     0
300
1:2
140
1.0
141
2.0
290
     0
  0
SCALE
  5
4A
102
{ACAD_REACTORS
330
47
102
}
330
47
100
AcDbScale
 70
     0
300
1:4
140
1.0
141
4.0
290
     0
  0
SCALE
  5
4B
102
{ACAD_REACTORS
330
47
102
}
330
47
100
AcDbScale
 70
     0
300
1:5
140
1.0
141
5.0
290
     0
  0
SCALE
  5
4C
102
{ACAD_REACTORS
330
47
102
}
330
47
100
AcDbScale
 70
     0
300
1:8
140
1.0
141
8.0
290
     0
  0
SCALE
  5
4D
102
{ACAD_REACTORS
330
47
102
}
330
47
100
AcDbScale
 70
     0
300
1:10
140
1.0
141
10.0
290
     0
  0
SCALE
  5
4E
102
{ACAD_REACTORS
330
47
102
}
330
47
100
AcDbScale
 70
     0
300
1:16
140
1.0
141
16.0
290
     0
  0
SCALE
  5
4F
102
{ACAD_REACTORS
330
47
102
}
330
47
100
AcDbScale
 70
     0
300
1:20
140
1.0
141
20.0
290
     0
  0
SCALE
  5
50
102
{ACAD_REACTORS
330
47
102
}
330
47
100
AcDbScale
 70
     0
300
1:30
140
1.0
141
30.0
290
     0
  0
SCALE
  5
51
102
{ACAD_REACTORS
330
47
102
}
330
47
100
AcDbScale
 70
     0
300
1:40
140
1.0
141
40.0
290
     0
  0
SCALE
  5
52
102
{ACAD_REACTORS
330
47
102
}
330
47
100
AcDbScale
 70
     0
300
1:50
140
1.0
141
50.0
290
     0
  0
SCALE
  5
53
102
{ACAD_REACTORS
330
47
102
}
330
47
100
AcDbScale
 70
     0
300
1:100
140
1.0
141
100.0
290
     0
  0
SCALE
  5
54
102
{ACAD_REACTORS
330
47
102
}
330
47
100
AcDbScale
 70
     0
300
2:1
140
2.0
141
1.0
290
     0
  0
SCALE
  5
55
102
{ACAD_REACTORS
330
47
102
}
330
47
100
AcDbScale
 70
     0
300
4:1
140
4.0
141
1.0
290
     0
  0
SCALE
  5
56
102
{ACAD_REACTORS
330
47
102
}
330
47
100
AcDbScale
 70
     0
300
8:1
140
8.0
141
1.0
290
     0
  0
SCALE
  5
57
102
{ACAD_REACTORS
330
47
102
}
330
47
100
AcDbScale
 70
     0
300
10:1
140
10.0
141
1.0
290
     0
  0
SCALE
  5
58
102
{ACAD_REACTORS
330
47
102
}
330
47
100
AcDbScale
 70
     0
300
100:1
140
100.0
141
1.0
290
     0
  0
SCALE
  5
59
102
{ACAD_REACTORS
330
47
102
}
330
47
100
AcDbScale
 70
     0
300
1/128" = 1'-0"
140
0.0078125
141
12.0
290
     0
  0
SCALE
  5
5A
102
{ACAD_REACTORS
330
47
102
}
330
47
100
AcDbScale
 70
     0
300
1/64" = 1'-0"
140
0.015625
141
12.0
290
     0
  0
SCALE
  5
5B
102
{ACAD_REACTORS
330
47
102
}
330
47
100
AcDbScale
 70
     0
300
1/32" = 1'-0"
140
0.03125
141
12.0
290
     0
  0
SCALE
  5
5C
102
{ACAD_REACTORS
330
47
102
}
330
47
100
AcDbScale
 70
     0
300
1/16" = 1'-0"
140
0.0625
141
12.0
290
     0
  0
SCALE
  5
5D
102
{ACAD_REACTORS
330
47
102
}
330
47
100
AcDbScale
 70
     0
300
3/32" = 1'-0"
140
0.09375
141
12.0
290
     0
  0
SCALE
  5
5E
102
{ACAD_REACTORS
330
47
102
}
330
47
100
AcDbScale
 70
     0
300
1/8" = 1'-0"
140
0.125
141
12.0
290
     0
  0
SCALE
  5
5F
102
{ACAD_REACTORS
330
47
102
}
330
47
100
AcDbScale
 70
     0
300
3/16" = 1'-0"
140
0.1875
141
12.0
290
     0
  0
SCALE
  5
60
102
{ACAD_REACTORS
330
47
102
}
330
47
100
AcDbScale
 70
     0
300
1/4" = 1'-0"
140
0.25
141
12.0
290
     0
  0
SCALE
  5
61
102
{ACAD_REACTORS
330
47
102
}
330
47
100
AcDbScale
 70
     0
300
3/8" = 1'-0"
140
0.375
141
12.0
290
     0
  0
SCALE
  5
62
102
{ACAD_REACTORS
330
47
102
}
330
47
100
AcDbScale
 70
     0
300
1/2" = 1'-0"
140
0.5
141
12.0
290
     0
  0
SCALE
  5
63
102
{ACAD_REACTORS
330
47
102
}
330
47
100
AcDbScale
 70
     0
300
3/4" = 1'-0"
140
0.75
141
12.0
290
     0
  0
SCALE
  5
64
102
{ACAD_REACTORS
330
47
102
}
330
47
100
AcDbScale
 70
     0
300
1" = 1'-0"
140
1.0
141
12.0
290
     0
  0
SCALE
  5
65
102
{ACAD_REACTORS
330
47
102
}
330
47
100
AcDbScale
 70
     0
300
1-1/2" = 1'-0"
140
1.5
141
12.0
290
     0
  0
SCALE
  5
66
102
{ACAD_REACTORS
330
47
102
}
330
47
100
AcDbScale
 70
     0
300
3" = 1'-0"
140
3.0
141
12.0
290
     0
  0
SCALE
  5
67
102
{ACAD_REACTORS
330
47
102
}
330
47
100
AcDbScale
 70
     0
300
6" = 1'-0"
140
6.0
141
12.0
290
     0
  0
SCALE
  5
68
102
{ACAD_REACTORS
330
47
102
}
330
47
100
AcDbScale
 70
     0
300
1'-0" = 1'-0"
140
12.0
141
12.0
290
     0
  0
ENDSEC
  0
EOF
