  0
SECTION
  2
HEADER
  9
$ACADVER
  1
AC1015
  9
$ACADMAINTVER
 70
     6
  9
$DWGCODEPAGE
  3
ANSI_949
  9
$INSBASE
 10
0.0
 20
0.0
 30
0.0
  9
$EXTMIN
 10
-38.09932052846543
 20
-39.99892507127611
 30
0.0
  9
$EXTMAX
 10
81.21241335422452
 20
40.75625000000002
 30
0.0
  9
$LIMMIN
 10
0.0
 20
0.0
  9
$LIMMAX
 10
420.0
 20
297.0
  9
$ORTHOMODE
 70
     0
  9
$REGENMODE
 70
     1
  9
$FILLMODE
 70
     1
  9
$QTEXTMODE
 70
     0
  9
$MIRRTEXT
 70
     1
  9
$LTSCALE
 40
1.0
  9
$ATTMODE
 70
     1
  9
$TEXTSIZE
 40
3.5
  9
$TRACEWID
 40
1.0
  9
$TEXTSTYLE
  7
Standard
  9
$CLAYER
  8
0
  9
$CELTYPE
  6
ByLayer
  9
$CECOLOR
 62
   256
  9
$CELTSCALE
 40
1.0
  9
$DISPSILH
 70
     0
  9
$DIMSCALE
 40
1.0
  9
$DIMASZ
 40
3.302
  9
$DIMEXO
 40
1.0
  9
$DIMDLI
 40
3.75
  9
$DIMRND
 40
0.0
  9
$DIMDLE
 40
0.0
  9
$DIMEXE
 40
1.0
  9
$DIMTP
 40
0.0
  9
$DIMTM
 40
0.0
  9
$DIMTXT
 40
3.5
  9
$DIMCEN
 40
2.5
  9
$DIMTSZ
 40
0.0
  9
$DIMTOL
 70
     0
  9
$DIMLIM
 70
     0
  9
$DIMTIH
 70
     1
  9
$DIMTOH
 70
     1
  9
$DIMSE1
 70
     0
  9
$DIMSE2
 70
     0
  9
$DIMTAD
 70
     1
  9
$DIMZIN
 70
     0
  9
$DIMBLK
  1

  9
$DIMASO
 70
     1
  9
$DIMSHO
 70
     1
  9
$DIMPOST
  1

  9
$DIMAPOST
  1

  9
$DIMALT
 70
     0
  9
$DIMALTD
 70
     3
  9
$DIMALTF
 40
0.0393700787401575
  9
$DIMLFAC
 40
1.0
  9
$DIMTOFL
 70
     1
  9
$DIMTVP
 40
0.0
  9
$DIMTIX
 70
     0
  9
$DIMSOXD
 70
     0
  9
$DIMSAH
 70
     0
  9
$DIMBLK1
  1

  9
$DIMBLK2
  1

  9
$DIMSTYLE
  2
ISO-25
  9
$DIMCLRD
 70
     0
  9
$DIMCLRE
 70
     0
  9
$DIMCLRT
 70
     0
  9
$DIMTFAC
 40
1.0
  9
$DIMGAP
 40
1.524
  9
$DIMJUST
 70
     0
  9
$DIMSD1
 70
     0
  9
$DIMSD2
 70
     0
  9
$DIMTOLJ
 70
     0
  9
$DIMTZIN
 70
     0
  9
$DIMALTZ
 70
     0
  9
$DIMALTTZ
 70
     0
  9
$DIMUPT
 70
     0
  9
$DIMDEC
 70
     2
  9
$DIMTDEC
 70
     2
  9
$DIMALTU
 70
     2
  9
$DIMALTTD
 70
     3
  9
$DIMTXSTY
  7
Standard
  9
$DIMAUNIT
 70
     0
  9
$DIMADEC
 70
     2
  9
$DIMALTRND
 40
0.0
  9
$DIMAZIN
 70
     0
  9
$DIMDSEP
 70
    44
  9
$DIMATFIT
 70
     3
  9
$DIMFRAC
 70
     0
  9
$DIMLDRBLK
  1

  9
$DIMLUNIT
 70
     2
  9
$DIMLWD
 70
    -2
  9
$DIMLWE
 70
    -2
  9
$DIMTMOVE
 70
     0
  9
$LUNITS
 70
     2
  9
$LUPREC
 70
     2
  9
$SKETCHINC
 40
1.0
  9
$FILLETRAD
 40
10.0
  9
$AUNITS
 70
     0
  9
$AUPREC
 70
     2
  9
$MENU
  1
.
  9
$ELEVATION
 40
0.0
  9
$PELEVATION
 40
0.0
  9
$THICKNESS
 40
0.0
  9
$LIMCHECK
 70
     0
  9
$CHAMFERA
 40
0.0
  9
$CHAMFERB
 40
0.0
  9
$CHAMFERC
 40
0.0
  9
$CHAMFERD
 40
0.0
  9
$SKPOLY
 70
     0
  9
$TDCREATE
 40
2458313.424955301
  9
$TDUCREATE
 40
2458313.049955301
  9
$TDUPDATE
 40
2459719.639576504
  9
$TDUUPDATE
 40
2459719.264576504
  9
$TDINDWG
 40
0.0010968287
  9
$TDUSRTIMER
 40
0.0002494444
  9
$USRTIMER
 70
     1
  9
$ANGBASE
 50
0.0
  9
$ANGDIR
 70
     0
  9
$PDMODE
 70
     0
  9
$PDSIZE
 40
-1.0
  9
$PLINEWID
 40
0.0
  9
$SPLFRAME
 70
     0
  9
$SPLINETYPE
 70
     6
  9
$SPLINESEGS
 70
     8
  9
$HANDSEED
  5
355
  9
$SURFTAB1
 70
     6
  9
$SURFTAB2
 70
     6
  9
$SURFTYPE
 70
     6
  9
$SURFU
 70
     6
  9
$SURFV
 70
     6
  9
$UCSBASE
  2

  9
$UCSNAME
  2

  9
$UCSORG
 10
0.0
 20
0.0
 30
0.0
  9
$UCSXDIR
 10
1.0
 20
0.0
 30
0.0
  9
$UCSYDIR
 10
0.0
 20
1.0
 30
0.0
  9
$UCSORTHOREF
  2

  9
$UCSORTHOVIEW
 70
     0
  9
$UCSORGTOP
 10
0.0
 20
0.0
 30
0.0
  9
$UCSORGBOTTOM
 10
0.0
 20
0.0
 30
0.0
  9
$UCSORGLEFT
 10
0.0
 20
0.0
 30
0.0
  9
$UCSORGRIGHT
 10
0.0
 20
0.0
 30
0.0
  9
$UCSORGFRONT
 10
0.0
 20
0.0
 30
0.0
  9
$UCSORGBACK
 10
0.0
 20
0.0
 30
0.0
  9
$PUCSBASE
  2

  9
$PUCSNAME
  2

  9
$PUCSORG
 10
0.0
 20
0.0
 30
0.0
  9
$PUCSXDIR
 10
1.0
 20
0.0
 30
0.0
  9
$PUCSYDIR
 10
0.0
 20
1.0
 30
0.0
  9
$PUCSORTHOREF
  2

  9
$PUCSORTHOVIEW
 70
     0
  9
$PUCSORGTOP
 10
0.0
 20
0.0
 30
0.0
  9
$PUCSORGBOTTOM
 10
0.0
 20
0.0
 30
0.0
  9
$PUCSORGLEFT
 10
0.0
 20
0.0
 30
0.0
  9
$PUCSORGRIGHT
 10
0.0
 20
0.0
 30
0.0
  9
$PUCSORGFRONT
 10
0.0
 20
0.0
 30
0.0
  9
$PUCSORGBACK
 10
0.0
 20
0.0
 30
0.0
  9
$USERI1
 70
     0
  9
$USERI2
 70
     0
  9
$USERI3
 70
     0
  9
$USERI4
 70
     0
  9
$USERI5
 70
     0
  9
$USERR1
 40
0.0
  9
$USERR2
 40
0.0
  9
$USERR3
 40
0.0
  9
$USERR4
 40
0.0
  9
$USERR5
 40
0.0
  9
$WORLDVIEW
 70
     1
  9
$SHADEDGE
 70
     3
  9
$SHADEDIF
 70
    70
  9
$TILEMODE
 70
     1
  9
$MAXACTVP
 70
    64
  9
$PINSBASE
 10
0.0
 20
0.0
 30
0.0
  9
$PLIMCHECK
 70
     0
  9
$PEXTMIN
 10
1.000000000000000E+20
 20
1.000000000000000E+20
 30
1.000000000000000E+20
  9
$PEXTMAX
 10
-1.000000000000000E+20
 20
-1.000000000000000E+20
 30
-1.000000000000000E+20
  9
$PLIMMIN
 10
0.0
 20
0.0
  9
$PLIMMAX
 10
0.0
 20
0.0
  9
$UNITMODE
 70
     0
  9
$VISRETAIN
 70
     1
  9
$PLINEGEN
 70
     0
  9
$PSLTSCALE
 70
     1
  9
$TREEDEPTH
 70
  3020
  9
$CMLSTYLE
  2
Standard
  9
$CMLJUST
 70
     0
  9
$CMLSCALE
 40
20.0
  9
$PROXYGRAPHICS
 70
     1
  9
$MEASUREMENT
 70
     1
  9
$CELWEIGHT
370
    -1
  9
$ENDCAPS
280
     0
  9
$JOINSTYLE
280
     0
  9
$LWDISPLAY
290
     1
  9
$INSUNITS
 70
     4
  9
$HYPERLINKBASE
  1

  9
$STYLESHEET
  1

  9
$XEDIT
290
     1
  9
$CEPSNTYPE
380
     0
  9
$PSTYLEMODE
290
     1
  9
$FINGERPRINTGUID
  2
{8DE78424-02FA-462E-8F86-6BCB736C844B}
  9
$VERSIONGUID
  2
{FAEB1C32-E019-11D5-929B-00C0DF256EC4}
  9
$EXTNAMES
290
     1
  9
$PSVPSCALE
 40
0.0
  9
$OLESTARTUP
290
     0
  0
ENDSEC
  0
SECTION
  2
CLASSES
  0
CLASS
  1
ACDBDICTIONARYWDFLT
  2
AcDbDictionaryWithDefault
  3
ObjectDBX Classes
 90
        0
280
     0
281
     0
  0
CLASS
  1
VISUALSTYLE
  2
AcDbVisualStyle
  3
ObjectDBX Classes
 90
     4095
280
     0
281
     0
  0
CLASS
  1
MATERIAL
  2
AcDbMaterial
  3
ObjectDBX Classes
 90
     1153
280
     0
281
     0
  0
CLASS
  1
SCALE
  2
AcDbScale
  3
ObjectDBX Classes
 90
     1153
280
     0
281
     0
  0
CLASS
  1
SUN
  2
AcDbSun
  3
SCENEOE
 90
     1153
280
     0
281
     0
  0
CLASS
  1
ACDBPLACEHOLDER
  2
AcDbPlaceHolder
  3
ObjectDBX Classes
 90
        0
280
     0
281
     0
  0
CLASS
  1
LAYOUT
  2
AcDbLayout
  3
ObjectDBX Classes
 90
        0
280
     0
281
     0
  0
CLASS
  1
TABLESTYLE
  2
AcDbTableStyle
  3
ObjectDBX Classes
 90
     4095
280
     0
281
     0
  0
CLASS
  1
MLEADERSTYLE
  2
AcDbMLeaderStyle
  3
ACDB_MLEADERSTYLE_CLASS
 90
     4095
280
     0
281
     0
  0
CLASS
  1
RASTERVARIABLES
  2
AcDbRasterVariables
  3
ISM
 90
        0
280
     0
281
     0
  0
ENDSEC
  0
SECTION
  2
TABLES
  0
TABLE
  2
VPORT
  5
8
330
0
100
AcDbSymbolTable
 70
     1
  0
VPORT
  5
29
330
8
100
AcDbSymbolTableRecord
100
AcDbViewportTableRecord
  2
*Active
 70
     0
 10
0.0
 20
0.0
 11
1.0
 21
1.0
 12
-3.420710070741563
 22
6.58259667541361
 13
0.0
 23
0.0
 14
10.0
 24
10.0
 15
10.0
 25
10.0
 16
0.0
 26
0.0
 36
1.0
 17
0.0
 27
0.0
 37
0.0
 40
77.69244552076665
 41
1.519944979367263
 42
50.0
 43
0.0
 44
0.0
 50
0.0
 51
0.0
 71
    16
 72
  2000
 73
     1
 74
     3
 75
     0
 76
     0
 77
     0
 78
     0
281
     0
 65
     1
110
0.0
120
0.0
130
0.0
111
1.0
121
0.0
131
0.0
112
0.0
122
1.0
132
0.0
 79
     0
146
0.0
  0
ENDTAB
  0
TABLE
  2
LTYPE
  5
5
330
0
100
AcDbSymbolTable
 70
     6
  0
LTYPE
  5
14
330
5
100
AcDbSymbolTableRecord
100
AcDbLinetypeTableRecord
  2
ByBlock
 70
     0
  3

 72
    65
 73
     0
 40
0.0
  0
LTYPE
  5
15
330
5
100
AcDbSymbolTableRecord
100
AcDbLinetypeTableRecord
  2
ByLayer
 70
     0
  3

 72
    65
 73
     0
 40
0.0
  0
LTYPE
  5
16
330
5
100
AcDbSymbolTableRecord
100
AcDbLinetypeTableRecord
  2
Continuous
 70
     0
  3
Solid line
 72
    65
 73
     0
 40
0.0
  0
LTYPE
  5
6A
330
5
100
AcDbSymbolTableRecord
100
AcDbLinetypeTableRecord
  2
HIDDEN
 70
     0
  3
Hidden __ __ __ __ __ __ __ __ __ __ __ __ __ __
 72
    65
 73
     2
 40
1.905
 49
1.27
 74
     0
 49
-0.635
 74
     0
  0
LTYPE
  5
6B
330
5
100
AcDbSymbolTableRecord
100
AcDbLinetypeTableRecord
  2
PHANTOM
 70
     0
  3
Phantom ______  __  __  ______  __  __  ______
 72
    65
 73
     6
 40
12.7
 49
6.35
 74
     0
 49
-1.27
 74
     0
 49
1.27
 74
     0
 49
-1.27
 74
     0
 49
1.27
 74
     0
 49
-1.27
 74
     0
  0
LTYPE
  5
6C
330
5
100
AcDbSymbolTableRecord
100
AcDbLinetypeTableRecord
  2
CENTER
 70
     0
  3
Center ____ _ ____ _ ____ _ ____ _ ____ _ ____
 72
    65
 73
     4
 40
10.16
 49
6.35
 74
     0
 49
-1.27
 74
     0
 49
1.27
 74
     0
 49
-1.27
 74
     0
  0
LTYPE
  5
6D
330
5
100
AcDbSymbolTableRecord
100
AcDbLinetypeTableRecord
  2
CENTERX2
 70
     0
  3
Center (2x) ________  __  ________  __  _____
 72
    65
 73
     4
 40
20.32
 49
12.7
 74
     0
 49
-2.54
 74
     0
 49
2.54
 74
     0
 49
-2.54
 74
     0
  0
LTYPE
  5
6E
330
5
100
AcDbSymbolTableRecord
100
AcDbLinetypeTableRecord
  2
DOT2
 70
     0
  3
Dot (.5x) ........................................
 72
    65
 73
     2
 40
0.635
 49
0.0
 74
     0
 49
-0.635
 74
     0
  0
ENDTAB
  0
TABLE
  2
LAYER
  5
2
102
{ACAD_XDICTIONARY
360
215
102
}
330
0
100
AcDbSymbolTable
 70
    18
  0
LAYER
  5
10
330
2
100
AcDbSymbolTableRecord
100
AcDbLayerTableRecord
  2
0
 70
     0
 62
     7
  6
Continuous
370
    -3
390
F
  0
LAYER
  5
6F
330
2
100
AcDbSymbolTableRecord
100
AcDbLayerTableRecord
  2
FORMAT
 70
     0
 62
     2
  6
Continuous
370
    -3
390
F
  0
LAYER
  5
70
330
2
100
AcDbSymbolTableRecord
100
AcDbLayerTableRecord
  2
외형선
 70
     0
 62
     4
  6
Continuous
370
    30
390
F
  0
LAYER
  5
71
330
2
100
AcDbSymbolTableRecord
100
AcDbLayerTableRecord
  2
숨은선
 70
     0
 62
     2
  6
HIDDEN
370
    15
390
F
  0
LAYER
  5
72
330
2
100
AcDbSymbolTableRecord
100
AcDbLayerTableRecord
  2
중심선
 70
     0
 62
     1
  6
CENTERX2
370
    -3
390
F
  0
LAYER
  5
73
330
2
100
AcDbSymbolTableRecord
100
AcDbLayerTableRecord
  2
파단선
 70
     0
 62
     4
  6
Continuous
370
    -3
390
F
  0
LAYER
  5
74
330
2
100
AcDbSymbolTableRecord
100
AcDbLayerTableRecord
  2
해칭선
 70
     0
 62
   100
  6
Continuous
370
    -3
390
F
  0
LAYER
  5
75
330
2
100
AcDbSymbolTableRecord
100
AcDbLayerTableRecord
  2
가는실선
 70
     0
 62
     4
  6
Continuous
370
    -3
390
F
  0
LAYER
  5
76
330
2
100
AcDbSymbolTableRecord
100
AcDbLayerTableRecord
  2
치수_보조선
 70
     0
 62
     4
  6
Continuous
370
    -3
390
F
  0
LAYER
  5
77
330
2
100
AcDbSymbolTableRecord
100
AcDbLayerTableRecord
  2
치수문자_일반주서
 70
     0
 62
     7
  6
Continuous
370
    15
390
F
  0
LAYER
  5
78
330
2
100
AcDbSymbolTableRecord
100
AcDbLayerTableRecord
  2
개별주서
 70
     0
 62
   100
  6
Continuous
370
    30
390
F
  0
LAYER
  5
79
330
2
100
AcDbSymbolTableRecord
100
AcDbLayerTableRecord
  2
중간선
 70
     0
 62
     2
  6
Continuous
370
    15
390
F
  0
LAYER
  5
7A
330
2
100
AcDbSymbolTableRecord
100
AcDbLayerTableRecord
  2
윤곽선
 70
     0
 62
     3
  6
Continuous
370
    40
390
F
  0
LAYER
  5
7B
330
2
100
AcDbSymbolTableRecord
100
AcDbLayerTableRecord
  2
중심마크
 70
     0
 62
   100
  6
Continuous
370
    30
390
F
  0
LAYER
  5
7C
330
2
100
AcDbSymbolTableRecord
100
AcDbLayerTableRecord
  2
가상선
 70
     0
 62
     4
  6
PHANTOM
370
    -3
390
F
  0
LAYER
  5
7D
330
2
100
AcDbSymbolTableRecord
100
AcDbLayerTableRecord
  2
특수지정선
 70
     0
 62
     5
  6
CENTERX2
370
    60
390
F
  0
LAYER
  5
7E
330
2
100
AcDbSymbolTableRecord
100
AcDbLayerTableRecord
  2
참조1
 70
     0
 62
    -4
  6
Continuous
370
    -3
390
F
  0
LAYER
  5
15D
330
2
100
AcDbSymbolTableRecord
100
AcDbLayerTableRecord
  2
Defpoints
 70
     0
 62
     7
  6
Continuous
290
     0
370
    -3
390
F
  0
ENDTAB
  0
TABLE
  2
STYLE
  5
3
330
0
100
AcDbSymbolTable
 70
     2
  0
STYLE
  5
11
330
3
100
AcDbSymbolTableRecord
100
AcDbTextStyleTableRecord
  2
Standard
 70
     0
 40
0.0
 41
1.0
 50
0.0
 71
     0
 42
3.5
  3
txt
  4

  0
STYLE
  5
94
330
3
100
AcDbSymbolTableRecord
100
AcDbTextStyleTableRecord
  2
SLDTEXTSTYLE0
 70
     0
 40
0.0
 41
0.75
 50
0.0
 71
     0
 42
3.5
  3
TXT
  4

  0
ENDTAB
  0
TABLE
  2
VIEW
  5
6
330
0
100
AcDbSymbolTable
 70
     0
  0
ENDTAB
  0
TABLE
  2
UCS
  5
7
330
0
100
AcDbSymbolTable
 70
     0
  0
ENDTAB
  0
TABLE
  2
APPID
  5
9
330
0
100
AcDbSymbolTable
 70
     3
  0
APPID
  5
12
330
9
100
AcDbSymbolTableRecord
100
AcDbRegAppTableRecord
  2
ACAD
 70
     0
  0
APPID
  5
169
330
9
100
AcDbSymbolTableRecord
100
AcDbRegAppTableRecord
  2
PE_URL
 70
     0
  0
APPID
  5
16A
330
9
100
AcDbSymbolTableRecord
100
AcDbRegAppTableRecord
  2
ACAD_DSTYLE_DIMRADIAL_EXTENSION
 70
     0
  0
ENDTAB
  0
TABLE
  2
DIMSTYLE
  5
A
330
0
100
AcDbSymbolTable
 70
     4
100
AcDbDimStyleTable
  0
DIMSTYLE
105
27
330
A
100
AcDbSymbolTableRecord
100
AcDbDimStyleTableRecord
  2
ISO-25
 70
     0
 41
2.5
 42
0.625
 43
3.75
 44
1.25
 73
     0
 74
     0
 77
     1
 78
     8
140
2.5
141
2.5
143
0.03937007874016
147
0.625
171
     3
172
     1
178
     0
271
     2
272
     2
274
     3
278
    44
283
     0
284
     8
340
11
  0
DIMSTYLE
105
D9
102
{ACAD_REACTORS
330
D8
330
ED
330
101
330
116
102
}
330
A
100
AcDbSymbolTableRecord
100
AcDbDimStyleTableRecord
  2
SLDDIMSTYLE0
 70
     0
 41
3.302
 44
0.0
 45
0.000000001
 73
     0
 74
     0
 77
     1
 78
    12
 79
     3
140
3.5
143
0.0393700787401575
147
0.875
148
0.000000001
170
     1
172
     1
173
     1
178
     0
271
     2
272
     2
276
     2
284
    12
289
     0
340
94
  0
DIMSTYLE
105
102
102
{ACAD_REACTORS
102
}
330
A
100
AcDbSymbolTableRecord
100
AcDbDimStyleTableRecord
  2
SLDDIMSTYLE1
 70
     0
 41
3.302
 44
0.0
 45
0.000000001
 73
     0
 74
     0
 77
     1
 78
    12
 79
     3
140
3.5
143
0.0393700787401575
147
0.875
148
0.000000001
170
     1
173
     1
178
     0
271
     2
272
     2
276
     2
284
    12
340
94
  0
DIMSTYLE
105
117
102
{ACAD_REACTORS
102
}
330
A
100
AcDbSymbolTableRecord
100
AcDbDimStyleTableRecord
  2
SLDDIMSTYLE2
 70
     0
 41
3.302
 44
0.0
 45
0.000000001
 73
     0
 74
     0
 77
     1
 78
     4
 79
     1
140
3.5
143
0.0393700787401575
147
0.875
148
0.000000001
170
     1
173
     1
178
     0
271
     2
272
     2
276
     2
284
    12
340
94
  0
ENDTAB
  0
TABLE
  2
BLOCK_RECORD
  5
1
330
0
100
AcDbSymbolTable
 70
    20
  0
BLOCK_RECORD
  5
1F
102
{ACAD_XDICTIONARY
360
352
102
}
330
1
100
AcDbSymbolTableRecord
100
AcDbBlockTableRecord
  2
*Model_Space
340
22
  0
BLOCK_RECORD
  5
1B
330
1
100
AcDbSymbolTableRecord
100
AcDbBlockTableRecord
  2
*Paper_Space
340
1E
  0
BLOCK_RECORD
  5
23
330
1
100
AcDbSymbolTableRecord
100
AcDbBlockTableRecord
  2
*Paper_Space0
340
26
  0
BLOCK_RECORD
  5
7F
330
1
100
AcDbSymbolTableRecord
100
AcDbBlockTableRecord
  2
블럭10
340
0
102
{BLKREFS
331
D1
102
}
  0
BLOCK_RECORD
  5
DA
330
1
100
AcDbSymbolTableRecord
100
AcDbBlockTableRecord
  2
_D
340
0
  0
BLOCK_RECORD
  5
EE
330
1
100
AcDbSymbolTableRecord
100
AcDbBlockTableRecord
  2
_D_1
340
0
  0
BLOCK_RECORD
  5
103
330
1
100
AcDbSymbolTableRecord
100
AcDbBlockTableRecord
  2
_D_2
340
0
  0
BLOCK_RECORD
  5
118
330
1
100
AcDbSymbolTableRecord
100
AcDbBlockTableRecord
  2
_D_3
340
0
  0
BLOCK_RECORD
  5
131
330
1
100
AcDbSymbolTableRecord
100
AcDbBlockTableRecord
  2
SW_DOWELSYMBOL_0
340
0
102
{BLKREFS
331
137
102
}
  0
BLOCK_RECORD
  5
1F3
330
1
100
AcDbSymbolTableRecord
100
AcDbBlockTableRecord
  2
_D_4
340
0
  0
BLOCK_RECORD
  5
20D
330
1
100
AcDbSymbolTableRecord
100
AcDbBlockTableRecord
  2
*D8
340
0
  0
BLOCK_RECORD
  5
219
330
1
100
AcDbSymbolTableRecord
100
AcDbBlockTableRecord
  2
*D9
340
0
  0
BLOCK_RECORD
  5
225
330
1
100
AcDbSymbolTableRecord
100
AcDbBlockTableRecord
  2
*D10
340
0
  0
BLOCK_RECORD
  5
231
330
1
100
AcDbSymbolTableRecord
100
AcDbBlockTableRecord
  2
*D11
340
0
  0
BLOCK_RECORD
  5
28C
330
1
100
AcDbSymbolTableRecord
100
AcDbBlockTableRecord
  2
*D12
340
0
  0
BLOCK_RECORD
  5
298
330
1
100
AcDbSymbolTableRecord
100
AcDbBlockTableRecord
  2
*D13
340
0
  0
BLOCK_RECORD
  5
2A4
330
1
100
AcDbSymbolTableRecord
100
AcDbBlockTableRecord
  2
*D14
340
0
  0
BLOCK_RECORD
  5
2B2
330
1
100
AcDbSymbolTableRecord
100
AcDbBlockTableRecord
  2
*D15
340
0
  0
BLOCK_RECORD
  5
2C0
330
1
100
AcDbSymbolTableRecord
100
AcDbBlockTableRecord
  2
*D16
340
0
  0
BLOCK_RECORD
  5
302
330
1
100
AcDbSymbolTableRecord
100
AcDbBlockTableRecord
  2
*D17
340
0
  0
BLOCK_RECORD
  5
311
330
1
100
AcDbSymbolTableRecord
100
AcDbBlockTableRecord
  2
*D18
340
0
  0
BLOCK_RECORD
  5
320
330
1
100
AcDbSymbolTableRecord
100
AcDbBlockTableRecord
  2
*D19
340
0
  0
ENDTAB
  0
ENDSEC
  0
SECTION
  2
BLOCKS
  0
BLOCK
  5
20
330
1F
100
AcDbEntity
  8
0
100
AcDbBlockBegin
  2
*Model_Space
 70
     0
 10
0.0
 20
0.0
 30
0.0
  3
*Model_Space
  1
*Model_Space
  0
ENDBLK
  5
21
330
1F
100
AcDbEntity
  8
0
100
AcDbBlockEnd
  0
BLOCK
  5
1C
330
1B
100
AcDbEntity
 67
     1
  8
0
100
AcDbBlockBegin
  2
*Paper_Space
 70
     0
 10
0.0
 20
0.0
 30
0.0
  3
*Paper_Space
  1
*Paper_Space
  0
ENDBLK
  5
1D
330
1B
100
AcDbEntity
 67
     1
  8
0
100
AcDbBlockEnd
  0
BLOCK
  5
24
330
23
100
AcDbEntity
  8
0
100
AcDbBlockBegin
  2
*Paper_Space0
 70
     0
 10
0.0
 20
0.0
 30
0.0
  3
*Paper_Space0
  1
*Paper_Space0
  0
ENDBLK
  5
25
330
23
100
AcDbEntity
  8
0
100
AcDbBlockEnd
  0
BLOCK
  5
80
330
7F
100
AcDbEntity
  8
0
100
AcDbBlockBegin
  2
블럭10
 70
     2
 10
0.0
 20
0.0
 30
0.0
  3
블럭10
  1
블럭10
  0
ELLIPSE
  5
82
330
7F
100
AcDbEntity
  8
중심선
100
AcDbEllipse
 10
20.54032771741204
 20
12.0471743016438
 30
0.0
 11
6.600054785286829
 21
-1.261213355974178E-13
 31
0.0
210
0.0
220
0.0
230
1.0
 40
0.636358354079598
 41
0.9219305317359503
 42
6.513795318482858
  0
ELLIPSE
  5
83
330
7F
100
AcDbEntity
  8
중심선
100
AcDbEllipse
 10
20.54032771746488
 20
12.04717430159265
 30
0.0
 11
3.960054785062283
 21
1.540847449632565E-10
 31
0.0
210
0.0
220
0.0
230
1.0
 40
0.3939339440162632
 41
1.131841032648279
 42
5.62031148352944
  0
LINE
  5
84
330
7F
100
AcDbEntity
  8
중심선
100
AcDbLine
 10
2.268634060543552
 20
16.24717430164393
 30
0.0
 11
5.714909304380834
 21
16.24717430164393
 31
0.0
  0
LINE
  5
85
330
7F
100
AcDbEntity
  8
중심선
100
AcDbLine
 10
5.245725140726316
 20
7.84717430164391
 30
0.0
 11
8.692000384563599
 21
7.84717430164391
 31
0.0
  0
LINE
  5
86
330
7F
100
AcDbEntity
  8
중심선
100
AcDbLine
 10
15.74043728645272
 20
16.24717430164393
 30
0.0
 11
8.692000384563599
 21
7.84717430164391
 31
0.0
  0
LINE
  5
87
330
7F
100
AcDbEntity
  8
중심선
100
AcDbLine
 10
0.1404042013395286
 20
13.71084872107135
 30
0.0
 11
3.58671253028996
 21
13.71088815037384
 31
0.0
  0
LINE
  5
88
330
7F
100
AcDbEntity
  8
중심선
100
AcDbLine
 10
2.750260043222114
 20
10.84717430164391
 30
0.0
 11
6.196535287059397
 21
10.84717430164391
 31
0.0
  0
LINE
  5
89
330
7F
100
AcDbEntity
  8
중심선
100
AcDbLine
 10
12.29416204261559
 20
16.24717430164393
 30
0.0
 11
5.245725140726316
 21
7.84717430164391
 31
0.0
  0
LINE
  5
8A
330
7F
100
AcDbEntity
  8
중심선
100
AcDbLine
 10
10.72767329541681
 20
16.24717430164393
 30
0.0
 11
6.196535287059397
 21
10.84717430164391
 31
0.0
  0
LINE
  5
8B
330
7F
100
AcDbEntity
  8
중심선
100
AcDbLine
 10
7.28139805157953
 20
16.24717430164393
 30
0.0
 11
2.750260043222114
 21
10.84717430164391
 31
0.0
  0
LINE
  5
8C
330
7F
100
AcDbEntity
  8
중심선
100
AcDbLine
 10
5.714909304380834
 20
16.24717430164393
 30
0.0
 11
3.58671253028996
 21
13.71088815037384
 31
0.0
  0
LINE
  5
8D
330
7F
100
AcDbEntity
  8
중심선
100
AcDbLine
 10
2.268634060543552
 20
16.24717430164393
 30
0.0
 11
0.1404042013395286
 21
13.71084872107135
 31
0.0
  0
LINE
  5
8E
330
7F
100
AcDbEntity
  8
중심선
100
AcDbLine
 10
7.28139805157953
 20
16.24717430164393
 30
0.0
 11
10.72767329541681
 21
16.24717430164393
 31
0.0
  0
LINE
  5
8F
330
7F
100
AcDbEntity
  8
중심선
100
AcDbLine
 10
12.29416204261559
 20
16.24717430164393
 30
0.0
 11
15.74043728645272
 21
16.24717430164393
 31
0.0
  0
LINE
  5
90
330
7F
100
AcDbEntity
  8
중심선
100
AcDbLine
 10
19.22036997980202
 20
11.08717430171403
 30
0.0
 11
23.66174974927406
 21
11.08717430171406
 31
0.0
  0
LINE
  5
91
330
7F
100
AcDbEntity
  8
중심선
100
AcDbLine
 10
19.22039502424796
 20
13.00717430171391
 30
0.0
 11
19.22036997980202
 21
11.08717430171403
 31
0.0
  0
LINE
  5
92
330
7F
100
AcDbEntity
  8
중심선
100
AcDbLine
 10
19.22039502424796
 20
13.00717430171391
 30
0.0
 11
26.96566020931264
 21
13.00717430171391
 31
0.0
  0
LINE
  5
93
330
7F
100
AcDbEntity
  8
중심선
100
AcDbLine
 10
22.22332737316547
 20
13.45928029700563
 30
0.0
 11
24.52862924686651
 21
15.39360700705356
 31
0.0
  0
ATTDEF
  5
95
330
7F
100
AcDbEntity
  8
FORMAT
 62
     2
100
AcDbText
 10
4.408487351596664
 20
2.075366912832191
 30
0.0
 40
4.233333333333333
  1
E5022011
 41
0.75
  7
SLDTEXTSTYLE0
 11
4.408487351596664
 21
-0.0412997538344756
 31
0.0
100
AcDbAttributeDefinition
  3

  2
AUTOATTR0
 70
     0
 74
     1
  0
ENDBLK
  5
81
330
7F
100
AcDbEntity
  8
0
100
AcDbBlockEnd
  0
BLOCK
  5
DB
330
DA
100
AcDbEntity
  8
0
100
AcDbBlockBegin
  2
_D
 70
     0
 10
0.0
 20
0.0
 30
0.0
  3
_D
  1
_D
  0
LINE
  5
DD
330
DA
100
AcDbEntity
  8
치수문자_일반주서
 62
     0
370
    -2
100
AcDbLine
 10
-15.78442116787302
 20
2.381249999999989
 30
0.0
 11
-33.72432052846532
 21
2.381249999999923
 31
0.0
  0
LINE
  5
DE
330
DA
100
AcDbEntity
  8
치수문자_일반주서
 62
     0
370
    -2
100
AcDbLine
 10
-15.78442116787304
 20
-2.381250000000001
 30
0.0
 11
-33.72432052846531
 21
-2.381250000000069
 31
0.0
  0
LINE
  5
DF
330
DA
100
AcDbEntity
  8
치수문자_일반주서
 62
     0
370
    -2
100
AcDbLine
 10
-33.72432052846532
 20
2.381249999999923
 30
0.0
 11
-33.72432052846543
 21
36.98524999999997
 31
0.0
  0
LINE
  5
E0
330
DA
100
AcDbEntity
  8
치수문자_일반주서
 62
     0
370
    -2
100
AcDbLine
 10
-33.72432052846532
 20
2.381249999999923
 30
0.0
 11
-33.72432052846531
 21
-2.381250000000069
 31
0.0
  0
LINE
  5
E1
330
DA
100
AcDbEntity
  8
치수문자_일반주서
 62
     0
370
    -2
100
AcDbLine
 10
-33.72432052846533
 20
5.683249999999923
 30
0.0
 11
-33.72432052846533
 21
8.985249999999922
 31
0.0
  0
LINE
  5
E2
330
DA
100
AcDbEntity
  8
치수문자_일반주서
 62
     0
370
    -2
100
AcDbLine
 10
-33.7243205284653
 20
-5.683250000000069
 30
0.0
 11
-33.72432052846529
 21
-8.985250000000068
 31
0.0
  0
SOLID
  5
E3
330
DA
100
AcDbEntity
  8
치수문자_일반주서
 62
     0
100
AcDbTrace
 10
-34.27465386179866
 20
5.683249999999921
 30
0.0
 11
-33.17398719513199
 21
5.683249999999925
 31
0.0
 12
-33.72432052846532
 22
2.381249999999923
 32
0.0
 13
-33.72432052846532
 23
2.381249999999923
 33
0.0
  0
SOLID
  5
E4
330
DA
100
AcDbEntity
  8
치수문자_일반주서
 62
     0
100
AcDbTrace
 10
-33.17398719513196
 20
-5.683250000000067
 30
0.0
 11
-34.27465386179863
 21
-5.68325000000007
 31
0.0
 12
-33.72432052846531
 22
-2.381250000000069
 32
0.0
 13
-33.72432052846531
 23
-2.381250000000069
 33
0.0
  0
MTEXT
  5
E5
330
DA
100
AcDbEntity
  8
치수문자_일반주서
 62
     0
100
AcDbMText
 10
-38.09932052846538
 20
22.98524999999995
 30
0.0
 40
3.5
 41
0.0
 71
     2
 72
     1
  1
\A1;%%c4.76 [3/16]
  7
SLDTEXTSTYLE0
 11
-2.983906501879692E-15
 21
1.0
 31
0.0
 73
     1
 44
1.0
  0
POINT
  5
2CA
330
DA
100
AcDbEntity
  8
Defpoints
 62
     0
100
AcDbPoint
 10
-15.72192116787302
 20
2.381249999999989
 30
0.0
  0
POINT
  5
2CB
330
DA
100
AcDbEntity
  8
Defpoints
 62
     0
100
AcDbPoint
 10
-15.72192116787304
 20
-2.381250000000001
 30
0.0
  0
POINT
  5
2CC
330
DA
100
AcDbEntity
  8
Defpoints
 62
     0
100
AcDbPoint
 10
-33.72432052846531
 20
-2.381250000000068
 30
0.0
  0
ENDBLK
  5
DC
330
DA
100
AcDbEntity
  8
0
100
AcDbBlockEnd
  0
BLOCK
  5
EF
330
EE
100
AcDbEntity
  8
0
100
AcDbBlockBegin
  2
_D_1
 70
     0
 10
0.0
 20
0.0
 30
0.0
  3
_D_1
  1
_D_1
  0
LINE
  5
F1
330
EE
100
AcDbEntity
  8
치수문자_일반주서
 62
     0
370
    -2
100
AcDbLine
 10
25.46250000000001
 20
-2.180967620118456
 30
0.0
 11
38.14428577203793
 21
-2.180967620118409
 31
0.0
  0
LINE
  5
F2
330
EE
100
AcDbEntity
  8
치수문자_일반주서
 62
     0
370
    -2
100
AcDbLine
 10
25.46250000000001
 20
2.180967620118458
 30
0.0
 11
38.14428577203792
 21
2.180967620118505
 31
0.0
  0
LINE
  5
F3
330
EE
100
AcDbEntity
  8
치수문자_일반주서
 62
     0
370
    -2
100
AcDbLine
 10
38.14428577203792
 20
2.180967620118505
 30
0.0
 11
38.1442857720378
 21
38.53496762011851
 31
0.0
  0
LINE
  5
F4
330
EE
100
AcDbEntity
  8
치수문자_일반주서
 62
     0
370
    -2
100
AcDbLine
 10
38.14428577203793
 20
-2.180967620118409
 30
0.0
 11
38.14428577203792
 21
2.180967620118505
 31
0.0
  0
LINE
  5
F5
330
EE
100
AcDbEntity
  8
치수문자_일반주서
 62
     0
370
    -2
100
AcDbLine
 10
38.14428577203795
 20
-5.482967620118409
 30
0.0
 11
38.14428577203796
 21
-8.784967620118408
 31
0.0
  0
LINE
  5
F6
330
EE
100
AcDbEntity
  8
치수문자_일반주서
 62
     0
370
    -2
100
AcDbLine
 10
38.1442857720379
 20
5.482967620118504
 30
0.0
 11
38.14428577203789
 21
8.784967620118504
 31
0.0
  0
SOLID
  5
F7
330
EE
100
AcDbEntity
  8
치수문자_일반주서
 62
     0
100
AcDbTrace
 10
38.69461910537128
 20
-5.482967620118407
 30
0.0
 11
37.59395243870461
 21
-5.48296762011841
 31
0.0
 12
38.14428577203793
 22
-2.180967620118409
 32
0.0
 13
38.14428577203793
 23
-2.180967620118409
 33
0.0
  0
SOLID
  5
F8
330
EE
100
AcDbEntity
  8
치수문자_일반주서
 62
     0
100
AcDbTrace
 10
37.59395243870457
 20
5.482967620118503
 30
0.0
 11
38.69461910537124
 21
5.482967620118506
 31
0.0
 12
38.14428577203792
 22
2.180967620118505
 32
0.0
 13
38.14428577203792
 23
2.180967620118505
 33
0.0
  0
MTEXT
  5
F9
330
EE
100
AcDbEntity
  8
치수문자_일반주서
 62
     0
100
AcDbMText
 10
33.76928577203785
 20
23.65996762011849
 30
0.0
 40
3.5
 41
0.0
 71
     2
 72
     1
  1
\A1;%%c4.36 [11/64]
  7
SLDTEXTSTYLE0
 11
-3.257924277305447E-15
 21
1.0
 31
0.0
 73
     1
 44
1.0
  0
POINT
  5
FA
330
EE
100
AcDbEntity
  8
Defpoints
 62
     0
100
AcDbPoint
 10
25.40000000000001
 20
-2.180967620118456
 30
0.0
  0
POINT
  5
FB
330
EE
100
AcDbEntity
  8
Defpoints
 62
     0
100
AcDbPoint
 10
25.40000000000001
 20
2.180967620118457
 30
0.0
  0
POINT
  5
FC
330
EE
100
AcDbEntity
  8
Defpoints
 62
     0
100
AcDbPoint
 10
38.14428577203792
 20
2.180967620118505
 30
0.0
  0
ENDBLK
  5
F0
330
EE
100
AcDbEntity
  8
0
100
AcDbBlockEnd
  0
BLOCK
  5
104
330
103
100
AcDbEntity
  8
0
100
AcDbBlockBegin
  2
_D_2
 70
     0
 10
0.0
 20
0.0
 30
0.0
  3
_D_2
  1
_D_2
  0
LINE
  5
106
330
103
100
AcDbEntity
  8
치수문자_일반주서
 62
     0
370
    -2
100
AcDbLine
 10
25.40000000000001
 20
2.243467620118457
 30
0.0
 11
25.40000000000001
 21
19.12592329680779
 31
0.0
  0
LINE
  5
107
330
103
100
AcDbEntity
  8
치수문자_일반주서
 62
     0
370
    -2
100
AcDbLine
 10
17.46250000000001
 20
1.772082498120398
 30
0.0
 11
17.46250000000001
 21
19.12592329680779
 31
0.0
  0
LINE
  5
108
330
103
100
AcDbEntity
  8
치수문자_일반주서
 62
     0
370
    -2
100
AcDbLine
 10
17.46250000000001
 20
19.12592329680779
 30
0.0
 11
-14.5165
 21
19.12592329680779
 31
0.0
  0
LINE
  5
109
330
103
100
AcDbEntity
  8
치수문자_일반주서
 62
     0
370
    -2
100
AcDbLine
 10
25.40000000000001
 20
19.12592329680779
 30
0.0
 11
17.46250000000001
 21
19.12592329680779
 31
0.0
  0
LINE
  5
10A
330
103
100
AcDbEntity
  8
치수문자_일반주서
 62
     0
370
    -2
100
AcDbLine
 10
28.70200000000001
 20
19.12592329680779
 30
0.0
 11
32.004
 21
19.12592329680779
 31
0.0
  0
LINE
  5
10B
330
103
100
AcDbEntity
  8
치수문자_일반주서
 62
     0
370
    -2
100
AcDbLine
 10
14.16050000000001
 20
19.12592329680779
 30
0.0
 11
10.85850000000001
 21
19.12592329680779
 31
0.0
  0
SOLID
  5
10C
330
103
100
AcDbEntity
  8
치수문자_일반주서
 62
     0
100
AcDbTrace
 10
28.70200000000001
 20
19.67625663014113
 30
0.0
 11
28.70200000000001
 21
18.57558996347446
 31
0.0
 12
25.40000000000001
 22
19.12592329680779
 32
0.0
 13
25.40000000000001
 23
19.12592329680779
 33
0.0
  0
SOLID
  5
10D
330
103
100
AcDbEntity
  8
치수문자_일반주서
 62
     0
100
AcDbTrace
 10
14.16050000000001
 20
18.57558996347446
 30
0.0
 11
14.16050000000001
 21
19.67625663014113
 31
0.0
 12
17.46250000000001
 22
19.12592329680779
 32
0.0
 13
17.46250000000001
 23
19.12592329680779
 33
0.0
  0
MTEXT
  5
10E
330
103
100
AcDbEntity
  8
치수문자_일반주서
 62
     0
100
AcDbMText
 10
-1.828999999999995
 20
23.50092329680779
 30
0.0
 40
3.5
 41
0.0
 71
     2
 72
     1
  1
\A1;7.94 [5/16]
  7
SLDTEXTSTYLE0
 73
     1
 44
1.0
  0
POINT
  5
10F
330
103
100
AcDbEntity
  8
Defpoints
 62
     0
100
AcDbPoint
 10
25.40000000000001
 20
2.180967620118457
 30
0.0
  0
POINT
  5
110
330
103
100
AcDbEntity
  8
Defpoints
 62
     0
100
AcDbPoint
 10
17.46250000000001
 20
1.709582498120398
 30
0.0
  0
POINT
  5
111
330
103
100
AcDbEntity
  8
Defpoints
 62
     0
100
AcDbPoint
 10
17.46250000000001
 20
19.12592329680779
 30
0.0
  0
ENDBLK
  5
105
330
103
100
AcDbEntity
  8
0
100
AcDbBlockEnd
  0
BLOCK
  5
119
330
118
100
AcDbEntity
  8
0
100
AcDbBlockBegin
  2
_D_3
 70
     0
 10
0.0
 20
0.0
 30
0.0
  3
_D_3
  1
_D_3
  0
LINE
  5
11B
330
118
100
AcDbEntity
  8
치수문자_일반주서
 62
     0
370
    -2
100
AcDbLine
 10
-25.39999999999998
 20
2.243467620118454
 30
0.0
 11
-25.39999999999998
 21
36.38125000000002
 31
0.0
  0
LINE
  5
11C
330
118
100
AcDbEntity
  8
치수문자_일반주서
 62
     0
370
    -2
100
AcDbLine
 10
25.40000000000001
 20
2.243467620118457
 30
0.0
 11
25.40000000000001
 21
36.38125000000002
 31
0.0
  0
LINE
  5
11D
330
118
100
AcDbEntity
  8
치수문자_일반주서
 62
     0
370
    -2
100
AcDbLine
 10
-22.09799999999998
 20
36.38125000000002
 30
0.0
 11
22.09800000000001
 21
36.38125000000002
 31
0.0
  0
SOLID
  5
11E
330
118
100
AcDbEntity
  8
치수문자_일반주서
 62
     0
100
AcDbTrace
 10
-22.09799999999998
 20
36.93158333333336
 30
0.0
 11
-22.09799999999998
 21
35.83091666666669
 31
0.0
 12
-25.39999999999998
 22
36.38125000000002
 32
0.0
 13
-25.39999999999998
 23
36.38125000000002
 33
0.0
  0
SOLID
  5
11F
330
118
100
AcDbEntity
  8
치수문자_일반주서
 62
     0
100
AcDbTrace
 10
22.09800000000001
 20
35.83091666666669
 30
0.0
 11
22.09800000000001
 21
36.93158333333336
 31
0.0
 12
25.40000000000001
 22
36.38125000000002
 32
0.0
 13
25.40000000000001
 23
36.38125000000002
 33
0.0
  0
MTEXT
  5
120
330
118
100
AcDbEntity
  8
치수문자_일반주서
 62
     0
100
AcDbMText
 10
0.0000000000000124
 20
40.75625000000002
 30
0.0
 40
3.5
 41
0.0
 71
     2
 72
     1
  1
\A1;50.8 [2]
  7
SLDTEXTSTYLE0
 73
     1
 44
1.0
  0
POINT
  5
121
330
118
100
AcDbEntity
  8
Defpoints
 62
     0
100
AcDbPoint
 10
-25.39999999999998
 20
2.180967620118454
 30
0.0
  0
POINT
  5
122
330
118
100
AcDbEntity
  8
Defpoints
 62
     0
100
AcDbPoint
 10
25.40000000000001
 20
2.180967620118457
 30
0.0
  0
POINT
  5
123
330
118
100
AcDbEntity
  8
Defpoints
 62
     0
100
AcDbPoint
 10
25.40000000000001
 20
36.38125000000002
 30
0.0
  0
ENDBLK
  5
11A
330
118
100
AcDbEntity
  8
0
100
AcDbBlockEnd
  0
BLOCK
  5
132
330
131
100
AcDbEntity
  8
0
100
AcDbBlockBegin
  2
SW_DOWELSYMBOL_0
 70
     0
 10
0.0
 20
0.0
 30
0.0
  3
SW_DOWELSYMBOL_0
  1
SW_DOWELSYMBOL_0
  0
CIRCLE
  5
134
330
131
100
AcDbEntity
  8
해칭선
 62
     0
100
AcDbCircle
 10
0.0
 20
0.0
 30
0.0
 40
3.000000000000001
  0
HATCH
  5
135
330
131
100
AcDbEntity
  8
0
  6
Continuous
 62
     0
370
     0
100
AcDbHatch
 10
0.0
 20
0.0
 30
0.0
210
0.0
220
0.0
230
1.0
  2
SOLID
 70
     1
 71
     0
 91
        1
 92
        0
 93
        3
 72
     2
 10
0.0
 20
0.0
 40
3.000000000000001
 50
0.0
 51
90.0
 73
     1
 72
     1
 10
0.0
 20
3.000000000000001
 11
0.0
 21
0.0
 72
     1
 10
0.0
 20
0.0
 11
3.000000000000001
 21
0.0
 97
        0
 75
     0
 76
     1
 98
        1
 10
0.0
 20
0.0
  0
HATCH
  5
136
330
131
100
AcDbEntity
  8
0
  6
Continuous
 62
     0
370
     0
100
AcDbHatch
 10
0.0
 20
0.0
 30
0.0
210
0.0
220
0.0
230
1.0
  2
SOLID
 70
     1
 71
     0
 91
        1
 92
        0
 93
        3
 72
     2
 10
0.0
 20
0.0
 40
3.000000000000001
 50
180.0
 51
270.0000000000007
 73
     1
 72
     1
 10
0.0
 20
-3.000000000000001
 11
0.0
 21
0.0
 72
     1
 10
0.0
 20
0.0
 11
-3.000000000000001
 21
0.0
 97
        0
 75
     0
 76
     1
 98
        1
 10
0.0
 20
0.0
  0
ENDBLK
  5
133
330
131
100
AcDbEntity
  8
0
100
AcDbBlockEnd
  0
BLOCK
  5
1F4
330
1F3
100
AcDbEntity
  8
0
100
AcDbBlockBegin
  2
_D_4
 70
     0
 10
0.0
 20
0.0
 30
0.0
  3
_D_4
  1
_D_4
  0
LINE
  5
1F5
330
1F3
100
AcDbEntity
  8
치수문자_일반주서
 62
     0
370
    -2
100
AcDbLine
 10
102.4375000000001
 20
36.22143424691529
 30
0.0
 11
117.3750000000001
 21
36.22143424691535
 31
0.0
  0
LINE
  5
1F6
330
1F3
100
AcDbEntity
  8
치수문자_일반주서
 62
     0
370
    -2
100
AcDbLine
 10
102.4375000000001
 20
22.22143424691529
 30
0.0
 11
117.3750000000001
 21
22.22143424691535
 31
0.0
  0
LINE
  5
1F7
330
1F3
100
AcDbEntity
  8
치수문자_일반주서
 62
     0
370
    -2
100
AcDbLine
 10
117.3750000000001
 20
36.22143424691535
 30
0.0
 11
117.3750000000001
 21
22.22143424691535
 31
0.0
  0
LINE
  5
1F8
330
1F3
100
AcDbEntity
  8
치수문자_일반주서
 62
     0
370
    -2
100
AcDbLine
 10
117.3750000000001
 20
39.52343424691535
 30
0.0
 11
117.375
 21
42.82543424691535
 31
0.0
  0
LINE
  5
1F9
330
1F3
100
AcDbEntity
  8
치수문자_일반주서
 62
     0
370
    -2
100
AcDbLine
 10
117.3750000000001
 20
18.91943424691535
 30
0.0
 11
117.3750000000001
 21
15.61743424691535
 31
0.0
  0
SOLID
  5
1FA
330
1F3
100
AcDbEntity
  8
치수문자_일반주서
 62
     0
100
AcDbTrace
 10
116.8246666666667
 20
39.52343424691535
 30
0.0
 11
117.9253333333334
 21
39.52343424691535
 31
0.0
 12
117.3750000000001
 22
36.22143424691535
 32
0.0
 13
117.3750000000001
 23
36.22143424691535
 33
0.0
  0
SOLID
  5
1FB
330
1F3
100
AcDbEntity
  8
치수문자_일반주서
 62
     0
100
AcDbTrace
 10
117.9253333333335
 20
18.91943424691535
 30
0.0
 11
116.8246666666668
 21
18.91943424691535
 31
0.0
 12
117.3750000000001
 22
22.22143424691535
 32
0.0
 13
117.3750000000001
 23
22.22143424691535
 33
0.0
  0
MTEXT
  5
1FC
330
1F3
100
AcDbEntity
  8
치수문자_일반주서
 62
     0
100
AcDbMText
 10
113.0000000000001
 20
29.28713862862833
 30
0.0
 40
3.5
 41
0.0
 71
     2
 72
     1
  1
\A1;%%c14.00 [0.55]
  7
SLDTEXTSTYLE0
 11
-3.045183153257572E-15
 21
1.0
 31
0.0
 73
     1
 44
1.0
  0
POINT
  5
1FD
330
1F3
100
AcDbEntity
  8
Defpoints
 62
     0
100
AcDbPoint
 10
102.3750000000001
 20
36.22143424691529
 30
0.0
  0
POINT
  5
1FE
330
1F3
100
AcDbEntity
  8
Defpoints
 62
     0
100
AcDbPoint
 10
102.3750000000001
 20
22.22143424691529
 30
0.0
  0
POINT
  5
1FF
330
1F3
100
AcDbEntity
  8
Defpoints
 62
     0
100
AcDbPoint
 10
117.3750000000001
 20
22.22143424691535
 30
0.0
  0
ENDBLK
  5
200
330
1F3
100
AcDbEntity
  8
0
100
AcDbBlockEnd
  0
BLOCK
  5
20E
330
20D
100
AcDbEntity
  8
0
100
AcDbBlockBegin
  2
*D8
 70
     1
 10
0.0
 20
0.0
 30
0.0
  3
*D8
  1
*D8
  0
LINE
  5
20F
330
20D
100
AcDbEntity
  8
치수문자_일반주서
 62
     0
370
    -2
100
AcDbLine
 10
103.8657751816695
 20
19.48229575403651
 30
0.0
 11
119.6194267469468
 21
-6.150060756304035
 31
0.0
  0
MTEXT
  5
210
330
20D
100
AcDbEntity
  8
치수문자_일반주서
 62
     0
100
AcDbMText
 10
115.6706384014277
 20
5.288158154535728
 30
0.0
 40
3.5
 41
0.0
 71
     5
 72
     1
  1
\A1;R.5 [R0.02]
  7
SLDTEXTSTYLE0
 11
0.5236126201129557
 21
-0.8519564684057781
 31
0.0
 73
     1
 44
1.0
  0
SOLID
  5
211
330
20D
100
AcDbEntity
  8
치수문자_일반주서
 62
     0
100
AcDbTrace
 10
104.3346352247821
 20
19.77045723263868
 30
0.0
 11
103.3969151385569
 21
19.19413427543435
 31
0.0
 12
102.1368063100565
 22
22.29545601271239
 32
0.0
 13
102.1368063100565
 23
22.29545601271239
 33
0.0
  0
LINE
  5
212
330
20D
100
AcDbEntity
  8
치수문자_일반주서
 62
     0
100
AcDbLine
 10
101.785
 20
22.72143424691529
 30
0.0
 11
101.965
 21
22.72143424691529
 31
0.0
  0
LINE
  5
213
330
20D
100
AcDbEntity
  8
치수문자_일반주서
 62
     0
100
AcDbLine
 10
101.875
 20
22.63143424691529
 30
0.0
 11
101.875
 21
22.81143424691529
 31
0.0
  0
POINT
  5
23F
330
20D
100
AcDbEntity
  8
Defpoints
 62
     0
100
AcDbPoint
 10
102.1368063100565
 20
22.29545601271239
 30
0.0
  0
POINT
  5
240
330
20D
100
AcDbEntity
  8
Defpoints
 62
     0
100
AcDbPoint
 10
101.875
 20
22.72143424691529
 30
0.0
  0
ENDBLK
  5
214
330
20D
100
AcDbEntity
  8
0
100
AcDbBlockEnd
  0
BLOCK
  5
21A
330
219
100
AcDbEntity
  8
0
100
AcDbBlockBegin
  2
*D9
 70
     1
 10
0.0
 20
0.0
 30
0.0
  3
*D9
  1
*D10
  0
LINE
  5
21C
330
219
100
AcDbEntity
  8
치수문자_일반주서
 62
     0
370
    -2
100
AcDbLine
 10
19.37500000000004
 20
35.78393424691529
 30
0.0
 11
19.37500000000004
 21
70.88391841499404
 31
0.0
  0
LINE
  5
21D
330
219
100
AcDbEntity
  8
치수문자_일반주서
 62
     0
370
    -2
100
AcDbLine
 10
102.3750000000001
 20
36.34643424691529
 30
0.0
 11
102.3750000000001
 21
70.88391841499404
 31
0.0
  0
LINE
  5
21E
330
219
100
AcDbEntity
  8
치수문자_일반주서
 62
     0
370
    -2
100
AcDbLine
 10
22.67700000000004
 20
70.88391841499404
 30
0.0
 11
99.07300000000006
 21
70.88391841499404
 31
0.0
  0
SOLID
  5
21F
330
219
100
AcDbEntity
  8
치수문자_일반주서
 62
     0
100
AcDbTrace
 10
22.67700000000004
 20
71.43425174832737
 30
0.0
 11
22.67700000000004
 21
70.33358508166071
 31
0.0
 12
19.37500000000004
 22
70.88391841499404
 32
0.0
 13
19.37500000000004
 23
70.88391841499404
 33
0.0
  0
SOLID
  5
220
330
219
100
AcDbEntity
  8
치수문자_일반주서
 62
     0
100
AcDbTrace
 10
99.07300000000006
 20
70.33358508166071
 30
0.0
 11
99.07300000000006
 21
71.43425174832737
 31
0.0
 12
102.3750000000001
 22
70.88391841499404
 32
0.0
 13
102.3750000000001
 23
70.88391841499404
 33
0.0
  0
MTEXT
  5
221
330
219
100
AcDbEntity
  8
치수문자_일반주서
 62
     0
100
AcDbMText
 10
60.87500000000005
 20
75.25891841499404
 30
0.0
 40
3.5
 41
0.0
 71
     2
 72
     1
  1
\A1;83 [3.27]
  7
SLDTEXTSTYLE0
 73
     1
 44
1.0
  0
POINT
  5
222
330
219
100
AcDbEntity
  8
Defpoints
 62
     0
100
AcDbPoint
 10
19.37500000000004
 20
35.72143424691529
 30
0.0
  0
POINT
  5
223
330
219
100
AcDbEntity
  8
Defpoints
 62
     0
100
AcDbPoint
 10
102.3750000000001
 20
36.28393424691529
 30
0.0
  0
POINT
  5
224
330
219
100
AcDbEntity
  8
Defpoints
 62
     0
100
AcDbPoint
 10
102.3750000000001
 20
70.88391841499404
 30
0.0
  0
ENDBLK
  5
21B
330
219
100
AcDbEntity
  8
0
100
AcDbBlockEnd
  0
BLOCK
  5
226
330
225
100
AcDbEntity
  8
0
100
AcDbBlockBegin
  2
*D10
 70
     1
 10
0.0
 20
0.0
 30
0.0
  3
*D10
  1
*D11
  0
LINE
  5
228
330
225
100
AcDbEntity
  8
치수문자_일반주서
 62
     0
370
    -2
100
AcDbLine
 10
76.37504186422882
 20
28.62038676313042
 30
0.0
 11
76.37504186422882
 21
61.90091383617725
 31
0.0
  0
LINE
  5
229
330
225
100
AcDbEntity
  8
치수문자_일반주서
 62
     0
370
    -2
100
AcDbLine
 10
102.3750000000001
 20
36.28393424691529
 30
0.0
 11
102.3750000000001
 21
61.90091383617725
 31
0.0
  0
LINE
  5
22A
330
225
100
AcDbEntity
  8
치수문자_일반주서
 62
     0
370
    -2
100
AcDbLine
 10
79.67704186422881
 20
61.90091383617725
 30
0.0
 11
99.07300000000006
 21
61.90091383617725
 31
0.0
  0
SOLID
  5
22B
330
225
100
AcDbEntity
  8
치수문자_일반주서
 62
     0
100
AcDbTrace
 10
79.67704186422881
 20
62.45124716951059
 30
0.0
 11
79.67704186422881
 21
61.35058050284392
 31
0.0
 12
76.37504186422882
 22
61.90091383617725
 32
0.0
 13
76.37504186422882
 23
61.90091383617725
 33
0.0
  0
SOLID
  5
22C
330
225
100
AcDbEntity
  8
치수문자_일반주서
 62
     0
100
AcDbTrace
 10
99.07300000000006
 20
61.35058050284392
 30
0.0
 11
99.07300000000006
 21
62.45124716951059
 31
0.0
 12
102.3750000000001
 22
61.90091383617725
 32
0.0
 13
102.3750000000001
 23
61.90091383617725
 33
0.0
  0
MTEXT
  5
22D
330
225
100
AcDbEntity
  8
치수문자_일반주서
 62
     0
100
AcDbMText
 10
89.42159572693208
 20
66.27591383617725
 30
0.0
 40
3.5
 41
0.0
 71
     2
 72
     1
  1
\A1;26 [1.02]
  7
SLDTEXTSTYLE0
 73
     1
 44
1.0
  0
POINT
  5
22E
330
225
100
AcDbEntity
  8
Defpoints
 62
     0
100
AcDbPoint
 10
76.37504186422882
 20
28.55788676313042
 30
0.0
  0
POINT
  5
22F
330
225
100
AcDbEntity
  8
Defpoints
 62
     0
100
AcDbPoint
 10
102.3750000000001
 20
36.22143424691529
 30
0.0
  0
POINT
  5
230
330
225
100
AcDbEntity
  8
Defpoints
 62
     0
100
AcDbPoint
 10
102.3750000000001
 20
61.90091383617725
 30
0.0
  0
ENDBLK
  5
227
330
225
100
AcDbEntity
  8
0
100
AcDbBlockEnd
  0
BLOCK
  5
232
330
231
100
AcDbEntity
  8
0
100
AcDbBlockBegin
  2
*D11
 70
     1
 10
0.0
 20
0.0
 30
0.0
  3
*D11
  1
*D12
  0
LINE
  5
234
330
231
100
AcDbEntity
  8
치수문자_일반주서
 62
     0
370
    -2
100
AcDbLine
 10
19.81250000000005
 20
36.22143424691529
 30
0.0
 11
4.374999999999983
 21
36.22143424691524
 31
0.0
  0
LINE
  5
235
330
231
100
AcDbEntity
  8
치수문자_일반주서
 62
     0
370
    -2
100
AcDbLine
 10
19.81250000000005
 20
22.22143424691529
 30
0.0
 11
4.375000000000032
 21
22.22143424691524
 31
0.0
  0
LINE
  5
236
330
231
100
AcDbEntity
  8
치수문자_일반주서
 62
     0
370
    -2
100
AcDbLine
 10
4.374999999999983
 20
36.22143424691524
 30
0.0
 11
4.375000000000032
 21
22.22143424691524
 31
0.0
  0
LINE
  5
237
330
231
100
AcDbEntity
  8
치수문자_일반주서
 62
     0
370
    -2
100
AcDbLine
 10
4.374999999999972
 20
39.52343424691524
 30
0.0
 11
4.37499999999996
 21
42.82543424691524
 31
0.0
  0
LINE
  5
238
330
231
100
AcDbEntity
  8
치수문자_일반주서
 62
     0
370
    -2
100
AcDbLine
 10
4.375000000000044
 20
18.91943424691524
 30
0.0
 11
4.375000000000055
 21
15.61743424691524
 31
0.0
  0
SOLID
  5
239
330
231
100
AcDbEntity
  8
치수문자_일반주서
 62
     0
100
AcDbTrace
 10
3.824666666666638
 20
39.52343424691524
 30
0.0
 11
4.925333333333305
 21
39.52343424691524
 31
0.0
 12
4.374999999999983
 22
36.22143424691524
 32
0.0
 13
4.374999999999983
 23
36.22143424691524
 33
0.0
  0
SOLID
  5
23A
330
231
100
AcDbEntity
  8
치수문자_일반주서
 62
     0
100
AcDbTrace
 10
4.925333333333377
 20
18.91943424691524
 30
0.0
 11
3.82466666666671
 21
18.91943424691523
 31
0.0
 12
4.375000000000032
 22
22.22143424691524
 32
0.0
 13
4.375000000000032
 23
22.22143424691524
 33
0.0
  0
MTEXT
  5
23B
330
231
100
AcDbEntity
  8
치수문자_일반주서
 62
     0
100
AcDbMText
 10
0.0000000000000071
 20
29.22143424691528
 30
0.0
 40
3.5
 41
0.0
 71
     2
 72
     1
  1
\A1;%%c14.00 [0.55]
  7
SLDTEXTSTYLE0
 11
-3.489272363107635E-15
 21
1.0
 31
0.0
 73
     1
 44
1.0
  0
POINT
  5
23C
330
231
100
AcDbEntity
  8
Defpoints
 62
     0
100
AcDbPoint
 10
19.87500000000005
 20
36.22143424691529
 30
0.0
  0
POINT
  5
23D
330
231
100
AcDbEntity
  8
Defpoints
 62
     0
100
AcDbPoint
 10
19.87500000000005
 20
22.22143424691529
 30
0.0
  0
POINT
  5
23E
330
231
100
AcDbEntity
  8
Defpoints
 62
     0
100
AcDbPoint
 10
4.375000000000043
 20
22.22143424691524
 30
0.0
  0
ENDBLK
  5
233
330
231
100
AcDbEntity
  8
0
100
AcDbBlockEnd
  0
BLOCK
  5
28D
330
28C
100
AcDbEntity
  8
0
100
AcDbBlockBegin
  2
*D12
 70
     1
 10
0.0
 20
0.0
 30
0.0
  3
*D12
  1
*D13
  0
LINE
  5
28F
330
28C
100
AcDbEntity
  8
치수문자_일반주서
 62
     0
370
    -2
100
AcDbLine
 10
-73.01957624165512
 20
111.5232516363625
 30
0.0
 11
-73.01957624165512
 21
146.6232358044412
 31
0.0
  0
LINE
  5
290
330
28C
100
AcDbEntity
  8
치수문자_일반주서
 62
     0
370
    -2
100
AcDbLine
 10
9.980423758344898
 20
112.0857516363625
 30
0.0
 11
9.980423758344898
 21
146.6232358044412
 31
0.0
  0
LINE
  5
291
330
28C
100
AcDbEntity
  8
치수문자_일반주서
 62
     0
370
    -2
100
AcDbLine
 10
-69.71757624165511
 20
146.6232358044412
 30
0.0
 11
6.678423758344898
 21
146.6232358044412
 31
0.0
  0
SOLID
  5
292
330
28C
100
AcDbEntity
  8
치수문자_일반주서
 62
     0
100
AcDbTrace
 10
-69.71757624165511
 20
147.1735691377745
 30
0.0
 11
-69.71757624165511
 21
146.0729024711079
 31
0.0
 12
-73.01957624165512
 22
146.6232358044412
 32
0.0
 13
-73.01957624165512
 23
146.6232358044412
 33
0.0
  0
SOLID
  5
293
330
28C
100
AcDbEntity
  8
치수문자_일반주서
 62
     0
100
AcDbTrace
 10
6.678423758344898
 20
146.0729024711079
 30
0.0
 11
6.678423758344898
 21
147.1735691377745
 31
0.0
 12
9.980423758344898
 22
146.6232358044412
 32
0.0
 13
9.980423758344898
 23
146.6232358044412
 33
0.0
  0
MTEXT
  5
294
330
28C
100
AcDbEntity
  8
치수문자_일반주서
 62
     0
100
AcDbMText
 10
-31.51957624165511
 20
150.9982358044412
 30
0.0
 40
3.5
 41
0.0
 71
     2
 72
     1
  1
\A1;83 [3.27]
  7
SLDTEXTSTYLE0
 73
     1
 44
1.0
  0
POINT
  5
295
330
28C
100
AcDbEntity
  8
Defpoints
 62
     0
100
AcDbPoint
 10
-73.01957624165512
 20
111.4607516363625
 30
0.0
  0
POINT
  5
296
330
28C
100
AcDbEntity
  8
Defpoints
 62
     0
100
AcDbPoint
 10
9.980423758344898
 20
112.0232516363625
 30
0.0
  0
POINT
  5
297
330
28C
100
AcDbEntity
  8
Defpoints
 62
     0
100
AcDbPoint
 10
9.980423758344898
 20
146.6232358044412
 30
0.0
  0
ENDBLK
  5
28E
330
28C
100
AcDbEntity
  8
0
100
AcDbBlockEnd
  0
BLOCK
  5
299
330
298
100
AcDbEntity
  8
0
100
AcDbBlockBegin
  2
*D13
 70
     1
 10
0.0
 20
0.0
 30
0.0
  3
*D13
  1
*D14
  0
LINE
  5
29B
330
298
100
AcDbEntity
  8
치수문자_일반주서
 62
     0
370
    -2
100
AcDbLine
 10
-16.01953437742634
 20
104.3597041525776
 30
0.0
 11
-16.01953437742634
 21
137.6402312256244
 31
0.0
  0
LINE
  5
29C
330
298
100
AcDbEntity
  8
치수문자_일반주서
 62
     0
370
    -2
100
AcDbLine
 10
9.980423758344898
 20
112.0232516363625
 30
0.0
 11
9.980423758344898
 21
137.6402312256244
 31
0.0
  0
LINE
  5
29D
330
298
100
AcDbEntity
  8
치수문자_일반주서
 62
     0
370
    -2
100
AcDbLine
 10
-12.71753437742634
 20
137.6402312256244
 30
0.0
 11
6.678423758344898
 21
137.6402312256244
 31
0.0
  0
SOLID
  5
29E
330
298
100
AcDbEntity
  8
치수문자_일반주서
 62
     0
100
AcDbTrace
 10
-12.71753437742634
 20
138.1905645589578
 30
0.0
 11
-12.71753437742634
 21
137.0898978922911
 31
0.0
 12
-16.01953437742634
 22
137.6402312256244
 32
0.0
 13
-16.01953437742634
 23
137.6402312256244
 33
0.0
  0
SOLID
  5
29F
330
298
100
AcDbEntity
  8
치수문자_일반주서
 62
     0
100
AcDbTrace
 10
6.678423758344898
 20
137.0898978922911
 30
0.0
 11
6.678423758344898
 21
138.1905645589578
 31
0.0
 12
9.980423758344898
 22
137.6402312256244
 32
0.0
 13
9.980423758344898
 23
137.6402312256244
 33
0.0
  0
MTEXT
  5
2A0
330
298
100
AcDbEntity
  8
치수문자_일반주서
 62
     0
100
AcDbMText
 10
-2.972980514723076
 20
142.0152312256244
 30
0.0
 40
3.5
 41
0.0
 71
     2
 72
     1
  1
\A1;26 [1.02]
  7
SLDTEXTSTYLE0
 73
     1
 44
1.0
  0
POINT
  5
2A1
330
298
100
AcDbEntity
  8
Defpoints
 62
     0
100
AcDbPoint
 10
-16.01953437742634
 20
104.2972041525776
 30
0.0
  0
POINT
  5
2A2
330
298
100
AcDbEntity
  8
Defpoints
 62
     0
100
AcDbPoint
 10
9.980423758344898
 20
111.9607516363625
 30
0.0
  0
POINT
  5
2A3
330
298
100
AcDbEntity
  8
Defpoints
 62
     0
100
AcDbPoint
 10
9.980423758344898
 20
137.6402312256244
 30
0.0
  0
ENDBLK
  5
29A
330
298
100
AcDbEntity
  8
0
100
AcDbBlockEnd
  0
BLOCK
  5
2A5
330
2A4
100
AcDbEntity
  8
0
100
AcDbBlockBegin
  2
*D14
 70
     1
 10
0.0
 20
0.0
 30
0.0
  3
*D14
  1
*D15
  0
LINE
  5
2A7
330
2A4
100
AcDbEntity
  8
치수문자_일반주서
 62
     0
370
    -2
100
AcDbLine
 10
-72.5820762416551
 20
111.9607516363625
 30
0.0
 11
-88.01957624165517
 21
111.9607516363624
 31
0.0
  0
LINE
  5
2A8
330
2A4
100
AcDbEntity
  8
치수문자_일반주서
 62
     0
370
    -2
100
AcDbLine
 10
-72.5820762416551
 20
97.96075163636247
 30
0.0
 11
-88.01957624165513
 21
97.96075163636242
 31
0.0
  0
LINE
  5
2A9
330
2A4
100
AcDbEntity
  8
치수문자_일반주서
 62
     0
370
    -2
100
AcDbLine
 10
-88.01957624165517
 20
111.9607516363624
 30
0.0
 11
-88.01957624165513
 21
97.96075163636242
 31
0.0
  0
LINE
  5
2AA
330
2A4
100
AcDbEntity
  8
치수문자_일반주서
 62
     0
370
    -2
100
AcDbLine
 10
-88.01957624165519
 20
115.2627516363624
 30
0.0
 11
-88.0195762416552
 21
118.5647516363624
 31
0.0
  0
LINE
  5
2AB
330
2A4
100
AcDbEntity
  8
치수문자_일반주서
 62
     0
370
    -2
100
AcDbLine
 10
-88.01957624165512
 20
94.65875163636241
 30
0.0
 11
-88.0195762416551
 21
91.35675163636242
 31
0.0
  0
SOLID
  5
2AC
330
2A4
100
AcDbEntity
  8
치수문자_일반주서
 62
     0
100
AcDbTrace
 10
-88.56990957498851
 20
115.2627516363624
 30
0.0
 11
-87.46924290832186
 21
115.2627516363624
 31
0.0
 12
-88.01957624165517
 22
111.9607516363624
 32
0.0
 13
-88.01957624165517
 23
111.9607516363624
 33
0.0
  0
SOLID
  5
2AD
330
2A4
100
AcDbEntity
  8
치수문자_일반주서
 62
     0
100
AcDbTrace
 10
-87.46924290832179
 20
94.65875163636241
 30
0.0
 11
-88.56990957498844
 21
94.65875163636241
 31
0.0
 12
-88.01957624165513
 22
97.96075163636242
 32
0.0
 13
-88.01957624165513
 23
97.96075163636242
 33
0.0
  0
MTEXT
  5
2AE
330
2A4
100
AcDbEntity
  8
치수문자_일반주서
 62
     0
100
AcDbMText
 10
-92.39457624165516
 20
104.9607516363625
 30
0.0
 40
3.5
 41
0.0
 71
     2
 72
     1
  1
\A1;%%c14.00 [0.55]
  7
SLDTEXTSTYLE0
 11
-3.045183153257572E-15
 21
1.0
 31
0.0
 73
     1
 44
1.0
  0
POINT
  5
2AF
330
2A4
100
AcDbEntity
  8
Defpoints
 62
     0
100
AcDbPoint
 10
-72.5195762416551
 20
111.9607516363625
 30
0.0
  0
POINT
  5
2B0
330
2A4
100
AcDbEntity
  8
Defpoints
 62
     0
100
AcDbPoint
 10
-72.5195762416551
 20
97.96075163636247
 30
0.0
  0
POINT
  5
2B1
330
2A4
100
AcDbEntity
  8
Defpoints
 62
     0
100
AcDbPoint
 10
-88.01957624165513
 20
97.96075163636242
 30
0.0
  0
ENDBLK
  5
2A6
330
2A4
100
AcDbEntity
  8
0
100
AcDbBlockEnd
  0
BLOCK
  5
2B3
330
2B2
100
AcDbEntity
  8
0
100
AcDbBlockBegin
  2
*D15
 70
     1
 10
0.0
 20
0.0
 30
0.0
  3
*D15
  1
*D16
  0
LINE
  5
2B5
330
2B2
100
AcDbEntity
  8
치수문자_일반주서
 62
     0
370
    -2
100
AcDbLine
 10
10.04292375834491
 20
111.9607516363625
 30
0.0
 11
24.9804237583449
 21
111.9607516363625
 31
0.0
  0
LINE
  5
2B6
330
2B2
100
AcDbEntity
  8
치수문자_일반주서
 62
     0
370
    -2
100
AcDbLine
 10
10.0429237583449
 20
97.96075163636247
 30
0.0
 11
24.98042375834495
 21
97.96075163636253
 31
0.0
  0
LINE
  5
2B7
330
2B2
100
AcDbEntity
  8
치수문자_일반주서
 62
     0
370
    -2
100
AcDbLine
 10
24.9804237583449
 20
111.9607516363625
 30
0.0
 11
24.98042375834495
 21
97.96075163636253
 31
0.0
  0
LINE
  5
2B8
330
2B2
100
AcDbEntity
  8
치수문자_일반주서
 62
     0
370
    -2
100
AcDbLine
 10
24.98042375834489
 20
115.2627516363625
 30
0.0
 11
24.98042375834488
 21
118.5647516363625
 31
0.0
  0
LINE
  5
2B9
330
2B2
100
AcDbEntity
  8
치수문자_일반주서
 62
     0
370
    -2
100
AcDbLine
 10
24.98042375834496
 20
94.65875163636252
 30
0.0
 11
24.98042375834497
 21
91.35675163636253
 31
0.0
  0
SOLID
  5
2BA
330
2B2
100
AcDbEntity
  8
치수문자_일반주서
 62
     0
100
AcDbTrace
 10
24.43009042501156
 20
115.2627516363625
 30
0.0
 11
25.53075709167823
 21
115.2627516363625
 31
0.0
 12
24.9804237583449
 22
111.9607516363625
 32
0.0
 13
24.9804237583449
 23
111.9607516363625
 33
0.0
  0
SOLID
  5
2BB
330
2B2
100
AcDbEntity
  8
치수문자_일반주서
 62
     0
100
AcDbTrace
 10
25.5307570916783
 20
94.65875163636252
 30
0.0
 11
24.43009042501163
 21
94.65875163636252
 31
0.0
 12
24.98042375834495
 22
97.96075163636253
 32
0.0
 13
24.98042375834495
 23
97.96075163636253
 33
0.0
  0
MTEXT
  5
2BC
330
2B2
100
AcDbEntity
  8
치수문자_일반주서
 62
     0
100
AcDbMText
 10
20.60542375834493
 20
105.0264560180755
 30
0.0
 40
3.5
 41
0.0
 71
     2
 72
     1
  1
\A1;%%c14.00 [0.55]
  7
SLDTEXTSTYLE0
 11
-3.552713678800501E-15
 21
1.0
 31
0.0
 73
     1
 44
1.0
  0
POINT
  5
2BD
330
2B2
100
AcDbEntity
  8
Defpoints
 62
     0
100
AcDbPoint
 10
9.980423758344912
 20
111.9607516363625
 30
0.0
  0
POINT
  5
2BE
330
2B2
100
AcDbEntity
  8
Defpoints
 62
     0
100
AcDbPoint
 10
9.980423758344898
 20
97.96075163636247
 30
0.0
  0
POINT
  5
2BF
330
2B2
100
AcDbEntity
  8
Defpoints
 62
     0
100
AcDbPoint
 10
24.98042375834495
 20
97.96075163636253
 30
0.0
  0
ENDBLK
  5
2B4
330
2B2
100
AcDbEntity
  8
0
100
AcDbBlockEnd
  0
BLOCK
  5
2C1
330
2C0
100
AcDbEntity
  8
0
100
AcDbBlockBegin
  2
*D16
 70
     1
 10
0.0
 20
0.0
 30
0.0
  3
*D16
  1
*D17
  0
LINE
  5
2C3
330
2C0
100
AcDbEntity
  8
치수문자_일반주서
 62
     0
370
    -2
100
AcDbLine
 10
11.47119894001435
 20
95.2216131434837
 30
0.0
 11
27.22485050529164
 21
69.58925663314314
 31
0.0
  0
MTEXT
  5
2C4
330
2C0
100
AcDbEntity
  8
치수문자_일반주서
 62
     0
100
AcDbMText
 10
23.27606215977251
 20
81.0274755439829
 30
0.0
 40
3.5
 41
0.0
 71
     5
 72
     1
  1
\A1;R.5 [R0.02]
  7
SLDTEXTSTYLE0
 11
0.5236126201129557
 21
-0.8519564684057781
 31
0.0
 73
     1
 44
1.0
  0
SOLID
  5
2C5
330
2C0
100
AcDbEntity
  8
치수문자_일반주서
 62
     0
100
AcDbTrace
 10
11.940058983127
 20
95.50977462208586
 30
0.0
 11
11.0023388969017
 21
94.93345166488153
 31
0.0
 12
9.74223006840137
 22
98.03477340215957
 32
0.0
 13
9.74223006840137
 23
98.03477340215957
 33
0.0
  0
LINE
  5
2C6
330
2C0
100
AcDbEntity
  8
치수문자_일반주서
 62
     0
100
AcDbLine
 10
9.390423758344884
 20
98.46075163636247
 30
0.0
 11
9.570423758344884
 21
98.46075163636247
 31
0.0
  0
LINE
  5
2C7
330
2C0
100
AcDbEntity
  8
치수문자_일반주서
 62
     0
100
AcDbLine
 10
9.480423758344884
 20
98.37075163636247
 30
0.0
 11
9.480423758344884
 21
98.55075163636248
 31
0.0
  0
POINT
  5
2C8
330
2C0
100
AcDbEntity
  8
Defpoints
 62
     0
100
AcDbPoint
 10
9.74223006840137
 20
98.03477340215957
 30
0.0
  0
POINT
  5
2C9
330
2C0
100
AcDbEntity
  8
Defpoints
 62
     0
100
AcDbPoint
 10
9.480423758344884
 20
98.46075163636247
 30
0.0
  0
ENDBLK
  5
2C2
330
2C0
100
AcDbEntity
  8
0
100
AcDbBlockEnd
  0
BLOCK
  5
303
330
302
100
AcDbEntity
  8
0
100
AcDbBlockBegin
  2
*D17
 70
     1
 10
0.0
 20
0.0
 30
0.0
  3
*D17
  1
*D18
  0
LINE
  5
305
330
302
100
AcDbEntity
  8
치수문자_일반주서
 62
     0
370
    -2
100
AcDbLine
 10
93.68727224407745
 20
-34.58368765254082
 30
0.0
 11
106.3690580161154
 21
-34.58368765254077
 31
0.0
  0
LINE
  5
306
330
302
100
AcDbEntity
  8
치수문자_일반주서
 62
     0
370
    -2
100
AcDbLine
 10
93.68727224407745
 20
-30.2217524123039
 30
0.0
 11
106.3690580161154
 21
-30.22175241230385
 31
0.0
  0
LINE
  5
307
330
302
100
AcDbEntity
  8
치수문자_일반주서
 62
     0
370
    -2
100
AcDbLine
 10
106.3690580161154
 20
-30.22175241230385
 30
0.0
 11
106.3690580161152
 21
6.132247587696146
 31
0.0
  0
LINE
  5
308
330
302
100
AcDbEntity
  8
치수문자_일반주서
 62
     0
370
    -2
100
AcDbLine
 10
106.3690580161154
 20
-34.58368765254077
 30
0.0
 11
106.3690580161154
 21
-30.22175241230385
 31
0.0
  0
LINE
  5
309
330
302
100
AcDbEntity
  8
치수문자_일반주서
 62
     0
370
    -2
100
AcDbLine
 10
106.3690580161154
 20
-37.88568765254077
 30
0.0
 11
106.3690580161154
 21
-41.18768765254077
 31
0.0
  0
LINE
  5
30A
330
302
100
AcDbEntity
  8
치수문자_일반주서
 62
     0
370
    -2
100
AcDbLine
 10
106.3690580161153
 20
-26.91975241230385
 30
0.0
 11
106.3690580161153
 21
-23.61775241230385
 31
0.0
  0
SOLID
  5
30B
330
302
100
AcDbEntity
  8
치수문자_일반주서
 62
     0
100
AcDbTrace
 10
106.9193913494487
 20
-37.88568765254077
 30
0.0
 11
105.8187246827821
 21
-37.88568765254077
 31
0.0
 12
106.3690580161154
 22
-34.58368765254077
 32
0.0
 13
106.3690580161154
 23
-34.58368765254077
 33
0.0
  0
SOLID
  5
30C
330
302
100
AcDbEntity
  8
치수문자_일반주서
 62
     0
100
AcDbTrace
 10
105.818724682782
 20
-26.91975241230386
 30
0.0
 11
106.9193913494487
 21
-26.91975241230385
 31
0.0
 12
106.3690580161154
 22
-30.22175241230385
 32
0.0
 13
106.3690580161154
 23
-30.22175241230385
 33
0.0
  0
MTEXT
  5
30D
330
302
100
AcDbEntity
  8
치수문자_일반주서
 62
     0
100
AcDbMText
 10
101.9940580161153
 20
-8.742752412303869
 30
0.0
 40
3.5
 41
0.0
 71
     2
 72
     1
  1
\A1;%%c4.36 [11/64]
  7
SLDTEXTSTYLE0
 11
-3.257924277305449E-15
 21
1.0
 31
0.0
 73
     1
 44
1.0
  0
POINT
  5
30E
330
302
100
AcDbEntity
  8
Defpoints
 62
     0
100
AcDbPoint
 10
93.62477224407745
 20
-34.58368765254082
 30
0.0
  0
POINT
  5
30F
330
302
100
AcDbEntity
  8
Defpoints
 62
     0
100
AcDbPoint
 10
93.62477224407745
 20
-30.2217524123039
 30
0.0
  0
POINT
  5
310
330
302
100
AcDbEntity
  8
Defpoints
 62
     0
100
AcDbPoint
 10
106.3690580161154
 20
-30.22175241230386
 30
0.0
  0
ENDBLK
  5
304
330
302
100
AcDbEntity
  8
0
100
AcDbBlockEnd
  0
BLOCK
  5
312
330
311
100
AcDbEntity
  8
0
100
AcDbBlockBegin
  2
*D18
 70
     1
 10
0.0
 20
0.0
 30
0.0
  3
*D18
  1
*D19
  0
LINE
  5
314
330
311
100
AcDbEntity
  8
치수문자_일반주서
 62
     0
370
    -2
100
AcDbLine
 10
93.62477224407745
 20
-30.1592524123039
 30
0.0
 11
93.62477224407745
 21
-13.27679673561457
 31
0.0
  0
LINE
  5
315
330
311
100
AcDbEntity
  8
치수문자_일반주서
 62
     0
370
    -2
100
AcDbLine
 10
85.68727224407745
 20
-30.63063753430196
 30
0.0
 11
85.68727224407745
 21
-13.27679673561457
 31
0.0
  0
LINE
  5
316
330
311
100
AcDbEntity
  8
치수문자_일반주서
 62
     0
370
    -2
100
AcDbLine
 10
85.68727224407745
 20
-13.27679673561457
 30
0.0
 11
53.70827224407745
 21
-13.27679673561457
 31
0.0
  0
LINE
  5
317
330
311
100
AcDbEntity
  8
치수문자_일반주서
 62
     0
370
    -2
100
AcDbLine
 10
93.62477224407745
 20
-13.27679673561457
 30
0.0
 11
85.68727224407745
 21
-13.27679673561457
 31
0.0
  0
LINE
  5
318
330
311
100
AcDbEntity
  8
치수문자_일반주서
 62
     0
370
    -2
100
AcDbLine
 10
96.92677224407745
 20
-13.27679673561457
 30
0.0
 11
100.2287722440774
 21
-13.27679673561457
 31
0.0
  0
LINE
  5
319
330
311
100
AcDbEntity
  8
치수문자_일반주서
 62
     0
370
    -2
100
AcDbLine
 10
82.38527224407744
 20
-13.27679673561457
 30
0.0
 11
79.08327224407745
 21
-13.27679673561457
 31
0.0
  0
SOLID
  5
31A
330
311
100
AcDbEntity
  8
치수문자_일반주서
 62
     0
100
AcDbTrace
 10
96.92677224407745
 20
-12.72646340228124
 30
0.0
 11
96.92677224407745
 21
-13.8271300689479
 31
0.0
 12
93.62477224407745
 22
-13.27679673561457
 32
0.0
 13
93.62477224407745
 23
-13.27679673561457
 33
0.0
  0
SOLID
  5
31B
330
311
100
AcDbEntity
  8
치수문자_일반주서
 62
     0
100
AcDbTrace
 10
82.38527224407744
 20
-13.8271300689479
 30
0.0
 11
82.38527224407744
 21
-12.72646340228124
 31
0.0
 12
85.68727224407745
 22
-13.27679673561457
 32
0.0
 13
85.68727224407745
 23
-13.27679673561457
 33
0.0
  0
MTEXT
  5
31C
330
311
100
AcDbEntity
  8
치수문자_일반주서
 62
     0
100
AcDbMText
 10
66.39577224407745
 20
-8.901796735614571
 30
0.0
 40
3.5
 41
0.0
 71
     2
 72
     1
  1
\A1;7.94 [5/16]
  7
SLDTEXTSTYLE0
 73
     1
 44
1.0
  0
POINT
  5
31D
330
311
100
AcDbEntity
  8
Defpoints
 62
     0
100
AcDbPoint
 10
93.62477224407745
 20
-30.2217524123039
 30
0.0
  0
POINT
  5
31E
330
311
100
AcDbEntity
  8
Defpoints
 62
     0
100
AcDbPoint
 10
85.68727224407745
 20
-30.69313753430196
 30
0.0
  0
POINT
  5
31F
330
311
100
AcDbEntity
  8
Defpoints
 62
     0
100
AcDbPoint
 10
85.68727224407745
 20
-13.27679673561457
 30
0.0
  0
ENDBLK
  5
313
330
311
100
AcDbEntity
  8
0
100
AcDbBlockEnd
  0
BLOCK
  5
321
330
320
100
AcDbEntity
  8
0
100
AcDbBlockBegin
  2
*D19
 70
     1
 10
0.0
 20
0.0
 30
0.0
  3
*D19
  1
*D20
  0
LINE
  5
323
330
320
100
AcDbEntity
  8
치수문자_일반주서
 62
     0
370
    -2
100
AcDbLine
 10
42.82477224407746
 20
-30.38897003242236
 30
0.0
 11
42.82477224407746
 21
3.978529967577664
 31
0.0
  0
LINE
  5
324
330
320
100
AcDbEntity
  8
치수문자_일반주서
 62
     0
370
    -2
100
AcDbLine
 10
93.62477224407745
 20
-30.1592524123039
 30
0.0
 11
93.62477224407745
 21
3.978529967577664
 31
0.0
  0
LINE
  5
325
330
320
100
AcDbEntity
  8
치수문자_일반주서
 62
     0
370
    -2
100
AcDbLine
 10
46.12677224407746
 20
3.978529967577664
 30
0.0
 11
90.32277224407744
 21
3.978529967577664
 31
0.0
  0
SOLID
  5
326
330
320
100
AcDbEntity
  8
치수문자_일반주서
 62
     0
100
AcDbTrace
 10
46.12677224407746
 20
4.528863300910998
 30
0.0
 11
46.12677224407746
 21
3.428196634244331
 31
0.0
 12
42.82477224407746
 22
3.978529967577664
 32
0.0
 13
42.82477224407746
 23
3.978529967577664
 33
0.0
  0
SOLID
  5
327
330
320
100
AcDbEntity
  8
치수문자_일반주서
 62
     0
100
AcDbTrace
 10
90.32277224407744
 20
3.428196634244331
 30
0.0
 11
90.32277224407744
 21
4.528863300910998
 31
0.0
 12
93.62477224407745
 22
3.978529967577664
 32
0.0
 13
93.62477224407745
 23
3.978529967577664
 33
0.0
  0
MTEXT
  5
328
330
320
100
AcDbEntity
  8
치수문자_일반주서
 62
     0
100
AcDbMText
 10
68.22477224407746
 20
8.353529967577664
 30
0.0
 40
3.5
 41
0.0
 71
     2
 72
     1
  1
\A1;50.8 [2]
  7
SLDTEXTSTYLE0
 73
     1
 44
1.0
  0
POINT
  5
329
330
320
100
AcDbEntity
  8
Defpoints
 62
     0
100
AcDbPoint
 10
42.82477224407746
 20
-30.45147003242236
 30
0.0
  0
POINT
  5
32A
330
320
100
AcDbEntity
  8
Defpoints
 62
     0
100
AcDbPoint
 10
93.62477224407745
 20
-30.2217524123039
 30
0.0
  0
POINT
  5
32B
330
320
100
AcDbEntity
  8
Defpoints
 62
     0
100
AcDbPoint
 10
93.62477224407745
 20
3.978529967577664
 30
0.0
  0
ENDBLK
  5
322
330
320
100
AcDbEntity
  8
0
100
AcDbBlockEnd
  0
ENDSEC
  0
SECTION
  2
ENTITIES
  0
LINE
  5
96
330
1F
100
AcDbEntity
  8
외형선
  6
Continuous
370
    15
100
AcDbLine
 10
15.72192116787305
 20
2.38125
 30
0.0
 11
-15.72192116787298
 21
2.381249999999997
 31
0.0
  0
LINE
  5
97
330
1F
100
AcDbEntity
  8
외형선
  6
Continuous
370
    15
100
AcDbLine
 10
-15.72192116787304
 20
-2.381250000000001
 30
0.0
 11
15.72192116787306
 21
-2.381249999999998
 31
0.0
  0
LINE
  5
98
330
1F
100
AcDbEntity
  8
외형선
  6
Continuous
370
    15
100
AcDbLine
 10
15.72192116787305
 20
-2.381249999999999
 30
0.0
 11
16.46250000000001
 21
-2.182812499999999
 31
0.0
  0
LINE
  5
99
330
1F
100
AcDbEntity
  8
외형선
  6
Continuous
370
    15
100
AcDbLine
 10
16.46250000000001
 20
2.182812500000001
 30
0.0
 11
15.72192116787305
 21
2.381250000000001
 31
0.0
  0
LINE
  5
9C
330
1F
100
AcDbEntity
  8
외형선
  6
Continuous
370
    15
100
AcDbLine
 10
16.57259708243051
 20
2.182812500000001
 30
0.0
 11
16.46250000000001
 21
2.182812500000001
 31
0.0
  0
LINE
  5
9D
330
1F
100
AcDbEntity
  8
외형선
  6
Continuous
370
    15
100
AcDbLine
 10
16.46250000000001
 20
-2.182812499999999
 30
0.0
 11
16.57259708243051
 21
-2.182812499999999
 31
0.0
  0
LINE
  5
9E
330
1F
100
AcDbEntity
  8
외형선
  6
Continuous
370
    15
100
AcDbLine
 10
16.57263419381994
 20
-1.747928464253755
 30
0.0
 11
17.46250000000001
 21
-1.7095824758078
 31
0.0
  0
LINE
  5
9F
330
1F
100
AcDbEntity
  8
외형선
  6
Continuous
370
    15
100
AcDbLine
 10
17.46250000000001
 20
1.70958221770204
 30
0.0
 11
17.2432456734618
 21
1.716387522571625
 31
0.0
  0
LINE
  5
A0
330
1F
100
AcDbEntity
  8
0
  6
Continuous
 62
     1
370
    15
100
AcDbLine
 10
19.74557727055851
 20
0.5593155673806849
 30
0.0
 11
19.13856450154208
 21
0.8622575654077476
 31
0.0
  0
LINE
  5
A1
330
1F
100
AcDbEntity
  8
0
  6
Continuous
 62
     1
370
    15
100
AcDbLine
 10
18.54448411326123
 20
0.611146231722471
 30
0.0
 11
18.50870163489995
 21
0.6307983146775372
 31
0.0
  0
SPLINE
  5
A2
330
1F
100
AcDbEntity
  8
0
  6
Continuous
 62
     1
370
    15
100
AcDbSpline
210
0.0
220
0.0
230
1.0
 70
     8
 71
     3
 72
     9
 73
     5
 74
     0
 42
0.000000001
 43
0.00000001
 40
0.0
 40
0.0
 40
0.0
 40
0.0
 40
0.4734877687767795
 40
1.0
 40
1.0
 40
1.0
 40
1.0
 10
19.02268881536416
 20
1.734543270523176
 30
0.0
 10
18.77734959496493
 20
1.723514037380128
 30
0.0
 10
18.25919635727299
 20
1.700220440648915
 30
0.0
 10
17.73729005283769
 20
1.706353398490586
 30
0.0
 10
17.4625
 20
1.709582475807802
 30
0.0
  0
SPLINE
  5
A3
330
1F
100
AcDbEntity
  8
0
  6
Continuous
 62
     1
370
    15
100
AcDbSpline
210
0.0
220
0.0
230
1.0
 70
     8
 71
     3
 72
    23
 73
    19
 74
     0
 42
0.000000001
 43
0.00000001
 40
0.0
 40
0.0
 40
0.0
 40
0.0
 40
0.0986938380223926
 40
0.1724216026999807
 40
0.2408576736250568
 40
0.2995999499612839
 40
0.3546943164784776
 40
0.4236390734069146
 40
0.4961421292330274
 40
0.5572058614024195
 40
0.6098145980355386
 40
0.6733322531871889
 40
0.7455518619663267
 40
0.7882470738956373
 40
0.8208037513899797
 40
0.8567152656462705
 40
0.9163184779722131
 40
1.0
 40
1.0
 40
1.0
 40
1.0
 10
24.58815158731202
 20
1.492935983822772
 30
0.0
 10
24.46633195186648
 20
1.483105745096355
 30
0.0
 10
24.25350876852771
 20
1.465931972649208
 30
0.0
 10
23.93935254694299
 20
1.449916139793477
 30
0.0
 10
23.6830065579178
 20
1.441026233024251
 30
0.0
 10
23.45162025274325
 20
1.436819692120887
 30
0.0
 10
23.21924078588662
 20
1.435959087480678
 30
0.0
 10
22.9695470933845
 20
1.439076101226819
 30
0.0
 10
22.71209456051309
 20
1.446909836010321
 30
0.0
 10
22.4753891108958
 20
1.458104174023478
 30
0.0
 10
22.25011609768646
 20
1.472002264047926
 30
0.0
 10
22.01104913477246
 20
1.490351995807672
 30
0.0
 10
21.78421862136495
 20
1.51134029865392
 30
0.0
 10
21.59669758006866
 20
1.531198591234517
 30
0.0
 10
21.45630150596794
 20
1.547272823005372
 30
0.0
 10
21.29446913886611
 20
1.567082858723381
 30
0.0
 10
21.0662700173907
 20
1.597439171257819
 30
0.0
 10
20.88327259172052
 20
1.62541817233144
 30
0.0
 10
20.7763979607536
 20
1.641758541074964
 30
0.0
  0
SPLINE
  5
A4
330
1F
100
AcDbEntity
  8
0
  6
Continuous
 62
     1
370
    15
100
AcDbSpline
210
0.0
220
0.0
230
1.0
 70
     8
 71
     3
 72
    13
 73
     9
 74
     0
 42
0.000000001
 43
0.00000001
 40
0.0
 40
0.0
 40
0.0
 40
0.0
 40
0.2523969632518921
 40
0.4503083540107573
 40
0.6194600955978136
 40
0.7648552269077636
 40
0.9518868854034788
 40
0.9999999999999999
 40
0.9999999999999999
 40
0.9999999999999999
 40
0.9999999999999999
 10
20.7763979607536
 20
-1.641758541074962
 30
0.0
 10
20.91073438652191
 20
-1.621223312920541
 30
0.0
 10
21.15040769317356
 20
-1.584585848387246
 30
0.0
 10
21.49868023792185
 20
-1.541661089759311
 30
0.0
 10
21.77797130405983
 20
-1.511699808045412
 30
0.0
 10
22.05256051911347
 20
-1.487046510342295
 30
0.0
 10
22.26044337894913
 20
-1.47055423505866
 30
0.0
 10
22.38902478728486
 20
-1.463975921487457
 30
0.0
 10
22.41533390720654
 20
-1.46262992875906
 30
0.0
  0
SPLINE
  5
A5
330
1F
100
AcDbEntity
  8
0
  6
Continuous
 62
     1
370
    15
100
AcDbSpline
210
0.0
220
0.0
230
1.0
 70
     8
 71
     3
 72
    10
 73
     6
 74
     0
 42
0.000000001
 43
0.00000001
 40
0.0
 40
0.0
 40
0.0
 40
0.0
 40
0.2884232759004074
 40
0.6226712558095625
 40
1.0
 40
1.0
 40
1.0
 40
1.0
 10
17.4625
 20
-1.7095824758078
 30
0.0
 10
17.61164101134307
 20
-1.707293232602192
 30
0.0
 10
17.9336185651164
 20
-1.702351031119877
 30
0.0
 10
18.45377647478297
 20
-1.708766558136936
 30
0.0
 10
18.82554867301273
 20
-1.725611095235882
 30
0.0
 10
19.02268881536416
 20
-1.734543270523174
 30
0.0
  0
LINE
  5
A6
330
1F
100
AcDbEntity
  8
외형선
  6
Continuous
370
    15
100
AcDbLine
 10
15.72192116787305
 20
2.381250000000001
 30
0.0
 11
15.72192116787305
 21
-2.381249999999998
 31
0.0
  0
LINE
  5
A8
330
1F
100
AcDbEntity
  8
외형선
  6
Continuous
370
    15
100
AcDbLine
 10
16.46250000000001
 20
2.182812500000001
 30
0.0
 11
16.46250000000001
 21
-2.182812499999999
 31
0.0
  0
LINE
  5
A9
330
1F
100
AcDbEntity
  8
외형선
  6
Continuous
370
    15
100
AcDbLine
 10
-25.39999999999998
 20
1.951249999999997
 30
0.0
 11
-25.39999999999998
 21
-1.951250000000002
 31
0.0
  0
SPLINE
  5
AA
330
1F
100
AcDbEntity
  8
외형선
  6
Continuous
370
    15
100
AcDbSpline
210
0.0
220
0.0
230
1.0
 70
     8
 71
     3
 72
    10
 73
     6
 74
     0
 42
0.000000001
 43
0.00000001
 40
0.0
 40
0.0
 40
0.0
 40
0.0
 40
0.5
 40
0.5
 40
1.0
 40
1.0
 40
1.0
 40
1.0
 10
17.46249999999903
 20
1.639509411841805
 30
0.0
 10
17.31359371619209
 20
1.69612477699675
 30
0.0
 10
17.16412934198985
 20
1.749001300766891
 30
0.0
 10
16.86718662419498
 20
1.846202085970026
 30
0.0
 10
16.72084902260357
 20
1.89043571544062
 30
0.0
 10
16.57269868272251
 20
1.93039892099155
 30
0.0
  0
LINE
  5
AB
330
1F
100
AcDbEntity
  8
외형선
  6
Continuous
370
    15
100
AcDbLine
 10
17.46250000000001
 20
1.639509411841432
 30
0.0
 11
17.46250000000001
 21
1.177746352652058
 31
0.0
  0
SPLINE
  5
AC
330
1F
100
AcDbEntity
  8
외형선
  6
Continuous
370
    15
100
AcDbSpline
210
0.0
220
0.0
230
1.0
 70
     8
 71
     3
 72
    10
 73
     6
 74
     0
 42
0.000000001
 43
0.00000001
 40
0.0
 40
0.0
 40
0.0
 40
0.0
 40
0.5
 40
0.5
 40
1.0
 40
1.0
 40
1.0
 40
1.0
 10
17.46249999999903
 20
1.177746352652532
 30
0.0
 10
17.3135766964386
 20
1.249957177799011
 30
0.0
 10
17.16409517539084
 20
1.319520645766011
 30
0.0
 10
16.86711897061803
 20
1.451925634865597
 30
0.0
 10
16.72076491035678
 20
1.514623531409812
 30
0.0
 10
16.57259708243051
 20
1.573947585909931
 30
0.0
  0
SPLINE
  5
AD
330
1F
100
AcDbEntity
  8
외형선
  6
Continuous
370
    15
100
AcDbSpline
210
0.0
220
0.0
230
1.0
 70
     8
 71
     3
 72
     9
 73
     5
 74
     0
 42
0.000000001
 43
0.00000001
 40
0.0
 40
0.0
 40
0.0
 40
0.0
 40
0.4111287086080768
 40
0.9999999999999999
 40
0.9999999999999999
 40
0.9999999999999999
 40
0.9999999999999999
 10
17.23465163003975
 20
-1.719400889889167
 30
0.0
 10
17.14382324156595
 20
-1.752258115905491
 30
0.0
 10
16.92289878026696
 20
-1.83217767717273
 30
0.0
 10
16.70249068337344
 20
-1.893995927871169
 30
0.0
 10
16.57269868272251
 20
-1.930398920991549
 30
0.0
  0
LINE
  5
AE
330
1F
100
AcDbEntity
  8
외형선
  6
Continuous
370
    15
100
AcDbLine
 10
16.57259708243051
 20
1.930442587945964
 30
0.0
 11
16.57259708243051
 21
2.182812500000001
 31
0.0
  0
LINE
  5
AF
330
1F
100
AcDbEntity
  8
외형선
  6
Continuous
370
    15
100
AcDbLine
 10
16.57259708243051
 20
-2.182812499999999
 30
0.0
 11
16.57259708243051
 21
1.574464190540471
 31
0.0
  0
SPLINE
  5
B0
330
1F
100
AcDbEntity
  8
외형선
  6
Continuous
370
    15
100
AcDbSpline
210
0.0
220
0.0
230
1.0
 70
    24
 71
     3
 72
    10
 73
     6
 74
     0
 42
0.000000001
 43
0.00000001
 40
0.0
 40
0.0
 40
0.0
 40
0.0
 40
0.5
 40
0.5
 40
1.0
 40
1.0
 40
1.0
 40
1.0
 10
17.46250000000001
 20
1.177746352652057
 30
0.0
 10
17.46250000000001
 20
1.146747585315658
 30
0.0
 10
17.46250000000001
 20
1.093145099098151
 30
0.0
 10
17.46250000000001
 20
0.9513874981692758
 30
0.0
 10
17.46250000000001
 20
0.8637426578132348
 30
0.0
 10
17.46250000000001
 20
0.7708445965271948
 30
0.0
  0
SPLINE
  5
B1
330
1F
100
AcDbEntity
  8
외형선
  6
Continuous
370
    15
100
AcDbSpline
210
0.0
220
0.0
230
1.0
 70
     8
 71
     3
 72
    10
 73
     6
 74
     0
 42
0.000000001
 43
0.00000001
 40
0.0
 40
0.0
 40
0.0
 40
0.0
 40
0.4999999999999999
 40
0.4999999999999999
 40
1.0
 40
1.0
 40
1.0
 40
1.0
 10
17.46249999999755
 20
0.7708445965280468
 30
0.0
 10
17.3135807983106
 20
0.8226795455302742
 30
0.0
 10
17.16410340976764
 20
0.872787539158541
 30
0.0
 10
16.86713527556183
 20
0.9685205586697389
 30
0.0
 10
16.72078518200242
 20
1.014040184604633
 30
0.0
 10
16.57262156880808
 20
1.057307430738756
 30
0.0
  0
SPLINE
  5
B2
330
1F
100
AcDbEntity
  8
외형선
  6
Continuous
370
    15
100
AcDbSpline
210
0.0
220
0.0
230
1.0
 70
     8
 71
     3
 72
    10
 73
     6
 74
     0
 42
0.000000001
 43
0.00000001
 40
0.0
 40
0.0
 40
0.0
 40
0.0
 40
0.5
 40
0.5
 40
1.0
 40
1.0
 40
1.0
 40
1.0
 10
17.46249999999815
 20
-1.507743109816417
 30
0.0
 10
17.31358291321084
 20
-1.473130058858328
 30
0.0
 10
17.16410765536051
 20
-1.43497077783485
 30
0.0
 10
16.86714368229141
 20
-1.352371694465242
 30
0.0
 10
16.7207956339248
 20
-1.308064463000443
 30
0.0
 10
16.57263419381994
 20
-1.260668973841079
 30
0.0
  0
SPLINE
  5
B3
330
1F
100
AcDbEntity
  8
외형선
  6
Continuous
370
    15
100
AcDbSpline
210
0.0
220
0.0
230
1.0
 70
    24
 71
     3
 72
    14
 73
    10
 74
     0
 42
0.000000001
 43
0.00000001
 40
0.0
 40
0.0
 40
0.0
 40
0.0
 40
0.2500000000000001
 40
0.2500000000000001
 40
0.5000000000000001
 40
0.5000000000000001
 40
0.75
 40
0.75
 40
1.0
 40
1.0
 40
1.0
 40
1.0
 10
17.46249999999992
 20
0.7708445965272255
 30
0.0
 10
17.46249999999992
 20
0.5869506661435364
 30
0.0
 10
17.46249999999991
 20
0.3898251924072036
 30
0.0
 10
17.46249999999991
 20
-0.0149506423654913
 30
0.0
 10
17.46249999999992
 20
-0.2224246924191001
 30
0.0
 10
17.46249999999992
 20
-0.6273954220494401
 30
0.0
 10
17.46249999999992
 20
-0.8246763162903183
 30
0.0
 10
17.46249999999992
 20
-1.190612933942
 30
0.0
 10
17.46249999999992
 20
-1.359146898146165
 30
0.0
 10
17.46249999999992
 20
-1.507743109816827
 30
0.0
  0
SPLINE
  5
B4
330
1F
100
AcDbEntity
  8
외형선
  6
Continuous
370
    15
100
AcDbSpline
210
0.0
220
0.0
230
1.0
 70
    24
 71
     3
 72
    10
 73
     6
 74
     0
 42
0.000000001
 43
0.00000001
 40
0.0
 40
0.0
 40
0.0
 40
0.0
 40
0.551533989300023
 40
0.9532885841032955
 40
1.0
 40
1.0
 40
1.0
 40
1.0
 10
17.46250000000001
 20
-1.507743109816848
 30
0.0
 10
17.46250000000001
 20
-1.568302902755837
 30
0.0
 10
17.46250000000001
 20
-1.672976341536403
 30
0.0
 10
17.46250000000001
 20
-1.718294123009236
 30
0.0
 10
17.46250000000001
 20
-1.707218214837377
 30
0.0
 10
17.46250000000001
 20
-1.706064568093353
 30
0.0
  0
SPLINE
  5
B5
330
1F
100
AcDbEntity
  8
외형선
  6
Continuous
370
    15
100
AcDbSpline
210
0.0
220
0.0
230
1.0
 70
    24
 71
     3
 72
     9
 73
     5
 74
     0
 42
0.000000001
 43
0.00000001
 40
0.0
 40
0.0
 40
0.0
 40
0.0
 40
0.9202867235308766
 40
1.0
 40
1.0
 40
1.0
 40
1.0
 10
17.46250000000001
 20
1.705916935551574
 30
0.0
 10
17.46250000000001
 20
1.706590317818873
 30
0.0
 10
17.46250000000001
 20
1.707322027024364
 30
0.0
 10
17.46250000000001
 20
1.676920703473445
 30
0.0
 10
17.46250000000001
 20
1.674497314364203
 30
0.0
  0
SPLINE
  5
B6
330
1F
100
AcDbEntity
  8
0
  6
Continuous
 62
     1
370
    15
100
AcDbSpline
210
0.0
220
0.0
230
1.0
 70
     8
 71
     3
 72
    32
 73
    28
 74
     0
 42
0.000000001
 43
0.00000001
 40
0.0
 40
0.0
 40
0.0
 40
0.0
 40
0.1250000000000002
 40
0.1250000000000002
 40
0.1875000000000002
 40
0.1875000000000002
 40
0.2500000000000003
 40
0.2500000000000003
 40
0.3125000000000003
 40
0.3125000000000003
 40
0.3750000000000004
 40
0.3750000000000004
 40
0.4375000000000005
 40
0.4375000000000005
 40
0.5000000000000006
 40
0.5000000000000006
 40
0.5625000000000007
 40
0.5625000000000007
 40
0.6250000000000007
 40
0.6250000000000007
 40
0.7500000000000006
 40
0.7500000000000006
 40
0.8750000000000003
 40
0.8750000000000003
 40
0.9375000000000002
 40
0.9375000000000002
 40
1.0
 40
1.0
 40
1.0
 40
1.0
 10
25.40000000000001
 20
-2.071359991120255
 30
0.0
 10
25.07260638979255
 20
-2.011323991542718
 30
0.0
 10
24.73592375162138
 20
-1.926706531924451
 30
0.0
 10
24.24258665550201
 20
-1.769197612805049
 30
0.0
 10
24.07828570172223
 20
-1.711506254175604
 30
0.0
 10
23.74613482926221
 20
-1.586194208204792
 30
0.0
 10
23.57949219414316
 20
-1.518701919098664
 30
0.0
 10
23.24936144345274
 20
-1.375837616875414
 30
0.0
 10
23.08604037265831
 20
-1.300524869771975
 30
0.0
 10
22.75442447128222
 20
-1.14211327505057
 30
0.0
 10
22.58766876804417
 20
-1.059231197942088
 30
0.0
 10
22.25656039067317
 20
-0.8882607331972787
 30
0.0
 10
22.0934854991264
 20
-0.8004192018824138
 30
0.0
 10
21.76267026109304
 20
-0.6198325092785677
 30
0.0
 10
21.59593687537632
 20
-0.5272518460477914
 30
0.0
 10
21.26411520594037
 20
-0.339892252388975
 30
0.0
 10
21.10055213506111
 20
-0.2454127367386792
 30
0.0
 10
20.77080111198696
 20
-0.0550945466077011
 30
0.0
 10
20.6042253688049
 20
0.0408228014290729
 30
0.0
 10
20.10582229168237
 20
0.327145030095166
 30
0.0
 10
19.77868720693448
 20
0.5154715346030992
 30
0.0
 10
19.113790558084
 20
0.8780357999305533
 30
0.0
 10
18.78675883851826
 20
1.050313435790589
 30
0.0
 10
18.2882188291465
 20
1.289146628659845
 30
0.0
 10
18.12172766055151
 20
1.365308048151544
 30
0.0
 10
17.7923990391282
 20
1.508840692693886
 30
0.0
 10
17.62850200035209
 20
1.576394117939114
 30
0.0
 10
17.46249999999626
 20
1.639509411842855
 30
0.0
  0
SPLINE
  5
B7
330
1F
100
AcDbEntity
  8
0
  6
Continuous
 62
     1
370
    15
100
AcDbSpline
210
0.0
220
0.0
230
1.0
 70
     8
 71
     3
 72
    15
 73
    11
 74
     0
 42
0.000000001
 43
0.00000001
 40
0.0
 40
0.0
 40
0.0
 40
0.0
 40
0.1296557722178089
 40
0.2589376150270628
 40
0.3885028734087236
 40
0.5182420054408837
 40
0.6475364308680006
 40
0.7770235485962789
 40
0.9068193603146913
 40
1.0
 40
1.0
 40
1.0
 40
1.0
 10
25.40000000000001
 20
-1.722178520816246
 30
0.0
 10
25.15444624038907
 20
-1.671127462017989
 30
0.0
 10
24.6640469023035
 20
-1.569172576526118
 30
0.0
 10
23.92884704087651
 20
-1.338917534419717
 30
0.0
 10
23.19305655792599
 20
-1.063187109579487
 30
0.0
 10
22.4569542058077
 20
-0.7467277384462748
 30
0.0
 10
21.72170672628666
 20
-0.40098015361357
 30
0.0
 10
20.98606356122578
 20
-0.0411965762173292
 30
0.0
 10
20.31830800008002
 20
0.2880094094847908
 30
0.0
 10
19.89629253579121
 20
0.4861586943666165
 30
0.0
 10
19.71993458107463
 20
0.5689641969308521
 30
0.0
  0
LINE
  5
B8
330
1F
100
AcDbEntity
  8
0
  6
Continuous
 62
     1
370
    15
100
AcDbLine
 10
25.40000000000001
 20
-2.071359991120256
 30
0.0
 11
25.40000000000001
 21
-1.722178520816246
 31
0.0
  0
SPLINE
  5
B9
330
1F
100
AcDbEntity
  8
0
  6
Continuous
 62
     1
370
    15
100
AcDbSpline
210
0.0
220
0.0
230
1.0
 70
     8
 71
     3
 72
    32
 73
    28
 74
     0
 42
0.000000001
 43
0.00000001
 40
0.0
 40
0.0
 40
0.0
 40
0.0
 40
0.1250000000000001
 40
0.1250000000000001
 40
0.1875000000000001
 40
0.1875000000000001
 40
0.2500000000000002
 40
0.2500000000000002
 40
0.3125000000000002
 40
0.3125000000000002
 40
0.3750000000000002
 40
0.3750000000000002
 40
0.4375000000000003
 40
0.4375000000000003
 40
0.5000000000000003
 40
0.5000000000000003
 40
0.5625000000000003
 40
0.5625000000000003
 40
0.6250000000000004
 40
0.6250000000000004
 40
0.7500000000000002
 40
0.7500000000000002
 40
0.8750000000000001
 40
0.8750000000000001
 40
0.9375000000000001
 40
0.9375000000000001
 40
1.0
 40
1.0
 40
1.0
 40
1.0
 10
25.40000000000001
 20
-2.180967620118454
 30
0.0
 10
25.07260638979268
 20
-2.173144594526986
 30
0.0
 10
24.73592375162162
 20
-2.139951425863076
 30
0.0
 10
24.24258665550241
 20
-2.054467856835544
 30
0.0
 10
24.0782857017227
 20
-2.020032100988975
 30
0.0
 10
23.74613482926279
 20
-1.939488986078102
 30
0.0
 10
23.57949219414379
 20
-1.893449718487981
 30
0.0
 10
23.24936144345348
 20
-1.791088585446854
 30
0.0
 10
23.08604037265911
 20
-1.73482896686479
 30
0.0
 10
22.75442447128314
 20
-1.612113423827003
 30
0.0
 10
22.58766876804514
 20
-1.545807525712838
 30
0.0
 10
22.25656039067426
 20
-1.405022594289619
 30
0.0
 10
22.09348549912754
 20
-1.330764908241296
 30
0.0
 10
21.7626702610943
 20
-1.174360919534234
 30
0.0
 10
21.59593687537765
 20
-1.092339985057684
 30
0.0
 10
21.2641152059418
 20
-0.9227547032357443
 30
0.0
 10
21.10055213506259
 20
-0.8354751492389394
 30
0.0
 10
20.77080111198857
 20
-0.6561859675364325
 30
0.0
 10
20.60422536880657
 20
-0.5640887173285891
 30
0.0
 10
20.10582229168419
 20
-0.2839567265875702
 30
0.0
 10
19.77868720693644
 20
-0.0927549518051209
 30
0.0
 10
19.11379055808618
 20
0.2894345129989803
 30
0.0
 10
18.78675883852056
 20
0.4783545367568418
 30
0.0
 10
18.28821882914898
 20
0.7518059452367345
 30
0.0
 10
18.12172766055404
 20
0.8411009414870202
 30
0.0
 10
17.79239903913081
 20
1.013723289203931
 30
0.0
 10
17.62850200035478
 20
1.097254306511539
 30
0.0
 10
17.46249999999903
 20
1.177746352652531
 30
0.0
  0
SPLINE
  5
BA
330
1F
100
AcDbEntity
  8
0
  6
Continuous
 62
     1
370
    15
100
AcDbSpline
210
0.0
220
0.0
230
1.0
 70
     8
 71
     3
 72
    11
 73
     7
 74
     0
 42
0.000000001
 43
0.00000001
 40
0.0
 40
0.0
 40
0.0
 40
0.0
 40
0.0348850205017479
 40
0.4747774274021853
 40
0.738061096830592
 40
1.0
 40
1.0
 40
1.0
 40
1.0
 10
19.970590647572
 20
-0.2039953656654839
 30
0.0
 10
19.94142114682205
 20
-0.1926544657983009
 30
0.0
 10
19.54443068141665
 20
-0.0383073223561131
 30
0.0
 10
18.9273247634666
 20
0.218785644451462
 30
0.0
 10
18.12023257192043
 20
0.5336444211562518
 30
0.0
 10
17.68136963954849
 20
0.6919129469470403
 30
0.0
 10
17.4625
 20
0.7708445965271954
 30
0.0
  0
SPLINE
  5
BB
330
1F
100
AcDbEntity
  8
외형선
  6
Continuous
370
    15
100
AcDbSpline
210
0.0
220
0.0
230
1.0
 70
    24
 71
     3
 72
    10
 73
     6
 74
     0
 42
0.000000001
 43
0.00000001
 40
0.0
 40
0.0
 40
0.0
 40
0.0
 40
0.5
 40
0.5
 40
1.0
 40
1.0
 40
1.0
 40
1.0
 10
17.46250000000001
 20
1.177746352652057
 30
0.0
 10
17.46250000000001
 20
1.146747585315658
 30
0.0
 10
17.46250000000001
 20
1.093145099098151
 30
0.0
 10
17.46250000000001
 20
0.9513874981692758
 30
0.0
 10
17.46250000000001
 20
0.8637426578132348
 30
0.0
 10
17.46250000000001
 20
0.7708445965271948
 30
0.0
  0
LINE
  5
BC
330
1F
100
AcDbEntity
  8
0
  6
Continuous
 62
     1
370
    15
100
AcDbLine
 10
25.40000000000001
 20
-2.180967620118456
 30
0.0
 11
25.40000000000001
 21
-2.071359991120255
 31
0.0
  0
SPLINE
  5
BD
330
1F
100
AcDbEntity
  8
0
  6
Continuous
 62
     1
370
    15
100
AcDbSpline
210
0.0
220
0.0
230
1.0
 70
     8
 71
     3
 72
     8
 73
     4
 74
     0
 42
0.000000001
 43
0.00000001
 40
0.0
 40
0.0
 40
0.0
 40
0.0
 40
1.0
 40
1.0
 40
1.0
 40
1.0
 10
24.04877037530581
 20
0.6112018266196776
 30
0.0
 10
23.97145019123441
 20
0.702822899092845
 30
0.0
 10
23.90241771646469
 20
0.7910358002691493
 30
0.0
 10
23.84364407772411
 20
0.8750299397561769
 30
0.0
  0
LINE
  5
BE
330
1F
100
AcDbEntity
  8
0
  6
Continuous
 62
     1
370
    15
100
AcDbLine
 10
23.87125957379022
 20
0.8982020923200209
 30
0.0
 11
25.40000000000001
 21
0.000000000000002
 31
0.0
  0
LINE
  5
BF
330
1F
100
AcDbEntity
  8
0
  6
Continuous
 62
     1
370
    15
100
AcDbLine
 10
25.40000000000001
 20
0.000000000000002
 30
0.0
 11
25.40000000000001
 21
-0.5833412431303323
 31
0.0
  0
SPLINE
  5
C0
330
1F
100
AcDbEntity
  8
0
  6
Continuous
 62
     1
370
    15
100
AcDbSpline
210
0.0
220
0.0
230
1.0
 70
     8
 71
     3
 72
    10
 73
     6
 74
     0
 42
0.000000001
 43
0.00000001
 40
0.0
 40
0.0
 40
0.0
 40
0.0
 40
0.5
 40
0.5
 40
1.0
 40
1.0
 40
1.0
 40
1.0
 10
25.40000000000001
 20
-0.5833412431303321
 30
0.0
 10
25.16608965399492
 20
-0.3994465620390388
 30
0.0
 10
24.93608997950518
 20
-0.2080072785352075
 30
0.0
 10
24.48410341293783
 20
0.1903298247571112
 30
0.0
 10
24.26001505108799
 20
0.3993333841186737
 30
0.0
 10
24.04877037530581
 20
0.6112018266196779
 30
0.0
  0
SPLINE
  5
C1
330
1F
100
AcDbEntity
  8
외형선
  6
Continuous
370
    15
100
AcDbSpline
210
0.0
220
0.0
230
1.0
 70
    24
 71
     3
 72
     9
 73
     5
 74
     0
 42
0.000000001
 43
0.00000001
 40
0.0
 40
0.0
 40
0.0
 40
0.0
 40
0.9213512813573259
 40
1.0
 40
1.0
 40
1.0
 40
1.0
 10
17.46250000000001
 20
1.706275036022155
 30
0.0
 10
17.46250000000001
 20
1.706968638945639
 30
0.0
 10
17.4625
 20
1.70772144945073
 30
0.0
 10
17.46250000000001
 20
1.676919822830031
 30
0.0
 10
17.46250000000001
 20
1.674497314364203
 30
0.0
  0
SPLINE
  5
C2
330
1F
100
AcDbEntity
  8
0
  6
Continuous
 62
     1
370
    15
100
AcDbSpline
210
0.0
220
0.0
230
1.0
 70
     8
 71
     3
 72
    14
 73
    10
 74
     0
 42
0.000000001
 43
0.00000001
 40
0.0
 40
0.0
 40
0.0
 40
0.0
 40
0.1701671641955475
 40
0.3167884067016253
 40
0.462900047451738
 40
0.6092324307929197
 40
0.7559186260055709
 40
0.9020591126465033
 40
1.0
 40
1.0
 40
1.0
 40
1.0
 10
24.0487703747241
 20
0.6112018268711387
 30
0.0
 10
23.7636350278644
 20
0.7315589668519781
 30
0.0
 10
23.23281832974866
 20
0.9556195063217441
 30
0.0
 10
22.45695868389694
 20
1.233220421150413
 30
0.0
 10
21.72166950425049
 20
1.45260732523554
 30
0.0
 10
20.98601426498851
 20
1.616863151869741
 30
0.0
 10
20.24983259885853
 20
1.71749593534668
 30
0.0
 10
19.59544509303836
 20
1.758043686378324
 30
0.0
 10
19.18653131125718
 20
1.736037134480787
 30
0.0
 10
19.02244923492621
 20
1.72720671376837
 30
0.0
  0
SPLINE
  5
C3
330
1F
100
AcDbEntity
  8
0
  6
Continuous
 62
     1
370
    15
100
AcDbSpline
210
0.0
220
0.0
230
1.0
 70
    24
 71
     3
 72
    10
 73
     6
 74
     0
 42
0.000000001
 43
0.00000001
 40
0.0
 40
0.0
 40
0.0
 40
0.0
 40
0.5
 40
0.5
 40
1.0
 40
1.0
 40
1.0
 40
1.0
 10
25.40000000000001
 20
-1.722178520816245
 30
0.0
 10
25.40000000000001
 20
-1.590160110059867
 30
0.0
 10
25.40000000000001
 20
-1.423349785964587
 30
0.0
 10
25.40000000000001
 20
-1.035531836146092
 30
0.0
 10
25.40000000000001
 20
-0.8148601530354357
 30
0.0
 10
25.40000000000001
 20
-0.5833412431304023
 30
0.0
  0
SPLINE
  5
C4
330
1F
100
AcDbEntity
  8
0
  6
Continuous
 62
     1
370
    15
100
AcDbSpline
210
0.0
220
0.0
230
1.0
 70
    24
 71
     3
 72
     8
 73
     4
 74
     0
 42
0.000000001
 43
0.00000001
 40
0.0
 40
0.0
 40
0.0
 40
0.0
 40
1.0
 40
1.0
 40
1.0
 40
1.0
 10
24.07159204667292
 20
1.066300996425045
 30
0.0
 10
23.99953698133778
 20
1.005839617677873
 30
0.0
 10
23.92331618377888
 20
0.941882774561844
 30
0.0
 10
23.84364407772416
 20
0.875029939756216
 30
0.0
  0
SPLINE
  5
C5
330
1F
100
AcDbEntity
  8
0
  6
Continuous
 62
     1
370
    15
100
AcDbSpline
210
0.0
220
0.0
230
1.0
 70
     8
 71
     3
 72
     9
 73
     5
 74
     0
 42
0.000000001
 43
0.00000001
 40
0.0
 40
0.0
 40
0.0
 40
0.0
 40
0.9066409485702792
 40
1.0
 40
1.0
 40
1.0
 40
1.0
 10
25.40000000000001
 20
1.527968750000001
 30
0.0
 10
25.15444193655898
 20
1.526925902465019
 30
0.0
 10
24.88359815454334
 20
1.525775670350942
 30
0.0
 10
24.6128805064792
 20
1.493321336070651
 30
0.0
 10
24.58760656365065
 20
1.49029143020746
 30
0.0
  0
SPLINE
  5
C6
330
1F
100
AcDbEntity
  8
0
  6
Continuous
 62
     1
370
    15
100
AcDbSpline
210
0.0
220
0.0
230
1.0
 70
     8
 71
     3
 72
     8
 73
     4
 74
     0
 42
0.000000001
 43
0.00000001
 40
0.0
 40
0.0
 40
0.0
 40
0.0
 40
1.0
 40
1.0
 40
1.0
 40
1.0
 10
25.40000000000001
 20
1.527968750000002
 30
0.0
 10
24.95102903056684
 20
1.406075596436757
 30
0.0
 10
24.50633569784088
 20
1.256449324117452
 30
0.0
 10
24.07159204668421
 20
1.066300996432609
 30
0.0
  0
SPLINE
  5
C7
330
1F
100
AcDbEntity
  8
0
  6
Continuous
 62
     1
370
    15
100
AcDbSpline
210
0.0
220
0.0
230
1.0
 70
     8
 71
     3
 72
    12
 73
     8
 74
     0
 42
0.000000001
 43
0.00000001
 40
0.0
 40
0.0
 40
0.0
 40
0.0
 40
0.1596871554812687
 40
0.3811705632146218
 40
0.6028306638373797
 40
0.8019105304831194
 40
1.0
 40
1.0
 40
1.0
 40
1.0
 10
20.77878362408478
 20
-1.634949465376349
 30
0.0
 10
20.60218461823074
 20
-1.662170762435703
 30
0.0
 10
20.18064575167849
 20
-1.727147542191566
 30
0.0
 10
19.51449260561601
 20
-1.75596901698692
 30
0.0
 10
18.80469415378893
 20
-1.72933159385928
 30
0.0
 10
18.12016761022856
 20
-1.648037458889551
 30
0.0
 10
17.68135779225038
 20
-1.554430085160797
 30
0.0
 10
17.46250000000001
 20
-1.507743109816847
 30
0.0
  0
SPLINE
  5
C8
330
1F
100
AcDbEntity
  8
외형선
  6
Continuous
370
    15
100
AcDbSpline
210
0.0
220
0.0
230
1.0
 70
    24
 71
     3
 72
    14
 73
    10
 74
     0
 42
0.000000001
 43
0.00000001
 40
0.0
 40
0.0
 40
0.0
 40
0.0
 40
0.2500000000000001
 40
0.2500000000000001
 40
0.5000000000000001
 40
0.5000000000000001
 40
0.75
 40
0.75
 40
1.0
 40
1.0
 40
1.0
 40
1.0
 10
17.46249999999992
 20
0.7708445965272255
 30
0.0
 10
17.46249999999992
 20
0.5869506661435364
 30
0.0
 10
17.46249999999991
 20
0.3898251924072036
 30
0.0
 10
17.46249999999991
 20
-0.0149506423654913
 30
0.0
 10
17.46249999999992
 20
-0.2224246924191001
 30
0.0
 10
17.46249999999992
 20
-0.6273954220494401
 30
0.0
 10
17.46249999999992
 20
-0.8246763162903183
 30
0.0
 10
17.46249999999992
 20
-1.190612933942
 30
0.0
 10
17.46249999999992
 20
-1.359146898146165
 30
0.0
 10
17.46249999999992
 20
-1.507743109816827
 30
0.0
  0
LINE
  5
C9
330
1F
100
AcDbEntity
  8
0
  6
Continuous
 62
     1
370
    15
100
AcDbLine
 10
25.40000000000001
 20
0.000000000000002
 30
0.0
 11
25.40000000000001
 21
1.527968750000002
 31
0.0
  0
SPLINE
  5
CA
330
1F
100
AcDbEntity
  8
외형선
  6
Continuous
370
    15
100
AcDbSpline
210
0.0
220
0.0
230
1.0
 70
    24
 71
     3
 72
    10
 73
     6
 74
     0
 42
0.000000001
 43
0.00000001
 40
0.0
 40
0.0
 40
0.0
 40
0.0
 40
0.5532827555400576
 40
0.9563112063264627
 40
1.0
 40
1.0
 40
1.0
 40
1.0
 10
17.46250000000001
 20
-1.507743109816848
 30
0.0
 10
17.46250000000001
 20
-1.568276739185712
 30
0.0
 10
17.46250000000001
 20
-1.672904956033989
 30
0.0
 10
17.46250000000001
 20
-1.718277414830717
 30
0.0
 10
17.46250000000001
 20
-1.707344897757739
 30
0.0
 10
17.46250000000001
 20
-1.706275701328325
 30
0.0
  0
SPLINE
  5
CB
330
1F
100
AcDbEntity
  8
0
  6
Continuous
 62
     1
370
    15
100
AcDbSpline
210
0.0
220
0.0
230
1.0
 70
     8
 71
     3
 72
    11
 73
     7
 74
     0
 42
0.000000001
 43
0.00000001
 40
0.0
 40
0.0
 40
0.0
 40
0.0
 40
0.1226725562373361
 40
0.414869757275394
 40
0.7072263654339869
 40
0.9999999999999999
 40
0.9999999999999999
 40
0.9999999999999999
 40
0.9999999999999999
 10
22.4145807786734
 20
1.46230398699203
 30
0.0
 10
22.53664808781182
 20
1.516645871751275
 30
0.0
 10
22.94947094295424
 20
1.700426215386878
 30
0.0
 10
23.65311590205561
 20
1.925169121756878
 30
0.0
 10
24.52609670080551
 20
2.12727413427717
 30
0.0
 10
25.10856052492442
 20
2.163061289586249
 30
0.0
 10
25.40000000000001
 20
2.180967620118456
 30
0.0
  0
SPLINE
  5
CC
330
1F
100
AcDbEntity
  8
0
  6
Continuous
 62
     1
370
    15
100
AcDbSpline
210
0.0
220
0.0
230
1.0
 70
    24
 71
     3
 72
    10
 73
     6
 74
     0
 42
0.000000001
 43
0.00000001
 40
0.0
 40
0.0
 40
0.0
 40
0.0
 40
0.5
 40
0.5
 40
1.0
 40
1.0
 40
1.0
 40
1.0
 10
25.40000000000001
 20
1.527968750000001
 30
0.0
 10
25.40000000000001
 20
1.620590410562215
 30
0.0
 10
25.40000000000001
 20
1.728225357824005
 30
0.0
 10
25.40000000000001
 20
1.954043187284868
 30
0.0
 10
25.40000000000001
 20
2.071649359085402
 30
0.0
 10
25.40000000000001
 20
2.180967620118457
 30
0.0
  0
LINE
  5
CD
330
1F
100
AcDbEntity
  8
중심선
 62
     1
100
AcDbLine
 10
-28.4
 20
-0.0000000000000035
 30
0.0
 11
28.4
 21
0.0000000000000035
 31
0.0
  0
LINE
  5
CE
330
1F
100
AcDbEntity
  8
참조1
100
AcDbLine
 10
-7.056711678730513
 20
0.0010749287238892
 30
0.0
 11
-7.056711678730506
 21
-39.99892507127611
 31
0.0
  0
LINE
  5
CF
330
1F
100
AcDbEntity
  8
참조1
100
AcDbLine
 10
-7.056711678730506
 20
-39.99892507127611
 30
0.0
 11
-29.45992727542973
 21
-39.9989250712761
 31
0.0
  0
CIRCLE
  5
D0
330
1F
100
AcDbEntity
  8
해칭선
100
AcDbCircle
 10
0.0
 20
-0.0000000000000011
 30
0.0
 40
3.000000000000001
  0
INSERT
  5
D1
330
1F
100
AcDbEntity
  8
0
  6
Continuous
 62
     7
100
AcDbBlockReference
 66
     1
  2
블럭10
 10
-15.60042280765841
 20
-28.47164518000572
 30
0.0
  0
ATTRIB
  5
D2
330
D1
100
AcDbEntity
  8
FORMAT
 62
     2
100
AcDbText
 10
-24.7817180963997
 20
-26.39627826717353
 30
0.0
 40
4.233333333333333
  1
E5022011 [ 2 FLUTE ]
 41
0.75
  7
SLDTEXTSTYLE0
 11
-24.7817180963997
 21
-28.5129449338402
 31
0.0
100
AcDbAttribute
  2
AUTOATTR0
 70
     0
 74
     1
  0
SEQEND
  5
D3
330
D1
100
AcDbEntity
  8
0
  6
Continuous
 62
     7
  0
HATCH
  5
D4
330
1F
100
AcDbEntity
  8
중심선
100
AcDbHatch
 10
0.0
 20
0.0
 30
0.0
210
0.0
220
0.0
230
1.0
  2
SOLID
 70
     1
 71
     0
 91
        1
 92
        0
 93
        4
 72
     1
 10
-9.88551350327758
 20
-12.22447087836179
 11
-13.33178874711486
 21
-12.22447087836179
 72
     1
 10
-13.33178874711486
 20
-12.22447087836179
 11
-15.46001860631888
 21
-14.76079645893439
 72
     1
 10
-15.46001860631888
 20
-14.76079645893439
 11
-12.01371027736845
 21
-14.7607570296319
 72
     1
 10
-12.01371027736845
 20
-14.7607570296319
 11
-9.88551350327758
 21
-12.22447087836179
 97
        0
 75
     0
 76
     1
 98
        1
 10
5.396561803197301
 20
23.57445419291432
  0
HATCH
  5
D5
330
1F
100
AcDbEntity
  8
중심선
100
AcDbHatch
 10
0.0
 20
0.0
 30
0.0
210
0.0
220
0.0
230
1.0
  2
SOLID
 70
     1
 71
     0
 91
        1
 92
        0
 93
        4
 72
     1
 10
-4.872749512241599
 20
-12.22447087836179
 11
-8.319024756078882
 21
-12.22447087836179
 72
     1
 10
-8.319024756078882
 20
-12.22447087836179
 11
-12.8501627644363
 21
-17.62447087836181
 72
     1
 10
-12.8501627644363
 20
-17.62447087836181
 11
-9.403887520599016
 21
-17.62447087836181
 72
     1
 10
-9.403887520599016
 20
-17.62447087836181
 11
-4.872749512241599
 21
-12.22447087836179
 97
        0
 75
     0
 76
     1
 98
        1
 10
5.396561803197301
 20
23.57445419291432
  0
HATCH
  5
D6
330
1F
100
AcDbEntity
  8
중심선
100
AcDbHatch
 10
0.0
 20
0.0
 30
0.0
210
0.0
220
0.0
230
1.0
  2
SOLID
 70
     1
 71
     0
 91
        1
 92
        0
 93
        4
 72
     1
 10
0.1400144787942956
 20
-12.22447087836179
 11
-3.30626076504282
 21
-12.22447087836179
 72
     1
 10
-3.30626076504282
 20
-12.22447087836179
 11
-10.3546976669321
 21
-20.62447087836181
 72
     1
 10
-10.3546976669321
 20
-20.62447087836181
 11
-6.908422423094814
 21
-20.62447087836181
 72
     1
 10
-6.908422423094814
 20
-20.62447087836181
 11
0.1400144787942956
 21
-12.22447087836179
 97
        0
 75
     0
 76
     1
 98
        1
 10
5.396561803197301
 20
23.57445419291432
  0
HATCH
  5
D7
330
1F
100
AcDbEntity
  8
중심선
100
AcDbHatch
 10
0.0
 20
0.0
 30
0.0
210
0.0
220
0.0
230
1.0
  2
SOLID
 70
     1
 71
     0
 91
        1
 92
        0
 93
        6
 72
     3
 10
4.939904909806468
 20
-16.42447087841306
 11
3.960054785062284
 21
1.540882976769353E-10
 40
0.3939339440162627
 50
17.09539180608436
 51
320.0019657685078
 73
     0
 72
     1
 10
6.622904565507064
 20
-15.01236488300009
 11
8.928206439208129
 21
-13.07803817295214
 72
     3
 10
4.939904909753621
 20
-16.42447087836194
 11
6.60005478528683
 21
-1.278976924368180E-13
 40
0.636358354079598
 50
39.99873849337413
 51
368.4976242363724
 73
     1
 72
     1
 10
11.36523740165423
 20
-15.46447087829181
 11
3.619972216589543
 21
-15.46447087829181
 72
     1
 10
3.619972216589543
 20
-15.46447087829181
 11
3.619947172143609
 21
-17.3844708782917
 72
     1
 10
3.619947172143609
 20
-17.3844708782917
 11
8.061326941615647
 21
-17.38447087829167
 97
        0
 75
     0
 76
     1
 98
        1
 10
5.396561803197301
 20
23.57445419291432
  0
DIMENSION
  5
D8
330
1F
100
AcDbEntity
  8
치수문자_일반주서
100
AcDbDimension
  2
_D
 10
-33.72432052846531
 20
-2.381250000000069
 30
0.0
 11
-33.72432052846538
 21
22.98524999999997
 31
0.0
 70
   160
  1
%%c<>
 71
     2
 42
4.76249999999999
 52
-270.0
  3
SLDDIMSTYLE0
100
AcDbAlignedDimension
 13
-15.72192116787302
 23
2.381249999999989
 33
0.0
 14
-15.72192116787304
 24
-2.381250000000001
 34
0.0
 50
90.0000000000002
100
AcDbRotatedDimension
1001
ACAD
1000
DSTYLE
1002
{
1070
   171
1070
     6
1070
   273
1070
     5
1002
}
  0
DIMENSION
  5
ED
330
1F
100
AcDbEntity
  8
치수문자_일반주서
100
AcDbDimension
  2
_D_1
 10
38.14428577203792
 20
2.180967620118505
 30
0.0
 11
38.14428577203785
 21
23.6599676201185
 31
0.0
 70
   160
  1
%%c<>
 71
     2
 42
4.361935240236914
 52
-270.0
  3
SLDDIMSTYLE0
100
AcDbAlignedDimension
 13
25.40000000000001
 23
-2.180967620118456
 33
0.0
 14
25.40000000000001
 24
2.180967620118457
 34
0.0
 50
90.0000000000002
100
AcDbRotatedDimension
1001
ACAD
1000
DSTYLE
1002
{
1070
   171
1070
     6
1070
   273
1070
     5
1002
}
  0
DIMENSION
  5
101
330
1F
100
AcDbEntity
  8
치수문자_일반주서
100
AcDbDimension
  2
_D_2
 10
17.46250000000001
 20
19.12592329680779
 30
0.0
 11
-1.828999999999995
 21
19.12592329680779
 31
0.0
 70
   160
  1
<>
 71
     2
 42
7.9375
  3
SLDDIMSTYLE0
100
AcDbAlignedDimension
 13
25.40000000000001
 23
2.180967620118457
 33
0.0
 14
17.46250000000001
 24
1.709582498120398
 34
0.0
 50
0.0000000000000256
100
AcDbRotatedDimension
1001
ACAD
1000
DSTYLE
1002
{
1070
   171
1070
     6
1070
   273
1070
     5
1002
}
  0
DIMENSION
  5
116
330
1F
100
AcDbEntity
  8
치수문자_일반주서
100
AcDbDimension
  2
_D_3
 10
25.40000000000001
 20
36.38125000000002
 30
0.0
 11
0.0000000000000124
 21
36.38125000000002
 31
0.0
 70
   160
  1
<>
 71
     2
 42
50.79999999999998
  3
SLDDIMSTYLE0
100
AcDbAlignedDimension
 13
-25.39999999999998
 23
2.180967620118454
 33
0.0
 14
25.40000000000001
 24
2.180967620118457
 34
0.0
100
AcDbRotatedDimension
1001
ACAD
1000
DSTYLE
1002
{
1070
   171
1070
     6
1070
   273
1070
     5
1002
}
  0
LINE
  5
12A
330
1F
100
AcDbEntity
  8
참조1
100
AcDbLine
 10
68.51241335422453
 20
7.441074928723896
 30
0.0
 11
68.51241335422453
 21
-7.438925071276109
 31
0.0
  0
LINE
  5
12B
330
1F
100
AcDbEntity
  8
참조1
100
AcDbLine
 10
81.21241335422454
 20
5.441074928723896
 30
0.0
 11
68.51241335422453
 21
5.441074928723896
 31
0.0
  0
SOLID
  5
12C
330
1F
100
AcDbEntity
  8
참조1
100
AcDbTrace
 10
68.51241335422453
 20
5.441074928723896
 30
0.0
 11
74.86241335422453
 21
4.425074928723896
 31
0.0
 12
74.86241335422453
 22
6.457074928723896
 32
0.0
 13
74.86241335422453
 23
6.457074928723896
 33
0.0
  0
LINE
  5
12D
330
1F
100
AcDbEntity
  8
참조1
100
AcDbLine
 10
81.21241335422454
 20
-5.438925071276109
 30
0.0
 11
68.51241335422453
 21
-5.438925071276109
 31
0.0
  0
SOLID
  5
12E
330
1F
100
AcDbEntity
  8
참조1
100
AcDbTrace
 10
68.51241335422453
 20
-5.438925071276109
 30
0.0
 11
74.86241335422453
 21
-6.454925071276109
 31
0.0
 12
74.86241335422453
 22
-4.422925071276109
 32
0.0
 13
74.86241335422453
 23
-4.422925071276109
 33
0.0
  0
MTEXT
  5
12F
330
1F
100
AcDbEntity
  8
참조1
100
AcDbMText
 10
77.89676348685053
 20
11.01136670591222
 30
0.0
 40
3.5
 41
0.0
 71
     1
 72
     1
  1
A
  7
SLDTEXTSTYLE0
 73
     1
 44
1.0
  0
MTEXT
  5
130
330
1F
100
AcDbEntity
  8
참조1
100
AcDbMText
 10
77.89676348685053
 20
0.1313667059122192
 30
0.0
 40
3.5
 41
0.0
 71
     1
 72
     1
  1
A
  7
SLDTEXTSTYLE0
 73
     1
 44
1.0
  0
INSERT
  5
137
330
1F
100
AcDbEntity
  8
해칭선
100
AcDbBlockReference
  2
SW_DOWELSYMBOL_0
 10
0.0
 20
-0.0000000000000011
 30
0.0
  0
LINE
  5
2CD
330
1F
100
AcDbEntity
  8
외형선
  6
Continuous
370
    15
100
AcDbLine
 10
-15.72192116787302
 20
2.381249999999989
 30
0.0
 11
-16.46249999999998
 21
2.182812499999992
 31
0.0
  0
LINE
  5
2CE
330
1F
100
AcDbEntity
  8
외형선
  6
Continuous
370
    15
100
AcDbLine
 10
-16.46249999999998
 20
-2.182812500000009
 30
0.0
 11
-15.72192116787302
 21
-2.381250000000006
 31
0.0
  0
LINE
  5
2CF
330
1F
100
AcDbEntity
  8
외형선
  6
Continuous
370
    15
100
AcDbLine
 10
-16.57259708243048
 20
-2.182812500000009
 30
0.0
 11
-16.46249999999998
 21
-2.182812500000009
 31
0.0
  0
LINE
  5
2D0
330
1F
100
AcDbEntity
  8
외형선
  6
Continuous
370
    15
100
AcDbLine
 10
-16.46249999999998
 20
2.182812499999992
 30
0.0
 11
-16.57259708243048
 21
2.182812499999992
 31
0.0
  0
LINE
  5
2D1
330
1F
100
AcDbEntity
  8
외형선
  6
Continuous
370
    15
100
AcDbLine
 10
-16.57263419381991
 20
1.747928464253742
 30
0.0
 11
-17.46249999999998
 21
1.709582475807788
 31
0.0
  0
LINE
  5
2D2
330
1F
100
AcDbEntity
  8
외형선
  6
Continuous
370
    15
100
AcDbLine
 10
-17.46249999999998
 20
-1.709582217702047
 30
0.0
 11
-17.24324567346177
 21
-1.716387522571634
 31
0.0
  0
LINE
  5
2D3
330
1F
100
AcDbEntity
  8
0
  6
Continuous
 62
     1
370
    15
100
AcDbLine
 10
-19.74557727055847
 20
-0.5593155673806909
 30
0.0
 11
-19.13856450154205
 21
-0.8622575654077569
 31
0.0
  0
LINE
  5
2D4
330
1F
100
AcDbEntity
  8
0
  6
Continuous
 62
     1
370
    15
100
AcDbLine
 10
-18.54448411326121
 20
-0.6111462317224767
 30
0.0
 11
-18.50870163489992
 21
-0.630798314677546
 31
0.0
  0
SPLINE
  5
2D5
330
1F
100
AcDbEntity
  8
0
  6
Continuous
 62
     1
370
    15
100
AcDbSpline
210
0.0
220
0.0
230
1.0
 70
     8
 71
     3
 72
     9
 73
     5
 74
     0
 42
0.000000001
 43
0.00000001
 40
0.0
 40
0.0
 40
0.0
 40
0.0
 40
0.4734877687767795
 40
1.0
 40
1.0
 40
1.0
 40
1.0
 10
-19.02268881536412
 20
-1.73454327052318
 30
0.0
 10
-18.7773495949649
 20
-1.723514037380132
 30
0.0
 10
-18.25919635727296
 20
-1.700220440648917
 30
0.0
 10
-17.73729005283766
 20
-1.706353398490589
 30
0.0
 10
-17.46249999999996
 20
-1.709582475807804
 30
0.0
  0
SPLINE
  5
2D6
330
1F
100
AcDbEntity
  8
0
  6
Continuous
 62
     1
370
    15
100
AcDbSpline
210
0.0
220
0.0
230
1.0
 70
     8
 71
     3
 72
    23
 73
    19
 74
     0
 42
0.000000001
 43
0.00000001
 40
0.0
 40
0.0
 40
0.0
 40
0.0
 40
0.0986938380223926
 40
0.1724216026999807
 40
0.2408576736250568
 40
0.2995999499612839
 40
0.3546943164784776
 40
0.4236390734069146
 40
0.4961421292330274
 40
0.5572058614024195
 40
0.6098145980355386
 40
0.6733322531871889
 40
0.7455518619663267
 40
0.7882470738956373
 40
0.8208037513899797
 40
0.8567152656462705
 40
0.9163184779722131
 40
1.0
 40
1.0
 40
1.0
 40
1.0
 10
-24.588151587312
 20
-1.492935983822773
 30
0.0
 10
-24.46633195186645
 20
-1.483105745096365
 30
0.0
 10
-24.25350876852768
 20
-1.465931972649213
 30
0.0
 10
-23.93935254694296
 20
-1.449916139793485
 30
0.0
 10
-23.68300655791778
 20
-1.441026233024258
 30
0.0
 10
-23.45162025274321
 20
-1.43681969212089
 30
0.0
 10
-23.21924078588658
 20
-1.43595908748068
 30
0.0
 10
-22.96954709338448
 20
-1.439076101226829
 30
0.0
 10
-22.71209456051305
 20
-1.446909836010332
 30
0.0
 10
-22.47538911089578
 20
-1.458104174023487
 30
0.0
 10
-22.25011609768643
 20
-1.472002264047928
 30
0.0
 10
-22.01104913477243
 20
-1.490351995807683
 30
0.0
 10
-21.78421862136493
 20
-1.511340298653925
 30
0.0
 10
-21.59669758006864
 20
-1.531198591234525
 30
0.0
 10
-21.45630150596791
 20
-1.547272823005376
 30
0.0
 10
-21.29446913886608
 20
-1.567082858723386
 30
0.0
 10
-21.06627001739066
 20
-1.59743917125783
 30
0.0
 10
-20.88327259172048
 20
-1.625418172331448
 30
0.0
 10
-20.77639796075357
 20
-1.641758541074968
 30
0.0
  0
SPLINE
  5
2D7
330
1F
100
AcDbEntity
  8
0
  6
Continuous
 62
     1
370
    15
100
AcDbSpline
210
0.0
220
0.0
230
1.0
 70
     8
 71
     3
 72
    13
 73
     9
 74
     0
 42
0.000000001
 43
0.00000001
 40
0.0
 40
0.0
 40
0.0
 40
0.0
 40
0.2523969632518921
 40
0.4503083540107573
 40
0.6194600955978136
 40
0.7648552269077636
 40
0.9518868854034788
 40
0.9999999999999999
 40
0.9999999999999999
 40
0.9999999999999999
 40
0.9999999999999999
 10
-20.77639796075357
 20
1.641758541074959
 30
0.0
 10
-20.91073438652188
 20
1.621223312920537
 30
0.0
 10
-21.15040769317353
 20
1.584585848387244
 30
0.0
 10
-21.49868023792182
 20
1.541661089759311
 30
0.0
 10
-21.7779713040598
 20
1.511699808045409
 30
0.0
 10
-22.05256051911344
 20
1.487046510342291
 30
0.0
 10
-22.26044337894911
 20
1.470554235058659
 30
0.0
 10
-22.38902478728482
 20
1.463975921487455
 30
0.0
 10
-22.4153339072065
 20
1.462629928759059
 30
0.0
  0
SPLINE
  5
2D8
330
1F
100
AcDbEntity
  8
0
  6
Continuous
 62
     1
370
    15
100
AcDbSpline
210
0.0
220
0.0
230
1.0
 70
     8
 71
     3
 72
    10
 73
     6
 74
     0
 42
0.000000001
 43
0.00000001
 40
0.0
 40
0.0
 40
0.0
 40
0.0
 40
0.2884232759004074
 40
0.6226712558095625
 40
1.0
 40
1.0
 40
1.0
 40
1.0
 10
-17.46249999999996
 20
1.709582475807788
 30
0.0
 10
-17.61164101134305
 20
1.707293232602185
 30
0.0
 10
-17.93361856511638
 20
1.70235103111987
 30
0.0
 10
-18.45377647478294
 20
1.708766558136925
 30
0.0
 10
-18.8255486730127
 20
1.725611095235879
 30
0.0
 10
-19.02268881536412
 20
1.734543270523171
 30
0.0
  0
LINE
  5
2D9
330
1F
100
AcDbEntity
  8
외형선
  6
Continuous
370
    15
100
AcDbLine
 10
-16.46249999999998
 20
-2.182812500000009
 30
0.0
 11
-16.46249999999998
 21
2.182812499999992
 31
0.0
  0
SPLINE
  5
2DA
330
1F
100
AcDbEntity
  8
외형선
  6
Continuous
370
    15
100
AcDbSpline
210
0.0
220
0.0
230
1.0
 70
     8
 71
     3
 72
    10
 73
     6
 74
     0
 42
0.000000001
 43
0.00000001
 40
0.0
 40
0.0
 40
0.0
 40
0.0
 40
0.5
 40
0.5
 40
1.0
 40
1.0
 40
1.0
 40
1.0
 10
-17.462499999999
 20
-1.639509411841812
 30
0.0
 10
-17.31359371619207
 20
-1.696124776996752
 30
0.0
 10
-17.16412934198982
 20
-1.749001300766897
 30
0.0
 10
-16.86718662419494
 20
-1.846202085970032
 30
0.0
 10
-16.72084902260355
 20
-1.890435715440629
 30
0.0
 10
-16.57269868272249
 20
-1.930398920991555
 30
0.0
  0
LINE
  5
2DB
330
1F
100
AcDbEntity
  8
외형선
  6
Continuous
370
    15
100
AcDbLine
 10
-17.46249999999998
 20
-1.639509411841442
 30
0.0
 11
-17.46249999999998
 21
-1.177746352652062
 31
0.0
  0
SPLINE
  5
2DC
330
1F
100
AcDbEntity
  8
외형선
  6
Continuous
370
    15
100
AcDbSpline
210
0.0
220
0.0
230
1.0
 70
     8
 71
     3
 72
    10
 73
     6
 74
     0
 42
0.000000001
 43
0.00000001
 40
0.0
 40
0.0
 40
0.0
 40
0.0
 40
0.5
 40
0.5
 40
1.0
 40
1.0
 40
1.0
 40
1.0
 10
-17.462499999999
 20
-1.177746352652538
 30
0.0
 10
-17.31357669643856
 20
-1.249957177799016
 30
0.0
 10
-17.16409517539081
 20
-1.319520645766017
 30
0.0
 10
-16.86711897061801
 20
-1.4519256348656
 30
0.0
 10
-16.72076491035675
 20
-1.514623531409822
 30
0.0
 10
-16.57259708243048
 20
-1.573947585909932
 30
0.0
  0
SPLINE
  5
2DD
330
1F
100
AcDbEntity
  8
외형선
  6
Continuous
370
    15
100
AcDbSpline
210
0.0
220
0.0
230
1.0
 70
     8
 71
     3
 72
     9
 73
     5
 74
     0
 42
0.000000001
 43
0.00000001
 40
0.0
 40
0.0
 40
0.0
 40
0.0
 40
0.4111287086080768
 40
0.9999999999999999
 40
0.9999999999999999
 40
0.9999999999999999
 40
0.9999999999999999
 10
-17.23465163003972
 20
1.719400889889161
 30
0.0
 10
-17.14382324156593
 20
1.752258115905479
 30
0.0
 10
-16.92289878026693
 20
1.832177677172718
 30
0.0
 10
-16.70249068337341
 20
1.893995927871162
 30
0.0
 10
-16.57269868272249
 20
1.930398920991538
 30
0.0
  0
LINE
  5
2DE
330
1F
100
AcDbEntity
  8
외형선
  6
Continuous
370
    15
100
AcDbLine
 10
-16.57259708243048
 20
-1.930442587945973
 30
0.0
 11
-16.57259708243048
 21
-2.182812500000009
 31
0.0
  0
LINE
  5
2DF
330
1F
100
AcDbEntity
  8
외형선
  6
Continuous
370
    15
100
AcDbLine
 10
-16.57259708243048
 20
2.182812499999992
 30
0.0
 11
-16.57259708243048
 21
-1.574464190540479
 31
0.0
  0
SPLINE
  5
2E0
330
1F
100
AcDbEntity
  8
외형선
  6
Continuous
370
    15
100
AcDbSpline
210
0.0
220
0.0
230
1.0
 70
    24
 71
     3
 72
    10
 73
     6
 74
     0
 42
0.000000001
 43
0.00000001
 40
0.0
 40
0.0
 40
0.0
 40
0.0
 40
0.5
 40
0.5
 40
1.0
 40
1.0
 40
1.0
 40
1.0
 10
-17.46249999999998
 20
-1.177746352652062
 30
0.0
 10
-17.46249999999998
 20
-1.146747585315663
 30
0.0
 10
-17.46249999999998
 20
-1.093145099098156
 30
0.0
 10
-17.46249999999998
 20
-0.9513874981692798
 30
0.0
 10
-17.46249999999998
 20
-0.8637426578132452
 30
0.0
 10
-17.46249999999998
 20
-0.7708445965271953
 30
0.0
  0
SPLINE
  5
2E1
330
1F
100
AcDbEntity
  8
외형선
  6
Continuous
370
    15
100
AcDbSpline
210
0.0
220
0.0
230
1.0
 70
     8
 71
     3
 72
    10
 73
     6
 74
     0
 42
0.000000001
 43
0.00000001
 40
0.0
 40
0.0
 40
0.0
 40
0.0
 40
0.4999999999999999
 40
0.4999999999999999
 40
1.0
 40
1.0
 40
1.0
 40
1.0
 10
-17.46249999999752
 20
-0.7708445965280479
 30
0.0
 10
-17.31358079831057
 20
-0.8226795455302753
 30
0.0
 10
-17.16410340976761
 20
-0.8727875391585489
 30
0.0
 10
-16.86713527556181
 20
-0.9685205586697496
 30
0.0
 10
-16.72078518200239
 20
-1.014040184604636
 30
0.0
 10
-16.57262156880805
 20
-1.057307430738758
 30
0.0
  0
SPLINE
  5
2E2
330
1F
100
AcDbEntity
  8
외형선
  6
Continuous
370
    15
100
AcDbSpline
210
0.0
220
0.0
230
1.0
 70
     8
 71
     3
 72
    10
 73
     6
 74
     0
 42
0.000000001
 43
0.00000001
 40
0.0
 40
0.0
 40
0.0
 40
0.0
 40
0.5
 40
0.5
 40
1.0
 40
1.0
 40
1.0
 40
1.0
 10
-17.46249999999812
 20
1.507743109816405
 30
0.0
 10
-17.31358291321082
 20
1.473130058858319
 30
0.0
 10
-17.16410765536048
 20
1.434970777834844
 30
0.0
 10
-16.86714368229138
 20
1.352371694465236
 30
0.0
 10
-16.72079563392478
 20
1.30806446300043
 30
0.0
 10
-16.57263419381991
 20
1.260668973841073
 30
0.0
  0
SPLINE
  5
2E3
330
1F
100
AcDbEntity
  8
외형선
  6
Continuous
370
    15
100
AcDbSpline
210
0.0
220
0.0
230
1.0
 70
    24
 71
     3
 72
    14
 73
    10
 74
     0
 42
0.000000001
 43
0.00000001
 40
0.0
 40
0.0
 40
0.0
 40
0.0
 40
0.2500000000000001
 40
0.2500000000000001
 40
0.5000000000000001
 40
0.5000000000000001
 40
0.75
 40
0.75
 40
1.0
 40
1.0
 40
1.0
 40
1.0
 10
-17.46249999999989
 20
-0.7708445965272308
 30
0.0
 10
-17.46249999999989
 20
-0.5869506661435413
 30
0.0
 10
-17.46249999999989
 20
-0.3898251924072131
 30
0.0
 10
-17.46249999999989
 20
0.0149506423654795
 30
0.0
 10
-17.46249999999989
 20
0.2224246924190918
 30
0.0
 10
-17.46249999999989
 20
0.6273954220494342
 30
0.0
 10
-17.46249999999989
 20
0.8246763162903104
 30
0.0
 10
-17.46249999999989
 20
1.190612933941994
 30
0.0
 10
-17.46249999999989
 20
1.359146898146153
 30
0.0
 10
-17.46249999999989
 20
1.507743109816817
 30
0.0
  0
SPLINE
  5
2E4
330
1F
100
AcDbEntity
  8
외형선
  6
Continuous
370
    15
100
AcDbSpline
210
0.0
220
0.0
230
1.0
 70
    24
 71
     3
 72
    10
 73
     6
 74
     0
 42
0.000000001
 43
0.00000001
 40
0.0
 40
0.0
 40
0.0
 40
0.0
 40
0.551533989300023
 40
0.9532885841032955
 40
1.0
 40
1.0
 40
1.0
 40
1.0
 10
-17.46249999999998
 20
1.507743109816839
 30
0.0
 10
-17.46249999999998
 20
1.568302902755827
 30
0.0
 10
-17.46249999999998
 20
1.672976341536393
 30
0.0
 10
-17.46249999999998
 20
1.718294123009225
 30
0.0
 10
-17.46249999999998
 20
1.707218214837371
 30
0.0
 10
-17.46249999999998
 20
1.706064568093342
 30
0.0
  0
SPLINE
  5
2E5
330
1F
100
AcDbEntity
  8
외형선
  6
Continuous
370
    15
100
AcDbSpline
210
0.0
220
0.0
230
1.0
 70
    24
 71
     3
 72
     9
 73
     5
 74
     0
 42
0.000000001
 43
0.00000001
 40
0.0
 40
0.0
 40
0.0
 40
0.0
 40
0.9202867235308766
 40
1.0
 40
1.0
 40
1.0
 40
1.0
 10
-17.46249999999998
 20
-1.705916935551582
 30
0.0
 10
-17.46249999999998
 20
-1.706590317818877
 30
0.0
 10
-17.46249999999998
 20
-1.707322027024373
 30
0.0
 10
-17.46249999999998
 20
-1.676920703473454
 30
0.0
 10
-17.46249999999998
 20
-1.674497314364215
 30
0.0
  0
SPLINE
  5
2E6
330
1F
100
AcDbEntity
  8
0
  6
Continuous
 62
     1
370
    15
100
AcDbSpline
210
0.0
220
0.0
230
1.0
 70
     8
 71
     3
 72
    32
 73
    28
 74
     0
 42
0.000000001
 43
0.00000001
 40
0.0
 40
0.0
 40
0.0
 40
0.0
 40
0.1250000000000002
 40
0.1250000000000002
 40
0.1875000000000002
 40
0.1875000000000002
 40
0.2500000000000003
 40
0.2500000000000003
 40
0.3125000000000003
 40
0.3125000000000003
 40
0.3750000000000004
 40
0.3750000000000004
 40
0.4375000000000005
 40
0.4375000000000005
 40
0.5000000000000006
 40
0.5000000000000006
 40
0.5625000000000007
 40
0.5625000000000007
 40
0.6250000000000007
 40
0.6250000000000007
 40
0.7500000000000006
 40
0.7500000000000006
 40
0.8750000000000003
 40
0.8750000000000003
 40
0.9375000000000002
 40
0.9375000000000002
 40
1.0
 40
1.0
 40
1.0
 40
1.0
 10
-25.39999999999998
 20
2.071359991120256
 30
0.0
 10
-25.07260638979253
 20
2.011323991542712
 30
0.0
 10
-24.73592375162136
 20
1.926706531924448
 30
0.0
 10
-24.24258665550198
 20
1.769197612805047
 30
0.0
 10
-24.07828570172221
 20
1.711506254175599
 30
0.0
 10
-23.74613482926218
 20
1.58619420820479
 30
0.0
 10
-23.57949219414313
 20
1.518701919098663
 30
0.0
 10
-23.24936144345271
 20
1.375837616875411
 30
0.0
 10
-23.08604037265827
 20
1.300524869771972
 30
0.0
 10
-22.75442447128219
 20
1.142113275050564
 30
0.0
 10
-22.58766876804414
 20
1.059231197942085
 30
0.0
 10
-22.25656039067314
 20
0.8882607331972732
 30
0.0
 10
-22.09348549912637
 20
0.8004192018824081
 30
0.0
 10
-21.76267026109301
 20
0.619832509278569
 30
0.0
 10
-21.5959368753763
 20
0.5272518460477922
 30
0.0
 10
-21.26411520594034
 20
0.3398922523889734
 30
0.0
 10
-21.10055213506108
 20
0.2454127367386742
 30
0.0
 10
-20.77080111198693
 20
0.0550945466077006
 30
0.0
 10
-20.60422536880488
 20
-0.0408228014290775
 30
0.0
 10
-20.10582229168233
 20
-0.3271450300951717
 30
0.0
 10
-19.77868720693445
 20
-0.5154715346031058
 30
0.0
 10
-19.11379055808396
 20
-0.8780357999305555
 30
0.0
 10
-18.78675883851824
 20
-1.050313435790597
 30
0.0
 10
-18.28821882914647
 20
-1.289146628659848
 30
0.0
 10
-18.12172766055149
 20
-1.365308048151545
 30
0.0
 10
-17.79239903912817
 20
-1.508840692693892
 30
0.0
 10
-17.62850200035206
 20
-1.576394117939114
 30
0.0
 10
-17.46249999999624
 20
-1.639509411842863
 30
0.0
  0
SPLINE
  5
2E7
330
1F
100
AcDbEntity
  8
0
  6
Continuous
 62
     1
370
    15
100
AcDbSpline
210
0.0
220
0.0
230
1.0
 70
     8
 71
     3
 72
    15
 73
    11
 74
     0
 42
0.000000001
 43
0.00000001
 40
0.0
 40
0.0
 40
0.0
 40
0.0
 40
0.1296557722178089
 40
0.2589376150270628
 40
0.3885028734087236
 40
0.5182420054408837
 40
0.6475364308680006
 40
0.7770235485962789
 40
0.9068193603146913
 40
1.0
 40
1.0
 40
1.0
 40
1.0
 10
-25.39999999999998
 20
1.722178520816245
 30
0.0
 10
-25.15444624038903
 20
1.671127462017987
 30
0.0
 10
-24.66404690230347
 20
1.569172576526116
 30
0.0
 10
-23.92884704087648
 20
1.338917534419717
 30
0.0
 10
-23.19305655792597
 20
1.063187109579483
 30
0.0
 10
-22.45695420580766
 20
0.74672773844627
 30
0.0
 10
-21.72170672628663
 20
0.4009801536135693
 30
0.0
 10
-20.98606356122575
 20
0.0411965762173263
 30
0.0
 10
-20.31830800007999
 20
-0.2880094094847909
 30
0.0
 10
-19.89629253579118
 20
-0.4861586943666201
 30
0.0
 10
-19.7199345810746
 20
-0.5689641969308614
 30
0.0
  0
LINE
  5
2E8
330
1F
100
AcDbEntity
  8
0
  6
Continuous
 62
     1
370
    15
100
AcDbLine
 10
-25.39999999999998
 20
2.071359991120256
 30
0.0
 11
-25.39999999999998
 21
1.722178520816245
 31
0.0
  0
SPLINE
  5
2E9
330
1F
100
AcDbEntity
  8
0
  6
Continuous
 62
     1
370
    15
100
AcDbSpline
210
0.0
220
0.0
230
1.0
 70
     8
 71
     3
 72
    32
 73
    28
 74
     0
 42
0.000000001
 43
0.00000001
 40
0.0
 40
0.0
 40
0.0
 40
0.0
 40
0.1250000000000001
 40
0.1250000000000001
 40
0.1875000000000001
 40
0.1875000000000001
 40
0.2500000000000002
 40
0.2500000000000002
 40
0.3125000000000002
 40
0.3125000000000002
 40
0.3750000000000002
 40
0.3750000000000002
 40
0.4375000000000003
 40
0.4375000000000003
 40
0.5000000000000003
 40
0.5000000000000003
 40
0.5625000000000003
 40
0.5625000000000003
 40
0.6250000000000004
 40
0.6250000000000004
 40
0.7500000000000002
 40
0.7500000000000002
 40
0.8750000000000001
 40
0.8750000000000001
 40
0.9375000000000001
 40
0.9375000000000001
 40
1.0
 40
1.0
 40
1.0
 40
1.0
 10
-25.39999999999998
 20
2.180967620118454
 30
0.0
 10
-25.07260638979265
 20
2.173144594526983
 30
0.0
 10
-24.73592375162158
 20
2.139951425863077
 30
0.0
 10
-24.24258665550238
 20
2.054467856835539
 30
0.0
 10
-24.07828570172266
 20
2.020032100988973
 30
0.0
 10
-23.74613482926276
 20
1.939488986078099
 30
0.0
 10
-23.57949219414375
 20
1.893449718487981
 30
0.0
 10
-23.24936144345345
 20
1.791088585446853
 30
0.0
 10
-23.08604037265908
 20
1.734828966864785
 30
0.0
 10
-22.75442447128312
 20
1.612113423827
 30
0.0
 10
-22.58766876804512
 20
1.545807525712834
 30
0.0
 10
-22.25656039067422
 20
1.405022594289614
 30
0.0
 10
-22.09348549912751
 20
1.330764908241295
 30
0.0
 10
-21.76267026109427
 20
1.174360919534233
 30
0.0
 10
-21.59593687537762
 20
1.09233998505768
 30
0.0
 10
-21.26411520594176
 20
0.9227547032357417
 30
0.0
 10
-21.10055213506256
 20
0.8354751492389336
 30
0.0
 10
-20.77080111198855
 20
0.6561859675364328
 30
0.0
 10
-20.60422536880655
 20
0.56408871732859
 30
0.0
 10
-20.10582229168416
 20
0.2839567265875711
 30
0.0
 10
-19.77868720693641
 20
0.0927549518051218
 30
0.0
 10
-19.11379055808615
 20
-0.2894345129989848
 30
0.0
 10
-18.78675883852053
 20
-0.4783545367568511
 30
0.0
 10
-18.28821882914895
 20
-0.7518059452367372
 30
0.0
 10
-18.12172766055401
 20
-0.8411009414870254
 30
0.0
 10
-17.79239903913079
 20
-1.013723289203935
 30
0.0
 10
-17.62850200035474
 20
-1.097254306511542
 30
0.0
 10
-17.462499999999
 20
-1.177746352652538
 30
0.0
  0
SPLINE
  5
2EA
330
1F
100
AcDbEntity
  8
0
  6
Continuous
 62
     1
370
    15
100
AcDbSpline
210
0.0
220
0.0
230
1.0
 70
     8
 71
     3
 72
    11
 73
     7
 74
     0
 42
0.000000001
 43
0.00000001
 40
0.0
 40
0.0
 40
0.0
 40
0.0
 40
0.0348850205017479
 40
0.4747774274021853
 40
0.738061096830592
 40
1.0
 40
1.0
 40
1.0
 40
1.0
 10
-19.97059064757197
 20
0.2039953656654798
 30
0.0
 10
-19.94142114682202
 20
0.1926544657983011
 30
0.0
 10
-19.54443068141661
 20
0.0383073223561137
 30
0.0
 10
-18.92732476346657
 20
-0.2187856444514627
 30
0.0
 10
-18.1202325719204
 20
-0.5336444211562583
 30
0.0
 10
-17.68136963954846
 20
-0.6919129469470466
 30
0.0
 10
-17.46249999999998
 20
-0.7708445965272024
 30
0.0
  0
SPLINE
  5
2EB
330
1F
100
AcDbEntity
  8
외형선
  6
Continuous
370
    15
100
AcDbSpline
210
0.0
220
0.0
230
1.0
 70
    24
 71
     3
 72
    10
 73
     6
 74
     0
 42
0.000000001
 43
0.00000001
 40
0.0
 40
0.0
 40
0.0
 40
0.0
 40
0.5
 40
0.5
 40
1.0
 40
1.0
 40
1.0
 40
1.0
 10
-17.46249999999998
 20
-1.177746352652062
 30
0.0
 10
-17.46249999999998
 20
-1.146747585315663
 30
0.0
 10
-17.46249999999998
 20
-1.093145099098156
 30
0.0
 10
-17.46249999999998
 20
-0.9513874981692798
 30
0.0
 10
-17.46249999999998
 20
-0.8637426578132452
 30
0.0
 10
-17.46249999999998
 20
-0.7708445965271953
 30
0.0
  0
LINE
  5
2EC
330
1F
100
AcDbEntity
  8
0
  6
Continuous
 62
     1
370
    15
100
AcDbLine
 10
-25.39999999999998
 20
2.180967620118454
 30
0.0
 11
-25.39999999999998
 21
2.071359991120256
 31
0.0
  0
SPLINE
  5
2ED
330
1F
100
AcDbEntity
  8
0
  6
Continuous
 62
     1
370
    15
100
AcDbSpline
210
0.0
220
0.0
230
1.0
 70
     8
 71
     3
 72
     8
 73
     4
 74
     0
 42
0.000000001
 43
0.00000001
 40
0.0
 40
0.0
 40
0.0
 40
0.0
 40
1.0
 40
1.0
 40
1.0
 40
1.0
 10
-24.04877037530578
 20
-0.6112018266196817
 30
0.0
 10
-23.97145019123438
 20
-0.7028228990928487
 30
0.0
 10
-23.90241771646467
 20
-0.7910358002691542
 30
0.0
 10
-23.84364407772408
 20
-0.8750299397561865
 30
0.0
  0
LINE
  5
2EE
330
1F
100
AcDbEntity
  8
0
  6
Continuous
 62
     1
370
    15
100
AcDbLine
 10
-23.87125957379018
 20
-0.8982020923200313
 30
0.0
 11
-25.39999999999998
 21
-0.0000000000000047
 31
0.0
  0
LINE
  5
2EF
330
1F
100
AcDbEntity
  8
0
  6
Continuous
 62
     1
370
    15
100
AcDbLine
 10
-25.39999999999998
 20
-0.0000000000000047
 30
0.0
 11
-25.39999999999998
 21
0.5833412431303298
 31
0.0
  0
SPLINE
  5
2F0
330
1F
100
AcDbEntity
  8
0
  6
Continuous
 62
     1
370
    15
100
AcDbSpline
210
0.0
220
0.0
230
1.0
 70
     8
 71
     3
 72
    10
 73
     6
 74
     0
 42
0.000000001
 43
0.00000001
 40
0.0
 40
0.0
 40
0.0
 40
0.0
 40
0.5
 40
0.5
 40
1.0
 40
1.0
 40
1.0
 40
1.0
 10
-25.39999999999998
 20
0.5833412431303298
 30
0.0
 10
-25.16608965399489
 20
0.3994465620390339
 30
0.0
 10
-24.93608997950516
 20
0.2080072785352083
 30
0.0
 10
-24.4841034129378
 20
-0.1903298247571119
 30
0.0
 10
-24.26001505108796
 20
-0.3993333841186744
 30
0.0
 10
-24.04877037530578
 20
-0.6112018266196888
 30
0.0
  0
SPLINE
  5
2F1
330
1F
100
AcDbEntity
  8
외형선
  6
Continuous
370
    15
100
AcDbSpline
210
0.0
220
0.0
230
1.0
 70
    24
 71
     3
 72
     9
 73
     5
 74
     0
 42
0.000000001
 43
0.00000001
 40
0.0
 40
0.0
 40
0.0
 40
0.0
 40
0.9213512813573259
 40
1.0
 40
1.0
 40
1.0
 40
1.0
 10
-17.46249999999998
 20
-1.70627503602216
 30
0.0
 10
-17.46249999999998
 20
-1.706968638945644
 30
0.0
 10
-17.46249999999998
 20
-1.707721449450735
 30
0.0
 10
-17.46249999999998
 20
-1.676919822830041
 30
0.0
 10
-17.46249999999998
 20
-1.674497314364215
 30
0.0
  0
SPLINE
  5
2F2
330
1F
100
AcDbEntity
  8
0
  6
Continuous
 62
     1
370
    15
100
AcDbSpline
210
0.0
220
0.0
230
1.0
 70
     8
 71
     3
 72
    14
 73
    10
 74
     0
 42
0.000000001
 43
0.00000001
 40
0.0
 40
0.0
 40
0.0
 40
0.0
 40
0.1701671641955475
 40
0.3167884067016253
 40
0.462900047451738
 40
0.6092324307929197
 40
0.7559186260055709
 40
0.9020591126465033
 40
1.0
 40
1.0
 40
1.0
 40
1.0
 10
-24.04877037472407
 20
-0.6112018268711428
 30
0.0
 10
-23.76363502786437
 20
-0.7315589668519824
 30
0.0
 10
-23.23281832974864
 20
-0.9556195063217505
 30
0.0
 10
-22.45695868389691
 20
-1.233220421150418
 30
0.0
 10
-21.72166950425047
 20
-1.452607325235545
 30
0.0
 10
-20.98601426498848
 20
-1.616863151869748
 30
0.0
 10
-20.2498325988585
 20
-1.717495935346688
 30
0.0
 10
-19.59544509303834
 20
-1.758043686378327
 30
0.0
 10
-19.18653131125716
 20
-1.736037134480793
 30
0.0
 10
-19.02244923492619
 20
-1.72720671376838
 30
0.0
  0
SPLINE
  5
2F3
330
1F
100
AcDbEntity
  8
0
  6
Continuous
 62
     1
370
    15
100
AcDbSpline
210
0.0
220
0.0
230
1.0
 70
    24
 71
     3
 72
    10
 73
     6
 74
     0
 42
0.000000001
 43
0.00000001
 40
0.0
 40
0.0
 40
0.0
 40
0.0
 40
0.5
 40
0.5
 40
1.0
 40
1.0
 40
1.0
 40
1.0
 10
-25.39999999999998
 20
1.722178520816245
 30
0.0
 10
-25.39999999999998
 20
1.590160110059865
 30
0.0
 10
-25.39999999999998
 20
1.423349785964585
 30
0.0
 10
-25.39999999999998
 20
1.035531836146087
 30
0.0
 10
-25.39999999999998
 20
0.8148601530354351
 30
0.0
 10
-25.39999999999998
 20
0.5833412431304008
 30
0.0
  0
SPLINE
  5
2F4
330
1F
100
AcDbEntity
  8
0
  6
Continuous
 62
     1
370
    15
100
AcDbSpline
210
0.0
220
0.0
230
1.0
 70
    24
 71
     3
 72
     8
 73
     4
 74
     0
 42
0.000000001
 43
0.00000001
 40
0.0
 40
0.0
 40
0.0
 40
0.0
 40
1.0
 40
1.0
 40
1.0
 40
1.0
 10
-24.07159204667289
 20
-1.066300996425054
 30
0.0
 10
-23.99953698133776
 20
-1.005839617677876
 30
0.0
 10
-23.92331618377885
 20
-0.9418827745618448
 30
0.0
 10
-23.84364407772414
 20
-0.875029939756222
 30
0.0
  0
SPLINE
  5
2F5
330
1F
100
AcDbEntity
  8
0
  6
Continuous
 62
     1
370
    15
100
AcDbSpline
210
0.0
220
0.0
230
1.0
 70
     8
 71
     3
 72
     9
 73
     5
 74
     0
 42
0.000000001
 43
0.00000001
 40
0.0
 40
0.0
 40
0.0
 40
0.0
 40
0.9066409485702792
 40
1.0
 40
1.0
 40
1.0
 40
1.0
 10
-25.39999999999998
 20
-1.527968750000011
 30
0.0
 10
-25.15444193655895
 20
-1.526925902465021
 30
0.0
 10
-24.88359815454331
 20
-1.52577567035095
 30
0.0
 10
-24.61288050647917
 20
-1.493321336070655
 30
0.0
 10
-24.58760656365062
 20
-1.490291430207461
 30
0.0
  0
SPLINE
  5
2F6
330
1F
100
AcDbEntity
  8
0
  6
Continuous
 62
     1
370
    15
100
AcDbSpline
210
0.0
220
0.0
230
1.0
 70
     8
 71
     3
 72
     8
 73
     4
 74
     0
 42
0.000000001
 43
0.00000001
 40
0.0
 40
0.0
 40
0.0
 40
0.0
 40
1.0
 40
1.0
 40
1.0
 40
1.0
 10
-25.39999999999998
 20
-1.527968750000011
 30
0.0
 10
-24.95102903056681
 20
-1.406075596436762
 30
0.0
 10
-24.50633569784085
 20
-1.256449324117459
 30
0.0
 10
-24.07159204668419
 20
-1.066300996432614
 30
0.0
  0
SPLINE
  5
2F7
330
1F
100
AcDbEntity
  8
0
  6
Continuous
 62
     1
370
    15
100
AcDbSpline
210
0.0
220
0.0
230
1.0
 70
     8
 71
     3
 72
    12
 73
     8
 74
     0
 42
0.000000001
 43
0.00000001
 40
0.0
 40
0.0
 40
0.0
 40
0.0
 40
0.1596871554812687
 40
0.3811705632146218
 40
0.6028306638373797
 40
0.8019105304831194
 40
1.0
 40
1.0
 40
1.0
 40
1.0
 10
-20.77878362408475
 20
1.634949465376347
 30
0.0
 10
-20.60218461823071
 20
1.662170762435702
 30
0.0
 10
-20.18064575167847
 20
1.727147542191562
 30
0.0
 10
-19.51449260561598
 20
1.75596901698692
 30
0.0
 10
-18.8046941537889
 20
1.729331593859274
 30
0.0
 10
-18.12016761022853
 20
1.648037458889543
 30
0.0
 10
-17.68135779225035
 20
1.554430085160784
 30
0.0
 10
-17.46249999999998
 20
1.507743109816839
 30
0.0
  0
SPLINE
  5
2F8
330
1F
100
AcDbEntity
  8
외형선
  6
Continuous
370
    15
100
AcDbSpline
210
0.0
220
0.0
230
1.0
 70
    24
 71
     3
 72
    14
 73
    10
 74
     0
 42
0.000000001
 43
0.00000001
 40
0.0
 40
0.0
 40
0.0
 40
0.0
 40
0.2500000000000001
 40
0.2500000000000001
 40
0.5000000000000001
 40
0.5000000000000001
 40
0.75
 40
0.75
 40
1.0
 40
1.0
 40
1.0
 40
1.0
 10
-17.46249999999989
 20
-0.7708445965272308
 30
0.0
 10
-17.46249999999989
 20
-0.5869506661435413
 30
0.0
 10
-17.46249999999989
 20
-0.3898251924072131
 30
0.0
 10
-17.46249999999989
 20
0.0149506423654795
 30
0.0
 10
-17.46249999999989
 20
0.2224246924190918
 30
0.0
 10
-17.46249999999989
 20
0.6273954220494342
 30
0.0
 10
-17.46249999999989
 20
0.8246763162903104
 30
0.0
 10
-17.46249999999989
 20
1.190612933941994
 30
0.0
 10
-17.46249999999989
 20
1.359146898146153
 30
0.0
 10
-17.46249999999989
 20
1.507743109816817
 30
0.0
  0
LINE
  5
2F9
330
1F
100
AcDbEntity
  8
0
  6
Continuous
 62
     1
370
    15
100
AcDbLine
 10
-25.39999999999998
 20
-0.0000000000000047
 30
0.0
 11
-25.39999999999998
 21
-1.527968750000011
 31
0.0
  0
SPLINE
  5
2FA
330
1F
100
AcDbEntity
  8
외형선
  6
Continuous
370
    15
100
AcDbSpline
210
0.0
220
0.0
230
1.0
 70
    24
 71
     3
 72
    10
 73
     6
 74
     0
 42
0.000000001
 43
0.00000001
 40
0.0
 40
0.0
 40
0.0
 40
0.0
 40
0.5532827555400576
 40
0.9563112063264627
 40
1.0
 40
1.0
 40
1.0
 40
1.0
 10
-17.46249999999998
 20
1.507743109816839
 30
0.0
 10
-17.46249999999998
 20
1.568276739185701
 30
0.0
 10
-17.46249999999998
 20
1.672904956033977
 30
0.0
 10
-17.46249999999998
 20
1.718277414830704
 30
0.0
 10
-17.46249999999998
 20
1.707344897757731
 30
0.0
 10
-17.46249999999998
 20
1.706275701328319
 30
0.0
  0
SPLINE
  5
2FB
330
1F
100
AcDbEntity
  8
0
  6
Continuous
 62
     1
370
    15
100
AcDbSpline
210
0.0
220
0.0
230
1.0
 70
     8
 71
     3
 72
    11
 73
     7
 74
     0
 42
0.000000001
 43
0.00000001
 40
0.0
 40
0.0
 40
0.0
 40
0.0
 40
0.1226725562373361
 40
0.414869757275394
 40
0.7072263654339869
 40
0.9999999999999999
 40
0.9999999999999999
 40
0.9999999999999999
 40
0.9999999999999999
 10
-22.41458077867337
 20
-1.462303986992038
 30
0.0
 10
-22.5366480878118
 20
-1.516645871751277
 30
0.0
 10
-22.94947094295422
 20
-1.700426215386881
 30
0.0
 10
-23.65311590205559
 20
-1.925169121756885
 30
0.0
 10
-24.52609670080548
 20
-2.127274134277177
 30
0.0
 10
-25.1085605249244
 20
-2.16306128958625
 30
0.0
 10
-25.39999999999998
 20
-2.180967620118464
 30
0.0
  0
SPLINE
  5
2FC
330
1F
100
AcDbEntity
  8
0
  6
Continuous
 62
     1
370
    15
100
AcDbSpline
210
0.0
220
0.0
230
1.0
 70
    24
 71
     3
 72
    10
 73
     6
 74
     0
 42
0.000000001
 43
0.00000001
 40
0.0
 40
0.0
 40
0.0
 40
0.0
 40
0.5
 40
0.5
 40
1.0
 40
1.0
 40
1.0
 40
1.0
 10
-25.39999999999998
 20
-1.527968750000011
 30
0.0
 10
-25.39999999999998
 20
-1.62059041056222
 30
0.0
 10
-25.39999999999998
 20
-1.728225357824013
 30
0.0
 10
-25.39999999999998
 20
-1.954043187284872
 30
0.0
 10
-25.39999999999998
 20
-2.071649359085411
 30
0.0
 10
-25.39999999999998
 20
-2.180967620118464
 30
0.0
  0
LINE
  5
301
330
1F
100
AcDbEntity
  8
외형선
  6
Continuous
370
    15
100
AcDbLine
 10
-15.72192116787302
 20
-2.381250000000006
 30
0.0
 11
-15.72192116787302
 21
2.381249999999989
 31
0.0
  0
LINE
  5
32C
330
1F
100
AcDbEntity
  8
0
100
AcDbLine
 10
-15.72192116787302
 20
-0.0000000000000118
 30
0.0
 11
-30.07738611737292
 21
-0.0000000000000047
 31
0.0
  0
ENDSEC
  0
SECTION
  2
OBJECTS
  0
DICTIONARY
  5
C
330
0
100
AcDbDictionary
281
     1
  3
ACAD_GROUP
350
D
  3
ACAD_IMAGE_VARS
350
15B
  3
ACAD_LAYOUT
350
1A
  3
ACAD_MLINESTYLE
350
17
  3
ACAD_PLOTSETTINGS
350
19
  3
ACAD_PLOTSTYLENAME
350
E
  3
ACAD_SCALELIST
350
47
  3
APPDATA
350
159
  3
DWGPROPS
350
354
  0
DICTIONARY
  5
215
330
2
100
AcDbDictionary
280
     1
281
     1
  3
ACAD_LAYERSTATES
360
216
  0
DICTIONARY
  5
352
330
1F
100
AcDbDictionary
280
     1
281
     1
  3
DIM_BOUNDING_BOXES_V1
360
353
  0
DICTIONARY
  5
D
102
{ACAD_REACTORS
330
C
102
}
330
C
100
AcDbDictionary
281
     1
  0
RASTERVARIABLES
  5
15B
102
{ACAD_REACTORS
330
C
102
}
330
C
100
AcDbRasterVariables
 90
        0
 70
     1
 71
     1
 72
     1
  0
DICTIONARY
  5
1A
102
{ACAD_REACTORS
330
C
102
}
330
C
100
AcDbDictionary
281
     1
  3
Layout1
350
1E
  3
Layout2
350
26
  3
Model
350
22
  0
DICTIONARY
  5
17
102
{ACAD_REACTORS
330
C
102
}
330
C
100
AcDbDictionary
281
     1
  3
Standard
350
18
  0
DICTIONARY
  5
19
102
{ACAD_REACTORS
330
C
102
}
330
C
100
AcDbDictionary
281
     1
  0
ACDBDICTIONARYWDFLT
  5
E
102
{ACAD_REACTORS
330
C
102
}
330
C
100
AcDbDictionary
281
     1
  3
Normal
350
F
100
AcDbDictionaryWithDefault
340
F
  0
DICTIONARY
  5
47
102
{ACAD_REACTORS
330
C
102
}
330
C
100
AcDbDictionary
281
     1
  3
A0
350
48
  3
A1
350
49
  3
A2
350
4A
  3
A3
350
4B
  3
A4
350
4C
  3
A5
350
4D
  3
A6
350
4E
  3
A7
350
4F
  3
A8
350
50
  3
A9
350
51
  3
B0
350
52
  3
B1
350
53
  3
B2
350
54
  3
B3
350
55
  3
B4
350
56
  3
B5
350
57
  3
B6
350
58
  3
B7
350
59
  3
B8
350
5A
  3
B9
350
5B
  3
C0
350
5C
  3
C1
350
5D
  3
C2
350
5E
  3
C3
350
5F
  3
C4
350
60
  3
C5
350
61
  3
C6
350
62
  3
C7
350
63
  3
C8
350
64
  3
C9
350
65
  3
D0
350
66
  3
D1
350
67
  3
D2
350
68
  0
DICTIONARY
  5
159
102
{ACAD_REACTORS
330
C
102
}
330
C
100
AcDbDictionary
281
     1
  0
XRECORD
  5
354
102
{ACAD_REACTORS
330
C
102
}
330
C
100
AcDbXrecord
280
     1
  1
DWGPROPS COOKIE
  2

  3

  4

  6

  7

  8
12011056
  9

300
=
301
=
302
=
303
=
304
=
305
=
306
=
307
=
308
=
309
=
 40
0.0
 41
2458313.049955301
 42
2459719.264576504
  1

 90
        0
  0
DICTIONARY
  5
216
102
{ACAD_REACTORS
330
215
102
}
330
215
100
AcDbDictionary
281
     1
  0
DICTIONARY
  5
353
102
{ACAD_REACTORS
330
352
102
}
330
352
100
AcDbDictionary
281
     1
  0
LAYOUT
  5
1E
102
{ACAD_REACTORS
330
1A
102
}
330
1A
100
AcDbPlotSettings
  1

  2
none_device
  4

  6

 40
0.0
 41
0.0
 42
0.0
 43
0.0
 44
0.0
 45
0.0
 46
0.0
 47
0.0
 48
0.0
 49
0.0
140
0.0
141
0.0
142
1.0
143
1.0
 70
   688
 72
     1
 73
     0
 74
     5
  7

 75
    16
147
1.0
148
0.0
149
0.0
100
AcDbLayout
  1
Layout1
 70
     1
 71
     1
 10
0.0
 20
0.0
 11
420.0
 21
297.0
 12
0.0
 22
0.0
 32
0.0
 14
1.000000000000000E+20
 24
1.000000000000000E+20
 34
1.000000000000000E+20
 15
-1.000000000000000E+20
 25
-1.000000000000000E+20
 35
-1.000000000000000E+20
146
0.0
 13
0.0
 23
0.0
 33
0.0
 16
1.0
 26
0.0
 36
0.0
 17
0.0
 27
1.0
 37
0.0
 76
     0
330
1B
  0
LAYOUT
  5
26
102
{ACAD_REACTORS
330
1A
102
}
330
1A
100
AcDbPlotSettings
  1

  2
none_device
  4

  6

 40
0.0
 41
0.0
 42
0.0
 43
0.0
 44
0.0
 45
0.0
 46
0.0
 47
0.0
 48
0.0
 49
0.0
140
0.0
141
0.0
142
1.0
143
1.0
 70
   688
 72
     1
 73
     0
 74
     5
  7

 75
    16
147
1.0
148
0.0
149
0.0
100
AcDbLayout
  1
Layout2
 70
     1
 71
     2
 10
0.0
 20
0.0
 11
0.0
 21
0.0
 12
0.0
 22
0.0
 32
0.0
 14
0.0
 24
0.0
 34
0.0
 15
0.0
 25
0.0
 35
0.0
146
0.0
 13
0.0
 23
0.0
 33
0.0
 16
1.0
 26
0.0
 36
0.0
 17
0.0
 27
1.0
 37
0.0
 76
     0
330
23
  0
LAYOUT
  5
22
102
{ACAD_REACTORS
330
1A
102
}
330
1A
100
AcDbPlotSettings
  1

  2
none_device
  4
ANSI_A_(11.00_x_8.50_Inches)
  6

 40
6.35
 41
19.05
 42
6.35000508
 43
19.05000254
 44
279.4
 45
215.9
 46
93.14550552708039
 47
78.46387682204909
 48
0.0
 49
0.0
140
0.0
141
0.0
142
0.0686608694179787
143
1.0
 70
  1696
 72
     0
 73
     0
 74
     0
  7

 75
     0
147
0.0235690232323232
148
0.0
149
0.0
100
AcDbLayout
  1
Model
 70
     1
 71
     0
 10
0.0
 20
0.0
 11
420.0
 21
297.0
 12
0.0
 22
0.0
 32
0.0
 14
-38.09932052846543
 24
-39.99892507127611
 34
0.0
 15
81.21241335422452
 25
40.75625000000002
 35
0.0
146
0.0
 13
0.0
 23
0.0
 33
0.0
 16
1.0
 26
0.0
 36
0.0
 17
0.0
 27
1.0
 37
0.0
 76
     0
330
1F
331
29
  0
MLINESTYLE
  5
18
102
{ACAD_REACTORS
330
17
102
}
330
17
100
AcDbMlineStyle
  2
Standard
 70
     0
  3

 62
   256
 51
90.0
 52
90.0
 71
     2
 49
0.5
 62
   256
  6
BYLAYER
 49
-0.5
 62
   256
  6
BYLAYER
  0
ACDBPLACEHOLDER
  5
F
102
{ACAD_REACTORS
330
E
102
}
330
E
  0
SCALE
  5
48
102
{ACAD_REACTORS
330
47
102
}
330
47
100
AcDbScale
 70
     0
300
1:1
140
1.0
141
1.0
290
     1
  0
SCALE
  5
49
102
{ACAD_REACTORS
330
47
102
}
330
47
100
AcDbScale
 70
     0
300
1:2
140
1.0
141
2.0
290
     0
  0
SCALE
  5
4A
102
{ACAD_REACTORS
330
47
102
}
330
47
100
AcDbScale
 70
     0
300
1:4
140
1.0
141
4.0
290
     0
  0
SCALE
  5
4B
102
{ACAD_REACTORS
330
47
102
}
330
47
100
AcDbScale
 70
     0
300
1:5
140
1.0
141
5.0
290
     0
  0
SCALE
  5
4C
102
{ACAD_REACTORS
330
47
102
}
330
47
100
AcDbScale
 70
     0
300
1:8
140
1.0
141
8.0
290
     0
  0
SCALE
  5
4D
102
{ACAD_REACTORS
330
47
102
}
330
47
100
AcDbScale
 70
     0
300
1:10
140
1.0
141
10.0
290
     0
  0
SCALE
  5
4E
102
{ACAD_REACTORS
330
47
102
}
330
47
100
AcDbScale
 70
     0
300
1:16
140
1.0
141
16.0
290
     0
  0
SCALE
  5
4F
102
{ACAD_REACTORS
330
47
102
}
330
47
100
AcDbScale
 70
     0
300
1:20
140
1.0
141
20.0
290
     0
  0
SCALE
  5
50
102
{ACAD_REACTORS
330
47
102
}
330
47
100
AcDbScale
 70
     0
300
1:30
140
1.0
141
30.0
290
     0
  0
SCALE
  5
51
102
{ACAD_REACTORS
330
47
102
}
330
47
100
AcDbScale
 70
     0
300
1:40
140
1.0
141
40.0
290
     0
  0
SCALE
  5
52
102
{ACAD_REACTORS
330
47
102
}
330
47
100
AcDbScale
 70
     0
300
1:50
140
1.0
141
50.0
290
     0
  0
SCALE
  5
53
102
{ACAD_REACTORS
330
47
102
}
330
47
100
AcDbScale
 70
     0
300
1:100
140
1.0
141
100.0
290
     0
  0
SCALE
  5
54
102
{ACAD_REACTORS
330
47
102
}
330
47
100
AcDbScale
 70
     0
300
2:1
140
2.0
141
1.0
290
     0
  0
SCALE
  5
55
102
{ACAD_REACTORS
330
47
102
}
330
47
100
AcDbScale
 70
     0
300
4:1
140
4.0
141
1.0
290
     0
  0
SCALE
  5
56
102
{ACAD_REACTORS
330
47
102
}
330
47
100
AcDbScale
 70
     0
300
8:1
140
8.0
141
1.0
290
     0
  0
SCALE
  5
57
102
{ACAD_REACTORS
330
47
102
}
330
47
100
AcDbScale
 70
     0
300
10:1
140
10.0
141
1.0
290
     0
  0
SCALE
  5
58
102
{ACAD_REACTORS
330
47
102
}
330
47
100
AcDbScale
 70
     0
300
100:1
140
100.0
141
1.0
290
     0
  0
SCALE
  5
59
102
{ACAD_REACTORS
330
47
102
}
330
47
100
AcDbScale
 70
     0
300
1/128" = 1'-0"
140
0.0078125
141
12.0
290
     0
  0
SCALE
  5
5A
102
{ACAD_REACTORS
330
47
102
}
330
47
100
AcDbScale
 70
     0
300
1/64" = 1'-0"
140
0.015625
141
12.0
290
     0
  0
SCALE
  5
5B
102
{ACAD_REACTORS
330
47
102
}
330
47
100
AcDbScale
 70
     0
300
1/32" = 1'-0"
140
0.03125
141
12.0
290
     0
  0
SCALE
  5
5C
102
{ACAD_REACTORS
330
47
102
}
330
47
100
AcDbScale
 70
     0
300
1/16" = 1'-0"
140
0.0625
141
12.0
290
     0
  0
SCALE
  5
5D
102
{ACAD_REACTORS
330
47
102
}
330
47
100
AcDbScale
 70
     0
300
3/32" = 1'-0"
140
0.09375
141
12.0
290
     0
  0
SCALE
  5
5E
102
{ACAD_REACTORS
330
47
102
}
330
47
100
AcDbScale
 70
     0
300
1/8" = 1'-0"
140
0.125
141
12.0
290
     0
  0
SCALE
  5
5F
102
{ACAD_REACTORS
330
47
102
}
330
47
100
AcDbScale
 70
     0
300
3/16" = 1'-0"
140
0.1875
141
12.0
290
     0
  0
SCALE
  5
60
102
{ACAD_REACTORS
330
47
102
}
330
47
100
AcDbScale
 70
     0
300
1/4" = 1'-0"
140
0.25
141
12.0
290
     0
  0
SCALE
  5
61
102
{ACAD_REACTORS
330
47
102
}
330
47
100
AcDbScale
 70
     0
300
3/8" = 1'-0"
140
0.375
141
12.0
290
     0
  0
SCALE
  5
62
102
{ACAD_REACTORS
330
47
102
}
330
47
100
AcDbScale
 70
     0
300
1/2" = 1'-0"
140
0.5
141
12.0
290
     0
  0
SCALE
  5
63
102
{ACAD_REACTORS
330
47
102
}
330
47
100
AcDbScale
 70
     0
300
3/4" = 1'-0"
140
0.75
141
12.0
290
     0
  0
SCALE
  5
64
102
{ACAD_REACTORS
330
47
102
}
330
47
100
AcDbScale
 70
     0
300
1" = 1'-0"
140
1.0
141
12.0
290
     0
  0
SCALE
  5
65
102
{ACAD_REACTORS
330
47
102
}
330
47
100
AcDbScale
 70
     0
300
1-1/2" = 1'-0"
140
1.5
141
12.0
290
     0
  0
SCALE
  5
66
102
{ACAD_REACTORS
330
47
102
}
330
47
100
AcDbScale
 70
     0
300
3" = 1'-0"
140
3.0
141
12.0
290
     0
  0
SCALE
  5
67
102
{ACAD_REACTORS
330
47
102
}
330
47
100
AcDbScale
 70
     0
300
6" = 1'-0"
140
6.0
141
12.0
290
     0
  0
SCALE
  5
68
102
{ACAD_REACTORS
330
47
102
}
330
47
100
AcDbScale
 70
     0
300
1'-0" = 1'-0"
140
12.0
141
12.0
290
     0
  0
ENDSEC
  0
EOF
