  0
SECTION
  2
HEADER
  9
$ACADVER
  1
AC1015
  9
$ACADMAINTVER
 70
     6
  9
$DWGCODEPAGE
  3
ANSI_949
  9
$INSBASE
 10
0.0
 20
0.0
 30
0.0
  9
$EXTMIN
 10
-46.78813701905674
 20
-39.99892507127611
 30
0.0
  9
$EXTMAX
 10
81.21241335422454
 20
41.17000000000003
 30
0.0
  9
$LIMMIN
 10
0.0
 20
0.0
  9
$LIMMAX
 10
420.0
 20
297.0
  9
$ORTHOMODE
 70
     1
  9
$REGENMODE
 70
     1
  9
$FILLMODE
 70
     1
  9
$QTEXTMODE
 70
     0
  9
$MIRRTEXT
 70
     1
  9
$LTSCALE
 40
1.0
  9
$ATTMODE
 70
     1
  9
$TEXTSIZE
 40
3.5
  9
$TRACEWID
 40
1.0
  9
$TEXTSTYLE
  7
Standard
  9
$CLAYER
  8
0
  9
$CELTYPE
  6
ByLayer
  9
$CECOLOR
 62
   256
  9
$CELTSCALE
 40
1.0
  9
$DISPSILH
 70
     0
  9
$DIMSCALE
 40
1.0
  9
$DIMASZ
 40
3.302
  9
$DIMEXO
 40
1.0
  9
$DIMDLI
 40
3.75
  9
$DIMRND
 40
0.0
  9
$DIMDLE
 40
0.0
  9
$DIMEXE
 40
1.0
  9
$DIMTP
 40
0.0
  9
$DIMTM
 40
0.0
  9
$DIMTXT
 40
3.5
  9
$DIMCEN
 40
2.5
  9
$DIMTSZ
 40
0.0
  9
$DIMTOL
 70
     0
  9
$DIMLIM
 70
     0
  9
$DIMTIH
 70
     1
  9
$DIMTOH
 70
     1
  9
$DIMSE1
 70
     0
  9
$DIMSE2
 70
     0
  9
$DIMTAD
 70
     1
  9
$DIMZIN
 70
     0
  9
$DIMBLK
  1

  9
$DIMASO
 70
     1
  9
$DIMSHO
 70
     1
  9
$DIMPOST
  1

  9
$DIMAPOST
  1

  9
$DIMALT
 70
     0
  9
$DIMALTD
 70
     3
  9
$DIMALTF
 40
0.0393700787401575
  9
$DIMLFAC
 40
1.0
  9
$DIMTOFL
 70
     1
  9
$DIMTVP
 40
0.0
  9
$DIMTIX
 70
     0
  9
$DIMSOXD
 70
     0
  9
$DIMSAH
 70
     0
  9
$DIMBLK1
  1

  9
$DIMBLK2
  1

  9
$DIMSTYLE
  2
ISO-25
  9
$DIMCLRD
 70
     0
  9
$DIMCLRE
 70
     0
  9
$DIMCLRT
 70
     0
  9
$DIMTFAC
 40
1.0
  9
$DIMGAP
 40
1.524
  9
$DIMJUST
 70
     0
  9
$DIMSD1
 70
     0
  9
$DIMSD2
 70
     0
  9
$DIMTOLJ
 70
     0
  9
$DIMTZIN
 70
     0
  9
$DIMALTZ
 70
     0
  9
$DIMALTTZ
 70
     0
  9
$DIMUPT
 70
     0
  9
$DIMDEC
 70
     2
  9
$DIMTDEC
 70
     2
  9
$DIMALTU
 70
     2
  9
$DIMALTTD
 70
     3
  9
$DIMTXSTY
  7
Standard
  9
$DIMAUNIT
 70
     0
  9
$DIMADEC
 70
     2
  9
$DIMALTRND
 40
0.0
  9
$DIMAZIN
 70
     0
  9
$DIMDSEP
 70
    44
  9
$DIMATFIT
 70
     3
  9
$DIMFRAC
 70
     0
  9
$DIMLDRBLK
  1

  9
$DIMLUNIT
 70
     2
  9
$DIMLWD
 70
    -2
  9
$DIMLWE
 70
    -2
  9
$DIMTMOVE
 70
     0
  9
$LUNITS
 70
     2
  9
$LUPREC
 70
     2
  9
$SKETCHINC
 40
1.0
  9
$FILLETRAD
 40
10.0
  9
$AUNITS
 70
     0
  9
$AUPREC
 70
     2
  9
$MENU
  1
.
  9
$ELEVATION
 40
0.0
  9
$PELEVATION
 40
0.0
  9
$THICKNESS
 40
0.0
  9
$LIMCHECK
 70
     0
  9
$CHAMFERA
 40
0.0
  9
$CHAMFERB
 40
0.0
  9
$CHAMFERC
 40
0.0
  9
$CHAMFERD
 40
0.0
  9
$SKPOLY
 70
     0
  9
$TDCREATE
 40
2458313.425379063
  9
$TDUCREATE
 40
2458313.050379063
  9
$TDUPDATE
 40
2459719.640145035
  9
$TDUUPDATE
 40
2459719.265145035
  9
$TDINDWG
 40
0.0014384954
  9
$TDUSRTIMER
 40
0.0001734375
  9
$USRTIMER
 70
     1
  9
$ANGBASE
 50
0.0
  9
$ANGDIR
 70
     0
  9
$PDMODE
 70
     0
  9
$PDSIZE
 40
-1.0
  9
$PLINEWID
 40
0.0
  9
$SPLFRAME
 70
     0
  9
$SPLINETYPE
 70
     6
  9
$SPLINESEGS
 70
     8
  9
$HANDSEED
  5
354
  9
$SURFTAB1
 70
     6
  9
$SURFTAB2
 70
     6
  9
$SURFTYPE
 70
     6
  9
$SURFU
 70
     6
  9
$SURFV
 70
     6
  9
$UCSBASE
  2

  9
$UCSNAME
  2

  9
$UCSORG
 10
0.0
 20
0.0
 30
0.0
  9
$UCSXDIR
 10
1.0
 20
0.0
 30
0.0
  9
$UCSYDIR
 10
0.0
 20
1.0
 30
0.0
  9
$UCSORTHOREF
  2

  9
$UCSORTHOVIEW
 70
     0
  9
$UCSORGTOP
 10
0.0
 20
0.0
 30
0.0
  9
$UCSORGBOTTOM
 10
0.0
 20
0.0
 30
0.0
  9
$UCSORGLEFT
 10
0.0
 20
0.0
 30
0.0
  9
$UCSORGRIGHT
 10
0.0
 20
0.0
 30
0.0
  9
$UCSORGFRONT
 10
0.0
 20
0.0
 30
0.0
  9
$UCSORGBACK
 10
0.0
 20
0.0
 30
0.0
  9
$PUCSBASE
  2

  9
$PUCSNAME
  2

  9
$PUCSORG
 10
0.0
 20
0.0
 30
0.0
  9
$PUCSXDIR
 10
1.0
 20
0.0
 30
0.0
  9
$PUCSYDIR
 10
0.0
 20
1.0
 30
0.0
  9
$PUCSORTHOREF
  2

  9
$PUCSORTHOVIEW
 70
     0
  9
$PUCSORGTOP
 10
0.0
 20
0.0
 30
0.0
  9
$PUCSORGBOTTOM
 10
0.0
 20
0.0
 30
0.0
  9
$PUCSORGLEFT
 10
0.0
 20
0.0
 30
0.0
  9
$PUCSORGRIGHT
 10
0.0
 20
0.0
 30
0.0
  9
$PUCSORGFRONT
 10
0.0
 20
0.0
 30
0.0
  9
$PUCSORGBACK
 10
0.0
 20
0.0
 30
0.0
  9
$USERI1
 70
     0
  9
$USERI2
 70
     0
  9
$USERI3
 70
     0
  9
$USERI4
 70
     0
  9
$USERI5
 70
     0
  9
$USERR1
 40
0.0
  9
$USERR2
 40
0.0
  9
$USERR3
 40
0.0
  9
$USERR4
 40
0.0
  9
$USERR5
 40
0.0
  9
$WORLDVIEW
 70
     1
  9
$SHADEDGE
 70
     3
  9
$SHADEDIF
 70
    70
  9
$TILEMODE
 70
     1
  9
$MAXACTVP
 70
    64
  9
$PINSBASE
 10
0.0
 20
0.0
 30
0.0
  9
$PLIMCHECK
 70
     0
  9
$PEXTMIN
 10
1.000000000000000E+20
 20
1.000000000000000E+20
 30
1.000000000000000E+20
  9
$PEXTMAX
 10
-1.000000000000000E+20
 20
-1.000000000000000E+20
 30
-1.000000000000000E+20
  9
$PLIMMIN
 10
0.0
 20
0.0
  9
$PLIMMAX
 10
0.0
 20
0.0
  9
$UNITMODE
 70
     0
  9
$VISRETAIN
 70
     1
  9
$PLINEGEN
 70
     0
  9
$PSLTSCALE
 70
     1
  9
$TREEDEPTH
 70
  3020
  9
$CMLSTYLE
  2
Standard
  9
$CMLJUST
 70
     0
  9
$CMLSCALE
 40
20.0
  9
$PROXYGRAPHICS
 70
     1
  9
$MEASUREMENT
 70
     1
  9
$CELWEIGHT
370
    -1
  9
$ENDCAPS
280
     0
  9
$JOINSTYLE
280
     0
  9
$LWDISPLAY
290
     1
  9
$INSUNITS
 70
     4
  9
$HYPERLINKBASE
  1

  9
$STYLESHEET
  1

  9
$XEDIT
290
     1
  9
$CEPSNTYPE
380
     0
  9
$PSTYLEMODE
290
     1
  9
$FINGERPRINTGUID
  2
{E287FC4D-AF22-4596-94CB-37337D5CA181}
  9
$VERSIONGUID
  2
{FAEB1C32-E019-11D5-929B-00C0DF256EC4}
  9
$EXTNAMES
290
     1
  9
$PSVPSCALE
 40
0.0
  9
$OLESTARTUP
290
     0
  0
ENDSEC
  0
SECTION
  2
CLASSES
  0
CLASS
  1
ACDBDICTIONARYWDFLT
  2
AcDbDictionaryWithDefault
  3
ObjectDBX Classes
 90
        0
280
     0
281
     0
  0
CLASS
  1
VISUALSTYLE
  2
AcDbVisualStyle
  3
ObjectDBX Classes
 90
     4095
280
     0
281
     0
  0
CLASS
  1
MATERIAL
  2
AcDbMaterial
  3
ObjectDBX Classes
 90
     1153
280
     0
281
     0
  0
CLASS
  1
SCALE
  2
AcDbScale
  3
ObjectDBX Classes
 90
     1153
280
     0
281
     0
  0
CLASS
  1
SUN
  2
AcDbSun
  3
SCENEOE
 90
     1153
280
     0
281
     0
  0
CLASS
  1
ACDBPLACEHOLDER
  2
AcDbPlaceHolder
  3
ObjectDBX Classes
 90
        0
280
     0
281
     0
  0
CLASS
  1
LAYOUT
  2
AcDbLayout
  3
ObjectDBX Classes
 90
        0
280
     0
281
     0
  0
CLASS
  1
TABLESTYLE
  2
AcDbTableStyle
  3
ObjectDBX Classes
 90
     4095
280
     0
281
     0
  0
CLASS
  1
MLEADERSTYLE
  2
AcDbMLeaderStyle
  3
ACDB_MLEADERSTYLE_CLASS
 90
     4095
280
     0
281
     0
  0
CLASS
  1
RASTERVARIABLES
  2
AcDbRasterVariables
  3
ISM
 90
        0
280
     0
281
     0
  0
ENDSEC
  0
SECTION
  2
TABLES
  0
TABLE
  2
VPORT
  5
8
330
0
100
AcDbSymbolTable
 70
     1
  0
VPORT
  5
29
330
8
100
AcDbSymbolTableRecord
100
AcDbViewportTableRecord
  2
*Active
 70
     0
 10
0.0
 20
0.0
 11
1.0
 21
1.0
 12
1.745798554228756
 22
4.264067626259969
 13
0.0
 23
0.0
 14
10.0
 24
10.0
 15
10.0
 25
10.0
 16
0.0
 26
0.0
 36
1.0
 17
0.0
 27
0.0
 37
0.0
 40
84.52544796663298
 41
1.519944979367263
 42
50.0
 43
0.0
 44
0.0
 50
0.0
 51
0.0
 71
    16
 72
  2000
 73
     1
 74
     3
 75
     0
 76
     0
 77
     0
 78
     0
281
     0
 65
     1
110
0.0
120
0.0
130
0.0
111
1.0
121
0.0
131
0.0
112
0.0
122
1.0
132
0.0
 79
     0
146
0.0
  0
ENDTAB
  0
TABLE
  2
LTYPE
  5
5
330
0
100
AcDbSymbolTable
 70
     6
  0
LTYPE
  5
14
330
5
100
AcDbSymbolTableRecord
100
AcDbLinetypeTableRecord
  2
ByBlock
 70
     0
  3

 72
    65
 73
     0
 40
0.0
  0
LTYPE
  5
15
330
5
100
AcDbSymbolTableRecord
100
AcDbLinetypeTableRecord
  2
ByLayer
 70
     0
  3

 72
    65
 73
     0
 40
0.0
  0
LTYPE
  5
16
330
5
100
AcDbSymbolTableRecord
100
AcDbLinetypeTableRecord
  2
Continuous
 70
     0
  3
Solid line
 72
    65
 73
     0
 40
0.0
  0
LTYPE
  5
6A
330
5
100
AcDbSymbolTableRecord
100
AcDbLinetypeTableRecord
  2
HIDDEN
 70
     0
  3
Hidden __ __ __ __ __ __ __ __ __ __ __ __ __ __
 72
    65
 73
     2
 40
1.905
 49
1.27
 74
     0
 49
-0.635
 74
     0
  0
LTYPE
  5
6B
330
5
100
AcDbSymbolTableRecord
100
AcDbLinetypeTableRecord
  2
PHANTOM
 70
     0
  3
Phantom ______  __  __  ______  __  __  ______
 72
    65
 73
     6
 40
12.7
 49
6.35
 74
     0
 49
-1.27
 74
     0
 49
1.27
 74
     0
 49
-1.27
 74
     0
 49
1.27
 74
     0
 49
-1.27
 74
     0
  0
LTYPE
  5
6C
330
5
100
AcDbSymbolTableRecord
100
AcDbLinetypeTableRecord
  2
CENTER
 70
     0
  3
Center ____ _ ____ _ ____ _ ____ _ ____ _ ____
 72
    65
 73
     4
 40
10.16
 49
6.35
 74
     0
 49
-1.27
 74
     0
 49
1.27
 74
     0
 49
-1.27
 74
     0
  0
LTYPE
  5
6D
330
5
100
AcDbSymbolTableRecord
100
AcDbLinetypeTableRecord
  2
CENTERX2
 70
     0
  3
Center (2x) ________  __  ________  __  _____
 72
    65
 73
     4
 40
20.32
 49
12.7
 74
     0
 49
-2.54
 74
     0
 49
2.54
 74
     0
 49
-2.54
 74
     0
  0
LTYPE
  5
6E
330
5
100
AcDbSymbolTableRecord
100
AcDbLinetypeTableRecord
  2
DOT2
 70
     0
  3
Dot (.5x) ........................................
 72
    65
 73
     2
 40
0.635
 49
0.0
 74
     0
 49
-0.635
 74
     0
  0
ENDTAB
  0
TABLE
  2
LAYER
  5
2
102
{ACAD_XDICTIONARY
360
215
102
}
330
0
100
AcDbSymbolTable
 70
    18
  0
LAYER
  5
10
330
2
100
AcDbSymbolTableRecord
100
AcDbLayerTableRecord
  2
0
 70
     0
 62
     7
  6
Continuous
370
    -3
390
F
  0
LAYER
  5
6F
330
2
100
AcDbSymbolTableRecord
100
AcDbLayerTableRecord
  2
FORMAT
 70
     0
 62
     2
  6
Continuous
370
    -3
390
F
  0
LAYER
  5
70
330
2
100
AcDbSymbolTableRecord
100
AcDbLayerTableRecord
  2
외형선
 70
     0
 62
     4
  6
Continuous
370
    30
390
F
  0
LAYER
  5
71
330
2
100
AcDbSymbolTableRecord
100
AcDbLayerTableRecord
  2
숨은선
 70
     0
 62
     2
  6
HIDDEN
370
    15
390
F
  0
LAYER
  5
72
330
2
100
AcDbSymbolTableRecord
100
AcDbLayerTableRecord
  2
중심선
 70
     0
 62
     1
  6
CENTERX2
370
    -3
390
F
  0
LAYER
  5
73
330
2
100
AcDbSymbolTableRecord
100
AcDbLayerTableRecord
  2
파단선
 70
     0
 62
     4
  6
Continuous
370
    -3
390
F
  0
LAYER
  5
74
330
2
100
AcDbSymbolTableRecord
100
AcDbLayerTableRecord
  2
해칭선
 70
     0
 62
   100
  6
Continuous
370
    -3
390
F
  0
LAYER
  5
75
330
2
100
AcDbSymbolTableRecord
100
AcDbLayerTableRecord
  2
가는실선
 70
     0
 62
     4
  6
Continuous
370
    -3
390
F
  0
LAYER
  5
76
330
2
100
AcDbSymbolTableRecord
100
AcDbLayerTableRecord
  2
치수_보조선
 70
     0
 62
     4
  6
Continuous
370
    -3
390
F
  0
LAYER
  5
77
330
2
100
AcDbSymbolTableRecord
100
AcDbLayerTableRecord
  2
치수문자_일반주서
 70
     0
 62
     7
  6
Continuous
370
    15
390
F
  0
LAYER
  5
78
330
2
100
AcDbSymbolTableRecord
100
AcDbLayerTableRecord
  2
개별주서
 70
     0
 62
   100
  6
Continuous
370
    30
390
F
  0
LAYER
  5
79
330
2
100
AcDbSymbolTableRecord
100
AcDbLayerTableRecord
  2
중간선
 70
     0
 62
     2
  6
Continuous
370
    15
390
F
  0
LAYER
  5
7A
330
2
100
AcDbSymbolTableRecord
100
AcDbLayerTableRecord
  2
윤곽선
 70
     0
 62
     3
  6
Continuous
370
    40
390
F
  0
LAYER
  5
7B
330
2
100
AcDbSymbolTableRecord
100
AcDbLayerTableRecord
  2
중심마크
 70
     0
 62
   100
  6
Continuous
370
    30
390
F
  0
LAYER
  5
7C
330
2
100
AcDbSymbolTableRecord
100
AcDbLayerTableRecord
  2
가상선
 70
     0
 62
     4
  6
PHANTOM
370
    -3
390
F
  0
LAYER
  5
7D
330
2
100
AcDbSymbolTableRecord
100
AcDbLayerTableRecord
  2
특수지정선
 70
     0
 62
     5
  6
CENTERX2
370
    60
390
F
  0
LAYER
  5
7E
330
2
100
AcDbSymbolTableRecord
100
AcDbLayerTableRecord
  2
참조1
 70
     0
 62
    -4
  6
Continuous
370
    -3
390
F
  0
LAYER
  5
15D
330
2
100
AcDbSymbolTableRecord
100
AcDbLayerTableRecord
  2
Defpoints
 70
     0
 62
     7
  6
Continuous
290
     0
370
    -3
390
F
  0
ENDTAB
  0
TABLE
  2
STYLE
  5
3
330
0
100
AcDbSymbolTable
 70
     2
  0
STYLE
  5
11
330
3
100
AcDbSymbolTableRecord
100
AcDbTextStyleTableRecord
  2
Standard
 70
     0
 40
0.0
 41
1.0
 50
0.0
 71
     0
 42
3.5
  3
txt
  4

  0
STYLE
  5
94
330
3
100
AcDbSymbolTableRecord
100
AcDbTextStyleTableRecord
  2
SLDTEXTSTYLE0
 70
     0
 40
0.0
 41
0.75
 50
0.0
 71
     0
 42
3.5
  3
TXT
  4

  0
ENDTAB
  0
TABLE
  2
VIEW
  5
6
330
0
100
AcDbSymbolTable
 70
     0
  0
ENDTAB
  0
TABLE
  2
UCS
  5
7
330
0
100
AcDbSymbolTable
 70
     0
  0
ENDTAB
  0
TABLE
  2
APPID
  5
9
330
0
100
AcDbSymbolTable
 70
     3
  0
APPID
  5
12
330
9
100
AcDbSymbolTableRecord
100
AcDbRegAppTableRecord
  2
ACAD
 70
     0
  0
APPID
  5
169
330
9
100
AcDbSymbolTableRecord
100
AcDbRegAppTableRecord
  2
PE_URL
 70
     0
  0
APPID
  5
16A
330
9
100
AcDbSymbolTableRecord
100
AcDbRegAppTableRecord
  2
ACAD_DSTYLE_DIMRADIAL_EXTENSION
 70
     0
  0
ENDTAB
  0
TABLE
  2
DIMSTYLE
  5
A
330
0
100
AcDbSymbolTable
 70
     4
100
AcDbDimStyleTable
  0
DIMSTYLE
105
27
330
A
100
AcDbSymbolTableRecord
100
AcDbDimStyleTableRecord
  2
ISO-25
 70
     0
 41
2.5
 42
0.625
 43
3.75
 44
1.25
 73
     0
 74
     0
 77
     1
 78
     8
140
2.5
141
2.5
143
0.03937007874016
147
0.625
171
     3
172
     1
178
     0
271
     2
272
     2
274
     3
278
    44
283
     0
284
     8
340
11
  0
DIMSTYLE
105
DA
102
{ACAD_REACTORS
330
D9
330
EE
330
102
330
117
102
}
330
A
100
AcDbSymbolTableRecord
100
AcDbDimStyleTableRecord
  2
SLDDIMSTYLE0
 70
     0
 41
3.302
 44
0.0
 45
0.000000001
 73
     0
 74
     0
 77
     1
 78
    12
 79
     3
140
3.5
143
0.0393700787401575
147
0.875
148
0.000000001
170
     1
172
     1
173
     1
178
     0
271
     2
272
     2
276
     2
284
    12
289
     0
340
94
  0
DIMSTYLE
105
103
102
{ACAD_REACTORS
102
}
330
A
100
AcDbSymbolTableRecord
100
AcDbDimStyleTableRecord
  2
SLDDIMSTYLE1
 70
     0
 41
3.302
 44
0.0
 45
0.000000001
 73
     0
 74
     0
 77
     1
 78
     4
 79
     1
140
3.5
143
0.0393700787401575
147
0.875
148
0.000000001
170
     1
173
     1
178
     0
271
     2
272
     2
276
     2
284
    12
340
94
  0
DIMSTYLE
105
168
102
{ACAD_REACTORS
102
}
330
A
100
AcDbSymbolTableRecord
100
AcDbDimStyleTableRecord
  2
SLDDIMSTYLE2
 70
     0
 41
3.302
 44
0.0
 45
0.000000001
 73
     0
 74
     0
 77
     1
 78
    12
 79
     3
140
3.5
147
0.875
172
     1
173
     1
178
     0
271
     2
272
     2
276
     2
284
    12
289
     0
340
94
  0
ENDTAB
  0
TABLE
  2
BLOCK_RECORD
  5
1
330
0
100
AcDbSymbolTable
 70
    20
  0
BLOCK_RECORD
  5
1F
102
{ACAD_XDICTIONARY
360
351
102
}
330
1
100
AcDbSymbolTableRecord
100
AcDbBlockTableRecord
  2
*Model_Space
340
22
  0
BLOCK_RECORD
  5
1B
330
1
100
AcDbSymbolTableRecord
100
AcDbBlockTableRecord
  2
*Paper_Space
340
1E
  0
BLOCK_RECORD
  5
23
330
1
100
AcDbSymbolTableRecord
100
AcDbBlockTableRecord
  2
*Paper_Space0
340
26
  0
BLOCK_RECORD
  5
7F
330
1
100
AcDbSymbolTableRecord
100
AcDbBlockTableRecord
  2
블럭10
340
0
102
{BLKREFS
331
D2
102
}
  0
BLOCK_RECORD
  5
DB
330
1
100
AcDbSymbolTableRecord
100
AcDbBlockTableRecord
  2
_D
340
0
  0
BLOCK_RECORD
  5
EF
330
1
100
AcDbSymbolTableRecord
100
AcDbBlockTableRecord
  2
_D_1
340
0
  0
BLOCK_RECORD
  5
104
330
1
100
AcDbSymbolTableRecord
100
AcDbBlockTableRecord
  2
_D_2
340
0
  0
BLOCK_RECORD
  5
118
330
1
100
AcDbSymbolTableRecord
100
AcDbBlockTableRecord
  2
_D_3
340
0
  0
BLOCK_RECORD
  5
131
330
1
100
AcDbSymbolTableRecord
100
AcDbBlockTableRecord
  2
SW_DOWELSYMBOL_0
340
0
102
{BLKREFS
331
137
102
}
  0
BLOCK_RECORD
  5
1F3
330
1
100
AcDbSymbolTableRecord
100
AcDbBlockTableRecord
  2
_D_4
340
0
  0
BLOCK_RECORD
  5
20D
330
1
100
AcDbSymbolTableRecord
100
AcDbBlockTableRecord
  2
*D8
340
0
  0
BLOCK_RECORD
  5
219
330
1
100
AcDbSymbolTableRecord
100
AcDbBlockTableRecord
  2
*D9
340
0
  0
BLOCK_RECORD
  5
225
330
1
100
AcDbSymbolTableRecord
100
AcDbBlockTableRecord
  2
*D10
340
0
  0
BLOCK_RECORD
  5
231
330
1
100
AcDbSymbolTableRecord
100
AcDbBlockTableRecord
  2
*D11
340
0
  0
BLOCK_RECORD
  5
28C
330
1
100
AcDbSymbolTableRecord
100
AcDbBlockTableRecord
  2
*D12
340
0
  0
BLOCK_RECORD
  5
298
330
1
100
AcDbSymbolTableRecord
100
AcDbBlockTableRecord
  2
*D13
340
0
  0
BLOCK_RECORD
  5
2A4
330
1
100
AcDbSymbolTableRecord
100
AcDbBlockTableRecord
  2
*D14
340
0
  0
BLOCK_RECORD
  5
2B2
330
1
100
AcDbSymbolTableRecord
100
AcDbBlockTableRecord
  2
*D15
340
0
  0
BLOCK_RECORD
  5
2C0
330
1
100
AcDbSymbolTableRecord
100
AcDbBlockTableRecord
  2
*D16
340
0
  0
BLOCK_RECORD
  5
303
330
1
100
AcDbSymbolTableRecord
100
AcDbBlockTableRecord
  2
*D17
340
0
  0
BLOCK_RECORD
  5
312
330
1
100
AcDbSymbolTableRecord
100
AcDbBlockTableRecord
  2
*D18
340
0
  0
BLOCK_RECORD
  5
321
330
1
100
AcDbSymbolTableRecord
100
AcDbBlockTableRecord
  2
*D19
340
0
  0
ENDTAB
  0
ENDSEC
  0
SECTION
  2
BLOCKS
  0
BLOCK
  5
20
330
1F
100
AcDbEntity
  8
0
100
AcDbBlockBegin
  2
*Model_Space
 70
     0
 10
0.0
 20
0.0
 30
0.0
  3
*Model_Space
  1
*Model_Space
  0
ENDBLK
  5
21
330
1F
100
AcDbEntity
  8
0
100
AcDbBlockEnd
  0
BLOCK
  5
1C
330
1B
100
AcDbEntity
 67
     1
  8
0
100
AcDbBlockBegin
  2
*Paper_Space
 70
     0
 10
0.0
 20
0.0
 30
0.0
  3
*Paper_Space
  1
*Paper_Space
  0
ENDBLK
  5
1D
330
1B
100
AcDbEntity
 67
     1
  8
0
100
AcDbBlockEnd
  0
BLOCK
  5
24
330
23
100
AcDbEntity
  8
0
100
AcDbBlockBegin
  2
*Paper_Space0
 70
     0
 10
0.0
 20
0.0
 30
0.0
  3
*Paper_Space0
  1
*Paper_Space0
  0
ENDBLK
  5
25
330
23
100
AcDbEntity
  8
0
100
AcDbBlockEnd
  0
BLOCK
  5
80
330
7F
100
AcDbEntity
  8
0
100
AcDbBlockBegin
  2
블럭10
 70
     2
 10
0.0
 20
0.0
 30
0.0
  3
블럭10
  1
블럭10
  0
ELLIPSE
  5
82
330
7F
100
AcDbEntity
  8
중심선
100
AcDbEllipse
 10
20.54032771741204
 20
12.0471743016438
 30
0.0
 11
6.600054785286829
 21
-1.261213355974178E-13
 31
0.0
210
0.0
220
0.0
230
1.0
 40
0.636358354079598
 41
0.9219305317359503
 42
6.513795318482858
  0
ELLIPSE
  5
83
330
7F
100
AcDbEntity
  8
중심선
100
AcDbEllipse
 10
20.54032771746488
 20
12.04717430159265
 30
0.0
 11
3.960054785062283
 21
1.540847449632565E-10
 31
0.0
210
0.0
220
0.0
230
1.0
 40
0.3939339440162632
 41
1.131841032648279
 42
5.62031148352944
  0
LINE
  5
84
330
7F
100
AcDbEntity
  8
중심선
100
AcDbLine
 10
2.268634060543552
 20
16.24717430164393
 30
0.0
 11
5.714909304380834
 21
16.24717430164393
 31
0.0
  0
LINE
  5
85
330
7F
100
AcDbEntity
  8
중심선
100
AcDbLine
 10
5.245725140726316
 20
7.84717430164391
 30
0.0
 11
8.692000384563599
 21
7.84717430164391
 31
0.0
  0
LINE
  5
86
330
7F
100
AcDbEntity
  8
중심선
100
AcDbLine
 10
15.74043728645272
 20
16.24717430164393
 30
0.0
 11
8.692000384563599
 21
7.84717430164391
 31
0.0
  0
LINE
  5
87
330
7F
100
AcDbEntity
  8
중심선
100
AcDbLine
 10
0.1404042013395286
 20
13.71084872107135
 30
0.0
 11
3.58671253028996
 21
13.71088815037384
 31
0.0
  0
LINE
  5
88
330
7F
100
AcDbEntity
  8
중심선
100
AcDbLine
 10
2.750260043222114
 20
10.84717430164391
 30
0.0
 11
6.196535287059397
 21
10.84717430164391
 31
0.0
  0
LINE
  5
89
330
7F
100
AcDbEntity
  8
중심선
100
AcDbLine
 10
12.29416204261559
 20
16.24717430164393
 30
0.0
 11
5.245725140726316
 21
7.84717430164391
 31
0.0
  0
LINE
  5
8A
330
7F
100
AcDbEntity
  8
중심선
100
AcDbLine
 10
10.72767329541681
 20
16.24717430164393
 30
0.0
 11
6.196535287059397
 21
10.84717430164391
 31
0.0
  0
LINE
  5
8B
330
7F
100
AcDbEntity
  8
중심선
100
AcDbLine
 10
7.28139805157953
 20
16.24717430164393
 30
0.0
 11
2.750260043222114
 21
10.84717430164391
 31
0.0
  0
LINE
  5
8C
330
7F
100
AcDbEntity
  8
중심선
100
AcDbLine
 10
5.714909304380834
 20
16.24717430164393
 30
0.0
 11
3.58671253028996
 21
13.71088815037384
 31
0.0
  0
LINE
  5
8D
330
7F
100
AcDbEntity
  8
중심선
100
AcDbLine
 10
2.268634060543552
 20
16.24717430164393
 30
0.0
 11
0.1404042013395286
 21
13.71084872107135
 31
0.0
  0
LINE
  5
8E
330
7F
100
AcDbEntity
  8
중심선
100
AcDbLine
 10
7.28139805157953
 20
16.24717430164393
 30
0.0
 11
10.72767329541681
 21
16.24717430164393
 31
0.0
  0
LINE
  5
8F
330
7F
100
AcDbEntity
  8
중심선
100
AcDbLine
 10
12.29416204261559
 20
16.24717430164393
 30
0.0
 11
15.74043728645272
 21
16.24717430164393
 31
0.0
  0
LINE
  5
90
330
7F
100
AcDbEntity
  8
중심선
100
AcDbLine
 10
19.22036997980202
 20
11.08717430171403
 30
0.0
 11
23.66174974927406
 21
11.08717430171406
 31
0.0
  0
LINE
  5
91
330
7F
100
AcDbEntity
  8
중심선
100
AcDbLine
 10
19.22039502424796
 20
13.00717430171391
 30
0.0
 11
19.22036997980202
 21
11.08717430171403
 31
0.0
  0
LINE
  5
92
330
7F
100
AcDbEntity
  8
중심선
100
AcDbLine
 10
19.22039502424796
 20
13.00717430171391
 30
0.0
 11
26.96566020931264
 21
13.00717430171391
 31
0.0
  0
LINE
  5
93
330
7F
100
AcDbEntity
  8
중심선
100
AcDbLine
 10
22.22332737316547
 20
13.45928029700563
 30
0.0
 11
24.52862924686651
 21
15.39360700705356
 31
0.0
  0
ATTDEF
  5
95
330
7F
100
AcDbEntity
  8
FORMAT
 62
     2
100
AcDbText
 10
4.408487351596664
 20
2.075366912832191
 30
0.0
 40
4.233333333333333
  1
E5022013
 41
0.75
  7
SLDTEXTSTYLE0
 11
4.408487351596664
 21
-0.0412997538344756
 31
0.0
100
AcDbAttributeDefinition
  3

  2
AUTOATTR0
 70
     0
 74
     1
  0
ENDBLK
  5
81
330
7F
100
AcDbEntity
  8
0
100
AcDbBlockEnd
  0
BLOCK
  5
DC
330
DB
100
AcDbEntity
  8
0
100
AcDbBlockBegin
  2
_D
 70
     0
 10
0.0
 20
0.0
 30
0.0
  3
_D
  1
_D
  0
LINE
  5
DE
330
DB
100
AcDbEntity
  8
치수문자_일반주서
 62
     0
370
    -2
100
AcDbLine
 10
-15.89076350361915
 20
3.174999999999996
 30
0.0
 11
-42.41313701905663
 21
3.174999999999898
 31
0.0
  0
LINE
  5
DF
330
DB
100
AcDbEntity
  8
치수문자_일반주서
 62
     0
370
    -2
100
AcDbLine
 10
-15.89076350361915
 20
-3.175000000000003
 30
0.0
 11
-42.41313701905661
 21
-3.1750000000001
 31
0.0
  0
LINE
  5
E0
330
DB
100
AcDbEntity
  8
치수문자_일반주서
 62
     0
370
    -2
100
AcDbLine
 10
-42.41313701905663
 20
3.174999999999898
 30
0.0
 11
-42.41313701905674
 21
35.81024999999994
 31
0.0
  0
LINE
  5
E1
330
DB
100
AcDbEntity
  8
치수문자_일반주서
 62
     0
370
    -2
100
AcDbLine
 10
-42.41313701905663
 20
3.174999999999898
 30
0.0
 11
-42.41313701905661
 21
-3.1750000000001
 31
0.0
  0
LINE
  5
E2
330
DB
100
AcDbEntity
  8
치수문자_일반주서
 62
     0
370
    -2
100
AcDbLine
 10
-42.41313701905665
 20
6.476999999999897
 30
0.0
 11
-42.41313701905666
 21
9.778999999999897
 31
0.0
  0
LINE
  5
E3
330
DB
100
AcDbEntity
  8
치수문자_일반주서
 62
     0
370
    -2
100
AcDbLine
 10
-42.4131370190566
 20
-6.4770000000001
 30
0.0
 11
-42.41313701905658
 21
-9.7790000000001
 31
0.0
  0
SOLID
  5
E4
330
DB
100
AcDbEntity
  8
치수문자_일반주서
 62
     0
100
AcDbTrace
 10
-42.96347035238998
 20
6.476999999999896
 30
0.0
 11
-41.86280368572331
 21
6.476999999999899
 31
0.0
 12
-42.41313701905663
 22
3.174999999999898
 32
0.0
 13
-42.41313701905663
 23
3.174999999999898
 33
0.0
  0
SOLID
  5
E5
330
DB
100
AcDbEntity
  8
치수문자_일반주서
 62
     0
100
AcDbTrace
 10
-41.86280368572326
 20
-6.477000000000098
 30
0.0
 11
-42.96347035238993
 21
-6.477000000000102
 31
0.0
 12
-42.41313701905661
 22
-3.1750000000001
 32
0.0
 13
-42.41313701905661
 23
-3.1750000000001
 33
0.0
  0
MTEXT
  5
E6
330
DB
100
AcDbEntity
  8
치수문자_일반주서
 62
     0
100
AcDbMText
 10
-46.7881370190567
 20
23.12274999999993
 30
0.0
 40
3.5
 41
0.0
 71
     2
 72
     1
  1
\A1;%%c6.35 [1/4]
  7
SLDTEXTSTYLE0
 11
-3.356894814614647E-15
 21
1.0
 31
0.0
 73
     1
 44
1.0
  0
POINT
  5
2CA
330
DB
100
AcDbEntity
  8
Defpoints
 62
     0
100
AcDbPoint
 10
-15.82826350361915
 20
3.174999999999996
 30
0.0
  0
POINT
  5
2CB
330
DB
100
AcDbEntity
  8
Defpoints
 62
     0
100
AcDbPoint
 10
-15.82826350361915
 20
-3.175000000000002
 30
0.0
  0
POINT
  5
2CC
330
DB
100
AcDbEntity
  8
Defpoints
 62
     0
100
AcDbPoint
 10
-42.41313701905661
 20
-3.175000000000102
 30
0.0
  0
ENDBLK
  5
DD
330
DB
100
AcDbEntity
  8
0
100
AcDbBlockEnd
  0
BLOCK
  5
F0
330
EF
100
AcDbEntity
  8
0
100
AcDbBlockBegin
  2
_D_1
 70
     0
 10
0.0
 20
0.0
 30
0.0
  3
_D_1
  1
_D_1
  0
LINE
  5
F2
330
EF
100
AcDbEntity
  8
치수문자_일반주서
 62
     0
370
    -2
100
AcDbLine
 10
31.81250000000001
 20
-2.577507187412721
 30
0.0
 11
47.27438662121023
 21
-2.577507187412664
 31
0.0
  0
LINE
  5
F3
330
EF
100
AcDbEntity
  8
치수문자_일반주서
 62
     0
370
    -2
100
AcDbLine
 10
31.81250000000001
 20
2.577507187412722
 30
0.0
 11
47.2743866212102
 21
2.577507187412778
 31
0.0
  0
LINE
  5
F4
330
EF
100
AcDbEntity
  8
치수문자_일반주서
 62
     0
370
    -2
100
AcDbLine
 10
47.2743866212102
 20
2.577507187412778
 30
0.0
 11
47.27438662121006
 21
38.93150718741278
 31
0.0
  0
LINE
  5
F5
330
EF
100
AcDbEntity
  8
치수문자_일반주서
 62
     0
370
    -2
100
AcDbLine
 10
47.27438662121023
 20
-2.577507187412664
 30
0.0
 11
47.2743866212102
 21
2.577507187412778
 31
0.0
  0
LINE
  5
F6
330
EF
100
AcDbEntity
  8
치수문자_일반주서
 62
     0
370
    -2
100
AcDbLine
 10
47.27438662121024
 20
-5.879507187412663
 30
0.0
 11
47.27438662121025
 21
-9.181507187412663
 31
0.0
  0
LINE
  5
F7
330
EF
100
AcDbEntity
  8
치수문자_일반주서
 62
     0
370
    -2
100
AcDbLine
 10
47.27438662121019
 20
5.879507187412777
 30
0.0
 11
47.27438662121018
 21
9.181507187412777
 31
0.0
  0
SOLID
  5
F8
330
EF
100
AcDbEntity
  8
치수문자_일반주서
 62
     0
100
AcDbTrace
 10
47.82471995454357
 20
-5.879507187412661
 30
0.0
 11
46.72405328787691
 21
-5.879507187412666
 31
0.0
 12
47.27438662121023
 22
-2.577507187412664
 32
0.0
 13
47.27438662121023
 23
-2.577507187412664
 33
0.0
  0
SOLID
  5
F9
330
EF
100
AcDbEntity
  8
치수문자_일반주서
 62
     0
100
AcDbTrace
 10
46.72405328787686
 20
5.879507187412774
 30
0.0
 11
47.82471995454353
 21
5.87950718741278
 31
0.0
 12
47.2743866212102
 22
2.577507187412778
 32
0.0
 13
47.2743866212102
 23
2.577507187412778
 33
0.0
  0
MTEXT
  5
FA
330
EF
100
AcDbEntity
  8
치수문자_일반주서
 62
     0
100
AcDbMText
 10
42.89938662121012
 20
24.05650718741276
 30
0.0
 40
3.5
 41
0.0
 71
     2
 72
     1
  1
\A1;%%c5.16 [13/64]
  7
SLDTEXTSTYLE0
 11
-4.135057736579989E-15
 21
1.0
 31
0.0
 73
     1
 44
1.0
  0
POINT
  5
FB
330
EF
100
AcDbEntity
  8
Defpoints
 62
     0
100
AcDbPoint
 10
31.75000000000001
 20
-2.577507187412721
 30
0.0
  0
POINT
  5
FC
330
EF
100
AcDbEntity
  8
Defpoints
 62
     0
100
AcDbPoint
 10
31.75000000000001
 20
2.577507187412722
 30
0.0
  0
POINT
  5
FD
330
EF
100
AcDbEntity
  8
Defpoints
 62
     0
100
AcDbPoint
 10
47.2743866212102
 20
2.57750718741278
 30
0.0
  0
ENDBLK
  5
F1
330
EF
100
AcDbEntity
  8
0
100
AcDbBlockEnd
  0
BLOCK
  5
105
330
104
100
AcDbEntity
  8
0
100
AcDbBlockBegin
  2
_D_2
 70
     0
 10
0.0
 20
0.0
 30
0.0
  3
_D_2
  1
_D_2
  0
LINE
  5
107
330
104
100
AcDbEntity
  8
치수문자_일반주서
 62
     0
370
    -2
100
AcDbLine
 10
31.75000000000001
 20
2.640007187412722
 30
0.0
 11
31.75000000000001
 21
16.28452976617112
 31
0.0
  0
LINE
  5
108
330
104
100
AcDbEntity
  8
치수문자_일반주서
 62
     0
370
    -2
100
AcDbLine
 10
19.05
 20
2.556663102234987
 30
0.0
 11
19.05
 21
16.28452976617112
 31
0.0
  0
LINE
  5
109
330
104
100
AcDbEntity
  8
치수문자_일반주서
 62
     0
370
    -2
100
AcDbLine
 10
19.05
 20
16.28452976617112
 30
0.0
 11
-9.866499999999997
 21
16.28452976617112
 31
0.0
  0
LINE
  5
10A
330
104
100
AcDbEntity
  8
치수문자_일반주서
 62
     0
370
    -2
100
AcDbLine
 10
31.75000000000001
 20
16.28452976617112
 30
0.0
 11
19.05
 21
16.28452976617112
 31
0.0
  0
LINE
  5
10B
330
104
100
AcDbEntity
  8
치수문자_일반주서
 62
     0
370
    -2
100
AcDbLine
 10
35.05200000000001
 20
16.28452976617112
 30
0.0
 11
38.35400000000001
 21
16.28452976617112
 31
0.0
  0
LINE
  5
10C
330
104
100
AcDbEntity
  8
치수문자_일반주서
 62
     0
370
    -2
100
AcDbLine
 10
15.748
 20
16.28452976617112
 30
0.0
 11
12.44600000000001
 21
16.28452976617112
 31
0.0
  0
SOLID
  5
10D
330
104
100
AcDbEntity
  8
치수문자_일반주서
 62
     0
100
AcDbTrace
 10
35.05200000000001
 20
16.83486309950445
 30
0.0
 11
35.05200000000001
 21
15.73419643283779
 31
0.0
 12
31.75000000000001
 22
16.28452976617112
 32
0.0
 13
31.75000000000001
 23
16.28452976617112
 33
0.0
  0
SOLID
  5
10E
330
104
100
AcDbEntity
  8
치수문자_일반주서
 62
     0
100
AcDbTrace
 10
15.748
 20
15.73419643283779
 30
0.0
 11
15.748
 21
16.83486309950445
 31
0.0
 12
19.05
 22
16.28452976617112
 32
0.0
 13
19.05
 23
16.28452976617112
 33
0.0
  0
MTEXT
  5
10F
330
104
100
AcDbEntity
  8
치수문자_일반주서
 62
     0
100
AcDbMText
 10
1.071000000000003
 20
20.65952976617112
 30
0.0
 40
3.5
 41
0.0
 71
     2
 72
     1
  1
\A1;12.7 [1/2]
  7
SLDTEXTSTYLE0
 73
     1
 44
1.0
  0
POINT
  5
110
330
104
100
AcDbEntity
  8
Defpoints
 62
     0
100
AcDbPoint
 10
31.75000000000001
 20
2.577507187412722
 30
0.0
  0
POINT
  5
111
330
104
100
AcDbEntity
  8
Defpoints
 62
     0
100
AcDbPoint
 10
19.05
 20
2.494163102234987
 30
0.0
  0
POINT
  5
112
330
104
100
AcDbEntity
  8
Defpoints
 62
     0
100
AcDbPoint
 10
19.05
 20
16.28452976617112
 30
0.0
  0
ENDBLK
  5
106
330
104
100
AcDbEntity
  8
0
100
AcDbBlockEnd
  0
BLOCK
  5
119
330
118
100
AcDbEntity
  8
0
100
AcDbBlockBegin
  2
_D_3
 70
     0
 10
0.0
 20
0.0
 30
0.0
  3
_D_3
  1
_D_3
  0
LINE
  5
11B
330
118
100
AcDbEntity
  8
치수문자_일반주서
 62
     0
370
    -2
100
AcDbLine
 10
-31.74999999999999
 20
2.427499999999994
 30
0.0
 11
-31.74999999999999
 21
36.79500000000002
 31
0.0
  0
LINE
  5
11C
330
118
100
AcDbEntity
  8
치수문자_일반주서
 62
     0
370
    -2
100
AcDbLine
 10
31.75000000000001
 20
2.640007187412722
 30
0.0
 11
31.75000000000001
 21
36.79500000000002
 31
0.0
  0
LINE
  5
11D
330
118
100
AcDbEntity
  8
치수문자_일반주서
 62
     0
370
    -2
100
AcDbLine
 10
-28.44799999999999
 20
36.79500000000002
 30
0.0
 11
28.44800000000001
 21
36.79500000000002
 31
0.0
  0
SOLID
  5
11E
330
118
100
AcDbEntity
  8
치수문자_일반주서
 62
     0
100
AcDbTrace
 10
-28.44799999999999
 20
37.34533333333336
 30
0.0
 11
-28.44799999999999
 21
36.24466666666669
 31
0.0
 12
-31.74999999999999
 22
36.79500000000002
 32
0.0
 13
-31.74999999999999
 23
36.79500000000002
 33
0.0
  0
SOLID
  5
11F
330
118
100
AcDbEntity
  8
치수문자_일반주서
 62
     0
100
AcDbTrace
 10
28.44800000000001
 20
36.24466666666669
 30
0.0
 11
28.44800000000001
 21
37.34533333333336
 31
0.0
 12
31.75000000000001
 22
36.79500000000002
 32
0.0
 13
31.75000000000001
 23
36.79500000000002
 33
0.0
  0
MTEXT
  5
120
330
118
100
AcDbEntity
  8
치수문자_일반주서
 62
     0
100
AcDbMText
 10
0.000000000000016
 20
41.17000000000002
 30
0.0
 40
3.5
 41
0.0
 71
     2
 72
     1
  1
\A1;63.5 [2 1/2]
  7
SLDTEXTSTYLE0
 73
     1
 44
1.0
  0
POINT
  5
121
330
118
100
AcDbEntity
  8
Defpoints
 62
     0
100
AcDbPoint
 10
-31.74999999999999
 20
2.364999999999994
 30
0.0
  0
POINT
  5
122
330
118
100
AcDbEntity
  8
Defpoints
 62
     0
100
AcDbPoint
 10
31.75000000000001
 20
2.577507187412722
 30
0.0
  0
POINT
  5
123
330
118
100
AcDbEntity
  8
Defpoints
 62
     0
100
AcDbPoint
 10
31.75000000000001
 20
36.79500000000002
 30
0.0
  0
ENDBLK
  5
11A
330
118
100
AcDbEntity
  8
0
100
AcDbBlockEnd
  0
BLOCK
  5
132
330
131
100
AcDbEntity
  8
0
100
AcDbBlockBegin
  2
SW_DOWELSYMBOL_0
 70
     0
 10
0.0
 20
0.0
 30
0.0
  3
SW_DOWELSYMBOL_0
  1
SW_DOWELSYMBOL_0
  0
CIRCLE
  5
134
330
131
100
AcDbEntity
  8
해칭선
 62
     0
100
AcDbCircle
 10
0.0
 20
0.0
 30
0.0
 40
3.000000000000001
  0
HATCH
  5
135
330
131
100
AcDbEntity
  8
0
  6
Continuous
 62
     0
370
     0
100
AcDbHatch
 10
0.0
 20
0.0
 30
0.0
210
0.0
220
0.0
230
1.0
  2
SOLID
 70
     1
 71
     0
 91
        1
 92
        0
 93
        3
 72
     2
 10
0.0
 20
0.0
 40
3.000000000000001
 50
0.0
 51
90.0
 73
     1
 72
     1
 10
0.0
 20
3.000000000000001
 11
0.0
 21
0.0
 72
     1
 10
0.0
 20
0.0
 11
3.000000000000001
 21
0.0
 97
        0
 75
     0
 76
     1
 98
        1
 10
0.0
 20
0.0
  0
HATCH
  5
136
330
131
100
AcDbEntity
  8
0
  6
Continuous
 62
     0
370
     0
100
AcDbHatch
 10
0.0
 20
0.0
 30
0.0
210
0.0
220
0.0
230
1.0
  2
SOLID
 70
     1
 71
     0
 91
        1
 92
        0
 93
        3
 72
     2
 10
0.0
 20
0.0
 40
3.000000000000001
 50
180.0
 51
270.0000000000007
 73
     1
 72
     1
 10
0.0
 20
-3.000000000000001
 11
0.0
 21
0.0
 72
     1
 10
0.0
 20
0.0
 11
-3.000000000000001
 21
0.0
 97
        0
 75
     0
 76
     1
 98
        1
 10
0.0
 20
0.0
  0
ENDBLK
  5
133
330
131
100
AcDbEntity
  8
0
100
AcDbBlockEnd
  0
BLOCK
  5
1F4
330
1F3
100
AcDbEntity
  8
0
100
AcDbBlockBegin
  2
_D_4
 70
     0
 10
0.0
 20
0.0
 30
0.0
  3
_D_4
  1
_D_4
  0
LINE
  5
1F5
330
1F3
100
AcDbEntity
  8
치수문자_일반주서
 62
     0
370
    -2
100
AcDbLine
 10
102.4375000000001
 20
36.22143424691529
 30
0.0
 11
117.3750000000001
 21
36.22143424691535
 31
0.0
  0
LINE
  5
1F6
330
1F3
100
AcDbEntity
  8
치수문자_일반주서
 62
     0
370
    -2
100
AcDbLine
 10
102.4375000000001
 20
22.22143424691529
 30
0.0
 11
117.3750000000001
 21
22.22143424691535
 31
0.0
  0
LINE
  5
1F7
330
1F3
100
AcDbEntity
  8
치수문자_일반주서
 62
     0
370
    -2
100
AcDbLine
 10
117.3750000000001
 20
36.22143424691535
 30
0.0
 11
117.3750000000001
 21
22.22143424691535
 31
0.0
  0
LINE
  5
1F8
330
1F3
100
AcDbEntity
  8
치수문자_일반주서
 62
     0
370
    -2
100
AcDbLine
 10
117.3750000000001
 20
39.52343424691535
 30
0.0
 11
117.375
 21
42.82543424691535
 31
0.0
  0
LINE
  5
1F9
330
1F3
100
AcDbEntity
  8
치수문자_일반주서
 62
     0
370
    -2
100
AcDbLine
 10
117.3750000000001
 20
18.91943424691535
 30
0.0
 11
117.3750000000001
 21
15.61743424691535
 31
0.0
  0
SOLID
  5
1FA
330
1F3
100
AcDbEntity
  8
치수문자_일반주서
 62
     0
100
AcDbTrace
 10
116.8246666666667
 20
39.52343424691535
 30
0.0
 11
117.9253333333334
 21
39.52343424691535
 31
0.0
 12
117.3750000000001
 22
36.22143424691535
 32
0.0
 13
117.3750000000001
 23
36.22143424691535
 33
0.0
  0
SOLID
  5
1FB
330
1F3
100
AcDbEntity
  8
치수문자_일반주서
 62
     0
100
AcDbTrace
 10
117.9253333333335
 20
18.91943424691535
 30
0.0
 11
116.8246666666668
 21
18.91943424691535
 31
0.0
 12
117.3750000000001
 22
22.22143424691535
 32
0.0
 13
117.3750000000001
 23
22.22143424691535
 33
0.0
  0
MTEXT
  5
1FC
330
1F3
100
AcDbEntity
  8
치수문자_일반주서
 62
     0
100
AcDbMText
 10
113.0000000000001
 20
29.28713862862833
 30
0.0
 40
3.5
 41
0.0
 71
     2
 72
     1
  1
\A1;%%c14
  7
SLDTEXTSTYLE0
 11
-3.045183153257572E-15
 21
1.0
 31
0.0
 73
     1
 44
1.0
  0
POINT
  5
1FD
330
1F3
100
AcDbEntity
  8
Defpoints
 62
     0
100
AcDbPoint
 10
102.3750000000001
 20
36.22143424691529
 30
0.0
  0
POINT
  5
1FE
330
1F3
100
AcDbEntity
  8
Defpoints
 62
     0
100
AcDbPoint
 10
102.3750000000001
 20
22.22143424691529
 30
0.0
  0
POINT
  5
1FF
330
1F3
100
AcDbEntity
  8
Defpoints
 62
     0
100
AcDbPoint
 10
117.3750000000001
 20
22.22143424691535
 30
0.0
  0
ENDBLK
  5
200
330
1F3
100
AcDbEntity
  8
0
100
AcDbBlockEnd
  0
BLOCK
  5
20E
330
20D
100
AcDbEntity
  8
0
100
AcDbBlockBegin
  2
*D8
 70
     1
 10
0.0
 20
0.0
 30
0.0
  3
*D8
  1
*D8
  0
LINE
  5
20F
330
20D
100
AcDbEntity
  8
치수문자_일반주서
 62
     0
370
    -2
100
AcDbLine
 10
103.8657751816695
 20
19.48229575403651
 30
0.0
 11
120.1921280501954
 21
-7.081888143622854
 31
0.0
  0
MTEXT
  5
210
330
20D
100
AcDbEntity
  8
치수문자_일반주서
 62
     0
100
AcDbMText
 10
115.6706384014277
 20
5.288158154535728
 30
0.0
 40
3.5
 41
0.0
 71
     5
 72
     1
  1
\A1;R.50 [R0.02]
  7
SLDTEXTSTYLE0
 11
0.5236126201129557
 21
-0.8519564684057781
 31
0.0
 73
     1
 44
1.0
  0
SOLID
  5
211
330
20D
100
AcDbEntity
  8
치수문자_일반주서
 62
     0
100
AcDbTrace
 10
104.3346352247821
 20
19.77045723263868
 30
0.0
 11
103.3969151385569
 21
19.19413427543435
 31
0.0
 12
102.1368063100565
 22
22.29545601271239
 32
0.0
 13
102.1368063100565
 23
22.29545601271239
 33
0.0
  0
LINE
  5
212
330
20D
100
AcDbEntity
  8
치수문자_일반주서
 62
     0
100
AcDbLine
 10
101.785
 20
22.72143424691529
 30
0.0
 11
101.965
 21
22.72143424691529
 31
0.0
  0
LINE
  5
213
330
20D
100
AcDbEntity
  8
치수문자_일반주서
 62
     0
100
AcDbLine
 10
101.875
 20
22.63143424691529
 30
0.0
 11
101.875
 21
22.81143424691529
 31
0.0
  0
POINT
  5
23F
330
20D
100
AcDbEntity
  8
Defpoints
 62
     0
100
AcDbPoint
 10
102.1368063100565
 20
22.29545601271239
 30
0.0
  0
POINT
  5
240
330
20D
100
AcDbEntity
  8
Defpoints
 62
     0
100
AcDbPoint
 10
101.875
 20
22.72143424691529
 30
0.0
  0
ENDBLK
  5
214
330
20D
100
AcDbEntity
  8
0
100
AcDbBlockEnd
  0
BLOCK
  5
21A
330
219
100
AcDbEntity
  8
0
100
AcDbBlockBegin
  2
*D9
 70
     1
 10
0.0
 20
0.0
 30
0.0
  3
*D9
  1
*D10
  0
LINE
  5
21C
330
219
100
AcDbEntity
  8
치수문자_일반주서
 62
     0
370
    -2
100
AcDbLine
 10
19.37500000000004
 20
35.78393424691529
 30
0.0
 11
19.37500000000004
 21
70.88391841499404
 31
0.0
  0
LINE
  5
21D
330
219
100
AcDbEntity
  8
치수문자_일반주서
 62
     0
370
    -2
100
AcDbLine
 10
102.3750000000001
 20
36.34643424691529
 30
0.0
 11
102.3750000000001
 21
70.88391841499404
 31
0.0
  0
LINE
  5
21E
330
219
100
AcDbEntity
  8
치수문자_일반주서
 62
     0
370
    -2
100
AcDbLine
 10
22.67700000000004
 20
70.88391841499404
 30
0.0
 11
99.07300000000006
 21
70.88391841499404
 31
0.0
  0
SOLID
  5
21F
330
219
100
AcDbEntity
  8
치수문자_일반주서
 62
     0
100
AcDbTrace
 10
22.67700000000004
 20
71.43425174832737
 30
0.0
 11
22.67700000000004
 21
70.33358508166071
 31
0.0
 12
19.37500000000004
 22
70.88391841499404
 32
0.0
 13
19.37500000000004
 23
70.88391841499404
 33
0.0
  0
SOLID
  5
220
330
219
100
AcDbEntity
  8
치수문자_일반주서
 62
     0
100
AcDbTrace
 10
99.07300000000006
 20
70.33358508166071
 30
0.0
 11
99.07300000000006
 21
71.43425174832737
 31
0.0
 12
102.3750000000001
 22
70.88391841499404
 32
0.0
 13
102.3750000000001
 23
70.88391841499404
 33
0.0
  0
MTEXT
  5
221
330
219
100
AcDbEntity
  8
치수문자_일반주서
 62
     0
100
AcDbMText
 10
60.87500000000005
 20
75.25891841499404
 30
0.0
 40
3.5
 41
0.0
 71
     2
 72
     1
  1
\A1;83 [3.27]
  7
SLDTEXTSTYLE0
 73
     1
 44
1.0
  0
POINT
  5
222
330
219
100
AcDbEntity
  8
Defpoints
 62
     0
100
AcDbPoint
 10
19.37500000000004
 20
35.72143424691529
 30
0.0
  0
POINT
  5
223
330
219
100
AcDbEntity
  8
Defpoints
 62
     0
100
AcDbPoint
 10
102.3750000000001
 20
36.28393424691529
 30
0.0
  0
POINT
  5
224
330
219
100
AcDbEntity
  8
Defpoints
 62
     0
100
AcDbPoint
 10
102.3750000000001
 20
70.88391841499404
 30
0.0
  0
ENDBLK
  5
21B
330
219
100
AcDbEntity
  8
0
100
AcDbBlockEnd
  0
BLOCK
  5
226
330
225
100
AcDbEntity
  8
0
100
AcDbBlockBegin
  2
*D10
 70
     1
 10
0.0
 20
0.0
 30
0.0
  3
*D10
  1
*D11
  0
LINE
  5
228
330
225
100
AcDbEntity
  8
치수문자_일반주서
 62
     0
370
    -2
100
AcDbLine
 10
76.37504186422882
 20
28.62038676313042
 30
0.0
 11
76.37504186422882
 21
61.90091383617725
 31
0.0
  0
LINE
  5
229
330
225
100
AcDbEntity
  8
치수문자_일반주서
 62
     0
370
    -2
100
AcDbLine
 10
102.3750000000001
 20
36.28393424691529
 30
0.0
 11
102.3750000000001
 21
61.90091383617725
 31
0.0
  0
LINE
  5
22A
330
225
100
AcDbEntity
  8
치수문자_일반주서
 62
     0
370
    -2
100
AcDbLine
 10
79.67704186422881
 20
61.90091383617725
 30
0.0
 11
99.07300000000006
 21
61.90091383617725
 31
0.0
  0
SOLID
  5
22B
330
225
100
AcDbEntity
  8
치수문자_일반주서
 62
     0
100
AcDbTrace
 10
79.67704186422881
 20
62.45124716951059
 30
0.0
 11
79.67704186422881
 21
61.35058050284392
 31
0.0
 12
76.37504186422882
 22
61.90091383617725
 32
0.0
 13
76.37504186422882
 23
61.90091383617725
 33
0.0
  0
SOLID
  5
22C
330
225
100
AcDbEntity
  8
치수문자_일반주서
 62
     0
100
AcDbTrace
 10
99.07300000000006
 20
61.35058050284392
 30
0.0
 11
99.07300000000006
 21
62.45124716951059
 31
0.0
 12
102.3750000000001
 22
61.90091383617725
 32
0.0
 13
102.3750000000001
 23
61.90091383617725
 33
0.0
  0
MTEXT
  5
22D
330
225
100
AcDbEntity
  8
치수문자_일반주서
 62
     0
100
AcDbMText
 10
89.42159572693208
 20
66.27591383617725
 30
0.0
 40
3.5
 41
0.0
 71
     2
 72
     1
  1
\A1;26 [1.02]
  7
SLDTEXTSTYLE0
 73
     1
 44
1.0
  0
POINT
  5
22E
330
225
100
AcDbEntity
  8
Defpoints
 62
     0
100
AcDbPoint
 10
76.37504186422882
 20
28.55788676313042
 30
0.0
  0
POINT
  5
22F
330
225
100
AcDbEntity
  8
Defpoints
 62
     0
100
AcDbPoint
 10
102.3750000000001
 20
36.22143424691529
 30
0.0
  0
POINT
  5
230
330
225
100
AcDbEntity
  8
Defpoints
 62
     0
100
AcDbPoint
 10
102.3750000000001
 20
61.90091383617725
 30
0.0
  0
ENDBLK
  5
227
330
225
100
AcDbEntity
  8
0
100
AcDbBlockEnd
  0
BLOCK
  5
232
330
231
100
AcDbEntity
  8
0
100
AcDbBlockBegin
  2
*D11
 70
     1
 10
0.0
 20
0.0
 30
0.0
  3
*D11
  1
*D12
  0
LINE
  5
234
330
231
100
AcDbEntity
  8
치수문자_일반주서
 62
     0
370
    -2
100
AcDbLine
 10
19.81250000000005
 20
36.22143424691529
 30
0.0
 11
4.374999999999983
 21
36.22143424691524
 31
0.0
  0
LINE
  5
235
330
231
100
AcDbEntity
  8
치수문자_일반주서
 62
     0
370
    -2
100
AcDbLine
 10
19.81250000000005
 20
22.22143424691529
 30
0.0
 11
4.375000000000032
 21
22.22143424691524
 31
0.0
  0
LINE
  5
236
330
231
100
AcDbEntity
  8
치수문자_일반주서
 62
     0
370
    -2
100
AcDbLine
 10
4.374999999999983
 20
36.22143424691524
 30
0.0
 11
4.375000000000032
 21
22.22143424691524
 31
0.0
  0
LINE
  5
237
330
231
100
AcDbEntity
  8
치수문자_일반주서
 62
     0
370
    -2
100
AcDbLine
 10
4.374999999999972
 20
39.52343424691524
 30
0.0
 11
4.37499999999996
 21
42.82543424691524
 31
0.0
  0
LINE
  5
238
330
231
100
AcDbEntity
  8
치수문자_일반주서
 62
     0
370
    -2
100
AcDbLine
 10
4.375000000000044
 20
18.91943424691524
 30
0.0
 11
4.375000000000055
 21
15.61743424691524
 31
0.0
  0
SOLID
  5
239
330
231
100
AcDbEntity
  8
치수문자_일반주서
 62
     0
100
AcDbTrace
 10
3.824666666666638
 20
39.52343424691524
 30
0.0
 11
4.925333333333305
 21
39.52343424691524
 31
0.0
 12
4.374999999999983
 22
36.22143424691524
 32
0.0
 13
4.374999999999983
 23
36.22143424691524
 33
0.0
  0
SOLID
  5
23A
330
231
100
AcDbEntity
  8
치수문자_일반주서
 62
     0
100
AcDbTrace
 10
4.925333333333377
 20
18.91943424691524
 30
0.0
 11
3.82466666666671
 21
18.91943424691523
 31
0.0
 12
4.375000000000032
 22
22.22143424691524
 32
0.0
 13
4.375000000000032
 23
22.22143424691524
 33
0.0
  0
MTEXT
  5
23B
330
231
100
AcDbEntity
  8
치수문자_일반주서
 62
     0
100
AcDbMText
 10
0.0000000000000071
 20
29.22143424691528
 30
0.0
 40
3.5
 41
0.0
 71
     2
 72
     1
  1
\A1;%%c14
  7
SLDTEXTSTYLE0
 11
-3.489272363107635E-15
 21
1.0
 31
0.0
 73
     1
 44
1.0
  0
POINT
  5
23C
330
231
100
AcDbEntity
  8
Defpoints
 62
     0
100
AcDbPoint
 10
19.87500000000005
 20
36.22143424691529
 30
0.0
  0
POINT
  5
23D
330
231
100
AcDbEntity
  8
Defpoints
 62
     0
100
AcDbPoint
 10
19.87500000000005
 20
22.22143424691529
 30
0.0
  0
POINT
  5
23E
330
231
100
AcDbEntity
  8
Defpoints
 62
     0
100
AcDbPoint
 10
4.375000000000043
 20
22.22143424691524
 30
0.0
  0
ENDBLK
  5
233
330
231
100
AcDbEntity
  8
0
100
AcDbBlockEnd
  0
BLOCK
  5
28D
330
28C
100
AcDbEntity
  8
0
100
AcDbBlockBegin
  2
*D12
 70
     1
 10
0.0
 20
0.0
 30
0.0
  3
*D12
  1
*D13
  0
LINE
  5
28F
330
28C
100
AcDbEntity
  8
치수문자_일반주서
 62
     0
370
    -2
100
AcDbLine
 10
-67.0425320727176
 20
114.4074352679387
 30
0.0
 11
-67.0425320727176
 21
149.5074194360175
 31
0.0
  0
LINE
  5
290
330
28C
100
AcDbEntity
  8
치수문자_일반주서
 62
     0
370
    -2
100
AcDbLine
 10
15.95746792728241
 20
114.9699352679387
 30
0.0
 11
15.95746792728241
 21
149.5074194360175
 31
0.0
  0
LINE
  5
291
330
28C
100
AcDbEntity
  8
치수문자_일반주서
 62
     0
370
    -2
100
AcDbLine
 10
-63.74053207271761
 20
149.5074194360175
 30
0.0
 11
12.65546792728241
 21
149.5074194360175
 31
0.0
  0
SOLID
  5
292
330
28C
100
AcDbEntity
  8
치수문자_일반주서
 62
     0
100
AcDbTrace
 10
-63.74053207271761
 20
150.0577527693508
 30
0.0
 11
-63.74053207271761
 21
148.9570861026841
 31
0.0
 12
-67.0425320727176
 22
149.5074194360175
 32
0.0
 13
-67.0425320727176
 23
149.5074194360175
 33
0.0
  0
SOLID
  5
293
330
28C
100
AcDbEntity
  8
치수문자_일반주서
 62
     0
100
AcDbTrace
 10
12.65546792728241
 20
148.9570861026841
 30
0.0
 11
12.65546792728241
 21
150.0577527693508
 31
0.0
 12
15.95746792728241
 22
149.5074194360175
 32
0.0
 13
15.95746792728241
 23
149.5074194360175
 33
0.0
  0
MTEXT
  5
294
330
28C
100
AcDbEntity
  8
치수문자_일반주서
 62
     0
100
AcDbMText
 10
-25.5425320727176
 20
153.8824194360175
 30
0.0
 40
3.5
 41
0.0
 71
     2
 72
     1
  1
\A1;83 [3.27]
  7
SLDTEXTSTYLE0
 73
     1
 44
1.0
  0
POINT
  5
295
330
28C
100
AcDbEntity
  8
Defpoints
 62
     0
100
AcDbPoint
 10
-67.0425320727176
 20
114.3449352679387
 30
0.0
  0
POINT
  5
296
330
28C
100
AcDbEntity
  8
Defpoints
 62
     0
100
AcDbPoint
 10
15.95746792728241
 20
114.9074352679387
 30
0.0
  0
POINT
  5
297
330
28C
100
AcDbEntity
  8
Defpoints
 62
     0
100
AcDbPoint
 10
15.95746792728241
 20
149.5074194360175
 30
0.0
  0
ENDBLK
  5
28E
330
28C
100
AcDbEntity
  8
0
100
AcDbBlockEnd
  0
BLOCK
  5
299
330
298
100
AcDbEntity
  8
0
100
AcDbBlockBegin
  2
*D13
 70
     1
 10
0.0
 20
0.0
 30
0.0
  3
*D13
  1
*D14
  0
LINE
  5
29B
330
298
100
AcDbEntity
  8
치수문자_일반주서
 62
     0
370
    -2
100
AcDbLine
 10
-10.04249020848883
 20
107.2438877841539
 30
0.0
 11
-10.04249020848883
 21
140.5244148572007
 31
0.0
  0
LINE
  5
29C
330
298
100
AcDbEntity
  8
치수문자_일반주서
 62
     0
370
    -2
100
AcDbLine
 10
15.95746792728241
 20
114.9074352679387
 30
0.0
 11
15.95746792728241
 21
140.5244148572007
 31
0.0
  0
LINE
  5
29D
330
298
100
AcDbEntity
  8
치수문자_일반주서
 62
     0
370
    -2
100
AcDbLine
 10
-6.740490208488829
 20
140.5244148572007
 30
0.0
 11
12.65546792728241
 21
140.5244148572007
 31
0.0
  0
SOLID
  5
29E
330
298
100
AcDbEntity
  8
치수문자_일반주서
 62
     0
100
AcDbTrace
 10
-6.740490208488829
 20
141.074748190534
 30
0.0
 11
-6.740490208488829
 21
139.9740815238674
 31
0.0
 12
-10.04249020848883
 22
140.5244148572007
 32
0.0
 13
-10.04249020848883
 23
140.5244148572007
 33
0.0
  0
SOLID
  5
29F
330
298
100
AcDbEntity
  8
치수문자_일반주서
 62
     0
100
AcDbTrace
 10
12.65546792728241
 20
139.9740815238674
 30
0.0
 11
12.65546792728241
 21
141.074748190534
 31
0.0
 12
15.95746792728241
 22
140.5244148572007
 32
0.0
 13
15.95746792728241
 23
140.5244148572007
 33
0.0
  0
MTEXT
  5
2A0
330
298
100
AcDbEntity
  8
치수문자_일반주서
 62
     0
100
AcDbMText
 10
3.004063654214434
 20
144.8994148572007
 30
0.0
 40
3.5
 41
0.0
 71
     2
 72
     1
  1
\A1;26 [1.02]
  7
SLDTEXTSTYLE0
 73
     1
 44
1.0
  0
POINT
  5
2A1
330
298
100
AcDbEntity
  8
Defpoints
 62
     0
100
AcDbPoint
 10
-10.04249020848883
 20
107.1813877841539
 30
0.0
  0
POINT
  5
2A2
330
298
100
AcDbEntity
  8
Defpoints
 62
     0
100
AcDbPoint
 10
15.95746792728241
 20
114.8449352679387
 30
0.0
  0
POINT
  5
2A3
330
298
100
AcDbEntity
  8
Defpoints
 62
     0
100
AcDbPoint
 10
15.95746792728241
 20
140.5244148572007
 30
0.0
  0
ENDBLK
  5
29A
330
298
100
AcDbEntity
  8
0
100
AcDbBlockEnd
  0
BLOCK
  5
2A5
330
2A4
100
AcDbEntity
  8
0
100
AcDbBlockBegin
  2
*D14
 70
     1
 10
0.0
 20
0.0
 30
0.0
  3
*D14
  1
*D15
  0
LINE
  5
2A7
330
2A4
100
AcDbEntity
  8
치수문자_일반주서
 62
     0
370
    -2
100
AcDbLine
 10
-66.60503207271759
 20
114.8449352679387
 30
0.0
 11
-82.04253207271766
 21
114.8449352679387
 31
0.0
  0
LINE
  5
2A8
330
2A4
100
AcDbEntity
  8
치수문자_일반주서
 62
     0
370
    -2
100
AcDbLine
 10
-66.60503207271759
 20
100.8449352679387
 30
0.0
 11
-82.04253207271762
 21
100.8449352679387
 31
0.0
  0
LINE
  5
2A9
330
2A4
100
AcDbEntity
  8
치수문자_일반주서
 62
     0
370
    -2
100
AcDbLine
 10
-82.04253207271766
 20
114.8449352679387
 30
0.0
 11
-82.04253207271762
 21
100.8449352679387
 31
0.0
  0
LINE
  5
2AA
330
2A4
100
AcDbEntity
  8
치수문자_일반주서
 62
     0
370
    -2
100
AcDbLine
 10
-82.04253207271768
 20
118.1469352679387
 30
0.0
 11
-82.04253207271769
 21
121.4489352679387
 31
0.0
  0
LINE
  5
2AB
330
2A4
100
AcDbEntity
  8
치수문자_일반주서
 62
     0
370
    -2
100
AcDbLine
 10
-82.0425320727176
 20
97.54293526793867
 30
0.0
 11
-82.04253207271759
 21
94.24093526793867
 31
0.0
  0
SOLID
  5
2AC
330
2A4
100
AcDbEntity
  8
치수문자_일반주서
 62
     0
100
AcDbTrace
 10
-82.592865406051
 20
118.1469352679387
 30
0.0
 11
-81.49219873938435
 21
118.1469352679387
 31
0.0
 12
-82.04253207271766
 22
114.8449352679387
 32
0.0
 13
-82.04253207271766
 23
114.8449352679387
 33
0.0
  0
SOLID
  5
2AD
330
2A4
100
AcDbEntity
  8
치수문자_일반주서
 62
     0
100
AcDbTrace
 10
-81.49219873938428
 20
97.54293526793867
 30
0.0
 11
-82.59286540605093
 21
97.54293526793867
 31
0.0
 12
-82.04253207271762
 22
100.8449352679387
 32
0.0
 13
-82.04253207271762
 23
100.8449352679387
 33
0.0
  0
MTEXT
  5
2AE
330
2A4
100
AcDbEntity
  8
치수문자_일반주서
 62
     0
100
AcDbMText
 10
-86.41753207271765
 20
107.8449352679387
 30
0.0
 40
3.5
 41
0.0
 71
     2
 72
     1
  1
\A1;%%c14
  7
SLDTEXTSTYLE0
 11
-3.045183153257572E-15
 21
1.0
 31
0.0
 73
     1
 44
1.0
  0
POINT
  5
2AF
330
2A4
100
AcDbEntity
  8
Defpoints
 62
     0
100
AcDbPoint
 10
-66.54253207271759
 20
114.8449352679387
 30
0.0
  0
POINT
  5
2B0
330
2A4
100
AcDbEntity
  8
Defpoints
 62
     0
100
AcDbPoint
 10
-66.54253207271759
 20
100.8449352679387
 30
0.0
  0
POINT
  5
2B1
330
2A4
100
AcDbEntity
  8
Defpoints
 62
     0
100
AcDbPoint
 10
-82.04253207271762
 20
100.8449352679387
 30
0.0
  0
ENDBLK
  5
2A6
330
2A4
100
AcDbEntity
  8
0
100
AcDbBlockEnd
  0
BLOCK
  5
2B3
330
2B2
100
AcDbEntity
  8
0
100
AcDbBlockBegin
  2
*D15
 70
     1
 10
0.0
 20
0.0
 30
0.0
  3
*D15
  1
*D16
  0
LINE
  5
2B5
330
2B2
100
AcDbEntity
  8
치수문자_일반주서
 62
     0
370
    -2
100
AcDbLine
 10
16.01996792728242
 20
114.8449352679387
 30
0.0
 11
30.95746792728241
 21
114.8449352679388
 31
0.0
  0
LINE
  5
2B6
330
2B2
100
AcDbEntity
  8
치수문자_일반주서
 62
     0
370
    -2
100
AcDbLine
 10
16.01996792728241
 20
100.8449352679387
 30
0.0
 11
30.95746792728246
 21
100.8449352679388
 31
0.0
  0
LINE
  5
2B7
330
2B2
100
AcDbEntity
  8
치수문자_일반주서
 62
     0
370
    -2
100
AcDbLine
 10
30.95746792728241
 20
114.8449352679388
 30
0.0
 11
30.95746792728246
 21
100.8449352679388
 31
0.0
  0
LINE
  5
2B8
330
2B2
100
AcDbEntity
  8
치수문자_일반주서
 62
     0
370
    -2
100
AcDbLine
 10
30.9574679272824
 20
118.1469352679388
 30
0.0
 11
30.95746792728239
 21
121.4489352679388
 31
0.0
  0
LINE
  5
2B9
330
2B2
100
AcDbEntity
  8
치수문자_일반주서
 62
     0
370
    -2
100
AcDbLine
 10
30.95746792728247
 20
97.54293526793879
 30
0.0
 11
30.95746792728248
 21
94.24093526793878
 31
0.0
  0
SOLID
  5
2BA
330
2B2
100
AcDbEntity
  8
치수문자_일반주서
 62
     0
100
AcDbTrace
 10
30.40713459394907
 20
118.1469352679388
 30
0.0
 11
31.50780126061574
 21
118.1469352679388
 31
0.0
 12
30.95746792728241
 22
114.8449352679388
 32
0.0
 13
30.95746792728241
 23
114.8449352679388
 33
0.0
  0
SOLID
  5
2BB
330
2B2
100
AcDbEntity
  8
치수문자_일반주서
 62
     0
100
AcDbTrace
 10
31.50780126061581
 20
97.54293526793879
 30
0.0
 11
30.40713459394914
 21
97.54293526793879
 31
0.0
 12
30.95746792728246
 22
100.8449352679388
 32
0.0
 13
30.95746792728246
 23
100.8449352679388
 33
0.0
  0
MTEXT
  5
2BC
330
2B2
100
AcDbEntity
  8
치수문자_일반주서
 62
     0
100
AcDbMText
 10
26.58246792728244
 20
107.9106396496518
 30
0.0
 40
3.5
 41
0.0
 71
     2
 72
     1
  1
\A1;%%c14
  7
SLDTEXTSTYLE0
 11
-3.552713678800501E-15
 21
1.0
 31
0.0
 73
     1
 44
1.0
  0
POINT
  5
2BD
330
2B2
100
AcDbEntity
  8
Defpoints
 62
     0
100
AcDbPoint
 10
15.95746792728242
 20
114.8449352679387
 30
0.0
  0
POINT
  5
2BE
330
2B2
100
AcDbEntity
  8
Defpoints
 62
     0
100
AcDbPoint
 10
15.95746792728241
 20
100.8449352679387
 30
0.0
  0
POINT
  5
2BF
330
2B2
100
AcDbEntity
  8
Defpoints
 62
     0
100
AcDbPoint
 10
30.95746792728247
 20
100.8449352679388
 30
0.0
  0
ENDBLK
  5
2B4
330
2B2
100
AcDbEntity
  8
0
100
AcDbBlockEnd
  0
BLOCK
  5
2C1
330
2C0
100
AcDbEntity
  8
0
100
AcDbBlockBegin
  2
*D16
 70
     1
 10
0.0
 20
0.0
 30
0.0
  3
*D16
  1
*D17
  0
LINE
  5
2C3
330
2C0
100
AcDbEntity
  8
치수문자_일반주서
 62
     0
370
    -2
100
AcDbLine
 10
17.44824310895186
 20
98.10579677505996
 30
0.0
 11
33.77459597747769
 21
71.54161287740058
 31
0.0
  0
MTEXT
  5
2C4
330
2C0
100
AcDbEntity
  8
치수문자_일반주서
 62
     0
100
AcDbMText
 10
29.25310632871003
 20
83.91165917555917
 30
0.0
 40
3.5
 41
0.0
 71
     5
 72
     1
  1
\A1;R.50 [R0.02]
  7
SLDTEXTSTYLE0
 11
0.5236126201129557
 21
-0.8519564684057781
 31
0.0
 73
     1
 44
1.0
  0
SOLID
  5
2C5
330
2C0
100
AcDbEntity
  8
치수문자_일반주서
 62
     0
100
AcDbTrace
 10
17.91710315206451
 20
98.39395825366212
 30
0.0
 11
16.97938306583922
 21
97.8176352964578
 31
0.0
 12
15.71927423733888
 22
100.9189570337358
 32
0.0
 13
15.71927423733888
 23
100.9189570337358
 33
0.0
  0
LINE
  5
2C6
330
2C0
100
AcDbEntity
  8
치수문자_일반주서
 62
     0
100
AcDbLine
 10
15.36746792728239
 20
101.3449352679387
 30
0.0
 11
15.54746792728239
 21
101.3449352679387
 31
0.0
  0
LINE
  5
2C7
330
2C0
100
AcDbEntity
  8
치수문자_일반주서
 62
     0
100
AcDbLine
 10
15.45746792728239
 20
101.2549352679387
 30
0.0
 11
15.45746792728239
 21
101.4349352679387
 31
0.0
  0
POINT
  5
2C8
330
2C0
100
AcDbEntity
  8
Defpoints
 62
     0
100
AcDbPoint
 10
15.71927423733888
 20
100.9189570337358
 30
0.0
  0
POINT
  5
2C9
330
2C0
100
AcDbEntity
  8
Defpoints
 62
     0
100
AcDbPoint
 10
15.45746792728239
 20
101.3449352679387
 30
0.0
  0
ENDBLK
  5
2C2
330
2C0
100
AcDbEntity
  8
0
100
AcDbBlockEnd
  0
BLOCK
  5
304
330
303
100
AcDbEntity
  8
0
100
AcDbBlockBegin
  2
*D17
 70
     1
 10
0.0
 20
0.0
 30
0.0
  3
*D17
  1
*D18
  0
LINE
  5
306
330
303
100
AcDbEntity
  8
치수문자_일반주서
 62
     0
370
    -2
100
AcDbLine
 10
132.9192132997522
 20
-35.65809002677832
 30
0.0
 11
148.3810999209625
 21
-35.65809002677827
 31
0.0
  0
LINE
  5
307
330
303
100
AcDbEntity
  8
치수문자_일반주서
 62
     0
370
    -2
100
AcDbLine
 10
132.9192132997522
 20
-30.50307565195288
 30
0.0
 11
148.3810999209625
 21
-30.50307565195283
 31
0.0
  0
LINE
  5
308
330
303
100
AcDbEntity
  8
치수문자_일반주서
 62
     0
370
    -2
100
AcDbLine
 10
148.3810999209625
 20
-30.50307565195283
 30
0.0
 11
148.3810999209623
 21
1.475924348047172
 31
0.0
  0
LINE
  5
309
330
303
100
AcDbEntity
  8
치수문자_일반주서
 62
     0
370
    -2
100
AcDbLine
 10
148.3810999209625
 20
-35.65809002677827
 30
0.0
 11
148.3810999209625
 21
-30.50307565195283
 31
0.0
  0
LINE
  5
30A
330
303
100
AcDbEntity
  8
치수문자_일반주서
 62
     0
370
    -2
100
AcDbLine
 10
148.3810999209625
 20
-38.96009002677827
 30
0.0
 11
148.3810999209626
 21
-42.26209002677827
 31
0.0
  0
LINE
  5
30B
330
303
100
AcDbEntity
  8
치수문자_일반주서
 62
     0
370
    -2
100
AcDbLine
 10
148.3810999209624
 20
-27.20107565195283
 30
0.0
 11
148.3810999209624
 21
-23.89907565195283
 31
0.0
  0
SOLID
  5
30C
330
303
100
AcDbEntity
  8
치수문자_일반주서
 62
     0
100
AcDbTrace
 10
148.9314332542959
 20
-38.96009002677827
 30
0.0
 11
147.8307665876292
 21
-38.96009002677827
 31
0.0
 12
148.3810999209625
 22
-35.65809002677827
 32
0.0
 13
148.3810999209625
 23
-35.65809002677827
 33
0.0
  0
SOLID
  5
30D
330
303
100
AcDbEntity
  8
치수문자_일반주서
 62
     0
100
AcDbTrace
 10
147.8307665876291
 20
-27.20107565195283
 30
0.0
 11
148.9314332542958
 21
-27.20107565195282
 31
0.0
 12
148.3810999209625
 22
-30.50307565195283
 32
0.0
 13
148.3810999209625
 23
-30.50307565195283
 33
0.0
  0
MTEXT
  5
30E
330
303
100
AcDbEntity
  8
치수문자_일반주서
 62
     0
100
AcDbMText
 10
144.0060999209624
 20
-11.21157565195285
 30
0.0
 40
3.5
 41
0.0
 71
     2
 72
     1
  1
\A1;%%c5.16 [0.20]
  7
SLDTEXTSTYLE0
 11
-5.513410315439988E-15
 21
1.0
 31
0.0
 73
     1
 44
1.0
  0
POINT
  5
30F
330
303
100
AcDbEntity
  8
Defpoints
 62
     0
100
AcDbPoint
 10
132.8567132997522
 20
-35.65809002677832
 30
0.0
  0
POINT
  5
310
330
303
100
AcDbEntity
  8
Defpoints
 62
     0
100
AcDbPoint
 10
132.8567132997522
 20
-30.50307565195288
 30
0.0
  0
POINT
  5
311
330
303
100
AcDbEntity
  8
Defpoints
 62
     0
100
AcDbPoint
 10
148.3810999209624
 20
-30.50307565195283
 30
0.0
  0
ENDBLK
  5
305
330
303
100
AcDbEntity
  8
0
100
AcDbBlockEnd
  0
BLOCK
  5
313
330
312
100
AcDbEntity
  8
0
100
AcDbBlockBegin
  2
*D18
 70
     1
 10
0.0
 20
0.0
 30
0.0
  3
*D18
  1
*D19
  0
LINE
  5
315
330
312
100
AcDbEntity
  8
치수문자_일반주서
 62
     0
370
    -2
100
AcDbLine
 10
132.8567132997522
 20
-30.44057565195288
 30
0.0
 11
132.8567132997522
 21
-16.79605307319449
 31
0.0
  0
LINE
  5
316
330
312
100
AcDbEntity
  8
치수문자_일반주서
 62
     0
370
    -2
100
AcDbLine
 10
120.1567132997522
 20
-30.52391973713062
 30
0.0
 11
120.1567132997522
 21
-16.79605307319449
 31
0.0
  0
LINE
  5
317
330
312
100
AcDbEntity
  8
치수문자_일반주서
 62
     0
370
    -2
100
AcDbLine
 10
120.1567132997522
 20
-16.79605307319449
 30
0.0
 11
90.80271329975224
 21
-16.79605307319449
 31
0.0
  0
LINE
  5
318
330
312
100
AcDbEntity
  8
치수문자_일반주서
 62
     0
370
    -2
100
AcDbLine
 10
132.8567132997522
 20
-16.79605307319449
 30
0.0
 11
120.1567132997522
 21
-16.79605307319449
 31
0.0
  0
LINE
  5
319
330
312
100
AcDbEntity
  8
치수문자_일반주서
 62
     0
370
    -2
100
AcDbLine
 10
136.1587132997522
 20
-16.79605307319449
 30
0.0
 11
139.4607132997522
 21
-16.79605307319449
 31
0.0
  0
LINE
  5
31A
330
312
100
AcDbEntity
  8
치수문자_일반주서
 62
     0
370
    -2
100
AcDbLine
 10
116.8547132997522
 20
-16.79605307319449
 30
0.0
 11
113.5527132997522
 21
-16.79605307319449
 31
0.0
  0
SOLID
  5
31B
330
312
100
AcDbEntity
  8
치수문자_일반주서
 62
     0
100
AcDbTrace
 10
136.1587132997522
 20
-16.24571973986115
 30
0.0
 11
136.1587132997522
 21
-17.34638640652782
 31
0.0
 12
132.8567132997522
 22
-16.79605307319449
 32
0.0
 13
132.8567132997522
 23
-16.79605307319449
 33
0.0
  0
SOLID
  5
31C
330
312
100
AcDbEntity
  8
치수문자_일반주서
 62
     0
100
AcDbTrace
 10
116.8547132997522
 20
-17.34638640652782
 30
0.0
 11
116.8547132997522
 21
-16.24571973986115
 31
0.0
 12
120.1567132997522
 22
-16.79605307319449
 32
0.0
 13
120.1567132997522
 23
-16.79605307319449
 33
0.0
  0
MTEXT
  5
31D
330
312
100
AcDbEntity
  8
치수문자_일반주서
 62
     0
100
AcDbMText
 10
102.1777132997522
 20
-12.42105307319449
 30
0.0
 40
3.5
 41
0.0
 71
     2
 72
     1
  1
\A1;12.7 [0.50]
  7
SLDTEXTSTYLE0
 73
     1
 44
1.0
  0
POINT
  5
31E
330
312
100
AcDbEntity
  8
Defpoints
 62
     0
100
AcDbPoint
 10
132.8567132997522
 20
-30.50307565195288
 30
0.0
  0
POINT
  5
31F
330
312
100
AcDbEntity
  8
Defpoints
 62
     0
100
AcDbPoint
 10
120.1567132997522
 20
-30.58641973713062
 30
0.0
  0
POINT
  5
320
330
312
100
AcDbEntity
  8
Defpoints
 62
     0
100
AcDbPoint
 10
120.1567132997522
 20
-16.79605307319449
 30
0.0
  0
ENDBLK
  5
314
330
312
100
AcDbEntity
  8
0
100
AcDbBlockEnd
  0
BLOCK
  5
322
330
321
100
AcDbEntity
  8
0
100
AcDbBlockBegin
  2
*D19
 70
     1
 10
0.0
 20
0.0
 30
0.0
  3
*D19
  1
*D20
  0
LINE
  5
324
330
321
100
AcDbEntity
  8
치수문자_일반주서
 62
     0
370
    -2
100
AcDbLine
 10
69.35671329975224
 20
-30.65308283936561
 30
0.0
 11
69.35671329975224
 21
3.714417160634419
 31
0.0
  0
LINE
  5
325
330
321
100
AcDbEntity
  8
치수문자_일반주서
 62
     0
370
    -2
100
AcDbLine
 10
132.8567132997522
 20
-30.44057565195288
 30
0.0
 11
132.8567132997522
 21
3.714417160634419
 31
0.0
  0
LINE
  5
326
330
321
100
AcDbEntity
  8
치수문자_일반주서
 62
     0
370
    -2
100
AcDbLine
 10
72.65871329975224
 20
3.714417160634419
 30
0.0
 11
129.5547132997523
 21
3.714417160634419
 31
0.0
  0
SOLID
  5
327
330
321
100
AcDbEntity
  8
치수문자_일반주서
 62
     0
100
AcDbTrace
 10
72.65871329975224
 20
4.264750493967752
 30
0.0
 11
72.65871329975224
 21
3.164083827301086
 31
0.0
 12
69.35671329975224
 22
3.714417160634419
 32
0.0
 13
69.35671329975224
 23
3.714417160634419
 33
0.0
  0
SOLID
  5
328
330
321
100
AcDbEntity
  8
치수문자_일반주서
 62
     0
100
AcDbTrace
 10
129.5547132997523
 20
3.164083827301086
 30
0.0
 11
129.5547132997523
 21
4.264750493967752
 31
0.0
 12
132.8567132997522
 22
3.714417160634419
 32
0.0
 13
132.8567132997522
 23
3.714417160634419
 33
0.0
  0
MTEXT
  5
329
330
321
100
AcDbEntity
  8
치수문자_일반주서
 62
     0
100
AcDbMText
 10
101.1067132997523
 20
8.089417160634419
 30
0.0
 40
3.5
 41
0.0
 71
     2
 72
     1
  1
\A1;63.5 [2.50]
  7
SLDTEXTSTYLE0
 73
     1
 44
1.0
  0
POINT
  5
32A
330
321
100
AcDbEntity
  8
Defpoints
 62
     0
100
AcDbPoint
 10
69.35671329975224
 20
-30.71558283936561
 30
0.0
  0
POINT
  5
32B
330
321
100
AcDbEntity
  8
Defpoints
 62
     0
100
AcDbPoint
 10
132.8567132997522
 20
-30.50307565195288
 30
0.0
  0
POINT
  5
32C
330
321
100
AcDbEntity
  8
Defpoints
 62
     0
100
AcDbPoint
 10
132.8567132997522
 20
3.714417160634419
 30
0.0
  0
ENDBLK
  5
323
330
321
100
AcDbEntity
  8
0
100
AcDbBlockEnd
  0
ENDSEC
  0
SECTION
  2
ENTITIES
  0
LINE
  5
96
330
1F
100
AcDbEntity
  8
외형선
  6
Continuous
370
    15
100
AcDbLine
 10
15.82826350361916
 20
3.174999999999998
 30
0.0
 11
-15.82826350361915
 21
3.174999999999996
 31
0.0
  0
LINE
  5
97
330
1F
100
AcDbEntity
  8
외형선
  6
Continuous
370
    15
100
AcDbLine
 10
-15.82826350361916
 20
-3.175
 30
0.0
 11
15.82826350361916
 21
-3.174999999999998
 31
0.0
  0
LINE
  5
98
330
1F
100
AcDbEntity
  8
외형선
  6
Continuous
370
    15
100
AcDbLine
 10
15.82826350361916
 20
-3.175
 30
0.0
 11
18.05
 21
-2.5796875
 31
0.0
  0
LINE
  5
99
330
1F
100
AcDbEntity
  8
외형선
  6
Continuous
370
    15
100
AcDbLine
 10
18.05
 20
2.5796875
 30
0.0
 11
15.82826350361916
 21
3.175
 31
0.0
  0
LINE
  5
9C
330
1F
100
AcDbEntity
  8
외형선
  6
Continuous
370
    15
100
AcDbLine
 10
19.05
 20
2.5796875
 30
0.0
 11
18.05
 21
2.5796875
 31
0.0
  0
LINE
  5
9D
330
1F
100
AcDbEntity
  8
외형선
  6
Continuous
370
    15
100
AcDbLine
 10
18.05
 20
-2.5796875
 30
0.0
 11
19.05
 21
-2.5796875
 31
0.0
  0
SPLINE
  5
9E
330
1F
100
AcDbEntity
  8
0
  6
Continuous
 62
     1
370
    15
100
AcDbSpline
210
0.0
220
0.0
230
1.0
 70
     8
 71
     3
 72
     9
 73
     5
 74
     0
 42
0.000000001
 43
0.00000001
 40
0.0
 40
0.0
 40
0.0
 40
0.0
 40
0.4380215397811171
 40
0.9999999999999999
 40
0.9999999999999999
 40
0.9999999999999999
 40
0.9999999999999999
 10
25.06754499873442
 20
0.6609884554589107
 30
0.0
 10
24.96271136188807
 20
0.7107384160332382
 30
0.0
 10
24.72337692893133
 20
0.8243172153753614
 30
0.0
 10
24.48434648711356
 20
0.949011790051216
 30
0.0
 10
24.35001652747538
 20
1.019087455125201
 30
0.0
  0
LINE
  5
9F
330
1F
100
AcDbEntity
  8
0
  6
Continuous
 62
     1
370
    15
100
AcDbLine
 10
19.14621397234985
 20
2.579687500000001
 30
0.0
 11
19.05
 21
2.579687500000001
 31
0.0
  0
SPLINE
  5
A0
330
1F
100
AcDbEntity
  8
0
  6
Continuous
 62
     1
370
    15
100
AcDbSpline
210
0.0
220
0.0
230
1.0
 70
     8
 71
     3
 72
    15
 73
    11
 74
     0
 42
0.000000001
 43
0.00000001
 40
0.0
 40
0.0
 40
0.0
 40
0.0
 40
0.1844544560998267
 40
0.3204122470201112
 40
0.40947083200852
 40
0.4899740828357855
 40
0.573558769780213
 40
0.8990815794281513
 40
0.9857481863509208
 40
1.0
 40
1.0
 40
1.0
 40
1.0
 10
24.21327320073987
 20
2.049919890268896
 30
0.0
 10
24.08185578123074
 20
2.043446684879506
 30
0.0
 10
23.8535731386053
 20
2.032202205737649
 30
0.0
 10
23.56244978220575
 20
2.023220842980373
 30
0.0
 10
23.34732867264502
 20
2.01849774454499
 30
0.0
 10
23.16881062127287
 20
2.015895919750395
 30
0.0
 10
22.82172859632913
 20
2.013232278994693
 30
0.0
 10
22.47017268024626
 20
2.017319355533687
 30
0.0
 10
22.16772918861927
 20
2.025341834363614
 30
0.0
 10
22.09615956826478
 20
2.027946538407616
 30
0.0
 10
22.0860524254216
 20
2.028314377662687
 30
0.0
  0
SPLINE
  5
A1
330
1F
100
AcDbEntity
  8
0
  6
Continuous
 62
     1
370
    15
100
AcDbSpline
210
0.0
220
0.0
230
1.0
 70
     8
 71
     3
 72
    20
 73
    16
 74
     0
 42
0.000000001
 43
0.00000001
 40
0.0
 40
0.0
 40
0.0
 40
0.0
 40
0.0869924735690826
 40
0.1468681897800127
 40
0.2045947810947559
 40
0.2801010689801541
 40
0.3597455444836097
 40
0.4348985467569774
 40
0.4978238704737205
 40
0.6088988415684254
 40
0.7164221164772739
 40
0.7570431385550349
 40
0.8110418339678692
 40
0.8921842564877267
 40
1.0
 40
1.0
 40
1.0
 40
1.0
 10
30.8018917806707
 20
1.76534884613303
 30
0.0
 10
30.6723365348647
 20
1.754819481675053
 30
0.0
 10
30.45361020547804
 20
1.737042901310901
 30
0.0
 10
30.14365946765951
 20
1.719405937986972
 30
0.0
 10
29.84941518209252
 20
1.706822279554851
 30
0.0
 10
29.52941911407856
 20
1.698628517214107
 30
0.0
 10
29.18300912582346
 20
1.69657841721956
 30
0.0
 10
28.85552545015291
 20
1.701257288821437
 30
0.0
 10
28.48056281898958
 20
1.713181550645037
 30
0.0
 10
28.05668147474493
 20
1.735981651895187
 30
0.0
 10
27.66695202795982
 20
1.767881833028969
 30
0.0
 10
27.36277932227462
 20
1.797899971593139
 30
0.0
 10
27.09851685466879
 20
1.826950196704715
 30
0.0
 10
26.73318253079751
 20
1.872394520230581
 30
0.0
 10
26.44835336317772
 20
1.915595782659302
 30
0.0
 10
26.28583554706128
 20
1.940245557406954
 30
0.0
  0
SPLINE
  5
A2
330
1F
100
AcDbEntity
  8
0
  6
Continuous
 62
     1
370
    15
100
AcDbSpline
210
0.0
220
0.0
230
1.0
 70
     8
 71
     3
 72
    15
 73
    11
 74
     0
 42
0.000000001
 43
0.00000001
 40
0.0
 40
0.0
 40
0.0
 40
0.0
 40
0.1753561740320441
 40
0.3051191614557132
 40
0.3931621800454323
 40
0.4772561079308687
 40
0.568756126208684
 40
0.6671630462200423
 40
0.9203630091991939
 40
1.0
 40
1.0
 40
1.0
 40
1.0
 10
26.28583554706128
 20
-1.940245557406954
 30
0.0
 10
26.39769130912559
 20
-1.923105510918289
 30
0.0
 10
26.592319964281
 20
-1.893281886852576
 30
0.0
 10
26.84278526684323
 20
-1.859210989038596
 30
0.0
 10
27.03662069003549
 20
-1.834874263619639
 30
0.0
 10
27.2058483977805
 20
-1.815098658562145
 30
0.0
 10
27.38127403456048
 20
-1.796058233818692
 30
0.0
 10
27.66471734616919
 20
-1.768285016454243
 30
0.0
 10
27.93901065009418
 20
-1.744001863384153
 30
0.0
 10
28.15354069324324
 20
-1.732938012942709
 30
0.0
 10
28.20487071197684
 20
-1.730290795601544
 30
0.0
  0
SPLINE
  5
A3
330
1F
100
AcDbEntity
  8
0
  6
Continuous
 62
     1
370
    15
100
AcDbSpline
210
0.0
220
0.0
230
1.0
 70
     8
 71
     3
 72
    22
 73
    18
 74
     0
 42
0.000000001
 43
0.00000001
 40
0.0
 40
0.0
 40
0.0
 40
0.0
 40
0.1067868488482399
 40
0.1806818209243497
 40
0.234658503487048
 40
0.2879503897451835
 40
0.3393557379075669
 40
0.3887678674643648
 40
0.4421577164572939
 40
0.4957715261304133
 40
0.5546877459664548
 40
0.6167027097322919
 40
0.6783288637566506
 40
0.7341074358905937
 40
0.7963682461469681
 40
0.8852655187366818
 40
1.0
 40
1.0
 40
1.0
 40
1.0
 10
20.33338279266891
 20
-2.146674679698578
 30
0.0
 10
20.47176523631681
 20
-2.133367503263086
 30
0.0
 10
20.70590635174385
 20
-2.110851951061116
 30
0.0
 10
21.00929975641956
 20
-2.086882175252933
 30
0.0
 10
21.2430532022138
 20
-2.070339586910954
 30
0.0
 10
21.44826519396268
 20
-2.057445161349001
 30
0.0
 10
21.64746044803162
 20
-2.046442314954706
 30
0.0
 10
21.84688141715076
 20
-2.037059016702824
 30
0.0
 10
22.04919253472761
 20
-2.029177428293065
 30
0.0
 10
22.2637940807786
 20
-2.022620584044467
 30
0.0
 10
22.48953313012172
 20
-2.017715251053164
 30
0.0
 10
22.72559509492126
 20
-2.014834616855044
 30
0.0
 10
22.95749914258381
 20
-2.014313773752023
 30
0.0
 10
23.18984558413866
 20
-2.015972889530957
 30
0.0
 10
23.45737298503352
 20
-2.020449596905608
 30
0.0
 10
23.80117373136493
 20
-2.02989673009906
 30
0.0
 10
24.06475864852819
 20
-2.042703839563962
 30
0.0
 10
24.21327320073988
 20
-2.049919890268896
 30
0.0
  0
LINE
  5
A4
330
1F
100
AcDbEntity
  8
외형선
  6
Continuous
370
    15
100
AcDbLine
 10
19.05
 20
-2.579687500000001
 30
0.0
 11
19.14621397234987
 21
-2.579687500000001
 31
0.0
  0
LINE
  5
A5
330
1F
100
AcDbEntity
  8
외형선
  6
Continuous
370
    15
100
AcDbLine
 10
15.82826350361916
 20
3.175
 30
0.0
 11
15.82826350361916
 21
-3.174999999999998
 31
0.0
  0
LINE
  5
A7
330
1F
100
AcDbEntity
  8
외형선
  6
Continuous
370
    15
100
AcDbLine
 10
18.05
 20
2.5796875
 30
0.0
 11
18.05
 21
-2.579687500000002
 31
0.0
  0
LINE
  5
A8
330
1F
100
AcDbEntity
  8
외형선
  6
Continuous
370
    15
100
AcDbLine
 10
-31.74999999999999
 20
2.364999999999994
 30
0.0
 11
-31.74999999999999
 21
-2.365000000000002
 31
0.0
  0
LINE
  5
A9
330
1F
100
AcDbEntity
  8
외형선
  6
Continuous
370
    15
100
AcDbLine
 10
19.05
 20
2.5796875
 30
0.0
 11
19.05
 21
2.494163102235086
 31
0.0
  0
SPLINE
  5
AA
330
1F
100
AcDbEntity
  8
외형선
  6
Continuous
370
    15
100
AcDbSpline
210
0.0
220
0.0
230
1.0
 70
     8
 71
     3
 72
     8
 73
     4
 74
     0
 42
0.000000001
 43
0.00000001
 40
0.0
 40
0.0
 40
0.0
 40
0.0
 40
1.0
 40
1.0
 40
1.0
 40
1.0
 10
18.15991721235975
 20
2.575189420624629
 30
0.0
 10
18.45760708584255
 20
2.565069511646113
 30
0.0
 10
18.75561295914462
 20
2.537780034724673
 30
0.0
 10
19.0499999999999
 20
2.494163102235001
 30
0.0
  0
LINE
  5
AB
330
1F
100
AcDbEntity
  8
외형선
  6
Continuous
370
    15
100
AcDbLine
 10
18.15991721235975
 20
-2.517048943577428
 30
0.0
 11
18.15991721235975
 21
2.575229846857611
 31
0.0
  0
SPLINE
  5
AC
330
1F
100
AcDbEntity
  8
외형선
  6
Continuous
370
    15
100
AcDbSpline
210
0.0
220
0.0
230
1.0
 70
     8
 71
     3
 72
     8
 73
     4
 74
     0
 42
0.000000001
 43
0.00000001
 40
0.0
 40
0.0
 40
0.0
 40
0.0
 40
1.0
 40
1.0
 40
1.0
 40
1.0
 10
19.05000000000154
 20
-2.579085637142023
 30
0.0
 10
18.75558434397571
 20
-2.575395814700885
 30
0.0
 10
18.45754884435049
 20
-2.554620565044915
 30
0.0
 10
18.15983040377238
 20
-2.517073156608495
 30
0.0
  0
LINE
  5
AD
330
1F
100
AcDbEntity
  8
외형선
  6
Continuous
370
    15
100
AcDbLine
 10
19.05
 20
-2.579085637142001
 30
0.0
 11
19.05
 21
-2.5796875
 31
0.0
  0
SPLINE
  5
AE
330
1F
100
AcDbEntity
  8
외형선
  6
Continuous
370
    15
100
AcDbSpline
210
0.0
220
0.0
230
1.0
 70
     8
 71
     3
 72
     8
 73
     4
 74
     0
 42
0.000000001
 43
0.00000001
 40
0.0
 40
0.0
 40
0.0
 40
0.0
 40
1.0
 40
1.0
 40
1.0
 40
1.0
 10
19.05000000000164
 20
-2.185382646122477
 30
0.0
 10
18.75558434397577
 20
-2.173502496633482
 30
0.0
 10
18.45754884435052
 20
-2.147109394064338
 30
0.0
 10
18.15983040377238
 20
-2.106681229992721
 30
0.0
  0
SPLINE
  5
AF
330
1F
100
AcDbEntity
  8
외형선
  6
Continuous
370
    15
100
AcDbSpline
210
0.0
220
0.0
230
1.0
 70
     8
 71
     3
 72
     8
 73
     4
 74
     0
 42
0.000000001
 43
0.00000001
 40
0.0
 40
0.0
 40
0.0
 40
0.0
 40
1.0
 40
1.0
 40
1.0
 40
1.0
 10
19.05000000000004
 20
-0.608565258605072
 30
0.0
 10
18.75560251357287
 20
-0.4779903921346106
 30
0.0
 10
18.45758582560687
 20
-0.3428562992940242
 30
0.0
 10
18.15988552407368
 20
-0.2063842447403874
 30
0.0
  0
SPLINE
  5
B0
330
1F
100
AcDbEntity
  8
외형선
  6
Continuous
370
    15
100
AcDbSpline
210
0.0
220
0.0
230
1.0
 70
    24
 71
     3
 72
    10
 73
     6
 74
     0
 42
0.000000001
 43
0.00000001
 40
0.0
 40
0.0
 40
0.0
 40
0.0
 40
0.4999999999999999
 40
0.4999999999999999
 40
1.0
 40
1.0
 40
1.0
 40
1.0
 10
19.05
 20
-0.6085652586050571
 30
0.0
 10
19.05
 20
-0.9726630446629055
 30
0.0
 10
19.05
 20
-1.319075193550586
 30
0.0
 10
19.05
 20
-1.870251005791908
 30
0.0
 10
19.05
 20
-2.07264219297991
 30
0.0
 10
19.05
 20
-2.18538264612241
 30
0.0
  0
SPLINE
  5
B1
330
1F
100
AcDbEntity
  8
외형선
  6
Continuous
370
    15
100
AcDbSpline
210
0.0
220
0.0
230
1.0
 70
     8
 71
     3
 72
     8
 73
     4
 74
     0
 42
0.000000001
 43
0.00000001
 40
0.0
 40
0.0
 40
0.0
 40
0.0
 40
1.0
 40
1.0
 40
1.0
 40
1.0
 10
19.05000000000003
 20
1.725484112491279
 30
0.0
 10
18.75560606791198
 20
1.760742840786046
 30
0.0
 10
18.45759305987886
 20
1.78472626111959
 30
0.0
 10
18.15989630671913
 20
1.796728410188908
 30
0.0
  0
SPLINE
  5
B2
330
1F
100
AcDbEntity
  8
외형선
  6
Continuous
370
    15
100
AcDbSpline
210
0.0
220
0.0
230
1.0
 70
    24
 71
     3
 72
    14
 73
    10
 74
     0
 42
0.000000001
 43
0.00000001
 40
0.0
 40
0.0
 40
0.0
 40
0.0
 40
0.2500000000000001
 40
0.2500000000000001
 40
0.5000000000000001
 40
0.5000000000000001
 40
0.75
 40
0.75
 40
1.0
 40
1.0
 40
1.0
 40
1.0
 10
19.04999999999976
 20
1.725484112491311
 30
0.0
 10
19.04999999999976
 20
1.613154542095503
 30
0.0
 10
19.04999999999976
 20
1.472824460433031
 30
0.0
 10
19.04999999999976
 20
1.141865941263605
 30
0.0
 10
19.04999999999976
 20
0.9513005875933292
 30
0.0
 10
19.04999999999976
 20
0.5364727211151604
 30
0.0
 10
19.04999999999976
 20
0.3124312459377427
 30
0.0
 10
19.04999999999976
 20
-0.1460821125250684
 30
0.0
 10
19.04999999999976
 20
-0.3803117543194568
 30
0.0
 10
19.04999999999976
 20
-0.6085652586049458
 30
0.0
  0
SPLINE
  5
B3
330
1F
100
AcDbEntity
  8
외형선
  6
Continuous
370
    15
100
AcDbSpline
210
0.0
220
0.0
230
1.0
 70
    24
 71
     3
 72
    10
 73
     6
 74
     0
 42
0.000000001
 43
0.00000001
 40
0.0
 40
0.0
 40
0.0
 40
0.0
 40
0.5
 40
0.5
 40
1.0
 40
1.0
 40
1.0
 40
1.0
 10
19.05000000000003
 20
2.494163102234975
 30
0.0
 10
19.05000000000004
 20
2.380461696426402
 30
0.0
 10
19.05000000000004
 20
2.249965196874651
 30
0.0
 10
19.05000000000004
 20
1.983721785674547
 30
0.0
 10
19.05000000000004
 20
1.848714661202374
 30
0.0
 10
19.05000000000004
 20
1.725484112491279
 30
0.0
  0
SPLINE
  5
B4
330
1F
100
AcDbEntity
  8
외형선
  6
Continuous
370
    15
100
AcDbSpline
210
0.0
220
0.0
230
1.0
 70
    24
 71
     3
 72
     8
 73
     4
 74
     0
 42
0.000000001
 43
0.00000001
 40
0.0
 40
0.0
 40
0.0
 40
0.0
 40
1.0
 40
1.0
 40
1.0
 40
1.0
 10
19.05
 20
-2.185382646122412
 30
0.0
 10
19.05
 20
-2.319197612998442
 30
0.0
 10
19.05
 20
-2.451286841520404
 30
0.0
 10
19.05
 20
-2.579085637132026
 30
0.0
  0
SPLINE
  5
B5
330
1F
100
AcDbEntity
  8
0
  6
Continuous
 62
     1
370
    15
100
AcDbSpline
210
0.0
220
0.0
230
1.0
 70
     8
 71
     3
 72
    19
 73
    15
 74
     0
 42
0.000000001
 43
0.00000001
 40
0.0
 40
0.0
 40
0.0
 40
0.0
 40
0.0806945387169321
 40
0.1612618554433088
 40
0.2417893266893454
 40
0.3223649609530778
 40
0.4030740969273537
 40
0.4837528977755531
 40
0.5643126804729646
 40
0.6529228201695613
 40
0.7415411896495718
 40
0.8301876879914828
 40
0.9188820465354367
 40
1.0
 40
1.0
 40
1.0
 40
1.0
 10
31.75000000000001
 20
-2.447970898596667
 30
0.0
 10
31.41090411604883
 20
-2.374056895076261
 30
0.0
 10
30.73324696243428
 20
-2.226345419919855
 30
0.0
 10
29.71766341005379
 20
-1.856158515630242
 30
0.0
 10
28.7026300065799
 20
-1.399552956606296
 30
0.0
 10
27.68693485505475
 20
-0.8682688152373105
 30
0.0
 10
26.67008701785332
 20
-0.293425937763756
 30
0.0
 10
25.65342449525545
 20
0.2968565428641161
 30
0.0
 10
24.60407743019344
 20
0.8914069142080604
 30
0.0
 10
23.52103088515083
 20
1.454170805956433
 30
0.0
 10
22.40409950359282
 20
1.945139555086213
 30
0.0
 10
21.28671234168945
 20
2.31134019311528
 30
0.0
 10
20.20073229466422
 20
2.541038485498904
 30
0.0
 10
19.48710696122768
 20
2.562915334956793
 30
0.0
 10
19.14621397234986
 20
2.573365727129696
 30
0.0
  0
SPLINE
  5
B6
330
1F
100
AcDbEntity
  8
0
  6
Continuous
 62
     1
370
    15
100
AcDbSpline
210
0.0
220
0.0
230
1.0
 70
     8
 71
     3
 72
    13
 73
     9
 74
     0
 42
0.000000001
 43
0.00000001
 40
0.0
 40
0.0
 40
0.0
 40
0.0
 40
0.169063772675317
 40
0.3380281604213758
 40
0.5069216978975774
 40
0.675773270651421
 40
0.844611972807943
 40
0.9999999999999999
 40
0.9999999999999999
 40
0.9999999999999999
 40
0.9999999999999999
 10
31.75000000000001
 20
-2.035301888237381
 30
0.0
 10
31.37217669545063
 20
-1.953709007620722
 30
0.0
 10
30.61675219154807
 20
-1.790571211143775
 30
0.0
 10
29.4840173843448
 20
-1.396583200267947
 30
0.0
 10
28.35181853333735
 20
-0.9225075986647372
 30
0.0
 10
27.21994384774467
 20
-0.3879992596775977
 30
0.0
 10
26.1182602796274
 20
0.1592134106628693
 30
0.0
 10
25.39382322281688
 20
0.5041431284206335
 30
0.0
 10
25.04663147428715
 20
0.6694532139585483
 30
0.0
  0
LINE
  5
B7
330
1F
100
AcDbEntity
  8
0
  6
Continuous
 62
     1
370
    15
100
AcDbLine
 10
31.74999999999993
 20
-2.447970898596667
 30
0.0
 11
31.75000000000001
 21
-2.035301888237381
 31
0.0
  0
SPLINE
  5
B8
330
1F
100
AcDbEntity
  8
0
  6
Continuous
 62
     1
370
    15
100
AcDbSpline
210
0.0
220
0.0
230
1.0
 70
     8
 71
     3
 72
    38
 73
    34
 74
     0
 42
0.000000001
 43
0.00000001
 40
0.0
 40
0.0
 40
0.0
 40
0.0
 40
0.0625
 40
0.0625
 40
0.125
 40
0.125
 40
0.1875
 40
0.1875
 40
0.25
 40
0.25
 40
0.3125
 40
0.3125
 40
0.375
 40
0.375
 40
0.4375
 40
0.4375
 40
0.5
 40
0.5
 40
0.5625
 40
0.5625
 40
0.625
 40
0.625
 40
0.6875
 40
0.6875
 40
0.75
 40
0.75
 40
0.8125
 40
0.8125
 40
0.875
 40
0.875
 40
0.9375
 40
0.9375
 40
1.0
 40
1.0
 40
1.0
 40
1.0
 10
19.04999999999998
 20
2.494163102235275
 30
0.0
 10
19.31261694581979
 20
2.455253286221664
 30
0.0
 10
19.57978428042803
 20
2.40296389779542
 30
0.0
 10
20.11069026654538
 20
2.273811022952593
 30
0.0
 10
20.3716290088698
 20
2.197333533032041
 30
0.0
 10
20.90207230105315
 20
2.021314734983971
 30
0.0
 10
21.16939208701483
 20
1.92187928166987
 30
0.0
 10
21.69567502829941
 20
1.704991042277904
 30
0.0
 10
21.95973518009032
 20
1.586899055442557
 30
0.0
 10
22.49154340344584
 20
1.334675618755145
 30
0.0
 10
22.75390960541661
 20
1.201431953179736
 30
0.0
 10
23.28196068773629
 20
0.9232281966548138
 30
0.0
 10
23.54944180259165
 20
0.7779021353290999
 30
0.0
 10
24.07873743705087
 20
0.4816150005888956
 30
0.0
 10
24.34016988160582
 20
0.3307680358408723
 30
0.0
 10
24.87170820311129
 20
0.0255367276161316
 30
0.0
 10
25.13772144497957
 20
-0.1280617485474671
 30
0.0
 10
25.66223564656751
 20
-0.4308791947409579
 30
0.0
 10
25.9292805011369
 20
-0.5817306379713688
 30
0.0
 10
26.46043508540246
 20
-0.8751700105966611
 30
0.0
 10
26.72146621431168
 20
-1.017228594474935
 30
0.0
 10
27.2515644760425
 20
-1.290626690419085
 30
0.0
 10
27.51895737371947
 20
-1.421597327951889
 30
0.0
 10
28.04586654089752
 20
-1.666009756837386
 30
0.0
 10
28.30929036987292
 20
-1.780112441623378
 30
0.0
 10
28.84113656065832
 20
-1.989080835808456
 30
0.0
 10
29.10399569526628
 20
-2.083221872540245
 30
0.0
 10
29.63149428904332
 20
-2.248965770179493
 30
0.0
 10
29.8989409673715
 20
-2.320762971285587
 30
0.0
 10
30.42865664631675
 20
-2.438732248332809
 30
0.0
 10
30.68985235561603
 20
-2.484973870907184
 30
0.0
 10
31.22121773504185
 20
-2.551381667720225
 30
0.0
 10
31.488120862947
 20
-2.571249621207832
 30
0.0
 10
31.75000000000001
 20
-2.577507187413044
 30
0.0
  0
SPLINE
  5
B9
330
1F
100
AcDbEntity
  8
0
  6
Continuous
 62
     1
370
    15
100
AcDbSpline
210
0.0
220
0.0
230
1.0
 70
     8
 71
     3
 72
    13
 73
     9
 74
     0
 42
0.000000001
 43
0.00000001
 40
0.0
 40
0.0
 40
0.0
 40
0.0
 40
0.0601869371200123
 40
0.2403523200354856
 40
0.4206001379196694
 40
0.6009600634319779
 40
0.8004816391800503
 40
0.9999999999999999
 40
0.9999999999999999
 40
0.9999999999999999
 40
0.9999999999999999
 10
25.33460713163543
 20
-0.2407212044303869
 30
0.0
 10
25.20853675453417
 20
-0.1908258914998702
 30
0.0
 10
24.70508352906741
 20
0.008427547794331
 30
0.0
 10
23.82404443929538
 20
0.369168278319181
 30
0.0
 10
22.69123646124552
 20
0.8052053641606818
 30
0.0
 10
21.51777655179676
 20
1.202251097155241
 30
0.0
 10
20.30395630956813
 20
1.536606857718404
 30
0.0
 10
19.467983191473
 20
1.662525365727756
 30
0.0
 10
19.05
 20
1.725484112491282
 30
0.0
  0
SPLINE
  5
BA
330
1F
100
AcDbEntity
  8
외형선
  6
Continuous
370
    15
100
AcDbSpline
210
0.0
220
0.0
230
1.0
 70
    24
 71
     3
 72
    10
 73
     6
 74
     0
 42
0.000000001
 43
0.00000001
 40
0.0
 40
0.0
 40
0.0
 40
0.0
 40
0.5
 40
0.5
 40
1.0
 40
1.0
 40
1.0
 40
1.0
 10
19.05000000000004
 20
2.494163102234976
 30
0.0
 10
19.05000000000004
 20
2.380461696426404
 30
0.0
 10
19.05000000000004
 20
2.249965196874653
 30
0.0
 10
19.05000000000004
 20
1.983721785674547
 30
0.0
 10
19.05000000000004
 20
1.848714661202374
 30
0.0
 10
19.05000000000004
 20
1.725484112491279
 30
0.0
  0
LINE
  5
BB
330
1F
100
AcDbEntity
  8
0
  6
Continuous
 62
     1
370
    15
100
AcDbLine
 10
31.75000000000001
 20
-2.577507187412721
 30
0.0
 11
31.74999999999999
 21
-2.447970898596663
 31
0.0
  0
SPLINE
  5
BC
330
1F
100
AcDbEntity
  8
0
  6
Continuous
 62
     1
370
    15
100
AcDbSpline
210
0.0
220
0.0
230
1.0
 70
     8
 71
     3
 72
     8
 73
     4
 74
     0
 42
0.000000001
 43
0.00000001
 40
0.0
 40
0.0
 40
0.0
 40
0.0
 40
1.0
 40
1.0
 40
1.0
 40
1.0
 10
30.15309226172505
 20
0.7223294314596184
 30
0.0
 10
30.06169291521564
 20
0.8306337022151719
 30
0.0
 10
29.98011294443726
 20
0.9348849063443984
 30
0.0
 10
29.91067027367394
 20
1.034126292439117
 30
0.0
  0
LINE
  5
BD
330
1F
100
AcDbEntity
  8
0
  6
Continuous
 62
     1
370
    15
100
AcDbLine
 10
29.9433067690248
 20
1.061511563650933
 30
0.0
 11
31.75000000000001
 21
0.0000000000000018
 31
0.0
  0
LINE
  5
BE
330
1F
100
AcDbEntity
  8
0
  6
Continuous
 62
     1
370
    15
100
AcDbLine
 10
31.75000000000001
 20
0.0000000000000018
 30
0.0
 11
31.75000000000001
 21
-0.6894032873358481
 31
0.0
  0
SPLINE
  5
BF
330
1F
100
AcDbEntity
  8
0
  6
Continuous
 62
     1
370
    15
100
AcDbSpline
210
0.0
220
0.0
230
1.0
 70
     8
 71
     3
 72
    10
 73
     6
 74
     0
 42
0.000000001
 43
0.00000001
 40
0.0
 40
0.0
 40
0.0
 40
0.0
 40
0.5
 40
0.5
 40
1.0
 40
1.0
 40
1.0
 40
1.0
 10
31.75000000000001
 20
-0.6894032873358479
 30
0.0
 10
31.47356050017581
 20
-0.4720732096825012
 30
0.0
 10
31.20174270305157
 20
-0.245826783723427
 30
0.0
 10
30.6675767607447
 20
0.2249352474402228
 30
0.0
 10
30.40274506037671
 20
0.4719394539584317
 30
0.0
 10
30.15309226172504
 20
0.7223294314596187
 30
0.0
  0
SPLINE
  5
C0
330
1F
100
AcDbEntity
  8
0
  6
Continuous
 62
     1
370
    15
100
AcDbSpline
210
0.0
220
0.0
230
1.0
 70
     8
 71
     3
 72
    13
 73
     9
 74
     0
 42
0.000000001
 43
0.00000001
 40
0.0
 40
0.0
 40
0.0
 40
0.0
 40
0.151686631208505
 40
0.3031884580669656
 40
0.4936919176074538
 40
0.684180655963883
 40
0.8746880345094095
 40
1.0
 40
1.0
 40
1.0
 40
1.0
 10
30.15309226172505
 20
0.7223294314596166
 30
0.0
 10
29.85264675723528
 20
0.8493116837691266
 30
0.0
 10
29.25212178998095
 20
1.103121482120242
 30
0.0
 10
28.2745376529741
 20
1.459693729878418
 30
0.0
 10
27.21995309236982
 20
1.771685044804363
 30
0.0
 10
26.08819256975623
 20
1.987277988527595
 30
0.0
 10
25.08551212697145
 20
2.083115236348021
 30
0.0
 10
24.46004035855639
 20
2.048617302372695
 30
0.0
 10
24.21186336072815
 20
2.034929084746234
 30
0.0
  0
SPLINE
  5
C1
330
1F
100
AcDbEntity
  8
0
  6
Continuous
 62
     1
370
    15
100
AcDbSpline
210
0.0
220
0.0
230
1.0
 70
    24
 71
     3
 72
    10
 73
     6
 74
     0
 42
0.000000001
 43
0.00000001
 40
0.0
 40
0.0
 40
0.0
 40
0.0
 40
0.5
 40
0.5
 40
1.0
 40
1.0
 40
1.0
 40
1.0
 10
31.75000000000001
 20
-2.035301888237381
 30
0.0
 10
31.75
 20
-1.879280130070752
 30
0.0
 10
31.75000000000001
 20
-1.682140656139968
 30
0.0
 10
31.75
 20
-1.223810351809019
 30
0.0
 10
31.75000000000001
 20
-0.9630165444964246
 30
0.0
 10
31.75000000000001
 20
-0.6894032873359305
 30
0.0
  0
SPLINE
  5
C2
330
1F
100
AcDbEntity
  8
0
  6
Continuous
 62
     1
370
    15
100
AcDbSpline
210
0.0
220
0.0
230
1.0
 70
    24
 71
     3
 72
     8
 73
     4
 74
     0
 42
0.000000001
 43
0.00000001
 40
0.0
 40
0.0
 40
0.0
 40
0.0
 40
1.0
 40
1.0
 40
1.0
 40
1.0
 10
30.18006332788298
 20
1.260173904867635
 30
0.0
 10
30.09498148789997
 20
1.188781764318011
 30
0.0
 10
30.00465078362149
 20
1.112985303673906
 30
0.0
 10
29.91067027367398
 20
1.034126292439097
 30
0.0
  0
LINE
  5
C3
330
1F
100
AcDbEntity
  8
0
  6
Continuous
 62
     1
370
    15
100
AcDbLine
 10
31.75000000000001
 20
1.805781249999999
 30
0.0
 11
30.79998403595181
 21
1.75740104082695
 31
0.0
  0
SPLINE
  5
C4
330
1F
100
AcDbEntity
  8
0
  6
Continuous
 62
     1
370
    15
100
AcDbSpline
210
0.0
220
0.0
230
1.0
 70
     8
 71
     3
 72
     8
 73
     4
 74
     0
 42
0.000000001
 43
0.00000001
 40
0.0
 40
0.0
 40
0.0
 40
0.0
 40
1.0
 40
1.0
 40
1.0
 40
1.0
 10
31.75000000000001
 20
1.805781250000001
 30
0.0
 10
31.21946070228303
 20
1.66174274307917
 30
0.0
 10
30.69379831191027
 20
1.484871488895165
 30
0.0
 10
30.180063327893
 20
1.260173904872031
 30
0.0
  0
SPLINE
  5
C5
330
1F
100
AcDbEntity
  8
0
  6
Continuous
 62
     1
370
    15
100
AcDbSpline
210
0.0
220
0.0
230
1.0
 70
     8
 71
     3
 72
    15
 73
    11
 74
     0
 42
0.000000001
 43
0.00000001
 40
0.0
 40
0.0
 40
0.0
 40
0.0
 40
0.0278547372256343
 40
0.1841882785454936
 40
0.3405644167497462
 40
0.497010239745476
 40
0.6535508362121775
 40
0.7691022767305467
 40
0.8843314349740263
 40
1.0
 40
1.0
 40
1.0
 40
1.0
 10
26.28988787431713
 20
-1.930603921731122
 30
0.0
 10
26.22266713085969
 20
-1.944022293936
 30
0.0
 10
25.77817279154201
 20
-2.032750715865782
 30
0.0
 10
24.95629452908206
 20
-2.076444971942651
 30
0.0
 10
23.82404276698387
 20
-2.044862518071729
 30
0.0
 10
22.69125049998497
 20
-1.871616506936214
 30
0.0
 10
21.65681259183642
 20
-1.607052862030543
 30
0.0
 10
20.72205459543523
 20
-1.294864808565903
 30
0.0
 10
19.88656365758314
 20
-0.9708337906489382
 30
0.0
 10
19.32920810850199
 20
-0.7294745411024414
 30
0.0
 10
19.05
 20
-0.6085652586050571
 30
0.0
  0
SPLINE
  5
C6
330
1F
100
AcDbEntity
  8
외형선
  6
Continuous
370
    15
100
AcDbSpline
210
0.0
220
0.0
230
1.0
 70
    24
 71
     3
 72
    14
 73
    10
 74
     0
 42
0.000000001
 43
0.00000001
 40
0.0
 40
0.0
 40
0.0
 40
0.0
 40
0.25
 40
0.25
 40
0.5
 40
0.5
 40
0.75
 40
0.75
 40
1.0
 40
1.0
 40
1.0
 40
1.0
 10
19.04999999999998
 20
1.725484112491285
 30
0.0
 10
19.04999999999998
 20
1.613154542095466
 30
0.0
 10
19.04999999999998
 20
1.472824460432985
 30
0.0
 10
19.04999999999998
 20
1.141865941263541
 30
0.0
 10
19.04999999999998
 20
0.9513005875932562
 30
0.0
 10
19.04999999999998
 20
0.5364727211150745
 30
0.0
 10
19.04999999999998
 20
0.3124312459376516
 30
0.0
 10
19.04999999999998
 20
-0.1460821125251665
 30
0.0
 10
19.04999999999998
 20
-0.3803117543195569
 30
0.0
 10
19.04999999999998
 20
-0.6085652586050467
 30
0.0
  0
SPLINE
  5
C7
330
1F
100
AcDbEntity
  8
0
  6
Continuous
 62
     1
370
    15
100
AcDbSpline
210
0.0
220
0.0
230
1.0
 70
     8
 71
     3
 72
     9
 73
     5
 74
     0
 42
0.000000001
 43
0.00000001
 40
0.0
 40
0.0
 40
0.0
 40
0.0
 40
0.349117406548798
 40
0.9999999999999999
 40
0.9999999999999999
 40
0.9999999999999999
 40
0.9999999999999999
 10
20.33643077848062
 20
-2.137091134689189
 30
0.0
 10
20.1867945709644
 20
-2.153974017863617
 30
0.0
 10
19.75818171835576
 20
-2.202332772992222
 30
0.0
 10
19.32921013602465
 20
-2.192065460866548
 30
0.0
 10
19.05000000000011
 20
-2.185382646122416
 30
0.0
  0
SPLINE
  5
C8
330
1F
100
AcDbEntity
  8
외형선
  6
Continuous
370
    15
100
AcDbSpline
210
0.0
220
0.0
230
1.0
 70
    24
 71
     3
 72
    10
 73
     6
 74
     0
 42
0.000000001
 43
0.00000001
 40
0.0
 40
0.0
 40
0.0
 40
0.0
 40
0.4999999999999999
 40
0.4999999999999999
 40
1.0
 40
1.0
 40
1.0
 40
1.0
 10
19.05
 20
-0.6085652586050571
 30
0.0
 10
19.05
 20
-0.9726630446629055
 30
0.0
 10
19.05
 20
-1.319075193550586
 30
0.0
 10
19.05
 20
-1.870251005791908
 30
0.0
 10
19.05
 20
-2.07264219297991
 30
0.0
 10
19.05
 20
-2.18538264612241
 30
0.0
  0
LINE
  5
C9
330
1F
100
AcDbEntity
  8
0
  6
Continuous
 62
     1
370
    15
100
AcDbLine
 10
31.75000000000001
 20
0.0000000000000018
 30
0.0
 11
31.75000000000001
 21
1.805781250000001
 31
0.0
  0
SPLINE
  5
CA
330
1F
100
AcDbEntity
  8
0
  6
Continuous
 62
     1
370
    15
100
AcDbSpline
210
0.0
220
0.0
230
1.0
 70
     8
 71
     3
 72
    10
 73
     6
 74
     0
 42
0.000000001
 43
0.00000001
 40
0.0
 40
0.0
 40
0.0
 40
0.0
 40
0.2632318174523062
 40
0.6315009033861803
 40
1.0
 40
1.0
 40
1.0
 40
1.0
 10
22.08595540386083
 20
-2.028346104151189
 30
0.0
 10
21.81960668335612
 20
-2.120990177811683
 30
0.0
 10
21.18062823750411
 20
-2.343246046331747
 30
0.0
 10
20.16866174094761
 20
-2.543578176186712
 30
0.0
 10
19.42296484635542
 20
-2.567247353740524
 30
0.0
 10
19.04999999999797
 20
-2.579085637141977
 30
0.0
  0
SPLINE
  5
CB
330
1F
100
AcDbEntity
  8
0
  6
Continuous
 62
     1
370
    15
100
AcDbSpline
210
0.0
220
0.0
230
1.0
 70
     8
 71
     3
 72
    13
 73
     9
 74
     0
 42
0.000000001
 43
0.00000001
 40
0.0
 40
0.0
 40
0.0
 40
0.0
 40
0.0835580203892737
 40
0.3977591467679807
 40
0.5469920190680913
 40
0.6967505957786972
 40
0.8481013445094536
 40
1.0
 40
1.0
 40
1.0
 40
1.0
 10
28.20225782512425
 20
1.730522060325391
 30
0.0
 10
28.30108670115989
 20
1.772306059756413
 30
0.0
 10
28.77153931869246
 20
1.971209383277112
 30
0.0
 10
29.41827090898304
 20
2.194906060026078
 30
0.0
 10
30.14426347343932
 20
2.38088490202039
 30
0.0
 10
30.67576506670272
 20
2.483897321613848
 30
0.0
 10
31.21209954114795
 20
2.553826878807464
 30
0.0
 10
31.570484005712
 20
2.569604249100695
 30
0.0
 10
31.74999999999984
 20
2.577507187412718
 30
0.0
  0
SPLINE
  5
CC
330
1F
100
AcDbEntity
  8
외형선
  6
Continuous
370
    15
100
AcDbSpline
210
0.0
220
0.0
230
1.0
 70
    24
 71
     3
 72
     8
 73
     4
 74
     0
 42
0.000000001
 43
0.00000001
 40
0.0
 40
0.0
 40
0.0
 40
0.0
 40
1.0
 40
1.0
 40
1.0
 40
1.0
 10
19.05
 20
-2.185382646122412
 30
0.0
 10
19.05
 20
-2.319197612998435
 30
0.0
 10
19.05
 20
-2.451286841520389
 30
0.0
 10
19.05
 20
-2.579085637132006
 30
0.0
  0
SPLINE
  5
CD
330
1F
100
AcDbEntity
  8
0
  6
Continuous
 62
     1
370
    15
100
AcDbSpline
210
0.0
220
0.0
230
1.0
 70
    24
 71
     3
 72
    10
 73
     6
 74
     0
 42
0.000000001
 43
0.00000001
 40
0.0
 40
0.0
 40
0.0
 40
0.0
 40
0.5
 40
0.5
 40
1.0
 40
1.0
 40
1.0
 40
1.0
 10
31.75000000000001
 20
1.80578125
 30
0.0
 10
31.75
 20
1.915243212482617
 30
0.0
 10
31.75000000000001
 20
2.04244815015564
 30
0.0
 10
31.75
 20
2.309323766791206
 30
0.0
 10
31.75000000000001
 20
2.448312878919111
 30
0.0
 10
31.75000000000001
 20
2.577507187412722
 30
0.0
  0
LINE
  5
CE
330
1F
100
AcDbEntity
  8
중심선
 62
     1
100
AcDbLine
 10
-34.75
 20
-0.0000000000000043
 30
0.0
 11
34.75
 21
0.0000000000000043
 31
0.0
  0
LINE
  5
CF
330
1F
100
AcDbEntity
  8
참조1
100
AcDbLine
 10
-8.644211678730512
 20
0.0010749287238892
 30
0.0
 11
-8.644211678730505
 21
-39.99892507127611
 31
0.0
  0
LINE
  5
D0
330
1F
100
AcDbEntity
  8
참조1
100
AcDbLine
 10
-8.644211678730505
 20
-39.99892507127611
 30
0.0
 11
-29.45992727542973
 21
-39.9989250712761
 31
0.0
  0
CIRCLE
  5
D1
330
1F
100
AcDbEntity
  8
해칭선
100
AcDbCircle
 10
0.0
 20
0.0000000000000016
 30
0.0
 40
3.000000000000002
  0
INSERT
  5
D2
330
1F
100
AcDbEntity
  8
0
  6
Continuous
 62
     7
100
AcDbBlockReference
 66
     1
  2
블럭10
 10
-13.94027293212521
 20
-33.89284895325508
 30
0.0
  0
ATTRIB
  5
D3
330
D2
100
AcDbEntity
  8
FORMAT
 62
     2
100
AcDbText
 10
-23.12156822086649
 20
-31.8174820404229
 30
0.0
 40
4.233333333333333
  1
E5022013 [ 2 FLUTE ]
 41
0.75
  7
SLDTEXTSTYLE0
 11
-23.12156822086649
 21
-33.93414870708956
 31
0.0
100
AcDbAttribute
  2
AUTOATTR0
 70
     0
 74
     1
  0
SEQEND
  5
D4
330
D2
100
AcDbEntity
  8
0
  6
Continuous
 62
     7
  0
HATCH
  5
D5
330
1F
100
AcDbEntity
  8
중심선
100
AcDbHatch
 10
0.0
 20
0.0
 30
0.0
210
0.0
220
0.0
230
1.0
  2
SOLID
 70
     1
 71
     0
 91
        1
 92
        0
 93
        4
 72
     1
 10
-8.225363627744365
 20
-17.64567465161115
 11
-11.67163887158165
 21
-17.64567465161115
 72
     1
 10
-11.67163887158165
 20
-17.64567465161115
 11
-13.79986873078567
 21
-20.18200023218375
 72
     1
 10
-13.79986873078567
 20
-20.18200023218375
 11
-10.35356040183524
 21
-20.18196080288126
 72
     1
 10
-10.35356040183524
 20
-20.18196080288126
 11
-8.225363627744365
 21
-17.64567465161115
 97
        0
 75
     0
 76
     1
 98
        1
 10
8.644211678730507
 20
18.15325041966495
  0
HATCH
  5
D6
330
1F
100
AcDbEntity
  8
중심선
100
AcDbHatch
 10
0.0
 20
0.0
 30
0.0
210
0.0
220
0.0
230
1.0
  2
SOLID
 70
     1
 71
     0
 91
        1
 92
        0
 93
        4
 72
     1
 10
-3.212599636708413
 20
-17.64567465161115
 11
-6.658874880545696
 21
-17.64567465161115
 72
     1
 10
-6.658874880545696
 20
-17.64567465161115
 11
-11.19001288890308
 21
-23.04567465161117
 72
     1
 10
-11.19001288890308
 20
-23.04567465161117
 11
-7.743737645065803
 21
-23.04567465161117
 72
     1
 10
-7.743737645065803
 20
-23.04567465161117
 11
-3.212599636708413
 21
-17.64567465161115
 97
        0
 75
     0
 76
     1
 98
        1
 10
8.644211678730507
 20
18.15325041966495
  0
HATCH
  5
D7
330
1F
100
AcDbEntity
  8
중심선
100
AcDbHatch
 10
0.0
 20
0.0
 30
0.0
210
0.0
220
0.0
230
1.0
  2
SOLID
 70
     1
 71
     0
 91
        1
 92
        0
 93
        4
 72
     1
 10
1.800164354327483
 20
-17.64567465161115
 11
-1.646110889509606
 21
-17.64567465161115
 72
     1
 10
-1.646110889509606
 20
-17.64567465161115
 11
-8.694547791398882
 21
-26.04567465161117
 72
     1
 10
-8.694547791398882
 20
-26.04567465161117
 11
-5.2482725475616
 21
-26.04567465161117
 72
     1
 10
-5.2482725475616
 20
-26.04567465161117
 11
1.800164354327483
 21
-17.64567465161115
 97
        0
 75
     0
 76
     1
 98
        1
 10
8.644211678730507
 20
18.15325041966495
  0
HATCH
  5
D8
330
1F
100
AcDbEntity
  8
중심선
100
AcDbHatch
 10
0.0
 20
0.0
 30
0.0
210
0.0
220
0.0
230
1.0
  2
SOLID
 70
     1
 71
     0
 91
        1
 92
        0
 93
        6
 72
     3
 10
6.600054785339681
 20
-21.84567465166242
 11
3.960054785062285
 21
1.540882976769353E-10
 40
0.3939339440162626
 50
17.09539180608438
 51
320.0019657685077
 73
     0
 72
     1
 10
8.28305444104025
 20
-20.43356865624945
 11
10.58835631474134
 21
-18.4992419462015
 72
     3
 10
6.600054785286835
 20
-21.8456746516113
 11
6.600054785286829
 21
-1.278976924368180E-13
 40
0.636358354079598
 50
39.99873849337413
 51
368.4976242363724
 73
     1
 72
     1
 10
13.02538727718744
 20
-20.88567465154118
 11
5.280122092122758
 21
-20.88567465154118
 72
     1
 10
5.280122092122758
 20
-20.88567465154118
 11
5.280097047676824
 21
-22.80567465154106
 72
     1
 10
5.280097047676824
 20
-22.80567465154106
 11
9.721476817148861
 21
-22.80567465154104
 97
        0
 75
     0
 76
     1
 98
        1
 10
8.644211678730507
 20
18.15325041966495
  0
DIMENSION
  5
D9
330
1F
100
AcDbEntity
  8
치수문자_일반주서
100
AcDbDimension
  2
_D
 10
-42.41313701905661
 20
-3.1750000000001
 30
0.0
 11
-42.4131370190567
 21
23.12274999999994
 31
0.0
 70
   160
  1
%%c<>
 71
     2
 42
6.349999999999999
 52
-270.0
  3
SLDDIMSTYLE0
100
AcDbAlignedDimension
 13
-15.82826350361915
 23
3.174999999999996
 33
0.0
 14
-15.82826350361915
 24
-3.175000000000002
 34
0.0
 50
90.0000000000002
100
AcDbRotatedDimension
1001
ACAD
1000
DSTYLE
1002
{
1070
   171
1070
     6
1070
   273
1070
     5
1002
}
  0
DIMENSION
  5
EE
330
1F
100
AcDbEntity
  8
치수문자_일반주서
100
AcDbDimension
  2
_D_1
 10
47.2743866212102
 20
2.577507187412778
 30
0.0
 11
47.27438662121012
 21
24.05650718741278
 31
0.0
 70
   160
  1
%%c<>
 71
     2
 42
5.155014374825443
 52
-270.0
  3
SLDDIMSTYLE0
100
AcDbAlignedDimension
 13
31.75000000000001
 23
-2.577507187412721
 33
0.0
 14
31.75000000000001
 24
2.577507187412722
 34
0.0
 50
90.0000000000002
100
AcDbRotatedDimension
1001
ACAD
1000
DSTYLE
1002
{
1070
   171
1070
     6
1070
   273
1070
     5
1002
}
  0
DIMENSION
  5
102
330
1F
100
AcDbEntity
  8
치수문자_일반주서
100
AcDbDimension
  2
_D_2
 10
19.05
 20
16.28452976617112
 30
0.0
 11
1.071000000000003
 21
16.28452976617112
 31
0.0
 70
   160
  1
<>
 71
     2
 42
12.7
  3
SLDDIMSTYLE0
100
AcDbAlignedDimension
 13
31.75000000000001
 23
2.577507187412722
 33
0.0
 14
19.05
 24
2.494163102234987
 34
0.0
100
AcDbRotatedDimension
1001
ACAD
1000
DSTYLE
1002
{
1070
   171
1070
     6
1070
   273
1070
     5
1002
}
  0
DIMENSION
  5
117
330
1F
100
AcDbEntity
  8
치수문자_일반주서
100
AcDbDimension
  2
_D_3
 10
31.75000000000001
 20
36.79500000000002
 30
0.0
 11
0.000000000000016
 21
36.79500000000002
 31
0.0
 70
   160
  1
<>
 71
     2
 42
63.49999999999999
  3
SLDDIMSTYLE0
100
AcDbAlignedDimension
 13
-31.74999999999999
 23
2.364999999999994
 33
0.0
 14
31.75000000000001
 24
2.577507187412722
 34
0.0
100
AcDbRotatedDimension
1001
ACAD
1000
DSTYLE
1002
{
1070
   171
1070
     6
1070
   273
1070
     5
1002
}
  0
LINE
  5
12A
330
1F
100
AcDbEntity
  8
참조1
100
AcDbLine
 10
68.51241335422453
 20
7.441074928723896
 30
0.0
 11
68.51241335422453
 21
-7.438925071276109
 31
0.0
  0
LINE
  5
12B
330
1F
100
AcDbEntity
  8
참조1
100
AcDbLine
 10
81.21241335422454
 20
5.441074928723896
 30
0.0
 11
68.51241335422453
 21
5.441074928723896
 31
0.0
  0
SOLID
  5
12C
330
1F
100
AcDbEntity
  8
참조1
100
AcDbTrace
 10
68.51241335422453
 20
5.441074928723896
 30
0.0
 11
74.86241335422453
 21
4.425074928723896
 31
0.0
 12
74.86241335422453
 22
6.457074928723896
 32
0.0
 13
74.86241335422453
 23
6.457074928723896
 33
0.0
  0
LINE
  5
12D
330
1F
100
AcDbEntity
  8
참조1
100
AcDbLine
 10
81.21241335422454
 20
-5.438925071276109
 30
0.0
 11
68.51241335422453
 21
-5.438925071276109
 31
0.0
  0
SOLID
  5
12E
330
1F
100
AcDbEntity
  8
참조1
100
AcDbTrace
 10
68.51241335422453
 20
-5.438925071276109
 30
0.0
 11
74.86241335422453
 21
-6.454925071276109
 31
0.0
 12
74.86241335422453
 22
-4.422925071276109
 32
0.0
 13
74.86241335422453
 23
-4.422925071276109
 33
0.0
  0
MTEXT
  5
12F
330
1F
100
AcDbEntity
  8
참조1
100
AcDbMText
 10
77.89676348685053
 20
11.01136670591222
 30
0.0
 40
3.5
 41
0.0
 71
     1
 72
     1
  1
A
  7
SLDTEXTSTYLE0
 73
     1
 44
1.0
  0
MTEXT
  5
130
330
1F
100
AcDbEntity
  8
참조1
100
AcDbMText
 10
77.89676348685053
 20
0.1313667059122192
 30
0.0
 40
3.5
 41
0.0
 71
     1
 72
     1
  1
A
  7
SLDTEXTSTYLE0
 73
     1
 44
1.0
  0
INSERT
  5
137
330
1F
100
AcDbEntity
  8
해칭선
100
AcDbBlockReference
  2
SW_DOWELSYMBOL_0
 10
0.0
 20
0.0000000000000016
 30
0.0
  0
LINE
  5
2CD
330
1F
100
AcDbEntity
  8
외형선
  6
Continuous
370
    15
100
AcDbLine
 10
-15.82826350361915
 20
3.174999999999999
 30
0.0
 11
-18.04999999999999
 21
2.579687499999993
 31
0.0
  0
LINE
  5
2CE
330
1F
100
AcDbEntity
  8
외형선
  6
Continuous
370
    15
100
AcDbLine
 10
-18.04999999999999
 20
-2.579687500000004
 30
0.0
 11
-15.82826350361915
 21
-3.175000000000002
 31
0.0
  0
LINE
  5
2CF
330
1F
100
AcDbEntity
  8
외형선
  6
Continuous
370
    15
100
AcDbLine
 10
-19.04999999999999
 20
-2.579687500000004
 30
0.0
 11
-18.04999999999999
 21
-2.579687500000004
 31
0.0
  0
LINE
  5
2D0
330
1F
100
AcDbEntity
  8
외형선
  6
Continuous
370
    15
100
AcDbLine
 10
-18.04999999999999
 20
2.579687499999993
 30
0.0
 11
-19.04999999999999
 21
2.579687499999993
 31
0.0
  0
SPLINE
  5
2D1
330
1F
100
AcDbEntity
  8
0
  6
Continuous
 62
     1
370
    15
100
AcDbSpline
210
0.0
220
0.0
230
1.0
 70
     8
 71
     3
 72
     9
 73
     5
 74
     0
 42
0.000000001
 43
0.00000001
 40
0.0
 40
0.0
 40
0.0
 40
0.0
 40
0.4380215397811171
 40
0.9999999999999999
 40
0.9999999999999999
 40
0.9999999999999999
 40
0.9999999999999999
 10
-25.06754499873441
 20
-0.6609884554589113
 30
0.0
 10
-24.96271136188806
 20
-0.7107384160332427
 30
0.0
 10
-24.72337692893131
 20
-0.8243172153753645
 30
0.0
 10
-24.48434648711355
 20
-0.9490117900512215
 30
0.0
 10
-24.35001652747537
 20
-1.019087455125208
 30
0.0
  0
LINE
  5
2D2
330
1F
100
AcDbEntity
  8
0
  6
Continuous
 62
     1
370
    15
100
AcDbLine
 10
-19.14621397234983
 20
-2.579687500000004
 30
0.0
 11
-19.04999999999999
 21
-2.579687500000004
 31
0.0
  0
SPLINE
  5
2D3
330
1F
100
AcDbEntity
  8
0
  6
Continuous
 62
     1
370
    15
100
AcDbSpline
210
0.0
220
0.0
230
1.0
 70
     8
 71
     3
 72
    15
 73
    11
 74
     0
 42
0.000000001
 43
0.00000001
 40
0.0
 40
0.0
 40
0.0
 40
0.0
 40
0.1844544560998267
 40
0.3204122470201112
 40
0.40947083200852
 40
0.4899740828357855
 40
0.573558769780213
 40
0.8990815794281513
 40
0.9857481863509208
 40
1.0
 40
1.0
 40
1.0
 40
1.0
 10
-24.21327320073986
 20
-2.049919890268901
 30
0.0
 10
-24.08185578123072
 20
-2.043446684879511
 30
0.0
 10
-23.85357313860529
 20
-2.032202205737653
 30
0.0
 10
-23.56244978220573
 20
-2.023220842980377
 30
0.0
 10
-23.347328672645
 20
-2.018497744544993
 30
0.0
 10
-23.16881062127286
 20
-2.015895919750397
 30
0.0
 10
-22.82172859632912
 20
-2.013232278994698
 30
0.0
 10
-22.47017268024626
 20
-2.017319355533692
 30
0.0
 10
-22.16772918861925
 20
-2.025341834363621
 30
0.0
 10
-22.09615956826476
 20
-2.027946538407624
 30
0.0
 10
-22.08605242542159
 20
-2.028314377662687
 30
0.0
  0
SPLINE
  5
2D4
330
1F
100
AcDbEntity
  8
0
  6
Continuous
 62
     1
370
    15
100
AcDbSpline
210
0.0
220
0.0
230
1.0
 70
     8
 71
     3
 72
    20
 73
    16
 74
     0
 42
0.000000001
 43
0.00000001
 40
0.0
 40
0.0
 40
0.0
 40
0.0
 40
0.0869924735690826
 40
0.1468681897800127
 40
0.2045947810947559
 40
0.2801010689801541
 40
0.3597455444836097
 40
0.4348985467569774
 40
0.4978238704737205
 40
0.6088988415684254
 40
0.7164221164772739
 40
0.7570431385550349
 40
0.8110418339678692
 40
0.8921842564877267
 40
1.0
 40
1.0
 40
1.0
 40
1.0
 10
-30.80189178067069
 20
-1.765348846133028
 30
0.0
 10
-30.67233653486468
 20
-1.754819481675048
 30
0.0
 10
-30.45361020547801
 20
-1.737042901310906
 30
0.0
 10
-30.14365946765951
 20
-1.719405937986968
 30
0.0
 10
-29.84941518209251
 20
-1.706822279554848
 30
0.0
 10
-29.52941911407856
 20
-1.698628517214109
 30
0.0
 10
-29.18300912582344
 20
-1.696578417219561
 30
0.0
 10
-28.85552545015289
 20
-1.701257288821443
 30
0.0
 10
-28.48056281898956
 20
-1.713181550645038
 30
0.0
 10
-28.05668147474491
 20
-1.735981651895193
 30
0.0
 10
-27.6669520279598
 20
-1.767881833028971
 30
0.0
 10
-27.3627793222746
 20
-1.797899971593145
 30
0.0
 10
-27.09851685466878
 20
-1.82695019670472
 30
0.0
 10
-26.7331825307975
 20
-1.872394520230584
 30
0.0
 10
-26.44835336317771
 20
-1.915595782659308
 30
0.0
 10
-26.28583554706126
 20
-1.940245557406959
 30
0.0
  0
SPLINE
  5
2D5
330
1F
100
AcDbEntity
  8
0
  6
Continuous
 62
     1
370
    15
100
AcDbSpline
210
0.0
220
0.0
230
1.0
 70
     8
 71
     3
 72
    15
 73
    11
 74
     0
 42
0.000000001
 43
0.00000001
 40
0.0
 40
0.0
 40
0.0
 40
0.0
 40
0.1753561740320441
 40
0.3051191614557132
 40
0.3931621800454323
 40
0.4772561079308687
 40
0.568756126208684
 40
0.6671630462200423
 40
0.9203630091991939
 40
1.0
 40
1.0
 40
1.0
 40
1.0
 10
-26.28583554706126
 20
1.940245557406948
 30
0.0
 10
-26.39769130912557
 20
1.923105510918285
 30
0.0
 10
-26.59231996428098
 20
1.893281886852572
 30
0.0
 10
-26.84278526684322
 20
1.859210989038596
 30
0.0
 10
-27.03662069003547
 20
1.834874263619634
 30
0.0
 10
-27.20584839778049
 20
1.815098658562144
 30
0.0
 10
-27.38127403456047
 20
1.796058233818685
 30
0.0
 10
-27.66471734616919
 20
1.768285016454237
 30
0.0
 10
-27.93901065009415
 20
1.744001863384151
 30
0.0
 10
-28.15354069324322
 20
1.732938012942705
 30
0.0
 10
-28.20487071197683
 20
1.730290795601542
 30
0.0
  0
SPLINE
  5
2D6
330
1F
100
AcDbEntity
  8
0
  6
Continuous
 62
     1
370
    15
100
AcDbSpline
210
0.0
220
0.0
230
1.0
 70
     8
 71
     3
 72
    22
 73
    18
 74
     0
 42
0.000000001
 43
0.00000001
 40
0.0
 40
0.0
 40
0.0
 40
0.0
 40
0.1067868488482399
 40
0.1806818209243497
 40
0.234658503487048
 40
0.2879503897451835
 40
0.3393557379075669
 40
0.3887678674643648
 40
0.4421577164572939
 40
0.4957715261304133
 40
0.5546877459664548
 40
0.6167027097322919
 40
0.6783288637566506
 40
0.7341074358905937
 40
0.7963682461469681
 40
0.8852655187366818
 40
1.0
 40
1.0
 40
1.0
 40
1.0
 10
-20.33338279266889
 20
2.146674679698572
 30
0.0
 10
-20.47176523631681
 20
2.133367503263083
 30
0.0
 10
-20.70590635174384
 20
2.110851951061109
 30
0.0
 10
-21.00929975641954
 20
2.086882175252926
 30
0.0
 10
-21.24305320221379
 20
2.070339586910949
 30
0.0
 10
-21.44826519396268
 20
2.057445161348996
 30
0.0
 10
-21.6474604480316
 20
2.046442314954705
 30
0.0
 10
-21.84688141715075
 20
2.037059016702822
 30
0.0
 10
-22.0491925347276
 20
2.029177428293062
 30
0.0
 10
-22.26379408077859
 20
2.022620584044462
 30
0.0
 10
-22.48953313012171
 20
2.017715251053163
 30
0.0
 10
-22.72559509492125
 20
2.014834616855042
 30
0.0
 10
-22.95749914258379
 20
2.014313773752017
 30
0.0
 10
-23.18984558413865
 20
2.015972889530952
 30
0.0
 10
-23.45737298503351
 20
2.020449596905602
 30
0.0
 10
-23.80117373136492
 20
2.029896730099056
 30
0.0
 10
-24.06475864852818
 20
2.042703839563957
 30
0.0
 10
-24.21327320073986
 20
2.049919890268891
 30
0.0
  0
LINE
  5
2D7
330
1F
100
AcDbEntity
  8
외형선
  6
Continuous
370
    15
100
AcDbLine
 10
-19.04999999999999
 20
2.5796875
 30
0.0
 11
-19.14621397234985
 21
2.5796875
 31
0.0
  0
LINE
  5
2D8
330
1F
100
AcDbEntity
  8
외형선
  6
Continuous
370
    15
100
AcDbLine
 10
-18.04999999999999
 20
-2.579687500000004
 30
0.0
 11
-18.04999999999999
 21
2.5796875
 31
0.0
  0
LINE
  5
2D9
330
1F
100
AcDbEntity
  8
외형선
  6
Continuous
370
    15
100
AcDbLine
 10
-19.04999999999999
 20
-2.579687500000004
 30
0.0
 11
-19.04999999999999
 21
-2.49416310223509
 31
0.0
  0
SPLINE
  5
2DA
330
1F
100
AcDbEntity
  8
외형선
  6
Continuous
370
    15
100
AcDbSpline
210
0.0
220
0.0
230
1.0
 70
     8
 71
     3
 72
     8
 73
     4
 74
     0
 42
0.000000001
 43
0.00000001
 40
0.0
 40
0.0
 40
0.0
 40
0.0
 40
1.0
 40
1.0
 40
1.0
 40
1.0
 10
-18.15991721235974
 20
-2.57518942062463
 30
0.0
 10
-18.45760708584253
 20
-2.56506951164612
 30
0.0
 10
-18.75561295914461
 20
-2.537780034724674
 30
0.0
 10
-19.04999999999989
 20
-2.494163102235005
 30
0.0
  0
LINE
  5
2DB
330
1F
100
AcDbEntity
  8
외형선
  6
Continuous
370
    15
100
AcDbLine
 10
-18.15991721235974
 20
2.517048943577423
 30
0.0
 11
-18.15991721235974
 21
-2.575229846857615
 31
0.0
  0
SPLINE
  5
2DC
330
1F
100
AcDbEntity
  8
외형선
  6
Continuous
370
    15
100
AcDbSpline
210
0.0
220
0.0
230
1.0
 70
     8
 71
     3
 72
     8
 73
     4
 74
     0
 42
0.000000001
 43
0.00000001
 40
0.0
 40
0.0
 40
0.0
 40
0.0
 40
1.0
 40
1.0
 40
1.0
 40
1.0
 10
-19.05000000000152
 20
2.579085637142017
 30
0.0
 10
-18.75558434397569
 20
2.575395814700885
 30
0.0
 10
-18.45754884435048
 20
2.554620565044909
 30
0.0
 10
-18.15983040377237
 20
2.517073156608491
 30
0.0
  0
LINE
  5
2DD
330
1F
100
AcDbEntity
  8
외형선
  6
Continuous
370
    15
100
AcDbLine
 10
-19.04999999999999
 20
2.579085637141995
 30
0.0
 11
-19.04999999999999
 21
2.579687499999993
 31
0.0
  0
SPLINE
  5
2DE
330
1F
100
AcDbEntity
  8
외형선
  6
Continuous
370
    15
100
AcDbSpline
210
0.0
220
0.0
230
1.0
 70
     8
 71
     3
 72
     8
 73
     4
 74
     0
 42
0.000000001
 43
0.00000001
 40
0.0
 40
0.0
 40
0.0
 40
0.0
 40
1.0
 40
1.0
 40
1.0
 40
1.0
 10
-19.05000000000162
 20
2.185382646122472
 30
0.0
 10
-18.75558434397576
 20
2.173502496633477
 30
0.0
 10
-18.45754884435051
 20
2.147109394064332
 30
0.0
 10
-18.15983040377237
 20
2.106681229992718
 30
0.0
  0
SPLINE
  5
2DF
330
1F
100
AcDbEntity
  8
외형선
  6
Continuous
370
    15
100
AcDbSpline
210
0.0
220
0.0
230
1.0
 70
     8
 71
     3
 72
     8
 73
     4
 74
     0
 42
0.000000001
 43
0.00000001
 40
0.0
 40
0.0
 40
0.0
 40
0.0
 40
1.0
 40
1.0
 40
1.0
 40
1.0
 10
-19.05000000000002
 20
0.6085652586050702
 30
0.0
 10
-18.75560251357286
 20
0.4779903921346093
 30
0.0
 10
-18.45758582560685
 20
0.3428562992940217
 30
0.0
 10
-18.15988552407367
 20
0.2063842447403859
 30
0.0
  0
SPLINE
  5
2E0
330
1F
100
AcDbEntity
  8
외형선
  6
Continuous
370
    15
100
AcDbSpline
210
0.0
220
0.0
230
1.0
 70
    24
 71
     3
 72
    10
 73
     6
 74
     0
 42
0.000000001
 43
0.00000001
 40
0.0
 40
0.0
 40
0.0
 40
0.0
 40
0.4999999999999999
 40
0.4999999999999999
 40
1.0
 40
1.0
 40
1.0
 40
1.0
 10
-19.04999999999999
 20
0.608565258605056
 30
0.0
 10
-19.04999999999999
 20
0.9726630446629033
 30
0.0
 10
-19.04999999999999
 20
1.319075193550583
 30
0.0
 10
-19.04999999999999
 20
1.870251005791902
 30
0.0
 10
-19.04999999999999
 20
2.072642192979908
 30
0.0
 10
-19.04999999999999
 20
2.185382646122408
 30
0.0
  0
SPLINE
  5
2E1
330
1F
100
AcDbEntity
  8
외형선
  6
Continuous
370
    15
100
AcDbSpline
210
0.0
220
0.0
230
1.0
 70
     8
 71
     3
 72
     8
 73
     4
 74
     0
 42
0.000000001
 43
0.00000001
 40
0.0
 40
0.0
 40
0.0
 40
0.0
 40
1.0
 40
1.0
 40
1.0
 40
1.0
 10
-19.05000000000002
 20
-1.725484112491279
 30
0.0
 10
-18.75560606791196
 20
-1.760742840786049
 30
0.0
 10
-18.45759305987885
 20
-1.784726261119593
 30
0.0
 10
-18.15989630671911
 20
-1.79672841018891
 30
0.0
  0
SPLINE
  5
2E2
330
1F
100
AcDbEntity
  8
외형선
  6
Continuous
370
    15
100
AcDbSpline
210
0.0
220
0.0
230
1.0
 70
    24
 71
     3
 72
    14
 73
    10
 74
     0
 42
0.000000001
 43
0.00000001
 40
0.0
 40
0.0
 40
0.0
 40
0.0
 40
0.2500000000000001
 40
0.2500000000000001
 40
0.5000000000000001
 40
0.5000000000000001
 40
0.75
 40
0.75
 40
1.0
 40
1.0
 40
1.0
 40
1.0
 10
-19.04999999999975
 20
-1.725484112491314
 30
0.0
 10
-19.04999999999975
 20
-1.613154542095506
 30
0.0
 10
-19.04999999999975
 20
-1.472824460433037
 30
0.0
 10
-19.04999999999975
 20
-1.141865941263609
 30
0.0
 10
-19.04999999999975
 20
-0.9513005875933357
 30
0.0
 10
-19.04999999999975
 20
-0.5364727211151658
 30
0.0
 10
-19.04999999999975
 20
-0.3124312459377433
 30
0.0
 10
-19.04999999999975
 20
0.1460821125250663
 30
0.0
 10
-19.04999999999975
 20
0.380311754319452
 30
0.0
 10
-19.04999999999975
 20
0.6085652586049423
 30
0.0
  0
SPLINE
  5
2E3
330
1F
100
AcDbEntity
  8
외형선
  6
Continuous
370
    15
100
AcDbSpline
210
0.0
220
0.0
230
1.0
 70
    24
 71
     3
 72
    10
 73
     6
 74
     0
 42
0.000000001
 43
0.00000001
 40
0.0
 40
0.0
 40
0.0
 40
0.0
 40
0.5
 40
0.5
 40
1.0
 40
1.0
 40
1.0
 40
1.0
 10
-19.05000000000002
 20
-2.494163102234976
 30
0.0
 10
-19.05000000000002
 20
-2.380461696426407
 30
0.0
 10
-19.05000000000002
 20
-2.249965196874653
 30
0.0
 10
-19.05000000000002
 20
-1.983721785674552
 30
0.0
 10
-19.05000000000002
 20
-1.848714661202378
 30
0.0
 10
-19.05000000000002
 20
-1.725484112491279
 30
0.0
  0
SPLINE
  5
2E4
330
1F
100
AcDbEntity
  8
외형선
  6
Continuous
370
    15
100
AcDbSpline
210
0.0
220
0.0
230
1.0
 70
    24
 71
     3
 72
     8
 73
     4
 74
     0
 42
0.000000001
 43
0.00000001
 40
0.0
 40
0.0
 40
0.0
 40
0.0
 40
1.0
 40
1.0
 40
1.0
 40
1.0
 10
-19.04999999999999
 20
2.185382646122408
 30
0.0
 10
-19.04999999999999
 20
2.319197612998439
 30
0.0
 10
-19.04999999999999
 20
2.451286841520401
 30
0.0
 10
-19.04999999999999
 20
2.579085637132019
 30
0.0
  0
SPLINE
  5
2E5
330
1F
100
AcDbEntity
  8
0
  6
Continuous
 62
     1
370
    15
100
AcDbSpline
210
0.0
220
0.0
230
1.0
 70
     8
 71
     3
 72
    19
 73
    15
 74
     0
 42
0.000000001
 43
0.00000001
 40
0.0
 40
0.0
 40
0.0
 40
0.0
 40
0.0806945387169321
 40
0.1612618554433088
 40
0.2417893266893454
 40
0.3223649609530778
 40
0.4030740969273537
 40
0.4837528977755531
 40
0.5643126804729646
 40
0.6529228201695613
 40
0.7415411896495718
 40
0.8301876879914828
 40
0.9188820465354367
 40
1.0
 40
1.0
 40
1.0
 40
1.0
 10
-31.74999999999999
 20
2.44797089859666
 30
0.0
 10
-31.4109041160488
 20
2.37405689507626
 30
0.0
 10
-30.73324696243426
 20
2.226345419919854
 30
0.0
 10
-29.71766341005377
 20
1.856158515630236
 30
0.0
 10
-28.7026300065799
 20
1.399552956606294
 30
0.0
 10
-27.68693485505474
 20
0.8682688152373091
 30
0.0
 10
-26.67008701785331
 20
0.2934259377637519
 30
0.0
 10
-25.65342449525544
 20
-0.2968565428641182
 30
0.0
 10
-24.60407743019342
 20
-0.8914069142080675
 30
0.0
 10
-23.52103088515081
 20
-1.454170805956436
 30
0.0
 10
-22.40409950359281
 20
-1.94513955508622
 30
0.0
 10
-21.28671234168943
 20
-2.311340193115283
 30
0.0
 10
-20.20073229466421
 20
-2.541038485498907
 30
0.0
 10
-19.48710696122767
 20
-2.562915334956797
 30
0.0
 10
-19.14621397234983
 20
-2.573365727129703
 30
0.0
  0
SPLINE
  5
2E6
330
1F
100
AcDbEntity
  8
0
  6
Continuous
 62
     1
370
    15
100
AcDbSpline
210
0.0
220
0.0
230
1.0
 70
     8
 71
     3
 72
    13
 73
     9
 74
     0
 42
0.000000001
 43
0.00000001
 40
0.0
 40
0.0
 40
0.0
 40
0.0
 40
0.169063772675317
 40
0.3380281604213758
 40
0.5069216978975774
 40
0.675773270651421
 40
0.844611972807943
 40
0.9999999999999999
 40
0.9999999999999999
 40
0.9999999999999999
 40
0.9999999999999999
 10
-31.74999999999999
 20
2.035301888237379
 30
0.0
 10
-31.37217669545063
 20
1.953709007620718
 30
0.0
 10
-30.61675219154807
 20
1.790571211143772
 30
0.0
 10
-29.48401738434477
 20
1.396583200267942
 30
0.0
 10
-28.35181853333733
 20
0.9225075986647314
 30
0.0
 10
-27.21994384774467
 20
0.3879992596775937
 30
0.0
 10
-26.11826027962739
 20
-0.1592134106628703
 30
0.0
 10
-25.39382322281687
 20
-0.5041431284206351
 30
0.0
 10
-25.04663147428713
 20
-0.6694532139585531
 30
0.0
  0
LINE
  5
2E7
330
1F
100
AcDbEntity
  8
0
  6
Continuous
 62
     1
370
    15
100
AcDbLine
 10
-31.74999999999991
 20
2.447970898596667
 30
0.0
 11
-31.74999999999999
 21
2.035301888237379
 31
0.0
  0
SPLINE
  5
2E8
330
1F
100
AcDbEntity
  8
0
  6
Continuous
 62
     1
370
    15
100
AcDbSpline
210
0.0
220
0.0
230
1.0
 70
     8
 71
     3
 72
    38
 73
    34
 74
     0
 42
0.000000001
 43
0.00000001
 40
0.0
 40
0.0
 40
0.0
 40
0.0
 40
0.0625
 40
0.0625
 40
0.125
 40
0.125
 40
0.1875
 40
0.1875
 40
0.25
 40
0.25
 40
0.3125
 40
0.3125
 40
0.375
 40
0.375
 40
0.4375
 40
0.4375
 40
0.5
 40
0.5
 40
0.5625
 40
0.5625
 40
0.625
 40
0.625
 40
0.6875
 40
0.6875
 40
0.75
 40
0.75
 40
0.8125
 40
0.8125
 40
0.875
 40
0.875
 40
0.9375
 40
0.9375
 40
1.0
 40
1.0
 40
1.0
 40
1.0
 10
-19.04999999999998
 20
-2.494163102235282
 30
0.0
 10
-19.31261694581978
 20
-2.455253286221668
 30
0.0
 10
-19.57978428042801
 20
-2.402963897795422
 30
0.0
 10
-20.11069026654535
 20
-2.273811022952591
 30
0.0
 10
-20.37162900886978
 20
-2.197333533032042
 30
0.0
 10
-20.90207230105313
 20
-2.02131473498398
 30
0.0
 10
-21.16939208701481
 20
-1.921879281669879
 30
0.0
 10
-21.6956750282994
 20
-1.704991042277909
 30
0.0
 10
-21.9597351800903
 20
-1.586899055442563
 30
0.0
 10
-22.49154340344582
 20
-1.334675618755148
 30
0.0
 10
-22.75390960541659
 20
-1.201431953179741
 30
0.0
 10
-23.28196068773627
 20
-0.9232281966548169
 30
0.0
 10
-23.54944180259164
 20
-0.7779021353291055
 30
0.0
 10
-24.07873743705085
 20
-0.4816150005889012
 30
0.0
 10
-24.34016988160581
 20
-0.3307680358408743
 30
0.0
 10
-24.87170820311128
 20
-0.0255367276161335
 30
0.0
 10
-25.13772144497955
 20
0.128061748547461
 30
0.0
 10
-25.66223564656749
 20
0.4308791947409548
 30
0.0
 10
-25.92928050113689
 20
0.581730637971363
 30
0.0
 10
-26.46043508540244
 20
0.8751700105966566
 30
0.0
 10
-26.72146621431167
 20
1.017228594474931
 30
0.0
 10
-27.25156447604248
 20
1.290626690419083
 30
0.0
 10
-27.51895737371947
 20
1.421597327951888
 30
0.0
 10
-28.04586654089751
 20
1.666009756837384
 30
0.0
 10
-28.3092903698729
 20
1.780112441623375
 30
0.0
 10
-28.84113656065829
 20
1.989080835808453
 30
0.0
 10
-29.10399569526626
 20
2.083221872540244
 30
0.0
 10
-29.6314942890433
 20
2.24896577017949
 30
0.0
 10
-29.89894096737148
 20
2.320762971285584
 30
0.0
 10
-30.42865664631673
 20
2.438732248332807
 30
0.0
 10
-30.68985235561603
 20
2.484973870907178
 30
0.0
 10
-31.22121773504184
 20
2.551381667720223
 30
0.0
 10
-31.48812086294699
 20
2.571249621207828
 30
0.0
 10
-31.74999999999999
 20
2.577507187413042
 30
0.0
  0
SPLINE
  5
2E9
330
1F
100
AcDbEntity
  8
0
  6
Continuous
 62
     1
370
    15
100
AcDbSpline
210
0.0
220
0.0
230
1.0
 70
     8
 71
     3
 72
    13
 73
     9
 74
     0
 42
0.000000001
 43
0.00000001
 40
0.0
 40
0.0
 40
0.0
 40
0.0
 40
0.0601869371200123
 40
0.2403523200354856
 40
0.4206001379196694
 40
0.6009600634319779
 40
0.8004816391800503
 40
0.9999999999999999
 40
0.9999999999999999
 40
0.9999999999999999
 40
0.9999999999999999
 10
-25.33460713163542
 20
0.2407212044303807
 30
0.0
 10
-25.20853675453416
 20
0.1908258914998643
 30
0.0
 10
-24.70508352906739
 20
-0.008427547794332
 30
0.0
 10
-23.82404443929537
 20
-0.3691682783191849
 30
0.0
 10
-22.6912364612455
 20
-0.805205364160683
 30
0.0
 10
-21.51777655179674
 20
-1.202251097155246
 30
0.0
 10
-20.30395630956811
 20
-1.536606857718409
 30
0.0
 10
-19.46798319147299
 20
-1.662525365727758
 30
0.0
 10
-19.04999999999999
 20
-1.725484112491286
 30
0.0
  0
SPLINE
  5
2EA
330
1F
100
AcDbEntity
  8
외형선
  6
Continuous
370
    15
100
AcDbSpline
210
0.0
220
0.0
230
1.0
 70
    24
 71
     3
 72
    10
 73
     6
 74
     0
 42
0.000000001
 43
0.00000001
 40
0.0
 40
0.0
 40
0.0
 40
0.0
 40
0.5
 40
0.5
 40
1.0
 40
1.0
 40
1.0
 40
1.0
 10
-19.05000000000002
 20
-2.494163102234983
 30
0.0
 10
-19.05000000000002
 20
-2.380461696426407
 30
0.0
 10
-19.05000000000002
 20
-2.24996519687466
 30
0.0
 10
-19.05000000000002
 20
-1.983721785674552
 30
0.0
 10
-19.05000000000002
 20
-1.848714661202378
 30
0.0
 10
-19.05000000000002
 20
-1.725484112491279
 30
0.0
  0
LINE
  5
2EB
330
1F
100
AcDbEntity
  8
0
  6
Continuous
 62
     1
370
    15
100
AcDbLine
 10
-31.74999999999999
 20
2.577507187412715
 30
0.0
 11
-31.74999999999999
 21
2.44797089859666
 31
0.0
  0
SPLINE
  5
2EC
330
1F
100
AcDbEntity
  8
0
  6
Continuous
 62
     1
370
    15
100
AcDbSpline
210
0.0
220
0.0
230
1.0
 70
     8
 71
     3
 72
     8
 73
     4
 74
     0
 42
0.000000001
 43
0.00000001
 40
0.0
 40
0.0
 40
0.0
 40
0.0
 40
1.0
 40
1.0
 40
1.0
 40
1.0
 10
-30.15309226172504
 20
-0.7223294314596186
 30
0.0
 10
-30.06169291521564
 20
-0.8306337022151721
 30
0.0
 10
-29.98011294443724
 20
-0.934884906344399
 30
0.0
 10
-29.91067027367392
 20
-1.034126292439117
 30
0.0
  0
LINE
  5
2ED
330
1F
100
AcDbEntity
  8
0
  6
Continuous
 62
     1
370
    15
100
AcDbLine
 10
-29.94330676902478
 20
-1.061511563650937
 30
0.0
 11
-31.74999999999999
 21
-0.0000000000000055
 31
0.0
  0
LINE
  5
2EE
330
1F
100
AcDbEntity
  8
0
  6
Continuous
 62
     1
370
    15
100
AcDbLine
 10
-31.74999999999999
 20
-0.0000000000000055
 30
0.0
 11
-31.74999999999999
 21
0.6894032873358443
 31
0.0
  0
SPLINE
  5
2EF
330
1F
100
AcDbEntity
  8
0
  6
Continuous
 62
     1
370
    15
100
AcDbSpline
210
0.0
220
0.0
230
1.0
 70
     8
 71
     3
 72
    10
 73
     6
 74
     0
 42
0.000000001
 43
0.00000001
 40
0.0
 40
0.0
 40
0.0
 40
0.0
 40
0.5
 40
0.5
 40
1.0
 40
1.0
 40
1.0
 40
1.0
 10
-31.74999999999999
 20
0.6894032873358443
 30
0.0
 10
-31.4735605001758
 20
0.4720732096825005
 30
0.0
 10
-31.20174270305156
 20
0.2458267837234248
 30
0.0
 10
-30.6675767607447
 20
-0.224935247440227
 30
0.0
 10
-30.4027450603767
 20
-0.4719394539584326
 30
0.0
 10
-30.15309226172501
 20
-0.7223294314596257
 30
0.0
  0
SPLINE
  5
2F0
330
1F
100
AcDbEntity
  8
0
  6
Continuous
 62
     1
370
    15
100
AcDbSpline
210
0.0
220
0.0
230
1.0
 70
     8
 71
     3
 72
    13
 73
     9
 74
     0
 42
0.000000001
 43
0.00000001
 40
0.0
 40
0.0
 40
0.0
 40
0.0
 40
0.151686631208505
 40
0.3031884580669656
 40
0.4936919176074538
 40
0.684180655963883
 40
0.8746880345094095
 40
1.0
 40
1.0
 40
1.0
 40
1.0
 10
-30.15309226172504
 20
-0.7223294314596186
 30
0.0
 10
-29.85264675723527
 20
-0.8493116837691287
 30
0.0
 10
-29.25212178998094
 20
-1.10312148212025
 30
0.0
 10
-28.27453765297408
 20
-1.459693729878422
 30
0.0
 10
-27.21995309236981
 20
-1.771685044804363
 30
0.0
 10
-26.08819256975621
 20
-1.9872779885276
 30
0.0
 10
-25.08551212697144
 20
-2.083115236348027
 30
0.0
 10
-24.46004035855638
 20
-2.048617302372696
 30
0.0
 10
-24.21186336072812
 20
-2.034929084746237
 30
0.0
  0
SPLINE
  5
2F1
330
1F
100
AcDbEntity
  8
0
  6
Continuous
 62
     1
370
    15
100
AcDbSpline
210
0.0
220
0.0
230
1.0
 70
    24
 71
     3
 72
    10
 73
     6
 74
     0
 42
0.000000001
 43
0.00000001
 40
0.0
 40
0.0
 40
0.0
 40
0.0
 40
0.5
 40
0.5
 40
1.0
 40
1.0
 40
1.0
 40
1.0
 10
-31.74999999999999
 20
2.035301888237379
 30
0.0
 10
-31.74999999999999
 20
1.879280130070748
 30
0.0
 10
-31.74999999999999
 20
1.682140656139966
 30
0.0
 10
-31.74999999999999
 20
1.223810351809016
 30
0.0
 10
-31.74999999999999
 20
0.9630165444964208
 30
0.0
 10
-31.74999999999999
 20
0.6894032873359296
 30
0.0
  0
SPLINE
  5
2F2
330
1F
100
AcDbEntity
  8
0
  6
Continuous
 62
     1
370
    15
100
AcDbSpline
210
0.0
220
0.0
230
1.0
 70
    24
 71
     3
 72
     8
 73
     4
 74
     0
 42
0.000000001
 43
0.00000001
 40
0.0
 40
0.0
 40
0.0
 40
0.0
 40
1.0
 40
1.0
 40
1.0
 40
1.0
 10
-30.18006332788297
 20
-1.260173904867633
 30
0.0
 10
-30.09498148789995
 20
-1.188781764318014
 30
0.0
 10
-30.00465078362148
 20
-1.112985303673908
 30
0.0
 10
-29.91067027367398
 20
-1.034126292439103
 30
0.0
  0
LINE
  5
2F3
330
1F
100
AcDbEntity
  8
0
  6
Continuous
 62
     1
370
    15
100
AcDbLine
 10
-31.74999999999999
 20
-1.805781250000001
 30
0.0
 11
-30.7999840359518
 21
-1.757401040826954
 31
0.0
  0
SPLINE
  5
2F4
330
1F
100
AcDbEntity
  8
0
  6
Continuous
 62
     1
370
    15
100
AcDbSpline
210
0.0
220
0.0
230
1.0
 70
     8
 71
     3
 72
     8
 73
     4
 74
     0
 42
0.000000001
 43
0.00000001
 40
0.0
 40
0.0
 40
0.0
 40
0.0
 40
1.0
 40
1.0
 40
1.0
 40
1.0
 10
-31.74999999999999
 20
-1.805781250000001
 30
0.0
 10
-31.21946070228301
 20
-1.661742743079172
 30
0.0
 10
-30.69379831191025
 20
-1.484871488895165
 30
0.0
 10
-30.18006332789297
 20
-1.260173904872032
 30
0.0
  0
SPLINE
  5
2F5
330
1F
100
AcDbEntity
  8
0
  6
Continuous
 62
     1
370
    15
100
AcDbSpline
210
0.0
220
0.0
230
1.0
 70
     8
 71
     3
 72
    15
 73
    11
 74
     0
 42
0.000000001
 43
0.00000001
 40
0.0
 40
0.0
 40
0.0
 40
0.0
 40
0.0278547372256343
 40
0.1841882785454936
 40
0.3405644167497462
 40
0.497010239745476
 40
0.6535508362121775
 40
0.7691022767305467
 40
0.8843314349740263
 40
1.0
 40
1.0
 40
1.0
 40
1.0
 10
-26.28988787431712
 20
1.930603921731121
 30
0.0
 10
-26.22266713085967
 20
1.944022293935996
 30
0.0
 10
-25.778172791542
 20
2.032750715865776
 30
0.0
 10
-24.95629452908205
 20
2.076444971942644
 30
0.0
 10
-23.82404276698386
 20
2.044862518071726
 30
0.0
 10
-22.69125049998495
 20
1.871616506936208
 30
0.0
 10
-21.65681259183641
 20
1.607052862030537
 30
0.0
 10
-20.72205459543522
 20
1.294864808565899
 30
0.0
 10
-19.88656365758313
 20
0.9708337906489336
 30
0.0
 10
-19.32920810850198
 20
0.7294745411024354
 30
0.0
 10
-19.04999999999999
 20
0.608565258605056
 30
0.0
  0
SPLINE
  5
2F6
330
1F
100
AcDbEntity
  8
외형선
  6
Continuous
370
    15
100
AcDbSpline
210
0.0
220
0.0
230
1.0
 70
    24
 71
     3
 72
    14
 73
    10
 74
     0
 42
0.000000001
 43
0.00000001
 40
0.0
 40
0.0
 40
0.0
 40
0.0
 40
0.25
 40
0.25
 40
0.5
 40
0.5
 40
0.75
 40
0.75
 40
1.0
 40
1.0
 40
1.0
 40
1.0
 10
-19.04999999999998
 20
-1.725484112491293
 30
0.0
 10
-19.04999999999998
 20
-1.613154542095471
 30
0.0
 10
-19.04999999999998
 20
-1.472824460432987
 30
0.0
 10
-19.04999999999998
 20
-1.141865941263545
 30
0.0
 10
-19.04999999999998
 20
-0.9513005875932575
 30
0.0
 10
-19.04999999999998
 20
-0.5364727211150805
 30
0.0
 10
-19.04999999999998
 20
-0.312431245937658
 30
0.0
 10
-19.04999999999998
 20
0.1460821125251658
 30
0.0
 10
-19.04999999999998
 20
0.3803117543195514
 30
0.0
 10
-19.04999999999998
 20
0.6085652586050417
 30
0.0
  0
SPLINE
  5
2F7
330
1F
100
AcDbEntity
  8
0
  6
Continuous
 62
     1
370
    15
100
AcDbSpline
210
0.0
220
0.0
230
1.0
 70
     8
 71
     3
 72
     9
 73
     5
 74
     0
 42
0.000000001
 43
0.00000001
 40
0.0
 40
0.0
 40
0.0
 40
0.0
 40
0.349117406548798
 40
0.9999999999999999
 40
0.9999999999999999
 40
0.9999999999999999
 40
0.9999999999999999
 10
-20.3364307784806
 20
2.137091134689188
 30
0.0
 10
-20.18679457096439
 20
2.153974017863613
 30
0.0
 10
-19.75818171835575
 20
2.202332772992216
 30
0.0
 10
-19.32921013602463
 20
2.192065460866546
 30
0.0
 10
-19.05000000000009
 20
2.185382646122415
 30
0.0
  0
SPLINE
  5
2F8
330
1F
100
AcDbEntity
  8
외형선
  6
Continuous
370
    15
100
AcDbSpline
210
0.0
220
0.0
230
1.0
 70
    24
 71
     3
 72
    10
 73
     6
 74
     0
 42
0.000000001
 43
0.00000001
 40
0.0
 40
0.0
 40
0.0
 40
0.0
 40
0.4999999999999999
 40
0.4999999999999999
 40
1.0
 40
1.0
 40
1.0
 40
1.0
 10
-19.04999999999999
 20
0.608565258605056
 30
0.0
 10
-19.04999999999999
 20
0.9726630446629033
 30
0.0
 10
-19.04999999999999
 20
1.319075193550583
 30
0.0
 10
-19.04999999999999
 20
1.870251005791902
 30
0.0
 10
-19.04999999999999
 20
2.072642192979908
 30
0.0
 10
-19.04999999999999
 20
2.185382646122408
 30
0.0
  0
LINE
  5
2F9
330
1F
100
AcDbEntity
  8
0
  6
Continuous
 62
     1
370
    15
100
AcDbLine
 10
-31.74999999999999
 20
-0.0000000000000055
 30
0.0
 11
-31.74999999999999
 21
-1.805781250000001
 31
0.0
  0
SPLINE
  5
2FA
330
1F
100
AcDbEntity
  8
0
  6
Continuous
 62
     1
370
    15
100
AcDbSpline
210
0.0
220
0.0
230
1.0
 70
     8
 71
     3
 72
    10
 73
     6
 74
     0
 42
0.000000001
 43
0.00000001
 40
0.0
 40
0.0
 40
0.0
 40
0.0
 40
0.2632318174523062
 40
0.6315009033861803
 40
1.0
 40
1.0
 40
1.0
 40
1.0
 10
-22.08595540386082
 20
2.028346104151185
 30
0.0
 10
-21.81960668335611
 20
2.120990177811679
 30
0.0
 10
-21.18062823750409
 20
2.343246046331744
 30
0.0
 10
-20.16866174094759
 20
2.543578176186708
 30
0.0
 10
-19.42296484635541
 20
2.567247353740521
 30
0.0
 10
-19.04999999999796
 20
2.579085637141974
 30
0.0
  0
SPLINE
  5
2FB
330
1F
100
AcDbEntity
  8
0
  6
Continuous
 62
     1
370
    15
100
AcDbSpline
210
0.0
220
0.0
230
1.0
 70
     8
 71
     3
 72
    13
 73
     9
 74
     0
 42
0.000000001
 43
0.00000001
 40
0.0
 40
0.0
 40
0.0
 40
0.0
 40
0.0835580203892737
 40
0.3977591467679807
 40
0.5469920190680913
 40
0.6967505957786972
 40
0.8481013445094536
 40
1.0
 40
1.0
 40
1.0
 40
1.0
 10
-28.20225782512423
 20
-1.730522060325397
 30
0.0
 10
-28.30108670115987
 20
-1.772306059756416
 30
0.0
 10
-28.77153931869244
 20
-1.971209383277119
 30
0.0
 10
-29.41827090898303
 20
-2.194906060026083
 30
0.0
 10
-30.1442634734393
 20
-2.380884902020389
 30
0.0
 10
-30.67576506670272
 20
-2.483897321613844
 30
0.0
 10
-31.21209954114794
 20
-2.553826878807461
 30
0.0
 10
-31.57048400571198
 20
-2.569604249100697
 30
0.0
 10
-31.74999999999982
 20
-2.577507187412719
 30
0.0
  0
SPLINE
  5
2FC
330
1F
100
AcDbEntity
  8
외형선
  6
Continuous
370
    15
100
AcDbSpline
210
0.0
220
0.0
230
1.0
 70
    24
 71
     3
 72
     8
 73
     4
 74
     0
 42
0.000000001
 43
0.00000001
 40
0.0
 40
0.0
 40
0.0
 40
0.0
 40
1.0
 40
1.0
 40
1.0
 40
1.0
 10
-19.04999999999999
 20
2.185382646122408
 30
0.0
 10
-19.04999999999999
 20
2.319197612998432
 30
0.0
 10
-19.04999999999999
 20
2.451286841520387
 30
0.0
 10
-19.04999999999999
 20
2.579085637132005
 30
0.0
  0
SPLINE
  5
2FD
330
1F
100
AcDbEntity
  8
0
  6
Continuous
 62
     1
370
    15
100
AcDbSpline
210
0.0
220
0.0
230
1.0
 70
    24
 71
     3
 72
    10
 73
     6
 74
     0
 42
0.000000001
 43
0.00000001
 40
0.0
 40
0.0
 40
0.0
 40
0.0
 40
0.5
 40
0.5
 40
1.0
 40
1.0
 40
1.0
 40
1.0
 10
-31.74999999999999
 20
-1.805781250000001
 30
0.0
 10
-31.74999999999999
 20
-1.915243212482613
 30
0.0
 10
-31.74999999999999
 20
-2.042448150155641
 30
0.0
 10
-31.74999999999999
 20
-2.309323766791207
 30
0.0
 10
-31.74999999999999
 20
-2.44831287891911
 30
0.0
 10
-31.74999999999999
 20
-2.577507187412726
 30
0.0
  0
LINE
  5
302
330
1F
100
AcDbEntity
  8
외형선
  6
Continuous
370
    15
100
AcDbLine
 10
-15.82826350361915
 20
-3.175000000000002
 30
0.0
 11
-15.82826350361915
 21
3.174999999999992
 31
0.0
  0
LINE
  5
32D
330
1F
100
AcDbEntity
  8
0
100
AcDbLine
 10
-15.82826350361915
 20
-0.0000000000000055
 30
0.0
 11
-36.51790916527784
 21
-0.0000000000000055
 31
0.0
  0
ENDSEC
  0
SECTION
  2
OBJECTS
  0
DICTIONARY
  5
C
330
0
100
AcDbDictionary
281
     1
  3
ACAD_GROUP
350
D
  3
ACAD_IMAGE_VARS
350
15B
  3
ACAD_LAYOUT
350
1A
  3
ACAD_MLINESTYLE
350
17
  3
ACAD_PLOTSETTINGS
350
19
  3
ACAD_PLOTSTYLENAME
350
E
  3
ACAD_SCALELIST
350
47
  3
APPDATA
350
159
  3
DWGPROPS
350
353
  0
DICTIONARY
  5
215
330
2
100
AcDbDictionary
280
     1
281
     1
  3
ACAD_LAYERSTATES
360
216
  0
DICTIONARY
  5
351
330
1F
100
AcDbDictionary
280
     1
281
     1
  3
DIM_BOUNDING_BOXES_V1
360
352
  0
DICTIONARY
  5
D
102
{ACAD_REACTORS
330
C
102
}
330
C
100
AcDbDictionary
281
     1
  0
RASTERVARIABLES
  5
15B
102
{ACAD_REACTORS
330
C
102
}
330
C
100
AcDbRasterVariables
 90
        0
 70
     1
 71
     1
 72
     1
  0
DICTIONARY
  5
1A
102
{ACAD_REACTORS
330
C
102
}
330
C
100
AcDbDictionary
281
     1
  3
Layout1
350
1E
  3
Layout2
350
26
  3
Model
350
22
  0
DICTIONARY
  5
17
102
{ACAD_REACTORS
330
C
102
}
330
C
100
AcDbDictionary
281
     1
  3
Standard
350
18
  0
DICTIONARY
  5
19
102
{ACAD_REACTORS
330
C
102
}
330
C
100
AcDbDictionary
281
     1
  0
ACDBDICTIONARYWDFLT
  5
E
102
{ACAD_REACTORS
330
C
102
}
330
C
100
AcDbDictionary
281
     1
  3
Normal
350
F
100
AcDbDictionaryWithDefault
340
F
  0
DICTIONARY
  5
47
102
{ACAD_REACTORS
330
C
102
}
330
C
100
AcDbDictionary
281
     1
  3
A0
350
48
  3
A1
350
49
  3
A2
350
4A
  3
A3
350
4B
  3
A4
350
4C
  3
A5
350
4D
  3
A6
350
4E
  3
A7
350
4F
  3
A8
350
50
  3
A9
350
51
  3
B0
350
52
  3
B1
350
53
  3
B2
350
54
  3
B3
350
55
  3
B4
350
56
  3
B5
350
57
  3
B6
350
58
  3
B7
350
59
  3
B8
350
5A
  3
B9
350
5B
  3
C0
350
5C
  3
C1
350
5D
  3
C2
350
5E
  3
C3
350
5F
  3
C4
350
60
  3
C5
350
61
  3
C6
350
62
  3
C7
350
63
  3
C8
350
64
  3
C9
350
65
  3
D0
350
66
  3
D1
350
67
  3
D2
350
68
  0
DICTIONARY
  5
159
102
{ACAD_REACTORS
330
C
102
}
330
C
100
AcDbDictionary
281
     1
  0
XRECORD
  5
353
102
{ACAD_REACTORS
330
C
102
}
330
C
100
AcDbXrecord
280
     1
  1
DWGPROPS COOKIE
  2

  3

  4

  6

  7

  8
12011056
  9

300
=
301
=
302
=
303
=
304
=
305
=
306
=
307
=
308
=
309
=
 40
0.0
 41
2458313.050379063
 42
2459719.265145035
  1

 90
        0
  0
DICTIONARY
  5
216
102
{ACAD_REACTORS
330
215
102
}
330
215
100
AcDbDictionary
281
     1
  0
DICTIONARY
  5
352
102
{ACAD_REACTORS
330
351
102
}
330
351
100
AcDbDictionary
281
     1
  0
LAYOUT
  5
1E
102
{ACAD_REACTORS
330
1A
102
}
330
1A
100
AcDbPlotSettings
  1

  2
none_device
  4

  6

 40
0.0
 41
0.0
 42
0.0
 43
0.0
 44
0.0
 45
0.0
 46
0.0
 47
0.0
 48
0.0
 49
0.0
140
0.0
141
0.0
142
1.0
143
1.0
 70
   688
 72
     1
 73
     0
 74
     5
  7

 75
    16
147
1.0
148
0.0
149
0.0
100
AcDbLayout
  1
Layout1
 70
     1
 71
     1
 10
0.0
 20
0.0
 11
420.0
 21
297.0
 12
0.0
 22
0.0
 32
0.0
 14
1.000000000000000E+20
 24
1.000000000000000E+20
 34
1.000000000000000E+20
 15
-1.000000000000000E+20
 25
-1.000000000000000E+20
 35
-1.000000000000000E+20
146
0.0
 13
0.0
 23
0.0
 33
0.0
 16
1.0
 26
0.0
 36
0.0
 17
0.0
 27
1.0
 37
0.0
 76
     0
330
1B
  0
LAYOUT
  5
26
102
{ACAD_REACTORS
330
1A
102
}
330
1A
100
AcDbPlotSettings
  1

  2
none_device
  4

  6

 40
0.0
 41
0.0
 42
0.0
 43
0.0
 44
0.0
 45
0.0
 46
0.0
 47
0.0
 48
0.0
 49
0.0
140
0.0
141
0.0
142
1.0
143
1.0
 70
   688
 72
     1
 73
     0
 74
     5
  7

 75
    16
147
1.0
148
0.0
149
0.0
100
AcDbLayout
  1
Layout2
 70
     1
 71
     2
 10
0.0
 20
0.0
 11
0.0
 21
0.0
 12
0.0
 22
0.0
 32
0.0
 14
0.0
 24
0.0
 34
0.0
 15
0.0
 25
0.0
 35
0.0
146
0.0
 13
0.0
 23
0.0
 33
0.0
 16
1.0
 26
0.0
 36
0.0
 17
0.0
 27
1.0
 37
0.0
 76
     0
330
23
  0
LAYOUT
  5
22
102
{ACAD_REACTORS
330
1A
102
}
330
1A
100
AcDbPlotSettings
  1

  2
none_device
  4
ANSI_A_(11.00_x_8.50_Inches)
  6

 40
6.35
 41
19.05
 42
6.35000508
 43
19.05000254
 44
279.4
 45
215.9
 46
76.54512682516504
 47
74.81050341654318
 48
0.0
 49
0.0
140
0.0
141
0.0
142
0.0502857535044045
143
1.0
 70
  1696
 72
     0
 73
     0
 74
     0
  7

 75
     0
147
0.0235690232323232
148
0.0
149
0.0
100
AcDbLayout
  1
Model
 70
     1
 71
     0
 10
0.0
 20
0.0
 11
420.0
 21
297.0
 12
0.0
 22
0.0
 32
0.0
 14
-46.78813701905674
 24
-39.99892507127611
 34
0.0
 15
81.21241335422454
 25
41.17000000000003
 35
0.0
146
0.0
 13
0.0
 23
0.0
 33
0.0
 16
1.0
 26
0.0
 36
0.0
 17
0.0
 27
1.0
 37
0.0
 76
     0
330
1F
331
29
  0
MLINESTYLE
  5
18
102
{ACAD_REACTORS
330
17
102
}
330
17
100
AcDbMlineStyle
  2
Standard
 70
     0
  3

 62
   256
 51
90.0
 52
90.0
 71
     2
 49
0.5
 62
   256
  6
BYLAYER
 49
-0.5
 62
   256
  6
BYLAYER
  0
ACDBPLACEHOLDER
  5
F
102
{ACAD_REACTORS
330
E
102
}
330
E
  0
SCALE
  5
48
102
{ACAD_REACTORS
330
47
102
}
330
47
100
AcDbScale
 70
     0
300
1:1
140
1.0
141
1.0
290
     1
  0
SCALE
  5
49
102
{ACAD_REACTORS
330
47
102
}
330
47
100
AcDbScale
 70
     0
300
1:2
140
1.0
141
2.0
290
     0
  0
SCALE
  5
4A
102
{ACAD_REACTORS
330
47
102
}
330
47
100
AcDbScale
 70
     0
300
1:4
140
1.0
141
4.0
290
     0
  0
SCALE
  5
4B
102
{ACAD_REACTORS
330
47
102
}
330
47
100
AcDbScale
 70
     0
300
1:5
140
1.0
141
5.0
290
     0
  0
SCALE
  5
4C
102
{ACAD_REACTORS
330
47
102
}
330
47
100
AcDbScale
 70
     0
300
1:8
140
1.0
141
8.0
290
     0
  0
SCALE
  5
4D
102
{ACAD_REACTORS
330
47
102
}
330
47
100
AcDbScale
 70
     0
300
1:10
140
1.0
141
10.0
290
     0
  0
SCALE
  5
4E
102
{ACAD_REACTORS
330
47
102
}
330
47
100
AcDbScale
 70
     0
300
1:16
140
1.0
141
16.0
290
     0
  0
SCALE
  5
4F
102
{ACAD_REACTORS
330
47
102
}
330
47
100
AcDbScale
 70
     0
300
1:20
140
1.0
141
20.0
290
     0
  0
SCALE
  5
50
102
{ACAD_REACTORS
330
47
102
}
330
47
100
AcDbScale
 70
     0
300
1:30
140
1.0
141
30.0
290
     0
  0
SCALE
  5
51
102
{ACAD_REACTORS
330
47
102
}
330
47
100
AcDbScale
 70
     0
300
1:40
140
1.0
141
40.0
290
     0
  0
SCALE
  5
52
102
{ACAD_REACTORS
330
47
102
}
330
47
100
AcDbScale
 70
     0
300
1:50
140
1.0
141
50.0
290
     0
  0
SCALE
  5
53
102
{ACAD_REACTORS
330
47
102
}
330
47
100
AcDbScale
 70
     0
300
1:100
140
1.0
141
100.0
290
     0
  0
SCALE
  5
54
102
{ACAD_REACTORS
330
47
102
}
330
47
100
AcDbScale
 70
     0
300
2:1
140
2.0
141
1.0
290
     0
  0
SCALE
  5
55
102
{ACAD_REACTORS
330
47
102
}
330
47
100
AcDbScale
 70
     0
300
4:1
140
4.0
141
1.0
290
     0
  0
SCALE
  5
56
102
{ACAD_REACTORS
330
47
102
}
330
47
100
AcDbScale
 70
     0
300
8:1
140
8.0
141
1.0
290
     0
  0
SCALE
  5
57
102
{ACAD_REACTORS
330
47
102
}
330
47
100
AcDbScale
 70
     0
300
10:1
140
10.0
141
1.0
290
     0
  0
SCALE
  5
58
102
{ACAD_REACTORS
330
47
102
}
330
47
100
AcDbScale
 70
     0
300
100:1
140
100.0
141
1.0
290
     0
  0
SCALE
  5
59
102
{ACAD_REACTORS
330
47
102
}
330
47
100
AcDbScale
 70
     0
300
1/128" = 1'-0"
140
0.0078125
141
12.0
290
     0
  0
SCALE
  5
5A
102
{ACAD_REACTORS
330
47
102
}
330
47
100
AcDbScale
 70
     0
300
1/64" = 1'-0"
140
0.015625
141
12.0
290
     0
  0
SCALE
  5
5B
102
{ACAD_REACTORS
330
47
102
}
330
47
100
AcDbScale
 70
     0
300
1/32" = 1'-0"
140
0.03125
141
12.0
290
     0
  0
SCALE
  5
5C
102
{ACAD_REACTORS
330
47
102
}
330
47
100
AcDbScale
 70
     0
300
1/16" = 1'-0"
140
0.0625
141
12.0
290
     0
  0
SCALE
  5
5D
102
{ACAD_REACTORS
330
47
102
}
330
47
100
AcDbScale
 70
     0
300
3/32" = 1'-0"
140
0.09375
141
12.0
290
     0
  0
SCALE
  5
5E
102
{ACAD_REACTORS
330
47
102
}
330
47
100
AcDbScale
 70
     0
300
1/8" = 1'-0"
140
0.125
141
12.0
290
     0
  0
SCALE
  5
5F
102
{ACAD_REACTORS
330
47
102
}
330
47
100
AcDbScale
 70
     0
300
3/16" = 1'-0"
140
0.1875
141
12.0
290
     0
  0
SCALE
  5
60
102
{ACAD_REACTORS
330
47
102
}
330
47
100
AcDbScale
 70
     0
300
1/4" = 1'-0"
140
0.25
141
12.0
290
     0
  0
SCALE
  5
61
102
{ACAD_REACTORS
330
47
102
}
330
47
100
AcDbScale
 70
     0
300
3/8" = 1'-0"
140
0.375
141
12.0
290
     0
  0
SCALE
  5
62
102
{ACAD_REACTORS
330
47
102
}
330
47
100
AcDbScale
 70
     0
300
1/2" = 1'-0"
140
0.5
141
12.0
290
     0
  0
SCALE
  5
63
102
{ACAD_REACTORS
330
47
102
}
330
47
100
AcDbScale
 70
     0
300
3/4" = 1'-0"
140
0.75
141
12.0
290
     0
  0
SCALE
  5
64
102
{ACAD_REACTORS
330
47
102
}
330
47
100
AcDbScale
 70
     0
300
1" = 1'-0"
140
1.0
141
12.0
290
     0
  0
SCALE
  5
65
102
{ACAD_REACTORS
330
47
102
}
330
47
100
AcDbScale
 70
     0
300
1-1/2" = 1'-0"
140
1.5
141
12.0
290
     0
  0
SCALE
  5
66
102
{ACAD_REACTORS
330
47
102
}
330
47
100
AcDbScale
 70
     0
300
3" = 1'-0"
140
3.0
141
12.0
290
     0
  0
SCALE
  5
67
102
{ACAD_REACTORS
330
47
102
}
330
47
100
AcDbScale
 70
     0
300
6" = 1'-0"
140
6.0
141
12.0
290
     0
  0
SCALE
  5
68
102
{ACAD_REACTORS
330
47
102
}
330
47
100
AcDbScale
 70
     0
300
1'-0" = 1'-0"
140
12.0
141
12.0
290
     0
  0
ENDSEC
  0
EOF
