  0
SECTION
  2
HEADER
  9
$ACADVER
  1
AC1015
  9
$ACADMAINTVER
 70
     6
  9
$DWGCODEPAGE
  3
ANSI_949
  9
$INSBASE
 10
0.0
 20
0.0
 30
0.0
  9
$EXTMIN
 10
-46.28475830449802
 20
-39.99892507127611
 30
0.0
  9
$EXTMAX
 10
81.21241335422454
 20
41.17000000000003
 30
0.0
  9
$LIMMIN
 10
0.0
 20
0.0
  9
$LIMMAX
 10
420.0
 20
297.0
  9
$ORTHOMODE
 70
     1
  9
$REGENMODE
 70
     1
  9
$FILLMODE
 70
     1
  9
$QTEXTMODE
 70
     0
  9
$MIRRTEXT
 70
     1
  9
$LTSCALE
 40
1.0
  9
$ATTMODE
 70
     1
  9
$TEXTSIZE
 40
3.5
  9
$TRACEWID
 40
1.0
  9
$TEXTSTYLE
  7
Standard
  9
$CLAYER
  8
0
  9
$CELTYPE
  6
ByLayer
  9
$CECOLOR
 62
   256
  9
$CELTSCALE
 40
1.0
  9
$DISPSILH
 70
     0
  9
$DIMSCALE
 40
1.0
  9
$DIMASZ
 40
3.302
  9
$DIMEXO
 40
1.0
  9
$DIMDLI
 40
3.75
  9
$DIMRND
 40
0.0
  9
$DIMDLE
 40
0.0
  9
$DIMEXE
 40
1.0
  9
$DIMTP
 40
0.0
  9
$DIMTM
 40
0.0
  9
$DIMTXT
 40
3.5
  9
$DIMCEN
 40
2.5
  9
$DIMTSZ
 40
0.0
  9
$DIMTOL
 70
     0
  9
$DIMLIM
 70
     0
  9
$DIMTIH
 70
     1
  9
$DIMTOH
 70
     1
  9
$DIMSE1
 70
     0
  9
$DIMSE2
 70
     0
  9
$DIMTAD
 70
     1
  9
$DIMZIN
 70
     0
  9
$DIMBLK
  1

  9
$DIMASO
 70
     1
  9
$DIMSHO
 70
     1
  9
$DIMPOST
  1

  9
$DIMAPOST
  1

  9
$DIMALT
 70
     0
  9
$DIMALTD
 70
     3
  9
$DIMALTF
 40
0.0393700787401575
  9
$DIMLFAC
 40
1.0
  9
$DIMTOFL
 70
     1
  9
$DIMTVP
 40
0.0
  9
$DIMTIX
 70
     0
  9
$DIMSOXD
 70
     0
  9
$DIMSAH
 70
     0
  9
$DIMBLK1
  1

  9
$DIMBLK2
  1

  9
$DIMSTYLE
  2
ISO-25
  9
$DIMCLRD
 70
     0
  9
$DIMCLRE
 70
     0
  9
$DIMCLRT
 70
     0
  9
$DIMTFAC
 40
1.0
  9
$DIMGAP
 40
1.524
  9
$DIMJUST
 70
     0
  9
$DIMSD1
 70
     0
  9
$DIMSD2
 70
     0
  9
$DIMTOLJ
 70
     0
  9
$DIMTZIN
 70
     0
  9
$DIMALTZ
 70
     0
  9
$DIMALTTZ
 70
     0
  9
$DIMUPT
 70
     0
  9
$DIMDEC
 70
     2
  9
$DIMTDEC
 70
     2
  9
$DIMALTU
 70
     2
  9
$DIMALTTD
 70
     3
  9
$DIMTXSTY
  7
Standard
  9
$DIMAUNIT
 70
     0
  9
$DIMADEC
 70
     2
  9
$DIMALTRND
 40
0.0
  9
$DIMAZIN
 70
     0
  9
$DIMDSEP
 70
    44
  9
$DIMATFIT
 70
     3
  9
$DIMFRAC
 70
     0
  9
$DIMLDRBLK
  1

  9
$DIMLUNIT
 70
     2
  9
$DIMLWD
 70
    -2
  9
$DIMLWE
 70
    -2
  9
$DIMTMOVE
 70
     0
  9
$LUNITS
 70
     2
  9
$LUPREC
 70
     2
  9
$SKETCHINC
 40
1.0
  9
$FILLETRAD
 40
10.0
  9
$AUNITS
 70
     0
  9
$AUPREC
 70
     2
  9
$MENU
  1
.
  9
$ELEVATION
 40
0.0
  9
$PELEVATION
 40
0.0
  9
$THICKNESS
 40
0.0
  9
$LIMCHECK
 70
     0
  9
$CHAMFERA
 40
0.0
  9
$CHAMFERB
 40
0.0
  9
$CHAMFERC
 40
0.0
  9
$CHAMFERD
 40
0.0
  9
$SKPOLY
 70
     0
  9
$TDCREATE
 40
2458313.425590671
  9
$TDUCREATE
 40
2458313.050590671
  9
$TDUPDATE
 40
2459719.640365058
  9
$TDUUPDATE
 40
2459719.265365058
  9
$TDINDWG
 40
0.0013987731
  9
$TDUSRTIMER
 40
0.0001488889
  9
$USRTIMER
 70
     1
  9
$ANGBASE
 50
0.0
  9
$ANGDIR
 70
     0
  9
$PDMODE
 70
     0
  9
$PDSIZE
 40
-1.0
  9
$PLINEWID
 40
0.0
  9
$SPLFRAME
 70
     0
  9
$SPLINETYPE
 70
     6
  9
$SPLINESEGS
 70
     8
  9
$HANDSEED
  5
350
  9
$SURFTAB1
 70
     6
  9
$SURFTAB2
 70
     6
  9
$SURFTYPE
 70
     6
  9
$SURFU
 70
     6
  9
$SURFV
 70
     6
  9
$UCSBASE
  2

  9
$UCSNAME
  2

  9
$UCSORG
 10
0.0
 20
0.0
 30
0.0
  9
$UCSXDIR
 10
1.0
 20
0.0
 30
0.0
  9
$UCSYDIR
 10
0.0
 20
1.0
 30
0.0
  9
$UCSORTHOREF
  2

  9
$UCSORTHOVIEW
 70
     0
  9
$UCSORGTOP
 10
0.0
 20
0.0
 30
0.0
  9
$UCSORGBOTTOM
 10
0.0
 20
0.0
 30
0.0
  9
$UCSORGLEFT
 10
0.0
 20
0.0
 30
0.0
  9
$UCSORGRIGHT
 10
0.0
 20
0.0
 30
0.0
  9
$UCSORGFRONT
 10
0.0
 20
0.0
 30
0.0
  9
$UCSORGBACK
 10
0.0
 20
0.0
 30
0.0
  9
$PUCSBASE
  2

  9
$PUCSNAME
  2

  9
$PUCSORG
 10
0.0
 20
0.0
 30
0.0
  9
$PUCSXDIR
 10
1.0
 20
0.0
 30
0.0
  9
$PUCSYDIR
 10
0.0
 20
1.0
 30
0.0
  9
$PUCSORTHOREF
  2

  9
$PUCSORTHOVIEW
 70
     0
  9
$PUCSORGTOP
 10
0.0
 20
0.0
 30
0.0
  9
$PUCSORGBOTTOM
 10
0.0
 20
0.0
 30
0.0
  9
$PUCSORGLEFT
 10
0.0
 20
0.0
 30
0.0
  9
$PUCSORGRIGHT
 10
0.0
 20
0.0
 30
0.0
  9
$PUCSORGFRONT
 10
0.0
 20
0.0
 30
0.0
  9
$PUCSORGBACK
 10
0.0
 20
0.0
 30
0.0
  9
$USERI1
 70
     0
  9
$USERI2
 70
     0
  9
$USERI3
 70
     0
  9
$USERI4
 70
     0
  9
$USERI5
 70
     0
  9
$USERR1
 40
0.0
  9
$USERR2
 40
0.0
  9
$USERR3
 40
0.0
  9
$USERR4
 40
0.0
  9
$USERR5
 40
0.0
  9
$WORLDVIEW
 70
     1
  9
$SHADEDGE
 70
     3
  9
$SHADEDIF
 70
    70
  9
$TILEMODE
 70
     1
  9
$MAXACTVP
 70
    64
  9
$PINSBASE
 10
0.0
 20
0.0
 30
0.0
  9
$PLIMCHECK
 70
     0
  9
$PEXTMIN
 10
1.000000000000000E+20
 20
1.000000000000000E+20
 30
1.000000000000000E+20
  9
$PEXTMAX
 10
-1.000000000000000E+20
 20
-1.000000000000000E+20
 30
-1.000000000000000E+20
  9
$PLIMMIN
 10
0.0
 20
0.0
  9
$PLIMMAX
 10
0.0
 20
0.0
  9
$UNITMODE
 70
     0
  9
$VISRETAIN
 70
     1
  9
$PLINEGEN
 70
     0
  9
$PSLTSCALE
 70
     1
  9
$TREEDEPTH
 70
  3020
  9
$CMLSTYLE
  2
Standard
  9
$CMLJUST
 70
     0
  9
$CMLSCALE
 40
20.0
  9
$PROXYGRAPHICS
 70
     1
  9
$MEASUREMENT
 70
     1
  9
$CELWEIGHT
370
    -1
  9
$ENDCAPS
280
     0
  9
$JOINSTYLE
280
     0
  9
$LWDISPLAY
290
     1
  9
$INSUNITS
 70
     4
  9
$HYPERLINKBASE
  1

  9
$STYLESHEET
  1

  9
$XEDIT
290
     1
  9
$CEPSNTYPE
380
     0
  9
$PSTYLEMODE
290
     1
  9
$FINGERPRINTGUID
  2
{FE54E0B2-EC12-48BC-B1F5-4C0FB5588F1C}
  9
$VERSIONGUID
  2
{FAEB1C32-E019-11D5-929B-00C0DF256EC4}
  9
$EXTNAMES
290
     1
  9
$PSVPSCALE
 40
0.0
  9
$OLESTARTUP
290
     0
  0
ENDSEC
  0
SECTION
  2
CLASSES
  0
CLASS
  1
ACDBDICTIONARYWDFLT
  2
AcDbDictionaryWithDefault
  3
ObjectDBX Classes
 90
        0
280
     0
281
     0
  0
CLASS
  1
VISUALSTYLE
  2
AcDbVisualStyle
  3
ObjectDBX Classes
 90
     4095
280
     0
281
     0
  0
CLASS
  1
MATERIAL
  2
AcDbMaterial
  3
ObjectDBX Classes
 90
     1153
280
     0
281
     0
  0
CLASS
  1
SCALE
  2
AcDbScale
  3
ObjectDBX Classes
 90
     1153
280
     0
281
     0
  0
CLASS
  1
SUN
  2
AcDbSun
  3
SCENEOE
 90
     1153
280
     0
281
     0
  0
CLASS
  1
ACDBPLACEHOLDER
  2
AcDbPlaceHolder
  3
ObjectDBX Classes
 90
        0
280
     0
281
     0
  0
CLASS
  1
LAYOUT
  2
AcDbLayout
  3
ObjectDBX Classes
 90
        0
280
     0
281
     0
  0
CLASS
  1
TABLESTYLE
  2
AcDbTableStyle
  3
ObjectDBX Classes
 90
     4095
280
     0
281
     0
  0
CLASS
  1
MLEADERSTYLE
  2
AcDbMLeaderStyle
  3
ACDB_MLEADERSTYLE_CLASS
 90
     4095
280
     0
281
     0
  0
CLASS
  1
RASTERVARIABLES
  2
AcDbRasterVariables
  3
ISM
 90
        0
280
     0
281
     0
  0
ENDSEC
  0
SECTION
  2
TABLES
  0
TABLE
  2
VPORT
  5
8
330
0
100
AcDbSymbolTable
 70
     1
  0
VPORT
  5
29
330
8
100
AcDbSymbolTableRecord
100
AcDbViewportTableRecord
  2
*Active
 70
     0
 10
0.0
 20
0.0
 11
1.0
 21
1.0
 12
0.9586771854253868
 22
6.719914842468611
 13
0.0
 23
0.0
 14
10.0
 24
10.0
 15
10.0
 25
10.0
 16
0.0
 26
0.0
 36
1.0
 17
0.0
 27
0.0
 37
0.0
 40
87.941949189566
 41
1.519944979367263
 42
50.0
 43
0.0
 44
0.0
 50
0.0
 51
0.0
 71
    16
 72
  2000
 73
     1
 74
     3
 75
     0
 76
     0
 77
     0
 78
     0
281
     0
 65
     1
110
0.0
120
0.0
130
0.0
111
1.0
121
0.0
131
0.0
112
0.0
122
1.0
132
0.0
 79
     0
146
0.0
  0
ENDTAB
  0
TABLE
  2
LTYPE
  5
5
330
0
100
AcDbSymbolTable
 70
     6
  0
LTYPE
  5
14
330
5
100
AcDbSymbolTableRecord
100
AcDbLinetypeTableRecord
  2
ByBlock
 70
     0
  3

 72
    65
 73
     0
 40
0.0
  0
LTYPE
  5
15
330
5
100
AcDbSymbolTableRecord
100
AcDbLinetypeTableRecord
  2
ByLayer
 70
     0
  3

 72
    65
 73
     0
 40
0.0
  0
LTYPE
  5
16
330
5
100
AcDbSymbolTableRecord
100
AcDbLinetypeTableRecord
  2
Continuous
 70
     0
  3
Solid line
 72
    65
 73
     0
 40
0.0
  0
LTYPE
  5
6A
330
5
100
AcDbSymbolTableRecord
100
AcDbLinetypeTableRecord
  2
HIDDEN
 70
     0
  3
Hidden __ __ __ __ __ __ __ __ __ __ __ __ __ __
 72
    65
 73
     2
 40
1.905
 49
1.27
 74
     0
 49
-0.635
 74
     0
  0
LTYPE
  5
6B
330
5
100
AcDbSymbolTableRecord
100
AcDbLinetypeTableRecord
  2
PHANTOM
 70
     0
  3
Phantom ______  __  __  ______  __  __  ______
 72
    65
 73
     6
 40
12.7
 49
6.35
 74
     0
 49
-1.27
 74
     0
 49
1.27
 74
     0
 49
-1.27
 74
     0
 49
1.27
 74
     0
 49
-1.27
 74
     0
  0
LTYPE
  5
6C
330
5
100
AcDbSymbolTableRecord
100
AcDbLinetypeTableRecord
  2
CENTER
 70
     0
  3
Center ____ _ ____ _ ____ _ ____ _ ____ _ ____
 72
    65
 73
     4
 40
10.16
 49
6.35
 74
     0
 49
-1.27
 74
     0
 49
1.27
 74
     0
 49
-1.27
 74
     0
  0
LTYPE
  5
6D
330
5
100
AcDbSymbolTableRecord
100
AcDbLinetypeTableRecord
  2
CENTERX2
 70
     0
  3
Center (2x) ________  __  ________  __  _____
 72
    65
 73
     4
 40
20.32
 49
12.7
 74
     0
 49
-2.54
 74
     0
 49
2.54
 74
     0
 49
-2.54
 74
     0
  0
LTYPE
  5
6E
330
5
100
AcDbSymbolTableRecord
100
AcDbLinetypeTableRecord
  2
DOT2
 70
     0
  3
Dot (.5x) ........................................
 72
    65
 73
     2
 40
0.635
 49
0.0
 74
     0
 49
-0.635
 74
     0
  0
ENDTAB
  0
TABLE
  2
LAYER
  5
2
102
{ACAD_XDICTIONARY
360
213
102
}
330
0
100
AcDbSymbolTable
 70
    18
  0
LAYER
  5
10
330
2
100
AcDbSymbolTableRecord
100
AcDbLayerTableRecord
  2
0
 70
     0
 62
     7
  6
Continuous
370
    -3
390
F
  0
LAYER
  5
6F
330
2
100
AcDbSymbolTableRecord
100
AcDbLayerTableRecord
  2
FORMAT
 70
     0
 62
     2
  6
Continuous
370
    -3
390
F
  0
LAYER
  5
70
330
2
100
AcDbSymbolTableRecord
100
AcDbLayerTableRecord
  2
외형선
 70
     0
 62
     4
  6
Continuous
370
    30
390
F
  0
LAYER
  5
71
330
2
100
AcDbSymbolTableRecord
100
AcDbLayerTableRecord
  2
숨은선
 70
     0
 62
     2
  6
HIDDEN
370
    15
390
F
  0
LAYER
  5
72
330
2
100
AcDbSymbolTableRecord
100
AcDbLayerTableRecord
  2
중심선
 70
     0
 62
     1
  6
CENTERX2
370
    -3
390
F
  0
LAYER
  5
73
330
2
100
AcDbSymbolTableRecord
100
AcDbLayerTableRecord
  2
파단선
 70
     0
 62
     4
  6
Continuous
370
    -3
390
F
  0
LAYER
  5
74
330
2
100
AcDbSymbolTableRecord
100
AcDbLayerTableRecord
  2
해칭선
 70
     0
 62
   100
  6
Continuous
370
    -3
390
F
  0
LAYER
  5
75
330
2
100
AcDbSymbolTableRecord
100
AcDbLayerTableRecord
  2
가는실선
 70
     0
 62
     4
  6
Continuous
370
    -3
390
F
  0
LAYER
  5
76
330
2
100
AcDbSymbolTableRecord
100
AcDbLayerTableRecord
  2
치수_보조선
 70
     0
 62
     4
  6
Continuous
370
    -3
390
F
  0
LAYER
  5
77
330
2
100
AcDbSymbolTableRecord
100
AcDbLayerTableRecord
  2
치수문자_일반주서
 70
     0
 62
     7
  6
Continuous
370
    15
390
F
  0
LAYER
  5
78
330
2
100
AcDbSymbolTableRecord
100
AcDbLayerTableRecord
  2
개별주서
 70
     0
 62
   100
  6
Continuous
370
    30
390
F
  0
LAYER
  5
79
330
2
100
AcDbSymbolTableRecord
100
AcDbLayerTableRecord
  2
중간선
 70
     0
 62
     2
  6
Continuous
370
    15
390
F
  0
LAYER
  5
7A
330
2
100
AcDbSymbolTableRecord
100
AcDbLayerTableRecord
  2
윤곽선
 70
     0
 62
     3
  6
Continuous
370
    40
390
F
  0
LAYER
  5
7B
330
2
100
AcDbSymbolTableRecord
100
AcDbLayerTableRecord
  2
중심마크
 70
     0
 62
   100
  6
Continuous
370
    30
390
F
  0
LAYER
  5
7C
330
2
100
AcDbSymbolTableRecord
100
AcDbLayerTableRecord
  2
가상선
 70
     0
 62
     4
  6
PHANTOM
370
    -3
390
F
  0
LAYER
  5
7D
330
2
100
AcDbSymbolTableRecord
100
AcDbLayerTableRecord
  2
특수지정선
 70
     0
 62
     5
  6
CENTERX2
370
    60
390
F
  0
LAYER
  5
7E
330
2
100
AcDbSymbolTableRecord
100
AcDbLayerTableRecord
  2
참조1
 70
     0
 62
    -4
  6
Continuous
370
    -3
390
F
  0
LAYER
  5
15B
330
2
100
AcDbSymbolTableRecord
100
AcDbLayerTableRecord
  2
Defpoints
 70
     0
 62
     7
  6
Continuous
290
     0
370
    -3
390
F
  0
ENDTAB
  0
TABLE
  2
STYLE
  5
3
330
0
100
AcDbSymbolTable
 70
     2
  0
STYLE
  5
11
330
3
100
AcDbSymbolTableRecord
100
AcDbTextStyleTableRecord
  2
Standard
 70
     0
 40
0.0
 41
1.0
 50
0.0
 71
     0
 42
3.5
  3
txt
  4

  0
STYLE
  5
94
330
3
100
AcDbSymbolTableRecord
100
AcDbTextStyleTableRecord
  2
SLDTEXTSTYLE0
 70
     0
 40
0.0
 41
0.75
 50
0.0
 71
     0
 42
3.5
  3
TXT
  4

  0
ENDTAB
  0
TABLE
  2
VIEW
  5
6
330
0
100
AcDbSymbolTable
 70
     0
  0
ENDTAB
  0
TABLE
  2
UCS
  5
7
330
0
100
AcDbSymbolTable
 70
     0
  0
ENDTAB
  0
TABLE
  2
APPID
  5
9
330
0
100
AcDbSymbolTable
 70
     3
  0
APPID
  5
12
330
9
100
AcDbSymbolTableRecord
100
AcDbRegAppTableRecord
  2
ACAD
 70
     0
  0
APPID
  5
167
330
9
100
AcDbSymbolTableRecord
100
AcDbRegAppTableRecord
  2
PE_URL
 70
     0
  0
APPID
  5
168
330
9
100
AcDbSymbolTableRecord
100
AcDbRegAppTableRecord
  2
ACAD_DSTYLE_DIMRADIAL_EXTENSION
 70
     0
  0
ENDTAB
  0
TABLE
  2
DIMSTYLE
  5
A
330
0
100
AcDbSymbolTable
 70
     4
100
AcDbDimStyleTable
  0
DIMSTYLE
105
27
330
A
100
AcDbSymbolTableRecord
100
AcDbDimStyleTableRecord
  2
ISO-25
 70
     0
 41
2.5
 42
0.625
 43
3.75
 44
1.25
 73
     0
 74
     0
 77
     1
 78
     8
140
2.5
141
2.5
143
0.03937007874016
147
0.625
171
     3
172
     1
178
     0
271
     2
272
     2
274
     3
278
    44
283
     0
284
     8
340
11
  0
DIMSTYLE
105
D8
102
{ACAD_REACTORS
330
D7
330
EC
330
100
330
115
102
}
330
A
100
AcDbSymbolTableRecord
100
AcDbDimStyleTableRecord
  2
SLDDIMSTYLE0
 70
     0
 41
3.302
 44
0.0
 45
0.000000001
 73
     0
 74
     0
 77
     1
 78
    12
 79
     3
140
3.5
143
0.0393700787401575
147
0.875
148
0.000000001
170
     1
172
     1
173
     1
178
     0
271
     2
272
     2
276
     2
284
    12
289
     0
340
94
  0
DIMSTYLE
105
101
102
{ACAD_REACTORS
102
}
330
A
100
AcDbSymbolTableRecord
100
AcDbDimStyleTableRecord
  2
SLDDIMSTYLE1
 70
     0
 41
3.302
 44
0.0
 45
0.000000001
 73
     0
 74
     0
 77
     1
 78
     4
 79
     1
140
3.5
143
0.0393700787401575
147
0.875
148
0.000000001
170
     1
173
     1
178
     0
271
     2
272
     2
276
     2
284
    12
340
94
  0
DIMSTYLE
105
166
102
{ACAD_REACTORS
102
}
330
A
100
AcDbSymbolTableRecord
100
AcDbDimStyleTableRecord
  2
SLDDIMSTYLE2
 70
     0
 41
3.302
 44
0.0
 45
0.000000001
 73
     0
 74
     0
 77
     1
 78
    12
 79
     3
140
3.5
147
0.875
172
     1
173
     1
178
     0
271
     2
272
     2
276
     2
284
    12
289
     0
340
94
  0
ENDTAB
  0
TABLE
  2
BLOCK_RECORD
  5
1
330
0
100
AcDbSymbolTable
 70
    20
  0
BLOCK_RECORD
  5
1F
102
{ACAD_XDICTIONARY
360
34D
102
}
330
1
100
AcDbSymbolTableRecord
100
AcDbBlockTableRecord
  2
*Model_Space
340
22
  0
BLOCK_RECORD
  5
1B
330
1
100
AcDbSymbolTableRecord
100
AcDbBlockTableRecord
  2
*Paper_Space
340
1E
  0
BLOCK_RECORD
  5
23
330
1
100
AcDbSymbolTableRecord
100
AcDbBlockTableRecord
  2
*Paper_Space0
340
26
  0
BLOCK_RECORD
  5
7F
330
1
100
AcDbSymbolTableRecord
100
AcDbBlockTableRecord
  2
블럭10
340
0
102
{BLKREFS
331
D0
102
}
  0
BLOCK_RECORD
  5
D9
330
1
100
AcDbSymbolTableRecord
100
AcDbBlockTableRecord
  2
_D
340
0
  0
BLOCK_RECORD
  5
ED
330
1
100
AcDbSymbolTableRecord
100
AcDbBlockTableRecord
  2
_D_1
340
0
  0
BLOCK_RECORD
  5
102
330
1
100
AcDbSymbolTableRecord
100
AcDbBlockTableRecord
  2
_D_2
340
0
  0
BLOCK_RECORD
  5
116
330
1
100
AcDbSymbolTableRecord
100
AcDbBlockTableRecord
  2
_D_3
340
0
  0
BLOCK_RECORD
  5
12F
330
1
100
AcDbSymbolTableRecord
100
AcDbBlockTableRecord
  2
SW_DOWELSYMBOL_0
340
0
102
{BLKREFS
331
135
102
}
  0
BLOCK_RECORD
  5
1F1
330
1
100
AcDbSymbolTableRecord
100
AcDbBlockTableRecord
  2
_D_4
340
0
  0
BLOCK_RECORD
  5
20B
330
1
100
AcDbSymbolTableRecord
100
AcDbBlockTableRecord
  2
*D8
340
0
  0
BLOCK_RECORD
  5
217
330
1
100
AcDbSymbolTableRecord
100
AcDbBlockTableRecord
  2
*D9
340
0
  0
BLOCK_RECORD
  5
223
330
1
100
AcDbSymbolTableRecord
100
AcDbBlockTableRecord
  2
*D10
340
0
  0
BLOCK_RECORD
  5
22F
330
1
100
AcDbSymbolTableRecord
100
AcDbBlockTableRecord
  2
*D11
340
0
  0
BLOCK_RECORD
  5
28A
330
1
100
AcDbSymbolTableRecord
100
AcDbBlockTableRecord
  2
*D12
340
0
  0
BLOCK_RECORD
  5
296
330
1
100
AcDbSymbolTableRecord
100
AcDbBlockTableRecord
  2
*D13
340
0
  0
BLOCK_RECORD
  5
2A2
330
1
100
AcDbSymbolTableRecord
100
AcDbBlockTableRecord
  2
*D14
340
0
  0
BLOCK_RECORD
  5
2B0
330
1
100
AcDbSymbolTableRecord
100
AcDbBlockTableRecord
  2
*D15
340
0
  0
BLOCK_RECORD
  5
2BE
330
1
100
AcDbSymbolTableRecord
100
AcDbBlockTableRecord
  2
*D16
340
0
  0
BLOCK_RECORD
  5
2FF
330
1
100
AcDbSymbolTableRecord
100
AcDbBlockTableRecord
  2
*D17
340
0
  0
BLOCK_RECORD
  5
30E
330
1
100
AcDbSymbolTableRecord
100
AcDbBlockTableRecord
  2
*D18
340
0
  0
BLOCK_RECORD
  5
31D
330
1
100
AcDbSymbolTableRecord
100
AcDbBlockTableRecord
  2
*D19
340
0
  0
ENDTAB
  0
ENDSEC
  0
SECTION
  2
BLOCKS
  0
BLOCK
  5
20
330
1F
100
AcDbEntity
  8
0
100
AcDbBlockBegin
  2
*Model_Space
 70
     0
 10
0.0
 20
0.0
 30
0.0
  3
*Model_Space
  1
*Model_Space
  0
ENDBLK
  5
21
330
1F
100
AcDbEntity
  8
0
100
AcDbBlockEnd
  0
BLOCK
  5
1C
330
1B
100
AcDbEntity
 67
     1
  8
0
100
AcDbBlockBegin
  2
*Paper_Space
 70
     0
 10
0.0
 20
0.0
 30
0.0
  3
*Paper_Space
  1
*Paper_Space
  0
ENDBLK
  5
1D
330
1B
100
AcDbEntity
 67
     1
  8
0
100
AcDbBlockEnd
  0
BLOCK
  5
24
330
23
100
AcDbEntity
  8
0
100
AcDbBlockBegin
  2
*Paper_Space0
 70
     0
 10
0.0
 20
0.0
 30
0.0
  3
*Paper_Space0
  1
*Paper_Space0
  0
ENDBLK
  5
25
330
23
100
AcDbEntity
  8
0
100
AcDbBlockEnd
  0
BLOCK
  5
80
330
7F
100
AcDbEntity
  8
0
100
AcDbBlockBegin
  2
블럭10
 70
     2
 10
0.0
 20
0.0
 30
0.0
  3
블럭10
  1
블럭10
  0
ELLIPSE
  5
82
330
7F
100
AcDbEntity
  8
중심선
100
AcDbEllipse
 10
20.54032771741204
 20
12.0471743016438
 30
0.0
 11
6.600054785286829
 21
-1.261213355974178E-13
 31
0.0
210
0.0
220
0.0
230
1.0
 40
0.636358354079598
 41
0.9219305317359503
 42
6.513795318482858
  0
ELLIPSE
  5
83
330
7F
100
AcDbEntity
  8
중심선
100
AcDbEllipse
 10
20.54032771746488
 20
12.04717430159265
 30
0.0
 11
3.960054785062283
 21
1.540847449632565E-10
 31
0.0
210
0.0
220
0.0
230
1.0
 40
0.3939339440162632
 41
1.131841032648279
 42
5.62031148352944
  0
LINE
  5
84
330
7F
100
AcDbEntity
  8
중심선
100
AcDbLine
 10
2.268634060543552
 20
16.24717430164393
 30
0.0
 11
5.714909304380834
 21
16.24717430164393
 31
0.0
  0
LINE
  5
85
330
7F
100
AcDbEntity
  8
중심선
100
AcDbLine
 10
5.245725140726316
 20
7.84717430164391
 30
0.0
 11
8.692000384563599
 21
7.84717430164391
 31
0.0
  0
LINE
  5
86
330
7F
100
AcDbEntity
  8
중심선
100
AcDbLine
 10
15.74043728645272
 20
16.24717430164393
 30
0.0
 11
8.692000384563599
 21
7.84717430164391
 31
0.0
  0
LINE
  5
87
330
7F
100
AcDbEntity
  8
중심선
100
AcDbLine
 10
0.1404042013395286
 20
13.71084872107135
 30
0.0
 11
3.58671253028996
 21
13.71088815037384
 31
0.0
  0
LINE
  5
88
330
7F
100
AcDbEntity
  8
중심선
100
AcDbLine
 10
2.750260043222114
 20
10.84717430164391
 30
0.0
 11
6.196535287059397
 21
10.84717430164391
 31
0.0
  0
LINE
  5
89
330
7F
100
AcDbEntity
  8
중심선
100
AcDbLine
 10
12.29416204261559
 20
16.24717430164393
 30
0.0
 11
5.245725140726316
 21
7.84717430164391
 31
0.0
  0
LINE
  5
8A
330
7F
100
AcDbEntity
  8
중심선
100
AcDbLine
 10
10.72767329541681
 20
16.24717430164393
 30
0.0
 11
6.196535287059397
 21
10.84717430164391
 31
0.0
  0
LINE
  5
8B
330
7F
100
AcDbEntity
  8
중심선
100
AcDbLine
 10
7.28139805157953
 20
16.24717430164393
 30
0.0
 11
2.750260043222114
 21
10.84717430164391
 31
0.0
  0
LINE
  5
8C
330
7F
100
AcDbEntity
  8
중심선
100
AcDbLine
 10
5.714909304380834
 20
16.24717430164393
 30
0.0
 11
3.58671253028996
 21
13.71088815037384
 31
0.0
  0
LINE
  5
8D
330
7F
100
AcDbEntity
  8
중심선
100
AcDbLine
 10
2.268634060543552
 20
16.24717430164393
 30
0.0
 11
0.1404042013395286
 21
13.71084872107135
 31
0.0
  0
LINE
  5
8E
330
7F
100
AcDbEntity
  8
중심선
100
AcDbLine
 10
7.28139805157953
 20
16.24717430164393
 30
0.0
 11
10.72767329541681
 21
16.24717430164393
 31
0.0
  0
LINE
  5
8F
330
7F
100
AcDbEntity
  8
중심선
100
AcDbLine
 10
12.29416204261559
 20
16.24717430164393
 30
0.0
 11
15.74043728645272
 21
16.24717430164393
 31
0.0
  0
LINE
  5
90
330
7F
100
AcDbEntity
  8
중심선
100
AcDbLine
 10
19.22036997980202
 20
11.08717430171403
 30
0.0
 11
23.66174974927406
 21
11.08717430171406
 31
0.0
  0
LINE
  5
91
330
7F
100
AcDbEntity
  8
중심선
100
AcDbLine
 10
19.22039502424796
 20
13.00717430171391
 30
0.0
 11
19.22036997980202
 21
11.08717430171403
 31
0.0
  0
LINE
  5
92
330
7F
100
AcDbEntity
  8
중심선
100
AcDbLine
 10
19.22039502424796
 20
13.00717430171391
 30
0.0
 11
26.96566020931264
 21
13.00717430171391
 31
0.0
  0
LINE
  5
93
330
7F
100
AcDbEntity
  8
중심선
100
AcDbLine
 10
22.22332737316547
 20
13.45928029700563
 30
0.0
 11
24.52862924686651
 21
15.39360700705356
 31
0.0
  0
ATTDEF
  5
95
330
7F
100
AcDbEntity
  8
FORMAT
 62
     2
100
AcDbText
 10
4.408487351596664
 20
2.075366912832191
 30
0.0
 40
4.233333333333333
  1
E5022014
 41
0.75
  7
SLDTEXTSTYLE0
 11
4.408487351596664
 21
-0.0412997538344756
 31
0.0
100
AcDbAttributeDefinition
  3

  2
AUTOATTR0
 70
     0
 74
     1
  0
ENDBLK
  5
81
330
7F
100
AcDbEntity
  8
0
100
AcDbBlockEnd
  0
BLOCK
  5
DA
330
D9
100
AcDbEntity
  8
0
100
AcDbBlockBegin
  2
_D
 70
     0
 10
0.0
 20
0.0
 30
0.0
  3
_D
  1
_D
  0
LINE
  5
DC
330
D9
100
AcDbEntity
  8
치수문자_일반주서
 62
     0
370
    -2
100
AcDbLine
 10
-16.63134233574608
 20
3.174999999999996
 30
0.0
 11
-41.90975830449791
 21
3.174999999999901
 31
0.0
  0
LINE
  5
DD
330
D9
100
AcDbEntity
  8
치수문자_일반주서
 62
     0
370
    -2
100
AcDbLine
 10
-16.63134233574608
 20
-3.175000000000003
 30
0.0
 11
-41.90975830449789
 21
-3.175000000000097
 31
0.0
  0
LINE
  5
DE
330
D9
100
AcDbEntity
  8
치수문자_일반주서
 62
     0
370
    -2
100
AcDbLine
 10
-41.90975830449791
 20
3.174999999999901
 30
0.0
 11
-41.90975830449802
 21
35.81024999999994
 31
0.0
  0
LINE
  5
DF
330
D9
100
AcDbEntity
  8
치수문자_일반주서
 62
     0
370
    -2
100
AcDbLine
 10
-41.90975830449791
 20
3.174999999999901
 30
0.0
 11
-41.90975830449789
 21
-3.175000000000097
 31
0.0
  0
LINE
  5
E0
330
D9
100
AcDbEntity
  8
치수문자_일반주서
 62
     0
370
    -2
100
AcDbLine
 10
-41.90975830449793
 20
6.476999999999901
 30
0.0
 11
-41.90975830449794
 21
9.7789999999999
 31
0.0
  0
LINE
  5
E1
330
D9
100
AcDbEntity
  8
치수문자_일반주서
 62
     0
370
    -2
100
AcDbLine
 10
-41.90975830449788
 20
-6.477000000000096
 30
0.0
 11
-41.90975830449786
 21
-9.779000000000096
 31
0.0
  0
SOLID
  5
E2
330
D9
100
AcDbEntity
  8
치수문자_일반주서
 62
     0
100
AcDbTrace
 10
-42.46009163783126
 20
6.476999999999899
 30
0.0
 11
-41.35942497116459
 21
6.476999999999903
 31
0.0
 12
-41.90975830449791
 22
3.174999999999901
 32
0.0
 13
-41.90975830449791
 23
3.174999999999901
 33
0.0
  0
SOLID
  5
E3
330
D9
100
AcDbEntity
  8
치수문자_일반주서
 62
     0
100
AcDbTrace
 10
-41.35942497116454
 20
-6.477000000000094
 30
0.0
 11
-42.46009163783121
 21
-6.477000000000098
 31
0.0
 12
-41.90975830449789
 22
-3.175000000000097
 32
0.0
 13
-41.90975830449789
 23
-3.175000000000097
 33
0.0
  0
MTEXT
  5
E4
330
D9
100
AcDbEntity
  8
치수문자_일반주서
 62
     0
100
AcDbMText
 10
-46.28475830449798
 20
23.12274999999993
 30
0.0
 40
3.5
 41
0.0
 71
     2
 72
     1
  1
\A1;%%c6.35 [1/4]
  7
SLDTEXTSTYLE0
 11
-3.356894814614647E-15
 21
1.0
 31
0.0
 73
     1
 44
1.0
  0
POINT
  5
2C8
330
D9
100
AcDbEntity
  8
Defpoints
 62
     0
100
AcDbPoint
 10
-16.56884233574608
 20
3.174999999999996
 30
0.0
  0
POINT
  5
2C9
330
D9
100
AcDbEntity
  8
Defpoints
 62
     0
100
AcDbPoint
 10
-16.56884233574608
 20
-3.175000000000002
 30
0.0
  0
POINT
  5
2CA
330
D9
100
AcDbEntity
  8
Defpoints
 62
     0
100
AcDbPoint
 10
-41.90975830449789
 20
-3.175000000000097
 30
0.0
  0
ENDBLK
  5
DB
330
D9
100
AcDbEntity
  8
0
100
AcDbBlockEnd
  0
BLOCK
  5
EE
330
ED
100
AcDbEntity
  8
0
100
AcDbBlockBegin
  2
_D_1
 70
     0
 10
0.0
 20
0.0
 30
0.0
  3
_D_1
  1
_D_1
  0
LINE
  5
F0
330
ED
100
AcDbEntity
  8
치수문자_일반주서
 62
     0
370
    -2
100
AcDbLine
 10
31.81250000000001
 20
-2.775776971059854
 30
0.0
 11
45.77484833663165
 21
-2.775776971059802
 31
0.0
  0
LINE
  5
F1
330
ED
100
AcDbEntity
  8
치수문자_일반주서
 62
     0
370
    -2
100
AcDbLine
 10
31.81250000000001
 20
2.775776971059856
 30
0.0
 11
45.77484833663163
 21
2.775776971059909
 31
0.0
  0
LINE
  5
F2
330
ED
100
AcDbEntity
  8
치수문자_일반주서
 62
     0
370
    -2
100
AcDbLine
 10
45.77484833663163
 20
2.775776971059909
 30
0.0
 11
45.77484833663149
 21
38.25477697105991
 31
0.0
  0
LINE
  5
F3
330
ED
100
AcDbEntity
  8
치수문자_일반주서
 62
     0
370
    -2
100
AcDbLine
 10
45.77484833663165
 20
-2.775776971059802
 30
0.0
 11
45.77484833663163
 21
2.775776971059909
 31
0.0
  0
LINE
  5
F4
330
ED
100
AcDbEntity
  8
치수문자_일반주서
 62
     0
370
    -2
100
AcDbLine
 10
45.77484833663166
 20
-6.077776971059802
 30
0.0
 11
45.77484833663168
 21
-9.379776971059801
 31
0.0
  0
LINE
  5
F5
330
ED
100
AcDbEntity
  8
치수문자_일반주서
 62
     0
370
    -2
100
AcDbLine
 10
45.77484833663161
 20
6.077776971059908
 30
0.0
 11
45.7748483366316
 21
9.379776971059908
 31
0.0
  0
SOLID
  5
F6
330
ED
100
AcDbEntity
  8
치수문자_일반주서
 62
     0
100
AcDbTrace
 10
46.325181669965
 20
-6.0777769710598
 30
0.0
 11
45.22451500329833
 21
-6.077776971059803
 31
0.0
 12
45.77484833663165
 22
-2.775776971059802
 32
0.0
 13
45.77484833663165
 23
-2.775776971059802
 33
0.0
  0
SOLID
  5
F7
330
ED
100
AcDbEntity
  8
치수문자_일반주서
 62
     0
100
AcDbTrace
 10
45.22451500329828
 20
6.077776971059906
 30
0.0
 11
46.32518166996495
 21
6.07777697105991
 31
0.0
 12
45.77484833663163
 22
2.775776971059909
 32
0.0
 13
45.77484833663163
 23
2.775776971059909
 33
0.0
  0
MTEXT
  5
F8
330
ED
100
AcDbEntity
  8
치수문자_일반주서
 62
     0
100
AcDbMText
 10
41.39984833663155
 20
23.81727697105989
 30
0.0
 40
3.5
 41
0.0
 71
     2
 72
     1
  1
\A1;%%c5.55 [7/32]
  7
SLDTEXTSTYLE0
 11
-3.839696469681417E-15
 21
1.0
 31
0.0
 73
     1
 44
1.0
  0
POINT
  5
F9
330
ED
100
AcDbEntity
  8
Defpoints
 62
     0
100
AcDbPoint
 10
31.75000000000001
 20
-2.775776971059855
 30
0.0
  0
POINT
  5
FA
330
ED
100
AcDbEntity
  8
Defpoints
 62
     0
100
AcDbPoint
 10
31.75000000000001
 20
2.775776971059855
 30
0.0
  0
POINT
  5
FB
330
ED
100
AcDbEntity
  8
Defpoints
 62
     0
100
AcDbPoint
 10
45.77484833663163
 20
2.775776971059908
 30
0.0
  0
ENDBLK
  5
EF
330
ED
100
AcDbEntity
  8
0
100
AcDbBlockEnd
  0
BLOCK
  5
103
330
102
100
AcDbEntity
  8
0
100
AcDbBlockBegin
  2
_D_2
 70
     0
 10
0.0
 20
0.0
 30
0.0
  3
_D_2
  1
_D_2
  0
LINE
  5
105
330
102
100
AcDbEntity
  8
치수문자_일반주서
 62
     0
370
    -2
100
AcDbLine
 10
31.75000000000001
 20
2.838276971059855
 30
0.0
 11
31.75000000000001
 21
17.18580548908831
 31
0.0
  0
LINE
  5
106
330
102
100
AcDbEntity
  8
치수문자_일반주서
 62
     0
370
    -2
100
AcDbLine
 10
19.05
 20
2.795163001717958
 30
0.0
 11
19.05
 21
17.18580548908831
 31
0.0
  0
LINE
  5
107
330
102
100
AcDbEntity
  8
치수문자_일반주서
 62
     0
370
    -2
100
AcDbLine
 10
19.05
 20
17.18580548908831
 30
0.0
 11
-9.8665
 21
17.18580548908831
 31
0.0
  0
LINE
  5
108
330
102
100
AcDbEntity
  8
치수문자_일반주서
 62
     0
370
    -2
100
AcDbLine
 10
31.75000000000001
 20
17.18580548908831
 30
0.0
 11
19.05
 21
17.18580548908831
 31
0.0
  0
LINE
  5
109
330
102
100
AcDbEntity
  8
치수문자_일반주서
 62
     0
370
    -2
100
AcDbLine
 10
35.05200000000001
 20
17.18580548908831
 30
0.0
 11
38.35400000000001
 21
17.18580548908831
 31
0.0
  0
LINE
  5
10A
330
102
100
AcDbEntity
  8
치수문자_일반주서
 62
     0
370
    -2
100
AcDbLine
 10
15.748
 20
17.18580548908831
 30
0.0
 11
12.446
 21
17.18580548908831
 31
0.0
  0
SOLID
  5
10B
330
102
100
AcDbEntity
  8
치수문자_일반주서
 62
     0
100
AcDbTrace
 10
35.05200000000001
 20
17.73613882242164
 30
0.0
 11
35.05200000000001
 21
16.63547215575498
 31
0.0
 12
31.75000000000001
 22
17.18580548908831
 32
0.0
 13
31.75000000000001
 23
17.18580548908831
 33
0.0
  0
SOLID
  5
10C
330
102
100
AcDbEntity
  8
치수문자_일반주서
 62
     0
100
AcDbTrace
 10
15.748
 20
16.63547215575498
 30
0.0
 11
15.748
 21
17.73613882242164
 31
0.0
 12
19.05
 22
17.18580548908831
 32
0.0
 13
19.05
 23
17.18580548908831
 33
0.0
  0
MTEXT
  5
10D
330
102
100
AcDbEntity
  8
치수문자_일반주서
 62
     0
100
AcDbMText
 10
1.071
 20
21.56080548908831
 30
0.0
 40
3.5
 41
0.0
 71
     2
 72
     1
  1
\A1;12.7 [1/2]
  7
SLDTEXTSTYLE0
 73
     1
 44
1.0
  0
POINT
  5
10E
330
102
100
AcDbEntity
  8
Defpoints
 62
     0
100
AcDbPoint
 10
31.75000000000001
 20
2.775776971059855
 30
0.0
  0
POINT
  5
10F
330
102
100
AcDbEntity
  8
Defpoints
 62
     0
100
AcDbPoint
 10
19.05
 20
2.732663001717958
 30
0.0
  0
POINT
  5
110
330
102
100
AcDbEntity
  8
Defpoints
 62
     0
100
AcDbPoint
 10
19.05
 20
17.18580548908831
 30
0.0
  0
ENDBLK
  5
104
330
102
100
AcDbEntity
  8
0
100
AcDbBlockEnd
  0
BLOCK
  5
117
330
116
100
AcDbEntity
  8
0
100
AcDbBlockBegin
  2
_D_3
 70
     0
 10
0.0
 20
0.0
 30
0.0
  3
_D_3
  1
_D_3
  0
LINE
  5
119
330
116
100
AcDbEntity
  8
치수문자_일반주서
 62
     0
370
    -2
100
AcDbLine
 10
-31.74999999999998
 20
2.83827697105985
 30
0.0
 11
-31.74999999999998
 21
36.79500000000002
 31
0.0
  0
LINE
  5
11A
330
116
100
AcDbEntity
  8
치수문자_일반주서
 62
     0
370
    -2
100
AcDbLine
 10
31.75000000000001
 20
2.838276971059855
 30
0.0
 11
31.75000000000001
 21
36.79500000000002
 31
0.0
  0
LINE
  5
11B
330
116
100
AcDbEntity
  8
치수문자_일반주서
 62
     0
370
    -2
100
AcDbLine
 10
-28.44799999999998
 20
36.79500000000002
 30
0.0
 11
28.44800000000001
 21
36.79500000000002
 31
0.0
  0
SOLID
  5
11C
330
116
100
AcDbEntity
  8
치수문자_일반주서
 62
     0
100
AcDbTrace
 10
-28.44799999999998
 20
37.34533333333336
 30
0.0
 11
-28.44799999999998
 21
36.24466666666669
 31
0.0
 12
-31.74999999999998
 22
36.79500000000002
 32
0.0
 13
-31.74999999999998
 23
36.79500000000002
 33
0.0
  0
SOLID
  5
11D
330
116
100
AcDbEntity
  8
치수문자_일반주서
 62
     0
100
AcDbTrace
 10
28.44800000000001
 20
36.24466666666669
 30
0.0
 11
28.44800000000001
 21
37.34533333333336
 31
0.0
 12
31.75000000000001
 22
36.79500000000002
 32
0.0
 13
31.75000000000001
 23
36.79500000000002
 33
0.0
  0
MTEXT
  5
11E
330
116
100
AcDbEntity
  8
치수문자_일반주서
 62
     0
100
AcDbMText
 10
0.0000000000000089
 20
41.17000000000002
 30
0.0
 40
3.5
 41
0.0
 71
     2
 72
     1
  1
\A1;63.5 [2 1/2]
  7
SLDTEXTSTYLE0
 73
     1
 44
1.0
  0
POINT
  5
11F
330
116
100
AcDbEntity
  8
Defpoints
 62
     0
100
AcDbPoint
 10
-31.74999999999998
 20
2.77577697105985
 30
0.0
  0
POINT
  5
120
330
116
100
AcDbEntity
  8
Defpoints
 62
     0
100
AcDbPoint
 10
31.75000000000001
 20
2.775776971059855
 30
0.0
  0
POINT
  5
121
330
116
100
AcDbEntity
  8
Defpoints
 62
     0
100
AcDbPoint
 10
31.75000000000001
 20
36.79500000000002
 30
0.0
  0
ENDBLK
  5
118
330
116
100
AcDbEntity
  8
0
100
AcDbBlockEnd
  0
BLOCK
  5
130
330
12F
100
AcDbEntity
  8
0
100
AcDbBlockBegin
  2
SW_DOWELSYMBOL_0
 70
     0
 10
0.0
 20
0.0
 30
0.0
  3
SW_DOWELSYMBOL_0
  1
SW_DOWELSYMBOL_0
  0
CIRCLE
  5
132
330
12F
100
AcDbEntity
  8
해칭선
 62
     0
100
AcDbCircle
 10
0.0
 20
0.0
 30
0.0
 40
3.000000000000001
  0
HATCH
  5
133
330
12F
100
AcDbEntity
  8
0
  6
Continuous
 62
     0
370
     0
100
AcDbHatch
 10
0.0
 20
0.0
 30
0.0
210
0.0
220
0.0
230
1.0
  2
SOLID
 70
     1
 71
     0
 91
        1
 92
        0
 93
        3
 72
     2
 10
0.0
 20
0.0
 40
3.000000000000001
 50
0.0
 51
90.0
 73
     1
 72
     1
 10
0.0
 20
3.000000000000001
 11
0.0
 21
0.0
 72
     1
 10
0.0
 20
0.0
 11
3.000000000000001
 21
0.0
 97
        0
 75
     0
 76
     1
 98
        1
 10
0.0
 20
0.0
  0
HATCH
  5
134
330
12F
100
AcDbEntity
  8
0
  6
Continuous
 62
     0
370
     0
100
AcDbHatch
 10
0.0
 20
0.0
 30
0.0
210
0.0
220
0.0
230
1.0
  2
SOLID
 70
     1
 71
     0
 91
        1
 92
        0
 93
        3
 72
     2
 10
0.0
 20
0.0
 40
3.000000000000001
 50
180.0
 51
270.0000000000007
 73
     1
 72
     1
 10
0.0
 20
-3.000000000000001
 11
0.0
 21
0.0
 72
     1
 10
0.0
 20
0.0
 11
-3.000000000000001
 21
0.0
 97
        0
 75
     0
 76
     1
 98
        1
 10
0.0
 20
0.0
  0
ENDBLK
  5
131
330
12F
100
AcDbEntity
  8
0
100
AcDbBlockEnd
  0
BLOCK
  5
1F2
330
1F1
100
AcDbEntity
  8
0
100
AcDbBlockBegin
  2
_D_4
 70
     0
 10
0.0
 20
0.0
 30
0.0
  3
_D_4
  1
_D_4
  0
LINE
  5
1F3
330
1F1
100
AcDbEntity
  8
치수문자_일반주서
 62
     0
370
    -2
100
AcDbLine
 10
102.4375000000001
 20
36.22143424691529
 30
0.0
 11
117.3750000000001
 21
36.22143424691535
 31
0.0
  0
LINE
  5
1F4
330
1F1
100
AcDbEntity
  8
치수문자_일반주서
 62
     0
370
    -2
100
AcDbLine
 10
102.4375000000001
 20
22.22143424691529
 30
0.0
 11
117.3750000000001
 21
22.22143424691535
 31
0.0
  0
LINE
  5
1F5
330
1F1
100
AcDbEntity
  8
치수문자_일반주서
 62
     0
370
    -2
100
AcDbLine
 10
117.3750000000001
 20
36.22143424691535
 30
0.0
 11
117.3750000000001
 21
22.22143424691535
 31
0.0
  0
LINE
  5
1F6
330
1F1
100
AcDbEntity
  8
치수문자_일반주서
 62
     0
370
    -2
100
AcDbLine
 10
117.3750000000001
 20
39.52343424691535
 30
0.0
 11
117.375
 21
42.82543424691535
 31
0.0
  0
LINE
  5
1F7
330
1F1
100
AcDbEntity
  8
치수문자_일반주서
 62
     0
370
    -2
100
AcDbLine
 10
117.3750000000001
 20
18.91943424691535
 30
0.0
 11
117.3750000000001
 21
15.61743424691535
 31
0.0
  0
SOLID
  5
1F8
330
1F1
100
AcDbEntity
  8
치수문자_일반주서
 62
     0
100
AcDbTrace
 10
116.8246666666667
 20
39.52343424691535
 30
0.0
 11
117.9253333333334
 21
39.52343424691535
 31
0.0
 12
117.3750000000001
 22
36.22143424691535
 32
0.0
 13
117.3750000000001
 23
36.22143424691535
 33
0.0
  0
SOLID
  5
1F9
330
1F1
100
AcDbEntity
  8
치수문자_일반주서
 62
     0
100
AcDbTrace
 10
117.9253333333335
 20
18.91943424691535
 30
0.0
 11
116.8246666666668
 21
18.91943424691535
 31
0.0
 12
117.3750000000001
 22
22.22143424691535
 32
0.0
 13
117.3750000000001
 23
22.22143424691535
 33
0.0
  0
MTEXT
  5
1FA
330
1F1
100
AcDbEntity
  8
치수문자_일반주서
 62
     0
100
AcDbMText
 10
113.0000000000001
 20
29.28713862862833
 30
0.0
 40
3.5
 41
0.0
 71
     2
 72
     1
  1
\A1;%%c14
  7
SLDTEXTSTYLE0
 11
-3.045183153257572E-15
 21
1.0
 31
0.0
 73
     1
 44
1.0
  0
POINT
  5
1FB
330
1F1
100
AcDbEntity
  8
Defpoints
 62
     0
100
AcDbPoint
 10
102.3750000000001
 20
36.22143424691529
 30
0.0
  0
POINT
  5
1FC
330
1F1
100
AcDbEntity
  8
Defpoints
 62
     0
100
AcDbPoint
 10
102.3750000000001
 20
22.22143424691529
 30
0.0
  0
POINT
  5
1FD
330
1F1
100
AcDbEntity
  8
Defpoints
 62
     0
100
AcDbPoint
 10
117.3750000000001
 20
22.22143424691535
 30
0.0
  0
ENDBLK
  5
1FE
330
1F1
100
AcDbEntity
  8
0
100
AcDbBlockEnd
  0
BLOCK
  5
20C
330
20B
100
AcDbEntity
  8
0
100
AcDbBlockBegin
  2
*D8
 70
     1
 10
0.0
 20
0.0
 30
0.0
  3
*D8
  1
*D8
  0
LINE
  5
20D
330
20B
100
AcDbEntity
  8
치수문자_일반주서
 62
     0
370
    -2
100
AcDbLine
 10
103.8657751816695
 20
19.48229575403651
 30
0.0
 11
120.1921280501954
 21
-7.081888143622854
 31
0.0
  0
MTEXT
  5
20E
330
20B
100
AcDbEntity
  8
치수문자_일반주서
 62
     0
100
AcDbMText
 10
115.6706384014277
 20
5.288158154535728
 30
0.0
 40
3.5
 41
0.0
 71
     5
 72
     1
  1
\A1;R.50 [R0.02]
  7
SLDTEXTSTYLE0
 11
0.5236126201129557
 21
-0.8519564684057781
 31
0.0
 73
     1
 44
1.0
  0
SOLID
  5
20F
330
20B
100
AcDbEntity
  8
치수문자_일반주서
 62
     0
100
AcDbTrace
 10
104.3346352247821
 20
19.77045723263868
 30
0.0
 11
103.3969151385569
 21
19.19413427543435
 31
0.0
 12
102.1368063100565
 22
22.29545601271239
 32
0.0
 13
102.1368063100565
 23
22.29545601271239
 33
0.0
  0
LINE
  5
210
330
20B
100
AcDbEntity
  8
치수문자_일반주서
 62
     0
100
AcDbLine
 10
101.785
 20
22.72143424691529
 30
0.0
 11
101.965
 21
22.72143424691529
 31
0.0
  0
LINE
  5
211
330
20B
100
AcDbEntity
  8
치수문자_일반주서
 62
     0
100
AcDbLine
 10
101.875
 20
22.63143424691529
 30
0.0
 11
101.875
 21
22.81143424691529
 31
0.0
  0
POINT
  5
23D
330
20B
100
AcDbEntity
  8
Defpoints
 62
     0
100
AcDbPoint
 10
102.1368063100565
 20
22.29545601271239
 30
0.0
  0
POINT
  5
23E
330
20B
100
AcDbEntity
  8
Defpoints
 62
     0
100
AcDbPoint
 10
101.875
 20
22.72143424691529
 30
0.0
  0
ENDBLK
  5
212
330
20B
100
AcDbEntity
  8
0
100
AcDbBlockEnd
  0
BLOCK
  5
218
330
217
100
AcDbEntity
  8
0
100
AcDbBlockBegin
  2
*D9
 70
     1
 10
0.0
 20
0.0
 30
0.0
  3
*D9
  1
*D10
  0
LINE
  5
21A
330
217
100
AcDbEntity
  8
치수문자_일반주서
 62
     0
370
    -2
100
AcDbLine
 10
19.37500000000004
 20
35.78393424691529
 30
0.0
 11
19.37500000000004
 21
70.88391841499404
 31
0.0
  0
LINE
  5
21B
330
217
100
AcDbEntity
  8
치수문자_일반주서
 62
     0
370
    -2
100
AcDbLine
 10
102.3750000000001
 20
36.34643424691529
 30
0.0
 11
102.3750000000001
 21
70.88391841499404
 31
0.0
  0
LINE
  5
21C
330
217
100
AcDbEntity
  8
치수문자_일반주서
 62
     0
370
    -2
100
AcDbLine
 10
22.67700000000004
 20
70.88391841499404
 30
0.0
 11
99.07300000000006
 21
70.88391841499404
 31
0.0
  0
SOLID
  5
21D
330
217
100
AcDbEntity
  8
치수문자_일반주서
 62
     0
100
AcDbTrace
 10
22.67700000000004
 20
71.43425174832737
 30
0.0
 11
22.67700000000004
 21
70.33358508166071
 31
0.0
 12
19.37500000000004
 22
70.88391841499404
 32
0.0
 13
19.37500000000004
 23
70.88391841499404
 33
0.0
  0
SOLID
  5
21E
330
217
100
AcDbEntity
  8
치수문자_일반주서
 62
     0
100
AcDbTrace
 10
99.07300000000006
 20
70.33358508166071
 30
0.0
 11
99.07300000000006
 21
71.43425174832737
 31
0.0
 12
102.3750000000001
 22
70.88391841499404
 32
0.0
 13
102.3750000000001
 23
70.88391841499404
 33
0.0
  0
MTEXT
  5
21F
330
217
100
AcDbEntity
  8
치수문자_일반주서
 62
     0
100
AcDbMText
 10
60.87500000000005
 20
75.25891841499404
 30
0.0
 40
3.5
 41
0.0
 71
     2
 72
     1
  1
\A1;83 [3.27]
  7
SLDTEXTSTYLE0
 73
     1
 44
1.0
  0
POINT
  5
220
330
217
100
AcDbEntity
  8
Defpoints
 62
     0
100
AcDbPoint
 10
19.37500000000004
 20
35.72143424691529
 30
0.0
  0
POINT
  5
221
330
217
100
AcDbEntity
  8
Defpoints
 62
     0
100
AcDbPoint
 10
102.3750000000001
 20
36.28393424691529
 30
0.0
  0
POINT
  5
222
330
217
100
AcDbEntity
  8
Defpoints
 62
     0
100
AcDbPoint
 10
102.3750000000001
 20
70.88391841499404
 30
0.0
  0
ENDBLK
  5
219
330
217
100
AcDbEntity
  8
0
100
AcDbBlockEnd
  0
BLOCK
  5
224
330
223
100
AcDbEntity
  8
0
100
AcDbBlockBegin
  2
*D10
 70
     1
 10
0.0
 20
0.0
 30
0.0
  3
*D10
  1
*D11
  0
LINE
  5
226
330
223
100
AcDbEntity
  8
치수문자_일반주서
 62
     0
370
    -2
100
AcDbLine
 10
76.37504186422882
 20
28.62038676313042
 30
0.0
 11
76.37504186422882
 21
61.90091383617725
 31
0.0
  0
LINE
  5
227
330
223
100
AcDbEntity
  8
치수문자_일반주서
 62
     0
370
    -2
100
AcDbLine
 10
102.3750000000001
 20
36.28393424691529
 30
0.0
 11
102.3750000000001
 21
61.90091383617725
 31
0.0
  0
LINE
  5
228
330
223
100
AcDbEntity
  8
치수문자_일반주서
 62
     0
370
    -2
100
AcDbLine
 10
79.67704186422881
 20
61.90091383617725
 30
0.0
 11
99.07300000000006
 21
61.90091383617725
 31
0.0
  0
SOLID
  5
229
330
223
100
AcDbEntity
  8
치수문자_일반주서
 62
     0
100
AcDbTrace
 10
79.67704186422881
 20
62.45124716951059
 30
0.0
 11
79.67704186422881
 21
61.35058050284392
 31
0.0
 12
76.37504186422882
 22
61.90091383617725
 32
0.0
 13
76.37504186422882
 23
61.90091383617725
 33
0.0
  0
SOLID
  5
22A
330
223
100
AcDbEntity
  8
치수문자_일반주서
 62
     0
100
AcDbTrace
 10
99.07300000000006
 20
61.35058050284392
 30
0.0
 11
99.07300000000006
 21
62.45124716951059
 31
0.0
 12
102.3750000000001
 22
61.90091383617725
 32
0.0
 13
102.3750000000001
 23
61.90091383617725
 33
0.0
  0
MTEXT
  5
22B
330
223
100
AcDbEntity
  8
치수문자_일반주서
 62
     0
100
AcDbMText
 10
89.42159572693208
 20
66.27591383617725
 30
0.0
 40
3.5
 41
0.0
 71
     2
 72
     1
  1
\A1;26 [1.02]
  7
SLDTEXTSTYLE0
 73
     1
 44
1.0
  0
POINT
  5
22C
330
223
100
AcDbEntity
  8
Defpoints
 62
     0
100
AcDbPoint
 10
76.37504186422882
 20
28.55788676313042
 30
0.0
  0
POINT
  5
22D
330
223
100
AcDbEntity
  8
Defpoints
 62
     0
100
AcDbPoint
 10
102.3750000000001
 20
36.22143424691529
 30
0.0
  0
POINT
  5
22E
330
223
100
AcDbEntity
  8
Defpoints
 62
     0
100
AcDbPoint
 10
102.3750000000001
 20
61.90091383617725
 30
0.0
  0
ENDBLK
  5
225
330
223
100
AcDbEntity
  8
0
100
AcDbBlockEnd
  0
BLOCK
  5
230
330
22F
100
AcDbEntity
  8
0
100
AcDbBlockBegin
  2
*D11
 70
     1
 10
0.0
 20
0.0
 30
0.0
  3
*D11
  1
*D12
  0
LINE
  5
232
330
22F
100
AcDbEntity
  8
치수문자_일반주서
 62
     0
370
    -2
100
AcDbLine
 10
19.81250000000005
 20
36.22143424691529
 30
0.0
 11
4.374999999999983
 21
36.22143424691524
 31
0.0
  0
LINE
  5
233
330
22F
100
AcDbEntity
  8
치수문자_일반주서
 62
     0
370
    -2
100
AcDbLine
 10
19.81250000000005
 20
22.22143424691529
 30
0.0
 11
4.375000000000032
 21
22.22143424691524
 31
0.0
  0
LINE
  5
234
330
22F
100
AcDbEntity
  8
치수문자_일반주서
 62
     0
370
    -2
100
AcDbLine
 10
4.374999999999983
 20
36.22143424691524
 30
0.0
 11
4.375000000000032
 21
22.22143424691524
 31
0.0
  0
LINE
  5
235
330
22F
100
AcDbEntity
  8
치수문자_일반주서
 62
     0
370
    -2
100
AcDbLine
 10
4.374999999999972
 20
39.52343424691524
 30
0.0
 11
4.37499999999996
 21
42.82543424691524
 31
0.0
  0
LINE
  5
236
330
22F
100
AcDbEntity
  8
치수문자_일반주서
 62
     0
370
    -2
100
AcDbLine
 10
4.375000000000044
 20
18.91943424691524
 30
0.0
 11
4.375000000000055
 21
15.61743424691524
 31
0.0
  0
SOLID
  5
237
330
22F
100
AcDbEntity
  8
치수문자_일반주서
 62
     0
100
AcDbTrace
 10
3.824666666666638
 20
39.52343424691524
 30
0.0
 11
4.925333333333305
 21
39.52343424691524
 31
0.0
 12
4.374999999999983
 22
36.22143424691524
 32
0.0
 13
4.374999999999983
 23
36.22143424691524
 33
0.0
  0
SOLID
  5
238
330
22F
100
AcDbEntity
  8
치수문자_일반주서
 62
     0
100
AcDbTrace
 10
4.925333333333377
 20
18.91943424691524
 30
0.0
 11
3.82466666666671
 21
18.91943424691523
 31
0.0
 12
4.375000000000032
 22
22.22143424691524
 32
0.0
 13
4.375000000000032
 23
22.22143424691524
 33
0.0
  0
MTEXT
  5
239
330
22F
100
AcDbEntity
  8
치수문자_일반주서
 62
     0
100
AcDbMText
 10
0.0000000000000071
 20
29.22143424691528
 30
0.0
 40
3.5
 41
0.0
 71
     2
 72
     1
  1
\A1;%%c14
  7
SLDTEXTSTYLE0
 11
-3.489272363107635E-15
 21
1.0
 31
0.0
 73
     1
 44
1.0
  0
POINT
  5
23A
330
22F
100
AcDbEntity
  8
Defpoints
 62
     0
100
AcDbPoint
 10
19.87500000000005
 20
36.22143424691529
 30
0.0
  0
POINT
  5
23B
330
22F
100
AcDbEntity
  8
Defpoints
 62
     0
100
AcDbPoint
 10
19.87500000000005
 20
22.22143424691529
 30
0.0
  0
POINT
  5
23C
330
22F
100
AcDbEntity
  8
Defpoints
 62
     0
100
AcDbPoint
 10
4.375000000000043
 20
22.22143424691524
 30
0.0
  0
ENDBLK
  5
231
330
22F
100
AcDbEntity
  8
0
100
AcDbBlockEnd
  0
BLOCK
  5
28B
330
28A
100
AcDbEntity
  8
0
100
AcDbBlockBegin
  2
*D12
 70
     1
 10
0.0
 20
0.0
 30
0.0
  3
*D12
  1
*D13
  0
LINE
  5
28D
330
28A
100
AcDbEntity
  8
치수문자_일반주서
 62
     0
370
    -2
100
AcDbLine
 10
-111.4686842866425
 20
103.8575156256568
 30
0.0
 11
-111.4686842866425
 21
138.9574997937355
 31
0.0
  0
LINE
  5
28E
330
28A
100
AcDbEntity
  8
치수문자_일반주서
 62
     0
370
    -2
100
AcDbLine
 10
-28.46868428664246
 20
104.4200156256568
 30
0.0
 11
-28.46868428664246
 21
138.9574997937355
 31
0.0
  0
LINE
  5
28F
330
28A
100
AcDbEntity
  8
치수문자_일반주서
 62
     0
370
    -2
100
AcDbLine
 10
-108.1666842866425
 20
138.9574997937355
 30
0.0
 11
-31.77068428664246
 21
138.9574997937355
 31
0.0
  0
SOLID
  5
290
330
28A
100
AcDbEntity
  8
치수문자_일반주서
 62
     0
100
AcDbTrace
 10
-108.1666842866425
 20
139.5078331270689
 30
0.0
 11
-108.1666842866425
 21
138.4071664604022
 31
0.0
 12
-111.4686842866425
 22
138.9574997937355
 32
0.0
 13
-111.4686842866425
 23
138.9574997937355
 33
0.0
  0
SOLID
  5
291
330
28A
100
AcDbEntity
  8
치수문자_일반주서
 62
     0
100
AcDbTrace
 10
-31.77068428664246
 20
138.4071664604022
 30
0.0
 11
-31.77068428664246
 21
139.5078331270689
 31
0.0
 12
-28.46868428664246
 22
138.9574997937355
 32
0.0
 13
-28.46868428664246
 23
138.9574997937355
 33
0.0
  0
MTEXT
  5
292
330
28A
100
AcDbEntity
  8
치수문자_일반주서
 62
     0
100
AcDbMText
 10
-69.96868428664246
 20
143.3324997937355
 30
0.0
 40
3.5
 41
0.0
 71
     2
 72
     1
  1
\A1;83 [3.27]
  7
SLDTEXTSTYLE0
 73
     1
 44
1.0
  0
POINT
  5
293
330
28A
100
AcDbEntity
  8
Defpoints
 62
     0
100
AcDbPoint
 10
-111.4686842866425
 20
103.7950156256568
 30
0.0
  0
POINT
  5
294
330
28A
100
AcDbEntity
  8
Defpoints
 62
     0
100
AcDbPoint
 10
-28.46868428664246
 20
104.3575156256568
 30
0.0
  0
POINT
  5
295
330
28A
100
AcDbEntity
  8
Defpoints
 62
     0
100
AcDbPoint
 10
-28.46868428664246
 20
138.9574997937355
 30
0.0
  0
ENDBLK
  5
28C
330
28A
100
AcDbEntity
  8
0
100
AcDbBlockEnd
  0
BLOCK
  5
297
330
296
100
AcDbEntity
  8
0
100
AcDbBlockBegin
  2
*D13
 70
     1
 10
0.0
 20
0.0
 30
0.0
  3
*D13
  1
*D14
  0
LINE
  5
299
330
296
100
AcDbEntity
  8
치수문자_일반주서
 62
     0
370
    -2
100
AcDbLine
 10
-54.46864242241369
 20
96.69396814187192
 30
0.0
 11
-54.46864242241369
 21
129.9744952149188
 31
0.0
  0
LINE
  5
29A
330
296
100
AcDbEntity
  8
치수문자_일반주서
 62
     0
370
    -2
100
AcDbLine
 10
-28.46868428664246
 20
104.3575156256568
 30
0.0
 11
-28.46868428664246
 21
129.9744952149188
 31
0.0
  0
LINE
  5
29B
330
296
100
AcDbEntity
  8
치수문자_일반주서
 62
     0
370
    -2
100
AcDbLine
 10
-51.16664242241369
 20
129.9744952149188
 30
0.0
 11
-31.77068428664246
 21
129.9744952149188
 31
0.0
  0
SOLID
  5
29C
330
296
100
AcDbEntity
  8
치수문자_일반주서
 62
     0
100
AcDbTrace
 10
-51.16664242241369
 20
130.5248285482521
 30
0.0
 11
-51.16664242241369
 21
129.4241618815854
 31
0.0
 12
-54.46864242241369
 22
129.9744952149188
 32
0.0
 13
-54.46864242241369
 23
129.9744952149188
 33
0.0
  0
SOLID
  5
29D
330
296
100
AcDbEntity
  8
치수문자_일반주서
 62
     0
100
AcDbTrace
 10
-31.77068428664246
 20
129.4241618815854
 30
0.0
 11
-31.77068428664246
 21
130.5248285482521
 31
0.0
 12
-28.46868428664246
 22
129.9744952149188
 32
0.0
 13
-28.46868428664246
 23
129.9744952149188
 33
0.0
  0
MTEXT
  5
29E
330
296
100
AcDbEntity
  8
치수문자_일반주서
 62
     0
100
AcDbMText
 10
-41.42208855971043
 20
134.3494952149188
 30
0.0
 40
3.5
 41
0.0
 71
     2
 72
     1
  1
\A1;26 [1.02]
  7
SLDTEXTSTYLE0
 73
     1
 44
1.0
  0
POINT
  5
29F
330
296
100
AcDbEntity
  8
Defpoints
 62
     0
100
AcDbPoint
 10
-54.46864242241369
 20
96.63146814187192
 30
0.0
  0
POINT
  5
2A0
330
296
100
AcDbEntity
  8
Defpoints
 62
     0
100
AcDbPoint
 10
-28.46868428664246
 20
104.2950156256568
 30
0.0
  0
POINT
  5
2A1
330
296
100
AcDbEntity
  8
Defpoints
 62
     0
100
AcDbPoint
 10
-28.46868428664246
 20
129.9744952149188
 30
0.0
  0
ENDBLK
  5
298
330
296
100
AcDbEntity
  8
0
100
AcDbBlockEnd
  0
BLOCK
  5
2A3
330
2A2
100
AcDbEntity
  8
0
100
AcDbBlockBegin
  2
*D14
 70
     1
 10
0.0
 20
0.0
 30
0.0
  3
*D14
  1
*D15
  0
LINE
  5
2A5
330
2A2
100
AcDbEntity
  8
치수문자_일반주서
 62
     0
370
    -2
100
AcDbLine
 10
-111.0311842866425
 20
104.2950156256568
 30
0.0
 11
-126.4686842866425
 21
104.2950156256567
 31
0.0
  0
LINE
  5
2A6
330
2A2
100
AcDbEntity
  8
치수문자_일반주서
 62
     0
370
    -2
100
AcDbLine
 10
-111.0311842866425
 20
90.29501562565679
 30
0.0
 11
-126.4686842866425
 21
90.29501562565673
 31
0.0
  0
LINE
  5
2A7
330
2A2
100
AcDbEntity
  8
치수문자_일반주서
 62
     0
370
    -2
100
AcDbLine
 10
-126.4686842866425
 20
104.2950156256567
 30
0.0
 11
-126.4686842866425
 21
90.29501562565673
 31
0.0
  0
LINE
  5
2A8
330
2A2
100
AcDbEntity
  8
치수문자_일반주서
 62
     0
370
    -2
100
AcDbLine
 10
-126.4686842866425
 20
107.5970156256567
 30
0.0
 11
-126.4686842866426
 21
110.8990156256567
 31
0.0
  0
LINE
  5
2A9
330
2A2
100
AcDbEntity
  8
치수문자_일반주서
 62
     0
370
    -2
100
AcDbLine
 10
-126.4686842866425
 20
86.99301562565672
 30
0.0
 11
-126.4686842866425
 21
83.69101562565672
 31
0.0
  0
SOLID
  5
2AA
330
2A2
100
AcDbEntity
  8
치수문자_일반주서
 62
     0
100
AcDbTrace
 10
-127.0190176199759
 20
107.5970156256567
 30
0.0
 11
-125.9183509533092
 21
107.5970156256567
 31
0.0
 12
-126.4686842866425
 22
104.2950156256567
 32
0.0
 13
-126.4686842866425
 23
104.2950156256567
 33
0.0
  0
SOLID
  5
2AB
330
2A2
100
AcDbEntity
  8
치수문자_일반주서
 62
     0
100
AcDbTrace
 10
-125.9183509533091
 20
86.99301562565672
 30
0.0
 11
-127.0190176199758
 21
86.99301562565672
 31
0.0
 12
-126.4686842866425
 22
90.29501562565673
 32
0.0
 13
-126.4686842866425
 23
90.29501562565673
 33
0.0
  0
MTEXT
  5
2AC
330
2A2
100
AcDbEntity
  8
치수문자_일반주서
 62
     0
100
AcDbMText
 10
-130.8436842866425
 20
97.29501562565677
 30
0.0
 40
3.5
 41
0.0
 71
     2
 72
     1
  1
\A1;%%c14
  7
SLDTEXTSTYLE0
 11
-3.045183153257572E-15
 21
1.0
 31
0.0
 73
     1
 44
1.0
  0
POINT
  5
2AD
330
2A2
100
AcDbEntity
  8
Defpoints
 62
     0
100
AcDbPoint
 10
-110.9686842866425
 20
104.2950156256568
 30
0.0
  0
POINT
  5
2AE
330
2A2
100
AcDbEntity
  8
Defpoints
 62
     0
100
AcDbPoint
 10
-110.9686842866425
 20
90.29501562565679
 30
0.0
  0
POINT
  5
2AF
330
2A2
100
AcDbEntity
  8
Defpoints
 62
     0
100
AcDbPoint
 10
-126.4686842866425
 20
90.29501562565673
 30
0.0
  0
ENDBLK
  5
2A4
330
2A2
100
AcDbEntity
  8
0
100
AcDbBlockEnd
  0
BLOCK
  5
2B1
330
2B0
100
AcDbEntity
  8
0
100
AcDbBlockBegin
  2
*D15
 70
     1
 10
0.0
 20
0.0
 30
0.0
  3
*D15
  1
*D16
  0
LINE
  5
2B3
330
2B0
100
AcDbEntity
  8
치수문자_일반주서
 62
     0
370
    -2
100
AcDbLine
 10
-28.40618428664244
 20
104.2950156256568
 30
0.0
 11
-13.46868428664245
 21
104.2950156256568
 31
0.0
  0
LINE
  5
2B4
330
2B0
100
AcDbEntity
  8
치수문자_일반주서
 62
     0
370
    -2
100
AcDbLine
 10
-28.40618428664246
 20
90.29501562565679
 30
0.0
 11
-13.4686842866424
 21
90.29501562565684
 31
0.0
  0
LINE
  5
2B5
330
2B0
100
AcDbEntity
  8
치수문자_일반주서
 62
     0
370
    -2
100
AcDbLine
 10
-13.46868428664245
 20
104.2950156256568
 30
0.0
 11
-13.4686842866424
 21
90.29501562565684
 31
0.0
  0
LINE
  5
2B6
330
2B0
100
AcDbEntity
  8
치수문자_일반주서
 62
     0
370
    -2
100
AcDbLine
 10
-13.46868428664247
 20
107.5970156256569
 30
0.0
 11
-13.46868428664248
 21
110.8990156256569
 31
0.0
  0
LINE
  5
2B7
330
2B0
100
AcDbEntity
  8
치수문자_일반주서
 62
     0
370
    -2
100
AcDbLine
 10
-13.46868428664239
 20
86.99301562565684
 30
0.0
 11
-13.46868428664238
 21
83.69101562565683
 31
0.0
  0
SOLID
  5
2B8
330
2B0
100
AcDbEntity
  8
치수문자_일반주서
 62
     0
100
AcDbTrace
 10
-14.0190176199758
 20
107.5970156256569
 30
0.0
 11
-12.91835095330913
 21
107.5970156256569
 31
0.0
 12
-13.46868428664245
 22
104.2950156256568
 32
0.0
 13
-13.46868428664245
 23
104.2950156256568
 33
0.0
  0
SOLID
  5
2B9
330
2B0
100
AcDbEntity
  8
치수문자_일반주서
 62
     0
100
AcDbTrace
 10
-12.91835095330906
 20
86.99301562565684
 30
0.0
 11
-14.01901761997572
 21
86.99301562565684
 31
0.0
 12
-13.4686842866424
 22
90.29501562565684
 32
0.0
 13
-13.4686842866424
 23
90.29501562565684
 33
0.0
  0
MTEXT
  5
2BA
330
2B0
100
AcDbEntity
  8
치수문자_일반주서
 62
     0
100
AcDbMText
 10
-17.84368428664243
 20
97.36072000736982
 30
0.0
 40
3.5
 41
0.0
 71
     2
 72
     1
  1
\A1;%%c14
  7
SLDTEXTSTYLE0
 11
-3.552713678800501E-15
 21
1.0
 31
0.0
 73
     1
 44
1.0
  0
POINT
  5
2BB
330
2B0
100
AcDbEntity
  8
Defpoints
 62
     0
100
AcDbPoint
 10
-28.46868428664244
 20
104.2950156256568
 30
0.0
  0
POINT
  5
2BC
330
2B0
100
AcDbEntity
  8
Defpoints
 62
     0
100
AcDbPoint
 10
-28.46868428664246
 20
90.29501562565679
 30
0.0
  0
POINT
  5
2BD
330
2B0
100
AcDbEntity
  8
Defpoints
 62
     0
100
AcDbPoint
 10
-13.4686842866424
 20
90.29501562565684
 30
0.0
  0
ENDBLK
  5
2B2
330
2B0
100
AcDbEntity
  8
0
100
AcDbBlockEnd
  0
BLOCK
  5
2BF
330
2BE
100
AcDbEntity
  8
0
100
AcDbBlockBegin
  2
*D16
 70
     1
 10
0.0
 20
0.0
 30
0.0
  3
*D16
  1
*D17
  0
LINE
  5
2C1
330
2BE
100
AcDbEntity
  8
치수문자_일반주서
 62
     0
370
    -2
100
AcDbLine
 10
-26.977909104973
 20
87.55587713277801
 30
0.0
 11
-10.65155623644717
 21
60.99169323511863
 31
0.0
  0
MTEXT
  5
2C2
330
2BE
100
AcDbEntity
  8
치수문자_일반주서
 62
     0
100
AcDbMText
 10
-15.17304588521484
 20
73.36173953327722
 30
0.0
 40
3.5
 41
0.0
 71
     5
 72
     1
  1
\A1;R.50 [R0.02]
  7
SLDTEXTSTYLE0
 11
0.5236126201129557
 21
-0.8519564684057781
 31
0.0
 73
     1
 44
1.0
  0
SOLID
  5
2C3
330
2BE
100
AcDbEntity
  8
치수문자_일반주서
 62
     0
100
AcDbTrace
 10
-26.50904906186036
 20
87.84403861138017
 30
0.0
 11
-27.44676914808565
 21
87.26771565417584
 31
0.0
 12
-28.70687797658599
 22
90.36903739145389
 32
0.0
 13
-28.70687797658599
 23
90.36903739145389
 33
0.0
  0
LINE
  5
2C4
330
2BE
100
AcDbEntity
  8
치수문자_일반주서
 62
     0
100
AcDbLine
 10
-29.05868428664247
 20
90.79501562565679
 30
0.0
 11
-28.87868428664247
 21
90.79501562565679
 31
0.0
  0
LINE
  5
2C5
330
2BE
100
AcDbEntity
  8
치수문자_일반주서
 62
     0
100
AcDbLine
 10
-28.96868428664247
 20
90.70501562565678
 30
0.0
 11
-28.96868428664247
 21
90.88501562565679
 31
0.0
  0
POINT
  5
2C6
330
2BE
100
AcDbEntity
  8
Defpoints
 62
     0
100
AcDbPoint
 10
-28.70687797658599
 20
90.36903739145389
 30
0.0
  0
POINT
  5
2C7
330
2BE
100
AcDbEntity
  8
Defpoints
 62
     0
100
AcDbPoint
 10
-28.96868428664247
 20
90.79501562565679
 30
0.0
  0
ENDBLK
  5
2C0
330
2BE
100
AcDbEntity
  8
0
100
AcDbBlockEnd
  0
BLOCK
  5
300
330
2FF
100
AcDbEntity
  8
0
100
AcDbBlockBegin
  2
*D17
 70
     1
 10
0.0
 20
0.0
 30
0.0
  3
*D17
  1
*D18
  0
LINE
  5
302
330
2FF
100
AcDbEntity
  8
치수문자_일반주서
 62
     0
370
    -2
100
AcDbLine
 10
123.1286028777657
 20
-53.04812168666614
 30
0.0
 11
137.0909512143974
 21
-53.04812168666609
 31
0.0
  0
LINE
  5
303
330
2FF
100
AcDbEntity
  8
치수문자_일반주서
 62
     0
370
    -2
100
AcDbLine
 10
123.1286028777657
 20
-47.49656774454643
 30
0.0
 11
137.0909512143974
 21
-47.49656774454638
 31
0.0
  0
LINE
  5
304
330
2FF
100
AcDbEntity
  8
치수문자_일반주서
 62
     0
370
    -2
100
AcDbLine
 10
137.0909512143974
 20
-47.49656774454638
 30
0.0
 11
137.0909512143972
 21
-14.20506774454638
 31
0.0
  0
LINE
  5
305
330
2FF
100
AcDbEntity
  8
치수문자_일반주서
 62
     0
370
    -2
100
AcDbLine
 10
137.0909512143974
 20
-53.04812168666609
 30
0.0
 11
137.0909512143974
 21
-47.49656774454638
 31
0.0
  0
LINE
  5
306
330
2FF
100
AcDbEntity
  8
치수문자_일반주서
 62
     0
370
    -2
100
AcDbLine
 10
137.0909512143974
 20
-56.35012168666609
 30
0.0
 11
137.0909512143974
 21
-59.65212168666609
 31
0.0
  0
LINE
  5
307
330
2FF
100
AcDbEntity
  8
치수문자_일반주서
 62
     0
370
    -2
100
AcDbLine
 10
137.0909512143973
 20
-44.19456774454638
 30
0.0
 11
137.0909512143973
 21
-40.89256774454638
 31
0.0
  0
SOLID
  5
308
330
2FF
100
AcDbEntity
  8
치수문자_일반주서
 62
     0
100
AcDbTrace
 10
137.6412845477307
 20
-56.35012168666609
 30
0.0
 11
136.5406178810641
 21
-56.35012168666609
 31
0.0
 12
137.0909512143974
 22
-53.04812168666609
 32
0.0
 13
137.0909512143974
 23
-53.04812168666609
 33
0.0
  0
SOLID
  5
309
330
2FF
100
AcDbEntity
  8
치수문자_일반주서
 62
     0
100
AcDbTrace
 10
136.540617881064
 20
-44.19456774454638
 30
0.0
 11
137.6412845477307
 21
-44.19456774454638
 31
0.0
 12
137.0909512143974
 22
-47.49656774454638
 32
0.0
 13
137.0909512143974
 23
-47.49656774454638
 33
0.0
  0
MTEXT
  5
30A
330
2FF
100
AcDbEntity
  8
치수문자_일반주서
 62
     0
100
AcDbMText
 10
132.7159512143973
 20
-27.5488177445464
 30
0.0
 40
3.5
 41
0.0
 71
     2
 72
     1
  1
\A1;%%c5.55 [0.22]
  7
SLDTEXTSTYLE0
 11
-5.119595292908556E-15
 21
1.0
 31
0.0
 73
     1
 44
1.0
  0
POINT
  5
30B
330
2FF
100
AcDbEntity
  8
Defpoints
 62
     0
100
AcDbPoint
 10
123.0661028777657
 20
-53.04812168666614
 30
0.0
  0
POINT
  5
30C
330
2FF
100
AcDbEntity
  8
Defpoints
 62
     0
100
AcDbPoint
 10
123.0661028777657
 20
-47.49656774454643
 30
0.0
  0
POINT
  5
30D
330
2FF
100
AcDbEntity
  8
Defpoints
 62
     0
100
AcDbPoint
 10
137.0909512143973
 20
-47.49656774454638
 30
0.0
  0
ENDBLK
  5
301
330
2FF
100
AcDbEntity
  8
0
100
AcDbBlockEnd
  0
BLOCK
  5
30F
330
30E
100
AcDbEntity
  8
0
100
AcDbBlockBegin
  2
*D18
 70
     1
 10
0.0
 20
0.0
 30
0.0
  3
*D18
  1
*D19
  0
LINE
  5
311
330
30E
100
AcDbEntity
  8
치수문자_일반주서
 62
     0
370
    -2
100
AcDbLine
 10
123.0661028777657
 20
-47.43406774454643
 30
0.0
 11
123.0661028777657
 21
-33.08653922651798
 31
0.0
  0
LINE
  5
312
330
30E
100
AcDbEntity
  8
치수문자_일반주서
 62
     0
370
    -2
100
AcDbLine
 10
110.3661028777657
 20
-47.47718171388833
 30
0.0
 11
110.3661028777657
 21
-33.08653922651798
 31
0.0
  0
LINE
  5
313
330
30E
100
AcDbEntity
  8
치수문자_일반주서
 62
     0
370
    -2
100
AcDbLine
 10
110.3661028777657
 20
-33.08653922651798
 30
0.0
 11
81.01210287776571
 21
-33.08653922651798
 31
0.0
  0
LINE
  5
314
330
30E
100
AcDbEntity
  8
치수문자_일반주서
 62
     0
370
    -2
100
AcDbLine
 10
123.0661028777657
 20
-33.08653922651798
 30
0.0
 11
110.3661028777657
 21
-33.08653922651798
 31
0.0
  0
LINE
  5
315
330
30E
100
AcDbEntity
  8
치수문자_일반주서
 62
     0
370
    -2
100
AcDbLine
 10
126.3681028777657
 20
-33.08653922651798
 30
0.0
 11
129.6701028777657
 21
-33.08653922651798
 31
0.0
  0
LINE
  5
316
330
30E
100
AcDbEntity
  8
치수문자_일반주서
 62
     0
370
    -2
100
AcDbLine
 10
107.0641028777657
 20
-33.08653922651798
 30
0.0
 11
103.7621028777657
 21
-33.08653922651798
 31
0.0
  0
SOLID
  5
317
330
30E
100
AcDbEntity
  8
치수문자_일반주서
 62
     0
100
AcDbTrace
 10
126.3681028777657
 20
-32.53620589318464
 30
0.0
 11
126.3681028777657
 21
-33.63687255985131
 31
0.0
 12
123.0661028777657
 22
-33.08653922651798
 32
0.0
 13
123.0661028777657
 23
-33.08653922651798
 33
0.0
  0
SOLID
  5
318
330
30E
100
AcDbEntity
  8
치수문자_일반주서
 62
     0
100
AcDbTrace
 10
107.0641028777657
 20
-33.63687255985131
 30
0.0
 11
107.0641028777657
 21
-32.53620589318464
 31
0.0
 12
110.3661028777657
 22
-33.08653922651798
 32
0.0
 13
110.3661028777657
 23
-33.08653922651798
 33
0.0
  0
MTEXT
  5
319
330
30E
100
AcDbEntity
  8
치수문자_일반주서
 62
     0
100
AcDbMText
 10
92.38710287776571
 20
-28.71153922651798
 30
0.0
 40
3.5
 41
0.0
 71
     2
 72
     1
  1
\A1;12.7 [0.50]
  7
SLDTEXTSTYLE0
 73
     1
 44
1.0
  0
POINT
  5
31A
330
30E
100
AcDbEntity
  8
Defpoints
 62
     0
100
AcDbPoint
 10
123.0661028777657
 20
-47.49656774454643
 30
0.0
  0
POINT
  5
31B
330
30E
100
AcDbEntity
  8
Defpoints
 62
     0
100
AcDbPoint
 10
110.3661028777657
 20
-47.53968171388833
 30
0.0
  0
POINT
  5
31C
330
30E
100
AcDbEntity
  8
Defpoints
 62
     0
100
AcDbPoint
 10
110.3661028777657
 20
-33.08653922651798
 30
0.0
  0
ENDBLK
  5
310
330
30E
100
AcDbEntity
  8
0
100
AcDbBlockEnd
  0
BLOCK
  5
31E
330
31D
100
AcDbEntity
  8
0
100
AcDbBlockBegin
  2
*D19
 70
     1
 10
0.0
 20
0.0
 30
0.0
  3
*D19
  1
*D20
  0
LINE
  5
320
330
31D
100
AcDbEntity
  8
치수문자_일반주서
 62
     0
370
    -2
100
AcDbLine
 10
59.56610287776572
 20
-47.84484471560629
 30
0.0
 11
59.56610287776572
 21
-13.47734471560626
 31
0.0
  0
LINE
  5
321
330
31D
100
AcDbEntity
  8
치수문자_일반주서
 62
     0
370
    -2
100
AcDbLine
 10
123.0661028777657
 20
-47.43406774454643
 30
0.0
 11
123.0661028777657
 21
-13.47734471560626
 31
0.0
  0
LINE
  5
322
330
31D
100
AcDbEntity
  8
치수문자_일반주서
 62
     0
370
    -2
100
AcDbLine
 10
62.86810287776571
 20
-13.47734471560626
 30
0.0
 11
119.7641028777657
 21
-13.47734471560626
 31
0.0
  0
SOLID
  5
323
330
31D
100
AcDbEntity
  8
치수문자_일반주서
 62
     0
100
AcDbTrace
 10
62.86810287776571
 20
-12.92701138227293
 30
0.0
 11
62.86810287776571
 21
-14.0276780489396
 31
0.0
 12
59.56610287776572
 22
-13.47734471560626
 32
0.0
 13
59.56610287776572
 23
-13.47734471560626
 33
0.0
  0
SOLID
  5
324
330
31D
100
AcDbEntity
  8
치수문자_일반주서
 62
     0
100
AcDbTrace
 10
119.7641028777657
 20
-14.0276780489396
 30
0.0
 11
119.7641028777657
 21
-12.92701138227293
 31
0.0
 12
123.0661028777657
 22
-13.47734471560626
 32
0.0
 13
123.0661028777657
 23
-13.47734471560626
 33
0.0
  0
MTEXT
  5
325
330
31D
100
AcDbEntity
  8
치수문자_일반주서
 62
     0
100
AcDbMText
 10
91.31610287776572
 20
-9.102344715606264
 30
0.0
 40
3.5
 41
0.0
 71
     2
 72
     1
  1
\A1;63.5 [2.50]
  7
SLDTEXTSTYLE0
 73
     1
 44
1.0
  0
POINT
  5
326
330
31D
100
AcDbEntity
  8
Defpoints
 62
     0
100
AcDbPoint
 10
59.56610287776572
 20
-47.90734471560629
 30
0.0
  0
POINT
  5
327
330
31D
100
AcDbEntity
  8
Defpoints
 62
     0
100
AcDbPoint
 10
123.0661028777657
 20
-47.49656774454643
 30
0.0
  0
POINT
  5
328
330
31D
100
AcDbEntity
  8
Defpoints
 62
     0
100
AcDbPoint
 10
123.0661028777657
 20
-13.47734471560626
 30
0.0
  0
ENDBLK
  5
31F
330
31D
100
AcDbEntity
  8
0
100
AcDbBlockEnd
  0
ENDSEC
  0
SECTION
  2
ENTITIES
  0
LINE
  5
96
330
1F
100
AcDbEntity
  8
외형선
  6
Continuous
370
    15
100
AcDbLine
 10
16.56884233574611
 20
3.174999999999998
 30
0.0
 11
-16.56884233574608
 21
3.174999999999996
 31
0.0
  0
LINE
  5
97
330
1F
100
AcDbEntity
  8
외형선
  6
Continuous
370
    15
100
AcDbLine
 10
-16.56884233574608
 20
-3.175
 30
0.0
 11
16.56884233574611
 21
-3.174999999999998
 31
0.0
  0
LINE
  5
98
330
1F
100
AcDbEntity
  8
외형선
  6
Continuous
370
    15
100
AcDbLine
 10
16.56884233574611
 20
-3.175
 30
0.0
 11
18.05
 21
-2.778125
 31
0.0
  0
LINE
  5
99
330
1F
100
AcDbEntity
  8
외형선
  6
Continuous
370
    15
100
AcDbLine
 10
18.05
 20
2.778125000000001
 30
0.0
 11
16.56884233574611
 21
3.175
 31
0.0
  0
LINE
  5
9C
330
1F
100
AcDbEntity
  8
외형선
  6
Continuous
370
    15
100
AcDbLine
 10
18.20763332635389
 20
2.778125000000001
 30
0.0
 11
18.05
 21
2.778125000000001
 31
0.0
  0
LINE
  5
9D
330
1F
100
AcDbEntity
  8
외형선
  6
Continuous
370
    15
100
AcDbLine
 10
18.05
 20
-2.778125
 30
0.0
 11
18.17669117162432
 21
-2.778125
 31
0.0
  0
LINE
  5
9E
330
1F
100
AcDbEntity
  8
0
  6
Continuous
 62
     1
370
    15
100
AcDbLine
 10
24.55339933086611
 20
0.7118854744991627
 30
0.0
 11
23.78097710377844
 21
1.09737796035355
 31
0.0
  0
SPLINE
  5
9F
330
1F
100
AcDbEntity
  8
0
  6
Continuous
 62
     1
370
    15
100
AcDbSpline
210
0.0
220
0.0
230
1.0
 70
     8
 71
     3
 72
    15
 73
    11
 74
     0
 42
0.000000001
 43
0.00000001
 40
0.0
 40
0.0
 40
0.0
 40
0.0
 40
0.1740277268440866
 40
0.2899073903298628
 40
0.3933534640550159
 40
0.5081025547512756
 40
0.6348117533239968
 40
0.7722402355131748
 40
0.9121590030921158
 40
1.0
 40
1.0
 40
1.0
 40
1.0
 10
23.63332149253648
 20
2.207595134520743
 30
0.0
 10
23.50338763992172
 20
2.201128765648718
 30
0.0
 10
23.28693486650361
 20
2.190356642386554
 30
0.0
 10
22.98881914730039
 20
2.180488588925856
 30
0.0
 10
22.73510592580641
 20
2.174266991745203
 30
0.0
 10
22.47507593949035
 20
2.170367545729624
 30
0.0
 10
22.18940281512782
 20
2.168977851853488
 30
0.0
 10
21.88488739579901
 20
2.171229844111097
 30
0.0
 10
21.60950300163851
 20
2.175855072935326
 30
0.0
 10
21.43774307018949
 20
2.181708111711571
 30
0.0
 10
21.3714997473563
 20
2.183965476010328
 30
0.0
  0
SPLINE
  5
A0
330
1F
100
AcDbEntity
  8
0
  6
Continuous
 62
     1
370
    15
100
AcDbSpline
210
0.0
220
0.0
230
1.0
 70
     8
 71
     3
 72
    26
 73
    22
 74
     0
 42
0.000000001
 43
0.00000001
 40
0.0
 40
0.0
 40
0.0
 40
0.0
 40
0.0711240325530559
 40
0.1281193045070247
 40
0.1816284063076603
 40
0.2141856140482725
 40
0.243888256683671
 40
0.2734638337435936
 40
0.3044000534263998
 40
0.3385929552071565
 40
0.4306033995502136
 40
0.5291499206760999
 40
0.5987170093497031
 40
0.65492124464214
 40
0.7106921709952475
 40
0.737742195450661
 40
0.7640366870394834
 40
0.7975993430468494
 40
0.8482872241566355
 40
0.9156878980078627
 40
1.0
 40
1.0
 40
1.0
 40
1.0
 10
30.7167238741152
 20
1.900099095568601
 30
0.0
 10
30.6008009970059
 20
1.890672312406762
 30
0.0
 10
30.39198327592659
 20
1.873691372785088
 30
0.0
 10
30.09740187450479
 20
1.855784214985833
 30
0.0
 10
29.86558972359008
 20
1.844794339244482
 30
0.0
 10
29.6809856932282
 20
1.838122326354093
 30
0.0
 10
29.53371502745307
 20
1.833906333129552
 30
0.0
 10
29.38810357055848
 20
1.830826967063946
 30
0.0
 10
29.23477036276779
 20
1.828766712989551
 30
0.0
 10
28.98074754952146
 20
1.827476452696515
 30
0.0
 10
28.61750387420921
 20
1.831598392868736
 30
0.0
 10
28.19672581170704
 20
1.846548447780334
 30
0.0
 10
27.83387789530682
 20
1.867114206813459
 30
0.0
 10
27.54047990269123
 20
1.888542762730736
 30
0.0
 10
27.31561736470162
 20
1.907970651734778
 30
0.0
 10
27.13916322410466
 20
1.924909057820476
 30
0.0
 10
26.99864146792785
 20
1.939268228425896
 30
0.0
 10
26.82004784390595
 20
1.95874562910593
 30
0.0
 10
26.57498706569767
 20
1.987892523774044
 30
0.0
 10
26.24787953281624
 20
2.031063781132888
 30
0.0
 10
26.0020350234436
 20
2.068633077312465
 30
0.0
 10
25.86541062096195
 20
2.089511650746093
 30
0.0
  0
SPLINE
  5
A1
330
1F
100
AcDbEntity
  8
0
  6
Continuous
 62
     1
370
    15
100
AcDbSpline
210
0.0
220
0.0
230
1.0
 70
     8
 71
     3
 72
    15
 73
    11
 74
     0
 42
0.000000001
 43
0.00000001
 40
0.0
 40
0.0
 40
0.0
 40
0.0
 40
0.1718742606058955
 40
0.2973021520012492
 40
0.3810257709159511
 40
0.4639743018881962
 40
0.5571069420887842
 40
0.6579318873450578
 40
0.9037428760091306
 40
1.0
 40
1.0
 40
1.0
 40
1.0
 10
25.86541062096195
 20
-2.089511650746093
 30
0.0
 10
25.98328795379236
 20
-2.07143965169999
 30
0.0
 10
26.18718808752446
 20
-2.040179332741059
 30
0.0
 10
26.44773424534923
 20
-2.004553598088147
 30
0.0
 10
26.64774724539329
 20
-1.979180064312069
 30
0.0
 10
26.82697401882596
 20
-1.957979696480821
 30
0.0
 10
27.01888993900974
 20
-1.936926652866025
 30
0.0
 10
27.32439614636854
 20
-1.906609292343688
 30
0.0
 10
27.62979718697628
 20
-1.879787904595438
 30
0.0
 10
27.86525597096204
 20
-1.866849875186733
 30
0.0
 10
27.93151349256775
 20
-1.863209145592485
 30
0.0
  0
SPLINE
  5
A2
330
1F
100
AcDbEntity
  8
0
  6
Continuous
 62
     1
370
    15
100
AcDbSpline
210
0.0
220
0.0
230
1.0
 70
     8
 71
     3
 72
    22
 73
    18
 74
     0
 42
0.000000001
 43
0.00000001
 40
0.0
 40
0.0
 40
0.0
 40
0.0
 40
0.1042246512341268
 40
0.1763096710511328
 40
0.2230496450982445
 40
0.2677112324836615
 40
0.3120898694455757
 40
0.4011027097016349
 40
0.5065238667044595
 40
0.5727789335639056
 40
0.6384437310766725
 40
0.7001654981746536
 40
0.7569256366021291
 40
0.8088979289508559
 40
0.8562721995800417
 40
0.9158821375848477
 40
1.0
 40
1.0
 40
1.0
 40
1.0
 10
19.45199132893705
 20
-2.312123714866866
 30
0.0
 10
19.59781204970123
 20
-2.298068732722198
 30
0.0
 10
19.84448692945322
 20
-2.274292886516779
 30
0.0
 10
20.15585950945887
 20
-2.249514489627562
 30
0.0
 10
20.38231713429148
 20
-2.233232114834875
 30
0.0
 10
20.57123943294593
 20
-2.220911826960025
 30
0.0
 10
20.81944019902808
 20
-2.206299977490429
 30
0.0
 10
21.15219596735189
 20
-2.190200335538806
 30
0.0
 10
21.51564564424789
 20
-2.178221261264236
 30
0.0
 10
21.84646253784596
 20
-2.171763735306369
 30
0.0
 10
22.11627178908602
 20
-2.169316187259471
 30
0.0
 10
22.37285758222882
 20
-2.169634912269054
 30
0.0
 10
22.61036343103413
 20
-2.172178092860372
 30
0.0
 10
22.82840395609555
 20
-2.176382385714302
 30
0.0
 10
23.05206754377213
 20
-2.182459354288703
 30
0.0
 10
23.31870359813332
 20
-2.191816318847004
 30
0.0
 10
23.51716837193088
 20
-2.201769786654111
 30
0.0
 10
23.63332149253648
 20
-2.207595134520742
 30
0.0
  0
LINE
  5
A3
330
1F
100
AcDbEntity
  8
외형선
  6
Continuous
370
    15
100
AcDbLine
 10
16.56884233574611
 20
3.175
 30
0.0
 11
16.56884233574611
 21
-3.174999999999998
 31
0.0
  0
LINE
  5
A5
330
1F
100
AcDbEntity
  8
외형선
  6
Continuous
370
    15
100
AcDbLine
 10
18.05
 20
2.778125000000001
 30
0.0
 11
18.05
 21
-2.778124999999998
 31
0.0
  0
LINE
  5
A6
330
1F
100
AcDbEntity
  8
외형선
  6
Continuous
370
    15
100
AcDbLine
 10
-31.74999999999999
 20
2.364999999999994
 30
0.0
 11
-31.74999999999999
 21
-2.365000000000002
 31
0.0
  0
LINE
  5
A7
330
1F
100
AcDbEntity
  8
외형선
  6
Continuous
370
    15
100
AcDbLine
 10
19.05
 20
2.732663001717956
 30
0.0
 11
19.05
 21
2.488140923832561
 31
0.0
  0
SPLINE
  5
A8
330
1F
100
AcDbEntity
  8
외형선
  6
Continuous
370
    15
100
AcDbSpline
210
0.0
220
0.0
230
1.0
 70
     8
 71
     3
 72
     8
 73
     4
 74
     0
 42
0.000000001
 43
0.00000001
 40
0.0
 40
0.0
 40
0.0
 40
0.0
 40
1.0
 40
1.0
 40
1.0
 40
1.0
 10
18.15989862195866
 20
2.672732657786221
 30
0.0
 10
18.45457214318286
 20
2.626188266124952
 30
0.0
 10
18.75379867875624
 20
2.564158915934509
 30
0.0
 10
19.04999999999982
 20
2.488140923832466
 30
0.0
  0
LINE
  5
A9
330
1F
100
AcDbEntity
  8
외형선
  6
Continuous
370
    15
100
AcDbLine
 10
18.15989862195866
 20
-2.778107453666342
 30
0.0
 11
18.15989862195866
 21
2.672933371535358
 31
0.0
  0
SPLINE
  5
AA
330
1F
100
AcDbEntity
  8
외형선
  6
Continuous
370
    15
100
AcDbSpline
210
0.0
220
0.0
230
1.0
 70
     8
 71
     3
 72
     8
 73
     4
 74
     0
 42
0.000000001
 43
0.00000001
 40
0.0
 40
0.0
 40
0.0
 40
0.0
 40
1.0
 40
1.0
 40
1.0
 40
1.0
 10
19.05
 20
-2.732663001717958
 30
0.0
 10
18.75376316847712
 20
-2.763456646922939
 30
0.0
 10
18.45450040240201
 20
-2.778706970542304
 30
0.0
 10
18.1597926408001
 20
-2.778107874277399
 30
0.0
  0
SPLINE
  5
AB
330
1F
100
AcDbEntity
  8
외형선
  6
Continuous
370
    15
100
AcDbSpline
210
0.0
220
0.0
230
1.0
 70
     8
 71
     3
 72
     8
 73
     4
 74
     0
 42
0.000000001
 43
0.00000001
 40
0.0
 40
0.0
 40
0.0
 40
0.0
 40
1.0
 40
1.0
 40
1.0
 40
1.0
 10
19.05
 20
2.732663001717958
 30
0.0
 10
18.77041480680504
 20
2.761725718867452
 30
0.0
 10
18.48813236695366
 20
2.776956468453711
 30
0.0
 10
18.20953136371885
 20
2.778059854053221
 30
0.0
  0
SPLINE
  5
AC
330
1F
100
AcDbEntity
  8
외형선
  6
Continuous
370
    15
100
AcDbSpline
210
0.0
220
0.0
230
1.0
 70
     8
 71
     3
 72
     8
 73
     4
 74
     0
 42
0.000000001
 43
0.00000001
 40
0.0
 40
0.0
 40
0.0
 40
0.0
 40
1.0
 40
1.0
 40
1.0
 40
1.0
 10
19.04999999999999
 20
-1.069603155241645
 30
0.0
 10
18.75378570350474
 20
-0.9497556789328206
 30
0.0
 10
18.45454592952407
 20
-0.823384261769204
 30
0.0
 10
18.1598598970081
 20
-0.6937164696670873
 30
0.0
  0
SPLINE
  5
AD
330
1F
100
AcDbEntity
  8
외형선
  6
Continuous
370
    15
100
AcDbSpline
210
0.0
220
0.0
230
1.0
 70
     8
 71
     3
 72
     8
 73
     4
 74
     0
 42
0.000000001
 43
0.00000001
 40
0.0
 40
0.0
 40
0.0
 40
0.0
 40
1.0
 40
1.0
 40
1.0
 40
1.0
 10
19.04999999999999
 20
1.704668734656378
 30
0.0
 10
18.75379011703211
 20
1.76224204589849
 30
0.0
 10
18.45455484609234
 20
1.810249292533801
 30
0.0
 10
18.15987306928087
 20
1.847525912088066
 30
0.0
  0
SPLINE
  5
AE
330
1F
100
AcDbEntity
  8
외형선
  6
Continuous
370
    15
100
AcDbSpline
210
0.0
220
0.0
230
1.0
 70
    24
 71
     3
 72
    14
 73
    10
 74
     0
 42
0.000000001
 43
0.00000001
 40
0.0
 40
0.0
 40
0.0
 40
0.0
 40
0.25
 40
0.25
 40
0.5
 40
0.5
 40
0.75
 40
0.75
 40
1.0
 40
1.0
 40
1.0
 40
1.0
 10
19.05
 20
1.704668734656376
 30
0.0
 10
19.05
 20
1.543019267778735
 30
0.0
 10
19.05
 20
1.353433230994703
 30
0.0
 10
19.05
 20
0.929096746308467
 30
0.0
 10
19.05
 20
0.6944647601240623
 30
0.0
 10
19.05
 20
0.2013966599509173
 30
0.0
 10
19.05
 20
-0.0567767267397507
 30
0.0
 10
19.05
 20
-0.5708135537334768
 30
0.0
 10
19.05
 20
-0.8264325433479582
 30
0.0
 10
19.05
 20
-1.06960315524165
 30
0.0
  0
SPLINE
  5
AF
330
1F
100
AcDbEntity
  8
외형선
  6
Continuous
370
    15
100
AcDbSpline
210
0.0
220
0.0
230
1.0
 70
     8
 71
     3
 72
     8
 73
     4
 74
     0
 42
0.000000001
 43
0.00000001
 40
0.0
 40
0.0
 40
0.0
 40
0.0
 40
1.0
 40
1.0
 40
1.0
 40
1.0
 10
19.05
 20
-2.344183539950223
 30
0.0
 10
18.75376316847712
 20
-2.361697637586794
 30
0.0
 10
18.454500402402
 20
-2.365848310593838
 30
0.0
 10
18.1597926408001
 20
-2.356598923427596
 30
0.0
  0
SPLINE
  5
B0
330
1F
100
AcDbEntity
  8
외형선
  6
Continuous
370
    15
100
AcDbSpline
210
0.0
220
0.0
230
1.0
 70
    24
 71
     3
 72
    10
 73
     6
 74
     0
 42
0.000000001
 43
0.00000001
 40
0.0
 40
0.0
 40
0.0
 40
0.0
 40
0.4999999999999999
 40
0.4999999999999999
 40
1.0
 40
1.0
 40
1.0
 40
1.0
 10
19.05
 20
-1.069603155241651
 30
0.0
 10
19.05
 20
-1.418871477630655
 30
0.0
 10
19.05
 20
-1.730375042159874
 30
0.0
 10
19.05
 20
-2.175904045308865
 30
0.0
 10
19.05
 20
-2.30801175292957
 30
0.0
 10
19.05
 20
-2.344183539950222
 30
0.0
  0
SPLINE
  5
B1
330
1F
100
AcDbEntity
  8
외형선
  6
Continuous
370
    15
100
AcDbSpline
210
0.0
220
0.0
230
1.0
 70
    24
 71
     3
 72
    10
 73
     6
 74
     0
 42
0.000000001
 43
0.00000001
 40
0.0
 40
0.0
 40
0.0
 40
0.0
 40
0.4999999999999999
 40
0.4999999999999999
 40
1.0
 40
1.0
 40
1.0
 40
1.0
 10
19.05
 20
2.488140923832419
 30
0.0
 10
19.05
 20
2.383313700750473
 30
0.0
 10
19.05
 20
2.256171038653197
 30
0.0
 10
19.05
 20
1.984492588772193
 30
0.0
 10
19.05
 20
1.840755798407295
 30
0.0
 10
19.05
 20
1.704668734656376
 30
0.0
  0
SPLINE
  5
B2
330
1F
100
AcDbEntity
  8
외형선
  6
Continuous
370
    15
100
AcDbSpline
210
0.0
220
0.0
230
1.0
 70
    24
 71
     3
 72
     8
 73
     4
 74
     0
 42
0.000000001
 43
0.00000001
 40
0.0
 40
0.0
 40
0.0
 40
0.0
 40
1.0
 40
1.0
 40
1.0
 40
1.0
 10
19.05000000000057
 20
-2.34418353995019
 30
0.0
 10
19.05000000000057
 20
-2.478718606596306
 30
0.0
 10
19.05000000000057
 20
-2.609066389579546
 30
0.0
 10
19.05000000000057
 20
-2.732663001713788
 30
0.0
  0
SPLINE
  5
B3
330
1F
100
AcDbEntity
  8
0
  6
Continuous
 62
     1
370
    15
100
AcDbSpline
210
0.0
220
0.0
230
1.0
 70
     8
 71
     3
 72
    38
 73
    34
 74
     0
 42
0.000000001
 43
0.00000001
 40
0.0
 40
0.0
 40
0.0
 40
0.0
 40
0.0625
 40
0.0625
 40
0.125
 40
0.125
 40
0.1875
 40
0.1875
 40
0.25
 40
0.25
 40
0.3125
 40
0.3125
 40
0.375
 40
0.375
 40
0.4375
 40
0.4375
 40
0.5
 40
0.5
 40
0.5625
 40
0.5625
 40
0.625
 40
0.625
 40
0.6875
 40
0.6875
 40
0.75
 40
0.75
 40
0.8125
 40
0.8125
 40
0.875
 40
0.875
 40
0.9375
 40
0.9375
 40
1.0
 40
1.0
 40
1.0
 40
1.0
 10
31.75000000000001
 20
-2.636276352334871
 30
0.0
 10
31.48808234683424
 20
-2.588247045639344
 30
0.0
 10
31.22150055848262
 20
-2.527975489229696
 30
0.0
 10
30.68976819831154
 20
-2.385046055162133
 30
0.0
 10
30.42763475188687
 20
-2.302766839238317
 30
0.0
 10
29.89956986026119
 20
-2.117795200211487
 30
0.0
 10
29.63230067662396
 20
-2.014854557268705
 30
0.0
 10
29.10213980159546
 20
-1.792170436526603
 30
0.0
 10
28.84118700198897
 20
-1.672802748910464
 30
0.0
 10
28.31042805035965
 20
-1.418673206796303
 30
0.0
 10
28.04327096727092
 20
-1.28425728132593
 30
0.0
 10
27.51623761678395
 20
-1.006265021341033
 30
0.0
 10
27.25318622201776
 20
-0.8621701813219199
 30
0.0
 10
26.72129512155907
 20
-0.5663998239981664
 30
0.0
 10
26.45628703975116
 20
-0.4154328785432636
 30
0.0
 10
25.93111414992489
 20
-0.1120420789843902
 30
0.0
 10
25.66425943326729
 20
0.0416693064253895
 30
0.0
 10
25.13280923244248
 20
0.3468950650190993
 30
0.0
 10
24.87133710255388
 20
0.4978112716263046
 30
0.0
 10
24.34236126235601
 20
0.794927132198382
 30
0.0
 10
24.07504276872377
 20
0.9410588793294354
 30
0.0
 10
23.54560217529245
 20
1.222527720528186
 30
0.0
 10
23.28439183628628
 20
1.357755551787066
 30
0.0
 10
22.75315747458313
 20
1.616177356578113
 30
0.0
 10
22.48617519426986
 20
1.738795711042724
 30
0.0
 10
21.9602931867984
 20
1.966025590050447
 30
0.0
 10
21.69606791672862
 20
2.071443077482528
 30
0.0
 10
21.16414161792122
 20
2.262938269636334
 30
0.0
 10
20.90045281577201
 20
2.348537968492358
 30
0.0
 10
20.37406072304696
 20
2.497720182293117
 30
0.0
 10
20.10699554229877
 20
2.561647338002978
 30
0.0
 10
19.57595070157107
 20
2.665379644927104
 30
0.0
 10
19.31488274818565
 20
2.705128595119703
 30
0.0
 10
19.04999999999792
 20
2.732663001718174
 30
0.0
  0
SPLINE
  5
B4
330
1F
100
AcDbEntity
  8
0
  6
Continuous
 62
     1
370
    15
100
AcDbSpline
210
0.0
220
0.0
230
1.0
 70
     8
 71
     3
 72
    14
 73
    10
 74
     0
 42
0.000000001
 43
0.00000001
 40
0.0
 40
0.0
 40
0.0
 40
0.0
 40
0.1569685372541667
 40
0.3137335712923506
 40
0.470405118762928
 40
0.6270943224504173
 40
0.7839121121352555
 40
0.9409365137259653
 40
1.0
 40
1.0
 40
1.0
 40
1.0
 10
31.75000000000001
 20
-2.19186357194795
 30
0.0
 10
31.37206771265005
 20
-2.111195334716939
 30
0.0
 10
30.61669311152858
 20
-1.949963443287867
 30
0.0
 10
29.48440799912922
 20
-1.567989744748101
 30
0.0
 10
28.3528754646314
 20
-1.108523461854807
 30
0.0
 10
27.22119121748021
 20
-0.5849072442584344
 30
0.0
 10
26.08856241358954
 20
-0.0321381386640903
 30
0.0
 10
25.19059582551806
 20
0.4147981562465333
 30
0.0
 10
24.67039649286007
 20
0.6529023975926009
 30
0.0
 10
24.52820996659147
 20
0.7179836324989067
 30
0.0
  0
LINE
  5
B5
330
1F
100
AcDbEntity
  8
0
  6
Continuous
 62
     1
370
    15
100
AcDbLine
 10
31.74999999999993
 20
-2.636276352334873
 30
0.0
 11
31.75000000000001
 21
-2.19186357194795
 31
0.0
  0
SPLINE
  5
B6
330
1F
100
AcDbEntity
  8
0
  6
Continuous
 62
     1
370
    15
100
AcDbSpline
210
0.0
220
0.0
230
1.0
 70
     8
 71
     3
 72
    38
 73
    34
 74
     0
 42
0.000000001
 43
0.00000001
 40
0.0
 40
0.0
 40
0.0
 40
0.0
 40
0.0625
 40
0.0625
 40
0.125
 40
0.125
 40
0.1875
 40
0.1875
 40
0.25
 40
0.25
 40
0.3125
 40
0.3125
 40
0.375
 40
0.375
 40
0.4375
 40
0.4375
 40
0.5
 40
0.5
 40
0.5625
 40
0.5625
 40
0.625
 40
0.625
 40
0.6875
 40
0.6875
 40
0.75
 40
0.75
 40
0.8125
 40
0.8125
 40
0.875
 40
0.875
 40
0.9375
 40
0.9375
 40
1.0
 40
1.0
 40
1.0
 40
1.0
 10
19.04999999999973
 20
2.48814092383171
 30
0.0
 10
19.31488274818741
 20
2.420160623895347
 30
0.0
 10
19.5759507015728
 20
2.341264113280639
 30
0.0
 10
20.10699554230044
 20
2.162089349656792
 30
0.0
 10
20.37406072304859
 20
2.062025841498475
 30
0.0
 10
20.90045281577353
 20
1.845174055794553
 30
0.0
 10
21.16414161792273
 20
1.727841907332844
 30
0.0
 10
21.69606791673007
 20
1.477853991904591
 30
0.0
 10
21.96029318679977
 20
1.345828429073877
 30
0.0
 10
22.48617519427119
 20
1.071287494243784
 30
0.0
 10
22.75315747458442
 20
0.9278212899796905
 30
0.0
 10
23.28439183628748
 20
0.6342265315146358
 30
0.0
 10
23.54560217529361
 20
0.4847059365594787
 30
0.0
 10
24.07504276872487
 20
0.1813203856692918
 30
0.0
 10
24.34236126235707
 20
0.0276154525845433
 30
0.0
 10
24.87133710255485
 20
-0.2775748702200456
 30
0.0
 10
25.13280923244342
 20
-0.4290285802358351
 30
0.0
 10
25.66425943326816
 20
-0.7282924302836773
 30
0.0
 10
25.93111414992572
 20
-0.8754790485028264
 30
0.0
 10
26.4562870397519
 20
-1.159079032880552
 30
0.0
 10
26.72129512155978
 20
-1.296707412577365
 30
0.0
 10
27.25318622201841
 20
-1.559241025028238
 30
0.0
 10
27.51623761678454
 20
-1.683531928723645
 30
0.0
 10
28.04327096727144
 20
-1.915972248259669
 30
0.0
 10
28.31042805036014
 20
-2.024527107325556
 30
0.0
 10
28.84118700198939
 20
-2.221774938923952
 30
0.0
 10
29.10213980159583
 20
-2.310248453271516
 30
0.0
 10
29.63230067662426
 20
-2.466417658674304
 30
0.0
 10
29.89956986026146
 20
-2.533793835387647
 30
0.0
 10
30.42763475188707
 20
-2.644482232985288
 30
0.0
 10
30.68976819831169
 20
-2.68799621796034
 30
0.0
 10
31.2215005584827
 20
-2.750631703483533
 30
0.0
 10
31.48808234683428
 20
-2.769518484516337
 30
0.0
 10
31.75000000000001
 20
-2.77577697105882
 30
0.0
  0
SPLINE
  5
B7
330
1F
100
AcDbEntity
  8
0
  6
Continuous
 62
     1
370
    15
100
AcDbSpline
210
0.0
220
0.0
230
1.0
 70
     8
 71
     3
 72
    12
 73
     8
 74
     0
 42
0.000000001
 43
0.00000001
 40
0.0
 40
0.0
 40
0.0
 40
0.0
 40
0.177357212815674
 40
0.3724718756651873
 40
0.567511030212011
 40
0.783738449231998
 40
1.0
 40
1.0
 40
1.0
 40
1.0
 10
24.85054272307724
 20
-0.2653576753823439
 30
0.0
 10
24.50759181686357
 20
-0.1271173927910693
 30
0.0
 10
23.78735289750685
 20
0.1632041370289297
 30
0.0
 10
22.69014174200525
 20
0.6028566798811036
 30
0.0
 10
21.51786735992282
 20
1.035129437532768
 30
0.0
 10
20.30442936597453
 20
1.427041168574258
 30
0.0
 10
19.46816512113482
 20
1.612121343826678
 30
0.0
 10
19.05
 20
1.704668734656375
 30
0.0
  0
SPLINE
  5
B8
330
1F
100
AcDbEntity
  8
외형선
  6
Continuous
370
    15
100
AcDbSpline
210
0.0
220
0.0
230
1.0
 70
    24
 71
     3
 72
    10
 73
     6
 74
     0
 42
0.000000001
 43
0.00000001
 40
0.0
 40
0.0
 40
0.0
 40
0.0
 40
0.4999999999999999
 40
0.4999999999999999
 40
1.0
 40
1.0
 40
1.0
 40
1.0
 10
19.05
 20
2.48814092383242
 30
0.0
 10
19.05
 20
2.383313700750473
 30
0.0
 10
19.05
 20
2.256171038653198
 30
0.0
 10
19.05
 20
1.984492588772193
 30
0.0
 10
19.05
 20
1.840755798407295
 30
0.0
 10
19.05
 20
1.704668734656376
 30
0.0
  0
LINE
  5
B9
330
1F
100
AcDbEntity
  8
0
  6
Continuous
 62
     1
370
    15
100
AcDbLine
 10
31.75000000000001
 20
-2.775776971059855
 30
0.0
 11
31.74999999999999
 21
-2.636276352334868
 31
0.0
  0
SPLINE
  5
BA
330
1F
100
AcDbEntity
  8
0
  6
Continuous
 62
     1
370
    15
100
AcDbSpline
210
0.0
220
0.0
230
1.0
 70
     8
 71
     3
 72
     8
 73
     4
 74
     0
 42
0.000000001
 43
0.00000001
 40
0.0
 40
0.0
 40
0.0
 40
0.0
 40
1.0
 40
1.0
 40
1.0
 40
1.0
 10
30.03025320493467
 20
0.7778932338795878
 30
0.0
 10
29.93180725072038
 20
0.8945474298580659
 30
0.0
 10
29.84395483824004
 20
1.00681763416756
 30
0.0
 10
29.76918337164886
 20
1.11367446878059
 30
0.0
  0
LINE
  5
BB
330
1F
100
AcDbEntity
  8
0
  6
Continuous
 62
     1
370
    15
100
AcDbLine
 10
29.80433036664209
 20
1.14316629931639
 30
0.0
 11
31.75000000000001
 21
0.0000000000000018
 31
0.0
  0
LINE
  5
BC
330
1F
100
AcDbEntity
  8
0
  6
Continuous
 62
     1
370
    15
100
AcDbLine
 10
31.75000000000001
 20
0.0000000000000018
 30
0.0
 11
31.75000000000001
 21
-0.7424343094386056
 31
0.0
  0
SPLINE
  5
BD
330
1F
100
AcDbEntity
  8
0
  6
Continuous
 62
     1
370
    15
100
AcDbSpline
210
0.0
220
0.0
230
1.0
 70
     8
 71
     3
 72
    10
 73
     6
 74
     0
 42
0.000000001
 43
0.00000001
 40
0.0
 40
0.0
 40
0.0
 40
0.0
 40
0.5
 40
0.5
 40
1.0
 40
1.0
 40
1.0
 40
1.0
 10
31.75000000000001
 20
-0.7424343094386053
 30
0.0
 10
31.45229592326625
 20
-0.5083865335042325
 30
0.0
 10
31.15956906482477
 20
-0.2647365363175395
 30
0.0
 10
30.58431343464814
 20
0.2422379587817746
 30
0.0
 10
30.29911006502108
 20
0.5082424888783099
 30
0.0
 10
30.03025320493467
 20
0.7778932338795875
 30
0.0
  0
SPLINE
  5
BE
330
1F
100
AcDbEntity
  8
0
  6
Continuous
 62
     1
370
    15
100
AcDbSpline
210
0.0
220
0.0
230
1.0
 70
     8
 71
     3
 72
    14
 73
    10
 74
     0
 42
0.000000001
 43
0.00000001
 40
0.0
 40
0.0
 40
0.0
 40
0.0
 40
0.1313615791626874
 40
0.2621819267339903
 40
0.4390341413734665
 40
0.6160335404403118
 40
0.7932693944725939
 40
0.9703538497152283
 40
1.0
 40
1.0
 40
1.0
 40
1.0
 10
30.03025320493467
 20
0.7778932338795883
 30
0.0
 10
29.75000067177249
 20
0.8965218778145968
 30
0.0
 10
29.19065029257569
 20
1.133290395907713
 30
0.0
 10
28.25490044140043
 20
1.486179576762705
 30
0.0
 10
27.22117169858972
 20
1.812825934372959
 30
0.0
 10
26.08857704998115
 20
2.073080393500496
 30
0.0
 10
24.95510278906239
 20
2.207893942523521
 30
0.0
 10
24.13612796990715
 20
2.247435183995454
 30
0.0
 10
23.69526121621277
 20
2.205149257246249
 30
0.0
 10
23.63203883072109
 20
2.199085254598263
 30
0.0
  0
SPLINE
  5
BF
330
1F
100
AcDbEntity
  8
0
  6
Continuous
 62
     1
370
    15
100
AcDbSpline
210
0.0
220
0.0
230
1.0
 70
    24
 71
     3
 72
    10
 73
     6
 74
     0
 42
0.000000001
 43
0.00000001
 40
0.0
 40
0.0
 40
0.0
 40
0.0
 40
0.5
 40
0.5
 40
1.0
 40
1.0
 40
1.0
 40
1.0
 10
31.75000000000001
 20
-2.19186357194795
 30
0.0
 10
31.75
 20
-2.023840140076195
 30
0.0
 10
31.75000000000001
 20
-1.811536091227657
 30
0.0
 10
31.75
 20
-1.317949609640482
 30
0.0
 10
31.75000000000001
 20
-1.037094740226919
 30
0.0
 10
31.75000000000001
 20
-0.7424343094386943
 30
0.0
  0
SPLINE
  5
C0
330
1F
100
AcDbEntity
  8
0
  6
Continuous
 62
     1
370
    15
100
AcDbSpline
210
0.0
220
0.0
230
1.0
 70
    24
 71
     3
 72
     8
 73
     4
 74
     0
 42
0.000000001
 43
0.00000001
 40
0.0
 40
0.0
 40
0.0
 40
0.0
 40
1.0
 40
1.0
 40
1.0
 40
1.0
 10
30.05929896848935
 20
1.357110359088221
 30
0.0
 10
29.96767263541135
 20
1.280226736796338
 30
0.0
 10
29.87039445057296
 20
1.198600647776799
 30
0.0
 10
29.7691833716489
 20
1.113674468780565
 30
0.0
  0
LINE
  5
C1
330
1F
100
AcDbEntity
  8
0
  6
Continuous
 62
     1
370
    15
100
AcDbLine
 10
31.75000000000001
 20
1.944687499999999
 30
0.0
 11
30.71546717898696
 21
1.895735367267773
 31
0.0
  0
SPLINE
  5
C2
330
1F
100
AcDbEntity
  8
0
  6
Continuous
 62
     1
370
    15
100
AcDbSpline
210
0.0
220
0.0
230
1.0
 70
     8
 71
     3
 72
     8
 73
     4
 74
     0
 42
0.000000001
 43
0.00000001
 40
0.0
 40
0.0
 40
0.0
 40
0.0
 40
1.0
 40
1.0
 40
1.0
 40
1.0
 10
31.75000000000001
 20
1.944687500000001
 30
0.0
 10
31.17864998707404
 20
1.789569107931415
 30
0.0
 10
30.61255202821108
 20
1.599092372656334
 30
0.0
 10
30.05929896850019
 20
1.357110359092961
 30
0.0
  0
SPLINE
  5
C3
330
1F
100
AcDbEntity
  8
0
  6
Continuous
 62
     1
370
    15
100
AcDbSpline
210
0.0
220
0.0
230
1.0
 70
     8
 71
     3
 72
    13
 73
     9
 74
     0
 42
0.000000001
 43
0.00000001
 40
0.0
 40
0.0
 40
0.0
 40
0.0
 40
0.1341126280767891
 40
0.3002606036616724
 40
0.4662273414436694
 40
0.6321315231563595
 40
0.8160516230750181
 40
0.9999999999999999
 40
0.9999999999999999
 40
0.9999999999999999
 40
0.9999999999999999
 10
25.86954710279792
 20
-2.079639716572229
 30
0.0
 10
25.56463011862659
 20
-2.124114384347275
 30
0.0
 10
24.88196093939343
 20
-2.223687338701293
 30
0.0
 10
23.82209039943714
 20
-2.234337489258189
 30
0.0
 10
22.69012307428618
 20
-2.135637207353814
 30
0.0
 10
21.51788553931126
 20
-1.906633346358751
 30
0.0
 10
20.30442398334758
 20
-1.556493959394039
 30
0.0
 10
19.46816275479203
 20
-1.231908406616022
 30
0.0
 10
19.05
 20
-1.069603155241651
 30
0.0
  0
SPLINE
  5
C4
330
1F
100
AcDbEntity
  8
외형선
  6
Continuous
370
    15
100
AcDbSpline
210
0.0
220
0.0
230
1.0
 70
    24
 71
     3
 72
    14
 73
    10
 74
     0
 42
0.000000001
 43
0.00000001
 40
0.0
 40
0.0
 40
0.0
 40
0.0
 40
0.25
 40
0.25
 40
0.5
 40
0.5
 40
0.75
 40
0.75
 40
1.0
 40
1.0
 40
1.0
 40
1.0
 10
19.05
 20
1.704668734656375
 30
0.0
 10
19.05
 20
1.543019267778734
 30
0.0
 10
19.05
 20
1.353433230994703
 30
0.0
 10
19.05
 20
0.9290967463084665
 30
0.0
 10
19.05
 20
0.6944647601240612
 30
0.0
 10
19.05
 20
0.2013966599509166
 30
0.0
 10
19.05
 20
-0.0567767267397514
 30
0.0
 10
19.05
 20
-0.5708135537334775
 30
0.0
 10
19.05
 20
-0.8264325433479589
 30
0.0
 10
19.05
 20
-1.069603155241651
 30
0.0
  0
LINE
  5
C5
330
1F
100
AcDbEntity
  8
0
  6
Continuous
 62
     1
370
    15
100
AcDbLine
 10
19.45797611385462
 20
-2.294547032725377
 30
0.0
 11
19.05
 21
-2.344183539950223
 31
0.0
  0
SPLINE
  5
C6
330
1F
100
AcDbEntity
  8
외형선
  6
Continuous
370
    15
100
AcDbSpline
210
0.0
220
0.0
230
1.0
 70
    24
 71
     3
 72
    10
 73
     6
 74
     0
 42
0.000000001
 43
0.00000001
 40
0.0
 40
0.0
 40
0.0
 40
0.0
 40
0.5
 40
0.5
 40
1.0
 40
1.0
 40
1.0
 40
1.0
 10
19.05
 20
-1.069603155241651
 30
0.0
 10
19.05
 20
-1.418871477630656
 30
0.0
 10
19.05
 20
-1.730375042159875
 30
0.0
 10
19.05
 20
-2.175904045308865
 30
0.0
 10
19.05
 20
-2.30801175292957
 30
0.0
 10
19.05
 20
-2.344183539950222
 30
0.0
  0
LINE
  5
C7
330
1F
100
AcDbEntity
  8
0
  6
Continuous
 62
     1
370
    15
100
AcDbLine
 10
31.75000000000001
 20
0.0000000000000018
 30
0.0
 11
31.75000000000001
 21
1.944687500000001
 31
0.0
  0
SPLINE
  5
C8
330
1F
100
AcDbEntity
  8
0
  6
Continuous
 62
     1
370
    15
100
AcDbSpline
210
0.0
220
0.0
230
1.0
 70
    24
 71
     3
 72
    10
 73
     6
 74
     0
 42
0.000000001
 43
0.00000001
 40
0.0
 40
0.0
 40
0.0
 40
0.0
 40
0.5
 40
0.5
 40
1.0
 40
1.0
 40
1.0
 40
1.0
 10
31.75000000000001
 20
1.9446875
 30
0.0
 10
31.75000000000001
 20
2.062569613442819
 30
0.0
 10
31.75
 20
2.19955954632146
 30
0.0
 10
31.75
 20
2.486964056544376
 30
0.0
 10
31.75000000000001
 20
2.636644638835967
 30
0.0
 10
31.75000000000001
 20
2.775776971059856
 30
0.0
  0
SPLINE
  5
C9
330
1F
100
AcDbEntity
  8
0
  6
Continuous
 62
     1
370
    15
100
AcDbSpline
210
0.0
220
0.0
230
1.0
 70
     8
 71
     3
 72
    14
 73
    10
 74
     0
 42
0.000000001
 43
0.00000001
 40
0.0
 40
0.0
 40
0.0
 40
0.0
 40
0.0236683453983007
 40
0.1285944838588779
 40
0.2338820557691721
 40
0.4229161758316773
 40
0.6125516144398059
 40
0.8059536933888546
 40
1.0
 40
1.0
 40
1.0
 40
1.0
 10
27.92769187046718
 20
1.86280309967555
 30
0.0
 10
27.95782185068485
 20
1.876076512445029
 30
0.0
 10
28.12152358773347
 20
1.948193411003533
 30
0.0
 10
28.41993554646877
 20
2.065752191702422
 30
0.0
 10
28.92860382334147
 20
2.254090000110673
 30
0.0
 10
29.5446285473137
 20
2.448479037383025
 30
0.0
 10
30.27418164564722
 20
2.620825928427498
 30
0.0
 10
31.00895780308822
 20
2.739217184329457
 30
0.0
 10
31.5027122718579
 20
2.763576874169597
 30
0.0
 10
31.75000000000001
 20
2.775776971059503
 30
0.0
  0
SPLINE
  5
CA
330
1F
100
AcDbEntity
  8
0
  6
Continuous
 62
     1
370
    15
100
AcDbSpline
210
0.0
220
0.0
230
1.0
 70
     8
 71
     3
 72
    10
 73
     6
 74
     0
 42
0.000000001
 43
0.00000001
 40
0.0
 40
0.0
 40
0.0
 40
0.0
 40
0.0377170861889686
 40
0.5187833193623603
 40
0.9999999999999999
 40
0.9999999999999999
 40
0.9999999999999999
 40
0.9999999999999999
 10
21.37087872520435
 20
-2.184212458337667
 30
0.0
 10
21.34169767489227
 20
-2.195908950745333
 30
0.0
 10
20.94032408872678
 20
-2.356789489760062
 30
0.0
 10
20.1667958791609
 20
-2.567169218301926
 30
0.0
 10
19.42230409207207
 20
-2.677492657765185
 30
0.0
 10
19.04999999999792
 20
-2.732663001718173
 30
0.0
  0
SPLINE
  5
CB
330
1F
100
AcDbEntity
  8
외형선
  6
Continuous
370
    15
100
AcDbSpline
210
0.0
220
0.0
230
1.0
 70
    24
 71
     3
 72
     8
 73
     4
 74
     0
 42
0.000000001
 43
0.00000001
 40
0.0
 40
0.0
 40
0.0
 40
0.0
 40
1.0
 40
1.0
 40
1.0
 40
1.0
 10
19.05000000000057
 20
-2.34418353995019
 30
0.0
 10
19.05000000000057
 20
-2.478718606596307
 30
0.0
 10
19.05000000000057
 20
-2.609066389579547
 30
0.0
 10
19.05000000000057
 20
-2.732663001713791
 30
0.0
  0
LINE
  5
CC
330
1F
100
AcDbEntity
  8
중심선
 62
     1
100
AcDbLine
 10
-34.75
 20
-0.0000000000000043
 30
0.0
 11
34.75
 21
0.0000000000000043
 31
0.0
  0
LINE
  5
CD
330
1F
100
AcDbEntity
  8
참조1
100
AcDbLine
 10
-8.644211678730512
 20
0.0010749287238892
 30
0.0
 11
-8.644211678730505
 21
-39.99892507127611
 31
0.0
  0
LINE
  5
CE
330
1F
100
AcDbEntity
  8
참조1
100
AcDbLine
 10
-8.644211678730505
 20
-39.99892507127611
 30
0.0
 11
-29.45992727542973
 21
-39.9989250712761
 31
0.0
  0
CIRCLE
  5
CF
330
1F
100
AcDbEntity
  8
해칭선
100
AcDbCircle
 10
0.0
 20
-0.0000000000000001
 30
0.0
 40
3.0
  0
INSERT
  5
D0
330
1F
100
AcDbEntity
  8
0
  6
Continuous
 62
     7
100
AcDbBlockReference
 66
     1
  2
블럭10
 10
-13.94027293212521
 20
-24.78398231936238
 30
0.0
  0
ATTRIB
  5
D1
330
D0
100
AcDbEntity
  8
FORMAT
 62
     2
100
AcDbText
 10
-23.12156822086649
 20
-22.70861540653019
 30
0.0
 40
4.233333333333333
  1
E5022014 [ 2 FLUTE ]
 41
0.75
  7
SLDTEXTSTYLE0
 11
-23.12156822086649
 21
-24.82528207319686
 31
0.0
100
AcDbAttribute
  2
AUTOATTR0
 70
     0
 74
     1
  0
SEQEND
  5
D2
330
D0
100
AcDbEntity
  8
0
  6
Continuous
 62
     7
  0
HATCH
  5
D3
330
1F
100
AcDbEntity
  8
중심선
100
AcDbHatch
 10
0.0
 20
0.0
 30
0.0
210
0.0
220
0.0
230
1.0
  2
SOLID
 70
     1
 71
     0
 91
        1
 92
        0
 93
        4
 72
     1
 10
-8.225363627744365
 20
-8.536808017718446
 11
-11.67163887158165
 21
-8.536808017718446
 72
     1
 10
-11.67163887158165
 20
-8.536808017718446
 11
-13.79986873078567
 21
-11.07313359829105
 72
     1
 10
-13.79986873078567
 20
-11.07313359829105
 11
-10.35356040183524
 21
-11.07309416898856
 72
     1
 10
-10.35356040183524
 20
-11.07309416898856
 11
-8.225363627744365
 21
-8.536808017718446
 97
        0
 75
     0
 76
     1
 98
        1
 10
8.644211678730507
 20
27.26211705355766
  0
HATCH
  5
D4
330
1F
100
AcDbEntity
  8
중심선
100
AcDbHatch
 10
0.0
 20
0.0
 30
0.0
210
0.0
220
0.0
230
1.0
  2
SOLID
 70
     1
 71
     0
 91
        1
 92
        0
 93
        4
 72
     1
 10
-3.212599636708413
 20
-8.536808017718446
 11
-6.658874880545696
 21
-8.536808017718446
 72
     1
 10
-6.658874880545696
 20
-8.536808017718446
 11
-11.19001288890308
 21
-13.93680801771847
 72
     1
 10
-11.19001288890308
 20
-13.93680801771847
 11
-7.743737645065803
 21
-13.93680801771847
 72
     1
 10
-7.743737645065803
 20
-13.93680801771847
 11
-3.212599636708413
 21
-8.536808017718446
 97
        0
 75
     0
 76
     1
 98
        1
 10
8.644211678730507
 20
27.26211705355766
  0
HATCH
  5
D5
330
1F
100
AcDbEntity
  8
중심선
100
AcDbHatch
 10
0.0
 20
0.0
 30
0.0
210
0.0
220
0.0
230
1.0
  2
SOLID
 70
     1
 71
     0
 91
        1
 92
        0
 93
        4
 72
     1
 10
1.800164354327483
 20
-8.536808017718446
 11
-1.646110889509606
 21
-8.536808017718446
 72
     1
 10
-1.646110889509606
 20
-8.536808017718446
 11
-8.694547791398882
 21
-16.93680801771847
 72
     1
 10
-8.694547791398882
 20
-16.93680801771847
 11
-5.2482725475616
 21
-16.93680801771847
 72
     1
 10
-5.2482725475616
 20
-16.93680801771847
 11
1.800164354327483
 21
-8.536808017718446
 97
        0
 75
     0
 76
     1
 98
        1
 10
8.644211678730507
 20
27.26211705355766
  0
HATCH
  5
D6
330
1F
100
AcDbEntity
  8
중심선
100
AcDbHatch
 10
0.0
 20
0.0
 30
0.0
210
0.0
220
0.0
230
1.0
  2
SOLID
 70
     1
 71
     0
 91
        1
 92
        0
 93
        6
 72
     3
 10
6.600054785339681
 20
-12.73680801776972
 11
3.960054785062285
 21
1.540882976769353E-10
 40
0.3939339440162626
 50
17.09539180608438
 51
320.0019657685077
 73
     0
 72
     1
 10
8.28305444104025
 20
-11.32470202235675
 11
10.58835631474134
 21
-9.390375312308802
 72
     3
 10
6.600054785286835
 20
-12.7368080177186
 11
6.600054785286829
 21
-1.278976924368180E-13
 40
0.636358354079598
 50
39.99873849337413
 51
368.4976242363724
 73
     1
 72
     1
 10
13.02538727718744
 20
-11.77680801764847
 11
5.280122092122758
 21
-11.77680801764847
 72
     1
 10
5.280122092122758
 20
-11.77680801764847
 11
5.280097047676824
 21
-13.69680801764836
 72
     1
 10
5.280097047676824
 20
-13.69680801764836
 11
9.721476817148861
 21
-13.69680801764833
 97
        0
 75
     0
 76
     1
 98
        1
 10
8.644211678730507
 20
27.26211705355766
  0
DIMENSION
  5
D7
330
1F
100
AcDbEntity
  8
치수문자_일반주서
100
AcDbDimension
  2
_D
 10
-41.90975830449789
 20
-3.175000000000097
 30
0.0
 11
-41.90975830449798
 21
23.12274999999994
 31
0.0
 70
   160
  1
%%c<>
 71
     2
 42
6.349999999999999
 52
-270.0
  3
SLDDIMSTYLE0
100
AcDbAlignedDimension
 13
-16.56884233574608
 23
3.174999999999996
 33
0.0
 14
-16.56884233574608
 24
-3.175000000000002
 34
0.0
 50
90.0000000000002
100
AcDbRotatedDimension
1001
ACAD
1000
DSTYLE
1002
{
1070
   171
1070
     6
1070
   273
1070
     5
1002
}
  0
DIMENSION
  5
EC
330
1F
100
AcDbEntity
  8
치수문자_일반주서
100
AcDbDimension
  2
_D_1
 10
45.77484833663163
 20
2.775776971059909
 30
0.0
 11
45.77484833663155
 21
23.81727697105991
 31
0.0
 70
   160
  1
%%c<>
 71
     2
 42
5.55155394211971
 52
-270.0
  3
SLDDIMSTYLE0
100
AcDbAlignedDimension
 13
31.75000000000001
 23
-2.775776971059855
 33
0.0
 14
31.75000000000001
 24
2.775776971059855
 34
0.0
 50
90.0000000000002
100
AcDbRotatedDimension
1001
ACAD
1000
DSTYLE
1002
{
1070
   171
1070
     6
1070
   273
1070
     5
1002
}
  0
DIMENSION
  5
100
330
1F
100
AcDbEntity
  8
치수문자_일반주서
100
AcDbDimension
  2
_D_2
 10
19.05
 20
17.18580548908831
 30
0.0
 11
1.071
 21
17.18580548908831
 31
0.0
 70
   160
  1
<>
 71
     2
 42
12.70000000000001
  3
SLDDIMSTYLE0
100
AcDbAlignedDimension
 13
31.75000000000001
 23
2.775776971059855
 33
0.0
 14
19.05
 24
2.732663001717958
 34
0.0
100
AcDbRotatedDimension
1001
ACAD
1000
DSTYLE
1002
{
1070
   171
1070
     6
1070
   273
1070
     5
1002
}
  0
DIMENSION
  5
115
330
1F
100
AcDbEntity
  8
치수문자_일반주서
100
AcDbDimension
  2
_D_3
 10
31.75000000000001
 20
36.79500000000002
 30
0.0
 11
0.0000000000000089
 21
36.79500000000002
 31
0.0
 70
   160
  1
<>
 71
     2
 42
63.49999999999999
  3
SLDDIMSTYLE0
100
AcDbAlignedDimension
 13
-31.74999999999998
 23
2.77577697105985
 33
0.0
 14
31.75000000000001
 24
2.775776971059855
 34
0.0
100
AcDbRotatedDimension
1001
ACAD
1000
DSTYLE
1002
{
1070
   171
1070
     6
1070
   273
1070
     5
1002
}
  0
LINE
  5
128
330
1F
100
AcDbEntity
  8
참조1
100
AcDbLine
 10
68.51241335422453
 20
7.441074928723896
 30
0.0
 11
68.51241335422453
 21
-7.438925071276109
 31
0.0
  0
LINE
  5
129
330
1F
100
AcDbEntity
  8
참조1
100
AcDbLine
 10
81.21241335422454
 20
5.441074928723896
 30
0.0
 11
68.51241335422453
 21
5.441074928723896
 31
0.0
  0
SOLID
  5
12A
330
1F
100
AcDbEntity
  8
참조1
100
AcDbTrace
 10
68.51241335422453
 20
5.441074928723896
 30
0.0
 11
74.86241335422453
 21
4.425074928723896
 31
0.0
 12
74.86241335422453
 22
6.457074928723896
 32
0.0
 13
74.86241335422453
 23
6.457074928723896
 33
0.0
  0
LINE
  5
12B
330
1F
100
AcDbEntity
  8
참조1
100
AcDbLine
 10
81.21241335422454
 20
-5.438925071276109
 30
0.0
 11
68.51241335422453
 21
-5.438925071276109
 31
0.0
  0
SOLID
  5
12C
330
1F
100
AcDbEntity
  8
참조1
100
AcDbTrace
 10
68.51241335422453
 20
-5.438925071276109
 30
0.0
 11
74.86241335422453
 21
-6.454925071276109
 31
0.0
 12
74.86241335422453
 22
-4.422925071276109
 32
0.0
 13
74.86241335422453
 23
-4.422925071276109
 33
0.0
  0
MTEXT
  5
12D
330
1F
100
AcDbEntity
  8
참조1
100
AcDbMText
 10
77.89676348685053
 20
11.01136670591222
 30
0.0
 40
3.5
 41
0.0
 71
     1
 72
     1
  1
A
  7
SLDTEXTSTYLE0
 73
     1
 44
1.0
  0
MTEXT
  5
12E
330
1F
100
AcDbEntity
  8
참조1
100
AcDbMText
 10
77.89676348685053
 20
0.1313667059122192
 30
0.0
 40
3.5
 41
0.0
 71
     1
 72
     1
  1
A
  7
SLDTEXTSTYLE0
 73
     1
 44
1.0
  0
INSERT
  5
135
330
1F
100
AcDbEntity
  8
해칭선
100
AcDbBlockReference
  2
SW_DOWELSYMBOL_0
 10
0.0
 20
-0.0000000000000001
 30
0.0
  0
LINE
  5
2CB
330
1F
100
AcDbEntity
  8
외형선
  6
Continuous
370
    15
100
AcDbLine
 10
-16.56884233574608
 20
3.174999999999999
 30
0.0
 11
-18.04999999999998
 21
2.778124999999998
 31
0.0
  0
LINE
  5
2CC
330
1F
100
AcDbEntity
  8
외형선
  6
Continuous
370
    15
100
AcDbLine
 10
-18.04999999999998
 20
-2.778125000000001
 30
0.0
 11
-16.56884233574608
 21
-3.175000000000002
 31
0.0
  0
LINE
  5
2CD
330
1F
100
AcDbEntity
  8
외형선
  6
Continuous
370
    15
100
AcDbLine
 10
-18.20763332635385
 20
-2.778125000000001
 30
0.0
 11
-18.04999999999998
 21
-2.778125000000001
 31
0.0
  0
LINE
  5
2CE
330
1F
100
AcDbEntity
  8
외형선
  6
Continuous
370
    15
100
AcDbLine
 10
-18.04999999999998
 20
2.778124999999998
 30
0.0
 11
-18.17669117162429
 21
2.778124999999998
 31
0.0
  0
LINE
  5
2CF
330
1F
100
AcDbEntity
  8
0
  6
Continuous
 62
     1
370
    15
100
AcDbLine
 10
-24.55339933086608
 20
-0.7118854744991677
 30
0.0
 11
-23.78097710377842
 21
-1.097377960353553
 31
0.0
  0
SPLINE
  5
2D0
330
1F
100
AcDbEntity
  8
0
  6
Continuous
 62
     1
370
    15
100
AcDbSpline
210
0.0
220
0.0
230
1.0
 70
     8
 71
     3
 72
    15
 73
    11
 74
     0
 42
0.000000001
 43
0.00000001
 40
0.0
 40
0.0
 40
0.0
 40
0.0
 40
0.1740277268440866
 40
0.2899073903298628
 40
0.3933534640550159
 40
0.5081025547512756
 40
0.6348117533239968
 40
0.7722402355131748
 40
0.9121590030921158
 40
1.0
 40
1.0
 40
1.0
 40
1.0
 10
-23.63332149253646
 20
-2.207595134520743
 30
0.0
 10
-23.50338763992169
 20
-2.201128765648724
 30
0.0
 10
-23.28693486650358
 20
-2.190356642386559
 30
0.0
 10
-22.98881914730037
 20
-2.18048858892586
 30
0.0
 10
-22.73510592580637
 20
-2.174266991745204
 30
0.0
 10
-22.47507593949032
 20
-2.170367545729631
 30
0.0
 10
-22.18940281512779
 20
-2.168977851853489
 30
0.0
 10
-21.88488739579898
 20
-2.171229844111101
 30
0.0
 10
-21.60950300163848
 20
-2.175855072935333
 30
0.0
 10
-21.43774307018946
 20
-2.181708111711577
 30
0.0
 10
-21.37149974735626
 20
-2.183965476010334
 30
0.0
  0
SPLINE
  5
2D1
330
1F
100
AcDbEntity
  8
0
  6
Continuous
 62
     1
370
    15
100
AcDbSpline
210
0.0
220
0.0
230
1.0
 70
     8
 71
     3
 72
    26
 73
    22
 74
     0
 42
0.000000001
 43
0.00000001
 40
0.0
 40
0.0
 40
0.0
 40
0.0
 40
0.0711240325530559
 40
0.1281193045070247
 40
0.1816284063076603
 40
0.2141856140482725
 40
0.243888256683671
 40
0.2734638337435936
 40
0.3044000534263998
 40
0.3385929552071565
 40
0.4306033995502136
 40
0.5291499206760999
 40
0.5987170093497031
 40
0.65492124464214
 40
0.7106921709952475
 40
0.737742195450661
 40
0.7640366870394834
 40
0.7975993430468494
 40
0.8482872241566355
 40
0.9156878980078627
 40
1.0
 40
1.0
 40
1.0
 40
1.0
 10
-30.71672387411518
 20
-1.900099095568605
 30
0.0
 10
-30.60080099700587
 20
-1.890672312406762
 30
0.0
 10
-30.39198327592657
 20
-1.873691372785095
 30
0.0
 10
-30.09740187450476
 20
-1.855784214985837
 30
0.0
 10
-29.86558972359006
 20
-1.844794339244485
 30
0.0
 10
-29.68098569322817
 20
-1.838122326354094
 30
0.0
 10
-29.53371502745305
 20
-1.833906333129553
 30
0.0
 10
-29.38810357055845
 20
-1.830826967063947
 30
0.0
 10
-29.23477036276775
 20
-1.828766712989554
 30
0.0
 10
-28.98074754952143
 20
-1.827476452696521
 30
0.0
 10
-28.61750387420918
 20
-1.83159839286874
 30
0.0
 10
-28.196725811707
 20
-1.846548447780334
 30
0.0
 10
-27.83387789530679
 20
-1.86711420681346
 30
0.0
 10
-27.5404799026912
 20
-1.888542762730742
 30
0.0
 10
-27.31561736470159
 20
-1.907970651734784
 30
0.0
 10
-27.13916322410463
 20
-1.924909057820477
 30
0.0
 10
-26.99864146792782
 20
-1.939268228425901
 30
0.0
 10
-26.82004784390592
 20
-1.958745629105932
 30
0.0
 10
-26.57498706569765
 20
-1.987892523774049
 30
0.0
 10
-26.24787953281622
 20
-2.031063781132891
 30
0.0
 10
-26.00203502344358
 20
-2.068633077312468
 30
0.0
 10
-25.86541062096192
 20
-2.089511650746095
 30
0.0
  0
SPLINE
  5
2D2
330
1F
100
AcDbEntity
  8
0
  6
Continuous
 62
     1
370
    15
100
AcDbSpline
210
0.0
220
0.0
230
1.0
 70
     8
 71
     3
 72
    15
 73
    11
 74
     0
 42
0.000000001
 43
0.00000001
 40
0.0
 40
0.0
 40
0.0
 40
0.0
 40
0.1718742606058955
 40
0.2973021520012492
 40
0.3810257709159511
 40
0.4639743018881962
 40
0.5571069420887842
 40
0.6579318873450578
 40
0.9037428760091306
 40
1.0
 40
1.0
 40
1.0
 40
1.0
 10
-25.86541062096192
 20
2.089511650746092
 30
0.0
 10
-25.98328795379233
 20
2.071439651699984
 30
0.0
 10
-26.18718808752444
 20
2.040179332741056
 30
0.0
 10
-26.4477342453492
 20
2.004553598088146
 30
0.0
 10
-26.64774724539327
 20
1.979180064312063
 30
0.0
 10
-26.82697401882593
 20
1.957979696480814
 30
0.0
 10
-27.01888993900972
 20
1.936926652866022
 30
0.0
 10
-27.32439614636851
 20
1.906609292343683
 30
0.0
 10
-27.62979718697624
 20
1.879787904595433
 30
0.0
 10
-27.865255970962
 20
1.866849875186732
 30
0.0
 10
-27.93151349256771
 20
1.86320914559248
 30
0.0
  0
SPLINE
  5
2D3
330
1F
100
AcDbEntity
  8
0
  6
Continuous
 62
     1
370
    15
100
AcDbSpline
210
0.0
220
0.0
230
1.0
 70
     8
 71
     3
 72
    22
 73
    18
 74
     0
 42
0.000000001
 43
0.00000001
 40
0.0
 40
0.0
 40
0.0
 40
0.0
 40
0.1042246512341268
 40
0.1763096710511328
 40
0.2230496450982445
 40
0.2677112324836615
 40
0.3120898694455757
 40
0.4011027097016349
 40
0.5065238667044595
 40
0.5727789335639056
 40
0.6384437310766725
 40
0.7001654981746536
 40
0.7569256366021291
 40
0.8088979289508559
 40
0.8562721995800417
 40
0.9158821375848477
 40
1.0
 40
1.0
 40
1.0
 40
1.0
 10
-19.45199132893702
 20
2.312123714866866
 30
0.0
 10
-19.59781204970121
 20
2.298068732722195
 30
0.0
 10
-19.84448692945319
 20
2.274292886516777
 30
0.0
 10
-20.15585950945884
 20
2.249514489627559
 30
0.0
 10
-20.38231713429146
 20
2.233232114834871
 30
0.0
 10
-20.57123943294589
 20
2.220911826960021
 30
0.0
 10
-20.81944019902806
 20
2.206299977490426
 30
0.0
 10
-21.15219596735187
 20
2.190200335538806
 30
0.0
 10
-21.51564564424786
 20
2.178221261264229
 30
0.0
 10
-21.84646253784593
 20
2.171763735306365
 30
0.0
 10
-22.11627178908599
 20
2.16931618725947
 30
0.0
 10
-22.3728575822288
 20
2.169634912269048
 30
0.0
 10
-22.61036343103411
 20
2.172178092860365
 30
0.0
 10
-22.82840395609552
 20
2.1763823857143
 30
0.0
 10
-23.0520675437721
 20
2.182459354288698
 30
0.0
 10
-23.31870359813329
 20
2.191816318846998
 30
0.0
 10
-23.51716837193086
 20
2.201769786654106
 30
0.0
 10
-23.63332149253646
 20
2.207595134520739
 30
0.0
  0
LINE
  5
2D4
330
1F
100
AcDbEntity
  8
외형선
  6
Continuous
370
    15
100
AcDbLine
 10
-18.04999999999998
 20
-2.778125000000001
 30
0.0
 11
-18.04999999999998
 21
2.778124999999998
 31
0.0
  0
LINE
  5
2D5
330
1F
100
AcDbEntity
  8
외형선
  6
Continuous
370
    15
100
AcDbLine
 10
-19.04999999999998
 20
-2.732663001717958
 30
0.0
 11
-19.04999999999998
 21
-2.488140923832566
 31
0.0
  0
SPLINE
  5
2D6
330
1F
100
AcDbEntity
  8
외형선
  6
Continuous
370
    15
100
AcDbSpline
210
0.0
220
0.0
230
1.0
 70
     8
 71
     3
 72
     8
 73
     4
 74
     0
 42
0.000000001
 43
0.00000001
 40
0.0
 40
0.0
 40
0.0
 40
0.0
 40
1.0
 40
1.0
 40
1.0
 40
1.0
 10
-18.15989862195863
 20
-2.672732657786225
 30
0.0
 10
-18.45457214318284
 20
-2.626188266124954
 30
0.0
 10
-18.75379867875622
 20
-2.564158915934511
 30
0.0
 10
-19.04999999999979
 20
-2.488140923832473
 30
0.0
  0
LINE
  5
2D7
330
1F
100
AcDbEntity
  8
외형선
  6
Continuous
370
    15
100
AcDbLine
 10
-18.15989862195863
 20
2.778107453666339
 30
0.0
 11
-18.15989862195863
 21
-2.672933371535363
 31
0.0
  0
SPLINE
  5
2D8
330
1F
100
AcDbEntity
  8
외형선
  6
Continuous
370
    15
100
AcDbSpline
210
0.0
220
0.0
230
1.0
 70
     8
 71
     3
 72
     8
 73
     4
 74
     0
 42
0.000000001
 43
0.00000001
 40
0.0
 40
0.0
 40
0.0
 40
0.0
 40
1.0
 40
1.0
 40
1.0
 40
1.0
 10
-19.04999999999998
 20
2.732663001717954
 30
0.0
 10
-18.7537631684771
 20
2.763456646922934
 30
0.0
 10
-18.45450040240198
 20
2.778706970542304
 30
0.0
 10
-18.15979264080007
 20
2.778107874277397
 30
0.0
  0
SPLINE
  5
2D9
330
1F
100
AcDbEntity
  8
외형선
  6
Continuous
370
    15
100
AcDbSpline
210
0.0
220
0.0
230
1.0
 70
     8
 71
     3
 72
     8
 73
     4
 74
     0
 42
0.000000001
 43
0.00000001
 40
0.0
 40
0.0
 40
0.0
 40
0.0
 40
1.0
 40
1.0
 40
1.0
 40
1.0
 10
-19.04999999999998
 20
-2.732663001717965
 30
0.0
 10
-18.77041480680501
 20
-2.761725718867458
 30
0.0
 10
-18.48813236695363
 20
-2.776956468453717
 30
0.0
 10
-18.20953136371883
 20
-2.778059854053224
 30
0.0
  0
SPLINE
  5
2DA
330
1F
100
AcDbEntity
  8
외형선
  6
Continuous
370
    15
100
AcDbSpline
210
0.0
220
0.0
230
1.0
 70
     8
 71
     3
 72
     8
 73
     4
 74
     0
 42
0.000000001
 43
0.00000001
 40
0.0
 40
0.0
 40
0.0
 40
0.0
 40
1.0
 40
1.0
 40
1.0
 40
1.0
 10
-19.04999999999996
 20
1.069603155241639
 30
0.0
 10
-18.75378570350471
 20
0.9497556789328189
 30
0.0
 10
-18.45454592952404
 20
0.8233842617692008
 30
0.0
 10
-18.15985989700808
 20
0.6937164696670822
 30
0.0
  0
SPLINE
  5
2DB
330
1F
100
AcDbEntity
  8
외형선
  6
Continuous
370
    15
100
AcDbSpline
210
0.0
220
0.0
230
1.0
 70
     8
 71
     3
 72
     8
 73
     4
 74
     0
 42
0.000000001
 43
0.00000001
 40
0.0
 40
0.0
 40
0.0
 40
0.0
 40
1.0
 40
1.0
 40
1.0
 40
1.0
 10
-19.04999999999996
 20
-1.704668734656386
 30
0.0
 10
-18.75379011703209
 20
-1.762242045898495
 30
0.0
 10
-18.45455484609231
 20
-1.810249292533803
 30
0.0
 10
-18.15987306928084
 20
-1.847525912088072
 30
0.0
  0
SPLINE
  5
2DC
330
1F
100
AcDbEntity
  8
외형선
  6
Continuous
370
    15
100
AcDbSpline
210
0.0
220
0.0
230
1.0
 70
    24
 71
     3
 72
    14
 73
    10
 74
     0
 42
0.000000001
 43
0.00000001
 40
0.0
 40
0.0
 40
0.0
 40
0.0
 40
0.25
 40
0.25
 40
0.5
 40
0.5
 40
0.75
 40
0.75
 40
1.0
 40
1.0
 40
1.0
 40
1.0
 10
-19.04999999999998
 20
-1.704668734656378
 30
0.0
 10
-19.04999999999998
 20
-1.543019267778737
 30
0.0
 10
-19.04999999999998
 20
-1.353433230994709
 30
0.0
 10
-19.04999999999998
 20
-0.9290967463084724
 30
0.0
 10
-19.04999999999998
 20
-0.6944647601240687
 30
0.0
 10
-19.04999999999998
 20
-0.2013966599509215
 30
0.0
 10
-19.04999999999998
 20
0.0567767267397502
 30
0.0
 10
-19.04999999999998
 20
0.5708135537334743
 30
0.0
 10
-19.04999999999998
 20
0.8264325433479572
 30
0.0
 10
-19.04999999999998
 20
1.069603155241646
 30
0.0
  0
SPLINE
  5
2DD
330
1F
100
AcDbEntity
  8
외형선
  6
Continuous
370
    15
100
AcDbSpline
210
0.0
220
0.0
230
1.0
 70
     8
 71
     3
 72
     8
 73
     4
 74
     0
 42
0.000000001
 43
0.00000001
 40
0.0
 40
0.0
 40
0.0
 40
0.0
 40
1.0
 40
1.0
 40
1.0
 40
1.0
 10
-19.04999999999996
 20
2.344183539950217
 30
0.0
 10
-18.75376316847709
 20
2.361697637586788
 30
0.0
 10
-18.45450040240197
 20
2.365848310593835
 30
0.0
 10
-18.15979264080007
 20
2.356598923427592
 30
0.0
  0
SPLINE
  5
2DE
330
1F
100
AcDbEntity
  8
외형선
  6
Continuous
370
    15
100
AcDbSpline
210
0.0
220
0.0
230
1.0
 70
    24
 71
     3
 72
    10
 73
     6
 74
     0
 42
0.000000001
 43
0.00000001
 40
0.0
 40
0.0
 40
0.0
 40
0.0
 40
0.4999999999999999
 40
0.4999999999999999
 40
1.0
 40
1.0
 40
1.0
 40
1.0
 10
-19.04999999999998
 20
1.069603155241646
 30
0.0
 10
-19.04999999999998
 20
1.418871477630654
 30
0.0
 10
-19.04999999999998
 20
1.730375042159872
 30
0.0
 10
-19.04999999999998
 20
2.175904045308863
 30
0.0
 10
-19.04999999999998
 20
2.308011752929568
 30
0.0
 10
-19.04999999999998
 20
2.344183539950217
 30
0.0
  0
SPLINE
  5
2DF
330
1F
100
AcDbEntity
  8
외형선
  6
Continuous
370
    15
100
AcDbSpline
210
0.0
220
0.0
230
1.0
 70
    24
 71
     3
 72
    10
 73
     6
 74
     0
 42
0.000000001
 43
0.00000001
 40
0.0
 40
0.0
 40
0.0
 40
0.0
 40
0.4999999999999999
 40
0.4999999999999999
 40
1.0
 40
1.0
 40
1.0
 40
1.0
 10
-19.04999999999998
 20
-2.488140923832423
 30
0.0
 10
-19.04999999999998
 20
-2.383313700750476
 30
0.0
 10
-19.04999999999998
 20
-2.256171038653198
 30
0.0
 10
-19.04999999999998
 20
-1.984492588772197
 30
0.0
 10
-19.04999999999998
 20
-1.840755798407299
 30
0.0
 10
-19.04999999999998
 20
-1.704668734656378
 30
0.0
  0
SPLINE
  5
2E0
330
1F
100
AcDbEntity
  8
외형선
  6
Continuous
370
    15
100
AcDbSpline
210
0.0
220
0.0
230
1.0
 70
    24
 71
     3
 72
     8
 73
     4
 74
     0
 42
0.000000001
 43
0.00000001
 40
0.0
 40
0.0
 40
0.0
 40
0.0
 40
1.0
 40
1.0
 40
1.0
 40
1.0
 10
-19.05000000000054
 20
2.344183539950189
 30
0.0
 10
-19.05000000000054
 20
2.478718606596304
 30
0.0
 10
-19.05000000000054
 20
2.609066389579541
 30
0.0
 10
-19.05000000000054
 20
2.732663001713783
 30
0.0
  0
SPLINE
  5
2E1
330
1F
100
AcDbEntity
  8
0
  6
Continuous
 62
     1
370
    15
100
AcDbSpline
210
0.0
220
0.0
230
1.0
 70
     8
 71
     3
 72
    38
 73
    34
 74
     0
 42
0.000000001
 43
0.00000001
 40
0.0
 40
0.0
 40
0.0
 40
0.0
 40
0.0625
 40
0.0625
 40
0.125
 40
0.125
 40
0.1875
 40
0.1875
 40
0.25
 40
0.25
 40
0.3125
 40
0.3125
 40
0.375
 40
0.375
 40
0.4375
 40
0.4375
 40
0.5
 40
0.5
 40
0.5625
 40
0.5625
 40
0.625
 40
0.625
 40
0.6875
 40
0.6875
 40
0.75
 40
0.75
 40
0.8125
 40
0.8125
 40
0.875
 40
0.875
 40
0.9375
 40
0.9375
 40
1.0
 40
1.0
 40
1.0
 40
1.0
 10
-31.74999999999998
 20
2.636276352334869
 30
0.0
 10
-31.48808234683421
 20
2.588247045639344
 30
0.0
 10
-31.2215005584826
 20
2.527975489229691
 30
0.0
 10
-30.6897681983115
 20
2.38504605516213
 30
0.0
 10
-30.42763475188685
 20
2.302766839238311
 30
0.0
 10
-29.89956986026116
 20
2.117795200211484
 30
0.0
 10
-29.63230067662393
 20
2.0148545572687
 30
0.0
 10
-29.10213980159542
 20
1.792170436526598
 30
0.0
 10
-28.84118700198895
 20
1.672802748910458
 30
0.0
 10
-28.31042805035963
 20
1.418673206796301
 30
0.0
 10
-28.04327096727089
 20
1.284257281325923
 30
0.0
 10
-27.51623761678392
 20
1.006265021341031
 30
0.0
 10
-27.25318622201774
 20
0.8621701813219164
 30
0.0
 10
-26.72129512155905
 20
0.5663998239981626
 30
0.0
 10
-26.45628703975114
 20
0.4154328785432585
 30
0.0
 10
-25.93111414992486
 20
0.1120420789843893
 30
0.0
 10
-25.66425943326725
 20
-0.041669306425396
 30
0.0
 10
-25.13280923244246
 20
-0.3468950650191031
 30
0.0
 10
-24.87133710255384
 20
-0.4978112716263096
 30
0.0
 10
-24.34236126235599
 20
-0.794927132198387
 30
0.0
 10
-24.07504276872374
 20
-0.9410588793294378
 30
0.0
 10
-23.54560217529242
 20
-1.22252772052819
 30
0.0
 10
-23.28439183628625
 20
-1.357755551787071
 30
0.0
 10
-22.7531574745831
 20
-1.616177356578119
 30
0.0
 10
-22.48617519426984
 20
-1.738795711042725
 30
0.0
 10
-21.96029318679837
 20
-1.966025590050448
 30
0.0
 10
-21.69606791672859
 20
-2.071443077482533
 30
0.0
 10
-21.16414161792118
 20
-2.262938269636335
 30
0.0
 10
-20.90045281577198
 20
-2.348537968492364
 30
0.0
 10
-20.37406072304693
 20
-2.49772018229312
 30
0.0
 10
-20.10699554229874
 20
-2.561647338002983
 30
0.0
 10
-19.57595070157104
 20
-2.665379644927105
 30
0.0
 10
-19.31488274818562
 20
-2.705128595119708
 30
0.0
 10
-19.0499999999979
 20
-2.732663001718178
 30
0.0
  0
SPLINE
  5
2E2
330
1F
100
AcDbEntity
  8
0
  6
Continuous
 62
     1
370
    15
100
AcDbSpline
210
0.0
220
0.0
230
1.0
 70
     8
 71
     3
 72
    14
 73
    10
 74
     0
 42
0.000000001
 43
0.00000001
 40
0.0
 40
0.0
 40
0.0
 40
0.0
 40
0.1569685372541667
 40
0.3137335712923506
 40
0.470405118762928
 40
0.6270943224504173
 40
0.7839121121352555
 40
0.9409365137259653
 40
1.0
 40
1.0
 40
1.0
 40
1.0
 10
-31.74999999999998
 20
2.19186357194795
 30
0.0
 10
-31.37206771265001
 20
2.111195334716934
 30
0.0
 10
-30.61669311152855
 20
1.949963443287865
 30
0.0
 10
-29.4844079991292
 20
1.567989744748098
 30
0.0
 10
-28.35287546463137
 20
1.108523461854803
 30
0.0
 10
-27.22119121748019
 20
0.5849072442584332
 30
0.0
 10
-26.08856241358951
 20
0.0321381386640896
 30
0.0
 10
-25.19059582551804
 20
-0.4147981562465387
 30
0.0
 10
-24.67039649286004
 20
-0.6529023975926035
 30
0.0
 10
-24.52820996659144
 20
-0.7179836324989123
 30
0.0
  0
LINE
  5
2E3
330
1F
100
AcDbEntity
  8
0
  6
Continuous
 62
     1
370
    15
100
AcDbLine
 10
-31.74999999999991
 20
2.636276352334869
 30
0.0
 11
-31.74999999999998
 21
2.19186357194795
 31
0.0
  0
SPLINE
  5
2E4
330
1F
100
AcDbEntity
  8
0
  6
Continuous
 62
     1
370
    15
100
AcDbSpline
210
0.0
220
0.0
230
1.0
 70
     8
 71
     3
 72
    38
 73
    34
 74
     0
 42
0.000000001
 43
0.00000001
 40
0.0
 40
0.0
 40
0.0
 40
0.0
 40
0.0625
 40
0.0625
 40
0.125
 40
0.125
 40
0.1875
 40
0.1875
 40
0.25
 40
0.25
 40
0.3125
 40
0.3125
 40
0.375
 40
0.375
 40
0.4375
 40
0.4375
 40
0.5
 40
0.5
 40
0.5625
 40
0.5625
 40
0.625
 40
0.625
 40
0.6875
 40
0.6875
 40
0.75
 40
0.75
 40
0.8125
 40
0.8125
 40
0.875
 40
0.875
 40
0.9375
 40
0.9375
 40
1.0
 40
1.0
 40
1.0
 40
1.0
 10
-19.04999999999971
 20
-2.488140923831713
 30
0.0
 10
-19.31488274818738
 20
-2.420160623895354
 30
0.0
 10
-19.57595070157277
 20
-2.341264113280642
 30
0.0
 10
-20.10699554230042
 20
-2.162089349656794
 30
0.0
 10
-20.37406072304857
 20
-2.06202584149848
 30
0.0
 10
-20.9004528157735
 20
-1.845174055794557
 30
0.0
 10
-21.1641416179227
 20
-1.727841907332851
 30
0.0
 10
-21.69606791673004
 20
-1.477853991904594
 30
0.0
 10
-21.96029318679974
 20
-1.345828429073882
 30
0.0
 10
-22.48617519427116
 20
-1.071287494243789
 30
0.0
 10
-22.75315747458439
 20
-0.9278212899796953
 30
0.0
 10
-23.28439183628745
 20
-0.6342265315146404
 30
0.0
 10
-23.54560217529359
 20
-0.4847059365594842
 30
0.0
 10
-24.07504276872485
 20
-0.1813203856692935
 30
0.0
 10
-24.34236126235705
 20
-0.0276154525845468
 30
0.0
 10
-24.87133710255483
 20
0.2775748702200448
 30
0.0
 10
-25.1328092324434
 20
0.4290285802358315
 30
0.0
 10
-25.66425943326814
 20
0.728292430283675
 30
0.0
 10
-25.9311141499257
 20
0.8754790485028198
 30
0.0
 10
-26.45628703975186
 20
1.15907903288055
 30
0.0
 10
-26.72129512155976
 20
1.296707412577364
 30
0.0
 10
-27.25318622201838
 20
1.559241025028237
 30
0.0
 10
-27.51623761678452
 20
1.68353192872364
 30
0.0
 10
-28.04327096727142
 20
1.915972248259665
 30
0.0
 10
-28.31042805036011
 20
2.024527107325556
 30
0.0
 10
-28.84118700198936
 20
2.221774938923945
 30
0.0
 10
-29.1021398015958
 20
2.310248453271514
 30
0.0
 10
-29.63230067662423
 20
2.466417658674297
 30
0.0
 10
-29.89956986026143
 20
2.533793835387643
 30
0.0
 10
-30.42763475188703
 20
2.644482232985284
 30
0.0
 10
-30.68976819831166
 20
2.687996217960334
 30
0.0
 10
-31.22150055848267
 20
2.750631703483529
 30
0.0
 10
-31.48808234683425
 20
2.769518484516334
 30
0.0
 10
-31.74999999999998
 20
2.77577697105882
 30
0.0
  0
SPLINE
  5
2E5
330
1F
100
AcDbEntity
  8
0
  6
Continuous
 62
     1
370
    15
100
AcDbSpline
210
0.0
220
0.0
230
1.0
 70
     8
 71
     3
 72
    12
 73
     8
 74
     0
 42
0.000000001
 43
0.00000001
 40
0.0
 40
0.0
 40
0.0
 40
0.0
 40
0.177357212815674
 40
0.3724718756651873
 40
0.567511030212011
 40
0.783738449231998
 40
1.0
 40
1.0
 40
1.0
 40
1.0
 10
-24.8505427230772
 20
0.2653576753823418
 30
0.0
 10
-24.50759181686353
 20
0.1271173927910655
 30
0.0
 10
-23.78735289750683
 20
-0.1632041370289327
 30
0.0
 10
-22.69014174200522
 20
-0.6028566798811054
 30
0.0
 10
-21.5178673599228
 20
-1.035129437532772
 30
0.0
 10
-20.30442936597451
 20
-1.427041168574261
 30
0.0
 10
-19.4681651211348
 20
-1.612121343826685
 30
0.0
 10
-19.04999999999998
 20
-1.704668734656378
 30
0.0
  0
SPLINE
  5
2E6
330
1F
100
AcDbEntity
  8
외형선
  6
Continuous
370
    15
100
AcDbSpline
210
0.0
220
0.0
230
1.0
 70
    24
 71
     3
 72
    10
 73
     6
 74
     0
 42
0.000000001
 43
0.00000001
 40
0.0
 40
0.0
 40
0.0
 40
0.0
 40
0.4999999999999999
 40
0.4999999999999999
 40
1.0
 40
1.0
 40
1.0
 40
1.0
 10
-19.04999999999998
 20
-2.488140923832423
 30
0.0
 10
-19.04999999999998
 20
-2.383313700750476
 30
0.0
 10
-19.04999999999998
 20
-2.256171038653205
 30
0.0
 10
-19.04999999999998
 20
-1.984492588772197
 30
0.0
 10
-19.04999999999998
 20
-1.840755798407299
 30
0.0
 10
-19.04999999999998
 20
-1.704668734656378
 30
0.0
  0
LINE
  5
2E7
330
1F
100
AcDbEntity
  8
0
  6
Continuous
 62
     1
370
    15
100
AcDbLine
 10
-31.74999999999998
 20
2.77577697105985
 30
0.0
 11
-31.74999999999996
 21
2.636276352334862
 31
0.0
  0
SPLINE
  5
2E8
330
1F
100
AcDbEntity
  8
0
  6
Continuous
 62
     1
370
    15
100
AcDbSpline
210
0.0
220
0.0
230
1.0
 70
     8
 71
     3
 72
     8
 73
     4
 74
     0
 42
0.000000001
 43
0.00000001
 40
0.0
 40
0.0
 40
0.0
 40
0.0
 40
1.0
 40
1.0
 40
1.0
 40
1.0
 10
-30.03025320493463
 20
-0.7778932338795937
 30
0.0
 10
-29.93180725072035
 20
-0.8945474298580703
 30
0.0
 10
-29.84395483824002
 20
-1.006817634167567
 30
0.0
 10
-29.76918337164883
 20
-1.113674468780593
 30
0.0
  0
LINE
  5
2E9
330
1F
100
AcDbEntity
  8
0
  6
Continuous
 62
     1
370
    15
100
AcDbLine
 10
-29.80433036664206
 20
-1.143166299316397
 30
0.0
 11
-31.74999999999998
 21
-0.0000000000000055
 31
0.0
  0
LINE
  5
2EA
330
1F
100
AcDbEntity
  8
0
  6
Continuous
 62
     1
370
    15
100
AcDbLine
 10
-31.74999999999998
 20
-0.0000000000000055
 30
0.0
 11
-31.74999999999998
 21
0.742434309438602
 31
0.0
  0
SPLINE
  5
2EB
330
1F
100
AcDbEntity
  8
0
  6
Continuous
 62
     1
370
    15
100
AcDbSpline
210
0.0
220
0.0
230
1.0
 70
     8
 71
     3
 72
    10
 73
     6
 74
     0
 42
0.000000001
 43
0.00000001
 40
0.0
 40
0.0
 40
0.0
 40
0.0
 40
0.5
 40
0.5
 40
1.0
 40
1.0
 40
1.0
 40
1.0
 10
-31.74999999999998
 20
0.742434309438602
 30
0.0
 10
-31.45229592326623
 20
0.5083865335042307
 30
0.0
 10
-31.15956906482474
 20
0.264736536317537
 30
0.0
 10
-30.58431343464812
 20
-0.242237958781777
 30
0.0
 10
-30.29911006502105
 20
-0.5082424888783149
 30
0.0
 10
-30.03025320493463
 20
-0.7778932338795937
 30
0.0
  0
SPLINE
  5
2EC
330
1F
100
AcDbEntity
  8
0
  6
Continuous
 62
     1
370
    15
100
AcDbSpline
210
0.0
220
0.0
230
1.0
 70
     8
 71
     3
 72
    14
 73
    10
 74
     0
 42
0.000000001
 43
0.00000001
 40
0.0
 40
0.0
 40
0.0
 40
0.0
 40
0.1313615791626874
 40
0.2621819267339903
 40
0.4390341413734665
 40
0.6160335404403118
 40
0.7932693944725939
 40
0.9703538497152283
 40
1.0
 40
1.0
 40
1.0
 40
1.0
 10
-30.03025320493463
 20
-0.7778932338795937
 30
0.0
 10
-29.75000067177246
 20
-0.8965218778145979
 30
0.0
 10
-29.19065029257566
 20
-1.13329039590772
 30
0.0
 10
-28.2549004414004
 20
-1.486179576762707
 30
0.0
 10
-27.22117169858969
 20
-1.812825934372965
 30
0.0
 10
-26.08857704998112
 20
-2.073080393500502
 30
0.0
 10
-24.95510278906236
 20
-2.207893942523524
 30
0.0
 10
-24.13612796990713
 20
-2.247435183995455
 30
0.0
 10
-23.69526121621274
 20
-2.205149257246253
 30
0.0
 10
-23.63203883072105
 20
-2.199085254598264
 30
0.0
  0
SPLINE
  5
2ED
330
1F
100
AcDbEntity
  8
0
  6
Continuous
 62
     1
370
    15
100
AcDbSpline
210
0.0
220
0.0
230
1.0
 70
    24
 71
     3
 72
    10
 73
     6
 74
     0
 42
0.000000001
 43
0.00000001
 40
0.0
 40
0.0
 40
0.0
 40
0.0
 40
0.5
 40
0.5
 40
1.0
 40
1.0
 40
1.0
 40
1.0
 10
-31.74999999999998
 20
2.191863571947943
 30
0.0
 10
-31.74999999999996
 20
2.023840140076191
 30
0.0
 10
-31.74999999999998
 20
1.811536091227653
 30
0.0
 10
-31.74999999999996
 20
1.317949609640481
 30
0.0
 10
-31.74999999999998
 20
1.037094740226914
 30
0.0
 10
-31.74999999999998
 20
0.7424343094386873
 30
0.0
  0
SPLINE
  5
2EE
330
1F
100
AcDbEntity
  8
0
  6
Continuous
 62
     1
370
    15
100
AcDbSpline
210
0.0
220
0.0
230
1.0
 70
    24
 71
     3
 72
     8
 73
     4
 74
     0
 42
0.000000001
 43
0.00000001
 40
0.0
 40
0.0
 40
0.0
 40
0.0
 40
1.0
 40
1.0
 40
1.0
 40
1.0
 10
-30.05929896848932
 20
-1.357110359088223
 30
0.0
 10
-29.96767263541133
 20
-1.280226736796342
 30
0.0
 10
-29.87039445057294
 20
-1.198600647776806
 30
0.0
 10
-29.76918337164887
 20
-1.113674468780572
 30
0.0
  0
LINE
  5
2EF
330
1F
100
AcDbEntity
  8
0
  6
Continuous
 62
     1
370
    15
100
AcDbLine
 10
-31.74999999999998
 20
-1.944687500000006
 30
0.0
 11
-30.71546717898693
 21
-1.895735367267774
 31
0.0
  0
SPLINE
  5
2F0
330
1F
100
AcDbEntity
  8
0
  6
Continuous
 62
     1
370
    15
100
AcDbSpline
210
0.0
220
0.0
230
1.0
 70
     8
 71
     3
 72
     8
 73
     4
 74
     0
 42
0.000000001
 43
0.00000001
 40
0.0
 40
0.0
 40
0.0
 40
0.0
 40
1.0
 40
1.0
 40
1.0
 40
1.0
 10
-31.74999999999998
 20
-1.944687500000006
 30
0.0
 10
-31.178649987074
 20
-1.789569107931419
 30
0.0
 10
-30.61255202821105
 20
-1.599092372656335
 30
0.0
 10
-30.05929896850017
 20
-1.357110359092962
 30
0.0
  0
SPLINE
  5
2F1
330
1F
100
AcDbEntity
  8
0
  6
Continuous
 62
     1
370
    15
100
AcDbSpline
210
0.0
220
0.0
230
1.0
 70
     8
 71
     3
 72
    13
 73
     9
 74
     0
 42
0.000000001
 43
0.00000001
 40
0.0
 40
0.0
 40
0.0
 40
0.0
 40
0.1341126280767891
 40
0.3002606036616724
 40
0.4662273414436694
 40
0.6321315231563595
 40
0.8160516230750181
 40
0.9999999999999999
 40
0.9999999999999999
 40
0.9999999999999999
 40
0.9999999999999999
 10
-25.86954710279789
 20
2.079639716572226
 30
0.0
 10
-25.56463011862656
 20
2.124114384347267
 30
0.0
 10
-24.8819609393934
 20
2.223687338701291
 30
0.0
 10
-23.82209039943711
 20
2.234337489258182
 30
0.0
 10
-22.69012307428616
 20
2.135637207353811
 30
0.0
 10
-21.51788553931123
 20
1.906633346358747
 30
0.0
 10
-20.30442398334754
 20
1.556493959394034
 30
0.0
 10
-19.468162754792
 20
1.231908406616016
 30
0.0
 10
-19.04999999999998
 20
1.069603155241646
 30
0.0
  0
SPLINE
  5
2F2
330
1F
100
AcDbEntity
  8
외형선
  6
Continuous
370
    15
100
AcDbSpline
210
0.0
220
0.0
230
1.0
 70
    24
 71
     3
 72
    14
 73
    10
 74
     0
 42
0.000000001
 43
0.00000001
 40
0.0
 40
0.0
 40
0.0
 40
0.0
 40
0.25
 40
0.25
 40
0.5
 40
0.5
 40
0.75
 40
0.75
 40
1.0
 40
1.0
 40
1.0
 40
1.0
 10
-19.04999999999998
 20
-1.704668734656378
 30
0.0
 10
-19.04999999999998
 20
-1.543019267778737
 30
0.0
 10
-19.04999999999998
 20
-1.353433230994709
 30
0.0
 10
-19.04999999999998
 20
-0.9290967463084724
 30
0.0
 10
-19.04999999999998
 20
-0.6944647601240616
 30
0.0
 10
-19.04999999999998
 20
-0.2013966599509215
 30
0.0
 10
-19.04999999999998
 20
0.0567767267397502
 30
0.0
 10
-19.04999999999998
 20
0.5708135537334743
 30
0.0
 10
-19.04999999999998
 20
0.8264325433479572
 30
0.0
 10
-19.04999999999998
 20
1.069603155241646
 30
0.0
  0
LINE
  5
2F3
330
1F
100
AcDbEntity
  8
0
  6
Continuous
 62
     1
370
    15
100
AcDbLine
 10
-19.45797611385459
 20
2.294547032725371
 30
0.0
 11
-19.04999999999996
 21
2.344183539950217
 31
0.0
  0
SPLINE
  5
2F4
330
1F
100
AcDbEntity
  8
외형선
  6
Continuous
370
    15
100
AcDbSpline
210
0.0
220
0.0
230
1.0
 70
    24
 71
     3
 72
    10
 73
     6
 74
     0
 42
0.000000001
 43
0.00000001
 40
0.0
 40
0.0
 40
0.0
 40
0.0
 40
0.5
 40
0.5
 40
1.0
 40
1.0
 40
1.0
 40
1.0
 10
-19.04999999999998
 20
1.069603155241646
 30
0.0
 10
-19.04999999999998
 20
1.418871477630654
 30
0.0
 10
-19.04999999999998
 20
1.730375042159872
 30
0.0
 10
-19.04999999999998
 20
2.175904045308863
 30
0.0
 10
-19.04999999999998
 20
2.308011752929568
 30
0.0
 10
-19.04999999999998
 20
2.344183539950217
 30
0.0
  0
LINE
  5
2F5
330
1F
100
AcDbEntity
  8
0
  6
Continuous
 62
     1
370
    15
100
AcDbLine
 10
-31.74999999999998
 20
-0.0000000000000055
 30
0.0
 11
-31.74999999999998
 21
-1.944687500000006
 31
0.0
  0
SPLINE
  5
2F6
330
1F
100
AcDbEntity
  8
0
  6
Continuous
 62
     1
370
    15
100
AcDbSpline
210
0.0
220
0.0
230
1.0
 70
    24
 71
     3
 72
    10
 73
     6
 74
     0
 42
0.000000001
 43
0.00000001
 40
0.0
 40
0.0
 40
0.0
 40
0.0
 40
0.5
 40
0.5
 40
1.0
 40
1.0
 40
1.0
 40
1.0
 10
-31.74999999999998
 20
-1.944687500000006
 30
0.0
 10
-31.74999999999998
 20
-2.062569613442824
 30
0.0
 10
-31.74999999999996
 20
-2.199559546321465
 30
0.0
 10
-31.74999999999996
 20
-2.486964056544378
 30
0.0
 10
-31.74999999999998
 20
-2.636644638835973
 30
0.0
 10
-31.74999999999998
 20
-2.775776971059861
 30
0.0
  0
SPLINE
  5
2F7
330
1F
100
AcDbEntity
  8
0
  6
Continuous
 62
     1
370
    15
100
AcDbSpline
210
0.0
220
0.0
230
1.0
 70
     8
 71
     3
 72
    14
 73
    10
 74
     0
 42
0.000000001
 43
0.00000001
 40
0.0
 40
0.0
 40
0.0
 40
0.0
 40
0.0236683453983007
 40
0.1285944838588779
 40
0.2338820557691721
 40
0.4229161758316773
 40
0.6125516144398059
 40
0.8059536933888546
 40
1.0
 40
1.0
 40
1.0
 40
1.0
 10
-27.92769187046715
 20
-1.862803099675551
 30
0.0
 10
-27.95782185068482
 20
-1.87607651244503
 30
0.0
 10
-28.12152358773344
 20
-1.948193411003535
 30
0.0
 10
-28.41993554646874
 20
-2.065752191702428
 30
0.0
 10
-28.92860382334144
 20
-2.254090000110677
 30
0.0
 10
-29.54462854731367
 20
-2.448479037383029
 30
0.0
 10
-30.27418164564718
 20
-2.620825928427506
 30
0.0
 10
-31.00895780308819
 20
-2.73921718432946
 30
0.0
 10
-31.50271227185787
 20
-2.763576874169599
 30
0.0
 10
-31.74999999999998
 20
-2.775776971059505
 30
0.0
  0
SPLINE
  5
2F8
330
1F
100
AcDbEntity
  8
0
  6
Continuous
 62
     1
370
    15
100
AcDbSpline
210
0.0
220
0.0
230
1.0
 70
     8
 71
     3
 72
    10
 73
     6
 74
     0
 42
0.000000001
 43
0.00000001
 40
0.0
 40
0.0
 40
0.0
 40
0.0
 40
0.0377170861889686
 40
0.5187833193623603
 40
0.9999999999999999
 40
0.9999999999999999
 40
0.9999999999999999
 40
0.9999999999999999
 10
-21.37087872520433
 20
2.184212458337663
 30
0.0
 10
-21.34169767489224
 20
2.195908950745329
 30
0.0
 10
-20.94032408872676
 20
2.356789489760056
 30
0.0
 10
-20.16679587916088
 20
2.567169218301922
 30
0.0
 10
-19.42230409207203
 20
2.67749265776518
 30
0.0
 10
-19.0499999999979
 20
2.732663001718167
 30
0.0
  0
SPLINE
  5
2F9
330
1F
100
AcDbEntity
  8
외형선
  6
Continuous
370
    15
100
AcDbSpline
210
0.0
220
0.0
230
1.0
 70
    24
 71
     3
 72
     8
 73
     4
 74
     0
 42
0.000000001
 43
0.00000001
 40
0.0
 40
0.0
 40
0.0
 40
0.0
 40
1.0
 40
1.0
 40
1.0
 40
1.0
 10
-19.05000000000054
 20
2.344183539950189
 30
0.0
 10
-19.05000000000054
 20
2.478718606596304
 30
0.0
 10
-19.05000000000054
 20
2.609066389579541
 30
0.0
 10
-19.05000000000054
 20
2.732663001713791
 30
0.0
  0
LINE
  5
2FE
330
1F
100
AcDbEntity
  8
외형선
  6
Continuous
370
    15
100
AcDbLine
 10
-16.56884233574608
 20
-3.175000000000002
 30
0.0
 11
-16.56884233574608
 21
3.174999999999992
 31
0.0
  0
LINE
  5
329
330
1F
100
AcDbEntity
  8
0
100
AcDbLine
 10
-16.56884233574608
 20
-0.0000000000000055
 30
0.0
 11
-36.95906546107519
 21
-0.0000000000000055
 31
0.0
  0
ENDSEC
  0
SECTION
  2
OBJECTS
  0
DICTIONARY
  5
C
330
0
100
AcDbDictionary
281
     1
  3
ACAD_GROUP
350
D
  3
ACAD_IMAGE_VARS
350
159
  3
ACAD_LAYOUT
350
1A
  3
ACAD_MLINESTYLE
350
17
  3
ACAD_PLOTSETTINGS
350
19
  3
ACAD_PLOTSTYLENAME
350
E
  3
ACAD_SCALELIST
350
47
  3
APPDATA
350
157
  3
DWGPROPS
350
34F
  0
DICTIONARY
  5
213
330
2
100
AcDbDictionary
280
     1
281
     1
  3
ACAD_LAYERSTATES
360
214
  0
DICTIONARY
  5
34D
330
1F
100
AcDbDictionary
280
     1
281
     1
  3
DIM_BOUNDING_BOXES_V1
360
34E
  0
DICTIONARY
  5
D
102
{ACAD_REACTORS
330
C
102
}
330
C
100
AcDbDictionary
281
     1
  0
RASTERVARIABLES
  5
159
102
{ACAD_REACTORS
330
C
102
}
330
C
100
AcDbRasterVariables
 90
        0
 70
     1
 71
     1
 72
     1
  0
DICTIONARY
  5
1A
102
{ACAD_REACTORS
330
C
102
}
330
C
100
AcDbDictionary
281
     1
  3
Layout1
350
1E
  3
Layout2
350
26
  3
Model
350
22
  0
DICTIONARY
  5
17
102
{ACAD_REACTORS
330
C
102
}
330
C
100
AcDbDictionary
281
     1
  3
Standard
350
18
  0
DICTIONARY
  5
19
102
{ACAD_REACTORS
330
C
102
}
330
C
100
AcDbDictionary
281
     1
  0
ACDBDICTIONARYWDFLT
  5
E
102
{ACAD_REACTORS
330
C
102
}
330
C
100
AcDbDictionary
281
     1
  3
Normal
350
F
100
AcDbDictionaryWithDefault
340
F
  0
DICTIONARY
  5
47
102
{ACAD_REACTORS
330
C
102
}
330
C
100
AcDbDictionary
281
     1
  3
A0
350
48
  3
A1
350
49
  3
A2
350
4A
  3
A3
350
4B
  3
A4
350
4C
  3
A5
350
4D
  3
A6
350
4E
  3
A7
350
4F
  3
A8
350
50
  3
A9
350
51
  3
B0
350
52
  3
B1
350
53
  3
B2
350
54
  3
B3
350
55
  3
B4
350
56
  3
B5
350
57
  3
B6
350
58
  3
B7
350
59
  3
B8
350
5A
  3
B9
350
5B
  3
C0
350
5C
  3
C1
350
5D
  3
C2
350
5E
  3
C3
350
5F
  3
C4
350
60
  3
C5
350
61
  3
C6
350
62
  3
C7
350
63
  3
C8
350
64
  3
C9
350
65
  3
D0
350
66
  3
D1
350
67
  3
D2
350
68
  0
DICTIONARY
  5
157
102
{ACAD_REACTORS
330
C
102
}
330
C
100
AcDbDictionary
281
     1
  0
XRECORD
  5
34F
102
{ACAD_REACTORS
330
C
102
}
330
C
100
AcDbXrecord
280
     1
  1
DWGPROPS COOKIE
  2

  3

  4

  6

  7

  8
12011056
  9

300
=
301
=
302
=
303
=
304
=
305
=
306
=
307
=
308
=
309
=
 40
0.0
 41
2458313.050590671
 42
2459719.265365058
  1

 90
        0
  0
DICTIONARY
  5
214
102
{ACAD_REACTORS
330
213
102
}
330
213
100
AcDbDictionary
281
     1
  0
DICTIONARY
  5
34E
102
{ACAD_REACTORS
330
34D
102
}
330
34D
100
AcDbDictionary
281
     1
  0
LAYOUT
  5
1E
102
{ACAD_REACTORS
330
1A
102
}
330
1A
100
AcDbPlotSettings
  1

  2
none_device
  4

  6

 40
0.0
 41
0.0
 42
0.0
 43
0.0
 44
0.0
 45
0.0
 46
0.0
 47
0.0
 48
0.0
 49
0.0
140
0.0
141
0.0
142
1.0
143
1.0
 70
   688
 72
     1
 73
     0
 74
     5
  7

 75
    16
147
1.0
148
0.0
149
0.0
100
AcDbLayout
  1
Layout1
 70
     1
 71
     1
 10
0.0
 20
0.0
 11
420.0
 21
297.0
 12
0.0
 22
0.0
 32
0.0
 14
1.000000000000000E+20
 24
1.000000000000000E+20
 34
1.000000000000000E+20
 15
-1.000000000000000E+20
 25
-1.000000000000000E+20
 35
-1.000000000000000E+20
146
0.0
 13
0.0
 23
0.0
 33
0.0
 16
1.0
 26
0.0
 36
0.0
 17
0.0
 27
1.0
 37
0.0
 76
     0
330
1B
  0
LAYOUT
  5
26
102
{ACAD_REACTORS
330
1A
102
}
330
1A
100
AcDbPlotSettings
  1

  2
none_device
  4

  6

 40
0.0
 41
0.0
 42
0.0
 43
0.0
 44
0.0
 45
0.0
 46
0.0
 47
0.0
 48
0.0
 49
0.0
140
0.0
141
0.0
142
1.0
143
1.0
 70
   688
 72
     1
 73
     0
 74
     5
  7

 75
    16
147
1.0
148
0.0
149
0.0
100
AcDbLayout
  1
Layout2
 70
     1
 71
     2
 10
0.0
 20
0.0
 11
0.0
 21
0.0
 12
0.0
 22
0.0
 32
0.0
 14
0.0
 24
0.0
 34
0.0
 15
0.0
 25
0.0
 35
0.0
146
0.0
 13
0.0
 23
0.0
 33
0.0
 16
1.0
 26
0.0
 36
0.0
 17
0.0
 27
1.0
 37
0.0
 76
     0
330
23
  0
LAYOUT
  5
22
102
{ACAD_REACTORS
330
1A
102
}
330
1A
100
AcDbPlotSettings
  1

  2
none_device
  4
ANSI_A_(11.00_x_8.50_Inches)
  6

 40
6.35
 41
19.05
 42
6.35000508
 43
19.05000254
 44
279.4
 45
215.9
 46
76.54512682516504
 47
71.58735209447842
 48
0.0
 49
0.0
140
0.0
141
0.0
142
0.0502857535044045
143
1.0
 70
  1696
 72
     0
 73
     0
 74
     0
  7

 75
     0
147
0.0235690232323232
148
0.0
149
0.0
100
AcDbLayout
  1
Model
 70
     1
 71
     0
 10
0.0
 20
0.0
 11
420.0
 21
297.0
 12
0.0
 22
0.0
 32
0.0
 14
-46.28475830449802
 24
-39.99892507127611
 34
0.0
 15
81.21241335422454
 25
41.17000000000003
 35
0.0
146
0.0
 13
0.0
 23
0.0
 33
0.0
 16
1.0
 26
0.0
 36
0.0
 17
0.0
 27
1.0
 37
0.0
 76
     0
330
1F
331
29
  0
MLINESTYLE
  5
18
102
{ACAD_REACTORS
330
17
102
}
330
17
100
AcDbMlineStyle
  2
Standard
 70
     0
  3

 62
   256
 51
90.0
 52
90.0
 71
     2
 49
0.5
 62
   256
  6
BYLAYER
 49
-0.5
 62
   256
  6
BYLAYER
  0
ACDBPLACEHOLDER
  5
F
102
{ACAD_REACTORS
330
E
102
}
330
E
  0
SCALE
  5
48
102
{ACAD_REACTORS
330
47
102
}
330
47
100
AcDbScale
 70
     0
300
1:1
140
1.0
141
1.0
290
     1
  0
SCALE
  5
49
102
{ACAD_REACTORS
330
47
102
}
330
47
100
AcDbScale
 70
     0
300
1:2
140
1.0
141
2.0
290
     0
  0
SCALE
  5
4A
102
{ACAD_REACTORS
330
47
102
}
330
47
100
AcDbScale
 70
     0
300
1:4
140
1.0
141
4.0
290
     0
  0
SCALE
  5
4B
102
{ACAD_REACTORS
330
47
102
}
330
47
100
AcDbScale
 70
     0
300
1:5
140
1.0
141
5.0
290
     0
  0
SCALE
  5
4C
102
{ACAD_REACTORS
330
47
102
}
330
47
100
AcDbScale
 70
     0
300
1:8
140
1.0
141
8.0
290
     0
  0
SCALE
  5
4D
102
{ACAD_REACTORS
330
47
102
}
330
47
100
AcDbScale
 70
     0
300
1:10
140
1.0
141
10.0
290
     0
  0
SCALE
  5
4E
102
{ACAD_REACTORS
330
47
102
}
330
47
100
AcDbScale
 70
     0
300
1:16
140
1.0
141
16.0
290
     0
  0
SCALE
  5
4F
102
{ACAD_REACTORS
330
47
102
}
330
47
100
AcDbScale
 70
     0
300
1:20
140
1.0
141
20.0
290
     0
  0
SCALE
  5
50
102
{ACAD_REACTORS
330
47
102
}
330
47
100
AcDbScale
 70
     0
300
1:30
140
1.0
141
30.0
290
     0
  0
SCALE
  5
51
102
{ACAD_REACTORS
330
47
102
}
330
47
100
AcDbScale
 70
     0
300
1:40
140
1.0
141
40.0
290
     0
  0
SCALE
  5
52
102
{ACAD_REACTORS
330
47
102
}
330
47
100
AcDbScale
 70
     0
300
1:50
140
1.0
141
50.0
290
     0
  0
SCALE
  5
53
102
{ACAD_REACTORS
330
47
102
}
330
47
100
AcDbScale
 70
     0
300
1:100
140
1.0
141
100.0
290
     0
  0
SCALE
  5
54
102
{ACAD_REACTORS
330
47
102
}
330
47
100
AcDbScale
 70
     0
300
2:1
140
2.0
141
1.0
290
     0
  0
SCALE
  5
55
102
{ACAD_REACTORS
330
47
102
}
330
47
100
AcDbScale
 70
     0
300
4:1
140
4.0
141
1.0
290
     0
  0
SCALE
  5
56
102
{ACAD_REACTORS
330
47
102
}
330
47
100
AcDbScale
 70
     0
300
8:1
140
8.0
141
1.0
290
     0
  0
SCALE
  5
57
102
{ACAD_REACTORS
330
47
102
}
330
47
100
AcDbScale
 70
     0
300
10:1
140
10.0
141
1.0
290
     0
  0
SCALE
  5
58
102
{ACAD_REACTORS
330
47
102
}
330
47
100
AcDbScale
 70
     0
300
100:1
140
100.0
141
1.0
290
     0
  0
SCALE
  5
59
102
{ACAD_REACTORS
330
47
102
}
330
47
100
AcDbScale
 70
     0
300
1/128" = 1'-0"
140
0.0078125
141
12.0
290
     0
  0
SCALE
  5
5A
102
{ACAD_REACTORS
330
47
102
}
330
47
100
AcDbScale
 70
     0
300
1/64" = 1'-0"
140
0.015625
141
12.0
290
     0
  0
SCALE
  5
5B
102
{ACAD_REACTORS
330
47
102
}
330
47
100
AcDbScale
 70
     0
300
1/32" = 1'-0"
140
0.03125
141
12.0
290
     0
  0
SCALE
  5
5C
102
{ACAD_REACTORS
330
47
102
}
330
47
100
AcDbScale
 70
     0
300
1/16" = 1'-0"
140
0.0625
141
12.0
290
     0
  0
SCALE
  5
5D
102
{ACAD_REACTORS
330
47
102
}
330
47
100
AcDbScale
 70
     0
300
3/32" = 1'-0"
140
0.09375
141
12.0
290
     0
  0
SCALE
  5
5E
102
{ACAD_REACTORS
330
47
102
}
330
47
100
AcDbScale
 70
     0
300
1/8" = 1'-0"
140
0.125
141
12.0
290
     0
  0
SCALE
  5
5F
102
{ACAD_REACTORS
330
47
102
}
330
47
100
AcDbScale
 70
     0
300
3/16" = 1'-0"
140
0.1875
141
12.0
290
     0
  0
SCALE
  5
60
102
{ACAD_REACTORS
330
47
102
}
330
47
100
AcDbScale
 70
     0
300
1/4" = 1'-0"
140
0.25
141
12.0
290
     0
  0
SCALE
  5
61
102
{ACAD_REACTORS
330
47
102
}
330
47
100
AcDbScale
 70
     0
300
3/8" = 1'-0"
140
0.375
141
12.0
290
     0
  0
SCALE
  5
62
102
{ACAD_REACTORS
330
47
102
}
330
47
100
AcDbScale
 70
     0
300
1/2" = 1'-0"
140
0.5
141
12.0
290
     0
  0
SCALE
  5
63
102
{ACAD_REACTORS
330
47
102
}
330
47
100
AcDbScale
 70
     0
300
3/4" = 1'-0"
140
0.75
141
12.0
290
     0
  0
SCALE
  5
64
102
{ACAD_REACTORS
330
47
102
}
330
47
100
AcDbScale
 70
     0
300
1" = 1'-0"
140
1.0
141
12.0
290
     0
  0
SCALE
  5
65
102
{ACAD_REACTORS
330
47
102
}
330
47
100
AcDbScale
 70
     0
300
1-1/2" = 1'-0"
140
1.5
141
12.0
290
     0
  0
SCALE
  5
66
102
{ACAD_REACTORS
330
47
102
}
330
47
100
AcDbScale
 70
     0
300
3" = 1'-0"
140
3.0
141
12.0
290
     0
  0
SCALE
  5
67
102
{ACAD_REACTORS
330
47
102
}
330
47
100
AcDbScale
 70
     0
300
6" = 1'-0"
140
6.0
141
12.0
290
     0
  0
SCALE
  5
68
102
{ACAD_REACTORS
330
47
102
}
330
47
100
AcDbScale
 70
     0
300
1'-0" = 1'-0"
140
12.0
141
12.0
290
     0
  0
ENDSEC
  0
EOF
