  0
SECTION
  2
HEADER
  9
$ACADVER
  1
AC1015
  9
$ACADMAINTVER
 70
     6
  9
$DWGCODEPAGE
  3
ANSI_949
  9
$INSBASE
 10
0.0
 20
0.0
 30
0.0
  9
$EXTMIN
 10
-44.93319206286981
 20
-39.99892507127611
 30
0.0
  9
$EXTMAX
 10
81.21241335422454
 20
41.17000000000003
 30
0.0
  9
$LIMMIN
 10
0.0
 20
0.0
  9
$LIMMAX
 10
420.0
 20
297.0
  9
$ORTHOMODE
 70
     1
  9
$REGENMODE
 70
     1
  9
$FILLMODE
 70
     1
  9
$QTEXTMODE
 70
     0
  9
$MIRRTEXT
 70
     1
  9
$LTSCALE
 40
1.0
  9
$ATTMODE
 70
     1
  9
$TEXTSIZE
 40
3.5
  9
$TRACEWID
 40
1.0
  9
$TEXTSTYLE
  7
Standard
  9
$CLAYER
  8
0
  9
$CELTYPE
  6
ByLayer
  9
$CECOLOR
 62
   256
  9
$CELTSCALE
 40
1.0
  9
$DISPSILH
 70
     0
  9
$DIMSCALE
 40
1.0
  9
$DIMASZ
 40
3.302
  9
$DIMEXO
 40
1.0
  9
$DIMDLI
 40
3.75
  9
$DIMRND
 40
0.0
  9
$DIMDLE
 40
0.0
  9
$DIMEXE
 40
1.0
  9
$DIMTP
 40
0.0
  9
$DIMTM
 40
0.0
  9
$DIMTXT
 40
3.5
  9
$DIMCEN
 40
2.5
  9
$DIMTSZ
 40
0.0
  9
$DIMTOL
 70
     0
  9
$DIMLIM
 70
     0
  9
$DIMTIH
 70
     1
  9
$DIMTOH
 70
     1
  9
$DIMSE1
 70
     0
  9
$DIMSE2
 70
     0
  9
$DIMTAD
 70
     1
  9
$DIMZIN
 70
     0
  9
$DIMBLK
  1

  9
$DIMASO
 70
     1
  9
$DIMSHO
 70
     1
  9
$DIMPOST
  1

  9
$DIMAPOST
  1

  9
$DIMALT
 70
     0
  9
$DIMALTD
 70
     3
  9
$DIMALTF
 40
0.0393700787401575
  9
$DIMLFAC
 40
1.0
  9
$DIMTOFL
 70
     1
  9
$DIMTVP
 40
0.0
  9
$DIMTIX
 70
     0
  9
$DIMSOXD
 70
     0
  9
$DIMSAH
 70
     0
  9
$DIMBLK1
  1

  9
$DIMBLK2
  1

  9
$DIMSTYLE
  2
ISO-25
  9
$DIMCLRD
 70
     0
  9
$DIMCLRE
 70
     0
  9
$DIMCLRT
 70
     0
  9
$DIMTFAC
 40
1.0
  9
$DIMGAP
 40
1.524
  9
$DIMJUST
 70
     0
  9
$DIMSD1
 70
     0
  9
$DIMSD2
 70
     0
  9
$DIMTOLJ
 70
     0
  9
$DIMTZIN
 70
     0
  9
$DIMALTZ
 70
     0
  9
$DIMALTTZ
 70
     0
  9
$DIMUPT
 70
     0
  9
$DIMDEC
 70
     2
  9
$DIMTDEC
 70
     2
  9
$DIMALTU
 70
     2
  9
$DIMALTTD
 70
     3
  9
$DIMTXSTY
  7
Standard
  9
$DIMAUNIT
 70
     0
  9
$DIMADEC
 70
     2
  9
$DIMALTRND
 40
0.0
  9
$DIMAZIN
 70
     0
  9
$DIMDSEP
 70
    44
  9
$DIMATFIT
 70
     3
  9
$DIMFRAC
 70
     0
  9
$DIMLDRBLK
  1

  9
$DIMLUNIT
 70
     2
  9
$DIMLWD
 70
    -2
  9
$DIMLWE
 70
    -2
  9
$DIMTMOVE
 70
     0
  9
$LUNITS
 70
     2
  9
$LUPREC
 70
     2
  9
$SKETCHINC
 40
1.0
  9
$FILLETRAD
 40
10.0
  9
$AUNITS
 70
     0
  9
$AUPREC
 70
     2
  9
$MENU
  1
.
  9
$ELEVATION
 40
0.0
  9
$PELEVATION
 40
0.0
  9
$THICKNESS
 40
0.0
  9
$LIMCHECK
 70
     0
  9
$CHAMFERA
 40
0.0
  9
$CHAMFERB
 40
0.0
  9
$CHAMFERC
 40
0.0
  9
$CHAMFERD
 40
0.0
  9
$SKPOLY
 70
     0
  9
$TDCREATE
 40
2458313.425802454
  9
$TDUCREATE
 40
2458313.050802454
  9
$TDUPDATE
 40
2459719.641010359
  9
$TDUUPDATE
 40
2459719.266010359
  9
$TDINDWG
 40
0.0014152778
  9
$TDUSRTIMER
 40
0.000202037
  9
$USRTIMER
 70
     1
  9
$ANGBASE
 50
0.0
  9
$ANGDIR
 70
     0
  9
$PDMODE
 70
     0
  9
$PDSIZE
 40
-1.0
  9
$PLINEWID
 40
0.0
  9
$SPLFRAME
 70
     0
  9
$SPLINETYPE
 70
     6
  9
$SPLINESEGS
 70
     8
  9
$HANDSEED
  5
358
  9
$SURFTAB1
 70
     6
  9
$SURFTAB2
 70
     6
  9
$SURFTYPE
 70
     6
  9
$SURFU
 70
     6
  9
$SURFV
 70
     6
  9
$UCSBASE
  2

  9
$UCSNAME
  2

  9
$UCSORG
 10
0.0
 20
0.0
 30
0.0
  9
$UCSXDIR
 10
1.0
 20
0.0
 30
0.0
  9
$UCSYDIR
 10
0.0
 20
1.0
 30
0.0
  9
$UCSORTHOREF
  2

  9
$UCSORTHOVIEW
 70
     0
  9
$UCSORGTOP
 10
0.0
 20
0.0
 30
0.0
  9
$UCSORGBOTTOM
 10
0.0
 20
0.0
 30
0.0
  9
$UCSORGLEFT
 10
0.0
 20
0.0
 30
0.0
  9
$UCSORGRIGHT
 10
0.0
 20
0.0
 30
0.0
  9
$UCSORGFRONT
 10
0.0
 20
0.0
 30
0.0
  9
$UCSORGBACK
 10
0.0
 20
0.0
 30
0.0
  9
$PUCSBASE
  2

  9
$PUCSNAME
  2

  9
$PUCSORG
 10
0.0
 20
0.0
 30
0.0
  9
$PUCSXDIR
 10
1.0
 20
0.0
 30
0.0
  9
$PUCSYDIR
 10
0.0
 20
1.0
 30
0.0
  9
$PUCSORTHOREF
  2

  9
$PUCSORTHOVIEW
 70
     0
  9
$PUCSORGTOP
 10
0.0
 20
0.0
 30
0.0
  9
$PUCSORGBOTTOM
 10
0.0
 20
0.0
 30
0.0
  9
$PUCSORGLEFT
 10
0.0
 20
0.0
 30
0.0
  9
$PUCSORGRIGHT
 10
0.0
 20
0.0
 30
0.0
  9
$PUCSORGFRONT
 10
0.0
 20
0.0
 30
0.0
  9
$PUCSORGBACK
 10
0.0
 20
0.0
 30
0.0
  9
$USERI1
 70
     0
  9
$USERI2
 70
     0
  9
$USERI3
 70
     0
  9
$USERI4
 70
     0
  9
$USERI5
 70
     0
  9
$USERR1
 40
0.0
  9
$USERR2
 40
0.0
  9
$USERR3
 40
0.0
  9
$USERR4
 40
0.0
  9
$USERR5
 40
0.0
  9
$WORLDVIEW
 70
     1
  9
$SHADEDGE
 70
     3
  9
$SHADEDIF
 70
    70
  9
$TILEMODE
 70
     1
  9
$MAXACTVP
 70
    64
  9
$PINSBASE
 10
0.0
 20
0.0
 30
0.0
  9
$PLIMCHECK
 70
     0
  9
$PEXTMIN
 10
1.000000000000000E+20
 20
1.000000000000000E+20
 30
1.000000000000000E+20
  9
$PEXTMAX
 10
-1.000000000000000E+20
 20
-1.000000000000000E+20
 30
-1.000000000000000E+20
  9
$PLIMMIN
 10
0.0
 20
0.0
  9
$PLIMMAX
 10
0.0
 20
0.0
  9
$UNITMODE
 70
     0
  9
$VISRETAIN
 70
     1
  9
$PLINEGEN
 70
     0
  9
$PSLTSCALE
 70
     1
  9
$TREEDEPTH
 70
  3020
  9
$CMLSTYLE
  2
Standard
  9
$CMLJUST
 70
     0
  9
$CMLSCALE
 40
20.0
  9
$PROXYGRAPHICS
 70
     1
  9
$MEASUREMENT
 70
     1
  9
$CELWEIGHT
370
    -1
  9
$ENDCAPS
280
     0
  9
$JOINSTYLE
280
     0
  9
$LWDISPLAY
290
     1
  9
$INSUNITS
 70
     4
  9
$HYPERLINKBASE
  1

  9
$STYLESHEET
  1

  9
$XEDIT
290
     1
  9
$CEPSNTYPE
380
     0
  9
$PSTYLEMODE
290
     1
  9
$FINGERPRINTGUID
  2
{607C336D-5ABD-4490-8DD1-225B0B2DEC84}
  9
$VERSIONGUID
  2
{FAEB1C32-E019-11D5-929B-00C0DF256EC4}
  9
$EXTNAMES
290
     1
  9
$PSVPSCALE
 40
0.0
  9
$OLESTARTUP
290
     0
  0
ENDSEC
  0
SECTION
  2
CLASSES
  0
CLASS
  1
ACDBDICTIONARYWDFLT
  2
AcDbDictionaryWithDefault
  3
ObjectDBX Classes
 90
        0
280
     0
281
     0
  0
CLASS
  1
VISUALSTYLE
  2
AcDbVisualStyle
  3
ObjectDBX Classes
 90
     4095
280
     0
281
     0
  0
CLASS
  1
MATERIAL
  2
AcDbMaterial
  3
ObjectDBX Classes
 90
     1153
280
     0
281
     0
  0
CLASS
  1
SCALE
  2
AcDbScale
  3
ObjectDBX Classes
 90
     1153
280
     0
281
     0
  0
CLASS
  1
SUN
  2
AcDbSun
  3
SCENEOE
 90
     1153
280
     0
281
     0
  0
CLASS
  1
ACDBPLACEHOLDER
  2
AcDbPlaceHolder
  3
ObjectDBX Classes
 90
        0
280
     0
281
     0
  0
CLASS
  1
LAYOUT
  2
AcDbLayout
  3
ObjectDBX Classes
 90
        0
280
     0
281
     0
  0
CLASS
  1
TABLESTYLE
  2
AcDbTableStyle
  3
ObjectDBX Classes
 90
     4095
280
     0
281
     0
  0
CLASS
  1
MLEADERSTYLE
  2
AcDbMLeaderStyle
  3
ACDB_MLEADERSTYLE_CLASS
 90
     4095
280
     0
281
     0
  0
CLASS
  1
RASTERVARIABLES
  2
AcDbRasterVariables
  3
ISM
 90
        0
280
     0
281
     0
  0
ENDSEC
  0
SECTION
  2
TABLES
  0
TABLE
  2
VPORT
  5
8
330
0
100
AcDbSymbolTable
 70
     1
  0
VPORT
  5
29
330
8
100
AcDbSymbolTableRecord
100
AcDbViewportTableRecord
  2
*Active
 70
     0
 10
0.0
 20
0.0
 11
1.0
 21
1.0
 12
5.857619072008507
 22
4.93390192354326
 13
0.0
 23
0.0
 14
10.0
 24
10.0
 15
10.0
 25
10.0
 16
0.0
 26
0.0
 36
1.0
 17
0.0
 27
0.0
 37
0.0
 40
91.35845041249922
 41
1.519944979367263
 42
50.0
 43
0.0
 44
0.0
 50
0.0
 51
0.0
 71
    16
 72
  2000
 73
     1
 74
     3
 75
     0
 76
     0
 77
     0
 78
     0
281
     0
 65
     1
110
0.0
120
0.0
130
0.0
111
1.0
121
0.0
131
0.0
112
0.0
122
1.0
132
0.0
 79
     0
146
0.0
  0
ENDTAB
  0
TABLE
  2
LTYPE
  5
5
330
0
100
AcDbSymbolTable
 70
     6
  0
LTYPE
  5
14
330
5
100
AcDbSymbolTableRecord
100
AcDbLinetypeTableRecord
  2
ByBlock
 70
     0
  3

 72
    65
 73
     0
 40
0.0
  0
LTYPE
  5
15
330
5
100
AcDbSymbolTableRecord
100
AcDbLinetypeTableRecord
  2
ByLayer
 70
     0
  3

 72
    65
 73
     0
 40
0.0
  0
LTYPE
  5
16
330
5
100
AcDbSymbolTableRecord
100
AcDbLinetypeTableRecord
  2
Continuous
 70
     0
  3
Solid line
 72
    65
 73
     0
 40
0.0
  0
LTYPE
  5
6A
330
5
100
AcDbSymbolTableRecord
100
AcDbLinetypeTableRecord
  2
HIDDEN
 70
     0
  3
Hidden __ __ __ __ __ __ __ __ __ __ __ __ __ __
 72
    65
 73
     2
 40
1.905
 49
1.27
 74
     0
 49
-0.635
 74
     0
  0
LTYPE
  5
6B
330
5
100
AcDbSymbolTableRecord
100
AcDbLinetypeTableRecord
  2
PHANTOM
 70
     0
  3
Phantom ______  __  __  ______  __  __  ______
 72
    65
 73
     6
 40
12.7
 49
6.35
 74
     0
 49
-1.27
 74
     0
 49
1.27
 74
     0
 49
-1.27
 74
     0
 49
1.27
 74
     0
 49
-1.27
 74
     0
  0
LTYPE
  5
6C
330
5
100
AcDbSymbolTableRecord
100
AcDbLinetypeTableRecord
  2
CENTER
 70
     0
  3
Center ____ _ ____ _ ____ _ ____ _ ____ _ ____
 72
    65
 73
     4
 40
10.16
 49
6.35
 74
     0
 49
-1.27
 74
     0
 49
1.27
 74
     0
 49
-1.27
 74
     0
  0
LTYPE
  5
6D
330
5
100
AcDbSymbolTableRecord
100
AcDbLinetypeTableRecord
  2
CENTERX2
 70
     0
  3
Center (2x) ________  __  ________  __  _____
 72
    65
 73
     4
 40
20.32
 49
12.7
 74
     0
 49
-2.54
 74
     0
 49
2.54
 74
     0
 49
-2.54
 74
     0
  0
LTYPE
  5
6E
330
5
100
AcDbSymbolTableRecord
100
AcDbLinetypeTableRecord
  2
DOT2
 70
     0
  3
Dot (.5x) ........................................
 72
    65
 73
     2
 40
0.635
 49
0.0
 74
     0
 49
-0.635
 74
     0
  0
ENDTAB
  0
TABLE
  2
LAYER
  5
2
102
{ACAD_XDICTIONARY
360
217
102
}
330
0
100
AcDbSymbolTable
 70
    18
  0
LAYER
  5
10
330
2
100
AcDbSymbolTableRecord
100
AcDbLayerTableRecord
  2
0
 70
     0
 62
     7
  6
Continuous
370
    -3
390
F
  0
LAYER
  5
6F
330
2
100
AcDbSymbolTableRecord
100
AcDbLayerTableRecord
  2
FORMAT
 70
     0
 62
     2
  6
Continuous
370
    -3
390
F
  0
LAYER
  5
70
330
2
100
AcDbSymbolTableRecord
100
AcDbLayerTableRecord
  2
외형선
 70
     0
 62
     4
  6
Continuous
370
    30
390
F
  0
LAYER
  5
71
330
2
100
AcDbSymbolTableRecord
100
AcDbLayerTableRecord
  2
숨은선
 70
     0
 62
     2
  6
HIDDEN
370
    15
390
F
  0
LAYER
  5
72
330
2
100
AcDbSymbolTableRecord
100
AcDbLayerTableRecord
  2
중심선
 70
     0
 62
     1
  6
CENTERX2
370
    -3
390
F
  0
LAYER
  5
73
330
2
100
AcDbSymbolTableRecord
100
AcDbLayerTableRecord
  2
파단선
 70
     0
 62
     4
  6
Continuous
370
    -3
390
F
  0
LAYER
  5
74
330
2
100
AcDbSymbolTableRecord
100
AcDbLayerTableRecord
  2
해칭선
 70
     0
 62
   100
  6
Continuous
370
    -3
390
F
  0
LAYER
  5
75
330
2
100
AcDbSymbolTableRecord
100
AcDbLayerTableRecord
  2
가는실선
 70
     0
 62
     4
  6
Continuous
370
    -3
390
F
  0
LAYER
  5
76
330
2
100
AcDbSymbolTableRecord
100
AcDbLayerTableRecord
  2
치수_보조선
 70
     0
 62
     4
  6
Continuous
370
    -3
390
F
  0
LAYER
  5
77
330
2
100
AcDbSymbolTableRecord
100
AcDbLayerTableRecord
  2
치수문자_일반주서
 70
     0
 62
     7
  6
Continuous
370
    15
390
F
  0
LAYER
  5
78
330
2
100
AcDbSymbolTableRecord
100
AcDbLayerTableRecord
  2
개별주서
 70
     0
 62
   100
  6
Continuous
370
    30
390
F
  0
LAYER
  5
79
330
2
100
AcDbSymbolTableRecord
100
AcDbLayerTableRecord
  2
중간선
 70
     0
 62
     2
  6
Continuous
370
    15
390
F
  0
LAYER
  5
7A
330
2
100
AcDbSymbolTableRecord
100
AcDbLayerTableRecord
  2
윤곽선
 70
     0
 62
     3
  6
Continuous
370
    40
390
F
  0
LAYER
  5
7B
330
2
100
AcDbSymbolTableRecord
100
AcDbLayerTableRecord
  2
중심마크
 70
     0
 62
   100
  6
Continuous
370
    30
390
F
  0
LAYER
  5
7C
330
2
100
AcDbSymbolTableRecord
100
AcDbLayerTableRecord
  2
가상선
 70
     0
 62
     4
  6
PHANTOM
370
    -3
390
F
  0
LAYER
  5
7D
330
2
100
AcDbSymbolTableRecord
100
AcDbLayerTableRecord
  2
특수지정선
 70
     0
 62
     5
  6
CENTERX2
370
    60
390
F
  0
LAYER
  5
7E
330
2
100
AcDbSymbolTableRecord
100
AcDbLayerTableRecord
  2
참조1
 70
     0
 62
    -4
  6
Continuous
370
    -3
390
F
  0
LAYER
  5
15F
330
2
100
AcDbSymbolTableRecord
100
AcDbLayerTableRecord
  2
Defpoints
 70
     0
 62
     7
  6
Continuous
290
     0
370
    -3
390
F
  0
ENDTAB
  0
TABLE
  2
STYLE
  5
3
330
0
100
AcDbSymbolTable
 70
     2
  0
STYLE
  5
11
330
3
100
AcDbSymbolTableRecord
100
AcDbTextStyleTableRecord
  2
Standard
 70
     0
 40
0.0
 41
1.0
 50
0.0
 71
     0
 42
3.5
  3
txt
  4

  0
STYLE
  5
94
330
3
100
AcDbSymbolTableRecord
100
AcDbTextStyleTableRecord
  2
SLDTEXTSTYLE0
 70
     0
 40
0.0
 41
0.75
 50
0.0
 71
     0
 42
3.5
  3
TXT
  4

  0
ENDTAB
  0
TABLE
  2
VIEW
  5
6
330
0
100
AcDbSymbolTable
 70
     0
  0
ENDTAB
  0
TABLE
  2
UCS
  5
7
330
0
100
AcDbSymbolTable
 70
     0
  0
ENDTAB
  0
TABLE
  2
APPID
  5
9
330
0
100
AcDbSymbolTable
 70
     3
  0
APPID
  5
12
330
9
100
AcDbSymbolTableRecord
100
AcDbRegAppTableRecord
  2
ACAD
 70
     0
  0
APPID
  5
16B
330
9
100
AcDbSymbolTableRecord
100
AcDbRegAppTableRecord
  2
PE_URL
 70
     0
  0
APPID
  5
16C
330
9
100
AcDbSymbolTableRecord
100
AcDbRegAppTableRecord
  2
ACAD_DSTYLE_DIMRADIAL_EXTENSION
 70
     0
  0
ENDTAB
  0
TABLE
  2
DIMSTYLE
  5
A
330
0
100
AcDbSymbolTable
 70
     4
100
AcDbDimStyleTable
  0
DIMSTYLE
105
27
330
A
100
AcDbSymbolTableRecord
100
AcDbDimStyleTableRecord
  2
ISO-25
 70
     0
 41
2.5
 42
0.625
 43
3.75
 44
1.25
 73
     0
 74
     0
 77
     1
 78
     8
140
2.5
141
2.5
143
0.03937007874016
147
0.625
171
     3
172
     1
178
     0
271
     2
272
     2
274
     3
278
    44
283
     0
284
     8
340
11
  0
DIMSTYLE
105
DC
102
{ACAD_REACTORS
330
DB
330
F0
330
104
330
119
102
}
330
A
100
AcDbSymbolTableRecord
100
AcDbDimStyleTableRecord
  2
SLDDIMSTYLE0
 70
     0
 41
3.302
 44
0.0
 45
0.000000001
 73
     0
 74
     0
 77
     1
 78
    12
 79
     3
140
3.5
143
0.0393700787401575
147
0.875
148
0.000000001
170
     1
172
     1
173
     1
178
     0
271
     2
272
     2
276
     2
284
    12
289
     0
340
94
  0
DIMSTYLE
105
105
102
{ACAD_REACTORS
102
}
330
A
100
AcDbSymbolTableRecord
100
AcDbDimStyleTableRecord
  2
SLDDIMSTYLE1
 70
     0
 41
3.302
 44
0.0
 45
0.000000001
 73
     0
 74
     0
 77
     1
 78
     4
 79
     1
140
3.5
143
0.0393700787401575
147
0.875
148
0.000000001
170
     1
173
     1
178
     0
271
     2
272
     2
276
     2
284
    12
340
94
  0
DIMSTYLE
105
16A
102
{ACAD_REACTORS
102
}
330
A
100
AcDbSymbolTableRecord
100
AcDbDimStyleTableRecord
  2
SLDDIMSTYLE2
 70
     0
 41
3.302
 44
0.0
 45
0.000000001
 73
     0
 74
     0
 77
     1
 78
    12
 79
     3
140
3.5
147
0.875
172
     1
173
     1
178
     0
271
     2
272
     2
276
     2
284
    12
289
     0
340
94
  0
ENDTAB
  0
TABLE
  2
BLOCK_RECORD
  5
1
330
0
100
AcDbSymbolTable
 70
    20
  0
BLOCK_RECORD
  5
1F
102
{ACAD_XDICTIONARY
360
355
102
}
330
1
100
AcDbSymbolTableRecord
100
AcDbBlockTableRecord
  2
*Model_Space
340
22
  0
BLOCK_RECORD
  5
1B
330
1
100
AcDbSymbolTableRecord
100
AcDbBlockTableRecord
  2
*Paper_Space
340
1E
  0
BLOCK_RECORD
  5
23
330
1
100
AcDbSymbolTableRecord
100
AcDbBlockTableRecord
  2
*Paper_Space0
340
26
  0
BLOCK_RECORD
  5
7F
330
1
100
AcDbSymbolTableRecord
100
AcDbBlockTableRecord
  2
블럭10
340
0
102
{BLKREFS
331
D4
102
}
  0
BLOCK_RECORD
  5
DD
330
1
100
AcDbSymbolTableRecord
100
AcDbBlockTableRecord
  2
_D
340
0
  0
BLOCK_RECORD
  5
F1
330
1
100
AcDbSymbolTableRecord
100
AcDbBlockTableRecord
  2
_D_1
340
0
  0
BLOCK_RECORD
  5
106
330
1
100
AcDbSymbolTableRecord
100
AcDbBlockTableRecord
  2
_D_2
340
0
  0
BLOCK_RECORD
  5
11A
330
1
100
AcDbSymbolTableRecord
100
AcDbBlockTableRecord
  2
_D_3
340
0
  0
BLOCK_RECORD
  5
133
330
1
100
AcDbSymbolTableRecord
100
AcDbBlockTableRecord
  2
SW_DOWELSYMBOL_0
340
0
102
{BLKREFS
331
139
102
}
  0
BLOCK_RECORD
  5
1F5
330
1
100
AcDbSymbolTableRecord
100
AcDbBlockTableRecord
  2
_D_4
340
0
  0
BLOCK_RECORD
  5
20F
330
1
100
AcDbSymbolTableRecord
100
AcDbBlockTableRecord
  2
*D8
340
0
  0
BLOCK_RECORD
  5
21B
330
1
100
AcDbSymbolTableRecord
100
AcDbBlockTableRecord
  2
*D9
340
0
  0
BLOCK_RECORD
  5
227
330
1
100
AcDbSymbolTableRecord
100
AcDbBlockTableRecord
  2
*D10
340
0
  0
BLOCK_RECORD
  5
233
330
1
100
AcDbSymbolTableRecord
100
AcDbBlockTableRecord
  2
*D11
340
0
  0
BLOCK_RECORD
  5
28E
330
1
100
AcDbSymbolTableRecord
100
AcDbBlockTableRecord
  2
*D12
340
0
  0
BLOCK_RECORD
  5
29A
330
1
100
AcDbSymbolTableRecord
100
AcDbBlockTableRecord
  2
*D13
340
0
  0
BLOCK_RECORD
  5
2A6
330
1
100
AcDbSymbolTableRecord
100
AcDbBlockTableRecord
  2
*D14
340
0
  0
BLOCK_RECORD
  5
2B4
330
1
100
AcDbSymbolTableRecord
100
AcDbBlockTableRecord
  2
*D15
340
0
  0
BLOCK_RECORD
  5
2C2
330
1
100
AcDbSymbolTableRecord
100
AcDbBlockTableRecord
  2
*D16
340
0
  0
BLOCK_RECORD
  5
307
330
1
100
AcDbSymbolTableRecord
100
AcDbBlockTableRecord
  2
*D17
340
0
  0
BLOCK_RECORD
  5
316
330
1
100
AcDbSymbolTableRecord
100
AcDbBlockTableRecord
  2
*D18
340
0
  0
BLOCK_RECORD
  5
325
330
1
100
AcDbSymbolTableRecord
100
AcDbBlockTableRecord
  2
*D19
340
0
  0
ENDTAB
  0
ENDSEC
  0
SECTION
  2
BLOCKS
  0
BLOCK
  5
20
330
1F
100
AcDbEntity
  8
0
100
AcDbBlockBegin
  2
*Model_Space
 70
     0
 10
0.0
 20
0.0
 30
0.0
  3
*Model_Space
  1
*Model_Space
  0
ENDBLK
  5
21
330
1F
100
AcDbEntity
  8
0
100
AcDbBlockEnd
  0
BLOCK
  5
1C
330
1B
100
AcDbEntity
 67
     1
  8
0
100
AcDbBlockBegin
  2
*Paper_Space
 70
     0
 10
0.0
 20
0.0
 30
0.0
  3
*Paper_Space
  1
*Paper_Space
  0
ENDBLK
  5
1D
330
1B
100
AcDbEntity
 67
     1
  8
0
100
AcDbBlockEnd
  0
BLOCK
  5
24
330
23
100
AcDbEntity
  8
0
100
AcDbBlockBegin
  2
*Paper_Space0
 70
     0
 10
0.0
 20
0.0
 30
0.0
  3
*Paper_Space0
  1
*Paper_Space0
  0
ENDBLK
  5
25
330
23
100
AcDbEntity
  8
0
100
AcDbBlockEnd
  0
BLOCK
  5
80
330
7F
100
AcDbEntity
  8
0
100
AcDbBlockBegin
  2
블럭10
 70
     2
 10
0.0
 20
0.0
 30
0.0
  3
블럭10
  1
블럭10
  0
ELLIPSE
  5
82
330
7F
100
AcDbEntity
  8
중심선
100
AcDbEllipse
 10
20.54032771741204
 20
12.0471743016438
 30
0.0
 11
6.600054785286829
 21
-1.261213355974178E-13
 31
0.0
210
0.0
220
0.0
230
1.0
 40
0.636358354079598
 41
0.9219305317359503
 42
6.513795318482858
  0
ELLIPSE
  5
83
330
7F
100
AcDbEntity
  8
중심선
100
AcDbEllipse
 10
20.54032771746488
 20
12.04717430159265
 30
0.0
 11
3.960054785062283
 21
1.540847449632565E-10
 31
0.0
210
0.0
220
0.0
230
1.0
 40
0.3939339440162632
 41
1.131841032648279
 42
5.62031148352944
  0
LINE
  5
84
330
7F
100
AcDbEntity
  8
중심선
100
AcDbLine
 10
2.268634060543552
 20
16.24717430164393
 30
0.0
 11
5.714909304380834
 21
16.24717430164393
 31
0.0
  0
LINE
  5
85
330
7F
100
AcDbEntity
  8
중심선
100
AcDbLine
 10
5.245725140726316
 20
7.84717430164391
 30
0.0
 11
8.692000384563599
 21
7.84717430164391
 31
0.0
  0
LINE
  5
86
330
7F
100
AcDbEntity
  8
중심선
100
AcDbLine
 10
15.74043728645272
 20
16.24717430164393
 30
0.0
 11
8.692000384563599
 21
7.84717430164391
 31
0.0
  0
LINE
  5
87
330
7F
100
AcDbEntity
  8
중심선
100
AcDbLine
 10
0.1404042013395286
 20
13.71084872107135
 30
0.0
 11
3.58671253028996
 21
13.71088815037384
 31
0.0
  0
LINE
  5
88
330
7F
100
AcDbEntity
  8
중심선
100
AcDbLine
 10
2.750260043222114
 20
10.84717430164391
 30
0.0
 11
6.196535287059397
 21
10.84717430164391
 31
0.0
  0
LINE
  5
89
330
7F
100
AcDbEntity
  8
중심선
100
AcDbLine
 10
12.29416204261559
 20
16.24717430164393
 30
0.0
 11
5.245725140726316
 21
7.84717430164391
 31
0.0
  0
LINE
  5
8A
330
7F
100
AcDbEntity
  8
중심선
100
AcDbLine
 10
10.72767329541681
 20
16.24717430164393
 30
0.0
 11
6.196535287059397
 21
10.84717430164391
 31
0.0
  0
LINE
  5
8B
330
7F
100
AcDbEntity
  8
중심선
100
AcDbLine
 10
7.28139805157953
 20
16.24717430164393
 30
0.0
 11
2.750260043222114
 21
10.84717430164391
 31
0.0
  0
LINE
  5
8C
330
7F
100
AcDbEntity
  8
중심선
100
AcDbLine
 10
5.714909304380834
 20
16.24717430164393
 30
0.0
 11
3.58671253028996
 21
13.71088815037384
 31
0.0
  0
LINE
  5
8D
330
7F
100
AcDbEntity
  8
중심선
100
AcDbLine
 10
2.268634060543552
 20
16.24717430164393
 30
0.0
 11
0.1404042013395286
 21
13.71084872107135
 31
0.0
  0
LINE
  5
8E
330
7F
100
AcDbEntity
  8
중심선
100
AcDbLine
 10
7.28139805157953
 20
16.24717430164393
 30
0.0
 11
10.72767329541681
 21
16.24717430164393
 31
0.0
  0
LINE
  5
8F
330
7F
100
AcDbEntity
  8
중심선
100
AcDbLine
 10
12.29416204261559
 20
16.24717430164393
 30
0.0
 11
15.74043728645272
 21
16.24717430164393
 31
0.0
  0
LINE
  5
90
330
7F
100
AcDbEntity
  8
중심선
100
AcDbLine
 10
19.22036997980202
 20
11.08717430171403
 30
0.0
 11
23.66174974927406
 21
11.08717430171406
 31
0.0
  0
LINE
  5
91
330
7F
100
AcDbEntity
  8
중심선
100
AcDbLine
 10
19.22039502424796
 20
13.00717430171391
 30
0.0
 11
19.22036997980202
 21
11.08717430171403
 31
0.0
  0
LINE
  5
92
330
7F
100
AcDbEntity
  8
중심선
100
AcDbLine
 10
19.22039502424796
 20
13.00717430171391
 30
0.0
 11
26.96566020931264
 21
13.00717430171391
 31
0.0
  0
LINE
  5
93
330
7F
100
AcDbEntity
  8
중심선
100
AcDbLine
 10
22.22332737316547
 20
13.45928029700563
 30
0.0
 11
24.52862924686651
 21
15.39360700705356
 31
0.0
  0
ATTDEF
  5
95
330
7F
100
AcDbEntity
  8
FORMAT
 62
     2
100
AcDbText
 10
4.408487351596664
 20
2.075366912832191
 30
0.0
 40
4.233333333333333
  1
E5022015
 41
0.75
  7
SLDTEXTSTYLE0
 11
4.408487351596664
 21
-0.0412997538344756
 31
0.0
100
AcDbAttributeDefinition
  3

  2
AUTOATTR0
 70
     0
 74
     1
  0
ENDBLK
  5
81
330
7F
100
AcDbEntity
  8
0
100
AcDbBlockEnd
  0
BLOCK
  5
DE
330
DD
100
AcDbEntity
  8
0
100
AcDbBlockBegin
  2
_D
 70
     0
 10
0.0
 20
0.0
 30
0.0
  3
_D
  1
_D
  0
LINE
  5
E0
330
DD
100
AcDbEntity
  8
치수문자_일반주서
 62
     0
370
    -2
100
AcDbLine
 10
-17.37192116787305
 20
3.174999999999991
 30
0.0
 11
-40.55819206286969
 21
3.174999999999905
 31
0.0
  0
LINE
  5
E1
330
DD
100
AcDbEntity
  8
치수문자_일반주서
 62
     0
370
    -2
100
AcDbLine
 10
-17.37192116787305
 20
-3.175000000000001
 30
0.0
 11
-40.55819206286967
 21
-3.175000000000086
 31
0.0
  0
LINE
  5
E2
330
DD
100
AcDbEntity
  8
치수문자_일반주서
 62
     0
370
    -2
100
AcDbLine
 10
-40.55819206286969
 20
3.174999999999905
 30
0.0
 11
-40.5581920628698
 21
35.81024999999995
 31
0.0
  0
LINE
  5
E3
330
DD
100
AcDbEntity
  8
치수문자_일반주서
 62
     0
370
    -2
100
AcDbLine
 10
-40.55819206286969
 20
3.174999999999905
 30
0.0
 11
-40.55819206286967
 21
-3.175000000000086
 31
0.0
  0
LINE
  5
E4
330
DD
100
AcDbEntity
  8
치수문자_일반주서
 62
     0
370
    -2
100
AcDbLine
 10
-40.55819206286971
 20
6.476999999999904
 30
0.0
 11
-40.55819206286972
 21
9.778999999999904
 31
0.0
  0
LINE
  5
E5
330
DD
100
AcDbEntity
  8
치수문자_일반주서
 62
     0
370
    -2
100
AcDbLine
 10
-40.55819206286966
 20
-6.477000000000086
 30
0.0
 11
-40.55819206286964
 21
-9.779000000000085
 31
0.0
  0
SOLID
  5
E6
330
DD
100
AcDbEntity
  8
치수문자_일반주서
 62
     0
100
AcDbTrace
 10
-41.10852539620304
 20
6.476999999999903
 30
0.0
 11
-40.00785872953637
 21
6.476999999999906
 31
0.0
 12
-40.55819206286969
 22
3.174999999999905
 32
0.0
 13
-40.55819206286969
 23
3.174999999999905
 33
0.0
  0
SOLID
  5
E7
330
DD
100
AcDbEntity
  8
치수문자_일반주서
 62
     0
100
AcDbTrace
 10
-40.00785872953632
 20
-6.477000000000084
 30
0.0
 11
-41.10852539620299
 21
-6.477000000000087
 31
0.0
 12
-40.55819206286967
 22
-3.175000000000086
 32
0.0
 13
-40.55819206286967
 23
-3.175000000000086
 33
0.0
  0
MTEXT
  5
E8
330
DD
100
AcDbEntity
  8
치수문자_일반주서
 62
     0
100
AcDbMText
 10
-44.93319206286976
 20
23.12274999999993
 30
0.0
 40
3.5
 41
0.0
 71
     2
 72
     1
  1
\A1;%%c6.35 [1/4]
  7
SLDTEXTSTYLE0
 11
-3.356894814614650E-15
 21
1.0
 31
0.0
 73
     1
 44
1.0
  0
POINT
  5
2CC
330
DD
100
AcDbEntity
  8
Defpoints
 62
     0
100
AcDbPoint
 10
-17.30942116787305
 20
3.174999999999992
 30
0.0
  0
POINT
  5
2CD
330
DD
100
AcDbEntity
  8
Defpoints
 62
     0
100
AcDbPoint
 10
-17.30942116787305
 20
-3.175
 30
0.0
  0
POINT
  5
2CE
330
DD
100
AcDbEntity
  8
Defpoints
 62
     0
100
AcDbPoint
 10
-40.55819206286967
 20
-3.175000000000087
 30
0.0
  0
ENDBLK
  5
DF
330
DD
100
AcDbEntity
  8
0
100
AcDbBlockEnd
  0
BLOCK
  5
F2
330
F1
100
AcDbEntity
  8
0
100
AcDbBlockBegin
  2
_D_1
 70
     0
 10
0.0
 20
0.0
 30
0.0
  3
_D_1
  1
_D_1
  0
LINE
  5
F4
330
F1
100
AcDbEntity
  8
치수문자_일반주서
 62
     0
370
    -2
100
AcDbLine
 10
31.81250000000001
 20
-2.974046754706986
 30
0.0
 11
46.09617504252994
 21
-2.974046754706933
 31
0.0
  0
LINE
  5
F5
330
F1
100
AcDbEntity
  8
치수문자_일반주서
 62
     0
370
    -2
100
AcDbLine
 10
31.81250000000001
 20
2.974046754706988
 30
0.0
 11
46.09617504252991
 21
2.974046754707039
 31
0.0
  0
LINE
  5
F6
330
F1
100
AcDbEntity
  8
치수문자_일반주서
 62
     0
370
    -2
100
AcDbLine
 10
46.09617504252991
 20
2.974046754707039
 30
0.0
 11
46.09617504252978
 21
40.20304675470704
 31
0.0
  0
LINE
  5
F7
330
F1
100
AcDbEntity
  8
치수문자_일반주서
 62
     0
370
    -2
100
AcDbLine
 10
46.09617504252994
 20
-2.974046754706933
 30
0.0
 11
46.09617504252991
 21
2.974046754707039
 31
0.0
  0
LINE
  5
F8
330
F1
100
AcDbEntity
  8
치수문자_일반주서
 62
     0
370
    -2
100
AcDbLine
 10
46.09617504252995
 20
-6.276046754706933
 30
0.0
 11
46.09617504252996
 21
-9.578046754706932
 31
0.0
  0
LINE
  5
F9
330
F1
100
AcDbEntity
  8
치수문자_일반주서
 62
     0
370
    -2
100
AcDbLine
 10
46.0961750425299
 20
6.276046754707039
 30
0.0
 11
46.09617504252989
 21
9.578046754707039
 31
0.0
  0
SOLID
  5
FA
330
F1
100
AcDbEntity
  8
치수문자_일반주서
 62
     0
100
AcDbTrace
 10
46.64650837586328
 20
-6.276046754706931
 30
0.0
 11
45.54584170919662
 21
-6.276046754706934
 31
0.0
 12
46.09617504252994
 22
-2.974046754706933
 32
0.0
 13
46.09617504252994
 23
-2.974046754706933
 33
0.0
  0
SOLID
  5
FB
330
F1
100
AcDbEntity
  8
치수문자_일반주서
 62
     0
100
AcDbTrace
 10
45.54584170919657
 20
6.276046754707037
 30
0.0
 11
46.64650837586323
 21
6.276046754707041
 31
0.0
 12
46.09617504252991
 22
2.974046754707039
 32
0.0
 13
46.09617504252991
 23
2.974046754707039
 33
0.0
  0
MTEXT
  5
FC
330
F1
100
AcDbEntity
  8
치수문자_일반주서
 62
     0
100
AcDbMText
 10
41.72117504252984
 20
24.89054675470702
 30
0.0
 40
3.5
 41
0.0
 71
     2
 72
     1
  1
\A1;%%c5.95 [15/64]
  7
SLDTEXTSTYLE0
 11
-3.583716705035990E-15
 21
1.0
 31
0.0
 73
     1
 44
1.0
  0
POINT
  5
FD
330
F1
100
AcDbEntity
  8
Defpoints
 62
     0
100
AcDbPoint
 10
31.75000000000001
 20
-2.974046754706987
 30
0.0
  0
POINT
  5
FE
330
F1
100
AcDbEntity
  8
Defpoints
 62
     0
100
AcDbPoint
 10
31.75000000000001
 20
2.974046754706987
 30
0.0
  0
POINT
  5
FF
330
F1
100
AcDbEntity
  8
Defpoints
 62
     0
100
AcDbPoint
 10
46.09617504252991
 20
2.974046754707041
 30
0.0
  0
ENDBLK
  5
F3
330
F1
100
AcDbEntity
  8
0
100
AcDbBlockEnd
  0
BLOCK
  5
107
330
106
100
AcDbEntity
  8
0
100
AcDbBlockBegin
  2
_D_2
 70
     0
 10
0.0
 20
0.0
 30
0.0
  3
_D_2
  1
_D_2
  0
LINE
  5
109
330
106
100
AcDbEntity
  8
치수문자_일반주서
 62
     0
370
    -2
100
AcDbLine
 10
31.75000000000001
 20
3.036546754706987
 30
0.0
 11
31.75000000000001
 21
15.91721801949026
 31
0.0
  0
LINE
  5
10A
330
106
100
AcDbEntity
  8
치수문자_일반주서
 62
     0
370
    -2
100
AcDbLine
 10
19.05
 20
2.851148236901257
 30
0.0
 11
19.05
 21
15.91721801949026
 31
0.0
  0
LINE
  5
10B
330
106
100
AcDbEntity
  8
치수문자_일반주서
 62
     0
370
    -2
100
AcDbLine
 10
19.05
 20
15.91721801949026
 30
0.0
 11
-9.866499999999997
 21
15.91721801949026
 31
0.0
  0
LINE
  5
10C
330
106
100
AcDbEntity
  8
치수문자_일반주서
 62
     0
370
    -2
100
AcDbLine
 10
31.75000000000001
 20
15.91721801949026
 30
0.0
 11
19.05
 21
15.91721801949026
 31
0.0
  0
LINE
  5
10D
330
106
100
AcDbEntity
  8
치수문자_일반주서
 62
     0
370
    -2
100
AcDbLine
 10
35.05200000000001
 20
15.91721801949026
 30
0.0
 11
38.35400000000001
 21
15.91721801949026
 31
0.0
  0
LINE
  5
10E
330
106
100
AcDbEntity
  8
치수문자_일반주서
 62
     0
370
    -2
100
AcDbLine
 10
15.748
 20
15.91721801949026
 30
0.0
 11
12.44600000000001
 21
15.91721801949026
 31
0.0
  0
SOLID
  5
10F
330
106
100
AcDbEntity
  8
치수문자_일반주서
 62
     0
100
AcDbTrace
 10
35.05200000000001
 20
16.46755135282359
 30
0.0
 11
35.05200000000001
 21
15.36688468615693
 31
0.0
 12
31.75000000000001
 22
15.91721801949026
 32
0.0
 13
31.75000000000001
 23
15.91721801949026
 33
0.0
  0
SOLID
  5
110
330
106
100
AcDbEntity
  8
치수문자_일반주서
 62
     0
100
AcDbTrace
 10
15.748
 20
15.36688468615693
 30
0.0
 11
15.748
 21
16.46755135282359
 31
0.0
 12
19.05
 22
15.91721801949026
 32
0.0
 13
19.05
 23
15.91721801949026
 33
0.0
  0
MTEXT
  5
111
330
106
100
AcDbEntity
  8
치수문자_일반주서
 62
     0
100
AcDbMText
 10
1.071000000000003
 20
20.29221801949026
 30
0.0
 40
3.5
 41
0.0
 71
     2
 72
     1
  1
\A1;12.7 [1/2]
  7
SLDTEXTSTYLE0
 73
     1
 44
1.0
  0
POINT
  5
112
330
106
100
AcDbEntity
  8
Defpoints
 62
     0
100
AcDbPoint
 10
31.75000000000001
 20
2.974046754706987
 30
0.0
  0
POINT
  5
113
330
106
100
AcDbEntity
  8
Defpoints
 62
     0
100
AcDbPoint
 10
19.05
 20
2.788648236901257
 30
0.0
  0
POINT
  5
114
330
106
100
AcDbEntity
  8
Defpoints
 62
     0
100
AcDbPoint
 10
19.05
 20
15.91721801949026
 30
0.0
  0
ENDBLK
  5
108
330
106
100
AcDbEntity
  8
0
100
AcDbBlockEnd
  0
BLOCK
  5
11B
330
11A
100
AcDbEntity
  8
0
100
AcDbBlockBegin
  2
_D_3
 70
     0
 10
0.0
 20
0.0
 30
0.0
  3
_D_3
  1
_D_3
  0
LINE
  5
11D
330
11A
100
AcDbEntity
  8
치수문자_일반주서
 62
     0
370
    -2
100
AcDbLine
 10
-31.74999999999999
 20
2.427499999999994
 30
0.0
 11
-31.74999999999999
 21
36.79500000000002
 31
0.0
  0
LINE
  5
11E
330
11A
100
AcDbEntity
  8
치수문자_일반주서
 62
     0
370
    -2
100
AcDbLine
 10
31.75000000000001
 20
3.036546754706987
 30
0.0
 11
31.75000000000001
 21
36.79500000000002
 31
0.0
  0
LINE
  5
11F
330
11A
100
AcDbEntity
  8
치수문자_일반주서
 62
     0
370
    -2
100
AcDbLine
 10
-28.44799999999999
 20
36.79500000000002
 30
0.0
 11
28.44800000000001
 21
36.79500000000002
 31
0.0
  0
SOLID
  5
120
330
11A
100
AcDbEntity
  8
치수문자_일반주서
 62
     0
100
AcDbTrace
 10
-28.44799999999999
 20
37.34533333333336
 30
0.0
 11
-28.44799999999999
 21
36.24466666666669
 31
0.0
 12
-31.74999999999999
 22
36.79500000000002
 32
0.0
 13
-31.74999999999999
 23
36.79500000000002
 33
0.0
  0
SOLID
  5
121
330
11A
100
AcDbEntity
  8
치수문자_일반주서
 62
     0
100
AcDbTrace
 10
28.44800000000001
 20
36.24466666666669
 30
0.0
 11
28.44800000000001
 21
37.34533333333336
 31
0.0
 12
31.75000000000001
 22
36.79500000000002
 32
0.0
 13
31.75000000000001
 23
36.79500000000002
 33
0.0
  0
MTEXT
  5
122
330
11A
100
AcDbEntity
  8
치수문자_일반주서
 62
     0
100
AcDbMText
 10
0.0000000000000089
 20
41.17000000000002
 30
0.0
 40
3.5
 41
0.0
 71
     2
 72
     1
  1
\A1;63.5 [2 1/2]
  7
SLDTEXTSTYLE0
 73
     1
 44
1.0
  0
POINT
  5
123
330
11A
100
AcDbEntity
  8
Defpoints
 62
     0
100
AcDbPoint
 10
-31.74999999999999
 20
2.364999999999994
 30
0.0
  0
POINT
  5
124
330
11A
100
AcDbEntity
  8
Defpoints
 62
     0
100
AcDbPoint
 10
31.75000000000001
 20
2.974046754706987
 30
0.0
  0
POINT
  5
125
330
11A
100
AcDbEntity
  8
Defpoints
 62
     0
100
AcDbPoint
 10
31.75000000000001
 20
36.79500000000002
 30
0.0
  0
ENDBLK
  5
11C
330
11A
100
AcDbEntity
  8
0
100
AcDbBlockEnd
  0
BLOCK
  5
134
330
133
100
AcDbEntity
  8
0
100
AcDbBlockBegin
  2
SW_DOWELSYMBOL_0
 70
     0
 10
0.0
 20
0.0
 30
0.0
  3
SW_DOWELSYMBOL_0
  1
SW_DOWELSYMBOL_0
  0
CIRCLE
  5
136
330
133
100
AcDbEntity
  8
해칭선
 62
     0
100
AcDbCircle
 10
0.0
 20
0.0
 30
0.0
 40
3.000000000000001
  0
HATCH
  5
137
330
133
100
AcDbEntity
  8
0
  6
Continuous
 62
     0
370
     0
100
AcDbHatch
 10
0.0
 20
0.0
 30
0.0
210
0.0
220
0.0
230
1.0
  2
SOLID
 70
     1
 71
     0
 91
        1
 92
        0
 93
        3
 72
     2
 10
0.0
 20
0.0
 40
3.000000000000001
 50
0.0
 51
90.0
 73
     1
 72
     1
 10
0.0
 20
3.000000000000001
 11
0.0
 21
0.0
 72
     1
 10
0.0
 20
0.0
 11
3.000000000000001
 21
0.0
 97
        0
 75
     0
 76
     1
 98
        1
 10
0.0
 20
0.0
  0
HATCH
  5
138
330
133
100
AcDbEntity
  8
0
  6
Continuous
 62
     0
370
     0
100
AcDbHatch
 10
0.0
 20
0.0
 30
0.0
210
0.0
220
0.0
230
1.0
  2
SOLID
 70
     1
 71
     0
 91
        1
 92
        0
 93
        3
 72
     2
 10
0.0
 20
0.0
 40
3.000000000000001
 50
180.0
 51
270.0000000000007
 73
     1
 72
     1
 10
0.0
 20
-3.000000000000001
 11
0.0
 21
0.0
 72
     1
 10
0.0
 20
0.0
 11
-3.000000000000001
 21
0.0
 97
        0
 75
     0
 76
     1
 98
        1
 10
0.0
 20
0.0
  0
ENDBLK
  5
135
330
133
100
AcDbEntity
  8
0
100
AcDbBlockEnd
  0
BLOCK
  5
1F6
330
1F5
100
AcDbEntity
  8
0
100
AcDbBlockBegin
  2
_D_4
 70
     0
 10
0.0
 20
0.0
 30
0.0
  3
_D_4
  1
_D_4
  0
LINE
  5
1F7
330
1F5
100
AcDbEntity
  8
치수문자_일반주서
 62
     0
370
    -2
100
AcDbLine
 10
102.4375000000001
 20
36.22143424691529
 30
0.0
 11
117.3750000000001
 21
36.22143424691535
 31
0.0
  0
LINE
  5
1F8
330
1F5
100
AcDbEntity
  8
치수문자_일반주서
 62
     0
370
    -2
100
AcDbLine
 10
102.4375000000001
 20
22.22143424691529
 30
0.0
 11
117.3750000000001
 21
22.22143424691535
 31
0.0
  0
LINE
  5
1F9
330
1F5
100
AcDbEntity
  8
치수문자_일반주서
 62
     0
370
    -2
100
AcDbLine
 10
117.3750000000001
 20
36.22143424691535
 30
0.0
 11
117.3750000000001
 21
22.22143424691535
 31
0.0
  0
LINE
  5
1FA
330
1F5
100
AcDbEntity
  8
치수문자_일반주서
 62
     0
370
    -2
100
AcDbLine
 10
117.3750000000001
 20
39.52343424691535
 30
0.0
 11
117.375
 21
42.82543424691535
 31
0.0
  0
LINE
  5
1FB
330
1F5
100
AcDbEntity
  8
치수문자_일반주서
 62
     0
370
    -2
100
AcDbLine
 10
117.3750000000001
 20
18.91943424691535
 30
0.0
 11
117.3750000000001
 21
15.61743424691535
 31
0.0
  0
SOLID
  5
1FC
330
1F5
100
AcDbEntity
  8
치수문자_일반주서
 62
     0
100
AcDbTrace
 10
116.8246666666667
 20
39.52343424691535
 30
0.0
 11
117.9253333333334
 21
39.52343424691535
 31
0.0
 12
117.3750000000001
 22
36.22143424691535
 32
0.0
 13
117.3750000000001
 23
36.22143424691535
 33
0.0
  0
SOLID
  5
1FD
330
1F5
100
AcDbEntity
  8
치수문자_일반주서
 62
     0
100
AcDbTrace
 10
117.9253333333335
 20
18.91943424691535
 30
0.0
 11
116.8246666666668
 21
18.91943424691535
 31
0.0
 12
117.3750000000001
 22
22.22143424691535
 32
0.0
 13
117.3750000000001
 23
22.22143424691535
 33
0.0
  0
MTEXT
  5
1FE
330
1F5
100
AcDbEntity
  8
치수문자_일반주서
 62
     0
100
AcDbMText
 10
113.0000000000001
 20
29.28713862862833
 30
0.0
 40
3.5
 41
0.0
 71
     2
 72
     1
  1
\A1;%%c14
  7
SLDTEXTSTYLE0
 11
-3.045183153257572E-15
 21
1.0
 31
0.0
 73
     1
 44
1.0
  0
POINT
  5
1FF
330
1F5
100
AcDbEntity
  8
Defpoints
 62
     0
100
AcDbPoint
 10
102.3750000000001
 20
36.22143424691529
 30
0.0
  0
POINT
  5
200
330
1F5
100
AcDbEntity
  8
Defpoints
 62
     0
100
AcDbPoint
 10
102.3750000000001
 20
22.22143424691529
 30
0.0
  0
POINT
  5
201
330
1F5
100
AcDbEntity
  8
Defpoints
 62
     0
100
AcDbPoint
 10
117.3750000000001
 20
22.22143424691535
 30
0.0
  0
ENDBLK
  5
202
330
1F5
100
AcDbEntity
  8
0
100
AcDbBlockEnd
  0
BLOCK
  5
210
330
20F
100
AcDbEntity
  8
0
100
AcDbBlockBegin
  2
*D8
 70
     1
 10
0.0
 20
0.0
 30
0.0
  3
*D8
  1
*D8
  0
LINE
  5
211
330
20F
100
AcDbEntity
  8
치수문자_일반주서
 62
     0
370
    -2
100
AcDbLine
 10
103.8657751816695
 20
19.48229575403651
 30
0.0
 11
120.1921280501954
 21
-7.081888143622854
 31
0.0
  0
MTEXT
  5
212
330
20F
100
AcDbEntity
  8
치수문자_일반주서
 62
     0
100
AcDbMText
 10
115.6706384014277
 20
5.288158154535728
 30
0.0
 40
3.5
 41
0.0
 71
     5
 72
     1
  1
\A1;R.50 [R0.02]
  7
SLDTEXTSTYLE0
 11
0.5236126201129557
 21
-0.8519564684057781
 31
0.0
 73
     1
 44
1.0
  0
SOLID
  5
213
330
20F
100
AcDbEntity
  8
치수문자_일반주서
 62
     0
100
AcDbTrace
 10
104.3346352247821
 20
19.77045723263868
 30
0.0
 11
103.3969151385569
 21
19.19413427543435
 31
0.0
 12
102.1368063100565
 22
22.29545601271239
 32
0.0
 13
102.1368063100565
 23
22.29545601271239
 33
0.0
  0
LINE
  5
214
330
20F
100
AcDbEntity
  8
치수문자_일반주서
 62
     0
100
AcDbLine
 10
101.785
 20
22.72143424691529
 30
0.0
 11
101.965
 21
22.72143424691529
 31
0.0
  0
LINE
  5
215
330
20F
100
AcDbEntity
  8
치수문자_일반주서
 62
     0
100
AcDbLine
 10
101.875
 20
22.63143424691529
 30
0.0
 11
101.875
 21
22.81143424691529
 31
0.0
  0
POINT
  5
241
330
20F
100
AcDbEntity
  8
Defpoints
 62
     0
100
AcDbPoint
 10
102.1368063100565
 20
22.29545601271239
 30
0.0
  0
POINT
  5
242
330
20F
100
AcDbEntity
  8
Defpoints
 62
     0
100
AcDbPoint
 10
101.875
 20
22.72143424691529
 30
0.0
  0
ENDBLK
  5
216
330
20F
100
AcDbEntity
  8
0
100
AcDbBlockEnd
  0
BLOCK
  5
21C
330
21B
100
AcDbEntity
  8
0
100
AcDbBlockBegin
  2
*D9
 70
     1
 10
0.0
 20
0.0
 30
0.0
  3
*D9
  1
*D10
  0
LINE
  5
21E
330
21B
100
AcDbEntity
  8
치수문자_일반주서
 62
     0
370
    -2
100
AcDbLine
 10
19.37500000000004
 20
35.78393424691529
 30
0.0
 11
19.37500000000004
 21
70.88391841499404
 31
0.0
  0
LINE
  5
21F
330
21B
100
AcDbEntity
  8
치수문자_일반주서
 62
     0
370
    -2
100
AcDbLine
 10
102.3750000000001
 20
36.34643424691529
 30
0.0
 11
102.3750000000001
 21
70.88391841499404
 31
0.0
  0
LINE
  5
220
330
21B
100
AcDbEntity
  8
치수문자_일반주서
 62
     0
370
    -2
100
AcDbLine
 10
22.67700000000004
 20
70.88391841499404
 30
0.0
 11
99.07300000000006
 21
70.88391841499404
 31
0.0
  0
SOLID
  5
221
330
21B
100
AcDbEntity
  8
치수문자_일반주서
 62
     0
100
AcDbTrace
 10
22.67700000000004
 20
71.43425174832737
 30
0.0
 11
22.67700000000004
 21
70.33358508166071
 31
0.0
 12
19.37500000000004
 22
70.88391841499404
 32
0.0
 13
19.37500000000004
 23
70.88391841499404
 33
0.0
  0
SOLID
  5
222
330
21B
100
AcDbEntity
  8
치수문자_일반주서
 62
     0
100
AcDbTrace
 10
99.07300000000006
 20
70.33358508166071
 30
0.0
 11
99.07300000000006
 21
71.43425174832737
 31
0.0
 12
102.3750000000001
 22
70.88391841499404
 32
0.0
 13
102.3750000000001
 23
70.88391841499404
 33
0.0
  0
MTEXT
  5
223
330
21B
100
AcDbEntity
  8
치수문자_일반주서
 62
     0
100
AcDbMText
 10
60.87500000000005
 20
75.25891841499404
 30
0.0
 40
3.5
 41
0.0
 71
     2
 72
     1
  1
\A1;83 [3.27]
  7
SLDTEXTSTYLE0
 73
     1
 44
1.0
  0
POINT
  5
224
330
21B
100
AcDbEntity
  8
Defpoints
 62
     0
100
AcDbPoint
 10
19.37500000000004
 20
35.72143424691529
 30
0.0
  0
POINT
  5
225
330
21B
100
AcDbEntity
  8
Defpoints
 62
     0
100
AcDbPoint
 10
102.3750000000001
 20
36.28393424691529
 30
0.0
  0
POINT
  5
226
330
21B
100
AcDbEntity
  8
Defpoints
 62
     0
100
AcDbPoint
 10
102.3750000000001
 20
70.88391841499404
 30
0.0
  0
ENDBLK
  5
21D
330
21B
100
AcDbEntity
  8
0
100
AcDbBlockEnd
  0
BLOCK
  5
228
330
227
100
AcDbEntity
  8
0
100
AcDbBlockBegin
  2
*D10
 70
     1
 10
0.0
 20
0.0
 30
0.0
  3
*D10
  1
*D11
  0
LINE
  5
22A
330
227
100
AcDbEntity
  8
치수문자_일반주서
 62
     0
370
    -2
100
AcDbLine
 10
76.37504186422882
 20
28.62038676313042
 30
0.0
 11
76.37504186422882
 21
61.90091383617725
 31
0.0
  0
LINE
  5
22B
330
227
100
AcDbEntity
  8
치수문자_일반주서
 62
     0
370
    -2
100
AcDbLine
 10
102.3750000000001
 20
36.28393424691529
 30
0.0
 11
102.3750000000001
 21
61.90091383617725
 31
0.0
  0
LINE
  5
22C
330
227
100
AcDbEntity
  8
치수문자_일반주서
 62
     0
370
    -2
100
AcDbLine
 10
79.67704186422881
 20
61.90091383617725
 30
0.0
 11
99.07300000000006
 21
61.90091383617725
 31
0.0
  0
SOLID
  5
22D
330
227
100
AcDbEntity
  8
치수문자_일반주서
 62
     0
100
AcDbTrace
 10
79.67704186422881
 20
62.45124716951059
 30
0.0
 11
79.67704186422881
 21
61.35058050284392
 31
0.0
 12
76.37504186422882
 22
61.90091383617725
 32
0.0
 13
76.37504186422882
 23
61.90091383617725
 33
0.0
  0
SOLID
  5
22E
330
227
100
AcDbEntity
  8
치수문자_일반주서
 62
     0
100
AcDbTrace
 10
99.07300000000006
 20
61.35058050284392
 30
0.0
 11
99.07300000000006
 21
62.45124716951059
 31
0.0
 12
102.3750000000001
 22
61.90091383617725
 32
0.0
 13
102.3750000000001
 23
61.90091383617725
 33
0.0
  0
MTEXT
  5
22F
330
227
100
AcDbEntity
  8
치수문자_일반주서
 62
     0
100
AcDbMText
 10
89.42159572693208
 20
66.27591383617725
 30
0.0
 40
3.5
 41
0.0
 71
     2
 72
     1
  1
\A1;26 [1.02]
  7
SLDTEXTSTYLE0
 73
     1
 44
1.0
  0
POINT
  5
230
330
227
100
AcDbEntity
  8
Defpoints
 62
     0
100
AcDbPoint
 10
76.37504186422882
 20
28.55788676313042
 30
0.0
  0
POINT
  5
231
330
227
100
AcDbEntity
  8
Defpoints
 62
     0
100
AcDbPoint
 10
102.3750000000001
 20
36.22143424691529
 30
0.0
  0
POINT
  5
232
330
227
100
AcDbEntity
  8
Defpoints
 62
     0
100
AcDbPoint
 10
102.3750000000001
 20
61.90091383617725
 30
0.0
  0
ENDBLK
  5
229
330
227
100
AcDbEntity
  8
0
100
AcDbBlockEnd
  0
BLOCK
  5
234
330
233
100
AcDbEntity
  8
0
100
AcDbBlockBegin
  2
*D11
 70
     1
 10
0.0
 20
0.0
 30
0.0
  3
*D11
  1
*D12
  0
LINE
  5
236
330
233
100
AcDbEntity
  8
치수문자_일반주서
 62
     0
370
    -2
100
AcDbLine
 10
19.81250000000005
 20
36.22143424691529
 30
0.0
 11
4.374999999999983
 21
36.22143424691524
 31
0.0
  0
LINE
  5
237
330
233
100
AcDbEntity
  8
치수문자_일반주서
 62
     0
370
    -2
100
AcDbLine
 10
19.81250000000005
 20
22.22143424691529
 30
0.0
 11
4.375000000000032
 21
22.22143424691524
 31
0.0
  0
LINE
  5
238
330
233
100
AcDbEntity
  8
치수문자_일반주서
 62
     0
370
    -2
100
AcDbLine
 10
4.374999999999983
 20
36.22143424691524
 30
0.0
 11
4.375000000000032
 21
22.22143424691524
 31
0.0
  0
LINE
  5
239
330
233
100
AcDbEntity
  8
치수문자_일반주서
 62
     0
370
    -2
100
AcDbLine
 10
4.374999999999972
 20
39.52343424691524
 30
0.0
 11
4.37499999999996
 21
42.82543424691524
 31
0.0
  0
LINE
  5
23A
330
233
100
AcDbEntity
  8
치수문자_일반주서
 62
     0
370
    -2
100
AcDbLine
 10
4.375000000000044
 20
18.91943424691524
 30
0.0
 11
4.375000000000055
 21
15.61743424691524
 31
0.0
  0
SOLID
  5
23B
330
233
100
AcDbEntity
  8
치수문자_일반주서
 62
     0
100
AcDbTrace
 10
3.824666666666638
 20
39.52343424691524
 30
0.0
 11
4.925333333333305
 21
39.52343424691524
 31
0.0
 12
4.374999999999983
 22
36.22143424691524
 32
0.0
 13
4.374999999999983
 23
36.22143424691524
 33
0.0
  0
SOLID
  5
23C
330
233
100
AcDbEntity
  8
치수문자_일반주서
 62
     0
100
AcDbTrace
 10
4.925333333333377
 20
18.91943424691524
 30
0.0
 11
3.82466666666671
 21
18.91943424691523
 31
0.0
 12
4.375000000000032
 22
22.22143424691524
 32
0.0
 13
4.375000000000032
 23
22.22143424691524
 33
0.0
  0
MTEXT
  5
23D
330
233
100
AcDbEntity
  8
치수문자_일반주서
 62
     0
100
AcDbMText
 10
0.0000000000000071
 20
29.22143424691528
 30
0.0
 40
3.5
 41
0.0
 71
     2
 72
     1
  1
\A1;%%c14
  7
SLDTEXTSTYLE0
 11
-3.489272363107635E-15
 21
1.0
 31
0.0
 73
     1
 44
1.0
  0
POINT
  5
23E
330
233
100
AcDbEntity
  8
Defpoints
 62
     0
100
AcDbPoint
 10
19.87500000000005
 20
36.22143424691529
 30
0.0
  0
POINT
  5
23F
330
233
100
AcDbEntity
  8
Defpoints
 62
     0
100
AcDbPoint
 10
19.87500000000005
 20
22.22143424691529
 30
0.0
  0
POINT
  5
240
330
233
100
AcDbEntity
  8
Defpoints
 62
     0
100
AcDbPoint
 10
4.375000000000043
 20
22.22143424691524
 30
0.0
  0
ENDBLK
  5
235
330
233
100
AcDbEntity
  8
0
100
AcDbBlockEnd
  0
BLOCK
  5
28F
330
28E
100
AcDbEntity
  8
0
100
AcDbBlockBegin
  2
*D12
 70
     1
 10
0.0
 20
0.0
 30
0.0
  3
*D12
  1
*D13
  0
LINE
  5
291
330
28E
100
AcDbEntity
  8
치수문자_일반주서
 62
     0
370
    -2
100
AcDbLine
 10
-102.9081358218811
 20
111.1228166550557
 30
0.0
 11
-102.9081358218811
 21
146.2228008231344
 31
0.0
  0
LINE
  5
292
330
28E
100
AcDbEntity
  8
치수문자_일반주서
 62
     0
370
    -2
100
AcDbLine
 10
-19.90813582188113
 20
111.6853166550557
 30
0.0
 11
-19.90813582188113
 21
146.2228008231344
 31
0.0
  0
LINE
  5
293
330
28E
100
AcDbEntity
  8
치수문자_일반주서
 62
     0
370
    -2
100
AcDbLine
 10
-99.60613582188114
 20
146.2228008231344
 30
0.0
 11
-23.21013582188113
 21
146.2228008231344
 31
0.0
  0
SOLID
  5
294
330
28E
100
AcDbEntity
  8
치수문자_일반주서
 62
     0
100
AcDbTrace
 10
-99.60613582188114
 20
146.7731341564677
 30
0.0
 11
-99.60613582188114
 21
145.6724674898011
 31
0.0
 12
-102.9081358218811
 22
146.2228008231344
 32
0.0
 13
-102.9081358218811
 23
146.2228008231344
 33
0.0
  0
SOLID
  5
295
330
28E
100
AcDbEntity
  8
치수문자_일반주서
 62
     0
100
AcDbTrace
 10
-23.21013582188113
 20
145.6724674898011
 30
0.0
 11
-23.21013582188113
 21
146.7731341564677
 31
0.0
 12
-19.90813582188113
 22
146.2228008231344
 32
0.0
 13
-19.90813582188113
 23
146.2228008231344
 33
0.0
  0
MTEXT
  5
296
330
28E
100
AcDbEntity
  8
치수문자_일반주서
 62
     0
100
AcDbMText
 10
-61.40813582188114
 20
150.5978008231344
 30
0.0
 40
3.5
 41
0.0
 71
     2
 72
     1
  1
\A1;83 [3.27]
  7
SLDTEXTSTYLE0
 73
     1
 44
1.0
  0
POINT
  5
297
330
28E
100
AcDbEntity
  8
Defpoints
 62
     0
100
AcDbPoint
 10
-102.9081358218811
 20
111.0603166550557
 30
0.0
  0
POINT
  5
298
330
28E
100
AcDbEntity
  8
Defpoints
 62
     0
100
AcDbPoint
 10
-19.90813582188113
 20
111.6228166550557
 30
0.0
  0
POINT
  5
299
330
28E
100
AcDbEntity
  8
Defpoints
 62
     0
100
AcDbPoint
 10
-19.90813582188113
 20
146.2228008231344
 30
0.0
  0
ENDBLK
  5
290
330
28E
100
AcDbEntity
  8
0
100
AcDbBlockEnd
  0
BLOCK
  5
29B
330
29A
100
AcDbEntity
  8
0
100
AcDbBlockBegin
  2
*D13
 70
     1
 10
0.0
 20
0.0
 30
0.0
  3
*D13
  1
*D14
  0
LINE
  5
29D
330
29A
100
AcDbEntity
  8
치수문자_일반주서
 62
     0
370
    -2
100
AcDbLine
 10
-45.90809395765237
 20
103.9592691712708
 30
0.0
 11
-45.90809395765237
 21
137.2397962443176
 31
0.0
  0
LINE
  5
29E
330
29A
100
AcDbEntity
  8
치수문자_일반주서
 62
     0
370
    -2
100
AcDbLine
 10
-19.90813582188113
 20
111.6228166550557
 30
0.0
 11
-19.90813582188113
 21
137.2397962443176
 31
0.0
  0
LINE
  5
29F
330
29A
100
AcDbEntity
  8
치수문자_일반주서
 62
     0
370
    -2
100
AcDbLine
 10
-42.60609395765237
 20
137.2397962443176
 30
0.0
 11
-23.21013582188113
 21
137.2397962443176
 31
0.0
  0
SOLID
  5
2A0
330
29A
100
AcDbEntity
  8
치수문자_일반주서
 62
     0
100
AcDbTrace
 10
-42.60609395765237
 20
137.790129577651
 30
0.0
 11
-42.60609395765237
 21
136.6894629109843
 31
0.0
 12
-45.90809395765237
 22
137.2397962443176
 32
0.0
 13
-45.90809395765237
 23
137.2397962443176
 33
0.0
  0
SOLID
  5
2A1
330
29A
100
AcDbEntity
  8
치수문자_일반주서
 62
     0
100
AcDbTrace
 10
-23.21013582188113
 20
136.6894629109843
 30
0.0
 11
-23.21013582188113
 21
137.790129577651
 31
0.0
 12
-19.90813582188113
 22
137.2397962443176
 32
0.0
 13
-19.90813582188113
 23
137.2397962443176
 33
0.0
  0
MTEXT
  5
2A2
330
29A
100
AcDbEntity
  8
치수문자_일반주서
 62
     0
100
AcDbMText
 10
-32.86154009494911
 20
141.6147962443176
 30
0.0
 40
3.5
 41
0.0
 71
     2
 72
     1
  1
\A1;26 [1.02]
  7
SLDTEXTSTYLE0
 73
     1
 44
1.0
  0
POINT
  5
2A3
330
29A
100
AcDbEntity
  8
Defpoints
 62
     0
100
AcDbPoint
 10
-45.90809395765237
 20
103.8967691712708
 30
0.0
  0
POINT
  5
2A4
330
29A
100
AcDbEntity
  8
Defpoints
 62
     0
100
AcDbPoint
 10
-19.90813582188113
 20
111.5603166550557
 30
0.0
  0
POINT
  5
2A5
330
29A
100
AcDbEntity
  8
Defpoints
 62
     0
100
AcDbPoint
 10
-19.90813582188113
 20
137.2397962443176
 30
0.0
  0
ENDBLK
  5
29C
330
29A
100
AcDbEntity
  8
0
100
AcDbBlockEnd
  0
BLOCK
  5
2A7
330
2A6
100
AcDbEntity
  8
0
100
AcDbBlockBegin
  2
*D14
 70
     1
 10
0.0
 20
0.0
 30
0.0
  3
*D14
  1
*D15
  0
LINE
  5
2A9
330
2A6
100
AcDbEntity
  8
치수문자_일반주서
 62
     0
370
    -2
100
AcDbLine
 10
-102.4706358218811
 20
111.5603166550557
 30
0.0
 11
-117.9081358218812
 21
111.5603166550556
 31
0.0
  0
LINE
  5
2AA
330
2A6
100
AcDbEntity
  8
치수문자_일반주서
 62
     0
370
    -2
100
AcDbLine
 10
-102.4706358218811
 20
97.56031665505566
 30
0.0
 11
-117.9081358218812
 21
97.5603166550556
 31
0.0
  0
LINE
  5
2AB
330
2A6
100
AcDbEntity
  8
치수문자_일반주서
 62
     0
370
    -2
100
AcDbLine
 10
-117.9081358218812
 20
111.5603166550556
 30
0.0
 11
-117.9081358218812
 21
97.5603166550556
 31
0.0
  0
LINE
  5
2AC
330
2A6
100
AcDbEntity
  8
치수문자_일반주서
 62
     0
370
    -2
100
AcDbLine
 10
-117.9081358218812
 20
114.8623166550556
 30
0.0
 11
-117.9081358218812
 21
118.1643166550556
 31
0.0
  0
LINE
  5
2AD
330
2A6
100
AcDbEntity
  8
치수문자_일반주서
 62
     0
370
    -2
100
AcDbLine
 10
-117.9081358218811
 20
94.2583166550556
 30
0.0
 11
-117.9081358218811
 21
90.95631665505559
 31
0.0
  0
SOLID
  5
2AE
330
2A6
100
AcDbEntity
  8
치수문자_일반주서
 62
     0
100
AcDbTrace
 10
-118.4584691552145
 20
114.8623166550556
 30
0.0
 11
-117.3578024885479
 21
114.8623166550556
 31
0.0
 12
-117.9081358218812
 22
111.5603166550556
 32
0.0
 13
-117.9081358218812
 23
111.5603166550556
 33
0.0
  0
SOLID
  5
2AF
330
2A6
100
AcDbEntity
  8
치수문자_일반주서
 62
     0
100
AcDbTrace
 10
-117.3578024885478
 20
94.2583166550556
 30
0.0
 11
-118.4584691552145
 21
94.2583166550556
 31
0.0
 12
-117.9081358218812
 22
97.5603166550556
 32
0.0
 13
-117.9081358218812
 23
97.5603166550556
 33
0.0
  0
MTEXT
  5
2B0
330
2A6
100
AcDbEntity
  8
치수문자_일반주서
 62
     0
100
AcDbMText
 10
-122.2831358218812
 20
104.5603166550556
 30
0.0
 40
3.5
 41
0.0
 71
     2
 72
     1
  1
\A1;%%c14
  7
SLDTEXTSTYLE0
 11
-3.045183153257572E-15
 21
1.0
 31
0.0
 73
     1
 44
1.0
  0
POINT
  5
2B1
330
2A6
100
AcDbEntity
  8
Defpoints
 62
     0
100
AcDbPoint
 10
-102.4081358218811
 20
111.5603166550557
 30
0.0
  0
POINT
  5
2B2
330
2A6
100
AcDbEntity
  8
Defpoints
 62
     0
100
AcDbPoint
 10
-102.4081358218811
 20
97.56031665505566
 30
0.0
  0
POINT
  5
2B3
330
2A6
100
AcDbEntity
  8
Defpoints
 62
     0
100
AcDbPoint
 10
-117.9081358218812
 20
97.5603166550556
 30
0.0
  0
ENDBLK
  5
2A8
330
2A6
100
AcDbEntity
  8
0
100
AcDbBlockEnd
  0
BLOCK
  5
2B5
330
2B4
100
AcDbEntity
  8
0
100
AcDbBlockBegin
  2
*D15
 70
     1
 10
0.0
 20
0.0
 30
0.0
  3
*D15
  1
*D16
  0
LINE
  5
2B7
330
2B4
100
AcDbEntity
  8
치수문자_일반주서
 62
     0
370
    -2
100
AcDbLine
 10
-19.84563582188112
 20
111.5603166550557
 30
0.0
 11
-4.908135821881127
 21
111.5603166550557
 31
0.0
  0
LINE
  5
2B8
330
2B4
100
AcDbEntity
  8
치수문자_일반주서
 62
     0
370
    -2
100
AcDbLine
 10
-19.84563582188113
 20
97.56031665505566
 30
0.0
 11
-4.908135821881078
 21
97.56031665505571
 31
0.0
  0
LINE
  5
2B9
330
2B4
100
AcDbEntity
  8
치수문자_일반주서
 62
     0
370
    -2
100
AcDbLine
 10
-4.908135821881127
 20
111.5603166550557
 30
0.0
 11
-4.908135821881078
 21
97.56031665505571
 31
0.0
  0
LINE
  5
2BA
330
2B4
100
AcDbEntity
  8
치수문자_일반주서
 62
     0
370
    -2
100
AcDbLine
 10
-4.908135821881139
 20
114.8623166550557
 30
0.0
 11
-4.90813582188115
 21
118.1643166550557
 31
0.0
  0
LINE
  5
2BB
330
2B4
100
AcDbEntity
  8
치수문자_일반주서
 62
     0
370
    -2
100
AcDbLine
 10
-4.908135821881067
 20
94.25831665505571
 30
0.0
 11
-4.908135821881055
 21
90.9563166550557
 31
0.0
  0
SOLID
  5
2BC
330
2B4
100
AcDbEntity
  8
치수문자_일반주서
 62
     0
100
AcDbTrace
 10
-5.458469155214472
 20
114.8623166550557
 30
0.0
 11
-4.357802488547805
 21
114.8623166550557
 31
0.0
 12
-4.908135821881127
 22
111.5603166550557
 32
0.0
 13
-4.908135821881127
 23
111.5603166550557
 33
0.0
  0
SOLID
  5
2BD
330
2B4
100
AcDbEntity
  8
치수문자_일반주서
 62
     0
100
AcDbTrace
 10
-4.357802488547733
 20
94.25831665505571
 30
0.0
 11
-5.4584691552144
 21
94.25831665505571
 31
0.0
 12
-4.908135821881078
 22
97.56031665505571
 32
0.0
 13
-4.908135821881078
 23
97.56031665505571
 33
0.0
  0
MTEXT
  5
2BE
330
2B4
100
AcDbEntity
  8
치수문자_일반주서
 62
     0
100
AcDbMText
 10
-9.283135821881103
 20
104.6260210367687
 30
0.0
 40
3.5
 41
0.0
 71
     2
 72
     1
  1
\A1;%%c14
  7
SLDTEXTSTYLE0
 11
-3.489272363107635E-15
 21
1.0
 31
0.0
 73
     1
 44
1.0
  0
POINT
  5
2BF
330
2B4
100
AcDbEntity
  8
Defpoints
 62
     0
100
AcDbPoint
 10
-19.90813582188112
 20
111.5603166550557
 30
0.0
  0
POINT
  5
2C0
330
2B4
100
AcDbEntity
  8
Defpoints
 62
     0
100
AcDbPoint
 10
-19.90813582188113
 20
97.56031665505566
 30
0.0
  0
POINT
  5
2C1
330
2B4
100
AcDbEntity
  8
Defpoints
 62
     0
100
AcDbPoint
 10
-4.908135821881075
 20
97.56031665505571
 30
0.0
  0
ENDBLK
  5
2B6
330
2B4
100
AcDbEntity
  8
0
100
AcDbBlockEnd
  0
BLOCK
  5
2C3
330
2C2
100
AcDbEntity
  8
0
100
AcDbBlockBegin
  2
*D16
 70
     1
 10
0.0
 20
0.0
 30
0.0
  3
*D16
  1
*D17
  0
LINE
  5
2C5
330
2C2
100
AcDbEntity
  8
치수문자_일반주서
 62
     0
370
    -2
100
AcDbLine
 10
-18.41736064021168
 20
94.82117816217688
 30
0.0
 11
-2.091007771685846
 21
68.2569942645175
 31
0.0
  0
MTEXT
  5
2C6
330
2C2
100
AcDbEntity
  8
치수문자_일반주서
 62
     0
100
AcDbMText
 10
-6.612497420453513
 20
80.62704056267609
 30
0.0
 40
3.5
 41
0.0
 71
     5
 72
     1
  1
\A1;R.50 [R0.02]
  7
SLDTEXTSTYLE0
 11
0.5236126201129557
 21
-0.8519564684057781
 31
0.0
 73
     1
 44
1.0
  0
SOLID
  5
2C7
330
2C2
100
AcDbEntity
  8
치수문자_일반주서
 62
     0
100
AcDbTrace
 10
-17.94850059709903
 20
95.10933964077904
 30
0.0
 11
-18.88622068332432
 21
94.53301668357471
 31
0.0
 12
-20.14632951182466
 22
97.63433842085276
 32
0.0
 13
-20.14632951182466
 23
97.63433842085276
 33
0.0
  0
LINE
  5
2C8
330
2C2
100
AcDbEntity
  8
치수문자_일반주서
 62
     0
100
AcDbLine
 10
-20.49813582188115
 20
98.06031665505566
 30
0.0
 11
-20.31813582188115
 21
98.06031665505566
 31
0.0
  0
LINE
  5
2C9
330
2C2
100
AcDbEntity
  8
치수문자_일반주서
 62
     0
100
AcDbLine
 10
-20.40813582188115
 20
97.97031665505565
 30
0.0
 11
-20.40813582188115
 21
98.15031665505566
 31
0.0
  0
POINT
  5
2CA
330
2C2
100
AcDbEntity
  8
Defpoints
 62
     0
100
AcDbPoint
 10
-20.14632951182466
 20
97.63433842085276
 30
0.0
  0
POINT
  5
2CB
330
2C2
100
AcDbEntity
  8
Defpoints
 62
     0
100
AcDbPoint
 10
-20.40813582188115
 20
98.06031665505566
 30
0.0
  0
ENDBLK
  5
2C4
330
2C2
100
AcDbEntity
  8
0
100
AcDbBlockEnd
  0
BLOCK
  5
308
330
307
100
AcDbEntity
  8
0
100
AcDbBlockBegin
  2
*D17
 70
     1
 10
0.0
 20
0.0
 30
0.0
  3
*D17
  1
*D18
  0
LINE
  5
30A
330
307
100
AcDbEntity
  8
치수문자_일반주서
 62
     0
370
    -2
100
AcDbLine
 10
118.6604306068869
 20
-37.30187852798436
 30
0.0
 11
132.9441056494169
 21
-37.30187852798431
 31
0.0
  0
LINE
  5
30B
330
307
100
AcDbEntity
  8
치수문자_일반주서
 62
     0
370
    -2
100
AcDbLine
 10
118.6604306068869
 20
-31.35378501857039
 30
0.0
 11
132.9441056494169
 21
-31.35378501857034
 31
0.0
  0
LINE
  5
30C
330
307
100
AcDbEntity
  8
치수문자_일반주서
 62
     0
370
    -2
100
AcDbLine
 10
132.9441056494169
 20
-31.35378501857034
 30
0.0
 11
132.9441056494167
 21
1.937714981429661
 31
0.0
  0
LINE
  5
30D
330
307
100
AcDbEntity
  8
치수문자_일반주서
 62
     0
370
    -2
100
AcDbLine
 10
132.9441056494169
 20
-37.30187852798431
 30
0.0
 11
132.9441056494169
 21
-31.35378501857034
 31
0.0
  0
LINE
  5
30E
330
307
100
AcDbEntity
  8
치수문자_일반주서
 62
     0
370
    -2
100
AcDbLine
 10
132.9441056494169
 20
-40.60387852798431
 30
0.0
 11
132.9441056494169
 21
-43.90587852798431
 31
0.0
  0
LINE
  5
30F
330
307
100
AcDbEntity
  8
치수문자_일반주서
 62
     0
370
    -2
100
AcDbLine
 10
132.9441056494168
 20
-28.05178501857034
 30
0.0
 11
132.9441056494168
 21
-24.74978501857034
 31
0.0
  0
SOLID
  5
310
330
307
100
AcDbEntity
  8
치수문자_일반주서
 62
     0
100
AcDbTrace
 10
133.4944389827502
 20
-40.60387852798431
 30
0.0
 11
132.3937723160836
 21
-40.60387852798431
 31
0.0
 12
132.9441056494169
 22
-37.30187852798431
 32
0.0
 13
132.9441056494169
 23
-37.30187852798431
 33
0.0
  0
SOLID
  5
311
330
307
100
AcDbEntity
  8
치수문자_일반주서
 62
     0
100
AcDbTrace
 10
132.3937723160835
 20
-28.05178501857034
 30
0.0
 11
133.4944389827502
 21
-28.05178501857034
 31
0.0
 12
132.9441056494169
 22
-31.35378501857034
 32
0.0
 13
132.9441056494169
 23
-31.35378501857034
 33
0.0
  0
MTEXT
  5
312
330
307
100
AcDbEntity
  8
치수문자_일반주서
 62
     0
100
AcDbMText
 10
128.5691056494168
 20
-11.40603501857036
 30
0.0
 40
3.5
 41
0.0
 71
     2
 72
     1
  1
\A1;%%c5.95 [0.23]
  7
SLDTEXTSTYLE0
 11
-4.778288940047982E-15
 21
1.0
 31
0.0
 73
     1
 44
1.0
  0
POINT
  5
313
330
307
100
AcDbEntity
  8
Defpoints
 62
     0
100
AcDbPoint
 10
118.5979306068869
 20
-37.30187852798436
 30
0.0
  0
POINT
  5
314
330
307
100
AcDbEntity
  8
Defpoints
 62
     0
100
AcDbPoint
 10
118.5979306068869
 20
-31.35378501857039
 30
0.0
  0
POINT
  5
315
330
307
100
AcDbEntity
  8
Defpoints
 62
     0
100
AcDbPoint
 10
132.9441056494168
 20
-31.35378501857033
 30
0.0
  0
ENDBLK
  5
309
330
307
100
AcDbEntity
  8
0
100
AcDbBlockEnd
  0
BLOCK
  5
317
330
316
100
AcDbEntity
  8
0
100
AcDbBlockBegin
  2
*D18
 70
     1
 10
0.0
 20
0.0
 30
0.0
  3
*D18
  1
*D19
  0
LINE
  5
319
330
316
100
AcDbEntity
  8
치수문자_일반주서
 62
     0
370
    -2
100
AcDbLine
 10
118.5979306068869
 20
-31.29128501857039
 30
0.0
 11
118.5979306068869
 21
-18.41061375378711
 31
0.0
  0
LINE
  5
31A
330
316
100
AcDbEntity
  8
치수문자_일반주서
 62
     0
370
    -2
100
AcDbLine
 10
105.8979306068869
 20
-31.47668353637612
 30
0.0
 11
105.8979306068869
 21
-18.41061375378711
 31
0.0
  0
LINE
  5
31B
330
316
100
AcDbEntity
  8
치수문자_일반주서
 62
     0
370
    -2
100
AcDbLine
 10
105.8979306068869
 20
-18.41061375378711
 30
0.0
 11
76.54393060688693
 21
-18.41061375378711
 31
0.0
  0
LINE
  5
31C
330
316
100
AcDbEntity
  8
치수문자_일반주서
 62
     0
370
    -2
100
AcDbLine
 10
118.5979306068869
 20
-18.41061375378711
 30
0.0
 11
105.8979306068869
 21
-18.41061375378711
 31
0.0
  0
LINE
  5
31D
330
316
100
AcDbEntity
  8
치수문자_일반주서
 62
     0
370
    -2
100
AcDbLine
 10
121.8999306068869
 20
-18.41061375378711
 30
0.0
 11
125.2019306068869
 21
-18.41061375378711
 31
0.0
  0
LINE
  5
31E
330
316
100
AcDbEntity
  8
치수문자_일반주서
 62
     0
370
    -2
100
AcDbLine
 10
102.5959306068869
 20
-18.41061375378711
 30
0.0
 11
99.29393060688693
 21
-18.41061375378711
 31
0.0
  0
SOLID
  5
31F
330
316
100
AcDbEntity
  8
치수문자_일반주서
 62
     0
100
AcDbTrace
 10
121.8999306068869
 20
-17.86028042045378
 30
0.0
 11
121.8999306068869
 21
-18.96094708712045
 31
0.0
 12
118.5979306068869
 22
-18.41061375378711
 32
0.0
 13
118.5979306068869
 23
-18.41061375378711
 33
0.0
  0
SOLID
  5
320
330
316
100
AcDbEntity
  8
치수문자_일반주서
 62
     0
100
AcDbTrace
 10
102.5959306068869
 20
-18.96094708712045
 30
0.0
 11
102.5959306068869
 21
-17.86028042045378
 31
0.0
 12
105.8979306068869
 22
-18.41061375378711
 32
0.0
 13
105.8979306068869
 23
-18.41061375378711
 33
0.0
  0
MTEXT
  5
321
330
316
100
AcDbEntity
  8
치수문자_일반주서
 62
     0
100
AcDbMText
 10
87.91893060688693
 20
-14.03561375378711
 30
0.0
 40
3.5
 41
0.0
 71
     2
 72
     1
  1
\A1;12.7 [0.50]
  7
SLDTEXTSTYLE0
 73
     1
 44
1.0
  0
POINT
  5
322
330
316
100
AcDbEntity
  8
Defpoints
 62
     0
100
AcDbPoint
 10
118.5979306068869
 20
-31.35378501857039
 30
0.0
  0
POINT
  5
323
330
316
100
AcDbEntity
  8
Defpoints
 62
     0
100
AcDbPoint
 10
105.8979306068869
 20
-31.53918353637612
 30
0.0
  0
POINT
  5
324
330
316
100
AcDbEntity
  8
Defpoints
 62
     0
100
AcDbPoint
 10
105.8979306068869
 20
-18.41061375378711
 30
0.0
  0
ENDBLK
  5
318
330
316
100
AcDbEntity
  8
0
100
AcDbBlockEnd
  0
BLOCK
  5
326
330
325
100
AcDbEntity
  8
0
100
AcDbBlockBegin
  2
*D19
 70
     1
 10
0.0
 20
0.0
 30
0.0
  3
*D19
  1
*D20
  0
LINE
  5
328
330
325
100
AcDbEntity
  8
치수문자_일반주서
 62
     0
370
    -2
100
AcDbLine
 10
55.09793060688693
 20
-31.90033177327738
 30
0.0
 11
55.09793060688693
 21
2.467168226722649
 31
0.0
  0
LINE
  5
329
330
325
100
AcDbEntity
  8
치수문자_일반주서
 62
     0
370
    -2
100
AcDbLine
 10
118.5979306068869
 20
-31.29128501857039
 30
0.0
 11
118.5979306068869
 21
2.467168226722649
 31
0.0
  0
LINE
  5
32A
330
325
100
AcDbEntity
  8
치수문자_일반주서
 62
     0
370
    -2
100
AcDbLine
 10
58.39993060688693
 20
2.467168226722649
 30
0.0
 11
115.2959306068869
 21
2.467168226722649
 31
0.0
  0
SOLID
  5
32B
330
325
100
AcDbEntity
  8
치수문자_일반주서
 62
     0
100
AcDbTrace
 10
58.39993060688693
 20
3.017501560055982
 30
0.0
 11
58.39993060688693
 21
1.916834893389316
 31
0.0
 12
55.09793060688693
 22
2.467168226722649
 32
0.0
 13
55.09793060688693
 23
2.467168226722649
 33
0.0
  0
SOLID
  5
32C
330
325
100
AcDbEntity
  8
치수문자_일반주서
 62
     0
100
AcDbTrace
 10
115.2959306068869
 20
1.916834893389316
 30
0.0
 11
115.2959306068869
 21
3.017501560055982
 31
0.0
 12
118.5979306068869
 22
2.467168226722649
 32
0.0
 13
118.5979306068869
 23
2.467168226722649
 33
0.0
  0
MTEXT
  5
32D
330
325
100
AcDbEntity
  8
치수문자_일반주서
 62
     0
100
AcDbMText
 10
86.84793060688693
 20
6.842168226722649
 30
0.0
 40
3.5
 41
0.0
 71
     2
 72
     1
  1
\A1;63.5 [2.50]
  7
SLDTEXTSTYLE0
 73
     1
 44
1.0
  0
POINT
  5
32E
330
325
100
AcDbEntity
  8
Defpoints
 62
     0
100
AcDbPoint
 10
55.09793060688693
 20
-31.96283177327738
 30
0.0
  0
POINT
  5
32F
330
325
100
AcDbEntity
  8
Defpoints
 62
     0
100
AcDbPoint
 10
118.5979306068869
 20
-31.35378501857039
 30
0.0
  0
POINT
  5
330
330
325
100
AcDbEntity
  8
Defpoints
 62
     0
100
AcDbPoint
 10
118.5979306068869
 20
2.467168226722649
 30
0.0
  0
ENDBLK
  5
327
330
325
100
AcDbEntity
  8
0
100
AcDbBlockEnd
  0
ENDSEC
  0
SECTION
  2
ENTITIES
  0
LINE
  5
96
330
1F
100
AcDbEntity
  8
외형선
  6
Continuous
370
    15
100
AcDbLine
 10
17.30942116787305
 20
3.174999999999998
 30
0.0
 11
-17.30942116787305
 21
3.174999999999996
 31
0.0
  0
LINE
  5
97
330
1F
100
AcDbEntity
  8
외형선
  6
Continuous
370
    15
100
AcDbLine
 10
-17.30942116787305
 20
-3.175
 30
0.0
 11
17.30942116787305
 21
-3.174999999999998
 31
0.0
  0
LINE
  5
98
330
1F
100
AcDbEntity
  8
외형선
  6
Continuous
370
    15
100
AcDbLine
 10
17.30942116787305
 20
-3.175
 30
0.0
 11
18.05
 21
-2.9765625
 31
0.0
  0
LINE
  5
99
330
1F
100
AcDbEntity
  8
외형선
  6
Continuous
370
    15
100
AcDbLine
 10
18.05
 20
2.9765625
 30
0.0
 11
17.30942116787305
 21
3.175
 31
0.0
  0
LINE
  5
9C
330
1F
100
AcDbEntity
  8
외형선
  6
Continuous
370
    15
100
AcDbLine
 10
18.16006020742191
 20
2.9765625
 30
0.0
 11
18.05
 21
2.9765625
 31
0.0
  0
LINE
  5
9D
330
1F
100
AcDbEntity
  8
외형선
  6
Continuous
370
    15
100
AcDbLine
 10
18.05
 20
-2.9765625
 30
0.0
 11
18.16006020742191
 21
-2.9765625
 31
0.0
  0
SPLINE
  5
9E
330
1F
100
AcDbEntity
  8
외형선
  6
Continuous
370
    15
100
AcDbSpline
210
0.0
220
0.0
230
1.0
 70
     8
 71
     3
 72
     9
 73
     5
 74
     0
 42
0.000000001
 43
0.00000001
 40
0.0
 40
0.0
 40
0.0
 40
0.0
 40
0.4993099122651122
 40
1.0
 40
1.0
 40
1.0
 40
1.0
 10
18.57688386696895
 20
-2.476914293228762
 30
0.0
 10
18.65570105799605
 20
-2.469176016342428
 30
0.0
 10
18.81355330384783
 20
-2.453678072688096
 30
0.0
 10
18.97111194842385
 20
-2.439920530606875
 30
0.0
 10
19.05
 20
-2.433032265655211
 30
0.0
  0
LINE
  5
9F
330
1F
100
AcDbEntity
  8
0
  6
Continuous
 62
     1
370
    15
100
AcDbLine
 10
23.23498426764932
 20
1.164465389073339
 30
0.0
 11
23.21353015573055
 21
1.175649322316586
 31
0.0
  0
SPLINE
  5
A0
330
1F
100
AcDbEntity
  8
0
  6
Continuous
 62
     1
370
    15
100
AcDbSpline
210
0.0
220
0.0
230
1.0
 70
     8
 71
     3
 72
    11
 73
     7
 74
     0
 42
0.000000001
 43
0.00000001
 40
0.0
 40
0.0
 40
0.0
 40
0.0
 40
0.320837978162137
 40
0.5124938099132328
 40
0.7051224323764911
 40
1.0
 40
1.0
 40
1.0
 40
1.0
 10
24.03750907111472
 20
0.7628370548221789
 30
0.0
 10
23.95161625801438
 20
0.8035042810903114
 30
0.0
 10
23.81441449878962
 20
0.868464488881629
 30
0.0
 10
23.62608935742962
 20
0.962378812796106
 30
0.0
 10
23.44449942616273
 20
1.054509700331104
 30
0.0
 10
23.31394976215741
 20
1.123023493426671
 30
0.0
 10
23.23498426764932
 20
1.164465389073339
 30
0.0
  0
SPLINE
  5
A1
330
1F
100
AcDbEntity
  8
0
  6
Continuous
 62
     1
370
    15
100
AcDbSpline
210
0.0
220
0.0
230
1.0
 70
     8
 71
     3
 72
    15
 73
    11
 74
     0
 42
0.000000001
 43
0.00000001
 40
0.0
 40
0.0
 40
0.0
 40
0.0
 40
0.1727518558969882
 40
0.295158742231897
 40
0.3717927519094213
 40
0.4396044839318436
 40
0.5075460001908738
 40
0.6541434539618706
 40
0.8182721098017106
 40
1.0
 40
1.0
 40
1.0
 40
1.0
 10
23.05472178317808
 20
2.365293799829155
 30
0.0
 10
22.91295720223664
 20
2.358320671448992
 30
0.0
 10
22.67074240699498
 20
2.346406589302533
 30
0.0
 10
22.36647919209404
 20
2.336415748994146
 30
0.0
 10
22.14985885353249
 20
2.330997991824
 30
0.0
 10
21.97729073753744
 20
2.327803664006455
 30
0.0
 10
21.74729938163028
 20
2.324873989081063
 30
0.0
 10
21.43772687037142
 20
2.323953527953539
 30
0.0
 10
21.03451224409704
 20
2.327557844836191
 30
0.0
 10
20.75203698426886
 20
2.336222759855523
 30
0.0
 10
20.6036123452391
 20
2.340775678524401
 30
0.0
  0
SPLINE
  5
A2
330
1F
100
AcDbEntity
  8
0
  6
Continuous
 62
     1
370
    15
100
AcDbSpline
210
0.0
220
0.0
230
1.0
 70
     8
 71
     3
 72
    24
 73
    20
 74
     0
 42
0.000000001
 43
0.00000001
 40
0.0
 40
0.0
 40
0.0
 40
0.0
 40
0.0656766941879208
 40
0.1172605522682964
 40
0.1734286175302565
 40
0.2150242910657966
 40
0.2615438033199474
 40
0.3129799720494227
 40
0.3698352279971795
 40
0.4260788596687741
 40
0.4725136376717706
 40
0.5129755833569759
 40
0.5833470311213397
 40
0.6676737939093375
 40
0.7685882639007109
 40
0.821558817619977
 40
0.8622769920488074
 40
0.9181995420669571
 40
1.0
 40
1.0
 40
1.0
 40
1.0
 10
30.64318796590115
 20
2.035825415131525
 30
0.0
 10
30.52893115054437
 20
2.026477423341669
 30
0.0
 10
30.32493462735128
 20
2.009787322028996
 30
0.0
 10
30.02400123170076
 20
1.990923895908492
 30
0.0
 10
29.7667910533878
 20
1.978074246172092
 30
0.0
 10
29.51857908093397
 20
1.968740284840511
 30
0.0
 10
29.27556243371946
 20
1.962310708807043
 30
0.0
 10
29.00649506414776
 20
1.958570787904486
 30
0.0
 10
28.72116607669778
 20
1.958626594297113
 30
0.0
 10
28.44465173179628
 20
1.962686963504915
 30
0.0
 10
28.19659618076965
 20
1.969573697318341
 30
0.0
 10
27.92409308162601
 20
1.980146422470151
 30
0.0
 10
27.58602304598223
 20
1.998152265074981
 30
0.0
 10
27.14314412920537
 20
2.030188213749775
 30
0.0
 10
26.73040528005606
 20
2.069151062350672
 30
0.0
 10
26.3927209294967
 20
2.107328646050513
 30
0.0
 10
26.13093449222904
 20
2.13986729598941
 30
0.0
 10
25.82220879423642
 20
2.181080027254708
 30
0.0
 10
25.58465629471855
 20
2.217273443441417
 30
0.0
 10
25.44356219916563
 20
2.238770490756005
 30
0.0
  0
SPLINE
  5
A3
330
1F
100
AcDbEntity
  8
0
  6
Continuous
 62
     1
370
    15
100
AcDbSpline
210
0.0
220
0.0
230
1.0
 70
     8
 71
     3
 72
    15
 73
    11
 74
     0
 42
0.000000001
 43
0.00000001
 40
0.0
 40
0.0
 40
0.0
 40
0.0
 40
0.1654733500899545
 40
0.2876559518523865
 40
0.370017895711117
 40
0.4602663885594248
 40
0.5736820384010332
 40
0.6940356332172138
 40
0.9380283935406197
 40
1.0
 40
1.0
 40
1.0
 40
1.0
 10
25.44356219916563
 20
-2.238770490756004
 30
0.0
 10
25.5661659027643
 20
-2.220020579720291
 30
0.0
 10
25.77929801763435
 20
-2.187426065236878
 30
0.0
 10
26.05365372115005
 20
-2.150047458940509
 30
0.0
 10
26.2747938305708
 20
-2.121809191687307
 30
0.0
 10
26.48872610505388
 20
-2.09622301543028
 30
0.0
 10
26.73009197171072
 20
-2.069900263647346
 30
0.0
 10
27.0855882294631
 20
-2.035798620401169
 30
0.0
 10
27.40285068266817
 20
-2.009364526840212
 30
0.0
 10
27.63045822165758
 20
-1.99735357832779
 30
0.0
 10
27.67655903065621
 20
-1.994920818649784
 30
0.0
  0
SPLINE
  5
A4
330
1F
100
AcDbEntity
  8
0
  6
Continuous
 62
     1
370
    15
100
AcDbSpline
210
0.0
220
0.0
230
1.0
 70
     8
 71
     3
 72
    20
 73
    16
 74
     0
 42
0.000000001
 43
0.00000001
 40
0.0
 40
0.0
 40
0.0
 40
0.0
 40
0.0991521904422571
 40
0.1688374597800869
 40
0.2123438327571759
 40
0.253399859350416
 40
0.297928248957927
 40
0.394455808095622
 40
0.498803549363811
 40
0.6251514283103224
 40
0.7337056343705699
 40
0.7744973222780872
 40
0.8213599572221275
 40
0.895807327738608
 40
1.0
 40
1.0
 40
1.0
 40
1.0
 10
19.05
 20
-2.433032265655212
 30
0.0
 10
19.18291834280508
 20
-2.422177327501306
 30
0.0
 10
19.40925318480191
 20
-2.403693417304256
 30
0.0
 10
19.69339497989843
 20
-2.384406805166131
 30
0.0
 10
19.89930092984573
 20
-2.371935257616941
 30
0.0
 10
20.07152824548104
 20
-2.36253823810788
 30
0.0
 10
20.31451671216355
 20
-2.350709557125925
 30
0.0
 10
20.64197582564462
 20
-2.337961067228667
 30
0.0
 10
21.07820632622678
 20
-2.327027986213389
 30
0.0
 10
21.53193792487641
 20
-2.323220735605699
 30
0.0
 10
21.89935930705539
 20
-2.326297650373945
 30
0.0
 10
22.15956816377786
 20
-2.331215028553965
 30
0.0
 10
22.37447434288102
 20
-2.336656808715237
 30
0.0
 10
22.67578475861478
 20
-2.346632119274299
 30
0.0
 10
22.91512526867108
 20
-2.35841902805592
 30
0.0
 10
23.05472178317808
 20
-2.365293799829154
 30
0.0
  0
LINE
  5
A5
330
1F
100
AcDbEntity
  8
외형선
  6
Continuous
370
    15
100
AcDbLine
 10
17.30942116787305
 20
3.175
 30
0.0
 11
17.30942116787305
 21
-3.174999999999998
 31
0.0
  0
LINE
  5
A7
330
1F
100
AcDbEntity
  8
외형선
  6
Continuous
370
    15
100
AcDbLine
 10
18.05
 20
2.9765625
 30
0.0
 11
18.05
 21
-2.9765625
 31
0.0
  0
LINE
  5
A8
330
1F
100
AcDbEntity
  8
외형선
  6
Continuous
370
    15
100
AcDbLine
 10
-31.74999999999999
 20
2.364999999999994
 30
0.0
 11
-31.74999999999999
 21
-2.365000000000003
 31
0.0
  0
LINE
  5
A9
330
1F
100
AcDbEntity
  8
외형선
  6
Continuous
370
    15
100
AcDbLine
 10
19.05
 20
2.788648236901255
 30
0.0
 11
19.05
 21
2.392723425239251
 31
0.0
  0
SPLINE
  5
AA
330
1F
100
AcDbEntity
  8
외형선
  6
Continuous
370
    15
100
AcDbSpline
210
0.0
220
0.0
230
1.0
 70
     8
 71
     3
 72
     8
 73
     4
 74
     0
 42
0.000000001
 43
0.00000001
 40
0.0
 40
0.0
 40
0.0
 40
0.0
 40
1.0
 40
1.0
 40
1.0
 40
1.0
 10
19.04999999999997
 20
2.392723425239261
 30
0.0
 10
18.75215899146816
 20
2.494745555995274
 30
0.0
 10
18.45519035381513
 20
2.584709150242849
 30
0.0
 10
18.16006020742191
 20
2.661297450296243
 30
0.0
  0
LINE
  5
AB
330
1F
100
AcDbEntity
  8
외형선
  6
Continuous
370
    15
100
AcDbLine
 10
18.16006020742191
 20
-2.9765625
 30
0.0
 11
18.16006020742191
 21
2.661649246605093
 31
0.0
  0
SPLINE
  5
AC
330
1F
100
AcDbEntity
  8
외형선
  6
Continuous
370
    15
100
AcDbSpline
210
0.0
220
0.0
230
1.0
 70
     8
 71
     3
 72
     8
 73
     4
 74
     0
 42
0.000000001
 43
0.00000001
 40
0.0
 40
0.0
 40
0.0
 40
0.0
 40
1.0
 40
1.0
 40
1.0
 40
1.0
 10
19.04999999999998
 20
-2.788648236901262
 30
0.0
 10
18.7521801553267
 20
-2.848619907916316
 30
0.0
 10
18.45523168257088
 20
-2.894599715660387
 30
0.0
 10
18.16012312105027
 20
-2.925985473659723
 30
0.0
  0
LINE
  5
AD
330
1F
100
AcDbEntity
  8
외형선
  6
Continuous
370
    15
100
AcDbLine
 10
18.16006020742191
 20
2.963789663348127
 30
0.0
 11
18.16006020742191
 21
2.9765625
 31
0.0
  0
SPLINE
  5
AE
330
1F
100
AcDbEntity
  8
외형선
  6
Continuous
370
    15
100
AcDbSpline
210
0.0
220
0.0
230
1.0
 70
     8
 71
     3
 72
    10
 73
     6
 74
     0
 42
0.000000001
 43
0.00000001
 40
0.0
 40
0.0
 40
0.0
 40
0.0
 40
0.400009504839829
 40
0.7716858888610918
 40
1.0
 40
1.0
 40
1.0
 40
1.0
 10
18.18766925880053
 20
2.92301287526719
 30
0.0
 10
18.1830552203932
 20
2.929853987926675
 30
0.0
 10
18.17415396108181
 20
2.943051649581107
 30
0.0
 10
18.16363395433405
 20
2.955800918558499
 30
0.0
 10
18.16104527601077
 20
2.961587643521255
 30
0.0
 10
18.16006020742191
 20
2.963789663348127
 30
0.0
  0
SPLINE
  5
AF
330
1F
100
AcDbEntity
  8
외형선
  6
Continuous
370
    15
100
AcDbSpline
210
0.0
220
0.0
230
1.0
 70
     8
 71
     3
 72
     8
 73
     4
 74
     0
 42
0.000000001
 43
0.00000001
 40
0.0
 40
0.0
 40
0.0
 40
0.0
 40
1.0
 40
1.0
 40
1.0
 40
1.0
 10
19.04999999999998
 20
2.788648236901262
 30
0.0
 10
18.76145084839622
 20
2.846753078137204
 30
0.0
 10
18.4733250115355
 20
2.891740830766818
 30
0.0
 10
18.18766925880053
 20
2.923012875267191
 30
0.0
  0
SPLINE
  5
B0
330
1F
100
AcDbEntity
  8
외형선
  6
Continuous
370
    15
100
AcDbSpline
210
0.0
220
0.0
230
1.0
 70
    24
 71
     3
 72
    14
 73
    10
 74
     0
 42
0.000000001
 43
0.00000001
 40
0.0
 40
0.0
 40
0.0
 40
0.0
 40
0.25
 40
0.25
 40
0.5
 40
0.5
 40
0.75
 40
0.75
 40
1.0
 40
1.0
 40
1.0
 40
1.0
 10
19.05
 20
1.622545749684458
 30
0.0
 10
19.05
 20
1.417201588255183
 30
0.0
 10
19.05
 20
1.184988505503409
 30
0.0
 10
19.05
 20
0.6821730255303045
 30
0.0
 10
19.05
 20
0.4117404162516149
 30
0.0
 10
19.05
 20
-0.1421445170313221
 30
0.0
 10
19.05
 20
-0.4253017079861724
 30
0.0
 10
19.05
 20
-0.9766019555400158
 30
0.0
 10
19.05
 20
-1.244507124724184
 30
0.0
 10
19.05
 20
-1.493915039616849
 30
0.0
  0
SPLINE
  5
B1
330
1F
100
AcDbEntity
  8
외형선
  6
Continuous
370
    15
100
AcDbSpline
210
0.0
220
0.0
230
1.0
 70
     8
 71
     3
 72
     8
 73
     4
 74
     0
 42
0.000000001
 43
0.00000001
 40
0.0
 40
0.0
 40
0.0
 40
0.0
 40
1.0
 40
1.0
 40
1.0
 40
1.0
 10
19.04999999999995
 20
-1.493915039616833
 30
0.0
 10
18.75216672572204
 20
-1.387066850702303
 30
0.0
 10
18.45520545726881
 20
-1.27286374960214
 30
0.0
 10
18.16008319899006
 20
-1.153182261735537
 30
0.0
  0
SPLINE
  5
B2
330
1F
100
AcDbEntity
  8
외형선
  6
Continuous
370
    15
100
AcDbSpline
210
0.0
220
0.0
230
1.0
 70
     8
 71
     3
 72
     8
 73
     4
 74
     0
 42
0.000000001
 43
0.00000001
 40
0.0
 40
0.0
 40
0.0
 40
0.0
 40
1.0
 40
1.0
 40
1.0
 40
1.0
 10
19.04999999999994
 20
1.622545749684474
 30
0.0
 10
18.75216409506034
 20
1.697866745915019
 30
0.0
 10
18.45520032011338
 20
1.765004693485278
 30
0.0
 10
18.16007537884048
 20
1.822969537632116
 30
0.0
  0
LINE
  5
B3
330
1F
100
AcDbEntity
  8
외형선
  6
Continuous
370
    15
100
AcDbLine
 10
18.58021157049149
 20
-2.46750828456592
 30
0.0
 11
18.16012312105027
 21
-2.510557892158142
 31
0.0
  0
SPLINE
  5
B4
330
1F
100
AcDbEntity
  8
외형선
  6
Continuous
370
    15
100
AcDbSpline
210
0.0
220
0.0
230
1.0
 70
    24
 71
     3
 72
    12
 73
     8
 74
     0
 42
0.000000001
 43
0.00000001
 40
0.0
 40
0.0
 40
0.0
 40
0.0
 40
0.2952577525266178
 40
0.510690176652708
 40
0.7323701556728834
 40
0.9263682862436418
 40
1.0
 40
1.0
 40
1.0
 40
1.0
 10
19.05
 20
-1.493915039616851
 30
0.0
 10
19.05
 20
-1.656853483308561
 30
0.0
 10
19.05
 20
-1.938678640752769
 30
0.0
 10
19.05
 20
-2.212955498512549
 30
0.0
 10
19.05
 20
-2.365791186226819
 30
0.0
 10
19.05
 20
-2.433588201805994
 30
0.0
 10
19.05
 20
-2.426133936938635
 30
0.0
 10
19.05
 20
-2.424083080845372
 30
0.0
  0
SPLINE
  5
B5
330
1F
100
AcDbEntity
  8
외형선
  6
Continuous
370
    15
100
AcDbSpline
210
0.0
220
0.0
230
1.0
 70
    24
 71
     3
 72
    10
 73
     6
 74
     0
 42
0.000000001
 43
0.00000001
 40
0.0
 40
0.0
 40
0.0
 40
0.0
 40
0.5
 40
0.5
 40
1.0
 40
1.0
 40
1.0
 40
1.0
 10
19.05
 20
2.392723425239251
 30
0.0
 10
19.05
 20
2.300568346221424
 30
0.0
 10
19.05
 20
2.181358765228625
 30
0.0
 10
19.05
 20
1.913983908920459
 30
0.0
 10
19.05
 20
1.766648359073378
 30
0.0
 10
19.05
 20
1.622545749684458
 30
0.0
  0
LINE
  5
B6
330
1F
100
AcDbEntity
  8
외형선
  6
Continuous
370
    15
100
AcDbLine
 10
18.16006020742191
 20
2.963789663327935
 30
0.0
 11
18.16006020742191
 21
2.912133988686201
 31
0.0
  0
SPLINE
  5
B7
330
1F
100
AcDbEntity
  8
외형선
  6
Continuous
370
    15
100
AcDbSpline
210
0.0
220
0.0
230
1.0
 70
    24
 71
     3
 72
     8
 73
     4
 74
     0
 42
0.000000001
 43
0.00000001
 40
0.0
 40
0.0
 40
0.0
 40
0.0
 40
1.0
 40
1.0
 40
1.0
 40
1.0
 10
19.05000000000021
 20
-2.419365548033598
 30
0.0
 10
19.05000000000021
 20
-2.549790905059001
 30
0.0
 10
19.05000000000021
 20
-2.673708795636478
 30
0.0
 10
19.05000000000021
 20
-2.788648236892685
 30
0.0
  0
SPLINE
  5
B8
330
1F
100
AcDbEntity
  8
0
  6
Continuous
 62
     1
370
    15
100
AcDbSpline
210
0.0
220
0.0
230
1.0
 70
     8
 71
     3
 72
    38
 73
    34
 74
     0
 42
0.000000001
 43
0.00000001
 40
0.0
 40
0.0
 40
0.0
 40
0.0
 40
0.0625
 40
0.0625
 40
0.125
 40
0.125
 40
0.1875
 40
0.1875
 40
0.25
 40
0.25
 40
0.3125
 40
0.3125
 40
0.375
 40
0.375
 40
0.4375
 40
0.4375
 40
0.5
 40
0.5
 40
0.5625
 40
0.5625
 40
0.625
 40
0.625
 40
0.6875
 40
0.6875
 40
0.75
 40
0.75
 40
0.8125
 40
0.8125
 40
0.875
 40
0.875
 40
0.9375
 40
0.9375
 40
1.0
 40
1.0
 40
1.0
 40
1.0
 10
31.75000000000001
 20
-2.824581806073076
 30
0.0
 10
31.48766975551057
 20
-2.776529498506681
 30
0.0
 10
31.22134765065464
 20
-2.717072334192502
 30
0.0
 10
30.6900991636082
 20
-2.577180199258112
 30
0.0
 10
30.42782360612472
 20
-2.497069903724149
 30
0.0
 10
29.89922614289016
 20
-2.317434112016732
 30
0.0
 10
29.63232746416102
 20
-2.217763659076875
 30
0.0
 10
29.10277668616065
 20
-2.002213508817147
 30
0.0
 10
28.84108668294755
 20
-1.886546822510241
 30
0.0
 10
28.31022181585692
 20
-1.640143437137142
 30
0.0
 10
28.04360894278918
 20
-1.509740724088108
 30
0.0
 10
27.51743554318727
 20
-1.239253590916233
 30
0.0
 10
27.2528639000737
 20
-1.098332990839626
 30
0.0
 10
26.72142525570508
 20
-0.8084934170738879
 30
0.0
 10
26.45816974806216
 20
-0.6602492767936395
 30
0.0
 10
25.93071585292655
 20
-0.3595673574731849
 30
0.0
 10
25.66391544808348
 20
-0.2066236506776305
 30
0.0
 10
25.13360276046244
 20
0.0990696606185965
 30
0.0
 10
24.87210320838303
 20
0.2514261805707101
 30
0.0
 10
24.34181495826088
 20
0.5543510955370898
 30
0.0
 10
24.07500923840523
 20
0.7045217678299678
 30
0.0
 10
23.54751026415158
 20
0.9969919813413982
 30
0.0
 10
23.28429745569913
 20
1.139777666901244
 30
0.0
 10
22.7528623475989
 20
1.416102950454863
 30
0.0
 10
22.48823367648168
 20
1.548997227525566
 30
0.0
 10
21.96211222444791
 20
1.801068140963346
 30
0.0
 10
21.69550824613047
 20
1.921035097040912
 30
0.0
 10
21.16462597641208
 20
2.144459003876422
 30
0.0
 10
20.90292154219816
 20
2.247627735146585
 30
0.0
 10
20.37340220695824
 20
2.436243898535206
 30
0.0
 10
20.10650179951027
 20
2.521491934776777
 30
0.0
 10
19.577866179872
 20
2.670882945635207
 30
0.0
 10
19.31561894126471
 20
2.735160828168177
 30
0.0
 10
19.04999999999611
 20
2.78864823690204
 30
0.0
  0
SPLINE
  5
B9
330
1F
100
AcDbEntity
  8
0
  6
Continuous
 62
     1
370
    15
100
AcDbSpline
210
0.0
220
0.0
230
1.0
 70
     8
 71
     3
 72
    14
 73
    10
 74
     0
 42
0.000000001
 43
0.00000001
 40
0.0
 40
0.0
 40
0.0
 40
0.0
 40
0.1467075921412506
 40
0.2932778985064377
 40
0.4397757345304925
 40
0.5862665299837225
 40
0.7328157744322275
 40
0.879488461636516
 40
1.0
 40
1.0
 40
1.0
 40
1.0
 10
31.75000000000001
 20
-2.348425255658517
 30
0.0
 10
31.37212018015137
 20
-2.268534610531475
 30
0.0
 10
30.61671415217638
 20
-2.108828080206692
 30
0.0
 10
29.48418754172792
 20
-1.737512569044533
 30
0.0
 10
28.35228695206497
 20
-1.290934958935496
 30
0.0
 10
27.2204503504749
 20
-0.7798971874331919
 30
0.0
 10
26.08810532427681
 20
-0.2328557385208644
 30
0.0
 10
25.02249233528345
 20
0.2957142254923675
 30
0.0
 10
24.33429320037685
 20
0.620492011785858
 30
0.0
 10
24.02388589144319
 20
0.766980714737326
 30
0.0
  0
LINE
  5
BA
330
1F
100
AcDbEntity
  8
0
  6
Continuous
 62
     1
370
    15
100
AcDbLine
 10
31.74999999999994
 20
-2.824581806073077
 30
0.0
 11
31.75000000000001
 21
-2.348425255658517
 31
0.0
  0
SPLINE
  5
BB
330
1F
100
AcDbEntity
  8
0
  6
Continuous
 62
     1
370
    15
100
AcDbSpline
210
0.0
220
0.0
230
1.0
 70
     8
 71
     3
 72
    38
 73
    34
 74
     0
 42
0.000000001
 43
0.00000001
 40
0.0
 40
0.0
 40
0.0
 40
0.0
 40
0.0624999999999999
 40
0.0624999999999999
 40
0.1249999999999999
 40
0.1249999999999999
 40
0.1874999999999998
 40
0.1874999999999998
 40
0.2499999999999998
 40
0.2499999999999998
 40
0.3124999999999997
 40
0.3124999999999997
 40
0.3749999999999997
 40
0.3749999999999997
 40
0.4374999999999996
 40
0.4374999999999996
 40
0.4999999999999996
 40
0.4999999999999996
 40
0.5624999999999996
 40
0.5624999999999996
 40
0.6249999999999997
 40
0.6249999999999997
 40
0.6874999999999997
 40
0.6874999999999997
 40
0.7499999999999998
 40
0.7499999999999998
 40
0.8124999999999998
 40
0.8124999999999998
 40
0.8749999999999999
 40
0.8749999999999999
 40
0.9374999999999999
 40
0.9374999999999999
 40
1.0
 40
1.0
 40
1.0
 40
1.0
 10
31.75000000000001
 20
-2.974046754706985
 30
0.0
 10
31.48766975551065
 20
-2.967785271022759
 30
0.0
 10
31.22134765065481
 20
-2.94973934903794
 30
0.0
 10
30.69009916360853
 20
-2.890427162426114
 30
0.0
 10
30.42782360612511
 20
-2.849358463857369
 30
0.0
 10
29.89922614289073
 20
-2.744925791265846
 30
0.0
 10
29.63232746416167
 20
-2.681430821825449
 30
0.0
 10
29.10277668616146
 20
-2.534092739496329
 30
0.0
 10
28.84108668294843
 20
-2.450439808501164
 30
0.0
 10
28.31022181585797
 20
-2.263660786989223
 30
0.0
 10
28.04360894279031
 20
-2.160748886642642
 30
0.0
 10
27.51743554318853
 20
-1.939672904957114
 30
0.0
 10
27.25286390007508
 20
-1.820838807303615
 30
0.0
 10
26.72142525570661
 20
-1.569338296068609
 30
0.0
 10
26.45816974806375
 20
-1.437266854158659
 30
0.0
 10
25.93071585292832
 20
-1.162719031073828
 30
0.0
 10
25.66391544808533
 20
-1.019759547042979
 30
0.0
 10
25.13360276046444
 20
-0.7274815298423986
 30
0.0
 10
24.87210320838512
 20
-0.5785715545626017
 30
0.0
 10
24.34181495826314
 20
-0.2759995483887026
 30
0.0
 10
24.07500923840756
 20
-0.1227017537657777
 30
0.0
 10
23.54751026415403
 20
0.1824849582084385
 30
0.0
 10
23.2842974557017
 20
0.3348591121389387
 30
0.0
 10
22.75286234760163
 20
0.6367156288328871
 30
0.0
 10
22.48823367648444
 20
0.7855036562239771
 30
0.0
 10
21.96211222445089
 20
1.075163149248253
 30
0.0
 10
21.69550824613354
 20
1.21695671196836
 30
0.0
 10
21.16462597641528
 20
1.489377171898417
 30
0.0
 10
20.90292154220143
 20
1.619609791175444
 30
0.0
 10
20.37340220696171
 20
1.867293773701184
 30
0.0
 10
20.10650179951381
 20
1.984534083891632
 30
0.0
 10
19.57786617987566
 20
2.201686738203825
 30
0.0
 10
19.31561894126848
 20
2.301738605885634
 30
0.0
 10
19.04999999999998
 20
2.39272342523926
 30
0.0
  0
SPLINE
  5
BC
330
1F
100
AcDbEntity
  8
0
  6
Continuous
 62
     1
370
    15
100
AcDbSpline
210
0.0
220
0.0
230
1.0
 70
     8
 71
     3
 72
    12
 73
     8
 74
     0
 42
0.000000001
 43
0.00000001
 40
0.0
 40
0.0
 40
0.0
 40
0.0
 40
0.1008567980040505
 40
0.3142975694027713
 40
0.5276072651004825
 40
0.7638024748564711
 40
1.0
 40
1.0
 40
1.0
 40
1.0
 10
24.35645782475358
 20
-0.2822814125447676
 30
0.0
 10
24.17804124246169
 20
-0.2112976835318362
 30
0.0
 10
23.622046016902
 20
0.009907172634759
 30
0.0
 10
22.68882794083013
 20
0.3904388053752226
 30
0.0
 10
21.51633311320359
 20
0.8446988260156675
 30
0.0
 10
20.303382639757
 20
1.276906755153123
 30
0.0
 10
19.46779557843553
 20
1.507332375037678
 30
0.0
 10
19.05
 20
1.622545749684458
 30
0.0
  0
SPLINE
  5
BD
330
1F
100
AcDbEntity
  8
외형선
  6
Continuous
370
    15
100
AcDbSpline
210
0.0
220
0.0
230
1.0
 70
    24
 71
     3
 72
    10
 73
     6
 74
     0
 42
0.000000001
 43
0.00000001
 40
0.0
 40
0.0
 40
0.0
 40
0.0
 40
0.4999999999999997
 40
0.4999999999999997
 40
1.0
 40
1.0
 40
1.0
 40
1.0
 10
19.05
 20
2.39272342523925
 30
0.0
 10
19.05
 20
2.300568346221423
 30
0.0
 10
19.05
 20
2.181358765228624
 30
0.0
 10
19.05
 20
1.913983908920458
 30
0.0
 10
19.05
 20
1.766648359073378
 30
0.0
 10
19.05
 20
1.622545749684458
 30
0.0
  0
LINE
  5
BE
330
1F
100
AcDbEntity
  8
0
  6
Continuous
 62
     1
370
    15
100
AcDbLine
 10
31.75000000000001
 20
-2.974046754706987
 30
0.0
 11
31.74999999999999
 21
-2.824581806073072
 31
0.0
  0
SPLINE
  5
BF
330
1F
100
AcDbEntity
  8
0
  6
Continuous
 62
     1
370
    15
100
AcDbSpline
210
0.0
220
0.0
230
1.0
 70
     8
 71
     3
 72
     8
 73
     4
 74
     0
 42
0.000000001
 43
0.00000001
 40
0.0
 40
0.0
 40
0.0
 40
0.0
 40
1.0
 40
1.0
 40
1.0
 40
1.0
 10
29.90774193720736
 20
0.8331182780104958
 30
0.0
 10
29.80214292156561
 20
0.9582481903077785
 30
0.0
 10
29.7079132265646
 20
1.078662238747311
 30
0.0
 10
29.62772935613661
 20
1.193250240182838
 30
0.0
  0
LINE
  5
C0
330
1F
100
AcDbEntity
  8
0
  6
Continuous
 62
     1
370
    15
100
AcDbLine
 10
29.66535396425938
 20
1.224821034981846
 30
0.0
 11
31.75000000000001
 21
0.0000000000000018
 31
0.0
  0
LINE
  5
C1
330
1F
100
AcDbEntity
  8
0
  6
Continuous
 62
     1
370
    15
100
AcDbLine
 10
31.75000000000001
 20
0.0000000000000018
 30
0.0
 11
31.75000000000001
 21
-0.7954653315413635
 31
0.0
  0
SPLINE
  5
C2
330
1F
100
AcDbEntity
  8
0
  6
Continuous
 62
     1
370
    15
100
AcDbSpline
210
0.0
220
0.0
230
1.0
 70
     8
 71
     3
 72
    10
 73
     6
 74
     0
 42
0.000000001
 43
0.00000001
 40
0.0
 40
0.0
 40
0.0
 40
0.0
 40
0.5
 40
0.5
 40
1.0
 40
1.0
 40
1.0
 40
1.0
 10
31.75000000000001
 20
-0.7954653315413631
 30
0.0
 10
31.4310921116222
 20
-0.544748585217761
 30
0.0
 10
31.11751432591608
 20
-0.2837485129518206
 30
0.0
 10
30.50128483522497
 20
0.2593312347788003
 30
0.0
 10
30.19576430232467
 20
0.5442727749849412
 30
0.0
 10
29.90774193720735
 20
0.8331182780104989
 30
0.0
  0
SPLINE
  5
C3
330
1F
100
AcDbEntity
  8
0
  6
Continuous
 62
     1
370
    15
100
AcDbSpline
210
0.0
220
0.0
230
1.0
 70
     8
 71
     3
 72
    14
 73
    10
 74
     0
 42
0.000000001
 43
0.00000001
 40
0.0
 40
0.0
 40
0.0
 40
0.0
 40
0.1135694061716363
 40
0.2269134711794779
 40
0.3919973873900214
 40
0.5571480868955452
 40
0.7224398324910652
 40
0.8878041305250158
 40
1.0
 40
1.0
 40
1.0
 40
1.0
 10
29.90774193693942
 20
0.833118278126169
 30
0.0
 10
29.64818290717263
 20
0.9434285346527652
 30
0.0
 10
29.12957985723374
 20
1.163830173253567
 30
0.0
 10
28.23410756554291
 20
1.509127179978324
 30
0.0
 10
27.22041113665233
 20
1.848041855305338
 30
0.0
 10
26.08808434807774
 20
2.138269331265214
 30
0.0
 10
24.95493563164029
 20
2.321525818734543
 30
0.0
 10
23.94269837257555
 20
2.399899766054463
 30
0.0
 10
23.30841395183103
 20
2.366315298174615
 30
0.0
 10
23.05202236395098
 20
2.352739724242477
 30
0.0
  0
SPLINE
  5
C4
330
1F
100
AcDbEntity
  8
0
  6
Continuous
 62
     1
370
    15
100
AcDbSpline
210
0.0
220
0.0
230
1.0
 70
    24
 71
     3
 72
    10
 73
     6
 74
     0
 42
0.000000001
 43
0.00000001
 40
0.0
 40
0.0
 40
0.0
 40
0.0
 40
0.5
 40
0.5
 40
1.0
 40
1.0
 40
1.0
 40
1.0
 10
31.75000000000001
 20
-2.348425255658517
 30
0.0
 10
31.75
 20
-2.168400150081637
 30
0.0
 10
31.75000000000001
 20
-1.940931526315347
 30
0.0
 10
31.75000000000001
 20
-1.412088867471946
 30
0.0
 10
31.75000000000001
 20
-1.111172935957414
 30
0.0
 10
31.75000000000001
 20
-0.7954653315414588
 30
0.0
  0
SPLINE
  5
C5
330
1F
100
AcDbEntity
  8
0
  6
Continuous
 62
     1
370
    15
100
AcDbSpline
210
0.0
220
0.0
230
1.0
 70
    24
 71
     3
 72
     8
 73
     4
 74
     0
 42
0.000000001
 43
0.00000001
 40
0.0
 40
0.0
 40
0.0
 40
0.0
 40
1.0
 40
1.0
 40
1.0
 40
1.0
 10
29.93842143434581
 20
1.453951848417883
 30
0.0
 10
29.84028714597724
 20
1.371607403241971
 30
0.0
 10
29.73610854251187
 20
1.284191175497554
 30
0.0
 10
29.62772935613665
 20
1.193250240182811
 30
0.0
  0
LINE
  5
C6
330
1F
100
AcDbEntity
  8
0
  6
Continuous
 62
     1
370
    15
100
AcDbLine
 10
31.75000000000001
 20
2.08359375
 30
0.0
 11
30.64287667055924
 21
2.034660913065554
 31
0.0
  0
SPLINE
  5
C7
330
1F
100
AcDbEntity
  8
0
  6
Continuous
 62
     1
370
    15
100
AcDbSpline
210
0.0
220
0.0
230
1.0
 70
     8
 71
     3
 72
     8
 73
     4
 74
     0
 42
0.000000001
 43
0.00000001
 40
0.0
 40
0.0
 40
0.0
 40
0.0
 40
1.0
 40
1.0
 40
1.0
 40
1.0
 10
31.75000000000001
 20
2.083593750000001
 30
0.0
 10
31.13778709205735
 20
1.917440724658683
 30
0.0
 10
30.53120220040207
 20
1.713365409386189
 30
0.0
 10
29.93842143435749
 20
1.453951848423001
 30
0.0
  0
SPLINE
  5
C8
330
1F
100
AcDbEntity
  8
0
  6
Continuous
 62
     1
370
    15
100
AcDbSpline
210
0.0
220
0.0
230
1.0
 70
     8
 71
     3
 72
    13
 73
     9
 74
     0
 42
0.000000001
 43
0.00000001
 40
0.0
 40
0.0
 40
0.0
 40
0.0
 40
0.07741933838626
 40
0.2545494590414646
 40
0.4315060294017802
 40
0.6083567619658775
 40
0.8041774461641075
 40
0.9999999999999999
 40
0.9999999999999999
 40
0.9999999999999999
 40
0.9999999999999999
 10
25.45063420481777
 20
-2.224586431839931
 30
0.0
 10
25.28545182838542
 20
-2.253705049804261
 30
0.0
 10
24.7423435373502
 20
-2.349445062640259
 30
0.0
 10
23.82155003647255
 20
-2.395181412508104
 30
0.0
 10
22.68882224837026
 20
-2.360096881888682
 30
0.0
 10
21.51635585982424
 20
-2.198289916710234
 30
0.0
 10
20.30338336878076
 20
-1.919291185624121
 30
0.0
 10
19.46779578591087
 20
-1.635707539545841
 30
0.0
 10
19.05
 20
-1.493915039616851
 30
0.0
  0
SPLINE
  5
C9
330
1F
100
AcDbEntity
  8
외형선
  6
Continuous
370
    15
100
AcDbSpline
210
0.0
220
0.0
230
1.0
 70
    24
 71
     3
 72
    14
 73
    10
 74
     0
 42
0.000000001
 43
0.00000001
 40
0.0
 40
0.0
 40
0.0
 40
0.0
 40
0.25
 40
0.25
 40
0.5
 40
0.5
 40
0.75
 40
0.75
 40
1.0
 40
1.0
 40
1.0
 40
1.0
 10
19.05
 20
1.622545749684458
 30
0.0
 10
19.05
 20
1.417201588255183
 30
0.0
 10
19.05
 20
1.184988505503409
 30
0.0
 10
19.05
 20
0.6821730255303045
 30
0.0
 10
19.05
 20
0.4117404162516149
 30
0.0
 10
19.05
 20
-0.1421445170313221
 30
0.0
 10
19.05
 20
-0.4253017079861724
 30
0.0
 10
19.05
 20
-0.9766019555400158
 30
0.0
 10
19.05
 20
-1.244507124724184
 30
0.0
 10
19.05
 20
-1.493915039616849
 30
0.0
  0
SPLINE
  5
CA
330
1F
100
AcDbEntity
  8
외형선
  6
Continuous
370
    15
100
AcDbSpline
210
0.0
220
0.0
230
1.0
 70
    24
 71
     3
 72
    12
 73
     8
 74
     0
 42
0.000000001
 43
0.00000001
 40
0.0
 40
0.0
 40
0.0
 40
0.0
 40
0.2955016267089593
 40
0.5111119916539918
 40
0.7329750717889141
 40
0.9271334390852582
 40
0.9999999999999999
 40
0.9999999999999999
 40
0.9999999999999999
 40
0.9999999999999999
 10
19.05
 20
-1.493915039616851
 30
0.0
 10
19.05
 20
-1.65685261135182
 30
0.0
 10
19.05
 20
-1.938676260623121
 30
0.0
 10
19.05
 20
-2.212962178356295
 30
0.0
 10
19.05
 20
-2.365766428003317
 30
0.0
 10
19.05
 20
-2.433532758659434
 30
0.0
 10
19.05
 20
-2.426133412159864
 30
0.0
 10
19.05
 20
-2.424114256360244
 30
0.0
  0
LINE
  5
CB
330
1F
100
AcDbEntity
  8
0
  6
Continuous
 62
     1
370
    15
100
AcDbLine
 10
31.75000000000001
 20
0.0000000000000018
 30
0.0
 11
31.75000000000001
 21
2.083593750000001
 31
0.0
  0
SPLINE
  5
CC
330
1F
100
AcDbEntity
  8
0
  6
Continuous
 62
     1
370
    15
100
AcDbSpline
210
0.0
220
0.0
230
1.0
 70
     8
 71
     3
 72
    11
 73
     7
 74
     0
 42
0.000000001
 43
0.00000001
 40
0.0
 40
0.0
 40
0.0
 40
0.0
 40
0.1771451928187513
 40
0.451250599366375
 40
0.7254876246497934
 40
1.0
 40
1.0
 40
1.0
 40
1.0
 10
27.6754415658515
 20
1.994458752371186
 30
0.0
 10
27.91601485778344
 20
2.097761932391229
 30
0.0
 10
28.52883895110728
 20
2.36091116697527
 30
0.0
 10
29.51405715448521
 20
2.664183757357283
 30
0.0
 10
30.63159610002433
 20
2.907642791771555
 30
0.0
 10
31.3770740120099
 20
2.951904697186717
 30
0.0
 10
31.75000000000001
 20
2.974046754706986
 30
0.0
  0
SPLINE
  5
CD
330
1F
100
AcDbEntity
  8
0
  6
Continuous
 62
     1
370
    15
100
AcDbSpline
210
0.0
220
0.0
230
1.0
 70
    24
 71
     3
 72
    10
 73
     6
 74
     0
 42
0.000000001
 43
0.00000001
 40
0.0
 40
0.0
 40
0.0
 40
0.0
 40
0.5
 40
0.5
 40
1.0
 40
1.0
 40
1.0
 40
1.0
 10
31.75000000000001
 20
2.08359375
 30
0.0
 10
31.75
 20
2.20989601440302
 30
0.0
 10
31.75000000000001
 20
2.356670942487277
 30
0.0
 10
31.75
 20
2.664604346297545
 30
0.0
 10
31.75000000000001
 20
2.82497639875282
 30
0.0
 10
31.75000000000001
 20
2.974046754706987
 30
0.0
  0
SPLINE
  5
CE
330
1F
100
AcDbEntity
  8
0
  6
Continuous
 62
     1
370
    15
100
AcDbSpline
210
0.0
220
0.0
230
1.0
 70
     8
 71
     3
 72
     9
 73
     5
 74
     0
 42
0.000000001
 43
0.00000001
 40
0.0
 40
0.0
 40
0.0
 40
0.0
 40
0.2818877275553445
 40
1.0
 40
1.0
 40
1.0
 40
1.0
 10
20.60503990117196
 20
-2.340256760579203
 30
0.0
 10
20.45891802622449
 20
-2.395527466728664
 30
0.0
 10
19.94054897122977
 20
-2.591600941188841
 30
0.0
 10
19.42221906606791
 20
-2.706289194612947
 30
0.0
 10
19.04999999999611
 20
-2.78864823690204
 30
0.0
  0
SPLINE
  5
CF
330
1F
100
AcDbEntity
  8
외형선
  6
Continuous
370
    15
100
AcDbSpline
210
0.0
220
0.0
230
1.0
 70
    24
 71
     3
 72
     8
 73
     4
 74
     0
 42
0.000000001
 43
0.00000001
 40
0.0
 40
0.0
 40
0.0
 40
0.0
 40
1.0
 40
1.0
 40
1.0
 40
1.0
 10
19.05000000000021
 20
-2.419365548033598
 30
0.0
 10
19.05000000000021
 20
-2.549790905059003
 30
0.0
 10
19.05000000000021
 20
-2.67370879563648
 30
0.0
 10
19.05000000000021
 20
-2.78864823689269
 30
0.0
  0
LINE
  5
D0
330
1F
100
AcDbEntity
  8
중심선
 62
     1
100
AcDbLine
 10
-34.75
 20
-0.0000000000000043
 30
0.0
 11
34.75
 21
0.0000000000000043
 31
0.0
  0
LINE
  5
D1
330
1F
100
AcDbEntity
  8
참조1
100
AcDbLine
 10
-8.644211678730512
 20
0.0010749287238892
 30
0.0
 11
-8.644211678730505
 21
-39.99892507127611
 31
0.0
  0
LINE
  5
D2
330
1F
100
AcDbEntity
  8
참조1
100
AcDbLine
 10
-8.644211678730505
 20
-39.99892507127611
 30
0.0
 11
-29.45992727542973
 21
-39.9989250712761
 31
0.0
  0
CIRCLE
  5
D3
330
1F
100
AcDbEntity
  8
해칭선
100
AcDbCircle
 10
0.0
 20
0.0000000000000016
 30
0.0
 40
3.000000000000001
  0
INSERT
  5
D4
330
1F
100
AcDbEntity
  8
0
  6
Continuous
 62
     7
100
AcDbBlockReference
 66
     1
  2
블럭10
 10
-13.94027293212521
 20
-30.1588044991138
 30
0.0
  0
ATTRIB
  5
D5
330
D4
100
AcDbEntity
  8
FORMAT
 62
     2
100
AcDbText
 10
-23.12156822086649
 20
-28.08343758628161
 30
0.0
 40
4.233333333333333
  1
E5022015 [ 2 FLUTE ]
 41
0.75
  7
SLDTEXTSTYLE0
 11
-23.12156822086649
 21
-30.20010425294828
 31
0.0
100
AcDbAttribute
  2
AUTOATTR0
 70
     0
 74
     1
  0
SEQEND
  5
D6
330
D4
100
AcDbEntity
  8
0
  6
Continuous
 62
     7
  0
HATCH
  5
D7
330
1F
100
AcDbEntity
  8
중심선
100
AcDbHatch
 10
0.0
 20
0.0
 30
0.0
210
0.0
220
0.0
230
1.0
  2
SOLID
 70
     1
 71
     0
 91
        1
 92
        0
 93
        4
 72
     1
 10
-8.225363627744365
 20
-13.91163019746986
 11
-11.67163887158165
 21
-13.91163019746986
 72
     1
 10
-11.67163887158165
 20
-13.91163019746986
 11
-13.79986873078567
 21
-16.44795577804246
 72
     1
 10
-13.79986873078567
 20
-16.44795577804246
 11
-10.35356040183524
 21
-16.44791634873997
 72
     1
 10
-10.35356040183524
 20
-16.44791634873997
 11
-8.225363627744365
 21
-13.91163019746986
 97
        0
 75
     0
 76
     1
 98
        1
 10
8.644211678730507
 20
21.88729487380624
  0
HATCH
  5
D8
330
1F
100
AcDbEntity
  8
중심선
100
AcDbHatch
 10
0.0
 20
0.0
 30
0.0
210
0.0
220
0.0
230
1.0
  2
SOLID
 70
     1
 71
     0
 91
        1
 92
        0
 93
        4
 72
     1
 10
-3.212599636708413
 20
-13.91163019746986
 11
-6.658874880545696
 21
-13.91163019746986
 72
     1
 10
-6.658874880545696
 20
-13.91163019746986
 11
-11.19001288890308
 21
-19.31163019746988
 72
     1
 10
-11.19001288890308
 20
-19.31163019746988
 11
-7.743737645065803
 21
-19.31163019746988
 72
     1
 10
-7.743737645065803
 20
-19.31163019746988
 11
-3.212599636708413
 21
-13.91163019746986
 97
        0
 75
     0
 76
     1
 98
        1
 10
8.644211678730507
 20
21.88729487380624
  0
HATCH
  5
D9
330
1F
100
AcDbEntity
  8
중심선
100
AcDbHatch
 10
0.0
 20
0.0
 30
0.0
210
0.0
220
0.0
230
1.0
  2
SOLID
 70
     1
 71
     0
 91
        1
 92
        0
 93
        4
 72
     1
 10
1.800164354327483
 20
-13.91163019746986
 11
-1.646110889509606
 21
-13.91163019746986
 72
     1
 10
-1.646110889509606
 20
-13.91163019746986
 11
-8.694547791398882
 21
-22.31163019746988
 72
     1
 10
-8.694547791398882
 20
-22.31163019746988
 11
-5.2482725475616
 21
-22.31163019746988
 72
     1
 10
-5.2482725475616
 20
-22.31163019746988
 11
1.800164354327483
 21
-13.91163019746986
 97
        0
 75
     0
 76
     1
 98
        1
 10
8.644211678730507
 20
21.88729487380624
  0
HATCH
  5
DA
330
1F
100
AcDbEntity
  8
중심선
100
AcDbHatch
 10
0.0
 20
0.0
 30
0.0
210
0.0
220
0.0
230
1.0
  2
SOLID
 70
     1
 71
     0
 91
        1
 92
        0
 93
        6
 72
     3
 10
6.600054785339681
 20
-18.11163019752114
 11
3.960054785062285
 21
1.540882976769353E-10
 40
0.3939339440162626
 50
17.09539180608438
 51
320.0019657685077
 73
     0
 72
     1
 10
8.28305444104025
 20
-16.69952420210817
 11
10.58835631474134
 21
-14.76519749206022
 72
     3
 10
6.600054785286835
 20
-18.11163019747001
 11
6.600054785286829
 21
-1.278976924368180E-13
 40
0.636358354079598
 50
39.99873849337413
 51
368.4976242363724
 73
     1
 72
     1
 10
13.02538727718744
 20
-17.15163019739989
 11
5.280122092122758
 21
-17.15163019739989
 72
     1
 10
5.280122092122758
 20
-17.15163019739989
 11
5.280097047676824
 21
-19.07163019739978
 72
     1
 10
5.280097047676824
 20
-19.07163019739978
 11
9.721476817148861
 21
-19.07163019739975
 97
        0
 75
     0
 76
     1
 98
        1
 10
8.644211678730507
 20
21.88729487380624
  0
DIMENSION
  5
DB
330
1F
100
AcDbEntity
  8
치수문자_일반주서
100
AcDbDimension
  2
_D
 10
-40.55819206286967
 20
-3.175000000000086
 30
0.0
 11
-40.55819206286976
 21
23.12274999999995
 31
0.0
 70
   160
  1
%%c<>
 71
     2
 42
6.349999999999993
 52
-270.0
  3
SLDDIMSTYLE0
100
AcDbAlignedDimension
 13
-17.30942116787305
 23
3.174999999999992
 33
0.0
 14
-17.30942116787305
 24
-3.175
 34
0.0
 50
90.0000000000002
100
AcDbRotatedDimension
1001
ACAD
1000
DSTYLE
1002
{
1070
   171
1070
     6
1070
   273
1070
     5
1002
}
  0
DIMENSION
  5
F0
330
1F
100
AcDbEntity
  8
치수문자_일반주서
100
AcDbDimension
  2
_D_1
 10
46.09617504252991
 20
2.974046754707039
 30
0.0
 11
46.09617504252984
 21
24.89054675470704
 31
0.0
 70
   160
  1
%%c<>
 71
     2
 42
5.948093509413974
 52
-270.0
  3
SLDDIMSTYLE0
100
AcDbAlignedDimension
 13
31.75000000000001
 23
-2.974046754706987
 33
0.0
 14
31.75000000000001
 24
2.974046754706987
 34
0.0
 50
90.0000000000002
100
AcDbRotatedDimension
1001
ACAD
1000
DSTYLE
1002
{
1070
   171
1070
     6
1070
   273
1070
     5
1002
}
  0
DIMENSION
  5
104
330
1F
100
AcDbEntity
  8
치수문자_일반주서
100
AcDbDimension
  2
_D_2
 10
19.05
 20
15.91721801949026
 30
0.0
 11
1.071000000000003
 21
15.91721801949026
 31
0.0
 70
   160
  1
<>
 71
     2
 42
12.7
  3
SLDDIMSTYLE0
100
AcDbAlignedDimension
 13
31.75000000000001
 23
2.974046754706987
 33
0.0
 14
19.05
 24
2.788648236901257
 34
0.0
100
AcDbRotatedDimension
1001
ACAD
1000
DSTYLE
1002
{
1070
   171
1070
     6
1070
   273
1070
     5
1002
}
  0
DIMENSION
  5
119
330
1F
100
AcDbEntity
  8
치수문자_일반주서
100
AcDbDimension
  2
_D_3
 10
31.75000000000001
 20
36.79500000000002
 30
0.0
 11
0.0000000000000089
 21
36.79500000000002
 31
0.0
 70
   160
  1
<>
 71
     2
 42
63.5
  3
SLDDIMSTYLE0
100
AcDbAlignedDimension
 13
-31.74999999999999
 23
2.364999999999994
 33
0.0
 14
31.75000000000001
 24
2.974046754706987
 34
0.0
100
AcDbRotatedDimension
1001
ACAD
1000
DSTYLE
1002
{
1070
   171
1070
     6
1070
   273
1070
     5
1002
}
  0
LINE
  5
12C
330
1F
100
AcDbEntity
  8
참조1
100
AcDbLine
 10
68.51241335422453
 20
7.441074928723896
 30
0.0
 11
68.51241335422453
 21
-7.438925071276109
 31
0.0
  0
LINE
  5
12D
330
1F
100
AcDbEntity
  8
참조1
100
AcDbLine
 10
81.21241335422454
 20
5.441074928723896
 30
0.0
 11
68.51241335422453
 21
5.441074928723896
 31
0.0
  0
SOLID
  5
12E
330
1F
100
AcDbEntity
  8
참조1
100
AcDbTrace
 10
68.51241335422453
 20
5.441074928723896
 30
0.0
 11
74.86241335422453
 21
4.425074928723896
 31
0.0
 12
74.86241335422453
 22
6.457074928723896
 32
0.0
 13
74.86241335422453
 23
6.457074928723896
 33
0.0
  0
LINE
  5
12F
330
1F
100
AcDbEntity
  8
참조1
100
AcDbLine
 10
81.21241335422454
 20
-5.438925071276109
 30
0.0
 11
68.51241335422453
 21
-5.438925071276109
 31
0.0
  0
SOLID
  5
130
330
1F
100
AcDbEntity
  8
참조1
100
AcDbTrace
 10
68.51241335422453
 20
-5.438925071276109
 30
0.0
 11
74.86241335422453
 21
-6.454925071276109
 31
0.0
 12
74.86241335422453
 22
-4.422925071276109
 32
0.0
 13
74.86241335422453
 23
-4.422925071276109
 33
0.0
  0
MTEXT
  5
131
330
1F
100
AcDbEntity
  8
참조1
100
AcDbMText
 10
77.89676348685053
 20
11.01136670591222
 30
0.0
 40
3.5
 41
0.0
 71
     1
 72
     1
  1
A
  7
SLDTEXTSTYLE0
 73
     1
 44
1.0
  0
MTEXT
  5
132
330
1F
100
AcDbEntity
  8
참조1
100
AcDbMText
 10
77.89676348685053
 20
0.1313667059122192
 30
0.0
 40
3.5
 41
0.0
 71
     1
 72
     1
  1
A
  7
SLDTEXTSTYLE0
 73
     1
 44
1.0
  0
INSERT
  5
139
330
1F
100
AcDbEntity
  8
해칭선
100
AcDbBlockReference
  2
SW_DOWELSYMBOL_0
 10
0.0
 20
0.0000000000000016
 30
0.0
  0
LINE
  5
2CF
330
1F
100
AcDbEntity
  8
외형선
  6
Continuous
370
    15
100
AcDbLine
 10
-17.30942116787305
 20
3.174999999999999
 30
0.0
 11
-18.04999999999999
 21
2.976562499999995
 31
0.0
  0
LINE
  5
2D0
330
1F
100
AcDbEntity
  8
외형선
  6
Continuous
370
    15
100
AcDbLine
 10
-18.04999999999999
 20
-2.976562500000005
 30
0.0
 11
-17.30942116787305
 21
-3.175000000000002
 31
0.0
  0
LINE
  5
2D1
330
1F
100
AcDbEntity
  8
외형선
  6
Continuous
370
    15
100
AcDbLine
 10
-18.1600602074219
 20
-2.976562500000005
 30
0.0
 11
-18.04999999999999
 21
-2.976562500000005
 31
0.0
  0
LINE
  5
2D2
330
1F
100
AcDbEntity
  8
외형선
  6
Continuous
370
    15
100
AcDbLine
 10
-18.04999999999999
 20
2.976562499999995
 30
0.0
 11
-18.1600602074219
 21
2.976562499999995
 31
0.0
  0
SPLINE
  5
2D3
330
1F
100
AcDbEntity
  8
외형선
  6
Continuous
370
    15
100
AcDbSpline
210
0.0
220
0.0
230
1.0
 70
     8
 71
     3
 72
     9
 73
     5
 74
     0
 42
0.000000001
 43
0.00000001
 40
0.0
 40
0.0
 40
0.0
 40
0.0
 40
0.4993099122651122
 40
1.0
 40
1.0
 40
1.0
 40
1.0
 10
-18.57688386696893
 20
2.476914293228761
 30
0.0
 10
-18.65570105799605
 20
2.469176016342425
 30
0.0
 10
-18.81355330384782
 20
2.453678072688094
 30
0.0
 10
-18.97111194842383
 20
2.439920530606871
 30
0.0
 10
-19.04999999999999
 20
2.433032265655209
 30
0.0
  0
LINE
  5
2D4
330
1F
100
AcDbEntity
  8
0
  6
Continuous
 62
     1
370
    15
100
AcDbLine
 10
-23.2349842676493
 20
-1.164465389073341
 30
0.0
 11
-23.21353015573053
 21
-1.175649322316593
 31
0.0
  0
SPLINE
  5
2D5
330
1F
100
AcDbEntity
  8
0
  6
Continuous
 62
     1
370
    15
100
AcDbSpline
210
0.0
220
0.0
230
1.0
 70
     8
 71
     3
 72
    11
 73
     7
 74
     0
 42
0.000000001
 43
0.00000001
 40
0.0
 40
0.0
 40
0.0
 40
0.0
 40
0.320837978162137
 40
0.5124938099132328
 40
0.7051224323764911
 40
1.0
 40
1.0
 40
1.0
 40
1.0
 10
-24.03750907111471
 20
-0.7628370548221836
 30
0.0
 10
-23.95161625801436
 20
-0.8035042810903176
 30
0.0
 10
-23.81441449878961
 20
-0.8684644888816334
 30
0.0
 10
-23.6260893574296
 20
-0.9623788127961089
 30
0.0
 10
-23.44449942616271
 20
-1.054509700331108
 30
0.0
 10
-23.31394976215739
 20
-1.123023493426677
 30
0.0
 10
-23.2349842676493
 20
-1.164465389073341
 30
0.0
  0
SPLINE
  5
2D6
330
1F
100
AcDbEntity
  8
0
  6
Continuous
 62
     1
370
    15
100
AcDbSpline
210
0.0
220
0.0
230
1.0
 70
     8
 71
     3
 72
    15
 73
    11
 74
     0
 42
0.000000001
 43
0.00000001
 40
0.0
 40
0.0
 40
0.0
 40
0.0
 40
0.1727518558969882
 40
0.295158742231897
 40
0.3717927519094213
 40
0.4396044839318436
 40
0.5075460001908738
 40
0.6541434539618706
 40
0.8182721098017106
 40
1.0
 40
1.0
 40
1.0
 40
1.0
 10
-23.05472178317806
 20
-2.365293799829159
 30
0.0
 10
-22.91295720223663
 20
-2.358320671448991
 30
0.0
 10
-22.67074240699497
 20
-2.346406589302537
 30
0.0
 10
-22.36647919209403
 20
-2.336415748994147
 30
0.0
 10
-22.14985885353247
 20
-2.330997991824004
 30
0.0
 10
-21.97729073753742
 20
-2.327803664006458
 30
0.0
 10
-21.74729938163026
 20
-2.324873989081068
 30
0.0
 10
-21.43772687037141
 20
-2.32395352795354
 30
0.0
 10
-21.03451224409702
 20
-2.327557844836198
 30
0.0
 10
-20.75203698426885
 20
-2.336222759855529
 30
0.0
 10
-20.60361234523909
 20
-2.340775678524407
 30
0.0
  0
SPLINE
  5
2D7
330
1F
100
AcDbEntity
  8
0
  6
Continuous
 62
     1
370
    15
100
AcDbSpline
210
0.0
220
0.0
230
1.0
 70
     8
 71
     3
 72
    24
 73
    20
 74
     0
 42
0.000000001
 43
0.00000001
 40
0.0
 40
0.0
 40
0.0
 40
0.0
 40
0.0656766941879208
 40
0.1172605522682964
 40
0.1734286175302565
 40
0.2150242910657966
 40
0.2615438033199474
 40
0.3129799720494227
 40
0.3698352279971795
 40
0.4260788596687741
 40
0.4725136376717706
 40
0.5129755833569759
 40
0.5833470311213397
 40
0.6676737939093375
 40
0.7685882639007109
 40
0.821558817619977
 40
0.8622769920488074
 40
0.9181995420669571
 40
1.0
 40
1.0
 40
1.0
 40
1.0
 10
-30.64318796590113
 20
-2.035825415131525
 30
0.0
 10
-30.52893115054436
 20
-2.026477423341673
 30
0.0
 10
-30.32493462735126
 20
-2.009787322028997
 30
0.0
 10
-30.02400123170074
 20
-1.990923895908493
 30
0.0
 10
-29.76679105338778
 20
-1.978074246172097
 30
0.0
 10
-29.51857908093395
 20
-1.968740284840513
 30
0.0
 10
-29.27556243371945
 20
-1.962310708807044
 30
0.0
 10
-29.00649506414775
 20
-1.95857078790449
 30
0.0
 10
-28.72116607669776
 20
-1.958626594297114
 30
0.0
 10
-28.44465173179628
 20
-1.96268696350492
 30
0.0
 10
-28.19659618076962
 20
-1.969573697318344
 30
0.0
 10
-27.92409308162599
 20
-1.980146422470155
 30
0.0
 10
-27.58602304598221
 20
-1.998152265074984
 30
0.0
 10
-27.14314412920536
 20
-2.03018821374978
 30
0.0
 10
-26.73040528005605
 20
-2.069151062350675
 30
0.0
 10
-26.39272092949668
 20
-2.107328646050517
 30
0.0
 10
-26.13093449222902
 20
-2.139867295989417
 30
0.0
 10
-25.82220879423641
 20
-2.181080027254714
 30
0.0
 10
-25.58465629471853
 20
-2.217273443441419
 30
0.0
 10
-25.44356219916562
 20
-2.238770490756009
 30
0.0
  0
SPLINE
  5
2D8
330
1F
100
AcDbEntity
  8
0
  6
Continuous
 62
     1
370
    15
100
AcDbSpline
210
0.0
220
0.0
230
1.0
 70
     8
 71
     3
 72
    15
 73
    11
 74
     0
 42
0.000000001
 43
0.00000001
 40
0.0
 40
0.0
 40
0.0
 40
0.0
 40
0.1654733500899545
 40
0.2876559518523865
 40
0.370017895711117
 40
0.4602663885594248
 40
0.5736820384010332
 40
0.6940356332172138
 40
0.9380283935406197
 40
1.0
 40
1.0
 40
1.0
 40
1.0
 10
-25.44356219916562
 20
2.238770490755998
 30
0.0
 10
-25.56616590276429
 20
2.220020579720286
 30
0.0
 10
-25.77929801763434
 20
2.187426065236872
 30
0.0
 10
-26.05365372115003
 20
2.150047458940508
 30
0.0
 10
-26.27479383057078
 20
2.121809191687307
 30
0.0
 10
-26.48872610505386
 20
2.096223015430278
 30
0.0
 10
-26.73009197171071
 20
2.069900263647343
 30
0.0
 10
-27.08558822946308
 20
2.035798620401168
 30
0.0
 10
-27.40285068266815
 20
2.00936452684021
 30
0.0
 10
-27.63045822165757
 20
1.997353578327784
 30
0.0
 10
-27.67655903065619
 20
1.994920818649783
 30
0.0
  0
SPLINE
  5
2D9
330
1F
100
AcDbEntity
  8
0
  6
Continuous
 62
     1
370
    15
100
AcDbSpline
210
0.0
220
0.0
230
1.0
 70
     8
 71
     3
 72
    20
 73
    16
 74
     0
 42
0.000000001
 43
0.00000001
 40
0.0
 40
0.0
 40
0.0
 40
0.0
 40
0.0991521904422571
 40
0.1688374597800869
 40
0.2123438327571759
 40
0.253399859350416
 40
0.297928248957927
 40
0.394455808095622
 40
0.498803549363811
 40
0.6251514283103224
 40
0.7337056343705699
 40
0.7744973222780872
 40
0.8213599572221275
 40
0.895807327738608
 40
1.0
 40
1.0
 40
1.0
 40
1.0
 10
-19.04999999999999
 20
2.433032265655209
 30
0.0
 10
-19.18291834280506
 20
2.422177327501304
 30
0.0
 10
-19.4092531848019
 20
2.403693417304256
 30
0.0
 10
-19.69339497989842
 20
2.384406805166124
 30
0.0
 10
-19.89930092984572
 20
2.371935257616935
 30
0.0
 10
-20.07152824548103
 20
2.362538238107875
 30
0.0
 10
-20.31451671216353
 20
2.350709557125919
 30
0.0
 10
-20.64197582564461
 20
2.337961067228663
 30
0.0
 10
-21.07820632622677
 20
2.327027986213382
 30
0.0
 10
-21.5319379248764
 20
2.323220735605696
 30
0.0
 10
-21.89935930705537
 20
2.32629765037394
 30
0.0
 10
-22.15956816377784
 20
2.331215028553965
 30
0.0
 10
-22.37447434288101
 20
2.336656808715235
 30
0.0
 10
-22.67578475861476
 20
2.346632119274298
 30
0.0
 10
-22.91512526867107
 20
2.358419028055915
 30
0.0
 10
-23.05472178317806
 20
2.365293799829148
 30
0.0
  0
LINE
  5
2DA
330
1F
100
AcDbEntity
  8
외형선
  6
Continuous
370
    15
100
AcDbLine
 10
-18.04999999999999
 20
-2.976562500000005
 30
0.0
 11
-18.04999999999999
 21
2.976562499999995
 31
0.0
  0
LINE
  5
2DB
330
1F
100
AcDbEntity
  8
외형선
  6
Continuous
370
    15
100
AcDbLine
 10
-19.04999999999999
 20
-2.788648236901258
 30
0.0
 11
-19.04999999999999
 21
-2.392723425239252
 31
0.0
  0
SPLINE
  5
2DC
330
1F
100
AcDbEntity
  8
외형선
  6
Continuous
370
    15
100
AcDbSpline
210
0.0
220
0.0
230
1.0
 70
     8
 71
     3
 72
     8
 73
     4
 74
     0
 42
0.000000001
 43
0.00000001
 40
0.0
 40
0.0
 40
0.0
 40
0.0
 40
1.0
 40
1.0
 40
1.0
 40
1.0
 10
-19.04999999999996
 20
-2.392723425239266
 30
0.0
 10
-18.75215899146814
 20
-2.494745555995278
 30
0.0
 10
-18.45519035381512
 20
-2.584709150242857
 30
0.0
 10
-18.1600602074219
 20
-2.661297450296244
 30
0.0
  0
LINE
  5
2DD
330
1F
100
AcDbEntity
  8
외형선
  6
Continuous
370
    15
100
AcDbLine
 10
-18.1600602074219
 20
2.976562499999995
 30
0.0
 11
-18.1600602074219
 21
-2.661649246605093
 31
0.0
  0
SPLINE
  5
2DE
330
1F
100
AcDbEntity
  8
외형선
  6
Continuous
370
    15
100
AcDbSpline
210
0.0
220
0.0
230
1.0
 70
     8
 71
     3
 72
     8
 73
     4
 74
     0
 42
0.000000001
 43
0.00000001
 40
0.0
 40
0.0
 40
0.0
 40
0.0
 40
1.0
 40
1.0
 40
1.0
 40
1.0
 10
-19.04999999999996
 20
2.788648236901262
 30
0.0
 10
-18.75218015532669
 20
2.84861990791631
 30
0.0
 10
-18.45523168257088
 20
2.894599715660386
 30
0.0
 10
-18.16012312105025
 20
2.925985473659717
 30
0.0
  0
LINE
  5
2DF
330
1F
100
AcDbEntity
  8
외형선
  6
Continuous
370
    15
100
AcDbLine
 10
-18.1600602074219
 20
-2.963789663348129
 30
0.0
 11
-18.1600602074219
 21
-2.976562500000005
 31
0.0
  0
SPLINE
  5
2E0
330
1F
100
AcDbEntity
  8
외형선
  6
Continuous
370
    15
100
AcDbSpline
210
0.0
220
0.0
230
1.0
 70
     8
 71
     3
 72
    10
 73
     6
 74
     0
 42
0.000000001
 43
0.00000001
 40
0.0
 40
0.0
 40
0.0
 40
0.0
 40
0.400009504839829
 40
0.7716858888610918
 40
1.0
 40
1.0
 40
1.0
 40
1.0
 10
-18.18766925880052
 20
-2.923012875267188
 30
0.0
 10
-18.18305522039319
 20
-2.929853987926675
 30
0.0
 10
-18.17415396108179
 20
-2.943051649581106
 30
0.0
 10
-18.16363395433404
 20
-2.955800918558507
 30
0.0
 10
-18.16104527601076
 20
-2.961587643521254
 30
0.0
 10
-18.1600602074219
 20
-2.963789663348129
 30
0.0
  0
SPLINE
  5
2E1
330
1F
100
AcDbEntity
  8
외형선
  6
Continuous
370
    15
100
AcDbSpline
210
0.0
220
0.0
230
1.0
 70
     8
 71
     3
 72
     8
 73
     4
 74
     0
 42
0.000000001
 43
0.00000001
 40
0.0
 40
0.0
 40
0.0
 40
0.0
 40
1.0
 40
1.0
 40
1.0
 40
1.0
 10
-19.04999999999996
 20
-2.788648236901265
 30
0.0
 10
-18.7614508483962
 20
-2.84675307813721
 30
0.0
 10
-18.47332501153549
 20
-2.891740830766819
 30
0.0
 10
-18.18766925880052
 20
-2.923012875267196
 30
0.0
  0
SPLINE
  5
2E2
330
1F
100
AcDbEntity
  8
외형선
  6
Continuous
370
    15
100
AcDbSpline
210
0.0
220
0.0
230
1.0
 70
    24
 71
     3
 72
    14
 73
    10
 74
     0
 42
0.000000001
 43
0.00000001
 40
0.0
 40
0.0
 40
0.0
 40
0.0
 40
0.25
 40
0.25
 40
0.5
 40
0.5
 40
0.75
 40
0.75
 40
1.0
 40
1.0
 40
1.0
 40
1.0
 10
-19.04999999999999
 20
-1.622545749684461
 30
0.0
 10
-19.04999999999999
 20
-1.417201588255187
 30
0.0
 10
-19.04999999999999
 20
-1.184988505503411
 30
0.0
 10
-19.04999999999999
 20
-0.6821730255303092
 30
0.0
 10
-19.04999999999999
 20
-0.4117404162516164
 30
0.0
 10
-19.04999999999999
 20
0.1421445170313208
 30
0.0
 10
-19.04999999999999
 20
0.4253017079861666
 30
0.0
 10
-19.04999999999999
 20
0.9766019555400137
 30
0.0
 10
-19.04999999999999
 20
1.244507124724181
 30
0.0
 10
-19.04999999999999
 20
1.493915039616846
 30
0.0
  0
SPLINE
  5
2E3
330
1F
100
AcDbEntity
  8
외형선
  6
Continuous
370
    15
100
AcDbSpline
210
0.0
220
0.0
230
1.0
 70
     8
 71
     3
 72
     8
 73
     4
 74
     0
 42
0.000000001
 43
0.00000001
 40
0.0
 40
0.0
 40
0.0
 40
0.0
 40
1.0
 40
1.0
 40
1.0
 40
1.0
 10
-19.04999999999995
 20
1.493915039616832
 30
0.0
 10
-18.75216672572203
 20
1.387066850702299
 30
0.0
 10
-18.4552054572688
 20
1.272863749602132
 30
0.0
 10
-18.16008319899004
 20
1.153182261735532
 30
0.0
  0
SPLINE
  5
2E4
330
1F
100
AcDbEntity
  8
외형선
  6
Continuous
370
    15
100
AcDbSpline
210
0.0
220
0.0
230
1.0
 70
     8
 71
     3
 72
     8
 73
     4
 74
     0
 42
0.000000001
 43
0.00000001
 40
0.0
 40
0.0
 40
0.0
 40
0.0
 40
1.0
 40
1.0
 40
1.0
 40
1.0
 10
-19.04999999999992
 20
-1.622545749684475
 30
0.0
 10
-18.75216409506033
 20
-1.69786674591502
 30
0.0
 10
-18.45520032011337
 20
-1.765004693485279
 30
0.0
 10
-18.16007537884047
 20
-1.822969537632117
 30
0.0
  0
LINE
  5
2E5
330
1F
100
AcDbEntity
  8
외형선
  6
Continuous
370
    15
100
AcDbLine
 10
-18.58021157049148
 20
2.467508284565918
 30
0.0
 11
-18.16012312105025
 21
2.510557892158142
 31
0.0
  0
SPLINE
  5
2E6
330
1F
100
AcDbEntity
  8
외형선
  6
Continuous
370
    15
100
AcDbSpline
210
0.0
220
0.0
230
1.0
 70
    24
 71
     3
 72
    12
 73
     8
 74
     0
 42
0.000000001
 43
0.00000001
 40
0.0
 40
0.0
 40
0.0
 40
0.0
 40
0.2952577525266178
 40
0.510690176652708
 40
0.7323701556728834
 40
0.9263682862436418
 40
1.0
 40
1.0
 40
1.0
 40
1.0
 10
-19.04999999999999
 20
1.493915039616846
 30
0.0
 10
-19.04999999999999
 20
1.656853483308554
 30
0.0
 10
-19.04999999999999
 20
1.938678640752764
 30
0.0
 10
-19.04999999999999
 20
2.212955498512544
 30
0.0
 10
-19.04999999999999
 20
2.365791186226817
 30
0.0
 10
-19.04999999999999
 20
2.433588201805991
 30
0.0
 10
-19.04999999999999
 20
2.426133936938628
 30
0.0
 10
-19.04999999999999
 20
2.424083080845366
 30
0.0
  0
SPLINE
  5
2E7
330
1F
100
AcDbEntity
  8
외형선
  6
Continuous
370
    15
100
AcDbSpline
210
0.0
220
0.0
230
1.0
 70
    24
 71
     3
 72
    10
 73
     6
 74
     0
 42
0.000000001
 43
0.00000001
 40
0.0
 40
0.0
 40
0.0
 40
0.0
 40
0.5
 40
0.5
 40
1.0
 40
1.0
 40
1.0
 40
1.0
 10
-19.04999999999999
 20
-2.392723425239252
 30
0.0
 10
-19.04999999999999
 20
-2.30056834622143
 30
0.0
 10
-19.04999999999999
 20
-2.181358765228628
 30
0.0
 10
-19.04999999999999
 20
-1.913983908920463
 30
0.0
 10
-19.04999999999999
 20
-1.766648359073385
 30
0.0
 10
-19.04999999999999
 20
-1.622545749684461
 30
0.0
  0
LINE
  5
2E8
330
1F
100
AcDbEntity
  8
외형선
  6
Continuous
370
    15
100
AcDbLine
 10
-18.1600602074219
 20
-2.963789663327942
 30
0.0
 11
-18.1600602074219
 21
-2.912133988686206
 31
0.0
  0
SPLINE
  5
2E9
330
1F
100
AcDbEntity
  8
외형선
  6
Continuous
370
    15
100
AcDbSpline
210
0.0
220
0.0
230
1.0
 70
    24
 71
     3
 72
     8
 73
     4
 74
     0
 42
0.000000001
 43
0.00000001
 40
0.0
 40
0.0
 40
0.0
 40
0.0
 40
1.0
 40
1.0
 40
1.0
 40
1.0
 10
-19.0500000000002
 20
2.419365548033591
 30
0.0
 10
-19.0500000000002
 20
2.549790905059
 30
0.0
 10
-19.0500000000002
 20
2.673708795636474
 30
0.0
 10
-19.0500000000002
 20
2.788648236892685
 30
0.0
  0
SPLINE
  5
2EA
330
1F
100
AcDbEntity
  8
0
  6
Continuous
 62
     1
370
    15
100
AcDbSpline
210
0.0
220
0.0
230
1.0
 70
     8
 71
     3
 72
    38
 73
    34
 74
     0
 42
0.000000001
 43
0.00000001
 40
0.0
 40
0.0
 40
0.0
 40
0.0
 40
0.0625
 40
0.0625
 40
0.125
 40
0.125
 40
0.1875
 40
0.1875
 40
0.25
 40
0.25
 40
0.3125
 40
0.3125
 40
0.375
 40
0.375
 40
0.4375
 40
0.4375
 40
0.5
 40
0.5
 40
0.5625
 40
0.5625
 40
0.625
 40
0.625
 40
0.6875
 40
0.6875
 40
0.75
 40
0.75
 40
0.8125
 40
0.8125
 40
0.875
 40
0.875
 40
0.9375
 40
0.9375
 40
1.0
 40
1.0
 40
1.0
 40
1.0
 10
-31.74999999999999
 20
2.824581806073072
 30
0.0
 10
-31.48766975551055
 20
2.776529498506678
 30
0.0
 10
-31.22134765065463
 20
2.717072334192496
 30
0.0
 10
-30.69009916360819
 20
2.577180199258111
 30
0.0
 10
-30.42782360612471
 20
2.497069903724148
 30
0.0
 10
-29.89922614289015
 20
2.317434112016729
 30
0.0
 10
-29.632327464161
 20
2.217763659076875
 30
0.0
 10
-29.10277668616063
 20
2.002213508817144
 30
0.0
 10
-28.84108668294754
 20
1.886546822510235
 30
0.0
 10
-28.31022181585691
 20
1.640143437137135
 30
0.0
 10
-28.04360894278917
 20
1.509740724088106
 30
0.0
 10
-27.51743554318725
 20
1.239253590916229
 30
0.0
 10
-27.25286390007368
 20
1.098332990839624
 30
0.0
 10
-26.72142525570506
 20
0.808493417073885
 30
0.0
 10
-26.45816974806214
 20
0.6602492767936371
 30
0.0
 10
-25.93071585292653
 20
0.3595673574731836
 30
0.0
 10
-25.66391544808346
 20
0.2066236506776294
 30
0.0
 10
-25.13360276046243
 20
-0.0990696606186018
 30
0.0
 10
-24.87210320838302
 20
-0.2514261805707162
 30
0.0
 10
-24.34181495826086
 20
-0.5543510955370917
 30
0.0
 10
-24.07500923840521
 20
-0.7045217678299719
 30
0.0
 10
-23.54751026415156
 20
-0.9969919813414007
 30
0.0
 10
-23.28429745569911
 20
-1.139777666901251
 30
0.0
 10
-22.75286234759889
 20
-1.416102950454869
 30
0.0
 10
-22.48823367648166
 20
-1.548997227525567
 30
0.0
 10
-21.9621122244479
 20
-1.80106814096335
 30
0.0
 10
-21.69550824613047
 20
-1.921035097040919
 30
0.0
 10
-21.16462597641206
 20
-2.144459003876426
 30
0.0
 10
-20.90292154219815
 20
-2.247627735146585
 30
0.0
 10
-20.37340220695823
 20
-2.436243898535208
 30
0.0
 10
-20.10650179951026
 20
-2.521491934776781
 30
0.0
 10
-19.57786617987198
 20
-2.670882945635212
 30
0.0
 10
-19.3156189412647
 20
-2.735160828168182
 30
0.0
 10
-19.0499999999961
 20
-2.788648236902047
 30
0.0
  0
SPLINE
  5
2EB
330
1F
100
AcDbEntity
  8
0
  6
Continuous
 62
     1
370
    15
100
AcDbSpline
210
0.0
220
0.0
230
1.0
 70
     8
 71
     3
 72
    14
 73
    10
 74
     0
 42
0.000000001
 43
0.00000001
 40
0.0
 40
0.0
 40
0.0
 40
0.0
 40
0.1467075921412506
 40
0.2932778985064377
 40
0.4397757345304925
 40
0.5862665299837225
 40
0.7328157744322275
 40
0.879488461636516
 40
1.0
 40
1.0
 40
1.0
 40
1.0
 10
-31.74999999999999
 20
2.348425255658514
 30
0.0
 10
-31.37212018015136
 20
2.26853461053147
 30
0.0
 10
-30.61671415217636
 20
2.108828080206687
 30
0.0
 10
-29.48418754172791
 20
1.737512569044527
 30
0.0
 10
-28.35228695206495
 20
1.290934958935489
 30
0.0
 10
-27.22045035047488
 20
0.7798971874331871
 30
0.0
 10
-26.0881053242768
 20
0.2328557385208628
 30
0.0
 10
-25.02249233528342
 20
-0.2957142254923736
 30
0.0
 10
-24.33429320037683
 20
-0.6204920117858618
 30
0.0
 10
-24.02388589144318
 20
-0.7669807147373274
 30
0.0
  0
LINE
  5
2EC
330
1F
100
AcDbEntity
  8
0
  6
Continuous
 62
     1
370
    15
100
AcDbLine
 10
-31.74999999999992
 20
2.824581806073072
 30
0.0
 11
-31.74999999999999
 21
2.348425255658514
 31
0.0
  0
SPLINE
  5
2ED
330
1F
100
AcDbEntity
  8
0
  6
Continuous
 62
     1
370
    15
100
AcDbSpline
210
0.0
220
0.0
230
1.0
 70
     8
 71
     3
 72
    38
 73
    34
 74
     0
 42
0.000000001
 43
0.00000001
 40
0.0
 40
0.0
 40
0.0
 40
0.0
 40
0.0624999999999999
 40
0.0624999999999999
 40
0.1249999999999999
 40
0.1249999999999999
 40
0.1874999999999998
 40
0.1874999999999998
 40
0.2499999999999998
 40
0.2499999999999998
 40
0.3124999999999997
 40
0.3124999999999997
 40
0.3749999999999997
 40
0.3749999999999997
 40
0.4374999999999996
 40
0.4374999999999996
 40
0.4999999999999996
 40
0.4999999999999996
 40
0.5624999999999996
 40
0.5624999999999996
 40
0.6249999999999997
 40
0.6249999999999997
 40
0.6874999999999997
 40
0.6874999999999997
 40
0.7499999999999998
 40
0.7499999999999998
 40
0.8124999999999998
 40
0.8124999999999998
 40
0.8749999999999999
 40
0.8749999999999999
 40
0.9374999999999999
 40
0.9374999999999999
 40
1.0
 40
1.0
 40
1.0
 40
1.0
 10
-31.74999999999999
 20
2.974046754706984
 30
0.0
 10
-31.48766975551063
 20
2.967785271022757
 30
0.0
 10
-31.2213476506548
 20
2.949739349037936
 30
0.0
 10
-30.69009916360852
 20
2.890427162426109
 30
0.0
 10
-30.4278236061251
 20
2.849358463857365
 30
0.0
 10
-29.89922614289072
 20
2.744925791265844
 30
0.0
 10
-29.63232746416165
 20
2.681430821825446
 30
0.0
 10
-29.10277668616144
 20
2.534092739496325
 30
0.0
 10
-28.84108668294842
 20
2.45043980850116
 30
0.0
 10
-28.31022181585795
 20
2.263660786989222
 30
0.0
 10
-28.04360894279029
 20
2.160748886642638
 30
0.0
 10
-27.51743554318852
 20
1.939672904957108
 30
0.0
 10
-27.25286390007506
 20
1.820838807303611
 30
0.0
 10
-26.7214252557066
 20
1.569338296068602
 30
0.0
 10
-26.45816974806373
 20
1.437266854158652
 30
0.0
 10
-25.93071585292831
 20
1.162719031073822
 30
0.0
 10
-25.66391544808531
 20
1.019759547042975
 30
0.0
 10
-25.13360276046443
 20
0.7274815298423948
 30
0.0
 10
-24.87210320838511
 20
0.578571554562595
 30
0.0
 10
-24.34181495826312
 20
0.2759995483886984
 30
0.0
 10
-24.07500923840754
 20
0.1227017537657761
 30
0.0
 10
-23.54751026415402
 20
-0.1824849582084395
 30
0.0
 10
-23.28429745570168
 20
-0.3348591121389416
 30
0.0
 10
-22.75286234760161
 20
-0.636715628832894
 30
0.0
 10
-22.48823367648442
 20
-0.7855036562239787
 30
0.0
 10
-21.96211222445087
 20
-1.07516314924826
 30
0.0
 10
-21.69550824613352
 20
-1.216956711968363
 30
0.0
 10
-21.16462597641527
 20
-1.489377171898424
 30
0.0
 10
-20.90292154220142
 20
-1.619609791175448
 30
0.0
 10
-20.37340220696169
 20
-1.867293773701191
 30
0.0
 10
-20.1065017995138
 20
-1.984534083891637
 30
0.0
 10
-19.57786617987565
 20
-2.201686738203831
 30
0.0
 10
-19.31561894126846
 20
-2.301738605885637
 30
0.0
 10
-19.04999999999996
 20
-2.392723425239266
 30
0.0
  0
SPLINE
  5
2EE
330
1F
100
AcDbEntity
  8
0
  6
Continuous
 62
     1
370
    15
100
AcDbSpline
210
0.0
220
0.0
230
1.0
 70
     8
 71
     3
 72
    12
 73
     8
 74
     0
 42
0.000000001
 43
0.00000001
 40
0.0
 40
0.0
 40
0.0
 40
0.0
 40
0.1008567980040505
 40
0.3142975694027713
 40
0.5276072651004825
 40
0.7638024748564711
 40
1.0
 40
1.0
 40
1.0
 40
1.0
 10
-24.35645782475357
 20
0.2822814125447638
 30
0.0
 10
-24.17804124246168
 20
0.2112976835318337
 30
0.0
 10
-23.62204601690198
 20
-0.0099071726347601
 30
0.0
 10
-22.68882794083012
 20
-0.390438805375224
 30
0.0
 10
-21.51633311320358
 20
-0.8446988260156713
 30
0.0
 10
-20.30338263975698
 20
-1.276906755153126
 30
0.0
 10
-19.46779557843552
 20
-1.507332375037683
 30
0.0
 10
-19.04999999999999
 20
-1.622545749684461
 30
0.0
  0
SPLINE
  5
2EF
330
1F
100
AcDbEntity
  8
외형선
  6
Continuous
370
    15
100
AcDbSpline
210
0.0
220
0.0
230
1.0
 70
    24
 71
     3
 72
    10
 73
     6
 74
     0
 42
0.000000001
 43
0.00000001
 40
0.0
 40
0.0
 40
0.0
 40
0.0
 40
0.4999999999999997
 40
0.4999999999999997
 40
1.0
 40
1.0
 40
1.0
 40
1.0
 10
-19.04999999999999
 20
-2.392723425239252
 30
0.0
 10
-19.04999999999999
 20
-2.300568346221423
 30
0.0
 10
-19.04999999999999
 20
-2.181358765228628
 30
0.0
 10
-19.04999999999999
 20
-1.913983908920463
 30
0.0
 10
-19.04999999999999
 20
-1.766648359073385
 30
0.0
 10
-19.04999999999999
 20
-1.622545749684461
 30
0.0
  0
LINE
  5
2F0
330
1F
100
AcDbEntity
  8
0
  6
Continuous
 62
     1
370
    15
100
AcDbLine
 10
-31.74999999999999
 20
2.974046754706984
 30
0.0
 11
-31.74999999999998
 21
2.824581806073072
 31
0.0
  0
SPLINE
  5
2F1
330
1F
100
AcDbEntity
  8
0
  6
Continuous
 62
     1
370
    15
100
AcDbSpline
210
0.0
220
0.0
230
1.0
 70
     8
 71
     3
 72
     8
 73
     4
 74
     0
 42
0.000000001
 43
0.00000001
 40
0.0
 40
0.0
 40
0.0
 40
0.0
 40
1.0
 40
1.0
 40
1.0
 40
1.0
 10
-29.90774193720735
 20
-0.8331182780105008
 30
0.0
 10
-29.8021429215656
 20
-0.9582481903077832
 30
0.0
 10
-29.70791322656458
 20
-1.078662238747319
 30
0.0
 10
-29.62772935613659
 20
-1.19325024018284
 30
0.0
  0
LINE
  5
2F2
330
1F
100
AcDbEntity
  8
0
  6
Continuous
 62
     1
370
    15
100
AcDbLine
 10
-29.66535396425936
 20
-1.224821034981849
 30
0.0
 11
-31.74999999999999
 21
-0.0000000000000055
 31
0.0
  0
LINE
  5
2F3
330
1F
100
AcDbEntity
  8
0
  6
Continuous
 62
     1
370
    15
100
AcDbLine
 10
-31.74999999999999
 20
-0.0000000000000055
 30
0.0
 11
-31.74999999999999
 21
0.7954653315413597
 31
0.0
  0
SPLINE
  5
2F4
330
1F
100
AcDbEntity
  8
0
  6
Continuous
 62
     1
370
    15
100
AcDbSpline
210
0.0
220
0.0
230
1.0
 70
     8
 71
     3
 72
    10
 73
     6
 74
     0
 42
0.000000001
 43
0.00000001
 40
0.0
 40
0.0
 40
0.0
 40
0.0
 40
0.5
 40
0.5
 40
1.0
 40
1.0
 40
1.0
 40
1.0
 10
-31.74999999999999
 20
0.7954653315413597
 30
0.0
 10
-31.43109211162218
 20
0.5447485852177553
 30
0.0
 10
-31.11751432591605
 20
0.2837485129518188
 30
0.0
 10
-30.50128483522496
 20
-0.259331234778804
 30
0.0
 10
-30.19576430232465
 20
-0.5442727749849451
 30
0.0
 10
-29.90774193720734
 20
-0.8331182780105008
 30
0.0
  0
SPLINE
  5
2F5
330
1F
100
AcDbEntity
  8
0
  6
Continuous
 62
     1
370
    15
100
AcDbSpline
210
0.0
220
0.0
230
1.0
 70
     8
 71
     3
 72
    14
 73
    10
 74
     0
 42
0.000000001
 43
0.00000001
 40
0.0
 40
0.0
 40
0.0
 40
0.0
 40
0.1135694061716363
 40
0.2269134711794779
 40
0.3919973873900214
 40
0.5571480868955452
 40
0.7224398324910652
 40
0.8878041305250158
 40
1.0
 40
1.0
 40
1.0
 40
1.0
 10
-29.90774193693941
 20
-0.83311827812617
 30
0.0
 10
-29.64818290717262
 20
-0.9434285346527657
 30
0.0
 10
-29.12957985723371
 20
-1.163830173253571
 30
0.0
 10
-28.23410756554289
 20
-1.509127179978327
 30
0.0
 10
-27.22041113665232
 20
-1.848041855305345
 30
0.0
 10
-26.08808434807772
 20
-2.138269331265219
 30
0.0
 10
-24.95493563164028
 20
-2.321525818734548
 30
0.0
 10
-23.94269837257554
 20
-2.399899766054466
 30
0.0
 10
-23.30841395183102
 20
-2.366315298174618
 30
0.0
 10
-23.05202236395096
 20
-2.352739724242481
 30
0.0
  0
SPLINE
  5
2F6
330
1F
100
AcDbEntity
  8
0
  6
Continuous
 62
     1
370
    15
100
AcDbSpline
210
0.0
220
0.0
230
1.0
 70
    24
 71
     3
 72
    10
 73
     6
 74
     0
 42
0.000000001
 43
0.00000001
 40
0.0
 40
0.0
 40
0.0
 40
0.0
 40
0.5
 40
0.5
 40
1.0
 40
1.0
 40
1.0
 40
1.0
 10
-31.74999999999999
 20
2.348425255658514
 30
0.0
 10
-31.74999999999999
 20
2.168400150081633
 30
0.0
 10
-31.74999999999999
 20
1.94093152631534
 30
0.0
 10
-31.74999999999999
 20
1.412088867471938
 30
0.0
 10
-31.74999999999999
 20
1.111172935957407
 30
0.0
 10
-31.74999999999999
 20
0.795465331541452
 30
0.0
  0
SPLINE
  5
2F7
330
1F
100
AcDbEntity
  8
0
  6
Continuous
 62
     1
370
    15
100
AcDbSpline
210
0.0
220
0.0
230
1.0
 70
    24
 71
     3
 72
     8
 73
     4
 74
     0
 42
0.000000001
 43
0.00000001
 40
0.0
 40
0.0
 40
0.0
 40
0.0
 40
1.0
 40
1.0
 40
1.0
 40
1.0
 10
-29.93842143434579
 20
-1.453951848417885
 30
0.0
 10
-29.84028714597724
 20
-1.371607403241973
 30
0.0
 10
-29.73610854251185
 20
-1.28419117549756
 30
0.0
 10
-29.62772935613663
 20
-1.193250240182819
 30
0.0
  0
LINE
  5
2F8
330
1F
100
AcDbEntity
  8
0
  6
Continuous
 62
     1
370
    15
100
AcDbLine
 10
-31.74999999999999
 20
-2.083593750000004
 30
0.0
 11
-30.64287667055923
 21
-2.034660913065556
 31
0.0
  0
SPLINE
  5
2F9
330
1F
100
AcDbEntity
  8
0
  6
Continuous
 62
     1
370
    15
100
AcDbSpline
210
0.0
220
0.0
230
1.0
 70
     8
 71
     3
 72
     8
 73
     4
 74
     0
 42
0.000000001
 43
0.00000001
 40
0.0
 40
0.0
 40
0.0
 40
0.0
 40
1.0
 40
1.0
 40
1.0
 40
1.0
 10
-31.74999999999999
 20
-2.083593750000004
 30
0.0
 10
-31.13778709205734
 20
-1.917440724658688
 30
0.0
 10
-30.53120220040206
 20
-1.713365409386191
 30
0.0
 10
-29.93842143435747
 20
-1.453951848423001
 30
0.0
  0
SPLINE
  5
2FA
330
1F
100
AcDbEntity
  8
0
  6
Continuous
 62
     1
370
    15
100
AcDbSpline
210
0.0
220
0.0
230
1.0
 70
     8
 71
     3
 72
    13
 73
     9
 74
     0
 42
0.000000001
 43
0.00000001
 40
0.0
 40
0.0
 40
0.0
 40
0.0
 40
0.07741933838626
 40
0.2545494590414646
 40
0.4315060294017802
 40
0.6083567619658775
 40
0.8041774461641075
 40
0.9999999999999999
 40
0.9999999999999999
 40
0.9999999999999999
 40
0.9999999999999999
 10
-25.45063420481775
 20
2.224586431839926
 30
0.0
 10
-25.28545182838541
 20
2.253705049804255
 30
0.0
 10
-24.74234353735019
 20
2.349445062640259
 30
0.0
 10
-23.82155003647254
 20
2.395181412508103
 30
0.0
 10
-22.68882224837025
 20
2.360096881888682
 30
0.0
 10
-21.51635585982422
 20
2.198289916710232
 30
0.0
 10
-20.30338336878075
 20
1.91929118562412
 30
0.0
 10
-19.46779578591086
 20
1.635707539545835
 30
0.0
 10
-19.04999999999999
 20
1.493915039616846
 30
0.0
  0
SPLINE
  5
2FB
330
1F
100
AcDbEntity
  8
외형선
  6
Continuous
370
    15
100
AcDbSpline
210
0.0
220
0.0
230
1.0
 70
    24
 71
     3
 72
    14
 73
    10
 74
     0
 42
0.000000001
 43
0.00000001
 40
0.0
 40
0.0
 40
0.0
 40
0.0
 40
0.25
 40
0.25
 40
0.5
 40
0.5
 40
0.75
 40
0.75
 40
1.0
 40
1.0
 40
1.0
 40
1.0
 10
-19.04999999999999
 20
-1.622545749684461
 30
0.0
 10
-19.04999999999999
 20
-1.417201588255187
 30
0.0
 10
-19.04999999999999
 20
-1.184988505503411
 30
0.0
 10
-19.04999999999999
 20
-0.6821730255303092
 30
0.0
 10
-19.04999999999999
 20
-0.4117404162516164
 30
0.0
 10
-19.04999999999999
 20
0.1421445170313208
 30
0.0
 10
-19.04999999999999
 20
0.4253017079861666
 30
0.0
 10
-19.04999999999999
 20
0.9766019555400137
 30
0.0
 10
-19.04999999999999
 20
1.244507124724181
 30
0.0
 10
-19.04999999999999
 20
1.493915039616846
 30
0.0
  0
SPLINE
  5
2FC
330
1F
100
AcDbEntity
  8
외형선
  6
Continuous
370
    15
100
AcDbSpline
210
0.0
220
0.0
230
1.0
 70
    24
 71
     3
 72
    12
 73
     8
 74
     0
 42
0.000000001
 43
0.00000001
 40
0.0
 40
0.0
 40
0.0
 40
0.0
 40
0.2955016267089593
 40
0.5111119916539918
 40
0.7329750717889141
 40
0.9271334390852582
 40
0.9999999999999999
 40
0.9999999999999999
 40
0.9999999999999999
 40
0.9999999999999999
 10
-19.04999999999999
 20
1.493915039616846
 30
0.0
 10
-19.04999999999999
 20
1.656852611351818
 30
0.0
 10
-19.04999999999999
 20
1.93867626062312
 30
0.0
 10
-19.04999999999999
 20
2.212962178356294
 30
0.0
 10
-19.04999999999999
 20
2.365766428003313
 30
0.0
 10
-19.04999999999999
 20
2.433532758659426
 30
0.0
 10
-19.04999999999999
 20
2.426133412159858
 30
0.0
 10
-19.04999999999999
 20
2.424114256360243
 30
0.0
  0
LINE
  5
2FD
330
1F
100
AcDbEntity
  8
0
  6
Continuous
 62
     1
370
    15
100
AcDbLine
 10
-31.74999999999999
 20
-0.0000000000000055
 30
0.0
 11
-31.74999999999999
 21
-2.083593750000004
 31
0.0
  0
SPLINE
  5
2FE
330
1F
100
AcDbEntity
  8
0
  6
Continuous
 62
     1
370
    15
100
AcDbSpline
210
0.0
220
0.0
230
1.0
 70
     8
 71
     3
 72
    11
 73
     7
 74
     0
 42
0.000000001
 43
0.00000001
 40
0.0
 40
0.0
 40
0.0
 40
0.0
 40
0.1771451928187513
 40
0.451250599366375
 40
0.7254876246497934
 40
1.0
 40
1.0
 40
1.0
 40
1.0
 10
-27.67544156585148
 20
-1.994458752371193
 30
0.0
 10
-27.91601485778343
 20
-2.097761932391235
 30
0.0
 10
-28.52883895110727
 20
-2.360911166975269
 30
0.0
 10
-29.51405715448519
 20
-2.664183757357291
 30
0.0
 10
-30.63159610002432
 20
-2.907642791771563
 30
0.0
 10
-31.37707401200988
 20
-2.951904697186718
 30
0.0
 10
-31.74999999999999
 20
-2.974046754706988
 30
0.0
  0
SPLINE
  5
2FF
330
1F
100
AcDbEntity
  8
0
  6
Continuous
 62
     1
370
    15
100
AcDbSpline
210
0.0
220
0.0
230
1.0
 70
    24
 71
     3
 72
    10
 73
     6
 74
     0
 42
0.000000001
 43
0.00000001
 40
0.0
 40
0.0
 40
0.0
 40
0.0
 40
0.5
 40
0.5
 40
1.0
 40
1.0
 40
1.0
 40
1.0
 10
-31.74999999999999
 20
-2.083593750000004
 30
0.0
 10
-31.74999999999999
 20
-2.209896014403027
 30
0.0
 10
-31.74999999999999
 20
-2.356670942487282
 30
0.0
 10
-31.74999999999999
 20
-2.664604346297549
 30
0.0
 10
-31.74999999999999
 20
-2.824976398752822
 30
0.0
 10
-31.74999999999999
 20
-2.974046754706988
 30
0.0
  0
SPLINE
  5
300
330
1F
100
AcDbEntity
  8
0
  6
Continuous
 62
     1
370
    15
100
AcDbSpline
210
0.0
220
0.0
230
1.0
 70
     8
 71
     3
 72
     9
 73
     5
 74
     0
 42
0.000000001
 43
0.00000001
 40
0.0
 40
0.0
 40
0.0
 40
0.0
 40
0.2818877275553445
 40
1.0
 40
1.0
 40
1.0
 40
1.0
 10
-20.60503990117194
 20
2.340256760579196
 30
0.0
 10
-20.45891802622447
 20
2.395527466728661
 30
0.0
 10
-19.94054897122975
 20
2.591600941188839
 30
0.0
 10
-19.4222190660679
 20
2.706289194612944
 30
0.0
 10
-19.0499999999961
 20
2.788648236902036
 30
0.0
  0
SPLINE
  5
301
330
1F
100
AcDbEntity
  8
외형선
  6
Continuous
370
    15
100
AcDbSpline
210
0.0
220
0.0
230
1.0
 70
    24
 71
     3
 72
     8
 73
     4
 74
     0
 42
0.000000001
 43
0.00000001
 40
0.0
 40
0.0
 40
0.0
 40
0.0
 40
1.0
 40
1.0
 40
1.0
 40
1.0
 10
-19.0500000000002
 20
2.419365548033591
 30
0.0
 10
-19.0500000000002
 20
2.549790905059
 30
0.0
 10
-19.0500000000002
 20
2.673708795636474
 30
0.0
 10
-19.0500000000002
 20
2.788648236892685
 30
0.0
  0
LINE
  5
306
330
1F
100
AcDbEntity
  8
외형선
  6
Continuous
370
    15
100
AcDbLine
 10
-17.30942116787305
 20
-3.175000000000002
 30
0.0
 11
-17.30942116787305
 21
3.174999999999992
 31
0.0
  0
LINE
  5
331
330
1F
100
AcDbEntity
  8
0
100
AcDbLine
 10
-17.30942116787305
 20
-0.0000000000000055
 30
0.0
 11
-37.007942114922
 21
-0.0000000000000055
 31
0.0
  0
ENDSEC
  0
SECTION
  2
OBJECTS
  0
DICTIONARY
  5
C
330
0
100
AcDbDictionary
281
     1
  3
ACAD_GROUP
350
D
  3
ACAD_IMAGE_VARS
350
15D
  3
ACAD_LAYOUT
350
1A
  3
ACAD_MLINESTYLE
350
17
  3
ACAD_PLOTSETTINGS
350
19
  3
ACAD_PLOTSTYLENAME
350
E
  3
ACAD_SCALELIST
350
47
  3
APPDATA
350
15B
  3
DWGPROPS
350
357
  0
DICTIONARY
  5
217
330
2
100
AcDbDictionary
280
     1
281
     1
  3
ACAD_LAYERSTATES
360
218
  0
DICTIONARY
  5
355
330
1F
100
AcDbDictionary
280
     1
281
     1
  3
DIM_BOUNDING_BOXES_V1
360
356
  0
DICTIONARY
  5
D
102
{ACAD_REACTORS
330
C
102
}
330
C
100
AcDbDictionary
281
     1
  0
RASTERVARIABLES
  5
15D
102
{ACAD_REACTORS
330
C
102
}
330
C
100
AcDbRasterVariables
 90
        0
 70
     1
 71
     1
 72
     1
  0
DICTIONARY
  5
1A
102
{ACAD_REACTORS
330
C
102
}
330
C
100
AcDbDictionary
281
     1
  3
Layout1
350
1E
  3
Layout2
350
26
  3
Model
350
22
  0
DICTIONARY
  5
17
102
{ACAD_REACTORS
330
C
102
}
330
C
100
AcDbDictionary
281
     1
  3
Standard
350
18
  0
DICTIONARY
  5
19
102
{ACAD_REACTORS
330
C
102
}
330
C
100
AcDbDictionary
281
     1
  0
ACDBDICTIONARYWDFLT
  5
E
102
{ACAD_REACTORS
330
C
102
}
330
C
100
AcDbDictionary
281
     1
  3
Normal
350
F
100
AcDbDictionaryWithDefault
340
F
  0
DICTIONARY
  5
47
102
{ACAD_REACTORS
330
C
102
}
330
C
100
AcDbDictionary
281
     1
  3
A0
350
48
  3
A1
350
49
  3
A2
350
4A
  3
A3
350
4B
  3
A4
350
4C
  3
A5
350
4D
  3
A6
350
4E
  3
A7
350
4F
  3
A8
350
50
  3
A9
350
51
  3
B0
350
52
  3
B1
350
53
  3
B2
350
54
  3
B3
350
55
  3
B4
350
56
  3
B5
350
57
  3
B6
350
58
  3
B7
350
59
  3
B8
350
5A
  3
B9
350
5B
  3
C0
350
5C
  3
C1
350
5D
  3
C2
350
5E
  3
C3
350
5F
  3
C4
350
60
  3
C5
350
61
  3
C6
350
62
  3
C7
350
63
  3
C8
350
64
  3
C9
350
65
  3
D0
350
66
  3
D1
350
67
  3
D2
350
68
  0
DICTIONARY
  5
15B
102
{ACAD_REACTORS
330
C
102
}
330
C
100
AcDbDictionary
281
     1
  0
XRECORD
  5
357
102
{ACAD_REACTORS
330
C
102
}
330
C
100
AcDbXrecord
280
     1
  1
DWGPROPS COOKIE
  2

  3

  4

  6

  7

  8
12011056
  9

300
=
301
=
302
=
303
=
304
=
305
=
306
=
307
=
308
=
309
=
 40
0.0
 41
2458313.050802454
 42
2459719.266010359
  1

 90
        0
  0
DICTIONARY
  5
218
102
{ACAD_REACTORS
330
217
102
}
330
217
100
AcDbDictionary
281
     1
  0
DICTIONARY
  5
356
102
{ACAD_REACTORS
330
355
102
}
330
355
100
AcDbDictionary
281
     1
  0
LAYOUT
  5
1E
102
{ACAD_REACTORS
330
1A
102
}
330
1A
100
AcDbPlotSettings
  1

  2
none_device
  4

  6

 40
0.0
 41
0.0
 42
0.0
 43
0.0
 44
0.0
 45
0.0
 46
0.0
 47
0.0
 48
0.0
 49
0.0
140
0.0
141
0.0
142
1.0
143
1.0
 70
   688
 72
     1
 73
     0
 74
     5
  7

 75
    16
147
1.0
148
0.0
149
0.0
100
AcDbLayout
  1
Layout1
 70
     1
 71
     1
 10
0.0
 20
0.0
 11
420.0
 21
297.0
 12
0.0
 22
0.0
 32
0.0
 14
1.000000000000000E+20
 24
1.000000000000000E+20
 34
1.000000000000000E+20
 15
-1.000000000000000E+20
 25
-1.000000000000000E+20
 35
-1.000000000000000E+20
146
0.0
 13
0.0
 23
0.0
 33
0.0
 16
1.0
 26
0.0
 36
0.0
 17
0.0
 27
1.0
 37
0.0
 76
     0
330
1B
  0
LAYOUT
  5
26
102
{ACAD_REACTORS
330
1A
102
}
330
1A
100
AcDbPlotSettings
  1

  2
none_device
  4

  6

 40
0.0
 41
0.0
 42
0.0
 43
0.0
 44
0.0
 45
0.0
 46
0.0
 47
0.0
 48
0.0
 49
0.0
140
0.0
141
0.0
142
1.0
143
1.0
 70
   688
 72
     1
 73
     0
 74
     5
  7

 75
    16
147
1.0
148
0.0
149
0.0
100
AcDbLayout
  1
Layout2
 70
     1
 71
     2
 10
0.0
 20
0.0
 11
0.0
 21
0.0
 12
0.0
 22
0.0
 32
0.0
 14
0.0
 24
0.0
 34
0.0
 15
0.0
 25
0.0
 35
0.0
146
0.0
 13
0.0
 23
0.0
 33
0.0
 16
1.0
 26
0.0
 36
0.0
 17
0.0
 27
1.0
 37
0.0
 76
     0
330
23
  0
LAYOUT
  5
22
102
{ACAD_REACTORS
330
1A
102
}
330
1A
100
AcDbPlotSettings
  1

  2
none_device
  4
ANSI_A_(11.00_x_8.50_Inches)
  6

 40
6.35
 41
19.05
 42
6.35000508
 43
19.05000254
 44
279.4
 45
215.9
 46
76.54512682516504
 47
68.36420077241368
 48
0.0
 49
0.0
140
0.0
141
0.0
142
0.0502857535044045
143
1.0
 70
  1696
 72
     0
 73
     0
 74
     0
  7

 75
     0
147
0.0235690232323232
148
0.0
149
0.0
100
AcDbLayout
  1
Model
 70
     1
 71
     0
 10
0.0
 20
0.0
 11
420.0
 21
297.0
 12
0.0
 22
0.0
 32
0.0
 14
-44.93319206286981
 24
-39.99892507127611
 34
0.0
 15
81.21241335422454
 25
41.17000000000003
 35
0.0
146
0.0
 13
0.0
 23
0.0
 33
0.0
 16
1.0
 26
0.0
 36
0.0
 17
0.0
 27
1.0
 37
0.0
 76
     0
330
1F
331
29
  0
MLINESTYLE
  5
18
102
{ACAD_REACTORS
330
17
102
}
330
17
100
AcDbMlineStyle
  2
Standard
 70
     0
  3

 62
   256
 51
90.0
 52
90.0
 71
     2
 49
0.5
 62
   256
  6
BYLAYER
 49
-0.5
 62
   256
  6
BYLAYER
  0
ACDBPLACEHOLDER
  5
F
102
{ACAD_REACTORS
330
E
102
}
330
E
  0
SCALE
  5
48
102
{ACAD_REACTORS
330
47
102
}
330
47
100
AcDbScale
 70
     0
300
1:1
140
1.0
141
1.0
290
     1
  0
SCALE
  5
49
102
{ACAD_REACTORS
330
47
102
}
330
47
100
AcDbScale
 70
     0
300
1:2
140
1.0
141
2.0
290
     0
  0
SCALE
  5
4A
102
{ACAD_REACTORS
330
47
102
}
330
47
100
AcDbScale
 70
     0
300
1:4
140
1.0
141
4.0
290
     0
  0
SCALE
  5
4B
102
{ACAD_REACTORS
330
47
102
}
330
47
100
AcDbScale
 70
     0
300
1:5
140
1.0
141
5.0
290
     0
  0
SCALE
  5
4C
102
{ACAD_REACTORS
330
47
102
}
330
47
100
AcDbScale
 70
     0
300
1:8
140
1.0
141
8.0
290
     0
  0
SCALE
  5
4D
102
{ACAD_REACTORS
330
47
102
}
330
47
100
AcDbScale
 70
     0
300
1:10
140
1.0
141
10.0
290
     0
  0
SCALE
  5
4E
102
{ACAD_REACTORS
330
47
102
}
330
47
100
AcDbScale
 70
     0
300
1:16
140
1.0
141
16.0
290
     0
  0
SCALE
  5
4F
102
{ACAD_REACTORS
330
47
102
}
330
47
100
AcDbScale
 70
     0
300
1:20
140
1.0
141
20.0
290
     0
  0
SCALE
  5
50
102
{ACAD_REACTORS
330
47
102
}
330
47
100
AcDbScale
 70
     0
300
1:30
140
1.0
141
30.0
290
     0
  0
SCALE
  5
51
102
{ACAD_REACTORS
330
47
102
}
330
47
100
AcDbScale
 70
     0
300
1:40
140
1.0
141
40.0
290
     0
  0
SCALE
  5
52
102
{ACAD_REACTORS
330
47
102
}
330
47
100
AcDbScale
 70
     0
300
1:50
140
1.0
141
50.0
290
     0
  0
SCALE
  5
53
102
{ACAD_REACTORS
330
47
102
}
330
47
100
AcDbScale
 70
     0
300
1:100
140
1.0
141
100.0
290
     0
  0
SCALE
  5
54
102
{ACAD_REACTORS
330
47
102
}
330
47
100
AcDbScale
 70
     0
300
2:1
140
2.0
141
1.0
290
     0
  0
SCALE
  5
55
102
{ACAD_REACTORS
330
47
102
}
330
47
100
AcDbScale
 70
     0
300
4:1
140
4.0
141
1.0
290
     0
  0
SCALE
  5
56
102
{ACAD_REACTORS
330
47
102
}
330
47
100
AcDbScale
 70
     0
300
8:1
140
8.0
141
1.0
290
     0
  0
SCALE
  5
57
102
{ACAD_REACTORS
330
47
102
}
330
47
100
AcDbScale
 70
     0
300
10:1
140
10.0
141
1.0
290
     0
  0
SCALE
  5
58
102
{ACAD_REACTORS
330
47
102
}
330
47
100
AcDbScale
 70
     0
300
100:1
140
100.0
141
1.0
290
     0
  0
SCALE
  5
59
102
{ACAD_REACTORS
330
47
102
}
330
47
100
AcDbScale
 70
     0
300
1/128" = 1'-0"
140
0.0078125
141
12.0
290
     0
  0
SCALE
  5
5A
102
{ACAD_REACTORS
330
47
102
}
330
47
100
AcDbScale
 70
     0
300
1/64" = 1'-0"
140
0.015625
141
12.0
290
     0
  0
SCALE
  5
5B
102
{ACAD_REACTORS
330
47
102
}
330
47
100
AcDbScale
 70
     0
300
1/32" = 1'-0"
140
0.03125
141
12.0
290
     0
  0
SCALE
  5
5C
102
{ACAD_REACTORS
330
47
102
}
330
47
100
AcDbScale
 70
     0
300
1/16" = 1'-0"
140
0.0625
141
12.0
290
     0
  0
SCALE
  5
5D
102
{ACAD_REACTORS
330
47
102
}
330
47
100
AcDbScale
 70
     0
300
3/32" = 1'-0"
140
0.09375
141
12.0
290
     0
  0
SCALE
  5
5E
102
{ACAD_REACTORS
330
47
102
}
330
47
100
AcDbScale
 70
     0
300
1/8" = 1'-0"
140
0.125
141
12.0
290
     0
  0
SCALE
  5
5F
102
{ACAD_REACTORS
330
47
102
}
330
47
100
AcDbScale
 70
     0
300
3/16" = 1'-0"
140
0.1875
141
12.0
290
     0
  0
SCALE
  5
60
102
{ACAD_REACTORS
330
47
102
}
330
47
100
AcDbScale
 70
     0
300
1/4" = 1'-0"
140
0.25
141
12.0
290
     0
  0
SCALE
  5
61
102
{ACAD_REACTORS
330
47
102
}
330
47
100
AcDbScale
 70
     0
300
3/8" = 1'-0"
140
0.375
141
12.0
290
     0
  0
SCALE
  5
62
102
{ACAD_REACTORS
330
47
102
}
330
47
100
AcDbScale
 70
     0
300
1/2" = 1'-0"
140
0.5
141
12.0
290
     0
  0
SCALE
  5
63
102
{ACAD_REACTORS
330
47
102
}
330
47
100
AcDbScale
 70
     0
300
3/4" = 1'-0"
140
0.75
141
12.0
290
     0
  0
SCALE
  5
64
102
{ACAD_REACTORS
330
47
102
}
330
47
100
AcDbScale
 70
     0
300
1" = 1'-0"
140
1.0
141
12.0
290
     0
  0
SCALE
  5
65
102
{ACAD_REACTORS
330
47
102
}
330
47
100
AcDbScale
 70
     0
300
1-1/2" = 1'-0"
140
1.5
141
12.0
290
     0
  0
SCALE
  5
66
102
{ACAD_REACTORS
330
47
102
}
330
47
100
AcDbScale
 70
     0
300
3" = 1'-0"
140
3.0
141
12.0
290
     0
  0
SCALE
  5
67
102
{ACAD_REACTORS
330
47
102
}
330
47
100
AcDbScale
 70
     0
300
6" = 1'-0"
140
6.0
141
12.0
290
     0
  0
SCALE
  5
68
102
{ACAD_REACTORS
330
47
102
}
330
47
100
AcDbScale
 70
     0
300
1'-0" = 1'-0"
140
12.0
141
12.0
290
     0
  0
ENDSEC
  0
EOF
