  0
SECTION
  2
HEADER
  9
$ACADVER
  1
AC1015
  9
$ACADMAINTVER
 70
     6
  9
$DWGCODEPAGE
  3
ANSI_949
  9
$INSBASE
 10
0.0
 20
0.0
 30
0.0
  9
$EXTMIN
 10
-31.88818063649716
 20
-39.99892507127612
 30
0.0
  9
$EXTMAX
 10
81.41936447236121
 20
31.93899541124943
 30
0.0
  9
$LIMMIN
 10
0.0
 20
0.0
  9
$LIMMAX
 10
420.0
 20
297.0
  9
$ORTHOMODE
 70
     0
  9
$REGENMODE
 70
     1
  9
$FILLMODE
 70
     1
  9
$QTEXTMODE
 70
     0
  9
$MIRRTEXT
 70
     1
  9
$LTSCALE
 40
1.0
  9
$ATTMODE
 70
     1
  9
$TEXTSIZE
 40
3.5
  9
$TRACEWID
 40
1.0
  9
$TEXTSTYLE
  7
Standard
  9
$CLAYER
  8
0
  9
$CELTYPE
  6
ByLayer
  9
$CECOLOR
 62
   256
  9
$CELTSCALE
 40
1.0
  9
$DISPSILH
 70
     0
  9
$DIMSCALE
 40
1.0
  9
$DIMASZ
 40
3.302
  9
$DIMEXO
 40
1.0
  9
$DIMDLI
 40
3.75
  9
$DIMRND
 40
0.0
  9
$DIMDLE
 40
0.0
  9
$DIMEXE
 40
1.0
  9
$DIMTP
 40
0.0
  9
$DIMTM
 40
0.0
  9
$DIMTXT
 40
3.5
  9
$DIMCEN
 40
2.5
  9
$DIMTSZ
 40
0.0
  9
$DIMTOL
 70
     0
  9
$DIMLIM
 70
     0
  9
$DIMTIH
 70
     1
  9
$DIMTOH
 70
     1
  9
$DIMSE1
 70
     0
  9
$DIMSE2
 70
     0
  9
$DIMTAD
 70
     1
  9
$DIMZIN
 70
     0
  9
$DIMBLK
  1

  9
$DIMASO
 70
     1
  9
$DIMSHO
 70
     1
  9
$DIMPOST
  1

  9
$DIMAPOST
  1

  9
$DIMALT
 70
     0
  9
$DIMALTD
 70
     3
  9
$DIMALTF
 40
0.0393700787401575
  9
$DIMLFAC
 40
1.0
  9
$DIMTOFL
 70
     1
  9
$DIMTVP
 40
0.0
  9
$DIMTIX
 70
     0
  9
$DIMSOXD
 70
     0
  9
$DIMSAH
 70
     0
  9
$DIMBLK1
  1

  9
$DIMBLK2
  1

  9
$DIMSTYLE
  2
ISO-25
  9
$DIMCLRD
 70
     0
  9
$DIMCLRE
 70
     0
  9
$DIMCLRT
 70
     0
  9
$DIMTFAC
 40
1.0
  9
$DIMGAP
 40
1.524
  9
$DIMJUST
 70
     0
  9
$DIMSD1
 70
     0
  9
$DIMSD2
 70
     0
  9
$DIMTOLJ
 70
     0
  9
$DIMTZIN
 70
     0
  9
$DIMALTZ
 70
     0
  9
$DIMALTTZ
 70
     0
  9
$DIMUPT
 70
     0
  9
$DIMDEC
 70
     2
  9
$DIMTDEC
 70
     2
  9
$DIMALTU
 70
     2
  9
$DIMALTTD
 70
     3
  9
$DIMTXSTY
  7
Standard
  9
$DIMAUNIT
 70
     0
  9
$DIMADEC
 70
     2
  9
$DIMALTRND
 40
0.0
  9
$DIMAZIN
 70
     0
  9
$DIMDSEP
 70
    44
  9
$DIMATFIT
 70
     3
  9
$DIMFRAC
 70
     0
  9
$DIMLDRBLK
  1

  9
$DIMLUNIT
 70
     2
  9
$DIMLWD
 70
    -2
  9
$DIMLWE
 70
    -2
  9
$DIMTMOVE
 70
     0
  9
$LUNITS
 70
     2
  9
$LUPREC
 70
     2
  9
$SKETCHINC
 40
1.0
  9
$FILLETRAD
 40
10.0
  9
$AUNITS
 70
     0
  9
$AUPREC
 70
     2
  9
$MENU
  1
.
  9
$ELEVATION
 40
0.0
  9
$PELEVATION
 40
0.0
  9
$THICKNESS
 40
0.0
  9
$LIMCHECK
 70
     0
  9
$CHAMFERA
 40
0.0
  9
$CHAMFERB
 40
0.0
  9
$CHAMFERC
 40
0.0
  9
$CHAMFERD
 40
0.0
  9
$SKPOLY
 70
     0
  9
$TDCREATE
 40
2458313.496439676
  9
$TDUCREATE
 40
2458313.121439676
  9
$TDUPDATE
 40
2459719.644762824
  9
$TDUUPDATE
 40
2459719.269762824
  9
$TDINDWG
 40
0.0011107292
  9
$TDUSRTIMER
 40
0.0001472222
  9
$USRTIMER
 70
     1
  9
$ANGBASE
 50
0.0
  9
$ANGDIR
 70
     0
  9
$PDMODE
 70
     0
  9
$PDSIZE
 40
-1.0
  9
$PLINEWID
 40
0.0
  9
$SPLFRAME
 70
     0
  9
$SPLINETYPE
 70
     6
  9
$SPLINESEGS
 70
     8
  9
$HANDSEED
  5
34E
  9
$SURFTAB1
 70
     6
  9
$SURFTAB2
 70
     6
  9
$SURFTYPE
 70
     6
  9
$SURFU
 70
     6
  9
$SURFV
 70
     6
  9
$UCSBASE
  2

  9
$UCSNAME
  2

  9
$UCSORG
 10
0.0
 20
0.0
 30
0.0
  9
$UCSXDIR
 10
1.0
 20
0.0
 30
0.0
  9
$UCSYDIR
 10
0.0
 20
1.0
 30
0.0
  9
$UCSORTHOREF
  2

  9
$UCSORTHOVIEW
 70
     0
  9
$UCSORGTOP
 10
0.0
 20
0.0
 30
0.0
  9
$UCSORGBOTTOM
 10
0.0
 20
0.0
 30
0.0
  9
$UCSORGLEFT
 10
0.0
 20
0.0
 30
0.0
  9
$UCSORGRIGHT
 10
0.0
 20
0.0
 30
0.0
  9
$UCSORGFRONT
 10
0.0
 20
0.0
 30
0.0
  9
$UCSORGBACK
 10
0.0
 20
0.0
 30
0.0
  9
$PUCSBASE
  2

  9
$PUCSNAME
  2

  9
$PUCSORG
 10
0.0
 20
0.0
 30
0.0
  9
$PUCSXDIR
 10
1.0
 20
0.0
 30
0.0
  9
$PUCSYDIR
 10
0.0
 20
1.0
 30
0.0
  9
$PUCSORTHOREF
  2

  9
$PUCSORTHOVIEW
 70
     0
  9
$PUCSORGTOP
 10
0.0
 20
0.0
 30
0.0
  9
$PUCSORGBOTTOM
 10
0.0
 20
0.0
 30
0.0
  9
$PUCSORGLEFT
 10
0.0
 20
0.0
 30
0.0
  9
$PUCSORGRIGHT
 10
0.0
 20
0.0
 30
0.0
  9
$PUCSORGFRONT
 10
0.0
 20
0.0
 30
0.0
  9
$PUCSORGBACK
 10
0.0
 20
0.0
 30
0.0
  9
$USERI1
 70
     0
  9
$USERI2
 70
     0
  9
$USERI3
 70
     0
  9
$USERI4
 70
     0
  9
$USERI5
 70
     0
  9
$USERR1
 40
0.0
  9
$USERR2
 40
0.0
  9
$USERR3
 40
0.0
  9
$USERR4
 40
0.0
  9
$USERR5
 40
0.0
  9
$WORLDVIEW
 70
     1
  9
$SHADEDGE
 70
     3
  9
$SHADEDIF
 70
    70
  9
$TILEMODE
 70
     1
  9
$MAXACTVP
 70
    64
  9
$PINSBASE
 10
0.0
 20
0.0
 30
0.0
  9
$PLIMCHECK
 70
     0
  9
$PEXTMIN
 10
1.000000000000000E+20
 20
1.000000000000000E+20
 30
1.000000000000000E+20
  9
$PEXTMAX
 10
-1.000000000000000E+20
 20
-1.000000000000000E+20
 30
-1.000000000000000E+20
  9
$PLIMMIN
 10
0.0
 20
0.0
  9
$PLIMMAX
 10
0.0
 20
0.0
  9
$UNITMODE
 70
     0
  9
$VISRETAIN
 70
     1
  9
$PLINEGEN
 70
     0
  9
$PSLTSCALE
 70
     1
  9
$TREEDEPTH
 70
  3020
  9
$CMLSTYLE
  2
Standard
  9
$CMLJUST
 70
     0
  9
$CMLSCALE
 40
20.0
  9
$PROXYGRAPHICS
 70
     1
  9
$MEASUREMENT
 70
     1
  9
$CELWEIGHT
370
    -1
  9
$ENDCAPS
280
     0
  9
$JOINSTYLE
280
     0
  9
$LWDISPLAY
290
     1
  9
$INSUNITS
 70
     4
  9
$HYPERLINKBASE
  1

  9
$STYLESHEET
  1

  9
$XEDIT
290
     1
  9
$CEPSNTYPE
380
     0
  9
$PSTYLEMODE
290
     1
  9
$FINGERPRINTGUID
  2
{4E3AC63A-0A86-4784-9AAA-E4B49B552521}
  9
$VERSIONGUID
  2
{FAEB1C32-E019-11D5-929B-00C0DF256EC4}
  9
$EXTNAMES
290
     1
  9
$PSVPSCALE
 40
0.0
  9
$OLESTARTUP
290
     0
  0
ENDSEC
  0
SECTION
  2
CLASSES
  0
CLASS
  1
ACDBDICTIONARYWDFLT
  2
AcDbDictionaryWithDefault
  3
ObjectDBX Classes
 90
        0
280
     0
281
     0
  0
CLASS
  1
VISUALSTYLE
  2
AcDbVisualStyle
  3
ObjectDBX Classes
 90
     4095
280
     0
281
     0
  0
CLASS
  1
MATERIAL
  2
AcDbMaterial
  3
ObjectDBX Classes
 90
     1153
280
     0
281
     0
  0
CLASS
  1
SCALE
  2
AcDbScale
  3
ObjectDBX Classes
 90
     1153
280
     0
281
     0
  0
CLASS
  1
SUN
  2
AcDbSun
  3
SCENEOE
 90
     1153
280
     0
281
     0
  0
CLASS
  1
ACDBPLACEHOLDER
  2
AcDbPlaceHolder
  3
ObjectDBX Classes
 90
        0
280
     0
281
     0
  0
CLASS
  1
LAYOUT
  2
AcDbLayout
  3
ObjectDBX Classes
 90
        0
280
     0
281
     0
  0
CLASS
  1
TABLESTYLE
  2
AcDbTableStyle
  3
ObjectDBX Classes
 90
     4095
280
     0
281
     0
  0
CLASS
  1
MLEADERSTYLE
  2
AcDbMLeaderStyle
  3
ACDB_MLEADERSTYLE_CLASS
 90
     4095
280
     0
281
     0
  0
CLASS
  1
RASTERVARIABLES
  2
AcDbRasterVariables
  3
ISM
 90
        0
280
     0
281
     0
  0
ENDSEC
  0
SECTION
  2
TABLES
  0
TABLE
  2
VPORT
  5
8
330
0
100
AcDbSymbolTable
 70
     1
  0
VPORT
  5
29
330
8
100
AcDbSymbolTableRecord
100
AcDbViewportTableRecord
  2
*Active
 70
     0
 10
0.0
 20
0.0
 11
1.0
 21
1.0
 12
2.301471150402111
 22
2.96507112120759
 13
0.0
 23
0.0
 14
10.0
 24
10.0
 15
10.0
 25
10.0
 16
0.0
 26
0.0
 36
1.0
 17
0.0
 27
0.0
 37
0.0
 40
75.58567496775366
 41
1.519944979367263
 42
50.0
 43
0.0
 44
0.0
 50
0.0
 51
0.0
 71
    16
 72
  2000
 73
     1
 74
     3
 75
     0
 76
     0
 77
     0
 78
     0
281
     0
 65
     1
110
0.0
120
0.0
130
0.0
111
1.0
121
0.0
131
0.0
112
0.0
122
1.0
132
0.0
 79
     0
146
0.0
  0
ENDTAB
  0
TABLE
  2
LTYPE
  5
5
330
0
100
AcDbSymbolTable
 70
     6
  0
LTYPE
  5
14
330
5
100
AcDbSymbolTableRecord
100
AcDbLinetypeTableRecord
  2
ByBlock
 70
     0
  3

 72
    65
 73
     0
 40
0.0
  0
LTYPE
  5
15
330
5
100
AcDbSymbolTableRecord
100
AcDbLinetypeTableRecord
  2
ByLayer
 70
     0
  3

 72
    65
 73
     0
 40
0.0
  0
LTYPE
  5
16
330
5
100
AcDbSymbolTableRecord
100
AcDbLinetypeTableRecord
  2
Continuous
 70
     0
  3
Solid line
 72
    65
 73
     0
 40
0.0
  0
LTYPE
  5
6A
330
5
100
AcDbSymbolTableRecord
100
AcDbLinetypeTableRecord
  2
HIDDEN
 70
     0
  3
Hidden __ __ __ __ __ __ __ __ __ __ __ __ __ __
 72
    65
 73
     2
 40
1.905
 49
1.27
 74
     0
 49
-0.635
 74
     0
  0
LTYPE
  5
6B
330
5
100
AcDbSymbolTableRecord
100
AcDbLinetypeTableRecord
  2
PHANTOM
 70
     0
  3
Phantom ______  __  __  ______  __  __  ______
 72
    65
 73
     6
 40
12.7
 49
6.35
 74
     0
 49
-1.27
 74
     0
 49
1.27
 74
     0
 49
-1.27
 74
     0
 49
1.27
 74
     0
 49
-1.27
 74
     0
  0
LTYPE
  5
6C
330
5
100
AcDbSymbolTableRecord
100
AcDbLinetypeTableRecord
  2
CENTER
 70
     0
  3
Center ____ _ ____ _ ____ _ ____ _ ____ _ ____
 72
    65
 73
     4
 40
10.16
 49
6.35
 74
     0
 49
-1.27
 74
     0
 49
1.27
 74
     0
 49
-1.27
 74
     0
  0
LTYPE
  5
6D
330
5
100
AcDbSymbolTableRecord
100
AcDbLinetypeTableRecord
  2
CENTERX2
 70
     0
  3
Center (2x) ________  __  ________  __  _____
 72
    65
 73
     4
 40
20.32
 49
12.7
 74
     0
 49
-2.54
 74
     0
 49
2.54
 74
     0
 49
-2.54
 74
     0
  0
LTYPE
  5
6E
330
5
100
AcDbSymbolTableRecord
100
AcDbLinetypeTableRecord
  2
DOT2
 70
     0
  3
Dot (.5x) ........................................
 72
    65
 73
     2
 40
0.635
 49
0.0
 74
     0
 49
-0.635
 74
     0
  0
ENDTAB
  0
TABLE
  2
LAYER
  5
2
330
0
100
AcDbSymbolTable
 70
    18
  0
LAYER
  5
10
330
2
100
AcDbSymbolTableRecord
100
AcDbLayerTableRecord
  2
0
 70
     0
 62
     7
  6
Continuous
370
    -3
390
F
  0
LAYER
  5
6F
330
2
100
AcDbSymbolTableRecord
100
AcDbLayerTableRecord
  2
FORMAT
 70
     0
 62
     2
  6
Continuous
370
    -3
390
F
  0
LAYER
  5
70
330
2
100
AcDbSymbolTableRecord
100
AcDbLayerTableRecord
  2
외형선
 70
     0
 62
     4
  6
Continuous
370
    30
390
F
  0
LAYER
  5
71
330
2
100
AcDbSymbolTableRecord
100
AcDbLayerTableRecord
  2
숨은선
 70
     0
 62
     2
  6
HIDDEN
370
    15
390
F
  0
LAYER
  5
72
330
2
100
AcDbSymbolTableRecord
100
AcDbLayerTableRecord
  2
중심선
 70
     0
 62
     1
  6
CENTERX2
370
    -3
390
F
  0
LAYER
  5
73
330
2
100
AcDbSymbolTableRecord
100
AcDbLayerTableRecord
  2
파단선
 70
     0
 62
     4
  6
Continuous
370
    -3
390
F
  0
LAYER
  5
74
330
2
100
AcDbSymbolTableRecord
100
AcDbLayerTableRecord
  2
해칭선
 70
     0
 62
   100
  6
Continuous
370
    -3
390
F
  0
LAYER
  5
75
330
2
100
AcDbSymbolTableRecord
100
AcDbLayerTableRecord
  2
가는실선
 70
     0
 62
     4
  6
Continuous
370
    -3
390
F
  0
LAYER
  5
76
330
2
100
AcDbSymbolTableRecord
100
AcDbLayerTableRecord
  2
치수_보조선
 70
     0
 62
     4
  6
Continuous
370
    -3
390
F
  0
LAYER
  5
77
330
2
100
AcDbSymbolTableRecord
100
AcDbLayerTableRecord
  2
치수문자_일반주서
 70
     0
 62
     7
  6
Continuous
370
    15
390
F
  0
LAYER
  5
78
330
2
100
AcDbSymbolTableRecord
100
AcDbLayerTableRecord
  2
개별주서
 70
     0
 62
   100
  6
Continuous
370
    30
390
F
  0
LAYER
  5
79
330
2
100
AcDbSymbolTableRecord
100
AcDbLayerTableRecord
  2
중간선
 70
     0
 62
     2
  6
Continuous
370
    15
390
F
  0
LAYER
  5
7A
330
2
100
AcDbSymbolTableRecord
100
AcDbLayerTableRecord
  2
윤곽선
 70
     0
 62
     3
  6
Continuous
370
    40
390
F
  0
LAYER
  5
7B
330
2
100
AcDbSymbolTableRecord
100
AcDbLayerTableRecord
  2
중심마크
 70
     0
 62
   100
  6
Continuous
370
    30
390
F
  0
LAYER
  5
7C
330
2
100
AcDbSymbolTableRecord
100
AcDbLayerTableRecord
  2
가상선
 70
     0
 62
     4
  6
PHANTOM
370
    -3
390
F
  0
LAYER
  5
7D
330
2
100
AcDbSymbolTableRecord
100
AcDbLayerTableRecord
  2
특수지정선
 70
     0
 62
     5
  6
CENTERX2
370
    60
390
F
  0
LAYER
  5
7E
330
2
100
AcDbSymbolTableRecord
100
AcDbLayerTableRecord
  2
참조1
 70
     0
 62
    -4
  6
Continuous
370
    -3
390
F
  0
LAYER
  5
152
330
2
100
AcDbSymbolTableRecord
100
AcDbLayerTableRecord
  2
Defpoints
 70
     0
 62
     7
  6
Continuous
290
     0
370
    -3
390
F
  0
ENDTAB
  0
TABLE
  2
STYLE
  5
3
330
0
100
AcDbSymbolTable
 70
     2
  0
STYLE
  5
11
330
3
100
AcDbSymbolTableRecord
100
AcDbTextStyleTableRecord
  2
Standard
 70
     0
 40
0.0
 41
1.0
 50
0.0
 71
     0
 42
3.5
  3
txt
  4

  0
STYLE
  5
94
330
3
100
AcDbSymbolTableRecord
100
AcDbTextStyleTableRecord
  2
SLDTEXTSTYLE0
 70
     0
 40
0.0
 41
0.75
 50
0.0
 71
     0
 42
3.5
  3
TXT
  4

  0
ENDTAB
  0
TABLE
  2
VIEW
  5
6
330
0
100
AcDbSymbolTable
 70
     0
  0
ENDTAB
  0
TABLE
  2
UCS
  5
7
330
0
100
AcDbSymbolTable
 70
     0
  0
ENDTAB
  0
TABLE
  2
APPID
  5
9
330
0
100
AcDbSymbolTable
 70
     1
  0
APPID
  5
12
330
9
100
AcDbSymbolTableRecord
100
AcDbRegAppTableRecord
  2
ACAD
 70
     0
  0
ENDTAB
  0
TABLE
  2
DIMSTYLE
  5
A
330
0
100
AcDbSymbolTable
 70
     3
100
AcDbDimStyleTable
  0
DIMSTYLE
105
27
330
A
100
AcDbSymbolTableRecord
100
AcDbDimStyleTableRecord
  2
ISO-25
 70
     0
 41
2.5
 42
0.625
 43
3.75
 44
1.25
 73
     0
 74
     0
 77
     1
 78
     8
140
2.5
141
2.5
143
0.03937007874016
147
0.625
171
     3
172
     1
178
     0
271
     2
272
     2
274
     3
278
    44
283
     0
284
     8
340
11
  0
DIMSTYLE
105
CE
102
{ACAD_REACTORS
330
CD
330
E2
330
10B
330
F7
102
}
330
A
100
AcDbSymbolTableRecord
100
AcDbDimStyleTableRecord
  2
SLDDIMSTYLE0
 70
     0
 41
3.302
 44
0.0
 45
0.000000001
 73
     0
 74
     0
 77
     1
 78
    12
 79
     3
140
3.5
143
0.0393700787401575
147
0.875
148
0.000000001
170
     1
172
     1
173
     1
178
     0
271
     2
272
     2
276
     2
284
    12
289
     0
340
94
  0
DIMSTYLE
105
F8
330
A
100
AcDbSymbolTableRecord
100
AcDbDimStyleTableRecord
  2
SLDDIMSTYLE1
 70
     0
 41
3.302
 44
0.0
 45
0.000000001
 73
     0
 74
     0
 77
     1
 78
     4
 79
     1
140
3.5
143
0.0393700787401575
147
0.875
148
0.000000001
170
     1
173
     1
178
     0
271
     2
272
     2
276
     2
284
    12
340
94
  0
ENDTAB
  0
TABLE
  2
BLOCK_RECORD
  5
1
330
0
100
AcDbSymbolTable
 70
    18
  0
BLOCK_RECORD
  5
1F
102
{ACAD_XDICTIONARY
360
34B
102
}
330
1
100
AcDbSymbolTableRecord
100
AcDbBlockTableRecord
  2
*Model_Space
340
22
  0
BLOCK_RECORD
  5
1B
330
1
100
AcDbSymbolTableRecord
100
AcDbBlockTableRecord
  2
*Paper_Space
340
1E
  0
BLOCK_RECORD
  5
23
330
1
100
AcDbSymbolTableRecord
100
AcDbBlockTableRecord
  2
*Paper_Space0
340
26
  0
BLOCK_RECORD
  5
7F
330
1
100
AcDbSymbolTableRecord
100
AcDbBlockTableRecord
  2
블럭10
340
0
102
{BLKREFS
331
C6
102
}
  0
BLOCK_RECORD
  5
CF
330
1
100
AcDbSymbolTableRecord
100
AcDbBlockTableRecord
  2
_D
340
0
  0
BLOCK_RECORD
  5
E3
330
1
100
AcDbSymbolTableRecord
100
AcDbBlockTableRecord
  2
_D_1
340
0
  0
BLOCK_RECORD
  5
F9
330
1
100
AcDbSymbolTableRecord
100
AcDbBlockTableRecord
  2
_D_2
340
0
  0
BLOCK_RECORD
  5
10C
330
1
100
AcDbSymbolTableRecord
100
AcDbBlockTableRecord
  2
_D_3
340
0
  0
BLOCK_RECORD
  5
126
330
1
100
AcDbSymbolTableRecord
100
AcDbBlockTableRecord
  2
SW_DOWELSYMBOL_0
340
0
102
{BLKREFS
331
12C
102
}
  0
BLOCK_RECORD
  5
20C
330
1
100
AcDbSymbolTableRecord
100
AcDbBlockTableRecord
  2
*D7
340
0
  0
BLOCK_RECORD
  5
21B
330
1
100
AcDbSymbolTableRecord
100
AcDbBlockTableRecord
  2
*D8
340
0
  0
BLOCK_RECORD
  5
227
330
1
100
AcDbSymbolTableRecord
100
AcDbBlockTableRecord
  2
*D9
340
0
  0
BLOCK_RECORD
  5
236
330
1
100
AcDbSymbolTableRecord
100
AcDbBlockTableRecord
  2
*D10
340
0
  0
BLOCK_RECORD
  5
297
330
1
100
AcDbSymbolTableRecord
100
AcDbBlockTableRecord
  2
*D11
340
0
  0
BLOCK_RECORD
  5
2A6
330
1
100
AcDbSymbolTableRecord
100
AcDbBlockTableRecord
  2
*D12
340
0
  0
BLOCK_RECORD
  5
2B2
330
1
100
AcDbSymbolTableRecord
100
AcDbBlockTableRecord
  2
*D13
340
0
  0
BLOCK_RECORD
  5
2C1
330
1
100
AcDbSymbolTableRecord
100
AcDbBlockTableRecord
  2
*D14
340
0
  0
BLOCK_RECORD
  5
2FD
330
1
100
AcDbSymbolTableRecord
100
AcDbBlockTableRecord
  2
*D15
340
0
  0
BLOCK_RECORD
  5
30C
330
1
100
AcDbSymbolTableRecord
100
AcDbBlockTableRecord
  2
*D16
340
0
  0
BLOCK_RECORD
  5
31B
330
1
100
AcDbSymbolTableRecord
100
AcDbBlockTableRecord
  2
*D17
340
0
  0
ENDTAB
  0
ENDSEC
  0
SECTION
  2
BLOCKS
  0
BLOCK
  5
20
330
1F
100
AcDbEntity
  8
0
100
AcDbBlockBegin
  2
*Model_Space
 70
     0
 10
0.0
 20
0.0
 30
0.0
  3
*Model_Space
  1
*Model_Space
  0
ENDBLK
  5
21
330
1F
100
AcDbEntity
  8
0
100
AcDbBlockEnd
  0
BLOCK
  5
1C
330
1B
100
AcDbEntity
 67
     1
  8
0
100
AcDbBlockBegin
  2
*Paper_Space
 70
     0
 10
0.0
 20
0.0
 30
0.0
  3
*Paper_Space
  1
*Paper_Space
  0
ENDBLK
  5
1D
330
1B
100
AcDbEntity
 67
     1
  8
0
100
AcDbBlockEnd
  0
BLOCK
  5
24
330
23
100
AcDbEntity
  8
0
100
AcDbBlockBegin
  2
*Paper_Space0
 70
     0
 10
0.0
 20
0.0
 30
0.0
  3
*Paper_Space0
  1
*Paper_Space0
  0
ENDBLK
  5
25
330
23
100
AcDbEntity
  8
0
100
AcDbBlockEnd
  0
BLOCK
  5
80
330
7F
100
AcDbEntity
  8
0
100
AcDbBlockBegin
  2
블럭10
 70
     2
 10
0.0
 20
0.0
 30
0.0
  3
블럭10
  1
블럭10
  0
ELLIPSE
  5
82
330
7F
100
AcDbEntity
  8
중심선
100
AcDbEllipse
 10
20.54032771741204
 20
12.0471743016438
 30
0.0
 11
6.600054785286829
 21
-1.261213355974178E-13
 31
0.0
210
0.0
220
0.0
230
1.0
 40
0.636358354079598
 41
0.9219305317359503
 42
6.513795318482858
  0
ELLIPSE
  5
83
330
7F
100
AcDbEntity
  8
중심선
100
AcDbEllipse
 10
20.54032771746488
 20
12.04717430159265
 30
0.0
 11
3.960054785062283
 21
1.540847449632565E-10
 31
0.0
210
0.0
220
0.0
230
1.0
 40
0.3939339440162632
 41
1.131841032648279
 42
5.62031148352944
  0
LINE
  5
84
330
7F
100
AcDbEntity
  8
중심선
100
AcDbLine
 10
2.268634060543552
 20
16.24717430164393
 30
0.0
 11
5.714909304380834
 21
16.24717430164393
 31
0.0
  0
LINE
  5
85
330
7F
100
AcDbEntity
  8
중심선
100
AcDbLine
 10
5.245725140726316
 20
7.84717430164391
 30
0.0
 11
8.692000384563599
 21
7.84717430164391
 31
0.0
  0
LINE
  5
86
330
7F
100
AcDbEntity
  8
중심선
100
AcDbLine
 10
15.74043728645272
 20
16.24717430164393
 30
0.0
 11
8.692000384563599
 21
7.84717430164391
 31
0.0
  0
LINE
  5
87
330
7F
100
AcDbEntity
  8
중심선
100
AcDbLine
 10
0.1404042013395286
 20
13.71084872107135
 30
0.0
 11
3.58671253028996
 21
13.71088815037384
 31
0.0
  0
LINE
  5
88
330
7F
100
AcDbEntity
  8
중심선
100
AcDbLine
 10
2.750260043222114
 20
10.84717430164391
 30
0.0
 11
6.196535287059397
 21
10.84717430164391
 31
0.0
  0
LINE
  5
89
330
7F
100
AcDbEntity
  8
중심선
100
AcDbLine
 10
12.29416204261559
 20
16.24717430164393
 30
0.0
 11
5.245725140726316
 21
7.84717430164391
 31
0.0
  0
LINE
  5
8A
330
7F
100
AcDbEntity
  8
중심선
100
AcDbLine
 10
10.72767329541681
 20
16.24717430164393
 30
0.0
 11
6.196535287059397
 21
10.84717430164391
 31
0.0
  0
LINE
  5
8B
330
7F
100
AcDbEntity
  8
중심선
100
AcDbLine
 10
7.28139805157953
 20
16.24717430164393
 30
0.0
 11
2.750260043222114
 21
10.84717430164391
 31
0.0
  0
LINE
  5
8C
330
7F
100
AcDbEntity
  8
중심선
100
AcDbLine
 10
5.714909304380834
 20
16.24717430164393
 30
0.0
 11
3.58671253028996
 21
13.71088815037384
 31
0.0
  0
LINE
  5
8D
330
7F
100
AcDbEntity
  8
중심선
100
AcDbLine
 10
2.268634060543552
 20
16.24717430164393
 30
0.0
 11
0.1404042013395286
 21
13.71084872107135
 31
0.0
  0
LINE
  5
8E
330
7F
100
AcDbEntity
  8
중심선
100
AcDbLine
 10
7.28139805157953
 20
16.24717430164393
 30
0.0
 11
10.72767329541681
 21
16.24717430164393
 31
0.0
  0
LINE
  5
8F
330
7F
100
AcDbEntity
  8
중심선
100
AcDbLine
 10
12.29416204261559
 20
16.24717430164393
 30
0.0
 11
15.74043728645272
 21
16.24717430164393
 31
0.0
  0
LINE
  5
90
330
7F
100
AcDbEntity
  8
중심선
100
AcDbLine
 10
19.22036997980202
 20
11.08717430171403
 30
0.0
 11
23.66174974927406
 21
11.08717430171406
 31
0.0
  0
LINE
  5
91
330
7F
100
AcDbEntity
  8
중심선
100
AcDbLine
 10
19.22039502424796
 20
13.00717430171391
 30
0.0
 11
19.22036997980202
 21
11.08717430171403
 31
0.0
  0
LINE
  5
92
330
7F
100
AcDbEntity
  8
중심선
100
AcDbLine
 10
19.22039502424796
 20
13.00717430171391
 30
0.0
 11
26.96566020931264
 21
13.00717430171391
 31
0.0
  0
LINE
  5
93
330
7F
100
AcDbEntity
  8
중심선
100
AcDbLine
 10
22.22332737316547
 20
13.45928029700563
 30
0.0
 11
24.52862924686651
 21
15.39360700705356
 31
0.0
  0
ATTDEF
  5
95
330
7F
100
AcDbEntity
  8
FORMAT
 62
     2
100
AcDbText
 10
4.408487351596664
 20
2.075366912832191
 30
0.0
 40
4.233333333333333
  1
E5023006
 41
0.75
  7
SLDTEXTSTYLE0
 11
4.408487351596664
 21
-0.0412997538344756
 31
0.0
100
AcDbAttributeDefinition
  3

  2
AUTOATTR0
 70
     0
 74
     1
  0
ENDBLK
  5
81
330
7F
100
AcDbEntity
  8
0
100
AcDbBlockEnd
  0
BLOCK
  5
D0
330
CF
100
AcDbEntity
  8
0
100
AcDbBlockBegin
  2
_D
 70
     0
 10
0.0
 20
0.0
 30
0.0
  3
_D
  1
_D
  0
LINE
  5
D2
330
CF
100
AcDbEntity
  8
치수문자_일반주서
 62
     0
370
    -2
100
AcDbLine
 10
19.11249999999999
 20
1.19062500000001
 30
0.0
 11
31.45407768345441
 21
1.190625000000056
 31
0.0
  0
LINE
  5
D3
330
CF
100
AcDbEntity
  8
치수문자_일반주서
 62
     0
370
    -2
100
AcDbLine
 10
19.11249999999999
 20
-1.19062499999999
 30
0.0
 11
31.45407768345441
 21
-1.190624999999944
 31
0.0
  0
LINE
  5
D4
330
CF
100
AcDbEntity
  8
치수문자_일반주서
 62
     0
370
    -2
100
AcDbLine
 10
31.45407768345441
 20
1.190625000000056
 30
0.0
 11
31.45407768345433
 21
27.31562500000005
 31
0.0
  0
LINE
  5
D5
330
CF
100
AcDbEntity
  8
치수문자_일반주서
 62
     0
370
    -2
100
AcDbLine
 10
31.45407768345441
 20
1.190625000000056
 30
0.0
 11
31.45407768345441
 21
-1.190624999999944
 31
0.0
  0
LINE
  5
D6
330
CF
100
AcDbEntity
  8
치수문자_일반주서
 62
     0
370
    -2
100
AcDbLine
 10
31.4540776834544
 20
3.690625000000056
 30
0.0
 11
31.45407768345439
 21
6.190625000000056
 31
0.0
  0
LINE
  5
D7
330
CF
100
AcDbEntity
  8
치수문자_일반주서
 62
     0
370
    -2
100
AcDbLine
 10
31.45407768345442
 20
-3.690624999999944
 30
0.0
 11
31.45407768345443
 21
-6.190624999999944
 31
0.0
  0
SOLID
  5
D8
330
CF
100
AcDbEntity
  8
치수문자_일반주서
 62
     0
100
AcDbTrace
 10
31.03741101678773
 20
3.690625000000054
 30
0.0
 11
31.87074435012107
 21
3.690625000000057
 31
0.0
 12
31.45407768345441
 22
1.190625000000056
 32
0.0
 13
31.45407768345441
 23
1.190625000000056
 33
0.0
  0
SOLID
  5
D9
330
CF
100
AcDbEntity
  8
치수문자_일반주서
 62
     0
100
AcDbTrace
 10
31.87074435012109
 20
-3.690624999999943
 30
0.0
 11
31.03741101678775
 21
-3.690624999999945
 31
0.0
 12
31.45407768345441
 22
-1.190624999999944
 32
0.0
 13
31.45407768345441
 23
-1.190624999999944
 33
0.0
  0
MTEXT
  5
DA
330
CF
100
AcDbEntity
  8
치수문자_일반주서
 62
     0
100
AcDbMText
 10
28.07907768345436
 20
16.75312500000004
 30
0.0
 40
2.5
 41
0.0
 71
     2
 72
     1
  1
\A1;%%c2.38 [3/32]
  7
SLDTEXTSTYLE0
 11
-2.983906501879686E-15
 21
1.0
 31
0.0
 73
     1
 44
1.0
  0
POINT
  5
DB
330
CF
100
AcDbEntity
  8
Defpoints
 62
     0
100
AcDbPoint
 10
19.04999999999999
 20
1.190625000000009
 30
0.0
  0
POINT
  5
DC
330
CF
100
AcDbEntity
  8
Defpoints
 62
     0
100
AcDbPoint
 10
19.04999999999999
 20
-1.190624999999991
 30
0.0
  0
POINT
  5
DD
330
CF
100
AcDbEntity
  8
Defpoints
 62
     0
100
AcDbPoint
 10
31.45407768345443
 20
-1.190624999999944
 30
0.0
  0
ENDBLK
  5
D1
330
CF
100
AcDbEntity
  8
0
100
AcDbBlockEnd
  0
BLOCK
  5
E4
330
E3
100
AcDbEntity
  8
0
100
AcDbBlockBegin
  2
_D_1
 70
     0
 10
0.0
 20
0.0
 30
0.0
  3
_D_1
  1
_D_1
  0
LINE
  5
E6
330
E3
100
AcDbEntity
  8
치수문자_일반주서
 62
     0
370
    -2
100
AcDbLine
 10
19.04999999999999
 20
1.248746585538411
 30
0.0
 11
19.04999999999999
 21
16.25525900110656
 31
0.0
  0
LINE
  5
E7
330
E3
100
AcDbEntity
  8
치수문자_일반주서
 62
     0
370
    -2
100
AcDbLine
 10
14.2875
 20
1.161638040113369
 30
0.0
 11
14.2875
 21
16.25525900110656
 31
0.0
  0
LINE
  5
E8
330
E3
100
AcDbEntity
  8
치수문자_일반주서
 62
     0
370
    -2
100
AcDbLine
 10
14.2875
 20
16.25525900110656
 30
0.0
 11
-11.67207751222549
 21
16.25525900110656
 31
0.0
  0
LINE
  5
E9
330
E3
100
AcDbEntity
  8
치수문자_일반주서
 62
     0
370
    -2
100
AcDbLine
 10
19.04999999999999
 20
16.25525900110656
 30
0.0
 11
14.2875
 21
16.25525900110656
 31
0.0
  0
LINE
  5
EA
330
E3
100
AcDbEntity
  8
치수문자_일반주서
 62
     0
370
    -2
100
AcDbLine
 10
21.54999999999999
 20
16.25525900110656
 30
0.0
 11
24.04999999999999
 21
16.25525900110656
 31
0.0
  0
LINE
  5
EB
330
E3
100
AcDbEntity
  8
치수문자_일반주서
 62
     0
370
    -2
100
AcDbLine
 10
11.7875
 20
16.25525900110656
 30
0.0
 11
9.287499999999998
 21
16.25525900110656
 31
0.0
  0
SOLID
  5
EC
330
E3
100
AcDbEntity
  8
치수문자_일반주서
 62
     0
100
AcDbTrace
 10
21.54999999999999
 20
16.67192566777323
 30
0.0
 11
21.54999999999999
 21
15.8385923344399
 31
0.0
 12
19.04999999999999
 22
16.25525900110656
 32
0.0
 13
19.04999999999999
 23
16.25525900110656
 33
0.0
  0
SOLID
  5
ED
330
E3
100
AcDbEntity
  8
치수문자_일반주서
 62
     0
100
AcDbTrace
 10
11.7875
 20
15.8385923344399
 30
0.0
 11
11.7875
 21
16.67192566777323
 31
0.0
 12
14.2875
 22
16.25525900110656
 32
0.0
 13
14.2875
 23
16.25525900110656
 33
0.0
  0
MTEXT
  5
EE
330
E3
100
AcDbEntity
  8
치수문자_일반주서
 62
     0
100
AcDbMText
 10
-2.359577512225492
 20
19.63025900110656
 30
0.0
 40
2.5
 41
0.0
 71
     2
 72
     1
  1
\A1;4.76 [3/16]
  7
SLDTEXTSTYLE0
 73
     1
 44
1.0
  0
POINT
  5
EF
330
E3
100
AcDbEntity
  8
Defpoints
 62
     0
100
AcDbPoint
 10
19.04999999999999
 20
1.186246585538411
 30
0.0
  0
POINT
  5
F0
330
E3
100
AcDbEntity
  8
Defpoints
 62
     0
100
AcDbPoint
 10
14.2875
 20
1.099138040113369
 30
0.0
  0
POINT
  5
F1
330
E3
100
AcDbEntity
  8
Defpoints
 62
     0
100
AcDbPoint
 10
14.2875
 20
16.25525900110656
 30
0.0
  0
ENDBLK
  5
E5
330
E3
100
AcDbEntity
  8
0
100
AcDbBlockEnd
  0
BLOCK
  5
FA
330
F9
100
AcDbEntity
  8
0
100
AcDbBlockBegin
  2
_D_2
 70
     0
 10
0.0
 20
0.0
 30
0.0
  3
_D_2
  1
_D_2
  0
LINE
  5
FC
330
F9
100
AcDbEntity
  8
치수문자_일반주서
 62
     0
370
    -2
100
AcDbLine
 10
19.04999999999999
 20
1.248746585538411
 30
0.0
 11
19.04999999999999
 21
28.56399541124943
 31
0.0
  0
LINE
  5
FD
330
F9
100
AcDbEntity
  8
치수문자_일반주서
 62
     0
370
    -2
100
AcDbLine
 10
-19.04999999999999
 20
1.253124999999993
 30
0.0
 11
-19.04999999999999
 21
28.56399541124943
 31
0.0
  0
LINE
  5
FE
330
F9
100
AcDbEntity
  8
치수문자_일반주서
 62
     0
370
    -2
100
AcDbLine
 10
16.54999999999999
 20
28.56399541124943
 30
0.0
 11
-16.54999999999999
 21
28.56399541124943
 31
0.0
  0
SOLID
  5
FF
330
F9
100
AcDbEntity
  8
치수문자_일반주서
 62
     0
100
AcDbTrace
 10
16.54999999999999
 20
28.14732874458277
 30
0.0
 11
16.54999999999999
 21
28.9806620779161
 31
0.0
 12
19.04999999999999
 22
28.56399541124943
 32
0.0
 13
19.04999999999999
 23
28.56399541124943
 33
0.0
  0
SOLID
  5
100
330
F9
100
AcDbEntity
  8
치수문자_일반주서
 62
     0
100
AcDbTrace
 10
-16.54999999999999
 20
28.9806620779161
 30
0.0
 11
-16.54999999999999
 21
28.14732874458277
 31
0.0
 12
-19.04999999999999
 22
28.56399541124943
 32
0.0
 13
-19.04999999999999
 23
28.56399541124943
 33
0.0
  0
MTEXT
  5
101
330
F9
100
AcDbEntity
  8
치수문자_일반주서
 62
     0
100
AcDbMText
 10
0.5380189044195802
 20
31.93899541124943
 30
0.0
 40
2.5
 41
0.0
 71
     2
 72
     1
  1
\A1;38.1 [1 1/2]
  7
SLDTEXTSTYLE0
 73
     1
 44
1.0
  0
POINT
  5
102
330
F9
100
AcDbEntity
  8
Defpoints
 62
     0
100
AcDbPoint
 10
19.04999999999999
 20
1.186246585538411
 30
0.0
  0
POINT
  5
103
330
F9
100
AcDbEntity
  8
Defpoints
 62
     0
100
AcDbPoint
 10
-19.04999999999999
 20
1.190624999999993
 30
0.0
  0
POINT
  5
104
330
F9
100
AcDbEntity
  8
Defpoints
 62
     0
100
AcDbPoint
 10
-19.04999999999999
 20
28.56399541124943
 30
0.0
  0
ENDBLK
  5
FB
330
F9
100
AcDbEntity
  8
0
100
AcDbBlockEnd
  0
BLOCK
  5
10D
330
10C
100
AcDbEntity
  8
0
100
AcDbBlockBegin
  2
_D_3
 70
     0
 10
0.0
 20
0.0
 30
0.0
  3
_D_3
  1
_D_3
  0
LINE
  5
10F
330
10C
100
AcDbEntity
  8
치수문자_일반주서
 62
     0
370
    -2
100
AcDbLine
 10
-11.8688423357461
 20
1.587500000000003
 30
0.0
 11
-28.51318063649709
 21
1.587499999999942
 31
0.0
  0
LINE
  5
110
330
10C
100
AcDbEntity
  8
치수문자_일반주서
 62
     0
370
    -2
100
AcDbLine
 10
-11.8688423357461
 20
-1.587500000000001
 30
0.0
 11
-28.51318063649708
 21
-1.587500000000066
 31
0.0
  0
LINE
  5
111
330
10C
100
AcDbEntity
  8
치수문자_일반주서
 62
     0
370
    -2
100
AcDbLine
 10
-28.51318063649709
 20
1.587499999999942
 30
0.0
 11
-28.51318063649717
 21
24.74374999999996
 31
0.0
  0
LINE
  5
112
330
10C
100
AcDbEntity
  8
치수문자_일반주서
 62
     0
370
    -2
100
AcDbLine
 10
-28.51318063649709
 20
1.587499999999942
 30
0.0
 11
-28.51318063649708
 21
-1.587500000000066
 31
0.0
  0
LINE
  5
113
330
10C
100
AcDbEntity
  8
치수문자_일반주서
 62
     0
370
    -2
100
AcDbLine
 10
-28.5131806364971
 20
4.087499999999942
 30
0.0
 11
-28.5131806364971
 21
6.587499999999942
 31
0.0
  0
LINE
  5
114
330
10C
100
AcDbEntity
  8
치수문자_일반주서
 62
     0
370
    -2
100
AcDbLine
 10
-28.51318063649707
 20
-4.087500000000066
 30
0.0
 11
-28.51318063649707
 21
-6.587500000000066
 31
0.0
  0
SOLID
  5
115
330
10C
100
AcDbEntity
  8
치수문자_일반주서
 62
     0
100
AcDbTrace
 10
-28.92984730316376
 20
4.08749999999994
 30
0.0
 11
-28.09651396983043
 21
4.087499999999944
 31
0.0
 12
-28.51318063649709
 22
1.587499999999942
 32
0.0
 13
-28.51318063649709
 23
1.587499999999942
 33
0.0
  0
SOLID
  5
116
330
10C
100
AcDbEntity
  8
치수문자_일반주서
 62
     0
100
AcDbTrace
 10
-28.0965139698304
 20
-4.087500000000064
 30
0.0
 11
-28.92984730316374
 21
-4.087500000000068
 31
0.0
 12
-28.51318063649708
 22
-1.587500000000066
 32
0.0
 13
-28.51318063649708
 23
-1.587500000000066
 33
0.0
  0
MTEXT
  5
117
330
10C
100
AcDbEntity
  8
치수문자_일반주서
 62
     0
100
AcDbMText
 10
-31.88818063649714
 20
15.74374999999995
 30
0.0
 40
2.5
 41
0.0
 71
     2
 72
     1
  1
\A1;%%c3.18 [1/8]
  7
SLDTEXTSTYLE0
 11
-3.356894814614643E-15
 21
1.0
 31
0.0
 73
     1
 44
1.0
  0
POINT
  5
2CF
330
10C
100
AcDbEntity
  8
Defpoints
 62
     0
100
AcDbPoint
 10
-11.8063423357461
 20
1.587500000000003
 30
0.0
  0
POINT
  5
2D0
330
10C
100
AcDbEntity
  8
Defpoints
 62
     0
100
AcDbPoint
 10
-11.8063423357461
 20
-1.587500000000001
 30
0.0
  0
POINT
  5
2D1
330
10C
100
AcDbEntity
  8
Defpoints
 62
     0
100
AcDbPoint
 10
-28.51318063649706
 20
-1.587500000000063
 30
0.0
  0
ENDBLK
  5
10E
330
10C
100
AcDbEntity
  8
0
100
AcDbBlockEnd
  0
BLOCK
  5
127
330
126
100
AcDbEntity
  8
0
100
AcDbBlockBegin
  2
SW_DOWELSYMBOL_0
 70
     0
 10
0.0
 20
0.0
 30
0.0
  3
SW_DOWELSYMBOL_0
  1
SW_DOWELSYMBOL_0
  0
CIRCLE
  5
129
330
126
100
AcDbEntity
  8
해칭선
 62
     0
100
AcDbCircle
 10
0.0
 20
0.0
 30
0.0
 40
3.000000000000008
  0
HATCH
  5
12A
330
126
100
AcDbEntity
  8
0
  6
Continuous
 62
     0
370
     0
100
AcDbHatch
 10
0.0
 20
0.0
 30
0.0
210
0.0
220
0.0
230
1.0
  2
SOLID
 70
     1
 71
     0
 91
        1
 92
        0
 93
        3
 72
     2
 10
0.0
 20
0.0
 40
3.000000000000008
 50
0.0
 51
90.0
 73
     1
 72
     1
 10
0.0
 20
3.000000000000008
 11
0.0
 21
0.0
 72
     1
 10
0.0
 20
0.0
 11
3.000000000000008
 21
0.0
 97
        0
 75
     0
 76
     1
 98
        1
 10
0.0
 20
0.0
  0
HATCH
  5
12B
330
126
100
AcDbEntity
  8
0
  6
Continuous
 62
     0
370
     0
100
AcDbHatch
 10
0.0
 20
0.0
 30
0.0
210
0.0
220
0.0
230
1.0
  2
SOLID
 70
     1
 71
     0
 91
        1
 92
        0
 93
        3
 72
     2
 10
0.0
 20
0.0
 40
3.000000000000008
 50
180.0
 51
270.0000000000007
 73
     1
 72
     1
 10
0.0
 20
-3.000000000000008
 11
0.0
 21
0.0
 72
     1
 10
0.0
 20
0.0
 11
-3.000000000000008
 21
0.0
 97
        0
 75
     0
 76
     1
 98
        1
 10
0.0
 20
0.0
  0
ENDBLK
  5
128
330
126
100
AcDbEntity
  8
0
100
AcDbBlockEnd
  0
BLOCK
  5
20D
330
20C
100
AcDbEntity
  8
0
100
AcDbBlockBegin
  2
*D7
 70
     1
 10
0.0
 20
0.0
 30
0.0
  3
*D7
  1
*D8
  0
LINE
  5
20F
330
20C
100
AcDbEntity
  8
치수문자_일반주서
 62
     0
370
    -2
100
AcDbLine
 10
71.43750000000006
 20
10.20053740206972
 30
0.0
 11
79.375
 21
10.20053740206975
 31
0.0
  0
LINE
  5
210
330
20C
100
AcDbEntity
  8
치수문자_일반주서
 62
     0
370
    -2
100
AcDbLine
 10
71.43750000000006
 20
11.70053740206973
 30
0.0
 11
79.375
 21
11.70053740206976
 31
0.0
  0
LINE
  5
211
330
20C
100
AcDbEntity
  8
치수문자_일반주서
 62
     0
370
    -2
100
AcDbLine
 10
79.375
 20
11.70053740206976
 30
0.0
 11
79.375
 21
35.42953740206976
 31
0.0
  0
LINE
  5
212
330
20C
100
AcDbEntity
  8
치수문자_일반주서
 62
     0
370
    -2
100
AcDbLine
 10
79.375
 20
10.20053740206975
 30
0.0
 11
79.375
 21
11.70053740206976
 31
0.0
  0
LINE
  5
213
330
20C
100
AcDbEntity
  8
치수문자_일반주서
 62
     0
370
    -2
100
AcDbLine
 10
79.375
 20
7.700537402069752
 30
0.0
 11
79.375
 21
5.200537402069752
 31
0.0
  0
LINE
  5
214
330
20C
100
AcDbEntity
  8
치수문자_일반주서
 62
     0
370
    -2
100
AcDbLine
 10
79.375
 20
14.20053740206976
 30
0.0
 11
79.375
 21
16.70053740206976
 31
0.0
  0
SOLID
  5
215
330
20C
100
AcDbEntity
  8
치수문자_일반주서
 62
     0
100
AcDbTrace
 10
79.79166666666667
 20
7.700537402069752
 30
0.0
 11
78.95833333333333
 21
7.700537402069752
 31
0.0
 12
79.375
 22
10.20053740206975
 32
0.0
 13
79.375
 23
10.20053740206975
 33
0.0
  0
SOLID
  5
216
330
20C
100
AcDbEntity
  8
치수문자_일반주서
 62
     0
100
AcDbTrace
 10
78.95833333333333
 20
14.20053740206976
 30
0.0
 11
79.79166666666667
 21
14.20053740206976
 31
0.0
 12
79.375
 22
11.70053740206976
 32
0.0
 13
79.375
 23
11.70053740206976
 33
0.0
  0
MTEXT
  5
217
330
20C
100
AcDbEntity
  8
치수문자_일반주서
 62
     0
100
AcDbMText
 10
76.0
 20
27.05453740206976
 30
0.0
 40
2.5
 41
0.0
 71
     2
 72
     1
  1
\A1;%%c1.5 [0.06]
  7
SLDTEXTSTYLE0
 11
0.0
 21
1.0
 31
0.0
 73
     1
 44
1.0
  0
POINT
  5
218
330
20C
100
AcDbEntity
  8
Defpoints
 62
     0
100
AcDbPoint
 10
71.37500000000006
 20
10.20053740206972
 30
0.0
  0
POINT
  5
219
330
20C
100
AcDbEntity
  8
Defpoints
 62
     0
100
AcDbPoint
 10
71.37500000000006
 20
11.70053740206973
 30
0.0
  0
POINT
  5
21A
330
20C
100
AcDbEntity
  8
Defpoints
 62
     0
100
AcDbPoint
 10
79.37500000000003
 20
11.70053740206976
 30
0.0
  0
ENDBLK
  5
20E
330
20C
100
AcDbEntity
  8
0
100
AcDbBlockEnd
  0
BLOCK
  5
21C
330
21B
100
AcDbEntity
  8
0
100
AcDbBlockBegin
  2
*D8
 70
     1
 10
0.0
 20
0.0
 30
0.0
  3
*D8
  1
*D9
  0
LINE
  5
21E
330
21B
100
AcDbEntity
  8
치수문자_일반주서
 62
     0
370
    -2
100
AcDbLine
 10
11.37500000000006
 20
13.51303740206972
 30
0.0
 11
11.37500000000006
 21
31.33967000365137
 31
0.0
  0
LINE
  5
21F
330
21B
100
AcDbEntity
  8
치수문자_일반주서
 62
     0
370
    -2
100
AcDbLine
 10
71.37500000000006
 20
11.76303740206973
 30
0.0
 11
71.37500000000006
 21
31.33967000365137
 31
0.0
  0
LINE
  5
220
330
21B
100
AcDbEntity
  8
치수문자_일반주서
 62
     0
370
    -2
100
AcDbLine
 10
13.87500000000006
 20
31.33967000365137
 30
0.0
 11
68.87500000000006
 21
31.33967000365137
 31
0.0
  0
SOLID
  5
221
330
21B
100
AcDbEntity
  8
치수문자_일반주서
 62
     0
100
AcDbTrace
 10
13.87500000000006
 20
31.75633667031804
 30
0.0
 11
13.87500000000006
 21
30.9230033369847
 31
0.0
 12
11.37500000000006
 22
31.33967000365137
 32
0.0
 13
11.37500000000006
 23
31.33967000365137
 33
0.0
  0
SOLID
  5
222
330
21B
100
AcDbEntity
  8
치수문자_일반주서
 62
     0
100
AcDbTrace
 10
68.87500000000006
 20
30.9230033369847
 30
0.0
 11
68.87500000000006
 21
31.75633667031804
 31
0.0
 12
71.37500000000006
 22
31.33967000365137
 32
0.0
 13
71.37500000000006
 23
31.33967000365137
 33
0.0
  0
MTEXT
  5
223
330
21B
100
AcDbEntity
  8
치수문자_일반주서
 62
     0
100
AcDbMText
 10
41.37500000000006
 20
34.71467000365137
 30
0.0
 40
2.5
 41
0.0
 71
     2
 72
     1
  1
\A1;60 [2.36]
  7
SLDTEXTSTYLE0
 73
     1
 44
1.0
  0
POINT
  5
224
330
21B
100
AcDbEntity
  8
Defpoints
 62
     0
100
AcDbPoint
 10
11.37500000000006
 20
13.45053740206972
 30
0.0
  0
POINT
  5
225
330
21B
100
AcDbEntity
  8
Defpoints
 62
     0
100
AcDbPoint
 10
71.37500000000006
 20
11.70053740206973
 30
0.0
  0
POINT
  5
226
330
21B
100
AcDbEntity
  8
Defpoints
 62
     0
100
AcDbPoint
 10
71.37500000000006
 20
31.33967000365137
 30
0.0
  0
ENDBLK
  5
21D
330
21B
100
AcDbEntity
  8
0
100
AcDbBlockEnd
  0
BLOCK
  5
228
330
227
100
AcDbEntity
  8
0
100
AcDbBlockBegin
  2
*D9
 70
     1
 10
0.0
 20
0.0
 30
0.0
  3
*D9
  1
*D10
  0
LINE
  5
22A
330
227
100
AcDbEntity
  8
치수문자_일반주서
 62
     0
370
    -2
100
AcDbLine
 10
11.81250000000006
 20
13.95053740206973
 30
0.0
 11
3.375000000000041
 21
13.9505374020697
 31
0.0
  0
LINE
  5
22B
330
227
100
AcDbEntity
  8
치수문자_일반주서
 62
     0
370
    -2
100
AcDbLine
 10
11.81250000000006
 20
7.950537402069727
 30
0.0
 11
3.375000000000062
 21
7.950537402069696
 31
0.0
  0
LINE
  5
22C
330
227
100
AcDbEntity
  8
치수문자_일반주서
 62
     0
370
    -2
100
AcDbLine
 10
3.375000000000041
 20
13.9505374020697
 30
0.0
 11
3.374999999999971
 21
34.1380374020697
 31
0.0
  0
LINE
  5
22D
330
227
100
AcDbEntity
  8
치수문자_일반주서
 62
     0
370
    -2
100
AcDbLine
 10
3.375000000000041
 20
13.9505374020697
 30
0.0
 11
3.375000000000062
 21
7.950537402069696
 31
0.0
  0
LINE
  5
22E
330
227
100
AcDbEntity
  8
치수문자_일반주서
 62
     0
370
    -2
100
AcDbLine
 10
3.375000000000032
 20
16.4505374020697
 30
0.0
 11
3.375000000000023
 21
18.9505374020697
 31
0.0
  0
LINE
  5
22F
330
227
100
AcDbEntity
  8
치수문자_일반주서
 62
     0
370
    -2
100
AcDbLine
 10
3.375000000000071
 20
5.450537402069696
 30
0.0
 11
3.375000000000079
 21
2.950537402069696
 31
0.0
  0
SOLID
  5
230
330
227
100
AcDbEntity
  8
치수문자_일반주서
 62
     0
100
AcDbTrace
 10
2.958333333333365
 20
16.4505374020697
 30
0.0
 11
3.791666666666698
 21
16.4505374020697
 31
0.0
 12
3.375000000000041
 22
13.9505374020697
 32
0.0
 13
3.375000000000041
 23
13.9505374020697
 33
0.0
  0
SOLID
  5
231
330
227
100
AcDbEntity
  8
치수문자_일반주서
 62
     0
100
AcDbTrace
 10
3.791666666666737
 20
5.450537402069697
 30
0.0
 11
2.958333333333404
 21
5.450537402069694
 31
0.0
 12
3.375000000000062
 22
7.950537402069696
 32
0.0
 13
3.375000000000062
 23
7.950537402069696
 33
0.0
  0
MTEXT
  5
232
330
227
100
AcDbEntity
  8
치수문자_일반주서
 62
     0
100
AcDbMText
 10
-0.0000000000000031
 20
26.54428740206969
 30
0.0
 40
2.5
 41
0.0
 71
     2
 72
     1
  1
\A1;%%c6 [0.24]
  7
SLDTEXTSTYLE0
 11
-3.478698810492154E-15
 21
1.0
 31
0.0
 73
     1
 44
1.0
  0
POINT
  5
233
330
227
100
AcDbEntity
  8
Defpoints
 62
     0
100
AcDbPoint
 10
11.87500000000006
 20
13.95053740206973
 30
0.0
  0
POINT
  5
234
330
227
100
AcDbEntity
  8
Defpoints
 62
     0
100
AcDbPoint
 10
11.87500000000006
 20
7.950537402069727
 30
0.0
  0
POINT
  5
235
330
227
100
AcDbEntity
  8
Defpoints
 62
     0
100
AcDbPoint
 10
3.375000000000057
 20
7.950537402069696
 30
0.0
  0
ENDBLK
  5
229
330
227
100
AcDbEntity
  8
0
100
AcDbBlockEnd
  0
BLOCK
  5
237
330
236
100
AcDbEntity
  8
0
100
AcDbBlockBegin
  2
*D10
 70
     1
 10
0.0
 20
0.0
 30
0.0
  3
*D10
  1
*D11
  0
LINE
  5
239
330
236
100
AcDbEntity
  8
치수문자_일반주서
 62
     0
370
    -2
100
AcDbLine
 10
65.37500000000006
 20
11.72584006941095
 30
0.0
 11
65.37500000000006
 21
22.5092583719986
 31
0.0
  0
LINE
  5
23A
330
236
100
AcDbEntity
  8
치수문자_일반주서
 62
     0
370
    -2
100
AcDbLine
 10
71.37500000000006
 20
11.76303740206973
 30
0.0
 11
71.37500000000006
 21
22.5092583719986
 31
0.0
  0
LINE
  5
23B
330
236
100
AcDbEntity
  8
치수문자_일반주서
 62
     0
370
    -2
100
AcDbLine
 10
65.37500000000006
 20
22.5092583719986
 30
0.0
 11
71.37500000000006
 21
22.5092583719986
 31
0.0
  0
LINE
  5
23C
330
236
100
AcDbEntity
  8
치수문자_일반주서
 62
     0
370
    -2
100
AcDbLine
 10
62.87500000000006
 20
22.5092583719986
 30
0.0
 11
60.37500000000006
 21
22.5092583719986
 31
0.0
  0
LINE
  5
23D
330
236
100
AcDbEntity
  8
치수문자_일반주서
 62
     0
370
    -2
100
AcDbLine
 10
73.87500000000006
 20
22.5092583719986
 30
0.0
 11
76.37500000000006
 21
22.5092583719986
 31
0.0
  0
SOLID
  5
23E
330
236
100
AcDbEntity
  8
치수문자_일반주서
 62
     0
100
AcDbTrace
 10
62.87500000000006
 20
22.09259170533193
 30
0.0
 11
62.87500000000006
 21
22.92592503866527
 31
0.0
 12
65.37500000000006
 22
22.5092583719986
 32
0.0
 13
65.37500000000006
 23
22.5092583719986
 33
0.0
  0
SOLID
  5
23F
330
236
100
AcDbEntity
  8
치수문자_일반주서
 62
     0
100
AcDbTrace
 10
73.87500000000006
 20
22.92592503866527
 30
0.0
 11
73.87500000000006
 21
22.09259170533193
 31
0.0
 12
71.37500000000006
 22
22.5092583719986
 32
0.0
 13
71.37500000000006
 23
22.5092583719986
 33
0.0
  0
MTEXT
  5
240
330
236
100
AcDbEntity
  8
치수문자_일반주서
 62
     0
100
AcDbMText
 10
68.37500000000006
 20
25.8842583719986
 30
0.0
 40
2.5
 41
0.0
 71
     2
 72
     1
  1
\A1;6 [0.24]
  7
SLDTEXTSTYLE0
 73
     1
 44
1.0
  0
POINT
  5
241
330
236
100
AcDbEntity
  8
Defpoints
 62
     0
100
AcDbPoint
 10
65.37500000000006
 20
11.66334006941095
 30
0.0
  0
POINT
  5
242
330
236
100
AcDbEntity
  8
Defpoints
 62
     0
100
AcDbPoint
 10
71.37500000000006
 20
11.70053740206973
 30
0.0
  0
POINT
  5
243
330
236
100
AcDbEntity
  8
Defpoints
 62
     0
100
AcDbPoint
 10
71.37500000000006
 20
22.5092583719986
 30
0.0
  0
ENDBLK
  5
238
330
236
100
AcDbEntity
  8
0
100
AcDbBlockEnd
  0
BLOCK
  5
298
330
297
100
AcDbEntity
  8
0
100
AcDbBlockBegin
  2
*D11
 70
     1
 10
0.0
 20
0.0
 30
0.0
  3
*D11
  1
*D12
  0
LINE
  5
29A
330
297
100
AcDbEntity
  8
치수문자_일반주서
 62
     0
370
    -2
100
AcDbLine
 10
-28.65656423839222
 20
87.58234779291112
 30
0.0
 11
-20.71906423839224
 21
87.58234779291115
 31
0.0
  0
LINE
  5
29B
330
297
100
AcDbEntity
  8
치수문자_일반주서
 62
     0
370
    -2
100
AcDbLine
 10
-28.65656423839222
 20
89.08234779291112
 30
0.0
 11
-20.71906423839224
 21
89.08234779291115
 31
0.0
  0
LINE
  5
29C
330
297
100
AcDbEntity
  8
치수문자_일반주서
 62
     0
370
    -2
100
AcDbLine
 10
-20.71906423839224
 20
89.08234779291115
 30
0.0
 11
-20.7190642383923
 21
112.8113477929112
 31
0.0
  0
LINE
  5
29D
330
297
100
AcDbEntity
  8
치수문자_일반주서
 62
     0
370
    -2
100
AcDbLine
 10
-20.71906423839224
 20
87.58234779291115
 30
0.0
 11
-20.71906423839224
 21
89.08234779291115
 31
0.0
  0
LINE
  5
29E
330
297
100
AcDbEntity
  8
치수문자_일반주서
 62
     0
370
    -2
100
AcDbLine
 10
-20.71906423839223
 20
85.08234779291115
 30
0.0
 11
-20.71906423839222
 21
82.58234779291115
 31
0.0
  0
LINE
  5
29F
330
297
100
AcDbEntity
  8
치수문자_일반주서
 62
     0
370
    -2
100
AcDbLine
 10
-20.71906423839225
 20
91.58234779291115
 30
0.0
 11
-20.71906423839226
 21
94.08234779291115
 31
0.0
  0
SOLID
  5
2A0
330
297
100
AcDbEntity
  8
치수문자_일반주서
 62
     0
100
AcDbTrace
 10
-20.30239757172556
 20
85.08234779291115
 30
0.0
 11
-21.1357309050589
 21
85.08234779291115
 31
0.0
 12
-20.71906423839224
 22
87.58234779291115
 32
0.0
 13
-20.71906423839224
 23
87.58234779291115
 33
0.0
  0
SOLID
  5
2A1
330
297
100
AcDbEntity
  8
치수문자_일반주서
 62
     0
100
AcDbTrace
 10
-21.13573090505892
 20
91.58234779291115
 30
0.0
 11
-20.30239757172558
 21
91.58234779291115
 31
0.0
 12
-20.71906423839224
 22
89.08234779291115
 32
0.0
 13
-20.71906423839224
 23
89.08234779291115
 33
0.0
  0
MTEXT
  5
2A2
330
297
100
AcDbEntity
  8
치수문자_일반주서
 62
     0
100
AcDbMText
 10
-24.09406423839228
 20
104.4363477929112
 30
0.0
 40
2.5
 41
0.0
 71
     2
 72
     1
  1
\A1;%%c1.5 [0.06]
  7
SLDTEXTSTYLE0
 11
-2.368475785867000E-15
 21
1.0
 31
0.0
 73
     1
 44
1.0
  0
POINT
  5
2A3
330
297
100
AcDbEntity
  8
Defpoints
 62
     0
100
AcDbPoint
 10
-28.71906423839222
 20
87.58234779291112
 30
0.0
  0
POINT
  5
2A4
330
297
100
AcDbEntity
  8
Defpoints
 62
     0
100
AcDbPoint
 10
-28.71906423839222
 20
89.08234779291112
 30
0.0
  0
POINT
  5
2A5
330
297
100
AcDbEntity
  8
Defpoints
 62
     0
100
AcDbPoint
 10
-20.71906423839228
 20
89.08234779291115
 30
0.0
  0
ENDBLK
  5
299
330
297
100
AcDbEntity
  8
0
100
AcDbBlockEnd
  0
BLOCK
  5
2A7
330
2A6
100
AcDbEntity
  8
0
100
AcDbBlockBegin
  2
*D12
 70
     1
 10
0.0
 20
0.0
 30
0.0
  3
*D12
  1
*D13
  0
LINE
  5
2A9
330
2A6
100
AcDbEntity
  8
치수문자_일반주서
 62
     0
370
    -2
100
AcDbLine
 10
-88.71906423839222
 20
90.89484779291112
 30
0.0
 11
-88.71906423839222
 21
108.7214803944928
 31
0.0
  0
LINE
  5
2AA
330
2A6
100
AcDbEntity
  8
치수문자_일반주서
 62
     0
370
    -2
100
AcDbLine
 10
-28.71906423839222
 20
89.14484779291112
 30
0.0
 11
-28.71906423839222
 21
108.7214803944928
 31
0.0
  0
LINE
  5
2AB
330
2A6
100
AcDbEntity
  8
치수문자_일반주서
 62
     0
370
    -2
100
AcDbLine
 10
-86.21906423839222
 20
108.7214803944928
 30
0.0
 11
-31.21906423839222
 21
108.7214803944928
 31
0.0
  0
SOLID
  5
2AC
330
2A6
100
AcDbEntity
  8
치수문자_일반주서
 62
     0
100
AcDbTrace
 10
-86.21906423839222
 20
109.1381470611594
 30
0.0
 11
-86.21906423839222
 21
108.3048137278261
 31
0.0
 12
-88.71906423839222
 22
108.7214803944928
 32
0.0
 13
-88.71906423839222
 23
108.7214803944928
 33
0.0
  0
SOLID
  5
2AD
330
2A6
100
AcDbEntity
  8
치수문자_일반주서
 62
     0
100
AcDbTrace
 10
-31.21906423839222
 20
108.3048137278261
 30
0.0
 11
-31.21906423839222
 21
109.1381470611594
 31
0.0
 12
-28.71906423839222
 22
108.7214803944928
 32
0.0
 13
-28.71906423839222
 23
108.7214803944928
 33
0.0
  0
MTEXT
  5
2AE
330
2A6
100
AcDbEntity
  8
치수문자_일반주서
 62
     0
100
AcDbMText
 10
-58.71906423839222
 20
112.0964803944928
 30
0.0
 40
2.5
 41
0.0
 71
     2
 72
     1
  1
\A1;60 [2.36]
  7
SLDTEXTSTYLE0
 73
     1
 44
1.0
  0
POINT
  5
2AF
330
2A6
100
AcDbEntity
  8
Defpoints
 62
     0
100
AcDbPoint
 10
-88.71906423839222
 20
90.83234779291112
 30
0.0
  0
POINT
  5
2B0
330
2A6
100
AcDbEntity
  8
Defpoints
 62
     0
100
AcDbPoint
 10
-28.71906423839222
 20
89.08234779291112
 30
0.0
  0
POINT
  5
2B1
330
2A6
100
AcDbEntity
  8
Defpoints
 62
     0
100
AcDbPoint
 10
-28.71906423839222
 20
108.7214803944928
 30
0.0
  0
ENDBLK
  5
2A8
330
2A6
100
AcDbEntity
  8
0
100
AcDbBlockEnd
  0
BLOCK
  5
2B3
330
2B2
100
AcDbEntity
  8
0
100
AcDbBlockBegin
  2
*D13
 70
     1
 10
0.0
 20
0.0
 30
0.0
  3
*D13
  1
*D14
  0
LINE
  5
2B5
330
2B2
100
AcDbEntity
  8
치수문자_일반주서
 62
     0
370
    -2
100
AcDbLine
 10
-88.2815642383922
 20
91.33234779291112
 30
0.0
 11
-96.71906423839225
 21
91.3323477929111
 31
0.0
  0
LINE
  5
2B6
330
2B2
100
AcDbEntity
  8
치수문자_일반주서
 62
     0
370
    -2
100
AcDbLine
 10
-88.2815642383922
 20
85.33234779291112
 30
0.0
 11
-96.71906423839224
 21
85.3323477929111
 31
0.0
  0
LINE
  5
2B7
330
2B2
100
AcDbEntity
  8
치수문자_일반주서
 62
     0
370
    -2
100
AcDbLine
 10
-96.71906423839225
 20
91.3323477929111
 30
0.0
 11
-96.71906423839229
 21
111.5198477929111
 31
0.0
  0
LINE
  5
2B8
330
2B2
100
AcDbEntity
  8
치수문자_일반주서
 62
     0
370
    -2
100
AcDbLine
 10
-96.71906423839225
 20
91.3323477929111
 30
0.0
 11
-96.71906423839224
 21
85.3323477929111
 31
0.0
  0
LINE
  5
2B9
330
2B2
100
AcDbEntity
  8
치수문자_일반주서
 62
     0
370
    -2
100
AcDbLine
 10
-96.71906423839225
 20
93.8323477929111
 30
0.0
 11
-96.71906423839225
 21
96.3323477929111
 31
0.0
  0
LINE
  5
2BA
330
2B2
100
AcDbEntity
  8
치수문자_일반주서
 62
     0
370
    -2
100
AcDbLine
 10
-96.71906423839224
 20
82.8323477929111
 30
0.0
 11
-96.71906423839224
 21
80.3323477929111
 31
0.0
  0
SOLID
  5
2BB
330
2B2
100
AcDbEntity
  8
치수문자_일반주서
 62
     0
100
AcDbTrace
 10
-97.13573090505892
 20
93.8323477929111
 30
0.0
 11
-96.30239757172558
 21
93.8323477929111
 31
0.0
 12
-96.71906423839225
 22
91.3323477929111
 32
0.0
 13
-96.71906423839225
 23
91.3323477929111
 33
0.0
  0
SOLID
  5
2BC
330
2B2
100
AcDbEntity
  8
치수문자_일반주서
 62
     0
100
AcDbTrace
 10
-96.30239757172556
 20
82.8323477929111
 30
0.0
 11
-97.1357309050589
 21
82.8323477929111
 31
0.0
 12
-96.71906423839224
 22
85.3323477929111
 32
0.0
 13
-96.71906423839224
 23
85.3323477929111
 33
0.0
  0
MTEXT
  5
2BD
330
2B2
100
AcDbEntity
  8
치수문자_일반주서
 62
     0
100
AcDbMText
 10
-100.0940642383923
 20
103.9260977929111
 30
0.0
 40
2.5
 41
0.0
 71
     2
 72
     1
  1
\A1;%%c6 [0.24]
  7
SLDTEXTSTYLE0
 11
-2.368475785867000E-15
 21
1.0
 31
0.0
 73
     1
 44
1.0
  0
POINT
  5
2BE
330
2B2
100
AcDbEntity
  8
Defpoints
 62
     0
100
AcDbPoint
 10
-88.2190642383922
 20
91.33234779291112
 30
0.0
  0
POINT
  5
2BF
330
2B2
100
AcDbEntity
  8
Defpoints
 62
     0
100
AcDbPoint
 10
-88.2190642383922
 20
85.33234779291112
 30
0.0
  0
POINT
  5
2C0
330
2B2
100
AcDbEntity
  8
Defpoints
 62
     0
100
AcDbPoint
 10
-96.71906423839222
 20
85.3323477929111
 30
0.0
  0
ENDBLK
  5
2B4
330
2B2
100
AcDbEntity
  8
0
100
AcDbBlockEnd
  0
BLOCK
  5
2C2
330
2C1
100
AcDbEntity
  8
0
100
AcDbBlockBegin
  2
*D14
 70
     1
 10
0.0
 20
0.0
 30
0.0
  3
*D14
  1
*D15
  0
LINE
  5
2C4
330
2C1
100
AcDbEntity
  8
치수문자_일반주서
 62
     0
370
    -2
100
AcDbLine
 10
-34.71906423839222
 20
89.10765046025234
 30
0.0
 11
-34.71906423839222
 21
99.89106876283999
 31
0.0
  0
LINE
  5
2C5
330
2C1
100
AcDbEntity
  8
치수문자_일반주서
 62
     0
370
    -2
100
AcDbLine
 10
-28.71906423839222
 20
89.14484779291112
 30
0.0
 11
-28.71906423839222
 21
99.89106876283999
 31
0.0
  0
LINE
  5
2C6
330
2C1
100
AcDbEntity
  8
치수문자_일반주서
 62
     0
370
    -2
100
AcDbLine
 10
-34.71906423839222
 20
99.89106876283999
 30
0.0
 11
-28.71906423839222
 21
99.89106876283999
 31
0.0
  0
LINE
  5
2C7
330
2C1
100
AcDbEntity
  8
치수문자_일반주서
 62
     0
370
    -2
100
AcDbLine
 10
-37.21906423839222
 20
99.89106876283999
 30
0.0
 11
-39.71906423839222
 21
99.89106876283999
 31
0.0
  0
LINE
  5
2C8
330
2C1
100
AcDbEntity
  8
치수문자_일반주서
 62
     0
370
    -2
100
AcDbLine
 10
-26.21906423839222
 20
99.89106876283999
 30
0.0
 11
-23.71906423839222
 21
99.89106876283999
 31
0.0
  0
SOLID
  5
2C9
330
2C1
100
AcDbEntity
  8
치수문자_일반주서
 62
     0
100
AcDbTrace
 10
-37.21906423839222
 20
99.47440209617332
 30
0.0
 11
-37.21906423839222
 21
100.3077354295067
 31
0.0
 12
-34.71906423839222
 22
99.89106876283999
 32
0.0
 13
-34.71906423839222
 23
99.89106876283999
 33
0.0
  0
SOLID
  5
2CA
330
2C1
100
AcDbEntity
  8
치수문자_일반주서
 62
     0
100
AcDbTrace
 10
-26.21906423839222
 20
100.3077354295067
 30
0.0
 11
-26.21906423839222
 21
99.47440209617332
 31
0.0
 12
-28.71906423839222
 22
99.89106876283999
 32
0.0
 13
-28.71906423839222
 23
99.89106876283999
 33
0.0
  0
MTEXT
  5
2CB
330
2C1
100
AcDbEntity
  8
치수문자_일반주서
 62
     0
100
AcDbMText
 10
-31.71906423839222
 20
103.26606876284
 30
0.0
 40
2.5
 41
0.0
 71
     2
 72
     1
  1
\A1;6 [0.24]
  7
SLDTEXTSTYLE0
 73
     1
 44
1.0
  0
POINT
  5
2CC
330
2C1
100
AcDbEntity
  8
Defpoints
 62
     0
100
AcDbPoint
 10
-34.71906423839222
 20
89.04515046025234
 30
0.0
  0
POINT
  5
2CD
330
2C1
100
AcDbEntity
  8
Defpoints
 62
     0
100
AcDbPoint
 10
-28.71906423839222
 20
89.08234779291112
 30
0.0
  0
POINT
  5
2CE
330
2C1
100
AcDbEntity
  8
Defpoints
 62
     0
100
AcDbPoint
 10
-28.71906423839222
 20
99.89106876283999
 30
0.0
  0
ENDBLK
  5
2C3
330
2C1
100
AcDbEntity
  8
0
100
AcDbBlockEnd
  0
BLOCK
  5
2FE
330
2FD
100
AcDbEntity
  8
0
100
AcDbBlockBegin
  2
*D15
 70
     1
 10
0.0
 20
0.0
 30
0.0
  3
*D15
  1
*D16
  0
LINE
  5
300
330
2FD
100
AcDbEntity
  8
치수문자_일반주서
 62
     0
370
    -2
100
AcDbLine
 10
79.2271575274173
 20
1.191699928723902
 30
0.0
 11
91.56873521087176
 21
1.191699928723947
 31
0.0
  0
LINE
  5
301
330
2FD
100
AcDbEntity
  8
치수문자_일반주서
 62
     0
370
    -2
100
AcDbLine
 10
79.2271575274173
 20
-1.189550071276098
 30
0.0
 11
91.56873521087178
 21
-1.189550071276052
 31
0.0
  0
LINE
  5
302
330
2FD
100
AcDbEntity
  8
치수문자_일반주서
 62
     0
370
    -2
100
AcDbLine
 10
91.56873521087176
 20
1.191699928723947
 30
0.0
 11
91.56873521087162
 21
25.44169992872395
 31
0.0
  0
LINE
  5
303
330
2FD
100
AcDbEntity
  8
치수문자_일반주서
 62
     0
370
    -2
100
AcDbLine
 10
91.56873521087176
 20
1.191699928723947
 30
0.0
 11
91.56873521087178
 21
-1.189550071276052
 31
0.0
  0
LINE
  5
304
330
2FD
100
AcDbEntity
  8
치수문자_일반주서
 62
     0
370
    -2
100
AcDbLine
 10
91.56873521087175
 20
3.691699928723947
 30
0.0
 11
91.56873521087174
 21
6.191699928723947
 31
0.0
  0
LINE
  5
305
330
2FD
100
AcDbEntity
  8
치수문자_일반주서
 62
     0
370
    -2
100
AcDbLine
 10
91.5687352108718
 20
-3.689550071276052
 30
0.0
 11
91.56873521087181
 21
-6.189550071276052
 31
0.0
  0
SOLID
  5
306
330
2FD
100
AcDbEntity
  8
치수문자_일반주서
 62
     0
100
AcDbTrace
 10
91.15206854420508
 20
3.691699928723945
 30
0.0
 11
91.98540187753842
 21
3.69169992872395
 31
0.0
 12
91.56873521087176
 22
1.191699928723947
 32
0.0
 13
91.56873521087176
 23
1.191699928723947
 33
0.0
  0
SOLID
  5
307
330
2FD
100
AcDbEntity
  8
치수문자_일반주서
 62
     0
100
AcDbTrace
 10
91.98540187753846
 20
-3.68955007127605
 30
0.0
 11
91.15206854420512
 21
-3.689550071276055
 31
0.0
 12
91.56873521087178
 22
-1.189550071276052
 32
0.0
 13
91.56873521087178
 23
-1.189550071276052
 33
0.0
  0
MTEXT
  5
308
330
2FD
100
AcDbEntity
  8
치수문자_일반주서
 62
     0
100
AcDbMText
 10
88.19373521087168
 20
15.81669992872393
 30
0.0
 40
2.5
 41
0.0
 71
     2
 72
     1
  1
\A1;%%c2.38 [0.09]
  7
SLDTEXTSTYLE0
 11
-5.967813003759372E-15
 21
1.0
 31
0.0
 73
     1
 44
1.0
  0
POINT
  5
309
330
2FD
100
AcDbEntity
  8
Defpoints
 62
     0
100
AcDbPoint
 10
79.1646575274173
 20
1.191699928723901
 30
0.0
  0
POINT
  5
30A
330
2FD
100
AcDbEntity
  8
Defpoints
 62
     0
100
AcDbPoint
 10
79.1646575274173
 20
-1.189550071276099
 30
0.0
  0
POINT
  5
30B
330
2FD
100
AcDbEntity
  8
Defpoints
 62
     0
100
AcDbPoint
 10
91.56873521087175
 20
-1.189550071276052
 30
0.0
  0
ENDBLK
  5
2FF
330
2FD
100
AcDbEntity
  8
0
100
AcDbBlockEnd
  0
BLOCK
  5
30D
330
30C
100
AcDbEntity
  8
0
100
AcDbBlockBegin
  2
*D16
 70
     1
 10
0.0
 20
0.0
 30
0.0
  3
*D16
  1
*D17
  0
LINE
  5
30F
330
30C
100
AcDbEntity
  8
치수문자_일반주서
 62
     0
370
    -2
100
AcDbLine
 10
79.1646575274173
 20
1.249821514262303
 30
0.0
 11
79.1646575274173
 21
16.25633392983045
 31
0.0
  0
LINE
  5
310
330
30C
100
AcDbEntity
  8
치수문자_일반주서
 62
     0
370
    -2
100
AcDbLine
 10
74.40215752741732
 20
1.162712968837261
 30
0.0
 11
74.40215752741732
 21
16.25633392983045
 31
0.0
  0
LINE
  5
311
330
30C
100
AcDbEntity
  8
치수문자_일반주서
 62
     0
370
    -2
100
AcDbLine
 10
74.40215752741732
 20
16.25633392983045
 30
0.0
 11
49.22383001519182
 21
16.25633392983045
 31
0.0
  0
LINE
  5
312
330
30C
100
AcDbEntity
  8
치수문자_일반주서
 62
     0
370
    -2
100
AcDbLine
 10
79.1646575274173
 20
16.25633392983045
 30
0.0
 11
74.40215752741732
 21
16.25633392983045
 31
0.0
  0
LINE
  5
313
330
30C
100
AcDbEntity
  8
치수문자_일반주서
 62
     0
370
    -2
100
AcDbLine
 10
81.6646575274173
 20
16.25633392983045
 30
0.0
 11
84.1646575274173
 21
16.25633392983045
 31
0.0
  0
LINE
  5
314
330
30C
100
AcDbEntity
  8
치수문자_일반주서
 62
     0
370
    -2
100
AcDbLine
 10
71.90215752741732
 20
16.25633392983045
 30
0.0
 11
69.40215752741732
 21
16.25633392983045
 31
0.0
  0
SOLID
  5
315
330
30C
100
AcDbEntity
  8
치수문자_일반주서
 62
     0
100
AcDbTrace
 10
81.6646575274173
 20
16.67300059649712
 30
0.0
 11
81.6646575274173
 21
15.83966726316379
 31
0.0
 12
79.1646575274173
 22
16.25633392983045
 32
0.0
 13
79.1646575274173
 23
16.25633392983045
 33
0.0
  0
SOLID
  5
316
330
30C
100
AcDbEntity
  8
치수문자_일반주서
 62
     0
100
AcDbTrace
 10
71.90215752741732
 20
15.83966726316379
 30
0.0
 11
71.90215752741732
 21
16.67300059649712
 31
0.0
 12
74.40215752741732
 22
16.25633392983045
 32
0.0
 13
74.40215752741732
 23
16.25633392983045
 33
0.0
  0
MTEXT
  5
317
330
30C
100
AcDbEntity
  8
치수문자_일반주서
 62
     0
100
AcDbMText
 10
57.75508001519182
 20
19.63133392983045
 30
0.0
 40
2.5
 41
0.0
 71
     2
 72
     1
  1
\A1;4.76 [0.19]
  7
SLDTEXTSTYLE0
 73
     1
 44
1.0
  0
POINT
  5
318
330
30C
100
AcDbEntity
  8
Defpoints
 62
     0
100
AcDbPoint
 10
79.1646575274173
 20
1.187321514262303
 30
0.0
  0
POINT
  5
319
330
30C
100
AcDbEntity
  8
Defpoints
 62
     0
100
AcDbPoint
 10
74.40215752741732
 20
1.100212968837261
 30
0.0
  0
POINT
  5
31A
330
30C
100
AcDbEntity
  8
Defpoints
 62
     0
100
AcDbPoint
 10
74.40215752741732
 20
16.25633392983045
 30
0.0
  0
ENDBLK
  5
30E
330
30C
100
AcDbEntity
  8
0
100
AcDbBlockEnd
  0
BLOCK
  5
31C
330
31B
100
AcDbEntity
  8
0
100
AcDbBlockBegin
  2
*D17
 70
     1
 10
0.0
 20
0.0
 30
0.0
  3
*D17
  1
*D18
  0
LINE
  5
31E
330
31B
100
AcDbEntity
  8
치수문자_일반주서
 62
     0
370
    -2
100
AcDbLine
 10
79.1646575274173
 20
1.249821514262303
 30
0.0
 11
79.1646575274173
 21
28.56507033997332
 31
0.0
  0
LINE
  5
31F
330
31B
100
AcDbEntity
  8
치수문자_일반주서
 62
     0
370
    -2
100
AcDbLine
 10
41.06465752741732
 20
1.333574928723894
 30
0.0
 11
41.06465752741732
 21
28.56507033997332
 31
0.0
  0
LINE
  5
320
330
31B
100
AcDbEntity
  8
치수문자_일반주서
 62
     0
370
    -2
100
AcDbLine
 10
76.6646575274173
 20
28.56507033997332
 30
0.0
 11
43.56465752741732
 21
28.56507033997332
 31
0.0
  0
SOLID
  5
321
330
31B
100
AcDbEntity
  8
치수문자_일반주서
 62
     0
100
AcDbTrace
 10
76.6646575274173
 20
28.14840367330666
 30
0.0
 11
76.6646575274173
 21
28.98173700663999
 31
0.0
 12
79.1646575274173
 22
28.56507033997332
 32
0.0
 13
79.1646575274173
 23
28.56507033997332
 33
0.0
  0
SOLID
  5
322
330
31B
100
AcDbEntity
  8
치수문자_일반주서
 62
     0
100
AcDbTrace
 10
43.56465752741732
 20
28.98173700663999
 30
0.0
 11
43.56465752741732
 21
28.14840367330666
 31
0.0
 12
41.06465752741732
 22
28.56507033997332
 32
0.0
 13
41.06465752741732
 23
28.56507033997332
 33
0.0
  0
MTEXT
  5
323
330
31B
100
AcDbEntity
  8
치수문자_일반주서
 62
     0
100
AcDbMText
 10
60.65267643183689
 20
31.94007033997332
 30
0.0
 40
2.5
 41
0.0
 71
     2
 72
     1
  1
\A1;38.1 [1.50]
  7
SLDTEXTSTYLE0
 73
     1
 44
1.0
  0
POINT
  5
324
330
31B
100
AcDbEntity
  8
Defpoints
 62
     0
100
AcDbPoint
 10
79.1646575274173
 20
1.187321514262303
 30
0.0
  0
POINT
  5
325
330
31B
100
AcDbEntity
  8
Defpoints
 62
     0
100
AcDbPoint
 10
41.06465752741732
 20
1.271074928723894
 30
0.0
  0
POINT
  5
326
330
31B
100
AcDbEntity
  8
Defpoints
 62
     0
100
AcDbPoint
 10
41.06465752741732
 20
28.56507033997332
 30
0.0
  0
ENDBLK
  5
31D
330
31B
100
AcDbEntity
  8
0
100
AcDbBlockEnd
  0
ENDSEC
  0
SECTION
  2
ENTITIES
  0
LINE
  5
96
330
1F
100
AcDbEntity
  8
0
  6
Continuous
 62
     1
370
    25
100
AcDbLine
 10
16.71310904277638
 20
1.190625000000001
 30
0.0
 11
15.98734573011794
 21
1.190625000000001
 31
0.0
  0
LINE
  5
97
330
1F
100
AcDbEntity
  8
0
  6
Continuous
 62
     1
370
    25
100
AcDbLine
 10
15.98734573011792
 20
-1.190624999999999
 30
0.0
 11
16.71310904277638
 21
-1.190624999999999
 31
0.0
  0
LINE
  5
98
330
1F
100
AcDbEntity
  8
외형선
  6
Continuous
370
    15
100
AcDbLine
 10
11.80634233574609
 20
-1.587500000000003
 30
0.0
 11
13.2875
 21
-1.190624999999998
 31
0.0
  0
LINE
  5
99
330
1F
100
AcDbEntity
  8
외형선
  6
Continuous
370
    15
100
AcDbLine
 10
13.2875
 20
1.190625
 30
0.0
 11
11.80634233574609
 21
1.587500000000005
 31
0.0
  0
LINE
  5
9A
330
1F
100
AcDbEntity
  8
외형선
  6
Continuous
370
    15
100
AcDbLine
 10
-11.8063423357461
 20
-1.587500000000001
 30
0.0
 11
11.80634233574608
 21
-1.587500000000001
 31
0.0
  0
LINE
  5
9B
330
1F
100
AcDbEntity
  8
외형선
  6
Continuous
370
    15
100
AcDbLine
 10
11.80634233574609
 20
1.587500000000003
 30
0.0
 11
-11.8063423357461
 21
1.587500000000003
 31
0.0
  0
LINE
  5
9E
330
1F
100
AcDbEntity
  8
외형선
  6
Continuous
370
    15
100
AcDbLine
 10
13.2875
 20
-1.190624999999999
 30
0.0
 11
13.78761970710636
 21
-1.190624999999999
 31
0.0
  0
LINE
  5
9F
330
1F
100
AcDbEntity
  8
외형선
  6
Continuous
370
    15
100
AcDbLine
 10
13.78761970710636
 20
1.190625000000001
 30
0.0
 11
13.2875
 21
1.190625000000001
 31
0.0
  0
SPLINE
  5
A0
330
1F
100
AcDbEntity
  8
0
  6
Continuous
 62
     1
370
    25
100
AcDbSpline
210
0.0
220
0.0
230
1.0
 70
     8
 71
     3
 72
    14
 73
    10
 74
     0
 42
0.000000001
 43
0.00000001
 40
0.0
 40
0.0
 40
0.0
 40
0.0
 40
0.1448210190682814
 40
0.2901257400047846
 40
0.4349326554441013
 40
0.579522763202442
 40
0.7244179900676188
 40
0.8671255266851501
 40
1.0
 40
1.0
 40
1.0
 40
1.0
 10
14.28750000000076
 20
-0.4576936305009286
 30
0.0
 10
14.46513762365387
 20
-0.5495087958789031
 30
0.0
 10
14.82100618021161
 20
-0.7334457890745324
 30
0.0
 10
15.35520046312
 20
-0.9513594276462481
 30
0.0
 10
15.88841835787015
 20
-1.108819717628836
 30
0.0
 10
16.4210105650756
 20
-1.192165500741399
 30
0.0
 10
16.95125134101864
 20
-1.194758150970131
 30
0.0
 10
17.46767280409756
 20
-1.126625303049546
 30
0.0
 10
17.80563320049483
 20
-1.024266705636818
 30
0.0
 10
17.9685840029931
 20
-0.9749135395001751
 30
0.0
  0
SPLINE
  5
A1
330
1F
100
AcDbEntity
  8
외형선
  6
Continuous
370
    15
100
AcDbSpline
210
0.0
220
0.0
230
1.0
 70
    24
 71
     3
 72
    20
 73
    16
 74
     0
 42
0.000000001
 43
0.00000001
 40
0.0
 40
0.0
 40
0.0
 40
0.0
 40
0.125
 40
0.125
 40
0.25
 40
0.25
 40
0.5
 40
0.5
 40
0.625
 40
0.625
 40
0.75
 40
0.75
 40
0.875
 40
0.875
 40
1.0
 40
1.0
 40
1.0
 40
1.0
 10
14.28750000000001
 20
0.8739219266084229
 30
0.0
 10
14.2875
 20
0.8453719651451117
 30
0.0
 10
14.28750000000001
 20
0.8137466417259741
 30
0.0
 10
14.28750000000001
 20
0.7500879471550758
 30
0.0
 10
14.28750000000001
 20
0.7116054535029301
 30
0.0
 10
14.28750000000001
 20
0.5703374961475597
 30
0.0
 10
14.28750000000001
 20
0.4376610204476107
 30
0.0
 10
14.28750000000001
 20
0.1941227089935162
 30
0.0
 10
14.2875
 20
0.1065157534026583
 30
0.0
 10
14.2875
 20
-0.0648735334880272
 30
0.0
 10
14.28750000000001
 20
-0.1482212385161891
 30
0.0
 10
14.28750000000001
 20
-0.2898788654703963
 30
0.0
 10
14.2875
 20
-0.3477721256178241
 30
0.0
 10
14.28750000000001
 20
-0.4279307007021775
 30
0.0
 10
14.28749999999999
 20
-0.4503280229096017
 30
0.0
 10
14.28750000000001
 20
-0.4576936305005291
 30
0.0
  0
SPLINE
  5
A2
330
1F
100
AcDbEntity
  8
0
  6
Continuous
 62
     1
370
    25
100
AcDbSpline
210
0.0
220
0.0
230
1.0
 70
     8
 71
     3
 72
    30
 73
    26
 74
     0
 42
0.000000001
 43
0.00000001
 40
0.0
 40
0.0
 40
0.0
 40
0.0
 40
0.1250000000000021
 40
0.1250000000000021
 40
0.1875000000000031
 40
0.1875000000000031
 40
0.2500000000000042
 40
0.2500000000000042
 40
0.3750000000000062
 40
0.3750000000000062
 40
0.4375000000000056
 40
0.4375000000000056
 40
0.500000000000005
 40
0.500000000000005
 40
0.5625000000000043
 40
0.5625000000000043
 40
0.6250000000000038
 40
0.6250000000000038
 40
0.7500000000000024
 40
0.7500000000000024
 40
0.8750000000000012
 40
0.8750000000000012
 40
0.9375000000000007
 40
0.9375000000000007
 40
1.0
 40
1.0
 40
1.0
 40
1.0
 10
19.04999999999999
 20
-1.190624999999991
 30
0.0
 10
18.85460184818453
 20
-1.176481242034225
 30
0.0
 10
18.65171416101598
 20
-1.149947701712959
 30
0.0
 10
18.3547448618595
 20
-1.087121810388142
 30
0.0
 10
18.2575351446763
 20
-1.062490952443191
 30
0.0
 10
18.05883792844079
 20
-1.005685881811117
 30
0.0
 10
17.95850721710151
 20
-0.9735783280440916
 30
0.0
 10
17.65926105134579
 20
-0.8676015052235556
 30
0.0
 10
17.4643183340774
 20
-0.7844612387295508
 30
0.0
 10
17.16443185143032
 20
-0.6441688612446171
 30
0.0
 10
17.06440109358621
 20
-0.5949725650996386
 30
0.0
 10
16.86729980955426
 20
-0.4933062618521572
 30
0.0
 10
16.76957863566393
 20
-0.4407414843539137
 30
0.0
 10
16.57032626686545
 20
-0.3322384754683905
 30
0.0
 10
16.46997138328516
 20
-0.2765033991263334
 30
0.0
 10
16.27093488662883
 20
-0.1638071364550604
 30
0.0
 10
16.17349341627546
 20
-0.1070904949788877
 30
0.0
 10
15.8772526408282
 20
0.0643242772297914
 30
0.0
 10
15.6742646735787
 20
0.1803265828422063
 30
0.0
 10
15.28213494644843
 20
0.4016105180887306
 30
0.0
 10
15.08069224410848
 20
0.5091667735904593
 30
0.0
 10
14.78307411464986
 20
0.6569319460282915
 30
0.0
 10
14.68592691581384
 20
0.7037529128302211
 30
0.0
 10
14.48762275944855
 20
0.7928387712574624
 30
0.0
 10
14.38734400535002
 20
0.8349393858677348
 30
0.0
 10
14.28750000000076
 20
0.8739219266081308
 30
0.0
  0
LINE
  5
A3
330
1F
100
AcDbEntity
  8
0
  6
Continuous
 62
     1
370
    25
100
AcDbLine
 10
19.05
 20
-1.078326856457621
 30
0.0
 11
19.05
 21
0.1020143564576382
 31
0.0
  0
SPLINE
  5
A4
330
1F
100
AcDbEntity
  8
0
  6
Continuous
 62
     1
370
    25
100
AcDbSpline
210
0.0
220
0.0
230
1.0
 70
     8
 71
     3
 72
    30
 73
    26
 74
     0
 42
0.000000001
 43
0.00000001
 40
0.0
 40
0.0
 40
0.0
 40
0.0
 40
0.1249999999999996
 40
0.1249999999999996
 40
0.1874999999999994
 40
0.1874999999999994
 40
0.2499999999999992
 40
0.2499999999999992
 40
0.3750000000000021
 40
0.3750000000000021
 40
0.4375000000000019
 40
0.4375000000000019
 40
0.5000000000000017
 40
0.5000000000000017
 40
0.5625000000000014
 40
0.5625000000000014
 40
0.6250000000000012
 40
0.6250000000000012
 40
0.7500000000000008
 40
0.7500000000000008
 40
0.8750000000000004
 40
0.8750000000000004
 40
0.9375000000000002
 40
0.9375000000000002
 40
1.0
 40
1.0
 40
1.0
 40
1.0
 10
19.05
 20
-1.078326856457621
 30
0.0
 10
18.85460184818455
 20
-1.030007052989899
 30
0.0
 10
18.65171416101603
 20
-0.9659522626529858
 30
0.0
 10
18.35474486185951
 20
-0.8518802473266339
 30
0.0
 10
18.2575351446763
 20
-0.811020180269104
 30
0.0
 10
18.05883792844079
 20
-0.723377049627543
 30
0.0
 10
17.9585072171015
 20
-0.6767321501767417
 30
0.0
 10
17.6592610513458
 20
-0.5304805234824803
 30
0.0
 10
17.4643183340774
 20
-0.4250028567320563
 30
0.0
 10
17.16443185143034
 20
-0.2588448581906487
 30
0.0
 10
17.06440109358621
 20
-0.2023460991733937
 30
0.0
 10
16.86729980955427
 20
-0.0889026587366008
 30
0.0
 10
16.76957863566394
 20
-0.0318368714993642
 30
0.0
 10
16.57032626686548
 20
0.0828519064550578
 30
0.0
 10
16.46997138328517
 20
0.1402456258921274
 30
0.0
 10
16.27093488662883
 20
0.2533420637031787
 30
0.0
 10
16.17349341627546
 20
0.308815453200438
 30
0.0
 10
15.8772526408282
 20
0.4722002799522825
 30
0.0
 10
15.6742646735787
 20
0.5769626512446145
 30
0.0
 10
15.28213494644846
 20
0.76544744932405
 30
0.0
 10
15.0806922441085
 20
0.851133517483477
 30
0.0
 10
14.78307411464986
 20
0.9595982765755061
 30
0.0
 10
14.68592691581385
 20
0.9923215013203649
 30
0.0
 10
14.48762275944856
 20
1.051124573697419
 30
0.0
 10
14.38734400535003
 20
1.077072910051321
 30
0.0
 10
14.28750000000076
 20
1.099138040113203
 30
0.0
  0
SPLINE
  5
A5
330
1F
100
AcDbEntity
  8
0
  6
Continuous
 62
     1
370
    25
100
AcDbSpline
210
0.0
220
0.0
230
1.0
 70
     8
 71
     3
 72
    16
 73
    12
 74
     0
 42
0.000000001
 43
0.00000001
 40
0.0
 40
0.0
 40
0.0
 40
0.0
 40
0.1236291264260707
 40
0.2468464245920208
 40
0.3700950326015874
 40
0.4938002640397308
 40
0.6173451231996354
 40
0.7383253006001997
 40
0.8594342731619732
 40
0.9810233178305444
 40
1.0
 40
1.0
 40
1.0
 40
1.0
 10
19.04999999999999
 20
0.102014356457638
 30
0.0
 10
18.87185337871622
 20
0.2036302504920328
 30
0.0
 10
18.51615357084496
 20
0.4065235398748691
 30
0.0
 10
17.98339163401014
 20
0.6827630591715323
 30
0.0
 10
17.45050819876566
 20
0.913951378640259
 30
0.0
 10
16.9165007339752
 20
1.083824779917613
 30
0.0
 10
16.38601921454566
 20
1.180981744882192
 30
0.0
 10
15.85971585255284
 20
1.202145161750132
 30
0.0
 10
15.3361860315318
 20
1.140165403811327
 30
0.0
 10
14.95882038159354
 20
1.058547957883611
 30
0.0
 10
14.75640083021646
 20
0.9822204584836973
 30
0.0
 10
14.72907374574307
 20
0.9719160782518749
 30
0.0
  0
LINE
  5
A6
330
1F
100
AcDbEntity
  8
0
  6
Continuous
 62
     1
370
    25
100
AcDbLine
 10
19.05
 20
-1.190624999999991
 30
0.0
 11
19.05
 21
-1.078326856457621
 31
0.0
  0
LINE
  5
A7
330
1F
100
AcDbEntity
  8
외형선
  6
Continuous
370
    15
100
AcDbLine
 10
14.2875
 20
0.8739219266084254
 30
0.0
 11
14.2875
 21
1.099138040113369
 31
0.0
  0
SPLINE
  5
A8
330
1F
100
AcDbEntity
  8
0
  6
Continuous
 62
     1
370
    25
100
AcDbSpline
210
0.0
220
0.0
230
1.0
 70
     8
 71
     3
 72
    12
 73
     8
 74
     0
 42
0.000000001
 43
0.00000001
 40
0.0
 40
0.0
 40
0.0
 40
0.0
 40
0.1030976497124027
 40
0.3278907354563559
 40
0.5517666024220302
 40
0.7754856828965019
 40
1.0
 40
1.0
 40
1.0
 40
1.0
 10
16.71310904277639
 20
1.180777386818855
 30
0.0
 10
16.79340645743836
 20
1.182969750681908
 30
0.0
 10
17.04878355305791
 20
1.189942322815702
 30
0.0
 10
17.47904088009644
 20
1.119130248391813
 30
0.0
 10
18.00251105307563
 20
0.9763943238550207
 30
0.0
 10
18.52572308693635
 20
0.7687646865610264
 30
0.0
 10
18.87503445119045
 20
0.5928764256948874
 30
0.0
 10
19.05000000000001
 20
0.5047762685261796
 30
0.0
  0
LINE
  5
A9
330
1F
100
AcDbEntity
  8
0
  6
Continuous
 62
     1
370
    25
100
AcDbLine
 10
19.05
 20
0.1020143564576381
 30
0.0
 11
19.05
 21
0.5047762685261796
 31
0.0
  0
SPLINE
  5
AA
330
1F
100
AcDbEntity
  8
0
  6
Continuous
 62
     1
370
    25
100
AcDbSpline
210
0.0
220
0.0
230
1.0
 70
     8
 71
     3
 72
    11
 73
     7
 74
     0
 42
0.000000001
 43
0.00000001
 40
0.0
 40
0.0
 40
0.0
 40
0.0
 40
0.0750141775775001
 40
0.382872686767566
 40
0.6919515372748465
 40
1.0
 40
1.0
 40
1.0
 40
1.0
 10
15.98734573011792
 20
-1.183570257216474
 30
0.0
 10
15.94486173278456
 20
-1.185704152388927
 30
0.0
 10
15.7280232266656
 20
-1.196595562577533
 30
0.0
 10
15.3361659895422
 20
-1.139201049069573
 30
0.0
 10
14.81152299859381
 20
-1.016685107001355
 30
0.0
 10
14.46197979437513
 20
-0.8778903908891167
 30
0.0
 10
14.28750000000076
 20
-0.8086089022627242
 30
0.0
  0
LINE
  5
AB
330
1F
100
AcDbEntity
  8
외형선
  6
Continuous
370
    15
100
AcDbLine
 10
14.2875
 20
-0.8086089022624092
 30
0.0
 11
14.2875
 21
-0.4576936305005279
 31
0.0
  0
SPLINE
  5
AC
330
1F
100
AcDbEntity
  8
0
  6
Continuous
 62
     1
370
    25
100
AcDbSpline
210
0.0
220
0.0
230
1.0
 70
     8
 71
     3
 72
    10
 73
     6
 74
     0
 42
0.000000001
 43
0.00000001
 40
0.0
 40
0.0
 40
0.0
 40
0.0
 40
0.4939544748756362
 40
0.9862635089247704
 40
1.0
 40
1.0
 40
1.0
 40
1.0
 10
19.04999999999999
 20
1.190625000000009
 30
0.0
 10
18.87184817788688
 20
1.16847183214142
 30
0.0
 10
18.51613798568172
 20
1.132981535874738
 30
0.0
 10
18.15589919701154
 20
1.047351473127404
 30
0.0
 10
17.97353425792823
 20
0.976827886279725
 30
0.0
 10
17.9685840029931
 20
0.9749135395001777
 30
0.0
  0
LINE
  5
AD
330
1F
100
AcDbEntity
  8
0
  6
Continuous
 62
     1
370
    25
100
AcDbLine
 10
19.05
 20
0.4992116532082247
 30
0.0
 11
19.05
 21
1.190625000000009
 31
0.0
  0
LINE
  5
AE
330
1F
100
AcDbEntity
  8
0
  6
Continuous
 62
     1
370
    25
100
AcDbLine
 10
14.28750000000076
 20
-1.099138040113198
 30
0.0
 11
14.72907374574306
 21
-0.9719160782518718
 31
0.0
  0
SPLINE
  5
AF
330
1F
100
AcDbEntity
  8
외형선
  6
Continuous
370
    15
100
AcDbSpline
210
0.0
220
0.0
230
1.0
 70
    24
 71
     3
 72
    11
 73
     7
 74
     0
 42
0.000000001
 43
0.00000001
 40
0.0
 40
0.0
 40
0.0
 40
0.0
 40
0.0223653430989104
 40
0.4505538610595011
 40
0.8911598750575663
 40
1.0
 40
1.0
 40
1.0
 40
1.0
 10
14.28750000000002
 20
-0.8348021076968156
 30
0.0
 10
14.28750000000002
 20
-0.8365538639639134
 30
0.0
 10
14.28750000000001
 20
-0.8718433091687386
 30
0.0
 10
14.28750000000001
 20
-0.9508107873761907
 30
0.0
 10
14.28749999999999
 20
-1.038621973366555
 30
0.0
 10
14.2875
 20
-1.08913239875774
 30
0.0
 10
14.2875
 20
-1.099138040113366
 30
0.0
  0
LINE
  5
B0
330
1F
100
AcDbEntity
  8
외형선
  6
Continuous
370
    15
100
AcDbLine
 10
13.2875
 20
0.0000000000000012
 30
0.0
 11
13.2875
 21
1.190625
 31
0.0
  0
LINE
  5
B1
330
1F
100
AcDbEntity
  8
외형선
  6
Continuous
370
    15
100
AcDbLine
 10
13.2875
 20
-1.190624999999998
 30
0.0
 11
13.2875
 21
0.0000000000000012
 31
0.0
  0
LINE
  5
B2
330
1F
100
AcDbEntity
  8
외형선
  6
Continuous
370
    15
100
AcDbLine
 10
11.80634233574609
 20
0.0000000000000012
 30
0.0
 11
11.80634233574609
 21
1.587500000000005
 31
0.0
  0
LINE
  5
B3
330
1F
100
AcDbEntity
  8
외형선
  6
Continuous
370
    15
100
AcDbLine
 10
11.80634233574609
 20
-1.587500000000004
 30
0.0
 11
11.80634233574609
 21
0.0000000000000012
 31
0.0
  0
LINE
  5
B8
330
1F
100
AcDbEntity
  8
외형선
  6
Continuous
370
    15
100
AcDbLine
 10
13.78761970710636
 20
1.176931621450115
 30
0.0
 11
13.78761970710636
 21
1.190625000000001
 31
0.0
  0
SPLINE
  5
B9
330
1F
100
AcDbEntity
  8
외형선
  6
Continuous
370
    15
100
AcDbSpline
210
0.0
220
0.0
230
1.0
 70
     8
 71
     3
 72
     8
 73
     4
 74
     0
 42
0.000000001
 43
0.00000001
 40
0.0
 40
0.0
 40
0.0
 40
0.0
 40
1.0
 40
1.0
 40
1.0
 40
1.0
 10
14.28750000000076
 20
1.099138040113202
 30
0.0
 10
14.1193021514014
 20
1.136309099031473
 30
0.0
 10
13.95547436912779
 20
1.162350865693528
 30
0.0
 10
13.78761970710636
 20
1.176952700650481
 30
0.0
  0
SPLINE
  5
BA
330
1F
100
AcDbEntity
  8
외형선
  6
Continuous
370
    15
100
AcDbSpline
210
0.0
220
0.0
230
1.0
 70
     8
 71
     3
 72
     8
 73
     4
 74
     0
 42
0.000000001
 43
0.00000001
 40
0.0
 40
0.0
 40
0.0
 40
0.0
 40
1.0
 40
1.0
 40
1.0
 40
1.0
 10
14.28750000000076
 20
0.8739219266081286
 30
0.0
 10
14.1193021514014
 20
0.9395921635195554
 30
0.0
 10
13.95547436912779
 20
0.9961003445341731
 30
0.0
 10
13.78761970710637
 20
1.042741976838903
 30
0.0
  0
LINE
  5
BB
330
1F
100
AcDbEntity
  8
외형선
  6
Continuous
370
    15
100
AcDbLine
 10
13.78761970710636
 20
-0.1800551278242563
 30
0.0
 11
13.78761970710637
 21
1.042739850016269
 31
0.0
  0
SPLINE
  5
BC
330
1F
100
AcDbEntity
  8
외형선
  6
Continuous
370
    15
100
AcDbSpline
210
0.0
220
0.0
230
1.0
 70
     8
 71
     3
 72
     8
 73
     4
 74
     0
 42
0.000000001
 43
0.00000001
 40
0.0
 40
0.0
 40
0.0
 40
0.0
 40
1.0
 40
1.0
 40
1.0
 40
1.0
 10
14.28750000000076
 20
-0.4576936305009286
 30
0.0
 10
14.1193021514014
 20
-0.3684284056306464
 30
0.0
 10
13.95547436912779
 20
-0.2754371204942792
 30
0.0
 10
13.78761970710636
 20
-0.179917289487549
 30
0.0
  0
SPLINE
  5
BD
330
1F
100
AcDbEntity
  8
외형선
  6
Continuous
370
    15
100
AcDbSpline
210
0.0
220
0.0
230
1.0
 70
     8
 71
     3
 72
     8
 73
     4
 74
     0
 42
0.000000001
 43
0.00000001
 40
0.0
 40
0.0
 40
0.0
 40
0.0
 40
1.0
 40
1.0
 40
1.0
 40
1.0
 10
14.28750000000076
 20
-0.8086089022627271
 30
0.0
 10
14.1193021514014
 20
-0.7376343436079188
 30
0.0
 10
13.95547436912779
 20
-0.659324840987781
 30
0.0
 10
13.78761970710637
 20
-0.5746973641518576
 30
0.0
  0
LINE
  5
BE
330
1F
100
AcDbEntity
  8
외형선
  6
Continuous
370
    15
100
AcDbLine
 10
13.78761970710636
 20
-1.190624999999999
 30
0.0
 11
13.78761970710637
 21
-0.5747012230829561
 31
0.0
  0
SPLINE
  5
BF
330
1F
100
AcDbEntity
  8
외형선
  6
Continuous
370
    15
100
AcDbSpline
210
0.0
220
0.0
230
1.0
 70
     8
 71
     3
 72
     8
 73
     4
 74
     0
 42
0.000000001
 43
0.00000001
 40
0.0
 40
0.0
 40
0.0
 40
0.0
 40
1.0
 40
1.0
 40
1.0
 40
1.0
 10
14.28750000000076
 20
-1.099138040113197
 30
0.0
 10
14.1193021514014
 20
-1.136309099031469
 30
0.0
 10
13.95547436912779
 20
-1.162350865693524
 30
0.0
 10
13.78761970710636
 20
-1.176952700650478
 30
0.0
  0
SPLINE
  5
C0
330
1F
100
AcDbEntity
  8
외형선
  6
Continuous
370
    15
100
AcDbSpline
210
0.0
220
0.0
230
1.0
 70
    24
 71
     3
 72
    20
 73
    16
 74
     0
 42
0.000000001
 43
0.00000001
 40
0.0
 40
0.0
 40
0.0
 40
0.0
 40
0.1250000000000001
 40
0.1250000000000001
 40
0.2500000000000001
 40
0.2500000000000001
 40
0.3750000000000002
 40
0.3750000000000002
 40
0.5000000000000002
 40
0.5000000000000002
 40
0.7500000000000002
 40
0.7500000000000002
 40
0.8750000000000001
 40
0.8750000000000001
 40
1.0
 40
1.0
 40
1.0
 40
1.0
 10
14.2875
 20
-0.4576936305005262
 30
0.0
 10
14.2875
 20
-0.4503280229096798
 30
0.0
 10
14.28750000000001
 20
-0.4279307007026911
 30
0.0
 10
14.28750000000001
 20
-0.3477721256200259
 30
0.0
 10
14.28749999999999
 20
-0.2898788654738518
 30
0.0
 10
14.28749999999999
 20
-0.1482212385223755
 30
0.0
 10
14.2875
 20
-0.0648735334956586
 30
0.0
 10
14.28750000000001
 20
0.106515753392765
 30
0.0
 10
14.2875
 20
0.1941227089828181
 30
0.0
 10
14.2875
 20
0.4376610204357791
 30
0.0
 10
14.2875
 20
0.570337496136652
 30
0.0
 10
14.28750000000001
 20
0.711605453493918
 30
0.0
 10
14.28750000000001
 20
0.7500879471467762
 30
0.0
 10
14.28750000000002
 20
0.8137466417190605
 30
0.0
 10
14.2875
 20
0.8453719651370439
 30
0.0
 10
14.28749999999999
 20
0.8739219266006238
 30
0.0
  0
SPLINE
  5
C1
330
1F
100
AcDbEntity
  8
외형선
  6
Continuous
370
    15
100
AcDbSpline
210
0.0
220
0.0
230
1.0
 70
    24
 71
     3
 72
    11
 73
     7
 74
     0
 42
0.000000001
 43
0.00000001
 40
0.0
 40
0.0
 40
0.0
 40
0.0
 40
0.28274784070301
 40
0.5689655726095735
 40
0.9974045845777071
 40
1.0
 40
1.0
 40
1.0
 40
1.0
 10
14.2875
 20
-1.099138040113364
 30
0.0
 10
14.28749999999999
 20
-1.073170087014681
 30
0.0
 10
14.28749999999998
 20
-1.020915501205804
 30
0.0
 10
14.28750000000008
 20
-0.9323318952590617
 30
0.0
 10
14.28749999999972
 20
-0.8686447928688823
 30
0.0
 10
14.28749999999999
 20
-0.8349947270105871
 30
0.0
 10
14.28749999999999
 20
-0.8347921076968153
 30
0.0
  0
LINE
  5
C2
330
1F
100
AcDbEntity
  8
중심선
 62
     1
100
AcDbLine
 10
-22.05000000000001
 20
-0.0000000000000027
 30
0.0
 11
22.05000000000001
 21
0.0000000000000027
 31
0.0
  0
LINE
  5
C3
330
1F
100
AcDbEntity
  8
참조1
100
AcDbLine
 10
-20.44411934298438
 20
0.0010749287238892
 30
0.0
 11
-20.44411934298437
 21
-39.99892507127612
 31
0.0
  0
LINE
  5
C4
330
1F
100
AcDbEntity
  8
참조1
100
AcDbLine
 10
-20.44411934298437
 20
-39.99892507127612
 30
0.0
 11
-29.25297615729306
 21
-39.9989250712761
 31
0.0
  0
CIRCLE
  5
C5
330
1F
100
AcDbEntity
  8
해칭선
100
AcDbCircle
 10
0.0
 20
-0.0000000000000004
 30
0.0
 40
3.000000000000008
  0
INSERT
  5
C6
330
1F
100
AcDbEntity
  8
0
  6
Continuous
 62
     7
100
AcDbBlockReference
 66
     1
  2
블럭10
 10
-14.93092955792984
 20
-26.18183644212424
 30
0.0
  0
ATTRIB
  5
C7
330
C6
100
AcDbEntity
  8
FORMAT
 62
     2
100
AcDbText
 10
-24.11222484667112
 20
-24.10646952929205
 30
0.0
 40
4.233333333333333
  1
E5023006 [ 4 FLUTE ]
 41
0.75
  7
SLDTEXTSTYLE0
 11
-24.11222484667112
 21
-26.22313619595872
 31
0.0
100
AcDbAttribute
  2
AUTOATTR0
 70
     0
 74
     1
  0
SEQEND
  5
C8
330
C6
100
AcDbEntity
  8
0
  6
Continuous
 62
     7
  0
HATCH
  5
C9
330
1F
100
AcDbEntity
  8
중심선
100
AcDbHatch
 10
0.0
 20
0.0
 30
0.0
210
0.0
220
0.0
230
1.0
  2
SOLID
 70
     1
 71
     0
 91
        1
 92
        0
 93
        4
 72
     1
 10
-9.216020253548997
 20
-9.934662140480299
 11
-12.66229549738628
 21
-9.934662140480299
 72
     1
 10
-12.66229549738628
 20
-9.934662140480299
 11
-14.7905253565903
 21
-12.47098772105287
 72
     1
 10
-14.7905253565903
 20
-12.47098772105287
 11
-11.34421702763987
 21
-12.47094829175038
 72
     1
 10
-11.34421702763987
 20
-12.47094829175038
 11
-9.216020253548997
 21
-9.934662140480299
 97
        0
 75
     0
 76
     1
 98
        1
 10
19.45346271717975
 20
25.8642629307958
  0
HATCH
  5
CA
330
1F
100
AcDbEntity
  8
중심선
100
AcDbHatch
 10
0.0
 20
0.0
 30
0.0
210
0.0
220
0.0
230
1.0
  2
SOLID
 70
     1
 71
     0
 91
        1
 92
        0
 93
        4
 72
     1
 10
-4.203256262513044
 20
-9.934662140480327
 11
-7.6495315063503
 21
-9.934662140480278
 72
     1
 10
-7.6495315063503
 20
-9.934662140480278
 11
-12.18066951470772
 21
-15.33466214048032
 72
     1
 10
-12.18066951470772
 20
-15.33466214048032
 11
-8.734394270870435
 21
-15.33466214048032
 72
     1
 10
-8.734394270870435
 20
-15.33466214048032
 11
-4.203256262513044
 21
-9.934662140480327
 97
        0
 75
     0
 76
     1
 98
        1
 10
19.45346271717975
 20
25.8642629307958
  0
HATCH
  5
CB
330
1F
100
AcDbEntity
  8
중심선
100
AcDbHatch
 10
0.0
 20
0.0
 30
0.0
210
0.0
220
0.0
230
1.0
  2
SOLID
 70
     1
 71
     0
 91
        1
 92
        0
 93
        4
 72
     1
 10
0.8095077285228491
 20
-9.934662140480299
 11
-2.636767515314265
 21
-9.934662140480299
 72
     1
 10
-2.636767515314265
 20
-9.934662140480299
 11
-9.685204417203515
 21
-18.33466214048032
 72
     1
 10
-9.685204417203515
 20
-18.33466214048032
 11
-6.238929173366234
 21
-18.33466214048032
 72
     1
 10
-6.238929173366234
 20
-18.33466214048032
 11
0.8095077285228491
 21
-9.934662140480299
 97
        0
 75
     0
 76
     1
 98
        1
 10
19.45346271717975
 20
25.8642629307958
  0
HATCH
  5
CC
330
1F
100
AcDbEntity
  8
중심선
100
AcDbHatch
 10
0.0
 20
0.0
 30
0.0
210
0.0
220
0.0
230
1.0
  2
SOLID
 70
     1
 71
     0
 91
        1
 92
        0
 93
        6
 72
     3
 10
5.609398159535049
 20
-14.13466214053157
 11
3.960054785062283
 21
1.540882976769353E-10
 40
0.3939339440162628
 50
17.09539180608436
 51
320.0019657685082
 73
     0
 72
     1
 10
7.292397815235617
 20
-12.72255614511863
 11
9.597699688936654
 21
-10.78822943507068
 72
     3
 10
5.609398159482202
 20
-14.13466214048045
 11
6.600054785286829
 21
-1.278976924368180E-13
 40
0.636358354079598
 50
39.99873849337427
 51
368.4976242363724
 73
     1
 72
     1
 10
12.03473065138281
 20
-13.17466214041033
 11
4.289465466318152
 21
-13.17466214041033
 72
     1
 10
4.289465466318152
 20
-13.17466214041033
 11
4.289440421872191
 21
-15.09466214041021
 72
     1
 10
4.289440421872191
 20
-15.09466214041021
 11
8.730820191344229
 21
-15.09466214041019
 97
        0
 75
     0
 76
     1
 98
        1
 10
19.45346271717975
 20
25.8642629307958
  0
DIMENSION
  5
CD
330
1F
100
AcDbEntity
  8
치수문자_일반주서
100
AcDbDimension
  2
_D
 10
31.45407768345441
 20
-1.190624999999944
 30
0.0
 11
31.45407768345436
 21
16.75312500000005
 31
0.0
 70
   160
  1
%%c<>
 71
     2
 42
2.38125
 52
-270.0
  3
SLDDIMSTYLE0
100
AcDbAlignedDimension
 13
19.04999999999999
 23
1.190625000000009
 33
0.0
 14
19.04999999999999
 24
-1.190624999999991
 34
0.0
 50
90.0000000000002
100
AcDbRotatedDimension
1001
ACAD
1000
DSTYLE
1002
{
1070
   171
1070
     6
1070
   273
1070
     5
1070
    41
1040
2.5
1070
   140
1040
2.5
1002
}
  0
DIMENSION
  5
E2
330
1F
100
AcDbEntity
  8
치수문자_일반주서
100
AcDbDimension
  2
_D_1
 10
14.2875
 20
16.25525900110656
 30
0.0
 11
-2.359577512225492
 21
16.25525900110656
 31
0.0
 70
   160
  1
<>
 71
     2
 42
4.762499999999996
  3
SLDDIMSTYLE0
100
AcDbAlignedDimension
 13
19.04999999999999
 23
1.186246585538411
 33
0.0
 14
14.2875
 24
1.099138040113369
 34
0.0
100
AcDbRotatedDimension
1001
ACAD
1000
DSTYLE
1002
{
1070
   171
1070
     6
1070
   273
1070
     5
1070
    41
1040
2.5
1070
   140
1040
2.5
1002
}
  0
DIMENSION
  5
F7
330
1F
100
AcDbEntity
  8
치수문자_일반주서
100
AcDbDimension
  2
_D_2
 10
-19.04999999999999
 20
28.56399541124943
 30
0.0
 11
0.5380189044195802
 21
28.56399541124943
 31
0.0
 70
   160
  1
<>
 71
     2
 42
38.09999999999999
  3
SLDDIMSTYLE0
100
AcDbAlignedDimension
 13
19.04999999999999
 23
1.186246585538411
 33
0.0
 14
-19.04999999999999
 24
1.190624999999993
 34
0.0
100
AcDbRotatedDimension
1001
ACAD
1000
DSTYLE
1002
{
1070
   171
1070
     6
1070
   273
1070
     5
1070
    41
1040
2.5
1070
   140
1040
2.5
1002
}
  0
DIMENSION
  5
10B
330
1F
100
AcDbEntity
  8
치수문자_일반주서
100
AcDbDimension
  2
_D_3
 10
-28.51318063649708
 20
-1.587500000000066
 30
0.0
 11
-28.51318063649714
 21
15.74374999999996
 31
0.0
 70
   160
  1
%%c<>
 71
     2
 42
3.175000000000004
 52
-270.0
  3
SLDDIMSTYLE0
100
AcDbAlignedDimension
 13
-11.8063423357461
 23
1.587500000000003
 33
0.0
 14
-11.8063423357461
 24
-1.587500000000001
 34
0.0
 50
90.0000000000002
100
AcDbRotatedDimension
1001
ACAD
1000
DSTYLE
1002
{
1070
   171
1070
     6
1070
   273
1070
     5
1070
    41
1040
2.5
1070
   140
1040
2.5
1002
}
  0
LINE
  5
11F
330
1F
100
AcDbEntity
  8
참조1
100
AcDbLine
 10
68.7193644723612
 20
7.441074928723896
 30
0.0
 11
68.7193644723612
 21
-7.438925071276109
 31
0.0
  0
LINE
  5
120
330
1F
100
AcDbEntity
  8
참조1
100
AcDbLine
 10
81.41936447236121
 20
5.441074928723896
 30
0.0
 11
68.7193644723612
 21
5.441074928723896
 31
0.0
  0
SOLID
  5
121
330
1F
100
AcDbEntity
  8
참조1
100
AcDbTrace
 10
68.7193644723612
 20
5.441074928723896
 30
0.0
 11
75.0693644723612
 21
4.425074928723896
 31
0.0
 12
75.0693644723612
 22
6.457074928723896
 32
0.0
 13
75.0693644723612
 23
6.457074928723896
 33
0.0
  0
LINE
  5
122
330
1F
100
AcDbEntity
  8
참조1
100
AcDbLine
 10
81.41936447236121
 20
-5.438925071276109
 30
0.0
 11
68.7193644723612
 21
-5.438925071276109
 31
0.0
  0
SOLID
  5
123
330
1F
100
AcDbEntity
  8
참조1
100
AcDbTrace
 10
68.7193644723612
 20
-5.438925071276109
 30
0.0
 11
75.0693644723612
 21
-6.454925071276109
 31
0.0
 12
75.0693644723612
 22
-4.422925071276109
 32
0.0
 13
75.0693644723612
 23
-4.422925071276109
 33
0.0
  0
MTEXT
  5
124
330
1F
100
AcDbEntity
  8
참조1
100
AcDbMText
 10
78.1037146049872
 20
11.01136670591223
 30
0.0
 40
3.5
 41
0.0
 71
     1
 72
     1
  1
A
  7
SLDTEXTSTYLE0
 73
     1
 44
1.0
  0
MTEXT
  5
125
330
1F
100
AcDbEntity
  8
참조1
100
AcDbMText
 10
78.1037146049872
 20
0.1313667059122219
 30
0.0
 40
3.5
 41
0.0
 71
     1
 72
     1
  1
A
  7
SLDTEXTSTYLE0
 73
     1
 44
1.0
  0
INSERT
  5
12C
330
1F
100
AcDbEntity
  8
해칭선
100
AcDbBlockReference
  2
SW_DOWELSYMBOL_0
 10
0.0
 20
-0.0000000000000004
 30
0.0
  0
LINE
  5
2D5
330
1F
100
AcDbEntity
  8
0
  6
Continuous
 62
     1
370
    25
100
AcDbLine
 10
-16.71310904277639
 20
-1.190624999999999
 30
0.0
 11
-15.98734573011795
 21
-1.190624999999999
 31
0.0
  0
LINE
  5
2D6
330
1F
100
AcDbEntity
  8
0
  6
Continuous
 62
     1
370
    25
100
AcDbLine
 10
-15.98734573011793
 20
1.190625000000001
 30
0.0
 11
-16.71310904277639
 21
1.190625000000001
 31
0.0
  0
LINE
  5
2D7
330
1F
100
AcDbEntity
  8
외형선
  6
Continuous
370
    15
100
AcDbLine
 10
-11.80634233574609
 20
1.587500000000004
 30
0.0
 11
-13.2875
 21
1.190625
 31
0.0
  0
LINE
  5
2D8
330
1F
100
AcDbEntity
  8
외형선
  6
Continuous
370
    15
100
AcDbLine
 10
-13.2875
 20
-1.190624999999999
 30
0.0
 11
-11.80634233574609
 21
-1.587500000000004
 31
0.0
  0
LINE
  5
2D9
330
1F
100
AcDbEntity
  8
외형선
  6
Continuous
370
    15
100
AcDbLine
 10
-13.2875
 20
1.190625
 30
0.0
 11
-13.78761970710637
 21
1.190625
 31
0.0
  0
LINE
  5
2DA
330
1F
100
AcDbEntity
  8
외형선
  6
Continuous
370
    15
100
AcDbLine
 10
-13.78761970710637
 20
-1.190624999999999
 30
0.0
 11
-13.2875
 21
-1.190625
 31
0.0
  0
SPLINE
  5
2DB
330
1F
100
AcDbEntity
  8
0
  6
Continuous
 62
     1
370
    25
100
AcDbSpline
210
0.0
220
0.0
230
1.0
 70
     8
 71
     3
 72
    14
 73
    10
 74
     0
 42
0.000000001
 43
0.00000001
 40
0.0
 40
0.0
 40
0.0
 40
0.0
 40
0.1448210190682814
 40
0.2901257400047846
 40
0.4349326554441013
 40
0.579522763202442
 40
0.7244179900676188
 40
0.8671255266851501
 40
1.0
 40
1.0
 40
1.0
 40
1.0
 10
-14.28750000000077
 20
0.4576936305009305
 30
0.0
 10
-14.46513762365388
 20
0.549508795878905
 30
0.0
 10
-14.82100618021162
 20
0.7334457890745344
 30
0.0
 10
-15.35520046312001
 20
0.9513594276462501
 30
0.0
 10
-15.88841835787016
 20
1.108819717628838
 30
0.0
 10
-16.42101056507562
 20
1.192165500741401
 30
0.0
 10
-16.95125134101864
 20
1.194758150970133
 30
0.0
 10
-17.46767280409757
 20
1.126625303049548
 30
0.0
 10
-17.80563320049484
 20
1.02426670563682
 30
0.0
 10
-17.96858400299311
 20
0.9749135395001775
 30
0.0
  0
SPLINE
  5
2DC
330
1F
100
AcDbEntity
  8
외형선
  6
Continuous
370
    15
100
AcDbSpline
210
0.0
220
0.0
230
1.0
 70
    24
 71
     3
 72
    20
 73
    16
 74
     0
 42
0.000000001
 43
0.00000001
 40
0.0
 40
0.0
 40
0.0
 40
0.0
 40
0.125
 40
0.125
 40
0.25
 40
0.25
 40
0.5
 40
0.5
 40
0.625
 40
0.625
 40
0.75
 40
0.75
 40
0.875
 40
0.875
 40
1.0
 40
1.0
 40
1.0
 40
1.0
 10
-14.28750000000002
 20
-0.873921926608421
 30
0.0
 10
-14.2875
 20
-0.8453719651451098
 30
0.0
 10
-14.28750000000002
 20
-0.8137466417259722
 30
0.0
 10
-14.28750000000002
 20
-0.7500879471550739
 30
0.0
 10
-14.28750000000002
 20
-0.7116054535029283
 30
0.0
 10
-14.28750000000002
 20
-0.5703374961475578
 30
0.0
 10
-14.28750000000002
 20
-0.4376610204476089
 30
0.0
 10
-14.28750000000002
 20
-0.1941227089935144
 30
0.0
 10
-14.2875
 20
-0.1065157534026564
 30
0.0
 10
-14.2875
 20
0.0648735334880291
 30
0.0
 10
-14.28750000000002
 20
0.1482212385161909
 30
0.0
 10
-14.28750000000002
 20
0.2898788654703981
 30
0.0
 10
-14.2875
 20
0.3477721256178259
 30
0.0
 10
-14.28750000000002
 20
0.4279307007021793
 30
0.0
 10
-14.2875
 20
0.4503280229096035
 30
0.0
 10
-14.28750000000002
 20
0.457693630500531
 30
0.0
  0
SPLINE
  5
2DD
330
1F
100
AcDbEntity
  8
0
  6
Continuous
 62
     1
370
    25
100
AcDbSpline
210
0.0
220
0.0
230
1.0
 70
     8
 71
     3
 72
    30
 73
    26
 74
     0
 42
0.000000001
 43
0.00000001
 40
0.0
 40
0.0
 40
0.0
 40
0.0
 40
0.1250000000000021
 40
0.1250000000000021
 40
0.1875000000000031
 40
0.1875000000000031
 40
0.2500000000000042
 40
0.2500000000000042
 40
0.3750000000000062
 40
0.3750000000000062
 40
0.4375000000000056
 40
0.4375000000000056
 40
0.500000000000005
 40
0.500000000000005
 40
0.5625000000000043
 40
0.5625000000000043
 40
0.6250000000000038
 40
0.6250000000000038
 40
0.7500000000000024
 40
0.7500000000000024
 40
0.8750000000000012
 40
0.8750000000000012
 40
0.9375000000000007
 40
0.9375000000000007
 40
1.0
 40
1.0
 40
1.0
 40
1.0
 10
-19.04999999999999
 20
1.190624999999993
 30
0.0
 10
-18.85460184818454
 20
1.176481242034227
 30
0.0
 10
-18.65171416101598
 20
1.149947701712961
 30
0.0
 10
-18.35474486185951
 20
1.087121810388144
 30
0.0
 10
-18.25753514467631
 20
1.062490952443193
 30
0.0
 10
-18.05883792844079
 20
1.005685881811119
 30
0.0
 10
-17.95850721710152
 20
0.9735783280440939
 30
0.0
 10
-17.65926105134579
 20
0.867601505223558
 30
0.0
 10
-17.4643183340774
 20
0.7844612387295531
 30
0.0
 10
-17.16443185143033
 20
0.6441688612446194
 30
0.0
 10
-17.06440109358621
 20
0.5949725650996408
 30
0.0
 10
-16.86729980955428
 20
0.4933062618521594
 30
0.0
 10
-16.76957863566394
 20
0.4407414843539159
 30
0.0
 10
-16.57032626686546
 20
0.3322384754683926
 30
0.0
 10
-16.46997138328517
 20
0.2765033991263355
 30
0.0
 10
-16.27093488662883
 20
0.1638071364550624
 30
0.0
 10
-16.17349341627547
 20
0.1070904949788897
 30
0.0
 10
-15.8772526408282
 20
-0.0643242772297894
 30
0.0
 10
-15.67426467357872
 20
-0.1803265828422044
 30
0.0
 10
-15.28213494644843
 20
-0.4016105180887286
 30
0.0
 10
-15.08069224410849
 20
-0.5091667735904573
 30
0.0
 10
-14.78307411464986
 20
-0.6569319460282895
 30
0.0
 10
-14.68592691581385
 20
-0.7037529128302191
 30
0.0
 10
-14.48762275944855
 20
-0.7928387712574605
 30
0.0
 10
-14.38734400535003
 20
-0.8349393858677329
 30
0.0
 10
-14.28750000000076
 20
-0.873921926608129
 30
0.0
  0
LINE
  5
2DE
330
1F
100
AcDbEntity
  8
0
  6
Continuous
 62
     1
370
    25
100
AcDbLine
 10
-19.05000000000001
 20
1.078326856457623
 30
0.0
 11
-19.05000000000001
 21
-0.1020143564576357
 31
0.0
  0
SPLINE
  5
2DF
330
1F
100
AcDbEntity
  8
0
  6
Continuous
 62
     1
370
    25
100
AcDbSpline
210
0.0
220
0.0
230
1.0
 70
     8
 71
     3
 72
    30
 73
    26
 74
     0
 42
0.000000001
 43
0.00000001
 40
0.0
 40
0.0
 40
0.0
 40
0.0
 40
0.1249999999999996
 40
0.1249999999999996
 40
0.1874999999999994
 40
0.1874999999999994
 40
0.2499999999999992
 40
0.2499999999999992
 40
0.3750000000000021
 40
0.3750000000000021
 40
0.4375000000000019
 40
0.4375000000000019
 40
0.5000000000000017
 40
0.5000000000000017
 40
0.5625000000000014
 40
0.5625000000000014
 40
0.6250000000000012
 40
0.6250000000000012
 40
0.7500000000000008
 40
0.7500000000000008
 40
0.8750000000000004
 40
0.8750000000000004
 40
0.9375000000000002
 40
0.9375000000000002
 40
1.0
 40
1.0
 40
1.0
 40
1.0
 10
-19.05000000000001
 20
1.078326856457623
 30
0.0
 10
-18.85460184818455
 20
1.030007052989901
 30
0.0
 10
-18.65171416101604
 20
0.9659522626529883
 30
0.0
 10
-18.35474486185953
 20
0.8518802473266364
 30
0.0
 10
-18.25753514467631
 20
0.8110201802691064
 30
0.0
 10
-18.05883792844079
 20
0.7233770496275453
 30
0.0
 10
-17.95850721710151
 20
0.676732150176744
 30
0.0
 10
-17.6592610513458
 20
0.5304805234824826
 30
0.0
 10
-17.4643183340774
 20
0.4250028567320586
 30
0.0
 10
-17.16443185143035
 20
0.2588448581906509
 30
0.0
 10
-17.06440109358621
 20
0.2023460991733958
 30
0.0
 10
-16.86729980955428
 20
0.088902658736603
 30
0.0
 10
-16.76957863566396
 20
0.0318368714993664
 30
0.0
 10
-16.57032626686549
 20
-0.0828519064550557
 30
0.0
 10
-16.46997138328517
 20
-0.1402456258921254
 30
0.0
 10
-16.27093488662883
 20
-0.2533420637031766
 30
0.0
 10
-16.17349341627547
 20
-0.308815453200436
 30
0.0
 10
-15.87725264082821
 20
-0.4722002799522804
 30
0.0
 10
-15.67426467357872
 20
-0.5769626512446124
 30
0.0
 10
-15.28213494644848
 20
-0.765447449324048
 30
0.0
 10
-15.0806922441085
 20
-0.851133517483475
 30
0.0
 10
-14.78307411464986
 20
-0.9595982765755041
 30
0.0
 10
-14.68592691581386
 20
-0.9923215013203629
 30
0.0
 10
-14.48762275944857
 20
-1.051124573697417
 30
0.0
 10
-14.38734400535004
 20
-1.07707291005132
 30
0.0
 10
-14.28750000000077
 20
-1.099138040113201
 30
0.0
  0
SPLINE
  5
2E0
330
1F
100
AcDbEntity
  8
0
  6
Continuous
 62
     1
370
    25
100
AcDbSpline
210
0.0
220
0.0
230
1.0
 70
     8
 71
     3
 72
    16
 73
    12
 74
     0
 42
0.000000001
 43
0.00000001
 40
0.0
 40
0.0
 40
0.0
 40
0.0
 40
0.1236291264260707
 40
0.2468464245920208
 40
0.3700950326015874
 40
0.4938002640397308
 40
0.6173451231996354
 40
0.7383253006001997
 40
0.8594342731619732
 40
0.9810233178305444
 40
1.0
 40
1.0
 40
1.0
 40
1.0
 10
-19.04999999999999
 20
-0.1020143564576356
 30
0.0
 10
-18.87185337871624
 20
-0.2036302504920304
 30
0.0
 10
-18.51615357084497
 20
-0.4065235398748667
 30
0.0
 10
-17.98339163401016
 20
-0.68276305917153
 30
0.0
 10
-17.45050819876567
 20
-0.9139513786402567
 30
0.0
 10
-16.91650073397521
 20
-1.083824779917611
 30
0.0
 10
-16.38601921454567
 20
-1.18098174488219
 30
0.0
 10
-15.85971585255285
 20
-1.20214516175013
 30
0.0
 10
-15.33618603153181
 20
-1.140165403811326
 30
0.0
 10
-14.95882038159355
 20
-1.058547957883609
 30
0.0
 10
-14.75640083021646
 20
-0.9822204584836953
 30
0.0
 10
-14.72907374574308
 20
-0.9719160782518729
 30
0.0
  0
LINE
  5
2E1
330
1F
100
AcDbEntity
  8
0
  6
Continuous
 62
     1
370
    25
100
AcDbLine
 10
-19.05000000000001
 20
1.190624999999993
 30
0.0
 11
-19.05000000000001
 21
1.078326856457623
 31
0.0
  0
LINE
  5
2E2
330
1F
100
AcDbEntity
  8
외형선
  6
Continuous
370
    15
100
AcDbLine
 10
-14.2875
 20
-0.8739219266084235
 30
0.0
 11
-14.2875
 21
-1.099138040113368
 31
0.0
  0
SPLINE
  5
2E3
330
1F
100
AcDbEntity
  8
0
  6
Continuous
 62
     1
370
    25
100
AcDbSpline
210
0.0
220
0.0
230
1.0
 70
     8
 71
     3
 72
    12
 73
     8
 74
     0
 42
0.000000001
 43
0.00000001
 40
0.0
 40
0.0
 40
0.0
 40
0.0
 40
0.1030976497124027
 40
0.3278907354563559
 40
0.5517666024220302
 40
0.7754856828965019
 40
1.0
 40
1.0
 40
1.0
 40
1.0
 10
-16.71310904277639
 20
-1.180777386818853
 30
0.0
 10
-16.79340645743836
 20
-1.182969750681906
 30
0.0
 10
-17.04878355305791
 20
-1.1899423228157
 30
0.0
 10
-17.47904088009644
 20
-1.119130248391811
 30
0.0
 10
-18.00251105307563
 20
-0.9763943238550183
 30
0.0
 10
-18.52572308693635
 20
-0.7687646865610239
 30
0.0
 10
-18.87503445119046
 20
-0.592876425694885
 30
0.0
 10
-19.05000000000002
 20
-0.5047762685261772
 30
0.0
  0
LINE
  5
2E4
330
1F
100
AcDbEntity
  8
0
  6
Continuous
 62
     1
370
    25
100
AcDbLine
 10
-19.05000000000001
 20
-0.1020143564576357
 30
0.0
 11
-19.05000000000001
 21
-0.5047762685261772
 31
0.0
  0
SPLINE
  5
2E5
330
1F
100
AcDbEntity
  8
0
  6
Continuous
 62
     1
370
    25
100
AcDbSpline
210
0.0
220
0.0
230
1.0
 70
     8
 71
     3
 72
    11
 73
     7
 74
     0
 42
0.000000001
 43
0.00000001
 40
0.0
 40
0.0
 40
0.0
 40
0.0
 40
0.0750141775775001
 40
0.382872686767566
 40
0.6919515372748465
 40
1.0
 40
1.0
 40
1.0
 40
1.0
 10
-15.98734573011793
 20
1.183570257216475
 30
0.0
 10
-15.94486173278457
 20
1.185704152388929
 30
0.0
 10
-15.72802322666561
 20
1.196595562577535
 30
0.0
 10
-15.33616598954221
 20
1.139201049069575
 30
0.0
 10
-14.81152299859381
 20
1.016685107001357
 30
0.0
 10
-14.46197979437514
 20
0.8778903908891186
 30
0.0
 10
-14.28750000000076
 20
0.8086089022627261
 30
0.0
  0
LINE
  5
2E6
330
1F
100
AcDbEntity
  8
외형선
  6
Continuous
370
    15
100
AcDbLine
 10
-14.2875
 20
0.8086089022624111
 30
0.0
 11
-14.2875
 21
0.4576936305005297
 31
0.0
  0
SPLINE
  5
2E7
330
1F
100
AcDbEntity
  8
0
  6
Continuous
 62
     1
370
    25
100
AcDbSpline
210
0.0
220
0.0
230
1.0
 70
     8
 71
     3
 72
    10
 73
     6
 74
     0
 42
0.000000001
 43
0.00000001
 40
0.0
 40
0.0
 40
0.0
 40
0.0
 40
0.4939544748756362
 40
0.9862635089247704
 40
1.0
 40
1.0
 40
1.0
 40
1.0
 10
-19.04999999999999
 20
-1.190625000000007
 30
0.0
 10
-18.87184817788689
 20
-1.168471832141417
 30
0.0
 10
-18.51613798568172
 20
-1.132981535874736
 30
0.0
 10
-18.15589919701155
 20
-1.047351473127402
 30
0.0
 10
-17.97353425792823
 20
-0.9768278862797227
 30
0.0
 10
-17.96858400299311
 20
-0.9749135395001753
 30
0.0
  0
LINE
  5
2E8
330
1F
100
AcDbEntity
  8
0
  6
Continuous
 62
     1
370
    25
100
AcDbLine
 10
-19.05000000000001
 20
-0.4992116532082223
 30
0.0
 11
-19.05000000000001
 21
-1.190625000000007
 31
0.0
  0
LINE
  5
2E9
330
1F
100
AcDbEntity
  8
0
  6
Continuous
 62
     1
370
    25
100
AcDbLine
 10
-14.28750000000076
 20
1.0991380401132
 30
0.0
 11
-14.72907374574306
 21
0.9719160782518738
 31
0.0
  0
SPLINE
  5
2EA
330
1F
100
AcDbEntity
  8
외형선
  6
Continuous
370
    15
100
AcDbSpline
210
0.0
220
0.0
230
1.0
 70
    24
 71
     3
 72
    11
 73
     7
 74
     0
 42
0.000000001
 43
0.00000001
 40
0.0
 40
0.0
 40
0.0
 40
0.0
 40
0.0223653430989104
 40
0.4505538610595011
 40
0.8911598750575663
 40
1.0
 40
1.0
 40
1.0
 40
1.0
 10
-14.28750000000003
 20
0.8348021076968175
 30
0.0
 10
-14.28750000000003
 20
0.8365538639639153
 30
0.0
 10
-14.28750000000002
 20
0.8718433091687405
 30
0.0
 10
-14.28750000000002
 20
0.9508107873761926
 30
0.0
 10
-14.28749999999999
 20
1.038621973366556
 30
0.0
 10
-14.2875
 20
1.089132398757741
 30
0.0
 10
-14.2875
 20
1.099138040113367
 30
0.0
  0
LINE
  5
2EB
330
1F
100
AcDbEntity
  8
외형선
  6
Continuous
370
    15
100
AcDbLine
 10
-13.2875
 20
0.0000000000000005
 30
0.0
 11
-13.2875
 21
-1.190624999999999
 31
0.0
  0
LINE
  5
2EC
330
1F
100
AcDbEntity
  8
외형선
  6
Continuous
370
    15
100
AcDbLine
 10
-13.2875
 20
1.190625
 30
0.0
 11
-13.2875
 21
0.0000000000000005
 31
0.0
  0
LINE
  5
2ED
330
1F
100
AcDbEntity
  8
외형선
  6
Continuous
370
    15
100
AcDbLine
 10
-13.78761970710637
 20
-1.176931621450114
 30
0.0
 11
-13.78761970710637
 21
-1.190624999999999
 31
0.0
  0
SPLINE
  5
2EE
330
1F
100
AcDbEntity
  8
외형선
  6
Continuous
370
    15
100
AcDbSpline
210
0.0
220
0.0
230
1.0
 70
     8
 71
     3
 72
     8
 73
     4
 74
     0
 42
0.000000001
 43
0.00000001
 40
0.0
 40
0.0
 40
0.0
 40
0.0
 40
1.0
 40
1.0
 40
1.0
 40
1.0
 10
-14.28750000000077
 20
-1.099138040113201
 30
0.0
 10
-14.11930215140141
 20
-1.136309099031472
 30
0.0
 10
-13.9554743691278
 20
-1.162350865693527
 30
0.0
 10
-13.78761970710637
 20
-1.17695270065048
 30
0.0
  0
SPLINE
  5
2EF
330
1F
100
AcDbEntity
  8
외형선
  6
Continuous
370
    15
100
AcDbSpline
210
0.0
220
0.0
230
1.0
 70
     8
 71
     3
 72
     8
 73
     4
 74
     0
 42
0.000000001
 43
0.00000001
 40
0.0
 40
0.0
 40
0.0
 40
0.0
 40
1.0
 40
1.0
 40
1.0
 40
1.0
 10
-14.28750000000077
 20
-0.8739219266081267
 30
0.0
 10
-14.11930215140141
 20
-0.9395921635195535
 30
0.0
 10
-13.9554743691278
 20
-0.9961003445341712
 30
0.0
 10
-13.78761970710637
 20
-1.042741976838902
 30
0.0
  0
LINE
  5
2F0
330
1F
100
AcDbEntity
  8
외형선
  6
Continuous
370
    15
100
AcDbLine
 10
-13.78761970710637
 20
0.180055127824258
 30
0.0
 11
-13.78761970710637
 21
-1.042739850016267
 31
0.0
  0
SPLINE
  5
2F1
330
1F
100
AcDbEntity
  8
외형선
  6
Continuous
370
    15
100
AcDbSpline
210
0.0
220
0.0
230
1.0
 70
     8
 71
     3
 72
     8
 73
     4
 74
     0
 42
0.000000001
 43
0.00000001
 40
0.0
 40
0.0
 40
0.0
 40
0.0
 40
1.0
 40
1.0
 40
1.0
 40
1.0
 10
-14.28750000000077
 20
0.4576936305009305
 30
0.0
 10
-14.11930215140141
 20
0.3684284056306482
 30
0.0
 10
-13.9554743691278
 20
0.2754371204942809
 30
0.0
 10
-13.78761970710637
 20
0.1799172894875507
 30
0.0
  0
SPLINE
  5
2F2
330
1F
100
AcDbEntity
  8
외형선
  6
Continuous
370
    15
100
AcDbSpline
210
0.0
220
0.0
230
1.0
 70
     8
 71
     3
 72
     8
 73
     4
 74
     0
 42
0.000000001
 43
0.00000001
 40
0.0
 40
0.0
 40
0.0
 40
0.0
 40
1.0
 40
1.0
 40
1.0
 40
1.0
 10
-14.28750000000077
 20
0.808608902262729
 30
0.0
 10
-14.11930215140141
 20
0.7376343436079207
 30
0.0
 10
-13.9554743691278
 20
0.6593248409877829
 30
0.0
 10
-13.78761970710637
 20
0.5746973641518595
 30
0.0
  0
LINE
  5
2F3
330
1F
100
AcDbEntity
  8
외형선
  6
Continuous
370
    15
100
AcDbLine
 10
-13.78761970710637
 20
1.190625
 30
0.0
 11
-13.78761970710637
 21
0.574701223082958
 31
0.0
  0
SPLINE
  5
2F4
330
1F
100
AcDbEntity
  8
외형선
  6
Continuous
370
    15
100
AcDbSpline
210
0.0
220
0.0
230
1.0
 70
     8
 71
     3
 72
     8
 73
     4
 74
     0
 42
0.000000001
 43
0.00000001
 40
0.0
 40
0.0
 40
0.0
 40
0.0
 40
1.0
 40
1.0
 40
1.0
 40
1.0
 10
-14.28750000000077
 20
1.099138040113199
 30
0.0
 10
-14.11930215140141
 20
1.13630909903147
 30
0.0
 10
-13.9554743691278
 20
1.162350865693526
 30
0.0
 10
-13.78761970710637
 20
1.176952700650479
 30
0.0
  0
SPLINE
  5
2F5
330
1F
100
AcDbEntity
  8
외형선
  6
Continuous
370
    15
100
AcDbSpline
210
0.0
220
0.0
230
1.0
 70
    24
 71
     3
 72
    20
 73
    16
 74
     0
 42
0.000000001
 43
0.00000001
 40
0.0
 40
0.0
 40
0.0
 40
0.0
 40
0.1250000000000001
 40
0.1250000000000001
 40
0.2500000000000001
 40
0.2500000000000001
 40
0.3750000000000002
 40
0.3750000000000002
 40
0.5000000000000002
 40
0.5000000000000002
 40
0.7500000000000002
 40
0.7500000000000002
 40
0.8750000000000001
 40
0.8750000000000001
 40
1.0
 40
1.0
 40
1.0
 40
1.0
 10
-14.2875
 20
0.457693630500528
 30
0.0
 10
-14.2875
 20
0.4503280229096817
 30
0.0
 10
-14.28750000000002
 20
0.427930700702693
 30
0.0
 10
-14.28750000000002
 20
0.3477721256200277
 30
0.0
 10
-14.2875
 20
0.2898788654738536
 30
0.0
 10
-14.2875
 20
0.1482212385223773
 30
0.0
 10
-14.2875
 20
0.0648735334956604
 30
0.0
 10
-14.28750000000002
 20
-0.1065157533927631
 30
0.0
 10
-14.2875
 20
-0.1941227089828163
 30
0.0
 10
-14.2875
 20
-0.4376610204357773
 30
0.0
 10
-14.2875
 20
-0.5703374961366501
 30
0.0
 10
-14.28750000000002
 20
-0.7116054534939161
 30
0.0
 10
-14.28750000000002
 20
-0.7500879471467743
 30
0.0
 10
-14.28750000000003
 20
-0.8137466417190586
 30
0.0
 10
-14.2875
 20
-0.845371965137042
 30
0.0
 10
-14.2875
 20
-0.873921926600622
 30
0.0
  0
SPLINE
  5
2F6
330
1F
100
AcDbEntity
  8
외형선
  6
Continuous
370
    15
100
AcDbSpline
210
0.0
220
0.0
230
1.0
 70
    24
 71
     3
 72
    11
 73
     7
 74
     0
 42
0.000000001
 43
0.00000001
 40
0.0
 40
0.0
 40
0.0
 40
0.0
 40
0.28274784070301
 40
0.5689655726095735
 40
0.9974045845777071
 40
1.0
 40
1.0
 40
1.0
 40
1.0
 10
-14.2875
 20
1.099138040113365
 30
0.0
 10
-14.2875
 20
1.073170087014683
 30
0.0
 10
-14.28749999999999
 20
1.020915501205805
 30
0.0
 10
-14.28750000000009
 20
0.9323318952590636
 30
0.0
 10
-14.28749999999973
 20
0.8686447928688842
 30
0.0
 10
-14.2875
 20
0.834994727010589
 30
0.0
 10
-14.28749999999999
 20
0.8347921076968172
 30
0.0
  0
LINE
  5
2FB
330
1F
100
AcDbEntity
  8
외형선
  6
Continuous
370
    15
100
AcDbLine
 10
-11.80634233574609
 20
0.0000000000000003
 30
0.0
 11
-11.80634233574609
 21
-1.587500000000004
 31
0.0
  0
LINE
  5
2FC
330
1F
100
AcDbEntity
  8
외형선
  6
Continuous
370
    15
100
AcDbLine
 10
-11.80634233574609
 20
1.587500000000005
 30
0.0
 11
-11.80634233574609
 21
0.0000000000000003
 31
0.0
  0
ENDSEC
  0
SECTION
  2
OBJECTS
  0
DICTIONARY
  5
C
330
0
100
AcDbDictionary
281
     1
  3
ACAD_GROUP
350
D
  3
ACAD_IMAGE_VARS
350
150
  3
ACAD_LAYOUT
350
1A
  3
ACAD_MLINESTYLE
350
17
  3
ACAD_PLOTSETTINGS
350
19
  3
ACAD_PLOTSTYLENAME
350
E
  3
ACAD_SCALELIST
350
47
  3
APPDATA
350
14E
  3
DWGPROPS
350
34D
  0
DICTIONARY
  5
34B
330
1F
100
AcDbDictionary
280
     1
281
     1
  3
DIM_BOUNDING_BOXES_V1
360
34C
  0
DICTIONARY
  5
D
102
{ACAD_REACTORS
330
C
102
}
330
C
100
AcDbDictionary
281
     1
  0
RASTERVARIABLES
  5
150
102
{ACAD_REACTORS
330
C
102
}
330
C
100
AcDbRasterVariables
 90
        0
 70
     1
 71
     1
 72
     1
  0
DICTIONARY
  5
1A
102
{ACAD_REACTORS
330
C
102
}
330
C
100
AcDbDictionary
281
     1
  3
Layout1
350
1E
  3
Layout2
350
26
  3
Model
350
22
  0
DICTIONARY
  5
17
102
{ACAD_REACTORS
330
C
102
}
330
C
100
AcDbDictionary
281
     1
  3
Standard
350
18
  0
DICTIONARY
  5
19
102
{ACAD_REACTORS
330
C
102
}
330
C
100
AcDbDictionary
281
     1
  0
ACDBDICTIONARYWDFLT
  5
E
102
{ACAD_REACTORS
330
C
102
}
330
C
100
AcDbDictionary
281
     1
  3
Normal
350
F
100
AcDbDictionaryWithDefault
340
F
  0
DICTIONARY
  5
47
102
{ACAD_REACTORS
330
C
102
}
330
C
100
AcDbDictionary
281
     1
  3
A0
350
48
  3
A1
350
49
  3
A2
350
4A
  3
A3
350
4B
  3
A4
350
4C
  3
A5
350
4D
  3
A6
350
4E
  3
A7
350
4F
  3
A8
350
50
  3
A9
350
51
  3
B0
350
52
  3
B1
350
53
  3
B2
350
54
  3
B3
350
55
  3
B4
350
56
  3
B5
350
57
  3
B6
350
58
  3
B7
350
59
  3
B8
350
5A
  3
B9
350
5B
  3
C0
350
5C
  3
C1
350
5D
  3
C2
350
5E
  3
C3
350
5F
  3
C4
350
60
  3
C5
350
61
  3
C6
350
62
  3
C7
350
63
  3
C8
350
64
  3
C9
350
65
  3
D0
350
66
  3
D1
350
67
  3
D2
350
68
  0
DICTIONARY
  5
14E
102
{ACAD_REACTORS
330
C
102
}
330
C
100
AcDbDictionary
281
     1
  0
XRECORD
  5
34D
102
{ACAD_REACTORS
330
C
102
}
330
C
100
AcDbXrecord
280
     1
  1
DWGPROPS COOKIE
  2

  3

  4

  6

  7

  8
12011056
  9

300
=
301
=
302
=
303
=
304
=
305
=
306
=
307
=
308
=
309
=
 40
0.0
 41
2458313.121439676
 42
2459719.269762824
  1

 90
        0
  0
DICTIONARY
  5
34C
102
{ACAD_REACTORS
330
34B
102
}
330
34B
100
AcDbDictionary
281
     1
  0
LAYOUT
  5
1E
102
{ACAD_REACTORS
330
1A
102
}
330
1A
100
AcDbPlotSettings
  1

  2
none_device
  4

  6

 40
0.0
 41
0.0
 42
0.0
 43
0.0
 44
0.0
 45
0.0
 46
0.0
 47
0.0
 48
0.0
 49
0.0
140
0.0
141
0.0
142
1.0
143
1.0
 70
   688
 72
     1
 73
     0
 74
     5
  7

 75
    16
147
1.0
148
0.0
149
0.0
100
AcDbLayout
  1
Layout1
 70
     1
 71
     1
 10
0.0
 20
0.0
 11
420.0
 21
297.0
 12
0.0
 22
0.0
 32
0.0
 14
1.000000000000000E+20
 24
1.000000000000000E+20
 34
1.000000000000000E+20
 15
-1.000000000000000E+20
 25
-1.000000000000000E+20
 35
-1.000000000000000E+20
146
0.0
 13
0.0
 23
0.0
 33
0.0
 16
1.0
 26
0.0
 36
0.0
 17
0.0
 27
1.0
 37
0.0
 76
     0
330
1B
  0
LAYOUT
  5
26
102
{ACAD_REACTORS
330
1A
102
}
330
1A
100
AcDbPlotSettings
  1

  2
none_device
  4

  6

 40
0.0
 41
0.0
 42
0.0
 43
0.0
 44
0.0
 45
0.0
 46
0.0
 47
0.0
 48
0.0
 49
0.0
140
0.0
141
0.0
142
1.0
143
1.0
 70
   688
 72
     1
 73
     0
 74
     5
  7

 75
    16
147
1.0
148
0.0
149
0.0
100
AcDbLayout
  1
Layout2
 70
     1
 71
     2
 10
0.0
 20
0.0
 11
0.0
 21
0.0
 12
0.0
 22
0.0
 32
0.0
 14
0.0
 24
0.0
 34
0.0
 15
0.0
 25
0.0
 35
0.0
146
0.0
 13
0.0
 23
0.0
 33
0.0
 16
1.0
 26
0.0
 36
0.0
 17
0.0
 27
1.0
 37
0.0
 76
     0
330
23
  0
LAYOUT
  5
22
102
{ACAD_REACTORS
330
1A
102
}
330
1A
100
AcDbPlotSettings
  1

  2
none_device
  4
ANSI_A_(11.00_x_8.50_Inches)
  6

 40
6.35
 41
19.05
 42
6.35000508
 43
19.05000254
 44
279.4
 45
215.9
 46
116.1905547136493
 47
80.4452313481802
 48
0.0
 49
0.0
140
0.0
141
0.0
142
0.0751733773866382
143
1.0
 70
  1696
 72
     0
 73
     0
 74
     0
  7

 75
     0
147
0.0235690232323232
148
0.0
149
0.0
100
AcDbLayout
  1
Model
 70
     1
 71
     0
 10
0.0
 20
0.0
 11
420.0
 21
297.0
 12
0.0
 22
0.0
 32
0.0
 14
-31.88818063649716
 24
-39.99892507127612
 34
0.0
 15
81.41936447236121
 25
31.93899541124943
 35
0.0
146
0.0
 13
0.0
 23
0.0
 33
0.0
 16
1.0
 26
0.0
 36
0.0
 17
0.0
 27
1.0
 37
0.0
 76
     0
330
1F
331
29
  0
MLINESTYLE
  5
18
102
{ACAD_REACTORS
330
17
102
}
330
17
100
AcDbMlineStyle
  2
Standard
 70
     0
  3

 62
   256
 51
90.0
 52
90.0
 71
     2
 49
0.5
 62
   256
  6
BYLAYER
 49
-0.5
 62
   256
  6
BYLAYER
  0
ACDBPLACEHOLDER
  5
F
102
{ACAD_REACTORS
330
E
102
}
330
E
  0
SCALE
  5
48
102
{ACAD_REACTORS
330
47
102
}
330
47
100
AcDbScale
 70
     0
300
1:1
140
1.0
141
1.0
290
     1
  0
SCALE
  5
49
102
{ACAD_REACTORS
330
47
102
}
330
47
100
AcDbScale
 70
     0
300
1:2
140
1.0
141
2.0
290
     0
  0
SCALE
  5
4A
102
{ACAD_REACTORS
330
47
102
}
330
47
100
AcDbScale
 70
     0
300
1:4
140
1.0
141
4.0
290
     0
  0
SCALE
  5
4B
102
{ACAD_REACTORS
330
47
102
}
330
47
100
AcDbScale
 70
     0
300
1:5
140
1.0
141
5.0
290
     0
  0
SCALE
  5
4C
102
{ACAD_REACTORS
330
47
102
}
330
47
100
AcDbScale
 70
     0
300
1:8
140
1.0
141
8.0
290
     0
  0
SCALE
  5
4D
102
{ACAD_REACTORS
330
47
102
}
330
47
100
AcDbScale
 70
     0
300
1:10
140
1.0
141
10.0
290
     0
  0
SCALE
  5
4E
102
{ACAD_REACTORS
330
47
102
}
330
47
100
AcDbScale
 70
     0
300
1:16
140
1.0
141
16.0
290
     0
  0
SCALE
  5
4F
102
{ACAD_REACTORS
330
47
102
}
330
47
100
AcDbScale
 70
     0
300
1:20
140
1.0
141
20.0
290
     0
  0
SCALE
  5
50
102
{ACAD_REACTORS
330
47
102
}
330
47
100
AcDbScale
 70
     0
300
1:30
140
1.0
141
30.0
290
     0
  0
SCALE
  5
51
102
{ACAD_REACTORS
330
47
102
}
330
47
100
AcDbScale
 70
     0
300
1:40
140
1.0
141
40.0
290
     0
  0
SCALE
  5
52
102
{ACAD_REACTORS
330
47
102
}
330
47
100
AcDbScale
 70
     0
300
1:50
140
1.0
141
50.0
290
     0
  0
SCALE
  5
53
102
{ACAD_REACTORS
330
47
102
}
330
47
100
AcDbScale
 70
     0
300
1:100
140
1.0
141
100.0
290
     0
  0
SCALE
  5
54
102
{ACAD_REACTORS
330
47
102
}
330
47
100
AcDbScale
 70
     0
300
2:1
140
2.0
141
1.0
290
     0
  0
SCALE
  5
55
102
{ACAD_REACTORS
330
47
102
}
330
47
100
AcDbScale
 70
     0
300
4:1
140
4.0
141
1.0
290
     0
  0
SCALE
  5
56
102
{ACAD_REACTORS
330
47
102
}
330
47
100
AcDbScale
 70
     0
300
8:1
140
8.0
141
1.0
290
     0
  0
SCALE
  5
57
102
{ACAD_REACTORS
330
47
102
}
330
47
100
AcDbScale
 70
     0
300
10:1
140
10.0
141
1.0
290
     0
  0
SCALE
  5
58
102
{ACAD_REACTORS
330
47
102
}
330
47
100
AcDbScale
 70
     0
300
100:1
140
100.0
141
1.0
290
     0
  0
SCALE
  5
59
102
{ACAD_REACTORS
330
47
102
}
330
47
100
AcDbScale
 70
     0
300
1/128" = 1'-0"
140
0.0078125
141
12.0
290
     0
  0
SCALE
  5
5A
102
{ACAD_REACTORS
330
47
102
}
330
47
100
AcDbScale
 70
     0
300
1/64" = 1'-0"
140
0.015625
141
12.0
290
     0
  0
SCALE
  5
5B
102
{ACAD_REACTORS
330
47
102
}
330
47
100
AcDbScale
 70
     0
300
1/32" = 1'-0"
140
0.03125
141
12.0
290
     0
  0
SCALE
  5
5C
102
{ACAD_REACTORS
330
47
102
}
330
47
100
AcDbScale
 70
     0
300
1/16" = 1'-0"
140
0.0625
141
12.0
290
     0
  0
SCALE
  5
5D
102
{ACAD_REACTORS
330
47
102
}
330
47
100
AcDbScale
 70
     0
300
3/32" = 1'-0"
140
0.09375
141
12.0
290
     0
  0
SCALE
  5
5E
102
{ACAD_REACTORS
330
47
102
}
330
47
100
AcDbScale
 70
     0
300
1/8" = 1'-0"
140
0.125
141
12.0
290
     0
  0
SCALE
  5
5F
102
{ACAD_REACTORS
330
47
102
}
330
47
100
AcDbScale
 70
     0
300
3/16" = 1'-0"
140
0.1875
141
12.0
290
     0
  0
SCALE
  5
60
102
{ACAD_REACTORS
330
47
102
}
330
47
100
AcDbScale
 70
     0
300
1/4" = 1'-0"
140
0.25
141
12.0
290
     0
  0
SCALE
  5
61
102
{ACAD_REACTORS
330
47
102
}
330
47
100
AcDbScale
 70
     0
300
3/8" = 1'-0"
140
0.375
141
12.0
290
     0
  0
SCALE
  5
62
102
{ACAD_REACTORS
330
47
102
}
330
47
100
AcDbScale
 70
     0
300
1/2" = 1'-0"
140
0.5
141
12.0
290
     0
  0
SCALE
  5
63
102
{ACAD_REACTORS
330
47
102
}
330
47
100
AcDbScale
 70
     0
300
3/4" = 1'-0"
140
0.75
141
12.0
290
     0
  0
SCALE
  5
64
102
{ACAD_REACTORS
330
47
102
}
330
47
100
AcDbScale
 70
     0
300
1" = 1'-0"
140
1.0
141
12.0
290
     0
  0
SCALE
  5
65
102
{ACAD_REACTORS
330
47
102
}
330
47
100
AcDbScale
 70
     0
300
1-1/2" = 1'-0"
140
1.5
141
12.0
290
     0
  0
SCALE
  5
66
102
{ACAD_REACTORS
330
47
102
}
330
47
100
AcDbScale
 70
     0
300
3" = 1'-0"
140
3.0
141
12.0
290
     0
  0
SCALE
  5
67
102
{ACAD_REACTORS
330
47
102
}
330
47
100
AcDbScale
 70
     0
300
6" = 1'-0"
140
6.0
141
12.0
290
     0
  0
SCALE
  5
68
102
{ACAD_REACTORS
330
47
102
}
330
47
100
AcDbScale
 70
     0
300
1'-0" = 1'-0"
140
12.0
141
12.0
290
     0
  0
ENDSEC
  0
EOF
