  0
SECTION
  2
HEADER
  9
$ACADVER
  1
AC1015
  9
$ACADMAINTVER
 70
     6
  9
$DWGCODEPAGE
  3
ANSI_949
  9
$INSBASE
 10
0.0
 20
0.0
 30
0.0
  9
$EXTMIN
 10
-90.19909037164251
 20
-39.99892507127611
 30
0.0
  9
$EXTMAX
 10
81.41936447236121
 20
174.2843554991033
 30
0.0
  9
$LIMMIN
 10
0.0
 20
0.0
  9
$LIMMAX
 10
420.0
 20
297.0
  9
$ORTHOMODE
 70
     0
  9
$REGENMODE
 70
     1
  9
$FILLMODE
 70
     1
  9
$QTEXTMODE
 70
     0
  9
$MIRRTEXT
 70
     1
  9
$LTSCALE
 40
1.0
  9
$ATTMODE
 70
     1
  9
$TEXTSIZE
 40
3.5
  9
$TRACEWID
 40
1.0
  9
$TEXTSTYLE
  7
Standard
  9
$CLAYER
  8
0
  9
$CELTYPE
  6
ByLayer
  9
$CECOLOR
 62
   256
  9
$CELTSCALE
 40
1.0
  9
$DISPSILH
 70
     0
  9
$DIMSCALE
 40
1.0
  9
$DIMASZ
 40
3.302
  9
$DIMEXO
 40
1.0
  9
$DIMDLI
 40
3.75
  9
$DIMRND
 40
0.0
  9
$DIMDLE
 40
0.0
  9
$DIMEXE
 40
1.0
  9
$DIMTP
 40
0.0
  9
$DIMTM
 40
0.0
  9
$DIMTXT
 40
3.5
  9
$DIMCEN
 40
2.5
  9
$DIMTSZ
 40
0.0
  9
$DIMTOL
 70
     0
  9
$DIMLIM
 70
     0
  9
$DIMTIH
 70
     1
  9
$DIMTOH
 70
     1
  9
$DIMSE1
 70
     0
  9
$DIMSE2
 70
     0
  9
$DIMTAD
 70
     1
  9
$DIMZIN
 70
     0
  9
$DIMBLK
  1

  9
$DIMASO
 70
     1
  9
$DIMSHO
 70
     1
  9
$DIMPOST
  1

  9
$DIMAPOST
  1

  9
$DIMALT
 70
     0
  9
$DIMALTD
 70
     3
  9
$DIMALTF
 40
0.0393700787401575
  9
$DIMLFAC
 40
1.0
  9
$DIMTOFL
 70
     1
  9
$DIMTVP
 40
0.0
  9
$DIMTIX
 70
     0
  9
$DIMSOXD
 70
     0
  9
$DIMSAH
 70
     0
  9
$DIMBLK1
  1

  9
$DIMBLK2
  1

  9
$DIMSTYLE
  2
ISO-25
  9
$DIMCLRD
 70
     0
  9
$DIMCLRE
 70
     0
  9
$DIMCLRT
 70
     0
  9
$DIMTFAC
 40
1.0
  9
$DIMGAP
 40
1.524
  9
$DIMJUST
 70
     0
  9
$DIMSD1
 70
     0
  9
$DIMSD2
 70
     0
  9
$DIMTOLJ
 70
     0
  9
$DIMTZIN
 70
     0
  9
$DIMALTZ
 70
     0
  9
$DIMALTTZ
 70
     0
  9
$DIMUPT
 70
     0
  9
$DIMDEC
 70
     2
  9
$DIMTDEC
 70
     2
  9
$DIMALTU
 70
     2
  9
$DIMALTTD
 70
     3
  9
$DIMTXSTY
  7
Standard
  9
$DIMAUNIT
 70
     0
  9
$DIMADEC
 70
     2
  9
$DIMALTRND
 40
0.0
  9
$DIMAZIN
 70
     0
  9
$DIMDSEP
 70
    44
  9
$DIMATFIT
 70
     3
  9
$DIMFRAC
 70
     0
  9
$DIMLDRBLK
  1

  9
$DIMLUNIT
 70
     2
  9
$DIMLWD
 70
    -2
  9
$DIMLWE
 70
    -2
  9
$DIMTMOVE
 70
     0
  9
$LUNITS
 70
     2
  9
$LUPREC
 70
     2
  9
$SKETCHINC
 40
1.0
  9
$FILLETRAD
 40
10.0
  9
$AUNITS
 70
     0
  9
$AUPREC
 70
     2
  9
$MENU
  1
.
  9
$ELEVATION
 40
0.0
  9
$PELEVATION
 40
0.0
  9
$THICKNESS
 40
0.0
  9
$LIMCHECK
 70
     0
  9
$CHAMFERA
 40
0.0
  9
$CHAMFERB
 40
0.0
  9
$CHAMFERC
 40
0.0
  9
$CHAMFERD
 40
0.0
  9
$SKPOLY
 70
     0
  9
$TDCREATE
 40
2458313.497287581
  9
$TDUCREATE
 40
2458313.122287581
  9
$TDUPDATE
 40
2459719.646047616
  9
$TDUUPDATE
 40
2459719.271047616
  9
$TDINDWG
 40
0.0017138773
  9
$TDUSRTIMER
 40
0.0001975231
  9
$USRTIMER
 70
     1
  9
$ANGBASE
 50
0.0
  9
$ANGDIR
 70
     0
  9
$PDMODE
 70
     0
  9
$PDSIZE
 40
-1.0
  9
$PLINEWID
 40
0.0
  9
$SPLFRAME
 70
     0
  9
$SPLINETYPE
 70
     6
  9
$SPLINESEGS
 70
     8
  9
$HANDSEED
  5
340
  9
$SURFTAB1
 70
     6
  9
$SURFTAB2
 70
     6
  9
$SURFTYPE
 70
     6
  9
$SURFU
 70
     6
  9
$SURFV
 70
     6
  9
$UCSBASE
  2

  9
$UCSNAME
  2

  9
$UCSORG
 10
0.0
 20
0.0
 30
0.0
  9
$UCSXDIR
 10
1.0
 20
0.0
 30
0.0
  9
$UCSYDIR
 10
0.0
 20
1.0
 30
0.0
  9
$UCSORTHOREF
  2

  9
$UCSORTHOVIEW
 70
     0
  9
$UCSORGTOP
 10
0.0
 20
0.0
 30
0.0
  9
$UCSORGBOTTOM
 10
0.0
 20
0.0
 30
0.0
  9
$UCSORGLEFT
 10
0.0
 20
0.0
 30
0.0
  9
$UCSORGRIGHT
 10
0.0
 20
0.0
 30
0.0
  9
$UCSORGFRONT
 10
0.0
 20
0.0
 30
0.0
  9
$UCSORGBACK
 10
0.0
 20
0.0
 30
0.0
  9
$PUCSBASE
  2

  9
$PUCSNAME
  2

  9
$PUCSORG
 10
0.0
 20
0.0
 30
0.0
  9
$PUCSXDIR
 10
1.0
 20
0.0
 30
0.0
  9
$PUCSYDIR
 10
0.0
 20
1.0
 30
0.0
  9
$PUCSORTHOREF
  2

  9
$PUCSORTHOVIEW
 70
     0
  9
$PUCSORGTOP
 10
0.0
 20
0.0
 30
0.0
  9
$PUCSORGBOTTOM
 10
0.0
 20
0.0
 30
0.0
  9
$PUCSORGLEFT
 10
0.0
 20
0.0
 30
0.0
  9
$PUCSORGRIGHT
 10
0.0
 20
0.0
 30
0.0
  9
$PUCSORGFRONT
 10
0.0
 20
0.0
 30
0.0
  9
$PUCSORGBACK
 10
0.0
 20
0.0
 30
0.0
  9
$USERI1
 70
     0
  9
$USERI2
 70
     0
  9
$USERI3
 70
     0
  9
$USERI4
 70
     0
  9
$USERI5
 70
     0
  9
$USERR1
 40
0.0
  9
$USERR2
 40
0.0
  9
$USERR3
 40
0.0
  9
$USERR4
 40
0.0
  9
$USERR5
 40
0.0
  9
$WORLDVIEW
 70
     1
  9
$SHADEDGE
 70
     3
  9
$SHADEDIF
 70
    70
  9
$TILEMODE
 70
     1
  9
$MAXACTVP
 70
    64
  9
$PINSBASE
 10
0.0
 20
0.0
 30
0.0
  9
$PLIMCHECK
 70
     0
  9
$PEXTMIN
 10
1.000000000000000E+20
 20
1.000000000000000E+20
 30
1.000000000000000E+20
  9
$PEXTMAX
 10
-1.000000000000000E+20
 20
-1.000000000000000E+20
 30
-1.000000000000000E+20
  9
$PLIMMIN
 10
0.0
 20
0.0
  9
$PLIMMAX
 10
0.0
 20
0.0
  9
$UNITMODE
 70
     0
  9
$VISRETAIN
 70
     1
  9
$PLINEGEN
 70
     0
  9
$PSLTSCALE
 70
     1
  9
$TREEDEPTH
 70
  3020
  9
$CMLSTYLE
  2
Standard
  9
$CMLJUST
 70
     0
  9
$CMLSCALE
 40
20.0
  9
$PROXYGRAPHICS
 70
     1
  9
$MEASUREMENT
 70
     1
  9
$CELWEIGHT
370
    -1
  9
$ENDCAPS
280
     0
  9
$JOINSTYLE
280
     0
  9
$LWDISPLAY
290
     1
  9
$INSUNITS
 70
     4
  9
$HYPERLINKBASE
  1

  9
$STYLESHEET
  1

  9
$XEDIT
290
     1
  9
$CEPSNTYPE
380
     0
  9
$PSTYLEMODE
290
     1
  9
$FINGERPRINTGUID
  2
{119824AE-4B78-4A85-8566-524CFEFE3E2A}
  9
$VERSIONGUID
  2
{FAEB1C32-E019-11D5-929B-00C0DF256EC4}
  9
$EXTNAMES
290
     1
  9
$PSVPSCALE
 40
0.0
  9
$OLESTARTUP
290
     0
  0
ENDSEC
  0
SECTION
  2
CLASSES
  0
CLASS
  1
ACDBDICTIONARYWDFLT
  2
AcDbDictionaryWithDefault
  3
ObjectDBX Classes
 90
        0
280
     0
281
     0
  0
CLASS
  1
VISUALSTYLE
  2
AcDbVisualStyle
  3
ObjectDBX Classes
 90
     4095
280
     0
281
     0
  0
CLASS
  1
MATERIAL
  2
AcDbMaterial
  3
ObjectDBX Classes
 90
     1153
280
     0
281
     0
  0
CLASS
  1
SCALE
  2
AcDbScale
  3
ObjectDBX Classes
 90
     1153
280
     0
281
     0
  0
CLASS
  1
SUN
  2
AcDbSun
  3
SCENEOE
 90
     1153
280
     0
281
     0
  0
CLASS
  1
ACDBPLACEHOLDER
  2
AcDbPlaceHolder
  3
ObjectDBX Classes
 90
        0
280
     0
281
     0
  0
CLASS
  1
LAYOUT
  2
AcDbLayout
  3
ObjectDBX Classes
 90
        0
280
     0
281
     0
  0
CLASS
  1
TABLESTYLE
  2
AcDbTableStyle
  3
ObjectDBX Classes
 90
     4095
280
     0
281
     0
  0
CLASS
  1
MLEADERSTYLE
  2
AcDbMLeaderStyle
  3
ACDB_MLEADERSTYLE_CLASS
 90
     4095
280
     0
281
     0
  0
CLASS
  1
RASTERVARIABLES
  2
AcDbRasterVariables
  3
ISM
 90
        0
280
     0
281
     0
  0
ENDSEC
  0
SECTION
  2
TABLES
  0
TABLE
  2
VPORT
  5
8
330
0
100
AcDbSymbolTable
 70
     1
  0
VPORT
  5
29
330
8
100
AcDbSymbolTableRecord
100
AcDbViewportTableRecord
  2
*Active
 70
     0
 10
0.0
 20
0.0
 11
1.0
 21
1.0
 12
-2.89580716376841
 22
10.40916385125205
 13
0.0
 23
0.0
 14
10.0
 24
10.0
 15
10.0
 25
10.0
 16
0.0
 26
0.0
 36
1.0
 17
0.0
 27
0.0
 37
0.0
 40
95.15127424117979
 41
1.519944979367263
 42
50.0
 43
0.0
 44
0.0
 50
0.0
 51
0.0
 71
    16
 72
  2000
 73
     1
 74
     3
 75
     0
 76
     0
 77
     0
 78
     0
281
     0
 65
     1
110
0.0
120
0.0
130
0.0
111
1.0
121
0.0
131
0.0
112
0.0
122
1.0
132
0.0
 79
     0
146
0.0
  0
ENDTAB
  0
TABLE
  2
LTYPE
  5
5
330
0
100
AcDbSymbolTable
 70
     6
  0
LTYPE
  5
14
330
5
100
AcDbSymbolTableRecord
100
AcDbLinetypeTableRecord
  2
ByBlock
 70
     0
  3

 72
    65
 73
     0
 40
0.0
  0
LTYPE
  5
15
330
5
100
AcDbSymbolTableRecord
100
AcDbLinetypeTableRecord
  2
ByLayer
 70
     0
  3

 72
    65
 73
     0
 40
0.0
  0
LTYPE
  5
16
330
5
100
AcDbSymbolTableRecord
100
AcDbLinetypeTableRecord
  2
Continuous
 70
     0
  3
Solid line
 72
    65
 73
     0
 40
0.0
  0
LTYPE
  5
6A
330
5
100
AcDbSymbolTableRecord
100
AcDbLinetypeTableRecord
  2
HIDDEN
 70
     0
  3
Hidden __ __ __ __ __ __ __ __ __ __ __ __ __ __
 72
    65
 73
     2
 40
1.905
 49
1.27
 74
     0
 49
-0.635
 74
     0
  0
LTYPE
  5
6B
330
5
100
AcDbSymbolTableRecord
100
AcDbLinetypeTableRecord
  2
PHANTOM
 70
     0
  3
Phantom ______  __  __  ______  __  __  ______
 72
    65
 73
     6
 40
12.7
 49
6.35
 74
     0
 49
-1.27
 74
     0
 49
1.27
 74
     0
 49
-1.27
 74
     0
 49
1.27
 74
     0
 49
-1.27
 74
     0
  0
LTYPE
  5
6C
330
5
100
AcDbSymbolTableRecord
100
AcDbLinetypeTableRecord
  2
CENTER
 70
     0
  3
Center ____ _ ____ _ ____ _ ____ _ ____ _ ____
 72
    65
 73
     4
 40
10.16
 49
6.35
 74
     0
 49
-1.27
 74
     0
 49
1.27
 74
     0
 49
-1.27
 74
     0
  0
LTYPE
  5
6D
330
5
100
AcDbSymbolTableRecord
100
AcDbLinetypeTableRecord
  2
CENTERX2
 70
     0
  3
Center (2x) ________  __  ________  __  _____
 72
    65
 73
     4
 40
20.32
 49
12.7
 74
     0
 49
-2.54
 74
     0
 49
2.54
 74
     0
 49
-2.54
 74
     0
  0
LTYPE
  5
6E
330
5
100
AcDbSymbolTableRecord
100
AcDbLinetypeTableRecord
  2
DOT2
 70
     0
  3
Dot (.5x) ........................................
 72
    65
 73
     2
 40
0.635
 49
0.0
 74
     0
 49
-0.635
 74
     0
  0
ENDTAB
  0
TABLE
  2
LAYER
  5
2
102
{ACAD_XDICTIONARY
360
20B
102
}
330
0
100
AcDbSymbolTable
 70
    18
  0
LAYER
  5
10
330
2
100
AcDbSymbolTableRecord
100
AcDbLayerTableRecord
  2
0
 70
     0
 62
     7
  6
Continuous
370
    -3
390
F
  0
LAYER
  5
6F
330
2
100
AcDbSymbolTableRecord
100
AcDbLayerTableRecord
  2
FORMAT
 70
     0
 62
     2
  6
Continuous
370
    -3
390
F
  0
LAYER
  5
70
330
2
100
AcDbSymbolTableRecord
100
AcDbLayerTableRecord
  2
외형선
 70
     0
 62
     4
  6
Continuous
370
    30
390
F
  0
LAYER
  5
71
330
2
100
AcDbSymbolTableRecord
100
AcDbLayerTableRecord
  2
숨은선
 70
     0
 62
     2
  6
HIDDEN
370
    15
390
F
  0
LAYER
  5
72
330
2
100
AcDbSymbolTableRecord
100
AcDbLayerTableRecord
  2
중심선
 70
     0
 62
     1
  6
CENTERX2
370
    -3
390
F
  0
LAYER
  5
73
330
2
100
AcDbSymbolTableRecord
100
AcDbLayerTableRecord
  2
파단선
 70
     0
 62
     4
  6
Continuous
370
    -3
390
F
  0
LAYER
  5
74
330
2
100
AcDbSymbolTableRecord
100
AcDbLayerTableRecord
  2
해칭선
 70
     0
 62
   100
  6
Continuous
370
    -3
390
F
  0
LAYER
  5
75
330
2
100
AcDbSymbolTableRecord
100
AcDbLayerTableRecord
  2
가는실선
 70
     0
 62
     4
  6
Continuous
370
    -3
390
F
  0
LAYER
  5
76
330
2
100
AcDbSymbolTableRecord
100
AcDbLayerTableRecord
  2
치수_보조선
 70
     0
 62
     4
  6
Continuous
370
    -3
390
F
  0
LAYER
  5
77
330
2
100
AcDbSymbolTableRecord
100
AcDbLayerTableRecord
  2
치수문자_일반주서
 70
     0
 62
     7
  6
Continuous
370
    15
390
F
  0
LAYER
  5
78
330
2
100
AcDbSymbolTableRecord
100
AcDbLayerTableRecord
  2
개별주서
 70
     0
 62
   100
  6
Continuous
370
    30
390
F
  0
LAYER
  5
79
330
2
100
AcDbSymbolTableRecord
100
AcDbLayerTableRecord
  2
중간선
 70
     0
 62
     2
  6
Continuous
370
    15
390
F
  0
LAYER
  5
7A
330
2
100
AcDbSymbolTableRecord
100
AcDbLayerTableRecord
  2
윤곽선
 70
     0
 62
     3
  6
Continuous
370
    40
390
F
  0
LAYER
  5
7B
330
2
100
AcDbSymbolTableRecord
100
AcDbLayerTableRecord
  2
중심마크
 70
     0
 62
   100
  6
Continuous
370
    30
390
F
  0
LAYER
  5
7C
330
2
100
AcDbSymbolTableRecord
100
AcDbLayerTableRecord
  2
가상선
 70
     0
 62
     4
  6
PHANTOM
370
    -3
390
F
  0
LAYER
  5
7D
330
2
100
AcDbSymbolTableRecord
100
AcDbLayerTableRecord
  2
특수지정선
 70
     0
 62
     5
  6
CENTERX2
370
    60
390
F
  0
LAYER
  5
7E
330
2
100
AcDbSymbolTableRecord
100
AcDbLayerTableRecord
  2
참조1
 70
     0
 62
    -4
  6
Continuous
370
    -3
390
F
  0
LAYER
  5
153
330
2
100
AcDbSymbolTableRecord
100
AcDbLayerTableRecord
  2
Defpoints
 70
     0
 62
     7
  6
Continuous
290
     0
370
    -3
390
F
  0
ENDTAB
  0
TABLE
  2
STYLE
  5
3
330
0
100
AcDbSymbolTable
 70
     2
  0
STYLE
  5
11
330
3
100
AcDbSymbolTableRecord
100
AcDbTextStyleTableRecord
  2
Standard
 70
     0
 40
0.0
 41
1.0
 50
0.0
 71
     0
 42
3.5
  3
txt
  4

  0
STYLE
  5
94
330
3
100
AcDbSymbolTableRecord
100
AcDbTextStyleTableRecord
  2
SLDTEXTSTYLE0
 70
     0
 40
0.0
 41
0.75
 50
0.0
 71
     0
 42
3.5
  3
TXT
  4

  0
ENDTAB
  0
TABLE
  2
VIEW
  5
6
330
0
100
AcDbSymbolTable
 70
     0
  0
ENDTAB
  0
TABLE
  2
UCS
  5
7
330
0
100
AcDbSymbolTable
 70
     0
  0
ENDTAB
  0
TABLE
  2
APPID
  5
9
330
0
100
AcDbSymbolTable
 70
     5
  0
APPID
  5
12
330
9
100
AcDbSymbolTableRecord
100
AcDbRegAppTableRecord
  2
ACAD
 70
     0
  0
APPID
  5
15F
330
9
100
AcDbSymbolTableRecord
100
AcDbRegAppTableRecord
  2
PE_URL
 70
     0
  0
APPID
  5
160
330
9
100
AcDbSymbolTableRecord
100
AcDbRegAppTableRecord
  2
ACAD_DSTYLE_DIMRADIAL_EXTENSION
 70
     0
  0
APPID
  5
31A
330
9
100
AcDbSymbolTableRecord
100
AcDbRegAppTableRecord
  2
ACAD_DSTYLE_DIMFLIPARROW_SYMBOL
 70
     0
  0
APPID
  5
31B
330
9
100
AcDbSymbolTableRecord
100
AcDbRegAppTableRecord
  2
ACAD_DSTYLE_DIMFLIPARROW_WHICH_SYMBOL
 70
     0
  0
ENDTAB
  0
TABLE
  2
DIMSTYLE
  5
A
330
0
100
AcDbSymbolTable
 70
     4
100
AcDbDimStyleTable
  0
DIMSTYLE
105
27
330
A
100
AcDbSymbolTableRecord
100
AcDbDimStyleTableRecord
  2
ISO-25
 70
     0
 41
2.5
 42
0.625
 43
3.75
 44
1.25
 73
     0
 74
     0
 77
     1
 78
     8
140
2.5
141
2.5
143
0.03937007874016
147
0.625
171
     3
172
     1
178
     0
271
     2
272
     2
274
     3
278
    44
283
     0
284
     8
340
11
  0
DIMSTYLE
105
CF
102
{ACAD_REACTORS
330
CE
330
10C
330
278
330
279
330
E3
330
F8
102
}
330
A
100
AcDbSymbolTableRecord
100
AcDbDimStyleTableRecord
  2
SLDDIMSTYLE0
 70
     0
 41
3.302
 44
0.0
 45
0.000000001
 73
     0
 74
     0
 77
     1
 78
    12
 79
     3
140
3.5
143
0.0393700787401575
147
0.875
148
0.000000001
170
     1
172
     1
173
     1
178
     0
271
     2
272
     2
276
     2
284
    12
289
     0
340
94
  0
DIMSTYLE
105
E4
102
{ACAD_REACTORS
330
281
102
}
330
A
100
AcDbSymbolTableRecord
100
AcDbDimStyleTableRecord
  2
SLDDIMSTYLE1
 70
     0
 41
3.302
 44
0.0
 45
0.000000001
 73
     0
 74
     0
 77
     1
 78
    12
 79
     3
140
3.5
143
0.0393700787401575
147
0.875
148
0.000000001
170
     1
173
     1
178
     0
271
     2
272
     2
276
     2
284
    12
340
94
  0
DIMSTYLE
105
F9
102
{ACAD_REACTORS
330
27A
330
27B
102
}
330
A
100
AcDbSymbolTableRecord
100
AcDbDimStyleTableRecord
  2
SLDDIMSTYLE2
 70
     0
 41
3.302
 44
0.0
 45
0.000000001
 73
     0
 74
     0
 77
     1
 78
     4
 79
     1
140
3.5
143
0.0393700787401575
147
0.875
148
0.000000001
170
     1
173
     1
178
     0
271
     2
272
     2
276
     2
284
    12
340
94
  0
ENDTAB
  0
TABLE
  2
BLOCK_RECORD
  5
1
330
0
100
AcDbSymbolTable
 70
    20
  0
BLOCK_RECORD
  5
1F
102
{ACAD_XDICTIONARY
360
33D
102
}
330
1
100
AcDbSymbolTableRecord
100
AcDbBlockTableRecord
  2
*Model_Space
340
22
  0
BLOCK_RECORD
  5
1B
330
1
100
AcDbSymbolTableRecord
100
AcDbBlockTableRecord
  2
*Paper_Space
340
1E
  0
BLOCK_RECORD
  5
23
330
1
100
AcDbSymbolTableRecord
100
AcDbBlockTableRecord
  2
*Paper_Space0
340
26
  0
BLOCK_RECORD
  5
7F
330
1
100
AcDbSymbolTableRecord
100
AcDbBlockTableRecord
  2
블럭10
340
0
102
{BLKREFS
331
C7
102
}
  0
BLOCK_RECORD
  5
D0
330
1
100
AcDbSymbolTableRecord
100
AcDbBlockTableRecord
  2
_D
340
0
  0
BLOCK_RECORD
  5
E5
330
1
100
AcDbSymbolTableRecord
100
AcDbBlockTableRecord
  2
_D_1
340
0
  0
BLOCK_RECORD
  5
FA
330
1
100
AcDbSymbolTableRecord
100
AcDbBlockTableRecord
  2
_D_2
340
0
  0
BLOCK_RECORD
  5
10D
330
1
100
AcDbSymbolTableRecord
100
AcDbBlockTableRecord
  2
_D_3
340
0
  0
BLOCK_RECORD
  5
127
330
1
100
AcDbSymbolTableRecord
100
AcDbBlockTableRecord
  2
SW_DOWELSYMBOL_0
340
0
102
{BLKREFS
331
12D
331
27C
102
}
  0
BLOCK_RECORD
  5
1E9
330
1
100
AcDbSymbolTableRecord
100
AcDbBlockTableRecord
  2
_D_4
340
0
  0
BLOCK_RECORD
  5
203
330
1
100
AcDbSymbolTableRecord
100
AcDbBlockTableRecord
  2
*D8
340
0
  0
BLOCK_RECORD
  5
20F
330
1
100
AcDbSymbolTableRecord
100
AcDbBlockTableRecord
  2
*D9
340
0
  0
BLOCK_RECORD
  5
21B
330
1
100
AcDbSymbolTableRecord
100
AcDbBlockTableRecord
  2
*D10
340
0
  0
BLOCK_RECORD
  5
227
330
1
100
AcDbSymbolTableRecord
100
AcDbBlockTableRecord
  2
*D11
340
0
  0
BLOCK_RECORD
  5
282
330
1
100
AcDbSymbolTableRecord
100
AcDbBlockTableRecord
  2
*D12
340
0
  0
BLOCK_RECORD
  5
28E
330
1
100
AcDbSymbolTableRecord
100
AcDbBlockTableRecord
  2
*D13
340
0
  0
BLOCK_RECORD
  5
29A
330
1
100
AcDbSymbolTableRecord
100
AcDbBlockTableRecord
  2
*D14
340
0
  0
BLOCK_RECORD
  5
2A8
330
1
100
AcDbSymbolTableRecord
100
AcDbBlockTableRecord
  2
*D15
340
0
  0
BLOCK_RECORD
  5
2B6
330
1
100
AcDbSymbolTableRecord
100
AcDbBlockTableRecord
  2
*D16
340
0
  0
BLOCK_RECORD
  5
2ED
330
1
100
AcDbSymbolTableRecord
100
AcDbBlockTableRecord
  2
*D17
340
0
  0
BLOCK_RECORD
  5
2FC
330
1
100
AcDbSymbolTableRecord
100
AcDbBlockTableRecord
  2
*D18
340
0
  0
BLOCK_RECORD
  5
30B
330
1
100
AcDbSymbolTableRecord
100
AcDbBlockTableRecord
  2
*D19
340
0
  0
ENDTAB
  0
ENDSEC
  0
SECTION
  2
BLOCKS
  0
BLOCK
  5
20
330
1F
100
AcDbEntity
  8
0
100
AcDbBlockBegin
  2
*Model_Space
 70
     0
 10
0.0
 20
0.0
 30
0.0
  3
*Model_Space
  1
*Model_Space
  0
ENDBLK
  5
21
330
1F
100
AcDbEntity
  8
0
100
AcDbBlockEnd
  0
BLOCK
  5
1C
330
1B
100
AcDbEntity
 67
     1
  8
0
100
AcDbBlockBegin
  2
*Paper_Space
 70
     0
 10
0.0
 20
0.0
 30
0.0
  3
*Paper_Space
  1
*Paper_Space
  0
ENDBLK
  5
1D
330
1B
100
AcDbEntity
 67
     1
  8
0
100
AcDbBlockEnd
  0
BLOCK
  5
24
330
23
100
AcDbEntity
  8
0
100
AcDbBlockBegin
  2
*Paper_Space0
 70
     0
 10
0.0
 20
0.0
 30
0.0
  3
*Paper_Space0
  1
*Paper_Space0
  0
ENDBLK
  5
25
330
23
100
AcDbEntity
  8
0
100
AcDbBlockEnd
  0
BLOCK
  5
80
330
7F
100
AcDbEntity
  8
0
100
AcDbBlockBegin
  2
블럭10
 70
     2
 10
0.0
 20
0.0
 30
0.0
  3
블럭10
  1
블럭10
  0
ELLIPSE
  5
82
330
7F
100
AcDbEntity
  8
중심선
100
AcDbEllipse
 10
20.54032771741204
 20
12.0471743016438
 30
0.0
 11
6.600054785286829
 21
-1.261213355974178E-13
 31
0.0
210
0.0
220
0.0
230
1.0
 40
0.636358354079598
 41
0.9219305317359503
 42
6.513795318482858
  0
ELLIPSE
  5
83
330
7F
100
AcDbEntity
  8
중심선
100
AcDbEllipse
 10
20.54032771746488
 20
12.04717430159265
 30
0.0
 11
3.960054785062283
 21
1.540847449632565E-10
 31
0.0
210
0.0
220
0.0
230
1.0
 40
0.3939339440162632
 41
1.131841032648279
 42
5.62031148352944
  0
LINE
  5
84
330
7F
100
AcDbEntity
  8
중심선
100
AcDbLine
 10
2.268634060543552
 20
16.24717430164393
 30
0.0
 11
5.714909304380834
 21
16.24717430164393
 31
0.0
  0
LINE
  5
85
330
7F
100
AcDbEntity
  8
중심선
100
AcDbLine
 10
5.245725140726316
 20
7.84717430164391
 30
0.0
 11
8.692000384563599
 21
7.84717430164391
 31
0.0
  0
LINE
  5
86
330
7F
100
AcDbEntity
  8
중심선
100
AcDbLine
 10
15.74043728645272
 20
16.24717430164393
 30
0.0
 11
8.692000384563599
 21
7.84717430164391
 31
0.0
  0
LINE
  5
87
330
7F
100
AcDbEntity
  8
중심선
100
AcDbLine
 10
0.1404042013395286
 20
13.71084872107135
 30
0.0
 11
3.58671253028996
 21
13.71088815037384
 31
0.0
  0
LINE
  5
88
330
7F
100
AcDbEntity
  8
중심선
100
AcDbLine
 10
2.750260043222114
 20
10.84717430164391
 30
0.0
 11
6.196535287059397
 21
10.84717430164391
 31
0.0
  0
LINE
  5
89
330
7F
100
AcDbEntity
  8
중심선
100
AcDbLine
 10
12.29416204261559
 20
16.24717430164393
 30
0.0
 11
5.245725140726316
 21
7.84717430164391
 31
0.0
  0
LINE
  5
8A
330
7F
100
AcDbEntity
  8
중심선
100
AcDbLine
 10
10.72767329541681
 20
16.24717430164393
 30
0.0
 11
6.196535287059397
 21
10.84717430164391
 31
0.0
  0
LINE
  5
8B
330
7F
100
AcDbEntity
  8
중심선
100
AcDbLine
 10
7.28139805157953
 20
16.24717430164393
 30
0.0
 11
2.750260043222114
 21
10.84717430164391
 31
0.0
  0
LINE
  5
8C
330
7F
100
AcDbEntity
  8
중심선
100
AcDbLine
 10
5.714909304380834
 20
16.24717430164393
 30
0.0
 11
3.58671253028996
 21
13.71088815037384
 31
0.0
  0
LINE
  5
8D
330
7F
100
AcDbEntity
  8
중심선
100
AcDbLine
 10
2.268634060543552
 20
16.24717430164393
 30
0.0
 11
0.1404042013395286
 21
13.71084872107135
 31
0.0
  0
LINE
  5
8E
330
7F
100
AcDbEntity
  8
중심선
100
AcDbLine
 10
7.28139805157953
 20
16.24717430164393
 30
0.0
 11
10.72767329541681
 21
16.24717430164393
 31
0.0
  0
LINE
  5
8F
330
7F
100
AcDbEntity
  8
중심선
100
AcDbLine
 10
12.29416204261559
 20
16.24717430164393
 30
0.0
 11
15.74043728645272
 21
16.24717430164393
 31
0.0
  0
LINE
  5
90
330
7F
100
AcDbEntity
  8
중심선
100
AcDbLine
 10
19.22036997980202
 20
11.08717430171403
 30
0.0
 11
23.66174974927406
 21
11.08717430171406
 31
0.0
  0
LINE
  5
91
330
7F
100
AcDbEntity
  8
중심선
100
AcDbLine
 10
19.22039502424796
 20
13.00717430171391
 30
0.0
 11
19.22036997980202
 21
11.08717430171403
 31
0.0
  0
LINE
  5
92
330
7F
100
AcDbEntity
  8
중심선
100
AcDbLine
 10
19.22039502424796
 20
13.00717430171391
 30
0.0
 11
26.96566020931264
 21
13.00717430171391
 31
0.0
  0
LINE
  5
93
330
7F
100
AcDbEntity
  8
중심선
100
AcDbLine
 10
22.22332737316547
 20
13.45928029700563
 30
0.0
 11
24.52862924686651
 21
15.39360700705356
 31
0.0
  0
ATTDEF
  5
95
330
7F
100
AcDbEntity
  8
FORMAT
 62
     2
100
AcDbText
 10
4.408487351596664
 20
2.075366912832191
 30
0.0
 40
4.233333333333333
  1
E5023010
 41
0.75
  7
SLDTEXTSTYLE0
 11
4.408487351596664
 21
-0.0412997538344756
 31
0.0
100
AcDbAttributeDefinition
  3

  2
AUTOATTR0
 70
     0
 74
     1
  0
ENDBLK
  5
81
330
7F
100
AcDbEntity
  8
0
100
AcDbBlockEnd
  0
BLOCK
  5
D1
330
D0
100
AcDbEntity
  8
0
100
AcDbBlockBegin
  2
_D
 70
     0
 10
0.0
 20
0.0
 30
0.0
  3
_D
  1
_D
  0
LINE
  5
D3
330
D0
100
AcDbEntity
  8
치수문자_일반주서
 62
     0
370
    -2
100
AcDbLine
 10
25.4625
 20
1.984375000000016
 30
0.0
 11
35.74949228849474
 21
1.984375000000053
 31
0.0
  0
LINE
  5
D4
330
D0
100
AcDbEntity
  8
치수문자_일반주서
 62
     0
370
    -2
100
AcDbLine
 10
25.4625
 20
-1.984374999999987
 30
0.0
 11
35.74949228849476
 21
-1.984374999999947
 31
0.0
  0
LINE
  5
D5
330
D0
100
AcDbEntity
  8
치수문자_일반주서
 62
     0
370
    -2
100
AcDbLine
 10
35.74949228849474
 20
1.984375000000053
 30
0.0
 11
35.74949228849461
 21
37.46337500000006
 31
0.0
  0
LINE
  5
D6
330
D0
100
AcDbEntity
  8
치수문자_일반주서
 62
     0
370
    -2
100
AcDbLine
 10
35.74949228849474
 20
1.984375000000053
 30
0.0
 11
35.74949228849476
 21
-1.984374999999947
 31
0.0
  0
LINE
  5
D7
330
D0
100
AcDbEntity
  8
치수문자_일반주서
 62
     0
370
    -2
100
AcDbLine
 10
35.74949228849473
 20
5.286375000000053
 30
0.0
 11
35.74949228849471
 21
8.588375000000052
 31
0.0
  0
LINE
  5
D8
330
D0
100
AcDbEntity
  8
치수문자_일반주서
 62
     0
370
    -2
100
AcDbLine
 10
35.74949228849477
 20
-5.286374999999946
 30
0.0
 11
35.74949228849479
 21
-8.588374999999946
 31
0.0
  0
SOLID
  5
D9
330
D0
100
AcDbEntity
  8
치수문자_일반주서
 62
     0
100
AcDbTrace
 10
35.19915895516139
 20
5.286375000000051
 30
0.0
 11
36.29982562182806
 21
5.286375000000055
 31
0.0
 12
35.74949228849474
 22
1.984375000000053
 32
0.0
 13
35.74949228849474
 23
1.984375000000053
 33
0.0
  0
SOLID
  5
DA
330
D0
100
AcDbEntity
  8
치수문자_일반주서
 62
     0
100
AcDbTrace
 10
36.29982562182811
 20
-5.286374999999945
 30
0.0
 11
35.19915895516144
 21
-5.286374999999948
 31
0.0
 12
35.74949228849476
 22
-1.984374999999947
 32
0.0
 13
35.74949228849476
 23
-1.984374999999947
 33
0.0
  0
MTEXT
  5
DB
330
D0
100
AcDbEntity
  8
치수문자_일반주서
 62
     0
100
AcDbMText
 10
31.37449228849466
 20
23.02587500000003
 30
0.0
 40
3.5
 41
0.0
 71
     2
 72
     1
  1
\A1;%%c3.97 [5/32]
  7
SLDTEXTSTYLE0
 11
-3.580687802255621E-15
 21
1.0
 31
0.0
 73
     1
 44
1.0
  0
POINT
  5
DC
330
D0
100
AcDbEntity
  8
Defpoints
 62
     0
100
AcDbPoint
 10
25.4
 20
1.984375000000015
 30
0.0
  0
POINT
  5
DD
330
D0
100
AcDbEntity
  8
Defpoints
 62
     0
100
AcDbPoint
 10
25.4
 20
-1.984374999999987
 30
0.0
  0
POINT
  5
DE
330
D0
100
AcDbEntity
  8
Defpoints
 62
     0
100
AcDbPoint
 10
35.74949228849476
 20
-1.984374999999948
 30
0.0
  0
ENDBLK
  5
D2
330
D0
100
AcDbEntity
  8
0
100
AcDbBlockEnd
  0
BLOCK
  5
E6
330
E5
100
AcDbEntity
  8
0
100
AcDbBlockBegin
  2
_D_1
 70
     0
 10
0.0
 20
0.0
 30
0.0
  3
_D_1
  1
_D_1
  0
LINE
  5
E8
330
E5
100
AcDbEntity
  8
치수문자_일반주서
 62
     0
370
    -2
100
AcDbLine
 10
25.4
 20
2.039577642564018
 30
0.0
 11
25.4
 21
23.24997756230942
 31
0.0
  0
LINE
  5
E9
330
E5
100
AcDbEntity
  8
치수문자_일반주서
 62
     0
370
    -2
100
AcDbLine
 10
17.46250000000001
 20
1.894678537121334
 30
0.0
 11
17.46250000000001
 21
23.24997756230942
 31
0.0
  0
LINE
  5
EA
330
E5
100
AcDbEntity
  8
치수문자_일반주서
 62
     0
370
    -2
100
AcDbLine
 10
17.46250000000001
 20
23.24997756230942
 30
0.0
 11
-14.51649999999999
 21
23.24997756230942
 31
0.0
  0
LINE
  5
EB
330
E5
100
AcDbEntity
  8
치수문자_일반주서
 62
     0
370
    -2
100
AcDbLine
 10
25.4
 20
23.24997756230942
 30
0.0
 11
17.46250000000001
 21
23.24997756230942
 31
0.0
  0
LINE
  5
EC
330
E5
100
AcDbEntity
  8
치수문자_일반주서
 62
     0
370
    -2
100
AcDbLine
 10
28.702
 20
23.24997756230942
 30
0.0
 11
32.004
 21
23.24997756230942
 31
0.0
  0
LINE
  5
ED
330
E5
100
AcDbEntity
  8
치수문자_일반주서
 62
     0
370
    -2
100
AcDbLine
 10
14.16050000000001
 20
23.24997756230942
 30
0.0
 11
10.85850000000001
 21
23.24997756230942
 31
0.0
  0
SOLID
  5
EE
330
E5
100
AcDbEntity
  8
치수문자_일반주서
 62
     0
100
AcDbTrace
 10
28.702
 20
23.80031089564276
 30
0.0
 11
28.702
 21
22.69964422897609
 31
0.0
 12
25.4
 22
23.24997756230942
 32
0.0
 13
25.4
 23
23.24997756230942
 33
0.0
  0
SOLID
  5
EF
330
E5
100
AcDbEntity
  8
치수문자_일반주서
 62
     0
100
AcDbTrace
 10
14.16050000000001
 20
22.69964422897609
 30
0.0
 11
14.16050000000001
 21
23.80031089564276
 31
0.0
 12
17.46250000000001
 22
23.24997756230942
 32
0.0
 13
17.46250000000001
 23
23.24997756230942
 33
0.0
  0
MTEXT
  5
F0
330
E5
100
AcDbEntity
  8
치수문자_일반주서
 62
     0
100
AcDbMText
 10
-1.82899999999999
 20
27.62497756230942
 30
0.0
 40
3.5
 41
0.0
 71
     2
 72
     1
  1
\A1;7.94 [5/16]
  7
SLDTEXTSTYLE0
 73
     1
 44
1.0
  0
POINT
  5
F1
330
E5
100
AcDbEntity
  8
Defpoints
 62
     0
100
AcDbPoint
 10
25.4
 20
1.977077642564018
 30
0.0
  0
POINT
  5
F2
330
E5
100
AcDbEntity
  8
Defpoints
 62
     0
100
AcDbPoint
 10
17.46250000000001
 20
1.832178537121334
 30
0.0
  0
POINT
  5
F3
330
E5
100
AcDbEntity
  8
Defpoints
 62
     0
100
AcDbPoint
 10
17.46250000000001
 20
23.24997756230942
 30
0.0
  0
ENDBLK
  5
E7
330
E5
100
AcDbEntity
  8
0
100
AcDbBlockEnd
  0
BLOCK
  5
FB
330
FA
100
AcDbEntity
  8
0
100
AcDbBlockBegin
  2
_D_2
 70
     0
 10
0.0
 20
0.0
 30
0.0
  3
_D_2
  1
_D_2
  0
LINE
  5
FD
330
FA
100
AcDbEntity
  8
치수문자_일반주서
 62
     0
370
    -2
100
AcDbLine
 10
25.4
 20
2.039577642564018
 30
0.0
 11
25.4
 21
49.56749658553842
 31
0.0
  0
LINE
  5
FE
330
FA
100
AcDbEntity
  8
치수문자_일반주서
 62
     0
370
    -2
100
AcDbLine
 10
-25.4
 20
1.967500000000002
 30
0.0
 11
-25.4
 21
49.56749658553842
 31
0.0
  0
LINE
  5
FF
330
FA
100
AcDbEntity
  8
치수문자_일반주서
 62
     0
370
    -2
100
AcDbLine
 10
22.098
 20
49.56749658553842
 30
0.0
 11
-22.098
 21
49.56749658553842
 31
0.0
  0
SOLID
  5
100
330
FA
100
AcDbEntity
  8
치수문자_일반주서
 62
     0
100
AcDbTrace
 10
22.098
 20
49.01716325220509
 30
0.0
 11
22.098
 21
50.11782991887176
 31
0.0
 12
25.4
 22
49.56749658553842
 32
0.0
 13
25.4
 23
49.56749658553842
 33
0.0
  0
SOLID
  5
101
330
FA
100
AcDbEntity
  8
치수문자_일반주서
 62
     0
100
AcDbTrace
 10
-22.098
 20
50.11782991887176
 30
0.0
 11
-22.098
 21
49.01716325220509
 31
0.0
 12
-25.4
 22
49.56749658553842
 32
0.0
 13
-25.4
 23
49.56749658553842
 33
0.0
  0
MTEXT
  5
102
330
FA
100
AcDbEntity
  8
치수문자_일반주서
 62
     0
100
AcDbMText
 10
-1.29615954321876
 20
53.94249658553842
 30
0.0
 40
3.5
 41
0.0
 71
     2
 72
     1
  1
\A1;50.8 [2]
  7
SLDTEXTSTYLE0
 73
     1
 44
1.0
  0
POINT
  5
103
330
FA
100
AcDbEntity
  8
Defpoints
 62
     0
100
AcDbPoint
 10
25.4
 20
1.977077642564018
 30
0.0
  0
POINT
  5
104
330
FA
100
AcDbEntity
  8
Defpoints
 62
     0
100
AcDbPoint
 10
-25.4
 20
1.905000000000002
 30
0.0
  0
POINT
  5
105
330
FA
100
AcDbEntity
  8
Defpoints
 62
     0
100
AcDbPoint
 10
-25.4
 20
49.56749658553842
 30
0.0
  0
ENDBLK
  5
FC
330
FA
100
AcDbEntity
  8
0
100
AcDbBlockEnd
  0
BLOCK
  5
10E
330
10D
100
AcDbEntity
  8
0
100
AcDbBlockBegin
  2
_D_3
 70
     0
 10
0.0
 20
0.0
 30
0.0
  3
_D_3
  1
_D_3
  0
LINE
  5
110
330
10D
100
AcDbEntity
  8
치수문자_일반주서
 62
     0
370
    -2
100
AcDbLine
 10
-15.04384233574609
 20
2.381250000000002
 30
0.0
 11
-35.09945348013133
 21
2.381249999999927
 31
0.0
  0
LINE
  5
111
330
10D
100
AcDbEntity
  8
치수문자_일반주서
 62
     0
370
    -2
100
AcDbLine
 10
-15.04384233574609
 20
-2.381250000000007
 30
0.0
 11
-35.09945348013132
 21
-2.38125000000008
 31
0.0
  0
LINE
  5
112
330
10D
100
AcDbEntity
  8
치수문자_일반주서
 62
     0
370
    -2
100
AcDbLine
 10
-35.09945348013133
 20
2.381249999999927
 30
0.0
 11
-35.09945348013143
 21
36.98524999999992
 31
0.0
  0
LINE
  5
113
330
10D
100
AcDbEntity
  8
치수문자_일반주서
 62
     0
370
    -2
100
AcDbLine
 10
-35.09945348013133
 20
2.381249999999927
 30
0.0
 11
-35.09945348013132
 21
-2.38125000000008
 31
0.0
  0
LINE
  5
114
330
10D
100
AcDbEntity
  8
치수문자_일반주서
 62
     0
370
    -2
100
AcDbLine
 10
-35.09945348013134
 20
5.683249999999926
 30
0.0
 11
-35.09945348013134
 21
8.985249999999926
 31
0.0
  0
LINE
  5
115
330
10D
100
AcDbEntity
  8
치수문자_일반주서
 62
     0
370
    -2
100
AcDbLine
 10
-35.09945348013131
 20
-5.683250000000079
 30
0.0
 11
-35.0994534801313
 21
-8.985250000000079
 31
0.0
  0
SOLID
  5
116
330
10D
100
AcDbEntity
  8
치수문자_일반주서
 62
     0
100
AcDbTrace
 10
-35.64978681346467
 20
5.683249999999925
 30
0.0
 11
-34.549120146798
 21
5.683249999999928
 31
0.0
 12
-35.09945348013133
 22
2.381249999999927
 32
0.0
 13
-35.09945348013133
 23
2.381249999999927
 33
0.0
  0
SOLID
  5
117
330
10D
100
AcDbEntity
  8
치수문자_일반주서
 62
     0
100
AcDbTrace
 10
-34.54912014679797
 20
-5.683250000000077
 30
0.0
 11
-35.64978681346464
 21
-5.683250000000081
 31
0.0
 12
-35.09945348013132
 22
-2.38125000000008
 32
0.0
 13
-35.09945348013132
 23
-2.38125000000008
 33
0.0
  0
MTEXT
  5
118
330
10D
100
AcDbEntity
  8
치수문자_일반주서
 62
     0
100
AcDbMText
 10
-39.47445348013139
 20
22.98524999999991
 30
0.0
 40
3.5
 41
0.0
 71
     2
 72
     1
  1
\A1;%%c4.76 [3/16]
  7
SLDTEXTSTYLE0
 11
-2.983906501879680E-15
 21
1.0
 31
0.0
 73
     1
 44
1.0
  0
POINT
  5
2C0
330
10D
100
AcDbEntity
  8
Defpoints
 62
     0
100
AcDbPoint
 10
-14.98134233574609
 20
2.381250000000003
 30
0.0
  0
POINT
  5
2C1
330
10D
100
AcDbEntity
  8
Defpoints
 62
     0
100
AcDbPoint
 10
-14.98134233574609
 20
-2.381250000000006
 30
0.0
  0
POINT
  5
2C2
330
10D
100
AcDbEntity
  8
Defpoints
 62
     0
100
AcDbPoint
 10
-35.09945348013132
 20
-2.381250000000081
 30
0.0
  0
ENDBLK
  5
10F
330
10D
100
AcDbEntity
  8
0
100
AcDbBlockEnd
  0
BLOCK
  5
128
330
127
100
AcDbEntity
  8
0
100
AcDbBlockBegin
  2
SW_DOWELSYMBOL_0
 70
     0
 10
0.0
 20
0.0
 30
0.0
  3
SW_DOWELSYMBOL_0
  1
SW_DOWELSYMBOL_0
  0
CIRCLE
  5
12A
330
127
100
AcDbEntity
  8
해칭선
 62
     0
100
AcDbCircle
 10
0.0
 20
0.0
 30
0.0
 40
3.000000000000007
  0
HATCH
  5
12B
330
127
100
AcDbEntity
  8
0
  6
Continuous
 62
     0
370
     0
100
AcDbHatch
 10
0.0
 20
0.0
 30
0.0
210
0.0
220
0.0
230
1.0
  2
SOLID
 70
     1
 71
     0
 91
        1
 92
        0
 93
        3
 72
     2
 10
0.0
 20
0.0
 40
3.000000000000007
 50
0.0
 51
90.0
 73
     1
 72
     1
 10
0.0
 20
3.000000000000007
 11
0.0
 21
0.0
 72
     1
 10
0.0
 20
0.0
 11
3.000000000000007
 21
0.0
 97
        0
 75
     0
 76
     1
 98
        1
 10
0.0
 20
0.0
  0
HATCH
  5
12C
330
127
100
AcDbEntity
  8
0
  6
Continuous
 62
     0
370
     0
100
AcDbHatch
 10
0.0
 20
0.0
 30
0.0
210
0.0
220
0.0
230
1.0
  2
SOLID
 70
     1
 71
     0
 91
        1
 92
        0
 93
        3
 72
     2
 10
0.0
 20
0.0
 40
3.000000000000007
 50
180.0
 51
270.0000000000007
 73
     1
 72
     1
 10
0.0
 20
-3.000000000000007
 11
0.0
 21
0.0
 72
     1
 10
0.0
 20
0.0
 11
-3.000000000000006
 21
0.0
 97
        0
 75
     0
 76
     1
 98
        1
 10
0.0
 20
0.0
  0
ENDBLK
  5
129
330
127
100
AcDbEntity
  8
0
100
AcDbBlockEnd
  0
BLOCK
  5
1EA
330
1E9
100
AcDbEntity
  8
0
100
AcDbBlockBegin
  2
_D_4
 70
     0
 10
0.0
 20
0.0
 30
0.0
  3
_D_4
  1
_D_4
  0
LINE
  5
1EB
330
1E9
100
AcDbEntity
  8
치수문자_일반주서
 62
     0
370
    -2
100
AcDbLine
 10
102.4375000000001
 20
36.22143424691529
 30
0.0
 11
117.3750000000001
 21
36.22143424691535
 31
0.0
  0
LINE
  5
1EC
330
1E9
100
AcDbEntity
  8
치수문자_일반주서
 62
     0
370
    -2
100
AcDbLine
 10
102.4375000000001
 20
22.22143424691529
 30
0.0
 11
117.3750000000001
 21
22.22143424691535
 31
0.0
  0
LINE
  5
1ED
330
1E9
100
AcDbEntity
  8
치수문자_일반주서
 62
     0
370
    -2
100
AcDbLine
 10
117.3750000000001
 20
36.22143424691535
 30
0.0
 11
117.3750000000001
 21
22.22143424691535
 31
0.0
  0
LINE
  5
1EE
330
1E9
100
AcDbEntity
  8
치수문자_일반주서
 62
     0
370
    -2
100
AcDbLine
 10
117.3750000000001
 20
39.52343424691535
 30
0.0
 11
117.375
 21
42.82543424691535
 31
0.0
  0
LINE
  5
1EF
330
1E9
100
AcDbEntity
  8
치수문자_일반주서
 62
     0
370
    -2
100
AcDbLine
 10
117.3750000000001
 20
18.91943424691535
 30
0.0
 11
117.3750000000001
 21
15.61743424691535
 31
0.0
  0
SOLID
  5
1F0
330
1E9
100
AcDbEntity
  8
치수문자_일반주서
 62
     0
100
AcDbTrace
 10
116.8246666666667
 20
39.52343424691535
 30
0.0
 11
117.9253333333334
 21
39.52343424691535
 31
0.0
 12
117.3750000000001
 22
36.22143424691535
 32
0.0
 13
117.3750000000001
 23
36.22143424691535
 33
0.0
  0
SOLID
  5
1F1
330
1E9
100
AcDbEntity
  8
치수문자_일반주서
 62
     0
100
AcDbTrace
 10
117.9253333333335
 20
18.91943424691535
 30
0.0
 11
116.8246666666668
 21
18.91943424691535
 31
0.0
 12
117.3750000000001
 22
22.22143424691535
 32
0.0
 13
117.3750000000001
 23
22.22143424691535
 33
0.0
  0
MTEXT
  5
1F2
330
1E9
100
AcDbEntity
  8
치수문자_일반주서
 62
     0
100
AcDbMText
 10
113.0000000000001
 20
29.28713862862833
 30
0.0
 40
3.5
 41
0.0
 71
     2
 72
     1
  1
\A1;%%c14.00 [0.55]
  7
SLDTEXTSTYLE0
 11
-3.045183153257572E-15
 21
1.0
 31
0.0
 73
     1
 44
1.0
  0
POINT
  5
1F3
330
1E9
100
AcDbEntity
  8
Defpoints
 62
     0
100
AcDbPoint
 10
102.3750000000001
 20
36.22143424691529
 30
0.0
  0
POINT
  5
1F4
330
1E9
100
AcDbEntity
  8
Defpoints
 62
     0
100
AcDbPoint
 10
102.3750000000001
 20
22.22143424691529
 30
0.0
  0
POINT
  5
1F5
330
1E9
100
AcDbEntity
  8
Defpoints
 62
     0
100
AcDbPoint
 10
117.3750000000001
 20
22.22143424691535
 30
0.0
  0
ENDBLK
  5
1F6
330
1E9
100
AcDbEntity
  8
0
100
AcDbBlockEnd
  0
BLOCK
  5
204
330
203
100
AcDbEntity
  8
0
100
AcDbBlockBegin
  2
*D8
 70
     1
 10
0.0
 20
0.0
 30
0.0
  3
*D8
  1
*D8
  0
LINE
  5
205
330
203
100
AcDbEntity
  8
치수문자_일반주서
 62
     0
370
    -2
100
AcDbLine
 10
103.8657751816695
 20
19.48229575403651
 30
0.0
 11
119.6194267469468
 21
-6.150060756304035
 31
0.0
  0
MTEXT
  5
206
330
203
100
AcDbEntity
  8
치수문자_일반주서
 62
     0
100
AcDbMText
 10
115.6706384014277
 20
5.288158154535728
 30
0.0
 40
3.5
 41
0.0
 71
     5
 72
     1
  1
\A1;R.5 [R0.02]
  7
SLDTEXTSTYLE0
 11
0.5236126201129557
 21
-0.8519564684057781
 31
0.0
 73
     1
 44
1.0
  0
SOLID
  5
207
330
203
100
AcDbEntity
  8
치수문자_일반주서
 62
     0
100
AcDbTrace
 10
104.3346352247821
 20
19.77045723263868
 30
0.0
 11
103.3969151385569
 21
19.19413427543435
 31
0.0
 12
102.1368063100565
 22
22.29545601271239
 32
0.0
 13
102.1368063100565
 23
22.29545601271239
 33
0.0
  0
LINE
  5
208
330
203
100
AcDbEntity
  8
치수문자_일반주서
 62
     0
100
AcDbLine
 10
101.785
 20
22.72143424691529
 30
0.0
 11
101.965
 21
22.72143424691529
 31
0.0
  0
LINE
  5
209
330
203
100
AcDbEntity
  8
치수문자_일반주서
 62
     0
100
AcDbLine
 10
101.875
 20
22.63143424691529
 30
0.0
 11
101.875
 21
22.81143424691529
 31
0.0
  0
POINT
  5
235
330
203
100
AcDbEntity
  8
Defpoints
 62
     0
100
AcDbPoint
 10
102.1368063100565
 20
22.29545601271239
 30
0.0
  0
POINT
  5
236
330
203
100
AcDbEntity
  8
Defpoints
 62
     0
100
AcDbPoint
 10
101.875
 20
22.72143424691529
 30
0.0
  0
ENDBLK
  5
20A
330
203
100
AcDbEntity
  8
0
100
AcDbBlockEnd
  0
BLOCK
  5
210
330
20F
100
AcDbEntity
  8
0
100
AcDbBlockBegin
  2
*D9
 70
     1
 10
0.0
 20
0.0
 30
0.0
  3
*D9
  1
*D10
  0
LINE
  5
212
330
20F
100
AcDbEntity
  8
치수문자_일반주서
 62
     0
370
    -2
100
AcDbLine
 10
19.37500000000004
 20
35.78393424691529
 30
0.0
 11
19.37500000000004
 21
70.88391841499404
 31
0.0
  0
LINE
  5
213
330
20F
100
AcDbEntity
  8
치수문자_일반주서
 62
     0
370
    -2
100
AcDbLine
 10
102.3750000000001
 20
36.34643424691529
 30
0.0
 11
102.3750000000001
 21
70.88391841499404
 31
0.0
  0
LINE
  5
214
330
20F
100
AcDbEntity
  8
치수문자_일반주서
 62
     0
370
    -2
100
AcDbLine
 10
22.67700000000004
 20
70.88391841499404
 30
0.0
 11
99.07300000000006
 21
70.88391841499404
 31
0.0
  0
SOLID
  5
215
330
20F
100
AcDbEntity
  8
치수문자_일반주서
 62
     0
100
AcDbTrace
 10
22.67700000000004
 20
71.43425174832737
 30
0.0
 11
22.67700000000004
 21
70.33358508166071
 31
0.0
 12
19.37500000000004
 22
70.88391841499404
 32
0.0
 13
19.37500000000004
 23
70.88391841499404
 33
0.0
  0
SOLID
  5
216
330
20F
100
AcDbEntity
  8
치수문자_일반주서
 62
     0
100
AcDbTrace
 10
99.07300000000006
 20
70.33358508166071
 30
0.0
 11
99.07300000000006
 21
71.43425174832737
 31
0.0
 12
102.3750000000001
 22
70.88391841499404
 32
0.0
 13
102.3750000000001
 23
70.88391841499404
 33
0.0
  0
MTEXT
  5
217
330
20F
100
AcDbEntity
  8
치수문자_일반주서
 62
     0
100
AcDbMText
 10
60.87500000000005
 20
75.25891841499404
 30
0.0
 40
3.5
 41
0.0
 71
     2
 72
     1
  1
\A1;83 [3.27]
  7
SLDTEXTSTYLE0
 73
     1
 44
1.0
  0
POINT
  5
218
330
20F
100
AcDbEntity
  8
Defpoints
 62
     0
100
AcDbPoint
 10
19.37500000000004
 20
35.72143424691529
 30
0.0
  0
POINT
  5
219
330
20F
100
AcDbEntity
  8
Defpoints
 62
     0
100
AcDbPoint
 10
102.3750000000001
 20
36.28393424691529
 30
0.0
  0
POINT
  5
21A
330
20F
100
AcDbEntity
  8
Defpoints
 62
     0
100
AcDbPoint
 10
102.3750000000001
 20
70.88391841499404
 30
0.0
  0
ENDBLK
  5
211
330
20F
100
AcDbEntity
  8
0
100
AcDbBlockEnd
  0
BLOCK
  5
21C
330
21B
100
AcDbEntity
  8
0
100
AcDbBlockBegin
  2
*D10
 70
     1
 10
0.0
 20
0.0
 30
0.0
  3
*D10
  1
*D11
  0
LINE
  5
21E
330
21B
100
AcDbEntity
  8
치수문자_일반주서
 62
     0
370
    -2
100
AcDbLine
 10
76.37504186422882
 20
28.62038676313042
 30
0.0
 11
76.37504186422882
 21
61.90091383617725
 31
0.0
  0
LINE
  5
21F
330
21B
100
AcDbEntity
  8
치수문자_일반주서
 62
     0
370
    -2
100
AcDbLine
 10
102.3750000000001
 20
36.28393424691529
 30
0.0
 11
102.3750000000001
 21
61.90091383617725
 31
0.0
  0
LINE
  5
220
330
21B
100
AcDbEntity
  8
치수문자_일반주서
 62
     0
370
    -2
100
AcDbLine
 10
79.67704186422881
 20
61.90091383617725
 30
0.0
 11
99.07300000000006
 21
61.90091383617725
 31
0.0
  0
SOLID
  5
221
330
21B
100
AcDbEntity
  8
치수문자_일반주서
 62
     0
100
AcDbTrace
 10
79.67704186422881
 20
62.45124716951059
 30
0.0
 11
79.67704186422881
 21
61.35058050284392
 31
0.0
 12
76.37504186422882
 22
61.90091383617725
 32
0.0
 13
76.37504186422882
 23
61.90091383617725
 33
0.0
  0
SOLID
  5
222
330
21B
100
AcDbEntity
  8
치수문자_일반주서
 62
     0
100
AcDbTrace
 10
99.07300000000006
 20
61.35058050284392
 30
0.0
 11
99.07300000000006
 21
62.45124716951059
 31
0.0
 12
102.3750000000001
 22
61.90091383617725
 32
0.0
 13
102.3750000000001
 23
61.90091383617725
 33
0.0
  0
MTEXT
  5
223
330
21B
100
AcDbEntity
  8
치수문자_일반주서
 62
     0
100
AcDbMText
 10
89.42159572693208
 20
66.27591383617725
 30
0.0
 40
3.5
 41
0.0
 71
     2
 72
     1
  1
\A1;26 [1.02]
  7
SLDTEXTSTYLE0
 73
     1
 44
1.0
  0
POINT
  5
224
330
21B
100
AcDbEntity
  8
Defpoints
 62
     0
100
AcDbPoint
 10
76.37504186422882
 20
28.55788676313042
 30
0.0
  0
POINT
  5
225
330
21B
100
AcDbEntity
  8
Defpoints
 62
     0
100
AcDbPoint
 10
102.3750000000001
 20
36.22143424691529
 30
0.0
  0
POINT
  5
226
330
21B
100
AcDbEntity
  8
Defpoints
 62
     0
100
AcDbPoint
 10
102.3750000000001
 20
61.90091383617725
 30
0.0
  0
ENDBLK
  5
21D
330
21B
100
AcDbEntity
  8
0
100
AcDbBlockEnd
  0
BLOCK
  5
228
330
227
100
AcDbEntity
  8
0
100
AcDbBlockBegin
  2
*D11
 70
     1
 10
0.0
 20
0.0
 30
0.0
  3
*D11
  1
*D12
  0
LINE
  5
22A
330
227
100
AcDbEntity
  8
치수문자_일반주서
 62
     0
370
    -2
100
AcDbLine
 10
19.81250000000005
 20
36.22143424691529
 30
0.0
 11
4.374999999999983
 21
36.22143424691524
 31
0.0
  0
LINE
  5
22B
330
227
100
AcDbEntity
  8
치수문자_일반주서
 62
     0
370
    -2
100
AcDbLine
 10
19.81250000000005
 20
22.22143424691529
 30
0.0
 11
4.375000000000032
 21
22.22143424691524
 31
0.0
  0
LINE
  5
22C
330
227
100
AcDbEntity
  8
치수문자_일반주서
 62
     0
370
    -2
100
AcDbLine
 10
4.374999999999983
 20
36.22143424691524
 30
0.0
 11
4.375000000000032
 21
22.22143424691524
 31
0.0
  0
LINE
  5
22D
330
227
100
AcDbEntity
  8
치수문자_일반주서
 62
     0
370
    -2
100
AcDbLine
 10
4.374999999999972
 20
39.52343424691524
 30
0.0
 11
4.37499999999996
 21
42.82543424691524
 31
0.0
  0
LINE
  5
22E
330
227
100
AcDbEntity
  8
치수문자_일반주서
 62
     0
370
    -2
100
AcDbLine
 10
4.375000000000044
 20
18.91943424691524
 30
0.0
 11
4.375000000000055
 21
15.61743424691524
 31
0.0
  0
SOLID
  5
22F
330
227
100
AcDbEntity
  8
치수문자_일반주서
 62
     0
100
AcDbTrace
 10
3.824666666666638
 20
39.52343424691524
 30
0.0
 11
4.925333333333305
 21
39.52343424691524
 31
0.0
 12
4.374999999999983
 22
36.22143424691524
 32
0.0
 13
4.374999999999983
 23
36.22143424691524
 33
0.0
  0
SOLID
  5
230
330
227
100
AcDbEntity
  8
치수문자_일반주서
 62
     0
100
AcDbTrace
 10
4.925333333333377
 20
18.91943424691524
 30
0.0
 11
3.82466666666671
 21
18.91943424691523
 31
0.0
 12
4.375000000000032
 22
22.22143424691524
 32
0.0
 13
4.375000000000032
 23
22.22143424691524
 33
0.0
  0
MTEXT
  5
231
330
227
100
AcDbEntity
  8
치수문자_일반주서
 62
     0
100
AcDbMText
 10
0.0000000000000071
 20
29.22143424691528
 30
0.0
 40
3.5
 41
0.0
 71
     2
 72
     1
  1
\A1;%%c14.00 [0.55]
  7
SLDTEXTSTYLE0
 11
-3.489272363107635E-15
 21
1.0
 31
0.0
 73
     1
 44
1.0
  0
POINT
  5
232
330
227
100
AcDbEntity
  8
Defpoints
 62
     0
100
AcDbPoint
 10
19.87500000000005
 20
36.22143424691529
 30
0.0
  0
POINT
  5
233
330
227
100
AcDbEntity
  8
Defpoints
 62
     0
100
AcDbPoint
 10
19.87500000000005
 20
22.22143424691529
 30
0.0
  0
POINT
  5
234
330
227
100
AcDbEntity
  8
Defpoints
 62
     0
100
AcDbPoint
 10
4.375000000000043
 20
22.22143424691524
 30
0.0
  0
ENDBLK
  5
229
330
227
100
AcDbEntity
  8
0
100
AcDbBlockEnd
  0
BLOCK
  5
283
330
282
100
AcDbEntity
  8
0
100
AcDbBlockBegin
  2
*D12
 70
     1
 10
0.0
 20
0.0
 30
0.0
  3
*D12
  1
*D13
  0
LINE
  5
285
330
282
100
AcDbEntity
  8
치수문자_일반주서
 62
     0
370
    -2
100
AcDbLine
 10
-70.82409037164241
 20
134.8093713310246
 30
0.0
 11
-70.82409037164241
 21
169.9093554991033
 31
0.0
  0
LINE
  5
286
330
282
100
AcDbEntity
  8
치수문자_일반주서
 62
     0
370
    -2
100
AcDbLine
 10
12.1759096283576
 20
135.3718713310246
 30
0.0
 11
12.1759096283576
 21
169.9093554991033
 31
0.0
  0
LINE
  5
287
330
282
100
AcDbEntity
  8
치수문자_일반주서
 62
     0
370
    -2
100
AcDbLine
 10
-67.5220903716424
 20
169.9093554991033
 30
0.0
 11
8.873909628357602
 21
169.9093554991033
 31
0.0
  0
SOLID
  5
288
330
282
100
AcDbEntity
  8
치수문자_일반주서
 62
     0
100
AcDbTrace
 10
-67.5220903716424
 20
170.4596888324366
 30
0.0
 11
-67.5220903716424
 21
169.35902216577
 31
0.0
 12
-70.82409037164241
 22
169.9093554991033
 32
0.0
 13
-70.82409037164241
 23
169.9093554991033
 33
0.0
  0
SOLID
  5
289
330
282
100
AcDbEntity
  8
치수문자_일반주서
 62
     0
100
AcDbTrace
 10
8.873909628357602
 20
169.35902216577
 30
0.0
 11
8.873909628357602
 21
170.4596888324366
 31
0.0
 12
12.1759096283576
 22
169.9093554991033
 32
0.0
 13
12.1759096283576
 23
169.9093554991033
 33
0.0
  0
MTEXT
  5
28A
330
282
100
AcDbEntity
  8
치수문자_일반주서
 62
     0
100
AcDbMText
 10
-29.32409037164241
 20
174.2843554991033
 30
0.0
 40
3.5
 41
0.0
 71
     2
 72
     1
  1
\A1;83 [3.27]
  7
SLDTEXTSTYLE0
 73
     1
 44
1.0
  0
POINT
  5
28B
330
282
100
AcDbEntity
  8
Defpoints
 62
     0
100
AcDbPoint
 10
-70.82409037164241
 20
134.7468713310246
 30
0.0
  0
POINT
  5
28C
330
282
100
AcDbEntity
  8
Defpoints
 62
     0
100
AcDbPoint
 10
12.1759096283576
 20
135.3093713310246
 30
0.0
  0
POINT
  5
28D
330
282
100
AcDbEntity
  8
Defpoints
 62
     0
100
AcDbPoint
 10
12.1759096283576
 20
169.9093554991033
 30
0.0
  0
ENDBLK
  5
284
330
282
100
AcDbEntity
  8
0
100
AcDbBlockEnd
  0
BLOCK
  5
28F
330
28E
100
AcDbEntity
  8
0
100
AcDbBlockBegin
  2
*D13
 70
     1
 10
0.0
 20
0.0
 30
0.0
  3
*D13
  1
*D14
  0
LINE
  5
291
330
28E
100
AcDbEntity
  8
치수문자_일반주서
 62
     0
370
    -2
100
AcDbLine
 10
-13.82404850741364
 20
127.6458238472397
 30
0.0
 11
-13.82404850741364
 21
160.9263509202865
 31
0.0
  0
LINE
  5
292
330
28E
100
AcDbEntity
  8
치수문자_일반주서
 62
     0
370
    -2
100
AcDbLine
 10
12.1759096283576
 20
135.3093713310246
 30
0.0
 11
12.1759096283576
 21
160.9263509202865
 31
0.0
  0
LINE
  5
293
330
28E
100
AcDbEntity
  8
치수문자_일반주서
 62
     0
370
    -2
100
AcDbLine
 10
-10.52204850741364
 20
160.9263509202865
 30
0.0
 11
8.873909628357602
 21
160.9263509202865
 31
0.0
  0
SOLID
  5
294
330
28E
100
AcDbEntity
  8
치수문자_일반주서
 62
     0
100
AcDbTrace
 10
-10.52204850741364
 20
161.4766842536198
 30
0.0
 11
-10.52204850741364
 21
160.3760175869532
 31
0.0
 12
-13.82404850741364
 22
160.9263509202865
 32
0.0
 13
-13.82404850741364
 23
160.9263509202865
 33
0.0
  0
SOLID
  5
295
330
28E
100
AcDbEntity
  8
치수문자_일반주서
 62
     0
100
AcDbTrace
 10
8.873909628357602
 20
160.3760175869532
 30
0.0
 11
8.873909628357602
 21
161.4766842536198
 31
0.0
 12
12.1759096283576
 22
160.9263509202865
 32
0.0
 13
12.1759096283576
 23
160.9263509202865
 33
0.0
  0
MTEXT
  5
296
330
28E
100
AcDbEntity
  8
치수문자_일반주서
 62
     0
100
AcDbMText
 10
-0.777494644710373
 20
165.3013509202865
 30
0.0
 40
3.5
 41
0.0
 71
     2
 72
     1
  1
\A1;26 [1.02]
  7
SLDTEXTSTYLE0
 73
     1
 44
1.0
  0
POINT
  5
297
330
28E
100
AcDbEntity
  8
Defpoints
 62
     0
100
AcDbPoint
 10
-13.82404850741364
 20
127.5833238472397
 30
0.0
  0
POINT
  5
298
330
28E
100
AcDbEntity
  8
Defpoints
 62
     0
100
AcDbPoint
 10
12.1759096283576
 20
135.2468713310246
 30
0.0
  0
POINT
  5
299
330
28E
100
AcDbEntity
  8
Defpoints
 62
     0
100
AcDbPoint
 10
12.1759096283576
 20
160.9263509202865
 30
0.0
  0
ENDBLK
  5
290
330
28E
100
AcDbEntity
  8
0
100
AcDbBlockEnd
  0
BLOCK
  5
29B
330
29A
100
AcDbEntity
  8
0
100
AcDbBlockBegin
  2
*D14
 70
     1
 10
0.0
 20
0.0
 30
0.0
  3
*D14
  1
*D15
  0
LINE
  5
29D
330
29A
100
AcDbEntity
  8
치수문자_일반주서
 62
     0
370
    -2
100
AcDbLine
 10
-70.3865903716424
 20
135.2468713310246
 30
0.0
 11
-85.82409037164247
 21
135.2468713310245
 31
0.0
  0
LINE
  5
29E
330
29A
100
AcDbEntity
  8
치수문자_일반주서
 62
     0
370
    -2
100
AcDbLine
 10
-70.3865903716424
 20
121.2468713310246
 30
0.0
 11
-85.82409037164243
 21
121.2468713310245
 31
0.0
  0
LINE
  5
29F
330
29A
100
AcDbEntity
  8
치수문자_일반주서
 62
     0
370
    -2
100
AcDbLine
 10
-85.82409037164247
 20
135.2468713310245
 30
0.0
 11
-85.82409037164243
 21
121.2468713310245
 31
0.0
  0
LINE
  5
2A0
330
29A
100
AcDbEntity
  8
치수문자_일반주서
 62
     0
370
    -2
100
AcDbLine
 10
-85.82409037164248
 20
138.5488713310245
 30
0.0
 11
-85.8240903716425
 21
141.8508713310245
 31
0.0
  0
LINE
  5
2A1
330
29A
100
AcDbEntity
  8
치수문자_일반주서
 62
     0
370
    -2
100
AcDbLine
 10
-85.82409037164241
 20
117.9448713310245
 30
0.0
 11
-85.8240903716424
 21
114.6428713310245
 31
0.0
  0
SOLID
  5
2A2
330
29A
100
AcDbEntity
  8
치수문자_일반주서
 62
     0
100
AcDbTrace
 10
-86.37442370497581
 20
138.5488713310245
 30
0.0
 11
-85.27375703830916
 21
138.5488713310245
 31
0.0
 12
-85.82409037164247
 22
135.2468713310245
 32
0.0
 13
-85.82409037164247
 23
135.2468713310245
 33
0.0
  0
SOLID
  5
2A3
330
29A
100
AcDbEntity
  8
치수문자_일반주서
 62
     0
100
AcDbTrace
 10
-85.27375703830909
 20
117.9448713310245
 30
0.0
 11
-86.37442370497574
 21
117.9448713310245
 31
0.0
 12
-85.82409037164243
 22
121.2468713310245
 32
0.0
 13
-85.82409037164243
 23
121.2468713310245
 33
0.0
  0
MTEXT
  5
2A4
330
29A
100
AcDbEntity
  8
치수문자_일반주서
 62
     0
100
AcDbMText
 10
-90.19909037164246
 20
128.2468713310246
 30
0.0
 40
3.5
 41
0.0
 71
     2
 72
     1
  1
\A1;%%c14.00 [0.55]
  7
SLDTEXTSTYLE0
 11
-3.045183153257572E-15
 21
1.0
 31
0.0
 73
     1
 44
1.0
  0
POINT
  5
2A5
330
29A
100
AcDbEntity
  8
Defpoints
 62
     0
100
AcDbPoint
 10
-70.3240903716424
 20
135.2468713310246
 30
0.0
  0
POINT
  5
2A6
330
29A
100
AcDbEntity
  8
Defpoints
 62
     0
100
AcDbPoint
 10
-70.3240903716424
 20
121.2468713310246
 30
0.0
  0
POINT
  5
2A7
330
29A
100
AcDbEntity
  8
Defpoints
 62
     0
100
AcDbPoint
 10
-85.82409037164243
 20
121.2468713310245
 30
0.0
  0
ENDBLK
  5
29C
330
29A
100
AcDbEntity
  8
0
100
AcDbBlockEnd
  0
BLOCK
  5
2A9
330
2A8
100
AcDbEntity
  8
0
100
AcDbBlockBegin
  2
*D15
 70
     1
 10
0.0
 20
0.0
 30
0.0
  3
*D15
  1
*D16
  0
LINE
  5
2AB
330
2A8
100
AcDbEntity
  8
치수문자_일반주서
 62
     0
370
    -2
100
AcDbLine
 10
12.23840962835762
 20
135.2468713310246
 30
0.0
 11
27.1759096283576
 21
135.2468713310246
 31
0.0
  0
LINE
  5
2AC
330
2A8
100
AcDbEntity
  8
치수문자_일반주서
 62
     0
370
    -2
100
AcDbLine
 10
12.2384096283576
 20
121.2468713310246
 30
0.0
 11
27.17590962835765
 21
121.2468713310246
 31
0.0
  0
LINE
  5
2AD
330
2A8
100
AcDbEntity
  8
치수문자_일반주서
 62
     0
370
    -2
100
AcDbLine
 10
27.1759096283576
 20
135.2468713310246
 30
0.0
 11
27.17590962835765
 21
121.2468713310246
 31
0.0
  0
LINE
  5
2AE
330
2A8
100
AcDbEntity
  8
치수문자_일반주서
 62
     0
370
    -2
100
AcDbLine
 10
27.17590962835759
 20
138.5488713310246
 30
0.0
 11
27.17590962835758
 21
141.8508713310246
 31
0.0
  0
LINE
  5
2AF
330
2A8
100
AcDbEntity
  8
치수문자_일반주서
 62
     0
370
    -2
100
AcDbLine
 10
27.17590962835767
 20
117.9448713310246
 30
0.0
 11
27.17590962835768
 21
114.6428713310246
 31
0.0
  0
SOLID
  5
2B0
330
2A8
100
AcDbEntity
  8
치수문자_일반주서
 62
     0
100
AcDbTrace
 10
26.62557629502426
 20
138.5488713310246
 30
0.0
 11
27.72624296169093
 21
138.5488713310246
 31
0.0
 12
27.1759096283576
 22
135.2468713310246
 32
0.0
 13
27.1759096283576
 23
135.2468713310246
 33
0.0
  0
SOLID
  5
2B1
330
2A8
100
AcDbEntity
  8
치수문자_일반주서
 62
     0
100
AcDbTrace
 10
27.726242961691
 20
117.9448713310246
 30
0.0
 11
26.62557629502433
 21
117.9448713310246
 31
0.0
 12
27.17590962835765
 22
121.2468713310246
 32
0.0
 13
27.17590962835765
 23
121.2468713310246
 33
0.0
  0
MTEXT
  5
2B2
330
2A8
100
AcDbEntity
  8
치수문자_일반주서
 62
     0
100
AcDbMText
 10
22.80090962835763
 20
128.3125757127376
 30
0.0
 40
3.5
 41
0.0
 71
     2
 72
     1
  1
\A1;%%c14.00 [0.55]
  7
SLDTEXTSTYLE0
 11
-3.552713678800501E-15
 21
1.0
 31
0.0
 73
     1
 44
1.0
  0
POINT
  5
2B3
330
2A8
100
AcDbEntity
  8
Defpoints
 62
     0
100
AcDbPoint
 10
12.17590962835762
 20
135.2468713310246
 30
0.0
  0
POINT
  5
2B4
330
2A8
100
AcDbEntity
  8
Defpoints
 62
     0
100
AcDbPoint
 10
12.1759096283576
 20
121.2468713310246
 30
0.0
  0
POINT
  5
2B5
330
2A8
100
AcDbEntity
  8
Defpoints
 62
     0
100
AcDbPoint
 10
27.17590962835766
 20
121.2468713310246
 30
0.0
  0
ENDBLK
  5
2AA
330
2A8
100
AcDbEntity
  8
0
100
AcDbBlockEnd
  0
BLOCK
  5
2B7
330
2B6
100
AcDbEntity
  8
0
100
AcDbBlockBegin
  2
*D16
 70
     1
 10
0.0
 20
0.0
 30
0.0
  3
*D16
  1
*D17
  0
LINE
  5
2B9
330
2B6
100
AcDbEntity
  8
치수문자_일반주서
 62
     0
370
    -2
100
AcDbLine
 10
13.66668481002705
 20
118.5077328381458
 30
0.0
 11
29.42033637530434
 21
92.87537632780521
 31
0.0
  0
MTEXT
  5
2BA
330
2B6
100
AcDbEntity
  8
치수문자_일반주서
 62
     0
100
AcDbMText
 10
25.47154802978522
 20
104.313595238645
 30
0.0
 40
3.5
 41
0.0
 71
     5
 72
     1
  1
\A1;R.5 [R0.02]
  7
SLDTEXTSTYLE0
 11
0.5236126201129557
 21
-0.8519564684057781
 31
0.0
 73
     1
 44
1.0
  0
SOLID
  5
2BB
330
2B6
100
AcDbEntity
  8
치수문자_일반주서
 62
     0
100
AcDbTrace
 10
14.1355448531397
 20
118.7958943167479
 30
0.0
 11
13.1978247669144
 21
118.2195713595436
 31
0.0
 12
11.93771593841407
 22
121.3208930968216
 32
0.0
 13
11.93771593841407
 23
121.3208930968216
 33
0.0
  0
LINE
  5
2BC
330
2B6
100
AcDbEntity
  8
치수문자_일반주서
 62
     0
100
AcDbLine
 10
11.58590962835759
 20
121.7468713310246
 30
0.0
 11
11.76590962835759
 21
121.7468713310246
 31
0.0
  0
LINE
  5
2BD
330
2B6
100
AcDbEntity
  8
치수문자_일반주서
 62
     0
100
AcDbLine
 10
11.67590962835759
 20
121.6568713310245
 30
0.0
 11
11.67590962835759
 21
121.8368713310246
 31
0.0
  0
POINT
  5
2BE
330
2B6
100
AcDbEntity
  8
Defpoints
 62
     0
100
AcDbPoint
 10
11.93771593841407
 20
121.3208930968216
 30
0.0
  0
POINT
  5
2BF
330
2B6
100
AcDbEntity
  8
Defpoints
 62
     0
100
AcDbPoint
 10
11.67590962835759
 20
121.7468713310246
 30
0.0
  0
ENDBLK
  5
2B8
330
2B6
100
AcDbEntity
  8
0
100
AcDbBlockEnd
  0
BLOCK
  5
2EE
330
2ED
100
AcDbEntity
  8
0
100
AcDbBlockBegin
  2
*D17
 70
     1
 10
0.0
 20
0.0
 30
0.0
  3
*D17
  1
*D18
  0
LINE
  5
2F0
330
2ED
100
AcDbEntity
  8
치수문자_일반주서
 62
     0
370
    -2
100
AcDbLine
 10
121.0183246034146
 20
1.985449928723908
 30
0.0
 11
131.3053168919093
 21
1.985449928723948
 31
0.0
  0
LINE
  5
2F1
330
2ED
100
AcDbEntity
  8
치수문자_일반주서
 62
     0
370
    -2
100
AcDbLine
 10
121.0183246034146
 20
-1.983300071276094
 30
0.0
 11
131.3053168919093
 21
-1.983300071276055
 31
0.0
  0
LINE
  5
2F2
330
2ED
100
AcDbEntity
  8
치수문자_일반주서
 62
     0
370
    -2
100
AcDbLine
 10
131.3053168919093
 20
1.985449928723948
 30
0.0
 11
131.3053168919093
 21
34.40194992872395
 31
0.0
  0
LINE
  5
2F3
330
2ED
100
AcDbEntity
  8
치수문자_일반주서
 62
     0
370
    -2
100
AcDbLine
 10
131.3053168919093
 20
1.985449928723948
 30
0.0
 11
131.3053168919093
 21
-1.983300071276055
 31
0.0
  0
LINE
  5
2F4
330
2ED
100
AcDbEntity
  8
치수문자_일반주서
 62
     0
370
    -2
100
AcDbLine
 10
131.3053168919093
 20
5.287449928723948
 30
0.0
 11
131.3053168919093
 21
8.589449928723948
 31
0.0
  0
LINE
  5
2F5
330
2ED
100
AcDbEntity
  8
치수문자_일반주서
 62
     0
370
    -2
100
AcDbLine
 10
131.3053168919093
 20
-5.285300071276055
 30
0.0
 11
131.3053168919093
 21
-8.587300071276054
 31
0.0
  0
SOLID
  5
2F6
330
2ED
100
AcDbEntity
  8
치수문자_일반주서
 62
     0
100
AcDbTrace
 10
130.7549835585759
 20
5.287449928723948
 30
0.0
 11
131.8556502252426
 21
5.287449928723948
 31
0.0
 12
131.3053168919093
 22
1.985449928723948
 32
0.0
 13
131.3053168919093
 23
1.985449928723948
 33
0.0
  0
SOLID
  5
2F7
330
2ED
100
AcDbEntity
  8
치수문자_일반주서
 62
     0
100
AcDbTrace
 10
131.8556502252426
 20
-5.285300071276055
 30
0.0
 11
130.7549835585759
 21
-5.285300071276055
 31
0.0
 12
131.3053168919093
 22
-1.983300071276055
 32
0.0
 13
131.3053168919093
 23
-1.983300071276055
 33
0.0
  0
MTEXT
  5
2F8
330
2ED
100
AcDbEntity
  8
치수문자_일반주서
 62
     0
100
AcDbMText
 10
126.9303168919093
 20
21.49569992872395
 30
0.0
 40
3.5
 41
0.0
 71
     2
 72
     1
  1
\A1;%%c3.97 [0.16]
  7
SLDTEXTSTYLE0
 11
0.0
 21
1.0
 31
0.0
 73
     1
 44
1.0
  0
POINT
  5
2F9
330
2ED
100
AcDbEntity
  8
Defpoints
 62
     0
100
AcDbPoint
 10
120.9558246034146
 20
1.985449928723908
 30
0.0
  0
POINT
  5
2FA
330
2ED
100
AcDbEntity
  8
Defpoints
 62
     0
100
AcDbPoint
 10
120.9558246034146
 20
-1.983300071276094
 30
0.0
  0
POINT
  5
2FB
330
2ED
100
AcDbEntity
  8
Defpoints
 62
     0
100
AcDbPoint
 10
131.3053168919093
 20
-1.983300071276056
 30
0.0
  0
ENDBLK
  5
2EF
330
2ED
100
AcDbEntity
  8
0
100
AcDbBlockEnd
  0
BLOCK
  5
2FD
330
2FC
100
AcDbEntity
  8
0
100
AcDbBlockBegin
  2
*D18
 70
     1
 10
0.0
 20
0.0
 30
0.0
  3
*D18
  1
*D19
  0
LINE
  5
2FF
330
2FC
100
AcDbEntity
  8
치수문자_일반주서
 62
     0
370
    -2
100
AcDbLine
 10
120.9558246034146
 20
2.040652571287911
 30
0.0
 11
120.9558246034146
 21
23.25105249103331
 31
0.0
  0
LINE
  5
300
330
2FC
100
AcDbEntity
  8
치수문자_일반주서
 62
     0
370
    -2
100
AcDbLine
 10
113.0183246034146
 20
1.895753465845227
 30
0.0
 11
113.0183246034146
 21
23.25105249103331
 31
0.0
  0
LINE
  5
301
330
2FC
100
AcDbEntity
  8
치수문자_일반주서
 62
     0
370
    -2
100
AcDbLine
 10
113.0183246034146
 20
23.25105249103331
 30
0.0
 11
83.22682460341458
 21
23.25105249103331
 31
0.0
  0
LINE
  5
302
330
2FC
100
AcDbEntity
  8
치수문자_일반주서
 62
     0
370
    -2
100
AcDbLine
 10
120.9558246034146
 20
23.25105249103331
 30
0.0
 11
113.0183246034146
 21
23.25105249103331
 31
0.0
  0
LINE
  5
303
330
2FC
100
AcDbEntity
  8
치수문자_일반주서
 62
     0
370
    -2
100
AcDbLine
 10
124.2578246034146
 20
23.25105249103331
 30
0.0
 11
127.5598246034146
 21
23.25105249103331
 31
0.0
  0
LINE
  5
304
330
2FC
100
AcDbEntity
  8
치수문자_일반주서
 62
     0
370
    -2
100
AcDbLine
 10
109.7163246034146
 20
23.25105249103331
 30
0.0
 11
106.4143246034146
 21
23.25105249103331
 31
0.0
  0
SOLID
  5
305
330
2FC
100
AcDbEntity
  8
치수문자_일반주서
 62
     0
100
AcDbTrace
 10
124.2578246034146
 20
23.80138582436665
 30
0.0
 11
124.2578246034146
 21
22.70071915769998
 31
0.0
 12
120.9558246034146
 22
23.25105249103331
 32
0.0
 13
120.9558246034146
 23
23.25105249103331
 33
0.0
  0
SOLID
  5
306
330
2FC
100
AcDbEntity
  8
치수문자_일반주서
 62
     0
100
AcDbTrace
 10
109.7163246034146
 20
22.70071915769998
 30
0.0
 11
109.7163246034146
 21
23.80138582436665
 31
0.0
 12
113.0183246034146
 22
23.25105249103331
 32
0.0
 13
113.0183246034146
 23
23.25105249103331
 33
0.0
  0
MTEXT
  5
307
330
2FC
100
AcDbEntity
  8
치수문자_일반주서
 62
     0
100
AcDbMText
 10
94.82057460341458
 20
27.62605249103331
 30
0.0
 40
3.5
 41
0.0
 71
     2
 72
     1
  1
\A1;7.94 [0.31]
  7
SLDTEXTSTYLE0
 73
     1
 44
1.0
  0
POINT
  5
308
330
2FC
100
AcDbEntity
  8
Defpoints
 62
     0
100
AcDbPoint
 10
120.9558246034146
 20
1.978152571287911
 30
0.0
  0
POINT
  5
309
330
2FC
100
AcDbEntity
  8
Defpoints
 62
     0
100
AcDbPoint
 10
113.0183246034146
 20
1.833253465845227
 30
0.0
  0
POINT
  5
30A
330
2FC
100
AcDbEntity
  8
Defpoints
 62
     0
100
AcDbPoint
 10
113.0183246034146
 20
23.25105249103331
 30
0.0
  0
ENDBLK
  5
2FE
330
2FC
100
AcDbEntity
  8
0
100
AcDbBlockEnd
  0
BLOCK
  5
30C
330
30B
100
AcDbEntity
  8
0
100
AcDbBlockBegin
  2
*D19
 70
     1
 10
0.0
 20
0.0
 30
0.0
  3
*D19
  1
*D20
  0
LINE
  5
30E
330
30B
100
AcDbEntity
  8
치수문자_일반주서
 62
     0
370
    -2
100
AcDbLine
 10
120.9558246034146
 20
2.040652571287911
 30
0.0
 11
120.9558246034146
 21
49.56857151426232
 31
0.0
  0
LINE
  5
30F
330
30B
100
AcDbEntity
  8
치수문자_일반주서
 62
     0
370
    -2
100
AcDbLine
 10
70.15582460341457
 20
1.968574928723895
 30
0.0
 11
70.15582460341457
 21
49.56857151426232
 31
0.0
  0
LINE
  5
310
330
30B
100
AcDbEntity
  8
치수문자_일반주서
 62
     0
370
    -2
100
AcDbLine
 10
117.6538246034146
 20
49.56857151426232
 30
0.0
 11
73.45782460341456
 21
49.56857151426232
 31
0.0
  0
SOLID
  5
311
330
30B
100
AcDbEntity
  8
치수문자_일반주서
 62
     0
100
AcDbTrace
 10
117.6538246034146
 20
49.01823818092898
 30
0.0
 11
117.6538246034146
 21
50.11890484759565
 31
0.0
 12
120.9558246034146
 22
49.56857151426232
 32
0.0
 13
120.9558246034146
 23
49.56857151426232
 33
0.0
  0
SOLID
  5
312
330
30B
100
AcDbEntity
  8
치수문자_일반주서
 62
     0
100
AcDbTrace
 10
73.45782460341456
 20
50.11890484759565
 30
0.0
 11
73.45782460341456
 21
49.01823818092898
 31
0.0
 12
70.15582460341457
 22
49.56857151426232
 32
0.0
 13
70.15582460341457
 23
49.56857151426232
 33
0.0
  0
MTEXT
  5
313
330
30B
100
AcDbEntity
  8
치수문자_일반주서
 62
     0
100
AcDbMText
 10
94.25966506019581
 20
53.94357151426232
 30
0.0
 40
3.5
 41
0.0
 71
     2
 72
     1
  1
\A1;50.8 [2.00]
  7
SLDTEXTSTYLE0
 73
     1
 44
1.0
  0
POINT
  5
314
330
30B
100
AcDbEntity
  8
Defpoints
 62
     0
100
AcDbPoint
 10
120.9558246034146
 20
1.978152571287911
 30
0.0
  0
POINT
  5
315
330
30B
100
AcDbEntity
  8
Defpoints
 62
     0
100
AcDbPoint
 10
70.15582460341457
 20
1.906074928723895
 30
0.0
  0
POINT
  5
316
330
30B
100
AcDbEntity
  8
Defpoints
 62
     0
100
AcDbPoint
 10
70.15582460341457
 20
49.56857151426232
 30
0.0
  0
ENDBLK
  5
30D
330
30B
100
AcDbEntity
  8
0
100
AcDbBlockEnd
  0
ENDSEC
  0
SECTION
  2
ENTITIES
  0
LINE
  5
96
330
1F
100
AcDbEntity
  8
외형선
  6
Continuous
370
    15
100
AcDbLine
 10
22.52136309876298
 20
-0.5784327873323669
 30
0.0
 11
22.5524676143527
 21
-0.5952573935498275
 31
0.0
  0
LINE
  5
97
330
1F
100
AcDbEntity
  8
0
  6
Continuous
 62
     1
370
    15
100
AcDbLine
 10
21.50666906391293
 20
1.984375000000001
 30
0.0
 11
20.29530087414768
 21
1.984375000000001
 31
0.0
  0
LINE
  5
98
330
1F
100
AcDbEntity
  8
0
  6
Continuous
 62
     1
370
    15
100
AcDbLine
 10
20.29530087414765
 20
-1.984375
 30
0.0
 11
21.50666906391292
 21
-1.984375
 31
0.0
  0
LINE
  5
99
330
1F
100
AcDbEntity
  8
외형선
  6
Continuous
370
    15
100
AcDbLine
 10
14.98134233574609
 20
-2.381250000000005
 30
0.0
 11
16.46250000000001
 21
-1.984375
 31
0.0
  0
LINE
  5
9A
330
1F
100
AcDbEntity
  8
외형선
  6
Continuous
370
    15
100
AcDbLine
 10
16.46250000000001
 20
1.984375000000001
 30
0.0
 11
14.98134233574609
 21
2.381250000000005
 31
0.0
  0
LINE
  5
9B
330
1F
100
AcDbEntity
  8
외형선
  6
Continuous
370
    15
100
AcDbLine
 10
-14.9813423357461
 20
-2.381250000000002
 30
0.0
 11
14.98134233574609
 21
-2.381250000000002
 31
0.0
  0
LINE
  5
9C
330
1F
100
AcDbEntity
  8
외형선
  6
Continuous
370
    15
100
AcDbLine
 10
14.98134233574609
 20
2.381250000000003
 30
0.0
 11
-14.98134233574609
 21
2.381250000000003
 31
0.0
  0
LINE
  5
9F
330
1F
100
AcDbEntity
  8
외형선
  6
Continuous
370
    15
100
AcDbLine
 10
16.46250000000001
 20
-1.984375
 30
0.0
 11
16.96232872793026
 21
-1.984375
 31
0.0
  0
LINE
  5
A0
330
1F
100
AcDbEntity
  8
외형선
  6
Continuous
370
    15
100
AcDbLine
 10
16.96232872793026
 20
1.984375
 30
0.0
 11
16.46250000000001
 21
1.984375
 31
0.0
  0
LINE
  5
A1
330
1F
100
AcDbEntity
  8
0
  6
Continuous
 62
     1
370
    15
100
AcDbLine
 10
25.40000000000001
 20
-1.79721142742937
 30
0.0
 11
25.40000000000001
 21
0.1700239274293953
 31
0.0
  0
SPLINE
  5
A2
330
1F
100
AcDbEntity
  8
0
  6
Continuous
 62
     1
370
    15
100
AcDbSpline
210
0.0
220
0.0
230
1.0
 70
     8
 71
     3
 72
    34
 73
    30
 74
     0
 42
0.000000001
 43
0.00000001
 40
0.0
 40
0.0
 40
0.0
 40
0.0
 40
0.1250000000000025
 40
0.1250000000000025
 40
0.1875000000000027
 40
0.1875000000000027
 40
0.2500000000000029
 40
0.2500000000000029
 40
0.3125000000000032
 40
0.3125000000000032
 40
0.3750000000000035
 40
0.3750000000000035
 40
0.4375000000000038
 40
0.4375000000000038
 40
0.5000000000000041
 40
0.5000000000000041
 40
0.5625000000000043
 40
0.5625000000000043
 40
0.6250000000000046
 40
0.6250000000000046
 40
0.6875000000000048
 40
0.6875000000000048
 40
0.750000000000005
 40
0.750000000000005
 40
0.8750000000000036
 40
0.8750000000000036
 40
0.9375000000000018
 40
0.9375000000000018
 40
1.0
 40
1.0
 40
1.0
 40
1.0
 10
25.40000000000003
 20
-1.797211427429371
 30
0.0
 10
25.07330548933987
 20
-1.716581219708302
 30
0.0
 10
24.73537292780033
 20
-1.609772587848722
 30
0.0
 10
24.24261659921634
 20
-1.419906373365799
 30
0.0
 10
24.07853909736352
 20
-1.351517926157625
 30
0.0
 10
23.74608862476419
 20
-1.205209300053709
 30
0.0
 10
23.57917665609099
 20
-1.127478234459811
 30
0.0
 10
23.24917345348211
 20
-0.9653438248254423
 30
0.0
 10
23.08628143950724
 20
-0.8810101076104955
 30
0.0
 10
22.75447890384876
 20
-0.7057872977715843
 30
0.0
 10
22.58742953051194
 20
-0.6152000598574181
 30
0.0
 10
22.25624287773125
 20
-0.4309069513945268
 30
0.0
 10
22.09364920321761
 20
-0.3375092142319734
 30
0.0
 10
21.76281594530051
 20
-0.1479619258903229
 30
0.0
 10
21.59579355888741
 20
-0.0520357936000366
 30
0.0
 10
21.26374280460151
 20
0.1391334323680578
 30
0.0
 10
21.1005593626807
 20
0.2340199668382558
 30
0.0
 10
20.77101359012397
 20
0.4221290556381002
 30
0.0
 10
20.604182493294
 20
0.5154310848913758
 30
0.0
 10
20.27158978247024
 20
0.6975948663052425
 30
0.0
 10
20.10693036060989
 20
0.7862596711362837
 30
0.0
 10
19.77898613657832
 20
0.9573237442150666
 30
0.0
 10
19.61251000215822
 20
1.040263342623161
 30
0.0
 10
19.11329385610524
 20
1.277286732832694
 30
0.0
 10
18.78704205521083
 20
1.418672220732604
 30
0.0
 10
18.28798574701131
 20
1.599781801068344
 30
0.0
 10
18.12125819016774
 20
1.65480015302277
 30
0.0
 10
17.79222745840381
 20
1.752546179560609
 30
0.0
 10
17.6286366906976
 20
1.795449986525629
 30
0.0
 10
17.46249999999956
 20
1.832178537121433
 30
0.0
  0
SPLINE
  5
A3
330
1F
100
AcDbEntity
  8
0
  6
Continuous
 62
     1
370
    15
100
AcDbSpline
210
0.0
220
0.0
230
1.0
 70
     8
 71
     3
 72
    16
 73
    12
 74
     0
 42
0.000000001
 43
0.00000001
 40
0.0
 40
0.0
 40
0.0
 40
0.0
 40
0.1236192067775595
 40
0.2470517092121345
 40
0.3703989039211906
 40
0.4937634208709578
 40
0.6172476391531205
 40
0.7387320420826555
 40
0.8600552763802649
 40
0.9812190897769426
 40
1.0
 40
1.0
 40
1.0
 40
1.0
 10
25.40000000000001
 20
0.1700239274293953
 30
0.0
 10
25.10319365216575
 20
0.3394423088345741
 30
0.0
 10
24.51002922853852
 20
0.6780231959730656
 30
0.0
 10
23.62108934635509
 20
1.138135611332911
 30
0.0
 10
22.73285821274433
 20
1.523097730063138
 30
0.0
 10
21.84447367210595
 20
1.806728377645805
 30
0.0
 10
20.96042968533749
 20
1.968550140627637
 30
0.0
 10
20.08081035753061
 20
2.003521024246912
 30
0.0
 10
19.20716609505348
 20
1.900299217505861
 30
0.0
 10
18.58021607735322
 20
1.7636554494612
 30
0.0
 10
18.24439988215467
 20
1.636936359288074
 30
0.0
 10
18.19933256092711
 20
1.619930360101168
 30
0.0
  0
SPLINE
  5
A4
330
1F
100
AcDbEntity
  8
0
  6
Continuous
 62
     1
370
    15
100
AcDbSpline
210
0.0
220
0.0
230
1.0
 70
     8
 71
     3
 72
    14
 73
    10
 74
     0
 42
0.000000001
 43
0.00000001
 40
0.0
 40
0.0
 40
0.0
 40
0.0
 40
0.1447813095899483
 40
0.2895820713540651
 40
0.4345224630837903
 40
0.5796841670915032
 40
0.7246991875689016
 40
0.8669372239114085
 40
1.0
 40
1.0
 40
1.0
 40
1.0
 10
17.46249999999956
 20
-0.7621456217394399
 30
0.0
 10
17.75850275156167
 20
-0.915127627161735
 30
0.0
 10
18.3505480243018
 20
-1.221112191989588
 30
0.0
 10
19.23892065348417
 20
-1.585479366822099
 30
0.0
 10
20.12821728103473
 20
-1.847862441800272
 30
0.0
 10
21.01839700713287
 20
-1.986791673701672
 30
0.0
 10
21.90274717221508
 20
-1.991444010309331
 30
0.0
 10
22.76205793646784
 20
-1.877510802888883
 30
0.0
 10
23.32487157004086
 20
-1.707204850980068
 30
0.0
 10
23.59689962488896
 20
-1.624889864165169
 30
0.0
  0
SPLINE
  5
A5
330
1F
100
AcDbEntity
  8
외형선
  6
Continuous
370
    15
100
AcDbSpline
210
0.0
220
0.0
230
1.0
 70
    24
 71
     3
 72
    22
 73
    18
 74
     0
 42
0.000000001
 43
0.00000001
 40
0.0
 40
0.0
 40
0.0
 40
0.0
 40
0.125
 40
0.125
 40
0.25
 40
0.25
 40
0.375
 40
0.375
 40
0.5
 40
0.5
 40
0.625
 40
0.625
 40
0.75
 40
0.75
 40
0.875
 40
0.875
 40
1.0
 40
1.0
 40
1.0
 40
1.0
 10
17.46249999999999
 20
1.457034529290065
 30
0.0
 10
17.46249999999999
 20
1.409420513306829
 30
0.0
 10
17.46250000000001
 20
1.356686052191891
 30
0.0
 10
17.46250000000001
 20
1.250545187183254
 30
0.0
 10
17.46250000000001
 20
1.18638589216314
 30
0.0
 10
17.46250000000001
 20
1.029380741957956
 30
0.0
 10
17.46250000000001
 20
0.936318432814639
 30
0.0
 10
17.46250000000001
 20
0.7189813542688935
 30
0.0
 10
17.46250000000001
 20
0.5944141399449849
 30
0.0
 10
17.4625
 20
0.3238130227023134
 30
0.0
 10
17.46250000000001
 20
0.1778085946279927
 30
0.0
 10
17.46250000000001
 20
-0.1078037762891917
 30
0.0
 10
17.4625
 20
-0.2466872122865282
 30
0.0
 10
17.46250000000001
 20
-0.4827061903790054
 30
0.0
 10
17.46249999999998
 20
-0.5791475099499716
 30
0.0
 10
17.46249999999998
 20
-0.7126442392580254
 30
0.0
 10
17.4625
 20
-0.7499199522929697
 30
0.0
 10
17.4625
 20
-0.7621456217396814
 30
0.0
  0
SPLINE
  5
A6
330
1F
100
AcDbEntity
  8
0
  6
Continuous
 62
     1
370
    15
100
AcDbSpline
210
0.0
220
0.0
230
1.0
 70
     8
 71
     3
 72
    34
 73
    30
 74
     0
 42
0.000000001
 43
0.00000001
 40
0.0
 40
0.0
 40
0.0
 40
0.0
 40
0.125
 40
0.125
 40
0.1875
 40
0.1875
 40
0.25
 40
0.25
 40
0.3125
 40
0.3125
 40
0.375
 40
0.375
 40
0.4375
 40
0.4375
 40
0.5
 40
0.5
 40
0.5625
 40
0.5625
 40
0.625
 40
0.625
 40
0.6875
 40
0.6875
 40
0.75
 40
0.75
 40
0.875
 40
0.875
 40
0.9375
 40
0.9375
 40
1.0
 40
1.0
 40
1.0
 40
1.0
 10
25.40000000000001
 20
-1.984374999999987
 30
0.0
 10
25.07330548933984
 20
-1.960782425723247
 30
0.0
 10
24.7353729278003
 20
-1.916496471371953
 30
0.0
 10
24.24261659921636
 20
-1.811928843661732
 30
0.0
 10
24.07853909736356
 20
-1.770708578483592
 30
0.0
 10
23.7460886247642
 20
-1.675862926534626
 30
0.0
 10
23.57917665609097
 20
-1.622339567310349
 30
0.0
 10
23.24917345348206
 20
-1.504843431336178
 30
0.0
 10
23.08628143950722
 20
-1.440950075619268
 30
0.0
 10
22.75447890384876
 20
-1.302826771895419
 30
0.0
 10
22.58742953051192
 20
-1.228807865499631
 30
0.0
 10
22.25624287773124
 20
-1.073179736863304
 30
0.0
 10
22.09364920321761
 20
-0.9918585958735789
 30
0.0
 10
21.76281594530047
 20
-0.821990122432046
 30
0.0
 10
21.59579355888741
 20
-0.7336159309235255
 30
0.0
 10
21.26374280460151
 20
-0.5527230200455515
 30
0.0
 10
21.10055936268068
 20
-0.4605641660653925
 30
0.0
 10
20.77101359012395
 20
-0.2731177853429146
 30
0.0
 10
20.604182493294
 20
-0.1777283488373109
 30
0.0
 10
20.27158978247025
 20
0.0134268515154472
 30
0.0
 10
20.10693036060988
 20
0.1089740401931147
 30
0.0
 10
19.77898613657832
 20
0.298393488181281
 30
0.0
 10
19.61251000215822
 20
0.3928765695147685
 30
0.0
 10
19.11329385610522
 20
0.6711891117309479
 30
0.0
 10
18.78704205521079
 20
0.8487415003146658
 30
0.0
 10
18.28798574701127
 20
1.095515666135472
 30
0.0
 10
18.12125819016773
 20
1.174281974017195
 30
0.0
 10
17.79222745840376
 20
1.322466657949117
 30
0.0
 10
17.62863669069761
 20
1.392114372367957
 30
0.0
 10
17.46249999999955
 20
1.457034529290242
 30
0.0
  0
LINE
  5
A7
330
1F
100
AcDbEntity
  8
0
  6
Continuous
 62
     1
370
    15
100
AcDbLine
 10
25.4
 20
-1.984374999999987
 30
0.0
 11
25.40000000000001
 21
-1.79721142742937
 31
0.0
  0
LINE
  5
A8
330
1F
100
AcDbEntity
  8
외형선
  6
Continuous
370
    15
100
AcDbLine
 10
17.4625
 20
1.457034529290066
 30
0.0
 11
17.46250000000001
 21
1.832178537121334
 31
0.0
  0
SPLINE
  5
A9
330
1F
100
AcDbEntity
  8
0
  6
Continuous
 62
     1
370
    15
100
AcDbSpline
210
0.0
220
0.0
230
1.0
 70
     8
 71
     3
 72
    12
 73
     8
 74
     0
 42
0.000000001
 43
0.00000001
 40
0.0
 40
0.0
 40
0.0
 40
0.0
 40
0.1031592087285985
 40
0.3272685473043258
 40
0.5512846353202082
 40
0.7754488347087856
 40
1.0
 40
1.0
 40
1.0
 40
1.0
 10
21.50666906391293
 20
1.967948631166972
 30
0.0
 10
21.64057726586507
 20
1.971622527964632
 30
0.0
 10
22.06539578924392
 20
1.983277821590232
 30
0.0
 10
22.78068806122992
 20
1.865105077360115
 30
0.0
 10
23.65299126380348
 20
1.627402286416701
 30
0.0
 10
24.52593074837676
 20
1.281688964087517
 30
0.0
 10
25.10847612311033
 20
0.9881765489581674
 30
0.0
 10
25.40000000000003
 20
0.841293780876965
 30
0.0
  0
LINE
  5
AA
330
1F
100
AcDbEntity
  8
0
  6
Continuous
 62
     1
370
    15
100
AcDbLine
 10
25.40000000000001
 20
0.1700239274293951
 30
0.0
 11
25.40000000000001
 21
0.8412937808769649
 31
0.0
  0
SPLINE
  5
AB
330
1F
100
AcDbEntity
  8
0
  6
Continuous
 62
     1
370
    15
100
AcDbSpline
210
0.0
220
0.0
230
1.0
 70
     8
 71
     3
 72
    11
 73
     7
 74
     0
 42
0.000000001
 43
0.00000001
 40
0.0
 40
0.0
 40
0.0
 40
0.0
 40
0.0757977065025916
 40
0.3841602429405185
 40
0.6921175854874557
 40
0.9999999999999999
 40
0.9999999999999999
 40
0.9999999999999999
 40
0.9999999999999999
 10
20.29530087414765
 20
-1.972524511465148
 30
0.0
 10
20.22369588477905
 20
-1.976104967100046
 30
0.0
 10
19.86078529841917
 20
-1.994251541317211
 30
0.0
 10
19.20716877506465
 20
-1.898735801028365
 30
0.0
 10
18.33460406378953
 20
-1.693568371149291
 30
0.0
 10
17.75317777425812
 20
-1.462608820910729
 30
0.0
 10
17.46249999999955
 20
-1.347143095992758
 30
0.0
  0
LINE
  5
AC
330
1F
100
AcDbEntity
  8
외형선
  6
Continuous
370
    15
100
AcDbLine
 10
17.46250000000001
 20
-1.34714309599295
 30
0.0
 11
17.4625
 21
-0.7621456217396755
 31
0.0
  0
SPLINE
  5
AD
330
1F
100
AcDbEntity
  8
0
  6
Continuous
 62
     1
370
    15
100
AcDbSpline
210
0.0
220
0.0
230
1.0
 70
     8
 71
     3
 72
    10
 73
     6
 74
     0
 42
0.000000001
 43
0.00000001
 40
0.0
 40
0.0
 40
0.0
 40
0.0
 40
0.4937153829275879
 40
0.9866850985062768
 40
1.0
 40
1.0
 40
1.0
 40
1.0
 10
25.4
 20
1.984375000000015
 30
0.0
 10
25.10319489005328
 20
1.947414850154756
 30
0.0
 10
24.51003294033153
 20
1.888134065592699
 30
0.0
 10
23.90910687227795
 20
1.745606528687636
 30
0.0
 10
23.60490003404269
 20
1.627983266755694
 30
0.0
 10
23.59689962488896
 20
1.62488986416517
 30
0.0
  0
LINE
  5
AE
330
1F
100
AcDbEntity
  8
0
  6
Continuous
 62
     1
370
    15
100
AcDbLine
 10
25.40000000000001
 20
0.8310434959644338
 30
0.0
 11
25.4
 21
1.984375000000015
 31
0.0
  0
LINE
  5
AF
330
1F
100
AcDbEntity
  8
0
  6
Continuous
 62
     1
370
    15
100
AcDbLine
 10
17.46249999999956
 20
-1.832178537121428
 30
0.0
 11
18.19933256092709
 21
-1.619930360101167
 31
0.0
  0
SPLINE
  5
B0
330
1F
100
AcDbEntity
  8
외형선
  6
Continuous
370
    15
100
AcDbSpline
210
0.0
220
0.0
230
1.0
 70
    24
 71
     3
 72
    11
 73
     7
 74
     0
 42
0.000000001
 43
0.00000001
 40
0.0
 40
0.0
 40
0.0
 40
0.0
 40
0.045349067833527
 40
0.4634789459710764
 40
0.8937346189007477
 40
1.0
 40
1.0
 40
1.0
 40
1.0
 10
17.46250000000001
 20
-1.382127494094705
 30
0.0
 10
17.46250000000002
 20
-1.388178654588496
 30
0.0
 10
17.46250000000001
 20
-1.450023045698351
 30
0.0
 10
17.46250000000002
 20
-1.584841944866846
 30
0.0
 10
17.46250000000001
 20
-1.731326027692226
 30
0.0
 10
17.46250000000001
 20
-1.815505611615112
 30
0.0
 10
17.4625
 20
-1.83217853712133
 30
0.0
  0
LINE
  5
B1
330
1F
100
AcDbEntity
  8
외형선
  6
Continuous
370
    15
100
AcDbLine
 10
16.46250000000001
 20
0.0000000000000004
 30
0.0
 11
16.46250000000001
 21
1.984375000000001
 31
0.0
  0
LINE
  5
B2
330
1F
100
AcDbEntity
  8
외형선
  6
Continuous
370
    15
100
AcDbLine
 10
16.46250000000001
 20
-1.984375
 30
0.0
 11
16.46250000000001
 21
0.0000000000000004
 31
0.0
  0
LINE
  5
B3
330
1F
100
AcDbEntity
  8
외형선
  6
Continuous
370
    15
100
AcDbLine
 10
14.98134233574609
 20
0.0000000000000004
 30
0.0
 11
14.98134233574609
 21
2.381250000000005
 31
0.0
  0
LINE
  5
B4
330
1F
100
AcDbEntity
  8
외형선
  6
Continuous
370
    15
100
AcDbLine
 10
14.98134233574609
 20
-2.381250000000005
 30
0.0
 11
14.98134233574609
 21
0.0000000000000004
 31
0.0
  0
LINE
  5
B7
330
1F
100
AcDbEntity
  8
외형선
  6
Continuous
370
    15
100
AcDbLine
 10
-25.4
 20
0.0000000000000004
 30
0.0
 11
-25.4
 21
1.905000000000002
 31
0.0
  0
LINE
  5
B8
330
1F
100
AcDbEntity
  8
외형선
  6
Continuous
370
    15
100
AcDbLine
 10
-25.4
 20
-1.905000000000001
 30
0.0
 11
-25.4
 21
0.0000000000000004
 31
0.0
  0
LINE
  5
B9
330
1F
100
AcDbEntity
  8
외형선
  6
Continuous
370
    15
100
AcDbLine
 10
16.96232872793026
 20
1.923120963309123
 30
0.0
 11
16.96232872793026
 21
1.984375
 31
0.0
  0
SPLINE
  5
BA
330
1F
100
AcDbEntity
  8
외형선
  6
Continuous
370
    15
100
AcDbSpline
210
0.0
220
0.0
230
1.0
 70
     8
 71
     3
 72
     8
 73
     4
 74
     0
 42
0.000000001
 43
0.00000001
 40
0.0
 40
0.0
 40
0.0
 40
0.0
 40
1.0
 40
1.0
 40
1.0
 40
1.0
 10
17.46249999999957
 20
1.832178537121429
 30
0.0
 10
17.29574448203769
 20
1.869043894513933
 30
0.0
 10
17.12814426921648
 20
1.899506700825386
 30
0.0
 10
16.96232872793024
 20
1.923125772210445
 30
0.0
  0
SPLINE
  5
BB
330
1F
100
AcDbEntity
  8
외형선
  6
Continuous
370
    15
100
AcDbSpline
210
0.0
220
0.0
230
1.0
 70
     8
 71
     3
 72
     8
 73
     4
 74
     0
 42
0.000000001
 43
0.00000001
 40
0.0
 40
0.0
 40
0.0
 40
0.0
 40
1.0
 40
1.0
 40
1.0
 40
1.0
 10
17.46249999999957
 20
1.457034529290235
 30
0.0
 10
17.29574448203769
 20
1.522196501328168
 30
0.0
 10
17.12814426921648
 20
1.582326468579327
 30
0.0
 10
16.96232872793025
 20
1.636510979109008
 30
0.0
  0
LINE
  5
BC
330
1F
100
AcDbEntity
  8
외형선
  6
Continuous
370
    15
100
AcDbLine
 10
16.96232872793026
 20
-0.4892339942256796
 30
0.0
 11
16.96232872793026
 21
1.636521764101595
 31
0.0
  0
SPLINE
  5
BD
330
1F
100
AcDbEntity
  8
외형선
  6
Continuous
370
    15
100
AcDbSpline
210
0.0
220
0.0
230
1.0
 70
     8
 71
     3
 72
     8
 73
     4
 74
     0
 42
0.000000001
 43
0.00000001
 40
0.0
 40
0.0
 40
0.0
 40
0.0
 40
1.0
 40
1.0
 40
1.0
 40
1.0
 10
17.46249999999957
 20
-0.7621456217394499
 30
0.0
 10
17.29574448203769
 20
-0.6735222476082665
 30
0.0
 10
17.12814426921648
 20
-0.5820626862175972
 30
0.0
 10
16.96232872793024
 20
-0.4892150906145505
 30
0.0
  0
SPLINE
  5
BE
330
1F
100
AcDbEntity
  8
외형선
  6
Continuous
370
    15
100
AcDbSpline
210
0.0
220
0.0
230
1.0
 70
     8
 71
     3
 72
     8
 73
     4
 74
     0
 42
0.000000001
 43
0.00000001
 40
0.0
 40
0.0
 40
0.0
 40
0.0
 40
1.0
 40
1.0
 40
1.0
 40
1.0
 10
17.46249999999957
 20
-1.347143095992764
 30
0.0
 10
17.29574448203769
 20
-1.276665621448053
 30
0.0
 10
17.12814426921648
 20
-1.201318285884562
 30
0.0
 10
16.96232872793025
 20
-1.122308315874326
 30
0.0
  0
LINE
  5
BF
330
1F
100
AcDbEntity
  8
외형선
  6
Continuous
370
    15
100
AcDbLine
 10
16.96232872793026
 20
-1.984375
 30
0.0
 11
16.96232872793026
 21
-1.122292589410975
 31
0.0
  0
SPLINE
  5
C0
330
1F
100
AcDbEntity
  8
외형선
  6
Continuous
370
    15
100
AcDbSpline
210
0.0
220
0.0
230
1.0
 70
     8
 71
     3
 72
     8
 73
     4
 74
     0
 42
0.000000001
 43
0.00000001
 40
0.0
 40
0.0
 40
0.0
 40
0.0
 40
1.0
 40
1.0
 40
1.0
 40
1.0
 10
17.46249999999957
 20
-1.832178537121423
 30
0.0
 10
17.29574448203769
 20
-1.869043894513927
 30
0.0
 10
17.12814426921648
 20
-1.899506700825381
 30
0.0
 10
16.96232872793024
 20
-1.923125772210441
 30
0.0
  0
SPLINE
  5
C1
330
1F
100
AcDbEntity
  8
외형선
  6
Continuous
370
    15
100
AcDbSpline
210
0.0
220
0.0
230
1.0
 70
    24
 71
     3
 72
    22
 73
    18
 74
     0
 42
0.000000001
 43
0.00000001
 40
0.0
 40
0.0
 40
0.0
 40
0.0
 40
0.125
 40
0.125
 40
0.2499999999999999
 40
0.2499999999999999
 40
0.3749999999999999
 40
0.3749999999999999
 40
0.5
 40
0.5
 40
0.6250000000000001
 40
0.6250000000000001
 40
0.75
 40
0.75
 40
0.875
 40
0.875
 40
1.0
 40
1.0
 40
1.0
 40
1.0
 10
17.46250000000001
 20
-0.7621456217396778
 30
0.0
 10
17.46250000000002
 20
-0.7499199522929548
 30
0.0
 10
17.4625
 20
-0.7126442392579707
 30
0.0
 10
17.46249999999999
 20
-0.579147509949774
 30
0.0
 10
17.46250000000002
 20
-0.4827061903787042
 30
0.0
 10
17.4625
 20
-0.2466872122860057
 30
0.0
 10
17.46250000000001
 20
-0.1078037762885539
 30
0.0
 10
17.46250000000001
 20
0.1778085946288084
 30
0.0
 10
17.46250000000001
 20
0.3238130227031908
 30
0.0
 10
17.46249999999999
 20
0.5944141399459172
 30
0.0
 10
17.46249999999998
 20
0.7189813542698199
 30
0.0
 10
17.46249999999999
 20
0.9363184328155131
 30
0.0
 10
17.4625
 20
1.029380741958784
 30
0.0
 10
17.4625
 20
1.186385892163865
 30
0.0
 10
17.46250000000002
 20
1.250545187183919
 30
0.0
 10
17.46250000000001
 20
1.356686052192444
 30
0.0
 10
17.46250000000003
 20
1.409420513307474
 30
0.0
 10
17.46250000000001
 20
1.457034529290687
 30
0.0
  0
SPLINE
  5
C2
330
1F
100
AcDbEntity
  8
외형선
  6
Continuous
370
    15
100
AcDbSpline
210
0.0
220
0.0
230
1.0
 70
    24
 71
     3
 72
    11
 73
     7
 74
     0
 42
0.000000001
 43
0.00000001
 40
0.0
 40
0.0
 40
0.0
 40
0.0
 40
0.2770216332540136
 40
0.5574661088774214
 40
0.9758323278568993
 40
1.0
 40
1.0
 40
1.0
 40
1.0
 10
17.46250000000001
 20
-1.832178537121325
 30
0.0
 10
17.46250000000001
 20
-1.788757437530881
 30
0.0
 10
17.46250000000003
 20
-1.70137873303213
 30
0.0
 10
17.46250000000005
 20
-1.553372559255914
 30
0.0
 10
17.46249999999999
 20
-1.444151922740689
 30
0.0
 10
17.46249999999998
 20
-1.385329884733833
 30
0.0
 10
17.46249999999999
 20
-1.382117494094705
 30
0.0
  0
LINE
  5
C3
330
1F
100
AcDbEntity
  8
중심선
 62
     1
100
AcDbLine
 10
-28.4
 20
-0.0000000000000035
 30
0.0
 11
28.4
 21
0.0000000000000035
 31
0.0
  0
LINE
  5
C4
330
1F
100
AcDbEntity
  8
참조1
100
AcDbLine
 10
-14.09411934298439
 20
0.0010749287238892
 30
0.0
 11
-14.09411934298438
 21
-39.99892507127611
 31
0.0
  0
LINE
  5
C5
330
1F
100
AcDbEntity
  8
참조1
100
AcDbLine
 10
-14.09411934298438
 20
-39.99892507127611
 30
0.0
 11
-29.25297615729306
 21
-39.9989250712761
 31
0.0
  0
CIRCLE
  5
C6
330
1F
100
AcDbEntity
  8
해칭선
100
AcDbCircle
 10
0.0
 20
0.0000000000000006
 30
0.0
 40
3.000000000000007
  0
INSERT
  5
C7
330
1F
100
AcDbEntity
  8
0
  6
Continuous
 62
     7
100
AcDbBlockReference
 66
     1
  2
블럭10
 10
-12.00519251365305
 20
-30.22857747538195
 30
0.0
  0
ATTRIB
  5
C8
330
C7
100
AcDbEntity
  8
FORMAT
 62
     2
100
AcDbText
 10
-21.18648780239433
 20
-28.15321056254976
 30
0.0
 40
4.233333333333333
  1
E5023010 [ 4 FLUTE ]
 41
0.75
  7
SLDTEXTSTYLE0
 11
-21.18648780239433
 21
-30.26987722921643
 31
0.0
100
AcDbAttribute
  2
AUTOATTR0
 70
     0
 74
     1
  0
SEQEND
  5
C9
330
C7
100
AcDbEntity
  8
0
  6
Continuous
 62
     7
  0
HATCH
  5
CA
330
1F
100
AcDbEntity
  8
중심선
100
AcDbHatch
 10
0.0
 20
0.0
 30
0.0
210
0.0
220
0.0
230
1.0
  2
SOLID
 70
     1
 71
     0
 91
        1
 92
        0
 93
        4
 72
     1
 10
-6.290283209272211
 20
-13.98140317373802
 11
-9.736558453109492
 21
-13.98140317373802
 72
     1
 10
-9.736558453109492
 20
-13.98140317373802
 11
-11.86478831231351
 21
-16.51772875431062
 72
     1
 10
-11.86478831231351
 20
-16.51772875431062
 11
-8.418479983363085
 21
-16.51768932500813
 72
     1
 10
-8.418479983363085
 20
-16.51768932500813
 11
-6.290283209272211
 21
-13.98140317373802
 97
        0
 75
     0
 76
     1
 98
        1
 10
16.02919976145654
 20
21.81752189753809
  0
HATCH
  5
CB
330
1F
100
AcDbEntity
  8
중심선
100
AcDbHatch
 10
0.0
 20
0.0
 30
0.0
210
0.0
220
0.0
230
1.0
  2
SOLID
 70
     1
 71
     0
 91
        1
 92
        0
 93
        4
 72
     1
 10
-1.277519218236232
 20
-13.98140317373802
 11
-4.723794462073514
 21
-13.98140317373802
 72
     1
 10
-4.723794462073514
 20
-13.98140317373802
 11
-9.25493247043093
 21
-19.38140317373804
 72
     1
 10
-9.25493247043093
 20
-19.38140317373804
 11
-5.808657226593645
 21
-19.38140317373804
 72
     1
 10
-5.808657226593645
 20
-19.38140317373804
 11
-1.277519218236232
 21
-13.98140317373802
 97
        0
 75
     0
 76
     1
 98
        1
 10
16.02919976145654
 20
21.81752189753809
  0
HATCH
  5
CC
330
1F
100
AcDbEntity
  8
중심선
100
AcDbHatch
 10
0.0
 20
0.0
 30
0.0
210
0.0
220
0.0
230
1.0
  2
SOLID
 70
     1
 71
     0
 91
        1
 92
        0
 93
        4
 72
     1
 10
3.735244772799637
 20
-13.98140317373802
 11
0.2889695289625216
 21
-13.98140317373802
 72
     1
 10
0.2889695289625216
 20
-13.98140317373802
 11
-6.759467372926729
 21
-22.38140317373804
 72
     1
 10
-6.759467372926729
 20
-22.38140317373804
 11
-3.313192129089444
 21
-22.38140317373804
 72
     1
 10
-3.313192129089444
 20
-22.38140317373804
 11
3.735244772799637
 21
-13.98140317373802
 97
        0
 75
     0
 76
     1
 98
        1
 10
16.02919976145654
 20
21.81752189753809
  0
HATCH
  5
CD
330
1F
100
AcDbEntity
  8
중심선
100
AcDbHatch
 10
0.0
 20
0.0
 30
0.0
210
0.0
220
0.0
230
1.0
  2
SOLID
 70
     1
 71
     0
 91
        1
 92
        0
 93
        6
 72
     3
 10
8.535135203811837
 20
-18.18140317378929
 11
3.960054785062283
 21
1.540882976769353E-10
 40
0.3939339440162628
 50
17.09539180608436
 51
320.0019657685075
 73
     0
 72
     1
 10
10.21813485951243
 20
-16.76929717837629
 11
12.52343673321347
 21
-14.8349704683284
 72
     3
 10
8.53513520375899
 20
-18.18140317373817
 11
6.600054785286829
 21
-1.278976924368180E-13
 40
0.636358354079598
 50
39.99873849337411
 51
368.4976242363724
 73
     1
 72
     1
 10
14.9604676956596
 20
-17.22140317366804
 11
7.215202510594912
 21
-17.22140317366802
 72
     1
 10
7.215202510594912
 20
-17.22140317366802
 11
7.215177466148978
 21
-19.14140317366793
 72
     1
 10
7.215177466148978
 20
-19.14140317366793
 11
11.65655723562102
 21
-19.1414031736679
 97
        0
 75
     0
 76
     1
 98
        1
 10
16.02919976145654
 20
21.81752189753809
  0
DIMENSION
  5
CE
330
1F
100
AcDbEntity
  8
치수문자_일반주서
100
AcDbDimension
  2
_D
 10
35.74949228849476
 20
-1.984374999999947
 30
0.0
 11
35.74949228849466
 21
23.02587500000005
 31
0.0
 70
   160
  1
%%c<>
 71
     2
 42
3.968750000000002
 52
-270.0
  3
SLDDIMSTYLE0
100
AcDbAlignedDimension
 13
25.4
 23
1.984375000000015
 33
0.0
 14
25.4
 24
-1.984374999999987
 34
0.0
 50
90.0000000000002
100
AcDbRotatedDimension
1001
ACAD
1000
DSTYLE
1002
{
1070
   171
1070
     6
1070
   273
1070
     5
1002
}
  0
DIMENSION
  5
E3
330
1F
100
AcDbEntity
  8
치수문자_일반주서
100
AcDbDimension
  2
_D_1
 10
17.46250000000001
 20
23.24997756230942
 30
0.0
 11
-1.82899999999999
 21
23.24997756230942
 31
0.0
 70
   160
  1
<>
 71
     2
 42
7.937499999999993
  3
SLDDIMSTYLE0
100
AcDbAlignedDimension
 13
25.4
 23
1.977077642564018
 33
0.0
 14
17.46250000000001
 24
1.832178537121334
 34
0.0
 50
0.0000000000000513
100
AcDbRotatedDimension
1001
ACAD
1000
DSTYLE
1002
{
1070
   171
1070
     6
1070
   273
1070
     5
1002
}
  0
DIMENSION
  5
F8
330
1F
100
AcDbEntity
  8
치수문자_일반주서
100
AcDbDimension
  2
_D_2
 10
-25.4
 20
49.56749658553842
 30
0.0
 11
-1.29615954321876
 21
49.56749658553842
 31
0.0
 70
   160
  1
<>
 71
     2
 42
50.8
  3
SLDDIMSTYLE0
100
AcDbAlignedDimension
 13
25.4
 23
1.977077642564018
 33
0.0
 14
-25.4
 24
1.905000000000002
 34
0.0
100
AcDbRotatedDimension
1001
ACAD
1000
DSTYLE
1002
{
1070
   171
1070
     6
1070
   273
1070
     5
1002
}
  0
DIMENSION
  5
10C
330
1F
100
AcDbEntity
  8
치수문자_일반주서
100
AcDbDimension
  2
_D_3
 10
-35.09945348013132
 20
-2.38125000000008
 30
0.0
 11
-35.09945348013139
 21
22.98524999999993
 31
0.0
 70
   160
  1
%%c<>
 71
     2
 42
4.762500000000009
 52
-270.0
  3
SLDDIMSTYLE0
100
AcDbAlignedDimension
 13
-14.98134233574609
 23
2.381250000000003
 33
0.0
 14
-14.98134233574609
 24
-2.381250000000006
 34
0.0
 50
90.0000000000002
100
AcDbRotatedDimension
1001
ACAD
1000
DSTYLE
1002
{
1070
   171
1070
     6
1070
   273
1070
     5
1002
}
  0
LINE
  5
120
330
1F
100
AcDbEntity
  8
참조1
100
AcDbLine
 10
68.7193644723612
 20
7.441074928723896
 30
0.0
 11
68.7193644723612
 21
-7.438925071276109
 31
0.0
  0
LINE
  5
121
330
1F
100
AcDbEntity
  8
참조1
100
AcDbLine
 10
81.41936447236121
 20
5.441074928723896
 30
0.0
 11
68.7193644723612
 21
5.441074928723896
 31
0.0
  0
SOLID
  5
122
330
1F
100
AcDbEntity
  8
참조1
100
AcDbTrace
 10
68.7193644723612
 20
5.441074928723896
 30
0.0
 11
75.0693644723612
 21
4.425074928723896
 31
0.0
 12
75.0693644723612
 22
6.457074928723896
 32
0.0
 13
75.0693644723612
 23
6.457074928723896
 33
0.0
  0
LINE
  5
123
330
1F
100
AcDbEntity
  8
참조1
100
AcDbLine
 10
81.41936447236121
 20
-5.438925071276109
 30
0.0
 11
68.7193644723612
 21
-5.438925071276109
 31
0.0
  0
SOLID
  5
124
330
1F
100
AcDbEntity
  8
참조1
100
AcDbTrace
 10
68.7193644723612
 20
-5.438925071276109
 30
0.0
 11
75.0693644723612
 21
-6.454925071276109
 31
0.0
 12
75.0693644723612
 22
-4.422925071276109
 32
0.0
 13
75.0693644723612
 23
-4.422925071276109
 33
0.0
  0
MTEXT
  5
125
330
1F
100
AcDbEntity
  8
참조1
100
AcDbMText
 10
78.1037146049872
 20
11.01136670591223
 30
0.0
 40
3.5
 41
0.0
 71
     1
 72
     1
  1
A
  7
SLDTEXTSTYLE0
 73
     1
 44
1.0
  0
MTEXT
  5
126
330
1F
100
AcDbEntity
  8
참조1
100
AcDbMText
 10
78.1037146049872
 20
0.1313667059122219
 30
0.0
 40
3.5
 41
0.0
 71
     1
 72
     1
  1
A
  7
SLDTEXTSTYLE0
 73
     1
 44
1.0
  0
INSERT
  5
12D
330
1F
100
AcDbEntity
  8
해칭선
100
AcDbBlockReference
  2
SW_DOWELSYMBOL_0
 10
0.0
 20
0.0000000000000006
 30
0.0
  0
LINE
  5
238
330
1F
100
AcDbEntity
  8
0
  6
Continuous
 62
     1
370
    15
100
AcDbLine
 10
10.10137623559103
 20
121.2468713310246
 30
0.0
 11
11.67590962835759
 21
121.2468713310246
 31
0.0
  0
LINE
  5
239
330
1F
100
AcDbEntity
  8
0
  6
Continuous
 62
     1
370
    15
100
AcDbLine
 10
-4.489954416088281
 20
121.2468713310246
 30
0.0
 11
-2.415629760288454
 21
121.2468713310246
 31
0.0
  0
LINE
  5
23A
330
1F
100
AcDbEntity
  8
0
  6
Continuous
 62
     4
370
    15
100
AcDbLine
 10
-70.3240903716424
 20
121.2468713310246
 30
0.0
 11
-14.93262483185229
 21
121.2468713310246
 31
0.0
  0
LINE
  5
23B
330
1F
100
AcDbEntity
  8
0
  6
Continuous
 62
     4
370
    15
100
AcDbLine
 10
-14.93262483185228
 20
135.2468713310246
 30
0.0
 11
-43.02410287164247
 21
135.2468713310246
 31
0.0
  0
LINE
  5
23C
330
1F
100
AcDbEntity
  8
0
  6
Continuous
 62
     1
370
    15
100
AcDbLine
 10
-2.41562976028834
 20
135.2468713310246
 30
0.0
 11
-4.489954416088196
 21
135.2468713310246
 31
0.0
  0
LINE
  5
23D
330
1F
100
AcDbEntity
  8
0
  6
Continuous
 62
     1
370
    15
100
AcDbLine
 10
11.67590962835759
 20
135.2468713310246
 30
0.0
 11
10.10137623559103
 21
135.2468713310246
 31
0.0
  0
LINE
  5
23E
330
1F
100
AcDbEntity
  8
0
  6
Continuous
 62
     4
370
    15
100
AcDbLine
 10
-70.3240903716424
 20
135.2468713310246
 30
0.0
 11
-70.82409037164241
 21
134.7468713310246
 31
0.0
  0
LINE
  5
23F
330
1F
100
AcDbEntity
  8
0
  6
Continuous
 62
     4
370
    15
100
AcDbLine
 10
-70.82409037164241
 20
121.7468713310246
 30
0.0
 11
-70.3240903716424
 21
121.2468713310246
 31
0.0
  0
ARC
  5
240
330
1F
100
AcDbEntity
  8
0
  6
Continuous
 62
     1
370
    15
100
AcDbCircle
 10
11.67590962835759
 20
121.7468713310246
 30
0.0
 40
0.5000000000000142
100
AcDbArc
 50
270.0000000000015
 51
0.0
  0
ARC
  5
241
330
1F
100
AcDbEntity
  8
0
  6
Continuous
 62
     1
370
    15
100
AcDbCircle
 10
11.67590962835759
 20
134.7468713310246
 30
0.0
 40
0.5000000000000142
100
AcDbArc
 50
0.0
 51
90.0
  0
LINE
  5
242
330
1F
100
AcDbEntity
  8
0
  6
Continuous
 62
     1
370
    15
100
AcDbLine
 10
-12.96543831509
 20
121.8989712307414
 30
0.0
 11
-12.96543076552399
 21
121.9011223899434
 31
0.0
  0
SPLINE
  5
243
330
1F
100
AcDbEntity
  8
0
  6
Continuous
 62
     4
370
    15
100
AcDbSpline
210
0.0
220
0.0
230
1.0
 70
     8
 71
     3
 72
    14
 73
    10
 74
     0
 42
0.000000001
 43
0.00000001
 40
0.0
 40
0.0
 40
0.0
 40
0.0
 40
0.2500000000000001
 40
0.2500000000000001
 40
0.5
 40
0.5
 40
0.75
 40
0.75
 40
1.0
 40
1.0
 40
1.0
 40
1.0
 10
-15.01206697923674
 20
128.306878460884
 30
0.0
 10
-15.15008154166439
 20
128.4112061742827
 30
0.0
 10
-15.2722805069433
 20
128.5303651679875
 30
0.0
 10
-15.48617352834952
 20
128.7970850425928
 30
0.0
 10
-15.57729427498853
 20
128.9452734079393
 30
0.0
 10
-15.71918571111416
 20
129.2532630520489
 30
0.0
 10
-15.77188256937976
 20
129.4170495530213
 30
0.0
 10
-15.83907856837011
 20
129.7473062974047
 30
0.0
 10
-15.8540130040782
 20
129.9134724188546
 30
0.0
 10
-15.8540130040782
 20
130.0801063919576
 30
0.0
  0
SPLINE
  5
244
330
1F
100
AcDbEntity
  8
0
  6
Continuous
 62
     4
370
    15
100
AcDbSpline
210
0.0
220
0.0
230
1.0
 70
     8
 71
     3
 72
    18
 73
    14
 74
     0
 42
0.000000001
 43
0.00000001
 40
0.0
 40
0.0
 40
0.0
 40
0.0
 40
0.125
 40
0.125
 40
0.25
 40
0.25
 40
0.3749999999999999
 40
0.3749999999999999
 40
0.4999999999999999
 40
0.4999999999999999
 40
0.6249999999999999
 40
0.6249999999999999
 40
0.7024649988048738
 40
0.7024649988048738
 40
0.7024649988048738
 40
0.7024649988048738
 10
-15.8540130040782
 20
132.2298466096381
 30
0.0
 10
-15.8540130040782
 20
132.3939273513797
 30
0.0
 10
-15.83406306096477
 20
132.5503050937606
 30
0.0
 10
-15.7435823024372
 20
132.847458585833
 30
0.0
 10
-15.67228006524306
 20
132.9875464235988
 30
0.0
 10
-15.48278237057441
 20
133.2350452651051
 30
0.0
 10
-15.36136089650728
 20
133.3466241631861
 30
0.0
 10
-15.08075370579644
 20
133.5332178291191
 30
0.0
 10
-14.91963948842722
 20
133.6101944192774
 30
0.0
 10
-14.5701688634917
 20
133.7292364513992
 30
0.0
 10
-14.38426724466377
 20
133.771060281285
 30
0.0
 10
-14.06785815856465
 20
133.8120191252755
 30
0.0
 10
-13.9462329030257
 20
133.8209982481686
 30
0.0
 10
-13.82404850741364
 20
133.8234351854767
 30
0.0
  0
SPLINE
  5
245
330
1F
100
AcDbEntity
  8
0
  6
Continuous
 62
     1
370
    15
100
AcDbSpline
210
0.0
220
0.0
230
1.0
 70
    24
 71
     3
 72
    12
 73
     8
 74
     0
 42
0.000000001
 43
0.00000001
 40
0.0
 40
0.0
 40
0.0
 40
0.0
 40
0.25
 40
0.25
 40
0.5
 40
0.5
 40
1.0
 40
1.0
 40
1.0
 40
1.0
 10
12.1759096283576
 20
127.5468713310245
 30
0.0
 10
12.17590962835759
 20
127.5468713310245
 30
0.0
 10
12.16023589405012
 20
127.5358964641105
 30
0.0
 10
12.10193465638444
 20
127.4950734980101
 30
0.0
 10
12.05985581589555
 20
127.4656095767006
 30
0.0
 10
11.91462628021461
 20
127.3639187610461
 30
0.0
 10
11.79335919263134
 20
127.2790066321836
 30
0.0
 10
11.67590962835766
 20
127.1967675619197
 30
0.0
  0
LINE
  5
246
330
1F
100
AcDbEntity
  8
0
  6
Continuous
 62
     1
370
    15
100
AcDbLine
 10
11.67590962835759
 20
127.1967675619197
 30
0.0
 11
11.67590962835759
 21
128.6240913807142
 31
0.0
  0
SPLINE
  5
247
330
1F
100
AcDbEntity
  8
0
  6
Continuous
 62
     1
370
    15
100
AcDbSpline
210
0.0
220
0.0
230
1.0
 70
     8
 71
     3
 72
    20
 73
    16
 74
     0
 42
0.000000001
 43
0.00000001
 40
0.0
 40
0.0
 40
0.0
 40
0.0
 40
0.2499999999999988
 40
0.2499999999999988
 40
0.4999999999999979
 40
0.4999999999999979
 40
0.6249999999999978
 40
0.6249999999999978
 40
0.7499999999999976
 40
0.7499999999999976
 40
0.8124999999999998
 40
0.8124999999999998
 40
0.8750000000000019
 40
0.8750000000000019
 40
1.0
 40
1.0
 40
1.0
 40
1.0
 10
12.1759096283576
 20
129.6457683645125
 30
0.0
 10
12.17590962835759
 20
129.5296189290486
 30
0.0
 10
12.17370383687371
 20
129.413829337542
 30
0.0
 10
12.15958566748297
 20
129.1843241787985
 30
0.0
 10
12.14806951241837
 20
129.0705062033387
 30
0.0
 10
12.11418382986233
 20
128.9038431576876
 30
0.0
 10
12.1001221685094
 20
128.8489675260178
 30
0.0
 10
12.06113709159342
 20
128.7419679551415
 30
0.0
 10
12.03649553514001
 20
128.6896308565139
 30
0.0
 10
11.98289320869659
 20
128.6230190204569
 30
0.0
 10
11.96247362059077
 20
128.6032150626776
 30
0.0
 10
11.91328792929195
 20
128.5723900138071
 30
0.0
 10
11.88475979285587
 20
128.5621630750003
 30
0.0
 10
11.79344260933908
 20
128.5554436565466
 30
0.0
 10
11.72874804631726
 20
128.5843485116599
 30
0.0
 10
11.67590962835759
 20
128.6240913807142
 30
0.0
  0
LINE
  5
248
330
1F
100
AcDbEntity
  8
0
  6
Continuous
 62
     1
370
    15
100
AcDbLine
 10
12.1759096283576
 20
127.5468713310245
 30
0.0
 11
12.1759096283576
 21
129.6457683645125
 31
0.0
  0
SPLINE
  5
249
330
1F
100
AcDbEntity
  8
0
  6
Continuous
 62
     1
370
    15
100
AcDbSpline
210
0.0
220
0.0
230
1.0
 70
     8
 71
     3
 72
    13
 73
     9
 74
     0
 42
0.000000001
 43
0.00000001
 40
0.0
 40
0.0
 40
0.0
 40
0.0
 40
0.1888317099402734
 40
0.3774241385741431
 40
0.5658883195136233
 40
0.7545367201685285
 40
0.9433412767687592
 40
1.0
 40
1.0
 40
1.0
 40
1.0
 10
-13.82404764103352
 20
124.0157565526068
 30
0.0
 10
-11.99366496399662
 20
123.4135871673246
 30
0.0
 10
-10.98581568806709
 20
122.8609003362537
 30
0.0
 10
-9.475509615891312
 20
122.2066585334811
 30
0.0
 10
-7.966122110842633
 20
121.6995677893089
 30
0.0
 10
-6.455609925721646
 20
121.3810184659825
 30
0.0
 10
-5.296125618449395
 20
121.237104083651
 30
0.0
 10
-4.641140462018512
 20
121.260419577717
 30
0.0
 10
-4.489954416088267
 20
121.2658013444977
 30
0.0
  0
SPLINE
  5
24A
330
1F
100
AcDbEntity
  8
0
  6
Continuous
 62
     4
370
    15
100
AcDbSpline
210
0.0
220
0.0
230
1.0
 70
     8
 71
     3
 72
    18
 73
    14
 74
     0
 42
0.000000001
 43
0.00000001
 40
0.0
 40
0.0
 40
0.0
 40
0.0
 40
0.125
 40
0.125
 40
0.2499999999999999
 40
0.2499999999999999
 40
0.3749999999999999
 40
0.3749999999999999
 40
0.4999999999999999
 40
0.4999999999999999
 40
0.6249999999999999
 40
0.6249999999999999
 40
0.7024491648117126
 40
0.7024491648117126
 40
0.7024491648117126
 40
0.7024491648117126
 10
-15.8540130040782
 20
122.4904915720134
 30
0.0
 10
-15.8540130040782
 20
122.6040184001008
 30
0.0
 10
-15.83406730235508
 20
122.7226276769633
 30
0.0
 10
-15.74350465397896
 20
122.9676841783578
 30
0.0
 10
-15.67226981811109
 20
123.0936891698371
 30
0.0
 10
-15.48263912805174
 20
123.3329984964271
 30
0.0
 10
-15.3610508855308
 20
123.450057051296
 30
0.0
 10
-15.08063117766774
 20
123.6563022138059
 30
0.0
 10
-14.91914786992858
 20
123.7478102168233
 30
0.0
 10
-14.57010005245814
 20
123.8934239233602
 30
0.0
 10
-14.38353029501152
 20
123.9475997981905
 30
0.0
 10
-14.06772445158124
 20
124.0007252648289
 30
0.0
 10
-13.94622651027424
 20
124.0125249868077
 30
0.0
 10
-13.82404764103352
 20
124.0157565526068
 30
0.0
  0
LINE
  5
24B
330
1F
100
AcDbEntity
  8
0
  6
Continuous
 62
     4
370
    15
100
AcDbLine
 10
-15.8540130040782
 20
122.4904915720134
 30
0.0
 11
-15.8540130040782
 21
121.4911885963658
 31
0.0
  0
SPLINE
  5
24C
330
1F
100
AcDbEntity
  8
0
  6
Continuous
 62
     4
370
    15
100
AcDbSpline
210
0.0
220
0.0
230
1.0
 70
     8
 71
     3
 72
    14
 73
    10
 74
     0
 42
0.000000001
 43
0.00000001
 40
0.0
 40
0.0
 40
0.0
 40
0.0
 40
0.2500000000000001
 40
0.2500000000000001
 40
0.5000000000000002
 40
0.5000000000000002
 40
0.7500000000000001
 40
0.7500000000000001
 40
1.0
 40
1.0
 40
1.0
 40
1.0
 10
-15.01206697923674
 20
121.2471285397239
 30
0.0
 10
-15.15008154166439
 20
121.2480229163935
 30
0.0
 10
-15.2722805069433
 20
121.2513385127438
 30
0.0
 10
-15.48617352834952
 20
121.2672500634455
 30
0.0
 10
-15.57729427498853
 20
121.2800710699175
 30
0.0
 10
-15.71918571111416
 20
121.3178564628738
 30
0.0
 10
-15.77188256937974
 20
121.3433229680296
 30
0.0
 10
-15.8390785683701
 20
121.4075006009713
 30
0.0
 10
-15.8540130040782
 20
121.4459704809165
 30
0.0
 10
-15.8540130040782
 20
121.4911885963658
 30
0.0
  0
SPLINE
  5
24D
330
1F
100
AcDbEntity
  8
0
  6
Continuous
 62
     4
370
    15
100
AcDbSpline
210
0.0
220
0.0
230
1.0
 70
     8
 71
     3
 72
     8
 73
     4
 74
     0
 42
0.000000001
 43
0.00000001
 40
0.0
 40
0.0
 40
0.0
 40
0.0
 40
1.0
 40
1.0
 40
1.0
 40
1.0
 10
-13.8240421653347
 20
121.2966607572493
 30
0.0
 10
-14.22139426213826
 20
121.2610855667888
 30
0.0
 10
-14.61783019079398
 20
121.2445737644908
 30
0.0
 10
-15.01206697923674
 20
121.2471285397239
 30
0.0
  0
ELLIPSE
  5
24E
330
1F
100
AcDbEntity
  8
0
  6
Continuous
 62
     1
370
    15
100
AcDbEllipse
 10
-13.82413280413593
 20
128.2468713310246
 30
0.0
 11
-8.754317944870139E-5
 21
6.999999999999996
 31
0.0
210
0.0
220
0.0
230
1.0
 40
0.0000044615431981
 41
3.260934377207178
 42
3.484263698431756
  0
LINE
  5
24F
330
1F
100
AcDbEntity
  8
0
  6
Continuous
 62
     1
370
    15
100
AcDbLine
 10
-12.97209854950333
 20
121.920231971919
 30
0.0
 11
-13.82403321791189
 21
121.6538475126257
 31
0.0
  0
ELLIPSE
  5
250
330
1F
100
AcDbEntity
  8
0
  6
Continuous
 62
     1
370
    15
100
AcDbEllipse
 10
13.17561323307707
 20
128.2468713310246
 30
0.0
 11
9.997036047194769
 21
0.0
 31
0.0
210
0.0
220
0.0
230
1.0
 40
0.7002075382097122
 41
1.721379593386352
 42
1.730509272109655
  0
SPLINE
  5
251
330
1F
100
AcDbEntity
  8
0
  6
Continuous
 62
     1
370
    15
100
AcDbSpline
210
0.0
220
0.0
230
1.0
 70
     8
 71
     3
 72
    12
 73
     8
 74
     0
 42
0.000000001
 43
0.00000001
 40
0.0
 40
0.0
 40
0.0
 40
0.0
 40
0.1604372543094996
 40
0.3702248762908332
 40
0.5799653179929304
 40
0.7899984346929884
 40
1.0
 40
1.0
 40
1.0
 40
1.0
 10
4.373702549111343
 20
133.9440200165552
 30
0.0
 10
4.759545256247989
 20
134.1089720702303
 30
0.0
 10
5.64991557037601
 20
134.4896152938295
 30
0.0
 10
7.04369698747557
 20
134.8979309322969
 30
0.0
 10
8.556528598339696
 20
135.1796980150619
 30
0.0
 10
10.0710156161944
 20
135.2858940230932
 30
0.0
 10
11.08085481473475
 20
135.200483976603
 30
0.0
 10
11.5857364863827
 20
135.1577821611954
 30
0.0
  0
SPLINE
  5
252
330
1F
100
AcDbEntity
  8
0
  6
Continuous
 62
     1
370
    15
100
AcDbSpline
210
0.0
220
0.0
230
1.0
 70
     8
 71
     3
 72
    16
 73
    12
 74
     0
 42
0.000000001
 43
0.00000001
 40
0.0
 40
0.0
 40
0.0
 40
0.0
 40
0.1130995901427975
 40
0.2261991802855952
 40
0.3392987704283926
 40
0.4523983605711902
 40
0.5654979507139878
 40
0.6785975408567851
 40
0.7916971309995828
 40
0.9047967211423802
 40
1.0
 40
1.0
 40
1.0
 40
1.0
 10
11.67590962835759
 20
128.6240913807142
 30
0.0
 10
11.1446605185786
 20
129.0227500904792
 30
0.0
 10
10.08216229902064
 20
129.820067510009
 30
0.0
 10
8.488414969683703
 20
130.966891359208
 30
0.0
 10
6.894667640346754
 20
132.0346167899659
 30
0.0
 10
5.300920311009804
 20
132.9910233916689
 30
0.0
 10
3.707172981672869
 20
133.8077832844663
 30
0.0
 10
2.11342565233592
 20
134.4627695384507
 30
0.0
 10
0.5196783229989705
 20
134.9295784510483
 30
0.0
 10
-0.9900068145424541
 20
135.205948931038
 30
0.0
 10
-1.968442842304896
 20
135.2246311852689
 30
0.0
 10
-2.415629760288354
 20
135.2331697707803
 30
0.0
  0
SPLINE
  5
253
330
1F
100
AcDbEntity
  8
0
  6
Continuous
 62
     1
370
    15
100
AcDbSpline
210
0.0
220
0.0
230
1.0
 70
     8
 71
     3
 72
    22
 73
    18
 74
     0
 42
0.000000001
 43
0.00000001
 40
0.0
 40
0.0
 40
0.0
 40
0.0
 40
0.0338582896849759
 40
0.1030870812810432
 40
0.1723835425436936
 40
0.2417373647719213
 40
0.3097432503986249
 40
0.3777498890832434
 40
0.4458719251369334
 40
0.5139226624016938
 40
0.5833026621140488
 40
0.6527405848144587
 40
0.7222516604362255
 40
0.7916546490340882
 40
0.8610420292163973
 40
0.9305262336028924
 40
1.0
 40
1.0
 40
1.0
 40
1.0
 10
-10.21328009310804
 20
133.940814468516
 30
0.0
 10
-9.967254301571856
 20
134.0517219621534
 30
0.0
 10
-9.218188681149286
 20
134.3893979025993
 30
0.0
 10
-7.966152735888727
 20
134.7865582824855
 30
0.0
 10
-6.455567313615518
 20
135.1224753391002
 30
0.0
 10
-4.953112443084763
 20
135.2680917908828
 30
0.0
 10
-3.461405416138192
 20
135.2337327487901
 30
0.0
 10
-1.978663885530239
 20
135.0209539738881
 30
0.0
 10
-0.4941417709598142
 20
134.6364887853371
 30
0.0
 10
0.9993598032295523
 20
134.0853164125154
 30
0.0
 10
2.50198970795276
 20
133.3779485856269
 30
0.0
 10
4.015696466249821
 20
132.5299627072062
 30
0.0
 10
5.530548426394887
 20
131.5695518923771
 30
0.0
 10
7.043692282232811
 20
130.5196983157067
 30
0.0
 10
8.55652985491335
 20
129.4101172491598
 30
0.0
 10
10.07101530192358
 20
128.2686999362905
 30
0.0
 10
11.08085470998304
 20
127.5119661298937
 30
0.0
 10
11.5857364863827
 20
127.1336276481648
 30
0.0
  0
SPLINE
  5
254
330
1F
100
AcDbEntity
  8
0
  6
Continuous
 62
     4
370
    15
100
AcDbSpline
210
0.0
220
0.0
230
1.0
 70
     8
 71
     3
 72
     9
 73
     5
 74
     0
 42
0.000000001
 43
0.00000001
 40
0.0
 40
0.0
 40
0.0
 40
0.0
 40
0.6012622980606229
 40
1.0
 40
1.0
 40
1.0
 40
1.0
 10
-13.8240421653347
 20
135.1970819047998
 30
0.0
 10
-14.04643734916627
 20
135.2142381989545
 30
0.0
 10
-14.41631782321049
 20
135.2427719922925
 30
0.0
 10
-14.78544136075861
 20
135.2446808657592
 30
0.0
 10
-14.93262483185227
 20
135.2454420055786
 30
0.0
  0
ELLIPSE
  5
255
330
1F
100
AcDbEntity
  8
0
  6
Continuous
 62
     1
370
    15
100
AcDbEllipse
 10
-13.82413280413593
 20
128.2468713310246
 30
0.0
 11
8.754317944870138E-5
 21
7.000000000000005
 31
0.0
210
0.0
220
0.0
230
1.0
 40
0.0000044615431981
 41
5.940514267915742
 42
6.163843589761098
  0
SPLINE
  5
256
330
1F
100
AcDbEntity
  8
0
  6
Continuous
 62
     1
370
    15
100
AcDbSpline
210
0.0
220
0.0
230
1.0
 70
     8
 71
     3
 72
    22
 73
    18
 74
     0
 42
0.000000001
 43
0.00000001
 40
0.0
 40
0.0
 40
0.0
 40
0.0
 40
0.125
 40
0.125
 40
0.2500000000000001
 40
0.2500000000000001
 40
0.3750000000000001
 40
0.3750000000000001
 40
0.5000000000000001
 40
0.5000000000000001
 40
0.6250000000000001
 40
0.6250000000000001
 40
0.7500000000000002
 40
0.7500000000000002
 40
0.8750000000000001
 40
0.8750000000000001
 40
1.0
 40
1.0
 40
1.0
 40
1.0
 10
11.67590962835759
 20
121.2570426468498
 30
0.0
 10
10.61341140879962
 20
121.3001873231025
 30
0.0
 10
9.550913189241655
 20
121.4818104874264
 30
0.0
 10
7.425916750125737
 20
122.1010013514163
 30
0.0
 10
6.36341853056777
 20
122.5384268010448
 30
0.0
 10
4.238422091451838
 20
123.6183308848459
 30
0.0
 10
3.175923871893886
 20
124.2605614268624
 30
0.0
 10
1.050927432777968
 20
125.6752782440262
 30
0.0
 10
-0.0115707867799983
 20
126.4474395086929
 30
0.0
 10
-2.136567225895931
 20
128.0320344709171
 30
0.0
 10
-3.199065445453883
 20
128.8441041309769
 30
0.0
 10
-5.324061884569815
 20
130.4138374270503
 30
0.0
 10
-6.386560104127781
 20
131.1711404398163
 30
0.0
 10
-8.5115565432437
 20
132.5430049040708
 30
0.0
 10
-9.574054762801666
 20
133.1572511897793
 30
0.0
 10
-11.69905120191758
 20
134.1713081702716
 30
0.0
 10
-12.76154942147555
 20
134.5708859003076
 30
0.0
 10
-13.8240421653347
 20
135.1970819047998
 30
0.0
  0
SPLINE
  5
257
330
1F
100
AcDbEntity
  8
0
  6
Continuous
 62
     1
370
    15
100
AcDbSpline
210
0.0
220
0.0
230
1.0
 70
     8
 71
     3
 72
    23
 73
    19
 74
     0
 42
0.000000001
 43
0.00000001
 40
0.0
 40
0.0
 40
0.0
 40
0.0
 40
0.0669082828869396
 40
0.133731781807545
 40
0.2005098390329048
 40
0.267353170384294
 40
0.3342518320939565
 40
0.3998502748421507
 40
0.4654494439896273
 40
0.5311599253807218
 40
0.5968016319962138
 40
0.6637255444937747
 40
0.7307053294762051
 40
0.7977556777294358
 40
0.864701765294286
 40
0.9316327969894176
 40
0.9986572252627484
 40
0.9999999999999999
 40
0.9999999999999999
 40
0.9999999999999999
 40
0.9999999999999999
 10
-13.82404850741364
 20
133.8234351854767
 30
0.0
 10
-11.99366518476104
 20
133.300018886725
 30
0.0
 10
-10.98581635008057
 20
132.7791538814984
 30
0.0
 10
-9.475506972500767
 20
131.8403323914871
 30
0.0
 10
-7.966132020536477
 20
130.8165247678616
 30
0.0
 10
-6.455572875351621
 20
129.7225757608022
 30
0.0
 10
-4.953110984401007
 20
128.59811322264
 30
0.0
 10
-3.461405804188658
 20
127.4698411250533
 30
0.0
 10
-1.978663779629031
 20
126.3681509685375
 30
0.0
 10
-0.494141805763789
 20
125.3158444908396
 30
0.0
 10
0.9993598369967742
 20
124.3302711386828
 30
0.0
 10
2.501989606148229
 20
123.4398805021309
 30
0.0
 10
4.015696839325486
 20
122.6707206068605
 30
0.0
 10
5.530547035360399
 20
122.0514612047009
 30
0.0
 10
7.043697463445213
 20
121.5896157555028
 30
0.0
 10
8.556510510996105
 20
121.3264873650647
 30
0.0
 10
9.576164143961947
 20
121.2172408192971
 30
0.0
 10
10.09125944096387
 20
121.2480873100141
 30
0.0
 10
10.10137623559103
 20
121.2486931544343
 30
0.0
  0
LINE
  5
258
330
1F
100
AcDbEntity
  8
0
  6
Continuous
 62
     4
370
    15
100
AcDbLine
 10
-15.8540130040782
 20
132.2298466096381
 30
0.0
 11
-15.8540130040782
 21
130.0801063919576
 31
0.0
  0
SPLINE
  5
259
330
1F
100
AcDbEntity
  8
0
  6
Continuous
 62
     4
370
    15
100
AcDbSpline
210
0.0
220
0.0
230
1.0
 70
     8
 71
     3
 72
     8
 73
     4
 74
     0
 42
0.000000001
 43
0.00000001
 40
0.0
 40
0.0
 40
0.0
 40
0.0
 40
1.0
 40
1.0
 40
1.0
 40
1.0
 10
-13.8240421653347
 20
127.4134608798165
 30
0.0
 10
-14.22139426213826
 20
127.7101395026303
 30
0.0
 10
-14.61783019079398
 20
128.0088677151162
 30
0.0
 10
-15.01206697923674
 20
128.306878460884
 30
0.0
  0
ELLIPSE
  5
25A
330
1F
100
AcDbEntity
  8
0
  6
Continuous
 62
     1
370
    15
100
AcDbEllipse
 10
-13.82413280413593
 20
128.2468713310246
 30
0.0
 11
-3.123080239753051E-5
 21
7.000000000000002
 31
0.0
210
0.0
220
0.0
230
1.0
 40
0.0000125061684922
 41
4.369717938307952
 42
4.593047259785618
  0
SPLINE
  5
25B
330
1F
100
AcDbEntity
  8
0
  6
Continuous
 62
     1
370
    15
100
AcDbSpline
210
0.0
220
0.0
230
1.0
 70
     8
 71
     3
 72
    17
 73
    13
 74
     0
 42
0.000000001
 43
0.00000001
 40
0.0
 40
0.0
 40
0.0
 40
0.0
 40
0.0720017727508488
 40
0.1751126868896435
 40
0.2782236010284382
 40
0.3813345151672327
 40
0.4844454293060271
 40
0.5875563434448218
 40
0.6906672575836164
 40
0.7937781717224107
 40
0.8968890858612054
 40
1.0
 40
1.0
 40
1.0
 40
1.0
 10
1.632583139987858
 20
121.9208370260464
 30
0.0
 10
1.261614867658238
 20
121.8037470362789
 30
0.0
 10
0.3593974855496214
 20
121.5189770655863
 30
0.0
 10
-1.074069006337979
 20
121.2899319084322
 30
0.0
 10
-2.6678163356749
 20
121.2138945984746
 30
0.0
 10
-4.261563665011863
 20
121.3512369560978
 30
0.0
 10
-5.855310994348798
 20
121.6891801965473
 30
0.0
 10
-7.449058323685733
 20
122.2202575057899
 30
0.0
 10
-9.042805653022668
 20
122.927798538459
 30
0.0
 10
-10.63655298235963
 20
123.7928808127732
 30
0.0
 10
-12.23030031169658
 20
124.7837723506595
 30
0.0
 10
-13.29279853125453
 20
125.5244929753492
 30
0.0
 10
-13.82404764103352
 20
125.8948532876941
 30
0.0
  0
LINE
  5
25C
330
1F
100
AcDbEntity
  8
0
  6
Continuous
 62
     4
370
    15
100
AcDbLine
 10
-70.3240903716424
 20
135.2468713310246
 30
0.0
 11
-70.3240903716424
 21
121.2468713310246
 31
0.0
  0
LINE
  5
25D
330
1F
100
AcDbEntity
  8
0
  6
Continuous
 62
     1
370
    15
100
AcDbLine
 10
11.67590962835759
 20
127.1967675619197
 30
0.0
 11
11.5857364863827
 21
127.1336276481648
 31
0.0
  0
SPLINE
  5
25E
330
1F
100
AcDbEntity
  8
0
  6
Continuous
 62
     1
370
    15
100
AcDbSpline
210
0.0
220
0.0
230
1.0
 70
     8
 71
     3
 72
    12
 73
     8
 74
     0
 42
0.000000001
 43
0.00000001
 40
0.0
 40
0.0
 40
0.0
 40
0.0
 40
0.500000000000001
 40
0.500000000000001
 40
0.7500000000000006
 40
0.7500000000000006
 40
1.0
 40
1.0
 40
1.0
 40
1.0
 10
12.1759096283576
 20
122.9574913660577
 30
0.0
 10
11.5596189759907
 20
123.1785178818647
 30
0.0
 10
10.95981325935583
 20
123.4634217803153
 30
0.0
 10
10.08843638081684
 20
124.0005599554537
 30
0.0
 10
9.802772300317145
 20
124.1981856629406
 30
0.0
 10
9.242487656935793
 20
124.6362295408083
 30
0.0
 10
8.971425965251058
 20
124.8729935674738
 30
0.0
 10
8.711289164580776
 20
125.1209179652524
 30
0.0
  0
LINE
  5
25F
330
1F
100
AcDbEntity
  8
0
  6
Continuous
 62
     1
370
    15
100
AcDbLine
 10
12.1759096283576
 20
121.9635913246164
 30
0.0
 11
12.1759096283576
 21
122.9574913660577
 31
0.0
  0
SPLINE
  5
260
330
1F
100
AcDbEntity
  8
0
  6
Continuous
 62
     1
370
    15
100
AcDbSpline
210
0.0
220
0.0
230
1.0
 70
     8
 71
     3
 72
    28
 73
    24
 74
     0
 42
0.000000001
 43
0.00000001
 40
0.016085538330655
 40
0.016085538330655
 40
0.016085538330655
 40
0.016085538330655
 40
0.0472516498750998
 40
0.0885267095475862
 40
0.1299703742810235
 40
0.1703500107414467
 40
0.2108875143472327
 40
0.2656727220293837
 40
0.3212471906766624
 40
0.3491696077508019
 40
0.3896354851425262
 40
0.4302606149699582
 40
0.4851690549682333
 40
0.5408718754704352
 40
0.568858909117058
 40
0.6228446288422211
 40
0.6771143317175983
 40
0.7308316247397184
 40
0.7848287187462499
 40
0.8511921223948421
 40
0.8913057182899595
 40
0.9318872172951486
 40
1.0
 40
1.0
 40
1.0
 40
1.0
 10
-12.55348476101788
 20
134.5351243302092
 30
0.0
 10
-12.29239005855513
 20
134.4942349996407
 30
0.0
 10
-11.68543426934123
 20
134.3658458168871
 30
0.0
 10
-10.73154760766636
 20
134.1245688933405
 30
0.0
 10
-9.700216787487818
 20
133.7835735357457
 30
0.0
 10
-8.67524455823596
 20
133.3789558573524
 30
0.0
 10
-7.538378609163999
 20
132.8611951523348
 30
0.0
 10
-6.274898309957194
 20
132.2025288205067
 30
0.0
 10
-5.114680290567478
 20
131.5279327259245
 30
0.0
 10
-4.07791579909815
 20
130.8802234524917
 30
0.0
 10
-3.163324105494013
 20
130.2894145236435
 30
0.0
 10
-2.025459481439924
 20
129.5209217927053
 30
0.0
 10
-0.7568215922339334
 20
128.6464944883572
 30
0.0
 10
0.4033527889308175
 20
127.8338888234278
 30
0.0
 10
1.557430308234856
 20
127.0381506040015
 30
0.0
 10
2.698270019855386
 20
126.2623331396419
 30
0.0
 10
4.055022948313464
 20
125.3835459026966
 30
0.0
 10
5.41314661578005
 20
124.5670959549591
 30
0.0
 10
6.870703102627516
 20
123.7717123953265
 30
0.0
 10
8.215197176820354
 20
123.1421749380855
 30
0.0
 10
9.448261526832596
 20
122.6680296815125
 30
0.0
 10
10.69351248938216
 20
122.2599166946688
 30
0.0
 10
11.60483406334288
 20
122.0777470887378
 30
0.0
 10
12.1759096283576
 20
121.9635913246167
 30
0.0
  0
SPLINE
  5
261
330
1F
100
AcDbEntity
  8
0
  6
Continuous
 62
     1
370
    15
100
AcDbSpline
210
0.0
220
0.0
230
1.0
 70
    24
 71
     3
 72
    19
 73
    15
 74
     0
 42
0.000000001
 43
0.00000001
 40
0.0
 40
0.0
 40
0.0
 40
0.0
 40
0.0519053787796564
 40
0.123982619451791
 40
0.244176928560209
 40
0.3682680897648034
 40
0.4488549226940803
 40
0.531627152329523
 40
0.6122849023045696
 40
0.6955498404191139
 40
0.7724247768974827
 40
0.8511705799597505
 40
0.9249947615355831
 40
1.0
 40
1.0
 40
1.0
 40
1.0
 10
11.58375758364805
 20
127.1322420055526
 30
0.0
 10
11.58308899586619
 20
127.1317738553478
 30
0.0
 10
11.58149198864891
 20
127.1306556188557
 30
0.0
 10
11.54247363242803
 20
127.1033346717013
 30
0.0
 10
11.44041393536702
 20
127.0318717024717
 30
0.0
 10
11.24570874692742
 20
126.8955376617978
 30
0.0
 10
11.00082424497037
 20
126.7240676875368
 30
0.0
 10
10.74344568184205
 20
126.5438492774607
 30
0.0
 10
10.43837687681346
 20
126.3302378005071
 30
0.0
 10
10.10558049301636
 20
126.0972112638834
 30
0.0
 10
9.75290452965271
 20
125.8502648957908
 30
0.0
 10
9.4027591226901
 20
125.6050904423661
 30
0.0
 10
9.051868793161503
 20
125.3593943885453
 30
0.0
 10
8.825414726852841
 20
125.2008295442577
 30
0.0
 10
8.71128916458079
 20
125.1209179652524
 30
0.0
  0
SPLINE
  5
262
330
1F
100
AcDbEntity
  8
0
  6
Continuous
 62
     1
370
    15
100
AcDbSpline
210
0.0
220
0.0
230
1.0
 70
     8
 71
     3
 72
    23
 73
    19
 74
     0
 42
0.000000001
 43
0.00000001
 40
0.0
 40
0.0
 40
0.0
 40
0.0
 40
0.0563196252610625
 40
0.1128638179983653
 40
0.1698643521528354
 40
0.227097728576017
 40
0.3017225181009881
 40
0.3769851898601362
 40
0.4530560221197051
 40
0.5297869684772651
 40
0.6045732877483593
 40
0.6800021523162765
 40
0.7562450579339203
 40
0.8331529276033386
 40
0.8829363017920873
 40
0.9327290574073435
 40
0.9826771204971511
 40
0.9999999999999999
 40
0.9999999999999999
 40
0.9999999999999999
 40
0.9999999999999999
 10
-13.82404764103335
 20
127.5833238591578
 30
0.0
 10
-13.48246004520392
 20
127.3473955931454
 30
0.0
 10
-12.79792281564166
 20
126.8745983266073
 30
0.0
 10
-11.76734526942181
 20
126.1824430374433
 30
0.0
 10
-10.73156116814614
 20
125.5110554038847
 30
0.0
 10
-9.585723723816912
 20
124.8070315860483
 30
0.0
 10
-8.329859331208539
 20
124.0925029912878
 30
0.0
 10
-6.957878793729947
 20
123.4049769936624
 30
0.0
 10
-5.574867521878517
 20
122.8157849319884
 30
0.0
 10
-4.194572930007013
 20
122.3489312229896
 30
0.0
 10
-2.816685544982022
 20
122.0136747528874
 30
0.0
 10
-1.443425990526279
 20
121.8136817434003
 30
0.0
 10
-0.0572156529077716
 20
121.7546718219487
 30
0.0
 10
1.175463298033378
 20
121.8310931417989
 30
0.0
 10
2.24438850814029
 20
121.9885560609702
 30
0.0
 10
3.15276294257292
 20
122.1840859863882
 30
0.0
 10
3.861824963448839
 20
122.3727491386092
 30
0.0
 10
4.270064135161846
 20
122.5129999963208
 30
0.0
 10
4.3751894345463
 20
122.5491158676713
 30
0.0
  0
SPLINE
  5
263
330
1F
100
AcDbEntity
  8
0
  6
Continuous
 62
     1
370
    15
100
AcDbSpline
210
0.0
220
0.0
230
1.0
 70
     8
 71
     3
 72
     8
 73
     4
 74
     0
 42
0.000000001
 43
0.00000001
 40
0.0
 40
0.0
 40
0.0
 40
0.0
 40
1.0
 40
1.0
 40
1.0
 40
1.0
 10
-13.8240421653347
 20
127.4134608798164
 30
0.0
 10
-13.82404457724445
 20
127.4607831222182
 30
0.0
 10
-13.82404697997393
 20
127.5174993779603
 30
0.0
 10
-13.82404937380113
 20
127.5833251529438
 30
0.0
  0
SPLINE
  5
264
330
1F
100
AcDbEntity
  8
0
  6
Continuous
 62
     1
370
    15
100
AcDbSpline
210
0.0
220
0.0
230
1.0
 70
     8
 71
     3
 72
    17
 73
    13
 74
     0
 42
0.000000001
 43
0.00000001
 40
0.0
 40
0.0
 40
0.0
 40
0.0
 40
0.0675199606623318
 40
0.1644643687858552
 40
0.229351036156632
 40
0.3254361810072307
 40
0.4218957451825315
 40
0.4864551901036561
 40
0.6126573495629375
 40
0.7405810367384917
 40
0.8693927231117253
 40
1.0
 40
1.0
 40
1.0
 40
1.0
 10
1.645106667507747
 20
134.5820578395576
 30
0.0
 10
1.881906392223271
 20
134.5492395501051
 30
0.0
 10
2.458700526461101
 20
134.4693011258748
 30
0.0
 10
3.265094375184447
 20
134.2818295920105
 30
0.0
 10
4.168929974351443
 20
134.0250991883219
 30
0.0
 10
5.073686215466054
 20
133.7167769836591
 30
0.0
 10
5.975393283664786
 20
133.350184211448
 30
0.0
 10
6.983697545501556
 20
132.8914177793972
 30
0.0
 10
8.102299130814686
 20
132.3200466033902
 30
0.0
 10
9.447414981951482
 20
131.5494098921
 30
0.0
 10
10.80624148222785
 20
130.69975308639
 30
0.0
 10
11.71725170129628
 20
130.0905780593593
 30
0.0
 10
12.1759096283576
 20
129.7838823173498
 30
0.0
  0
LINE
  5
265
330
1F
100
AcDbEntity
  8
0
  6
Continuous
 62
     1
370
    15
100
AcDbLine
 10
12.1759096283576
 20
129.6457683645125
 30
0.0
 11
12.1759096283576
 21
129.7838823173498
 31
0.0
  0
LINE
  5
266
330
1F
100
AcDbEntity
  8
0
  6
Continuous
 62
     1
370
    15
100
AcDbLine
 10
12.1759096283576
 20
121.8991877307103
 30
0.0
 11
12.1759096283576
 21
121.9635913246164
 31
0.0
  0
SPLINE
  5
267
330
1F
100
AcDbEntity
  8
0
  6
Continuous
 62
     1
370
    15
100
AcDbSpline
210
0.0
220
0.0
230
1.0
 70
     8
 71
     3
 72
    20
 73
    16
 74
     0
 42
0.000000001
 43
0.00000001
 40
0.0
 40
0.0
 40
0.0
 40
0.0
 40
0.2500000000000014
 40
0.2500000000000014
 40
0.5000000000000031
 40
0.5000000000000031
 40
0.625000000000004
 40
0.625000000000004
 40
0.7500000000000048
 40
0.7500000000000048
 40
0.8125000000000051
 40
0.8125000000000051
 40
0.8750000000000056
 40
0.8750000000000056
 40
1.0
 40
1.0
 40
1.0
 40
1.0
 10
12.1759096283576
 20
121.8991877307103
 30
0.0
 10
12.1759096283576
 20
121.8450263594631
 30
0.0
 10
12.17370383687373
 20
121.7907021431057
 30
0.0
 10
12.15958566748299
 20
121.6803622008014
 30
0.0
 10
12.1480695124184
 20
121.624450792818
 30
0.0
 10
12.11418382986233
 20
121.536666317551
 30
0.0
 10
12.10012216850939
 20
121.5067486187097
 30
0.0
 10
12.06113709159342
 20
121.4441641277952
 30
0.0
 10
12.03649553513999
 20
121.411486591026
 30
0.0
 10
11.98289320869659
 20
121.3617346699809
 30
0.0
 10
11.96247362059077
 20
121.3452966884983
 30
0.0
 10
11.91328792929195
 20
121.3134849700256
 30
0.0
 10
11.88475979285587
 20
121.2985610943643
 30
0.0
 10
11.79344260933908
 20
121.2633435278218
 30
0.0
 10
11.72874804631726
 20
121.254897843634
 30
0.0
 10
11.67590962835759
 20
121.2570426468498
 30
0.0
  0
LINE
  5
268
330
1F
100
AcDbEntity
  8
0
  6
Continuous
 62
     4
370
    15
100
AcDbLine
 10
-70.82409037164241
 20
134.7468713310246
 30
0.0
 11
-70.82409037164241
 21
121.7468713310246
 31
0.0
  0
SPLINE
  5
269
330
1F
100
AcDbEntity
  8
0
  6
Continuous
 62
     1
370
    15
100
AcDbSpline
210
0.0
220
0.0
230
1.0
 70
     8
 71
     3
 72
    17
 73
    13
 74
     0
 42
0.000000001
 43
0.00000001
 40
0.0
 40
0.0
 40
0.0
 40
0.0
 40
0.157470297391424
 40
0.2892417509688271
 40
0.4252854023640663
 40
0.5136343782270708
 40
0.604379248727275
 40
0.6928059723827817
 40
0.7840910091600977
 40
0.86837055782232
 40
0.9547011753832169
 40
1.0
 40
1.0
 40
1.0
 40
1.0
 10
11.5857364863827
 20
135.1577821611954
 30
0.0
 10
11.58019152519444
 20
134.8879493540057
 30
0.0
 10
11.5700065296129
 20
134.3923199247529
 30
0.0
 10
11.43925736130271
 20
133.6784113030834
 30
0.0
 10
11.24590274967326
 20
133.1121533192015
 30
0.0
 10
11.00078098859731
 20
132.6612312446615
 30
0.0
 10
10.74345545642032
 20
132.3252043283435
 30
0.0
 10
10.43838003994625
 20
132.0472678140578
 30
0.0
 10
10.10555758697431
 20
131.8430592213067
 30
0.0
 10
9.752985969354313
 20
131.7184238076911
 30
0.0
 10
9.45211319445427
 20
131.6492202779576
 30
0.0
 10
9.267920876917955
 20
131.6694675423372
 30
0.0
 10
9.20453311693204
 20
131.6764354156559
 30
0.0
  0
SPLINE
  5
26A
330
1F
100
AcDbEntity
  8
0
  6
Continuous
 62
     1
370
    15
100
AcDbSpline
210
0.0
220
0.0
230
1.0
 70
     8
 71
     3
 72
    10
 73
     6
 74
     0
 42
0.000000001
 43
0.00000001
 40
0.0
 40
0.0
 40
0.0
 40
0.0
 40
0.4280803337054586
 40
0.8588996630546494
 40
1.0
 40
1.0
 40
1.0
 40
1.0
 10
12.1759096283576
 20
129.9172690320101
 30
0.0
 10
11.94252641410475
 20
130.0582312978712
 30
0.0
 10
11.47426672473929
 20
130.3410577515031
 30
0.0
 10
10.93450917936937
 20
130.6486561428264
 30
0.0
 10
10.63590328637258
 20
130.8039040020992
 30
0.0
 10
10.56223316345358
 20
130.8422057541536
 30
0.0
  0
LINE
  5
26B
330
1F
100
AcDbEntity
  8
0
  6
Continuous
 62
     1
370
    15
100
AcDbLine
 10
12.1759096283576
 20
129.7838823173499
 30
0.0
 11
12.1759096283576
 21
129.9172690320101
 31
0.0
  0
SPLINE
  5
26C
330
1F
100
AcDbEntity
  8
0
  6
Continuous
 62
     1
370
    15
100
AcDbSpline
210
0.0
220
0.0
230
1.0
 70
     8
 71
     3
 72
    11
 73
     7
 74
     0
 42
0.000000001
 43
0.00000001
 40
0.0
 40
0.0
 40
0.0
 40
0.0
 40
0.2832796687339945
 40
0.5688272411414166
 40
0.8555317659208159
 40
1.0
 40
1.0
 40
1.0
 40
1.0
 10
-13.82404764103335
 20
121.8124548723552
 30
0.0
 10
-13.48314236234205
 20
121.844151394971
 30
0.0
 10
-12.79860255743776
 20
121.9077981988306
 30
0.0
 10
-11.76872591332844
 20
122.1055290672865
 30
0.0
 10
-10.90620442548288
 20
122.3182697240896
 30
0.0
 10
-10.38721698984121
 20
122.4940510065506
 30
0.0
 10
-10.21332567413073
 20
122.5529480749288
 30
0.0
  0
SPLINE
  5
26D
330
1F
100
AcDbEntity
  8
0
  6
Continuous
 62
     4
370
    15
100
AcDbSpline
210
0.0
220
0.0
230
1.0
 70
     8
 71
     3
 72
     8
 73
     4
 74
     0
 42
0.000000001
 43
0.00000001
 40
0.0
 40
0.0
 40
0.0
 40
0.0
 40
1.0
 40
1.0
 40
1.0
 40
1.0
 10
-13.8240421653347
 20
121.2966607572493
 30
0.0
 10
-13.82404457724445
 20
121.4726362795286
 30
0.0
 10
-13.82404697997393
 20
121.6445264506364
 30
0.0
 10
-13.82404937380113
 20
121.8124549938696
 30
0.0
  0
LINE
  5
26E
330
1F
100
AcDbEntity
  8
0
  6
Continuous
 62
     1
370
    15
100
AcDbLine
 10
12.1759096283576
 20
127.5468713310245
 30
0.0
 11
12.1759096283576
 21
122.9574913660577
 31
0.0
  0
SPLINE
  5
26F
330
1F
100
AcDbEntity
  8
0
  6
Continuous
 62
     1
370
    15
100
AcDbSpline
210
0.0
220
0.0
230
1.0
 70
     8
 71
     3
 72
    12
 73
     8
 74
     0
 42
0.000000001
 43
0.00000001
 40
0.0
 40
0.0
 40
0.0
 40
0.0
 40
0.2499999999999996
 40
0.2499999999999996
 40
0.4999999999999991
 40
0.4999999999999991
 40
1.0
 40
1.0
 40
1.0
 40
1.0
 10
12.1759096283576
 20
134.709069099586
 30
0.0
 10
12.1759096283576
 20
134.7802364791544
 30
0.0
 10
12.16023589405012
 20
134.8515209490101
 30
0.0
 10
12.10193465638444
 20
134.9760621789369
 30
0.0
 10
12.05985581589555
 20
135.0289596118908
 30
0.0
 10
11.91462628021461
 20
135.1491989050914
 30
0.0
 10
11.79335919263136
 20
135.1801358505083
 30
0.0
 10
11.67590962835766
 20
135.1676575633958
 30
0.0
  0
LINE
  5
270
330
1F
100
AcDbEntity
  8
0
  6
Continuous
 62
     1
370
    15
100
AcDbLine
 10
12.1759096283576
 20
129.9172690320101
 30
0.0
 11
12.1759096283576
 21
134.709069099586
 31
0.0
  0
LINE
  5
271
330
1F
100
AcDbEntity
  8
0
  6
Continuous
 62
     1
370
    15
100
AcDbLine
 10
12.1759096283576
 20
121.7468713310246
 30
0.0
 11
12.1759096283576
 21
121.8991877307103
 31
0.0
  0
LINE
  5
272
330
1F
100
AcDbEntity
  8
0
  6
Continuous
 62
     1
370
    15
100
AcDbLine
 10
12.1759096283576
 20
134.709069099586
 30
0.0
 11
12.1759096283576
 21
134.7468713310246
 31
0.0
  0
LINE
  5
273
330
1F
100
AcDbEntity
  8
0
  6
Continuous
 62
     1
370
    15
100
AcDbLine
 10
-13.82404937379377
 20
121.8124548712149
 30
0.0
 11
-13.82403985699349
 21
121.6538438684271
 31
0.0
  0
LINE
  5
274
330
1F
100
AcDbEntity
  8
0
  6
Continuous
 62
     1
370
    15
100
AcDbLine
 10
11.67590962835759
 20
135.1676575633909
 30
0.0
 11
11.67590962835759
 21
135.2468713310246
 31
0.0
  0
LINE
  5
275
330
1F
100
AcDbEntity
  8
0
  6
Continuous
 62
     1
370
    15
100
AcDbLine
 10
11.67590962835759
 20
121.2468713310246
 30
0.0
 11
11.67590962835759
 21
121.2570426468498
 31
0.0
  0
LINE
  5
276
330
1F
100
AcDbEntity
  8
중심선
 48
0.8
100
AcDbLine
 10
-77.82409037164241
 20
128.2468713310246
 30
0.0
 11
19.1759096283576
 21
128.2468713310246
 31
0.0
  0
POINT
  5
277
330
1F
100
AcDbEntity
  8
치수문자_일반주서
100
AcDbPoint
 10
-25.82404764103352
 20
128.2468713310246
 30
0.0
  0
DIMENSION
  5
278
330
1F
100
AcDbEntity
  8
치수문자_일반주서
100
AcDbDimension
  2
*D12
 10
12.1759096283576
 20
169.9093554991033
 30
0.0
 11
-29.32409037164241
 21
169.9093554991033
 31
0.0
 70
   160
  1
<>
 71
     2
 42
83.00000000000001
  3
SLDDIMSTYLE0
100
AcDbAlignedDimension
 13
-70.82409037164241
 23
134.7468713310246
 33
0.0
 14
12.1759096283576
 24
135.3093713310246
 34
0.0
100
AcDbRotatedDimension
  0
DIMENSION
  5
279
330
1F
100
AcDbEntity
  8
치수문자_일반주서
100
AcDbDimension
  2
*D13
 10
12.1759096283576
 20
160.9263509202865
 30
0.0
 11
-0.777494644710373
 21
160.9263509202865
 31
0.0
 70
   160
  1
<>
 71
     2
 42
25.99995813577124
  3
SLDDIMSTYLE0
100
AcDbAlignedDimension
 13
-13.82404850741364
 23
127.5833238472397
 33
0.0
 14
12.1759096283576
 24
135.2468713310246
 34
0.0
100
AcDbRotatedDimension
  0
DIMENSION
  5
27A
330
1F
100
AcDbEntity
  8
치수문자_일반주서
100
AcDbDimension
  2
*D14
 10
-85.82409037164243
 20
121.2468713310245
 30
0.0
 11
-85.82409037164246
 21
128.2468713310246
 31
0.0
 70
   160
  1
%%c<>
 71
     2
 42
14.0
 52
-270.0
  3
SLDDIMSTYLE2
100
AcDbAlignedDimension
 13
-70.3240903716424
 23
135.2468713310246
 33
0.0
 14
-70.3240903716424
 24
121.2468713310246
 34
0.0
 50
90.0000000000002
100
AcDbRotatedDimension
1001
ACAD_DSTYLE_DIMFLIPARROW_SYMBOL
1070
   385
1070
     0
1001
ACAD_DSTYLE_DIMFLIPARROW_WHICH_SYMBOL
1070
   386
1070
     3
  0
DIMENSION
  5
27B
330
1F
100
AcDbEntity
  8
치수문자_일반주서
100
AcDbDimension
  2
*D15
 10
27.17590962835765
 20
121.2468713310246
 30
0.0
 11
27.17590962835763
 21
128.3125757127376
 31
0.0
 70
   160
  1
%%c<>
 71
     2
 42
14.0
 52
-270.0
  3
SLDDIMSTYLE2
100
AcDbAlignedDimension
 13
12.17590962835762
 23
135.2468713310246
 33
0.0
 14
12.1759096283576
 24
121.2468713310246
 34
0.0
 50
90.0000000000002
100
AcDbRotatedDimension
1001
ACAD_DSTYLE_DIMFLIPARROW_SYMBOL
1070
   385
1070
     0
1001
ACAD_DSTYLE_DIMFLIPARROW_WHICH_SYMBOL
1070
   386
1070
     3
  0
INSERT
  5
27C
330
1F
100
AcDbEntity
  8
외형선
100
AcDbBlockReference
  2
SW_DOWELSYMBOL_0
 10
-25.82404764103352
 20
128.2468713310246
 30
0.0
  0
LINE
  5
27D
330
1F
100
AcDbEntity
  8
0
  6
Continuous
 62
     4
370
    15
390
F
100
AcDbLine
 10
-43.02410237164244
 20
135.2468718310246
 30
0.0
 11
-44.32409037164241
 21
133.9468838310246
 31
0.0
1001
PE_URL
1000

  0
LINE
  5
27E
330
1F
100
AcDbEntity
  8
0
  6
Continuous
 62
     4
370
    15
390
F
100
AcDbLine
 10
-44.32409037164241
 20
133.9468838310246
 30
0.0
 11
-52.32409037164241
 21
133.9468838310246
 31
0.0
1001
PE_URL
1000

  0
LINE
  5
27F
330
1F
100
AcDbEntity
  8
0
  6
Continuous
 62
     4
370
    15
390
F
100
AcDbLine
 10
-52.32409037164241
 20
133.9468838310246
 30
0.0
 11
-53.6240783716424
 21
135.2468718310246
 31
0.0
1001
PE_URL
1000

  0
LINE
  5
280
330
1F
100
AcDbEntity
  8
0
  6
Continuous
 62
     4
370
    15
100
AcDbLine
 10
-53.62407787164238
 20
135.2468713310246
 30
0.0
 11
-70.3240903716424
 21
135.2468713310246
 31
0.0
1001
PE_URL
1000

  0
DIMENSION
  5
281
330
1F
100
AcDbEntity
  8
치수문자_일반주서
100
AcDbDimension
  2
*D16
 10
11.67590962835759
 20
121.7468713310246
 30
0.0
 11
23.23516230022005
 21
102.9391121108485
 31
0.0
 70
   164
 71
     5
 42
0.5000000000000143
  3
SLDDIMSTYLE1
100
AcDbRadialDimension
 15
11.93771593841407
 25
121.3208930968216
 35
0.0
 40
0.0
1001
ACAD_DSTYLE_DIMRADIAL_EXTENSION
1070
   387
1070
     1
1070
   388
1040
4.712388980384704
1070
   390
1040
0.0
  0
LINE
  5
2C4
330
1F
100
AcDbEntity
  8
외형선
  6
Continuous
370
    15
100
AcDbLine
 10
-22.52136309876297
 20
0.5784327873323675
 30
0.0
 11
-22.55246761435269
 21
0.5952573935498281
 31
0.0
  0
LINE
  5
2C5
330
1F
100
AcDbEntity
  8
0
  6
Continuous
 62
     1
370
    15
100
AcDbLine
 10
-21.50666906391292
 20
-1.984375000000001
 30
0.0
 11
-20.29530087414767
 21
-1.984375000000001
 31
0.0
  0
LINE
  5
2C6
330
1F
100
AcDbEntity
  8
0
  6
Continuous
 62
     1
370
    15
100
AcDbLine
 10
-20.29530087414764
 20
1.984375000000001
 30
0.0
 11
-21.50666906391292
 21
1.984375000000001
 31
0.0
  0
LINE
  5
2C7
330
1F
100
AcDbEntity
  8
외형선
  6
Continuous
370
    15
100
AcDbLine
 10
-14.98134233574609
 20
2.381250000000004
 30
0.0
 11
-16.4625
 21
1.984375
 31
0.0
  0
LINE
  5
2C8
330
1F
100
AcDbEntity
  8
외형선
  6
Continuous
370
    15
100
AcDbLine
 10
-16.4625
 20
-1.984375000000001
 30
0.0
 11
-14.98134233574609
 21
-2.381250000000006
 31
0.0
  0
LINE
  5
2C9
330
1F
100
AcDbEntity
  8
외형선
  6
Continuous
370
    15
100
AcDbLine
 10
-16.4625
 20
1.984374999999999
 30
0.0
 11
-16.96232872793025
 21
1.984374999999999
 31
0.0
  0
LINE
  5
2CA
330
1F
100
AcDbEntity
  8
외형선
  6
Continuous
370
    15
100
AcDbLine
 10
-16.96232872793025
 20
-1.984375000000001
 30
0.0
 11
-16.4625
 21
-1.984375000000001
 31
0.0
  0
LINE
  5
2CB
330
1F
100
AcDbEntity
  8
0
  6
Continuous
 62
     1
370
    15
100
AcDbLine
 10
-25.4
 20
1.797211427429371
 30
0.0
 11
-25.4
 21
-0.1700239274293944
 31
0.0
  0
SPLINE
  5
2CC
330
1F
100
AcDbEntity
  8
0
  6
Continuous
 62
     1
370
    15
100
AcDbSpline
210
0.0
220
0.0
230
1.0
 70
     8
 71
     3
 72
    34
 73
    30
 74
     0
 42
0.000000001
 43
0.00000001
 40
0.0
 40
0.0
 40
0.0
 40
0.0
 40
0.1250000000000025
 40
0.1250000000000025
 40
0.1875000000000027
 40
0.1875000000000027
 40
0.2500000000000029
 40
0.2500000000000029
 40
0.3125000000000032
 40
0.3125000000000032
 40
0.3750000000000035
 40
0.3750000000000035
 40
0.4375000000000038
 40
0.4375000000000038
 40
0.5000000000000041
 40
0.5000000000000041
 40
0.5625000000000043
 40
0.5625000000000043
 40
0.6250000000000046
 40
0.6250000000000046
 40
0.6875000000000048
 40
0.6875000000000048
 40
0.750000000000005
 40
0.750000000000005
 40
0.8750000000000036
 40
0.8750000000000036
 40
0.9375000000000018
 40
0.9375000000000018
 40
1.0
 40
1.0
 40
1.0
 40
1.0
 10
-25.40000000000002
 20
1.797211427429372
 30
0.0
 10
-25.07330548933986
 20
1.716581219708303
 30
0.0
 10
-24.73537292780032
 20
1.609772587848723
 30
0.0
 10
-24.24261659921634
 20
1.419906373365799
 30
0.0
 10
-24.07853909736351
 20
1.351517926157626
 30
0.0
 10
-23.74608862476418
 20
1.20520930005371
 30
0.0
 10
-23.57917665609098
 20
1.127478234459812
 30
0.0
 10
-23.24917345348211
 20
0.965343824825443
 30
0.0
 10
-23.08628143950724
 20
0.8810101076104961
 30
0.0
 10
-22.75447890384876
 20
0.705787297771585
 30
0.0
 10
-22.58742953051194
 20
0.6152000598574187
 30
0.0
 10
-22.25624287773124
 20
0.4309069513945273
 30
0.0
 10
-22.09364920321761
 20
0.3375092142319739
 30
0.0
 10
-21.7628159453005
 20
0.1479619258903233
 30
0.0
 10
-21.5957935588874
 20
0.052035793600037
 30
0.0
 10
-21.2637428046015
 20
-0.1391334323680575
 30
0.0
 10
-21.10055936268069
 20
-0.2340199668382555
 30
0.0
 10
-20.77101359012397
 20
-0.4221290556380998
 30
0.0
 10
-20.60418249329399
 20
-0.5154310848913755
 30
0.0
 10
-20.27158978247024
 20
-0.6975948663052421
 30
0.0
 10
-20.10693036060988
 20
-0.7862596711362834
 30
0.0
 10
-19.77898613657832
 20
-0.9573237442150664
 30
0.0
 10
-19.61251000215821
 20
-1.040263342623161
 30
0.0
 10
-19.11329385610524
 20
-1.277286732832694
 30
0.0
 10
-18.78704205521083
 20
-1.418672220732604
 30
0.0
 10
-18.2879857470113
 20
-1.599781801068344
 30
0.0
 10
-18.12125819016773
 20
-1.65480015302277
 30
0.0
 10
-17.7922274584038
 20
-1.752546179560609
 30
0.0
 10
-17.6286366906976
 20
-1.79544998652563
 30
0.0
 10
-17.46249999999955
 20
-1.832178537121433
 30
0.0
  0
SPLINE
  5
2CD
330
1F
100
AcDbEntity
  8
0
  6
Continuous
 62
     1
370
    15
100
AcDbSpline
210
0.0
220
0.0
230
1.0
 70
     8
 71
     3
 72
    16
 73
    12
 74
     0
 42
0.000000001
 43
0.00000001
 40
0.0
 40
0.0
 40
0.0
 40
0.0
 40
0.1236192067775595
 40
0.2470517092121345
 40
0.3703989039211906
 40
0.4937634208709578
 40
0.6172476391531205
 40
0.7387320420826555
 40
0.8600552763802649
 40
0.9812190897769426
 40
1.0
 40
1.0
 40
1.0
 40
1.0
 10
-25.4
 20
-0.1700239274293945
 30
0.0
 10
-25.10319365216574
 20
-0.3394423088345733
 30
0.0
 10
-24.51002922853851
 20
-0.6780231959730648
 30
0.0
 10
-23.62108934635509
 20
-1.13813561133291
 30
0.0
 10
-22.73285821274433
 20
-1.523097730063138
 30
0.0
 10
-21.84447367210594
 20
-1.806728377645805
 30
0.0
 10
-20.96042968533748
 20
-1.968550140627637
 30
0.0
 10
-20.08081035753061
 20
-2.003521024246912
 30
0.0
 10
-19.20716609505348
 20
-1.900299217505861
 30
0.0
 10
-18.58021607735321
 20
-1.7636554494612
 30
0.0
 10
-18.24439988215466
 20
-1.636936359288074
 30
0.0
 10
-18.1993325609271
 20
-1.619930360101168
 30
0.0
  0
SPLINE
  5
2CE
330
1F
100
AcDbEntity
  8
0
  6
Continuous
 62
     1
370
    15
100
AcDbSpline
210
0.0
220
0.0
230
1.0
 70
     8
 71
     3
 72
    14
 73
    10
 74
     0
 42
0.000000001
 43
0.00000001
 40
0.0
 40
0.0
 40
0.0
 40
0.0
 40
0.1447813095899483
 40
0.2895820713540651
 40
0.4345224630837903
 40
0.5796841670915032
 40
0.7246991875689016
 40
0.8669372239114085
 40
1.0
 40
1.0
 40
1.0
 40
1.0
 10
-17.46249999999955
 20
0.7621456217394399
 30
0.0
 10
-17.75850275156166
 20
0.915127627161735
 30
0.0
 10
-18.35054802430178
 20
1.221112191989588
 30
0.0
 10
-19.23892065348417
 20
1.585479366822099
 30
0.0
 10
-20.12821728103472
 20
1.847862441800272
 30
0.0
 10
-21.01839700713286
 20
1.986791673701673
 30
0.0
 10
-21.90274717221507
 20
1.991444010309331
 30
0.0
 10
-22.76205793646784
 20
1.877510802888883
 30
0.0
 10
-23.32487157004085
 20
1.707204850980069
 30
0.0
 10
-23.59689962488894
 20
1.62488986416517
 30
0.0
  0
SPLINE
  5
2CF
330
1F
100
AcDbEntity
  8
외형선
  6
Continuous
370
    15
100
AcDbSpline
210
0.0
220
0.0
230
1.0
 70
    24
 71
     3
 72
    22
 73
    18
 74
     0
 42
0.000000001
 43
0.00000001
 40
0.0
 40
0.0
 40
0.0
 40
0.0
 40
0.125
 40
0.125
 40
0.25
 40
0.25
 40
0.375
 40
0.375
 40
0.5
 40
0.5
 40
0.625
 40
0.625
 40
0.75
 40
0.75
 40
0.875
 40
0.875
 40
1.0
 40
1.0
 40
1.0
 40
1.0
 10
-17.46249999999999
 20
-1.457034529290065
 30
0.0
 10
-17.46249999999999
 20
-1.409420513306829
 30
0.0
 10
-17.4625
 20
-1.356686052191891
 30
0.0
 10
-17.4625
 20
-1.250545187183254
 30
0.0
 10
-17.4625
 20
-1.186385892163141
 30
0.0
 10
-17.4625
 20
-1.029380741957956
 30
0.0
 10
-17.4625
 20
-0.936318432814639
 30
0.0
 10
-17.4625
 20
-0.7189813542688935
 30
0.0
 10
-17.4625
 20
-0.5944141399449849
 30
0.0
 10
-17.46249999999999
 20
-0.3238130227023135
 30
0.0
 10
-17.4625
 20
-0.1778085946279928
 30
0.0
 10
-17.4625
 20
0.1078037762891916
 30
0.0
 10
-17.46249999999999
 20
0.246687212286528
 30
0.0
 10
-17.4625
 20
0.4827061903790053
 30
0.0
 10
-17.46249999999997
 20
0.5791475099499716
 30
0.0
 10
-17.46249999999997
 20
0.7126442392580254
 30
0.0
 10
-17.46249999999999
 20
0.7499199522929697
 30
0.0
 10
-17.46249999999999
 20
0.7621456217396814
 30
0.0
  0
SPLINE
  5
2D0
330
1F
100
AcDbEntity
  8
0
  6
Continuous
 62
     1
370
    15
100
AcDbSpline
210
0.0
220
0.0
230
1.0
 70
     8
 71
     3
 72
    34
 73
    30
 74
     0
 42
0.000000001
 43
0.00000001
 40
0.0
 40
0.0
 40
0.0
 40
0.0
 40
0.125
 40
0.125
 40
0.1875
 40
0.1875
 40
0.25
 40
0.25
 40
0.3125
 40
0.3125
 40
0.375
 40
0.375
 40
0.4375
 40
0.4375
 40
0.5
 40
0.5
 40
0.5625
 40
0.5625
 40
0.625
 40
0.625
 40
0.6875
 40
0.6875
 40
0.75
 40
0.75
 40
0.875
 40
0.875
 40
0.9375
 40
0.9375
 40
1.0
 40
1.0
 40
1.0
 40
1.0
 10
-25.4
 20
1.984374999999988
 30
0.0
 10
-25.07330548933983
 20
1.960782425723248
 30
0.0
 10
-24.7353729278003
 20
1.916496471371953
 30
0.0
 10
-24.24261659921634
 20
1.811928843661733
 30
0.0
 10
-24.07853909736354
 20
1.770708578483593
 30
0.0
 10
-23.74608862476419
 20
1.675862926534627
 30
0.0
 10
-23.57917665609096
 20
1.62233956731035
 30
0.0
 10
-23.24917345348205
 20
1.504843431336179
 30
0.0
 10
-23.08628143950721
 20
1.440950075619268
 30
0.0
 10
-22.75447890384876
 20
1.302826771895419
 30
0.0
 10
-22.58742953051191
 20
1.228807865499632
 30
0.0
 10
-22.25624287773124
 20
1.073179736863304
 30
0.0
 10
-22.09364920321761
 20
0.9918585958735795
 30
0.0
 10
-21.76281594530047
 20
0.8219901224320465
 30
0.0
 10
-21.5957935588874
 20
0.733615930923526
 30
0.0
 10
-21.2637428046015
 20
0.552723020045552
 30
0.0
 10
-21.10055936268068
 20
0.4605641660653929
 30
0.0
 10
-20.77101359012394
 20
0.2731177853429149
 30
0.0
 10
-20.60418249329399
 20
0.1777283488373111
 30
0.0
 10
-20.27158978247024
 20
-0.013426851515447
 30
0.0
 10
-20.10693036060988
 20
-0.1089740401931145
 30
0.0
 10
-19.77898613657832
 20
-0.2983934881812809
 30
0.0
 10
-19.61251000215821
 20
-0.3928765695147683
 30
0.0
 10
-19.11329385610521
 20
-0.6711891117309478
 30
0.0
 10
-18.78704205521079
 20
-0.8487415003146657
 30
0.0
 10
-18.28798574701126
 20
-1.095515666135472
 30
0.0
 10
-18.12125819016772
 20
-1.174281974017195
 30
0.0
 10
-17.79222745840375
 20
-1.322466657949117
 30
0.0
 10
-17.6286366906976
 20
-1.392114372367957
 30
0.0
 10
-17.46249999999953
 20
-1.457034529290242
 30
0.0
  0
LINE
  5
2D1
330
1F
100
AcDbEntity
  8
0
  6
Continuous
 62
     1
370
    15
100
AcDbLine
 10
-25.4
 20
1.984374999999988
 30
0.0
 11
-25.4
 21
1.797211427429371
 31
0.0
  0
LINE
  5
2D2
330
1F
100
AcDbEntity
  8
외형선
  6
Continuous
370
    15
100
AcDbLine
 10
-17.46249999999999
 20
-1.457034529290067
 30
0.0
 11
-17.4625
 21
-1.832178537121334
 31
0.0
  0
SPLINE
  5
2D3
330
1F
100
AcDbEntity
  8
0
  6
Continuous
 62
     1
370
    15
100
AcDbSpline
210
0.0
220
0.0
230
1.0
 70
     8
 71
     3
 72
    12
 73
     8
 74
     0
 42
0.000000001
 43
0.00000001
 40
0.0
 40
0.0
 40
0.0
 40
0.0
 40
0.1031592087285985
 40
0.3272685473043258
 40
0.5512846353202082
 40
0.7754488347087856
 40
1.0
 40
1.0
 40
1.0
 40
1.0
 10
-21.50666906391292
 20
-1.967948631166972
 30
0.0
 10
-21.64057726586507
 20
-1.971622527964632
 30
0.0
 10
-22.06539578924392
 20
-1.983277821590232
 30
0.0
 10
-22.78068806122992
 20
-1.865105077360115
 30
0.0
 10
-23.65299126380347
 20
-1.6274022864167
 30
0.0
 10
-24.52593074837675
 20
-1.281688964087516
 30
0.0
 10
-25.10847612311032
 20
-0.9881765489581665
 30
0.0
 10
-25.40000000000003
 20
-0.8412937808769642
 30
0.0
  0
LINE
  5
2D4
330
1F
100
AcDbEntity
  8
0
  6
Continuous
 62
     1
370
    15
100
AcDbLine
 10
-25.4
 20
-0.1700239274293943
 30
0.0
 11
-25.4
 21
-0.841293780876964
 31
0.0
  0
SPLINE
  5
2D5
330
1F
100
AcDbEntity
  8
0
  6
Continuous
 62
     1
370
    15
100
AcDbSpline
210
0.0
220
0.0
230
1.0
 70
     8
 71
     3
 72
    11
 73
     7
 74
     0
 42
0.000000001
 43
0.00000001
 40
0.0
 40
0.0
 40
0.0
 40
0.0
 40
0.0757977065025916
 40
0.3841602429405185
 40
0.6921175854874557
 40
0.9999999999999999
 40
0.9999999999999999
 40
0.9999999999999999
 40
0.9999999999999999
 10
-20.29530087414764
 20
1.972524511465148
 30
0.0
 10
-20.22369588477904
 20
1.976104967100046
 30
0.0
 10
-19.86078529841916
 20
1.994251541317211
 30
0.0
 10
-19.20716877506464
 20
1.898735801028365
 30
0.0
 10
-18.33460406378952
 20
1.693568371149291
 30
0.0
 10
-17.75317777425812
 20
1.462608820910728
 30
0.0
 10
-17.46249999999953
 20
1.347143095992758
 30
0.0
  0
LINE
  5
2D6
330
1F
100
AcDbEntity
  8
외형선
  6
Continuous
370
    15
100
AcDbLine
 10
-17.4625
 20
1.34714309599295
 30
0.0
 11
-17.46249999999999
 21
0.7621456217396755
 31
0.0
  0
SPLINE
  5
2D7
330
1F
100
AcDbEntity
  8
0
  6
Continuous
 62
     1
370
    15
100
AcDbSpline
210
0.0
220
0.0
230
1.0
 70
     8
 71
     3
 72
    10
 73
     6
 74
     0
 42
0.000000001
 43
0.00000001
 40
0.0
 40
0.0
 40
0.0
 40
0.0
 40
0.4937153829275879
 40
0.9866850985062768
 40
1.0
 40
1.0
 40
1.0
 40
1.0
 10
-25.4
 20
-1.984375000000014
 30
0.0
 10
-25.10319489005327
 20
-1.947414850154755
 30
0.0
 10
-24.51003294033152
 20
-1.888134065592699
 30
0.0
 10
-23.90910687227794
 20
-1.745606528687635
 30
0.0
 10
-23.60490003404268
 20
-1.627983266755693
 30
0.0
 10
-23.59689962488894
 20
-1.624889864165169
 30
0.0
  0
LINE
  5
2D8
330
1F
100
AcDbEntity
  8
0
  6
Continuous
 62
     1
370
    15
100
AcDbLine
 10
-25.4
 20
-0.8310434959644329
 30
0.0
 11
-25.39999999999999
 21
-1.984375000000014
 31
0.0
  0
LINE
  5
2D9
330
1F
100
AcDbEntity
  8
0
  6
Continuous
 62
     1
370
    15
100
AcDbLine
 10
-17.46249999999955
 20
1.832178537121428
 30
0.0
 11
-18.19933256092709
 21
1.619930360101167
 31
0.0
  0
SPLINE
  5
2DA
330
1F
100
AcDbEntity
  8
외형선
  6
Continuous
370
    15
100
AcDbSpline
210
0.0
220
0.0
230
1.0
 70
    24
 71
     3
 72
    11
 73
     7
 74
     0
 42
0.000000001
 43
0.00000001
 40
0.0
 40
0.0
 40
0.0
 40
0.0
 40
0.045349067833527
 40
0.4634789459710764
 40
0.8937346189007477
 40
1.0
 40
1.0
 40
1.0
 40
1.0
 10
-17.4625
 20
1.382127494094705
 30
0.0
 10
-17.46250000000002
 20
1.388178654588496
 30
0.0
 10
-17.4625
 20
1.450023045698351
 30
0.0
 10
-17.46250000000002
 20
1.584841944866846
 30
0.0
 10
-17.4625
 20
1.731326027692226
 30
0.0
 10
-17.4625
 20
1.815505611615112
 30
0.0
 10
-17.46249999999999
 20
1.83217853712133
 30
0.0
  0
LINE
  5
2DB
330
1F
100
AcDbEntity
  8
외형선
  6
Continuous
370
    15
100
AcDbLine
 10
-16.4625
 20
-0.0000000000000007
 30
0.0
 11
-16.4625
 21
-1.984375000000001
 31
0.0
  0
LINE
  5
2DC
330
1F
100
AcDbEntity
  8
외형선
  6
Continuous
370
    15
100
AcDbLine
 10
-16.4625
 20
1.984375
 30
0.0
 11
-16.4625
 21
-0.0000000000000007
 31
0.0
  0
LINE
  5
2DD
330
1F
100
AcDbEntity
  8
외형선
  6
Continuous
370
    15
100
AcDbLine
 10
-16.96232872793025
 20
-1.923120963309123
 30
0.0
 11
-16.96232872793025
 21
-1.984375000000001
 31
0.0
  0
SPLINE
  5
2DE
330
1F
100
AcDbEntity
  8
외형선
  6
Continuous
370
    15
100
AcDbSpline
210
0.0
220
0.0
230
1.0
 70
     8
 71
     3
 72
     8
 73
     4
 74
     0
 42
0.000000001
 43
0.00000001
 40
0.0
 40
0.0
 40
0.0
 40
0.0
 40
1.0
 40
1.0
 40
1.0
 40
1.0
 10
-17.46249999999956
 20
-1.832178537121429
 30
0.0
 10
-17.29574448203769
 20
-1.869043894513934
 30
0.0
 10
-17.12814426921647
 20
-1.899506700825386
 30
0.0
 10
-16.96232872793024
 20
-1.923125772210445
 30
0.0
  0
SPLINE
  5
2DF
330
1F
100
AcDbEntity
  8
외형선
  6
Continuous
370
    15
100
AcDbSpline
210
0.0
220
0.0
230
1.0
 70
     8
 71
     3
 72
     8
 73
     4
 74
     0
 42
0.000000001
 43
0.00000001
 40
0.0
 40
0.0
 40
0.0
 40
0.0
 40
1.0
 40
1.0
 40
1.0
 40
1.0
 10
-17.46249999999956
 20
-1.457034529290235
 30
0.0
 10
-17.29574448203769
 20
-1.522196501328169
 30
0.0
 10
-17.12814426921647
 20
-1.582326468579327
 30
0.0
 10
-16.96232872793024
 20
-1.636510979109008
 30
0.0
  0
LINE
  5
2E0
330
1F
100
AcDbEntity
  8
외형선
  6
Continuous
370
    15
100
AcDbLine
 10
-16.96232872793025
 20
0.4892339942256794
 30
0.0
 11
-16.96232872793025
 21
-1.636521764101595
 31
0.0
  0
SPLINE
  5
2E1
330
1F
100
AcDbEntity
  8
외형선
  6
Continuous
370
    15
100
AcDbSpline
210
0.0
220
0.0
230
1.0
 70
     8
 71
     3
 72
     8
 73
     4
 74
     0
 42
0.000000001
 43
0.00000001
 40
0.0
 40
0.0
 40
0.0
 40
0.0
 40
1.0
 40
1.0
 40
1.0
 40
1.0
 10
-17.46249999999956
 20
0.7621456217394499
 30
0.0
 10
-17.29574448203769
 20
0.6735222476082664
 30
0.0
 10
-17.12814426921647
 20
0.582062686217597
 30
0.0
 10
-16.96232872793024
 20
0.4892150906145504
 30
0.0
  0
SPLINE
  5
2E2
330
1F
100
AcDbEntity
  8
외형선
  6
Continuous
370
    15
100
AcDbSpline
210
0.0
220
0.0
230
1.0
 70
     8
 71
     3
 72
     8
 73
     4
 74
     0
 42
0.000000001
 43
0.00000001
 40
0.0
 40
0.0
 40
0.0
 40
0.0
 40
1.0
 40
1.0
 40
1.0
 40
1.0
 10
-17.46249999999956
 20
1.347143095992764
 30
0.0
 10
-17.29574448203769
 20
1.276665621448053
 30
0.0
 10
-17.12814426921647
 20
1.201318285884562
 30
0.0
 10
-16.96232872793024
 20
1.122308315874326
 30
0.0
  0
LINE
  5
2E3
330
1F
100
AcDbEntity
  8
외형선
  6
Continuous
370
    15
100
AcDbLine
 10
-16.96232872793025
 20
1.984374999999999
 30
0.0
 11
-16.96232872793025
 21
1.122292589410975
 31
0.0
  0
SPLINE
  5
2E4
330
1F
100
AcDbEntity
  8
외형선
  6
Continuous
370
    15
100
AcDbSpline
210
0.0
220
0.0
230
1.0
 70
     8
 71
     3
 72
     8
 73
     4
 74
     0
 42
0.000000001
 43
0.00000001
 40
0.0
 40
0.0
 40
0.0
 40
0.0
 40
1.0
 40
1.0
 40
1.0
 40
1.0
 10
-17.46249999999956
 20
1.832178537121423
 30
0.0
 10
-17.29574448203769
 20
1.869043894513927
 30
0.0
 10
-17.12814426921647
 20
1.899506700825381
 30
0.0
 10
-16.96232872793024
 20
1.923125772210441
 30
0.0
  0
SPLINE
  5
2E5
330
1F
100
AcDbEntity
  8
외형선
  6
Continuous
370
    15
100
AcDbSpline
210
0.0
220
0.0
230
1.0
 70
    24
 71
     3
 72
    22
 73
    18
 74
     0
 42
0.000000001
 43
0.00000001
 40
0.0
 40
0.0
 40
0.0
 40
0.0
 40
0.125
 40
0.125
 40
0.2499999999999999
 40
0.2499999999999999
 40
0.3749999999999999
 40
0.3749999999999999
 40
0.5
 40
0.5
 40
0.6250000000000001
 40
0.6250000000000001
 40
0.75
 40
0.75
 40
0.875
 40
0.875
 40
1.0
 40
1.0
 40
1.0
 40
1.0
 10
-17.4625
 20
0.7621456217396778
 30
0.0
 10
-17.46250000000002
 20
0.7499199522929548
 30
0.0
 10
-17.46249999999999
 20
0.7126442392579707
 30
0.0
 10
-17.46249999999999
 20
0.579147509949774
 30
0.0
 10
-17.46250000000002
 20
0.4827061903787041
 30
0.0
 10
-17.46249999999999
 20
0.2466872122860055
 30
0.0
 10
-17.4625
 20
0.1078037762885538
 30
0.0
 10
-17.4625
 20
-0.1778085946288085
 30
0.0
 10
-17.4625
 20
-0.3238130227031909
 30
0.0
 10
-17.46249999999999
 20
-0.5944141399459172
 30
0.0
 10
-17.46249999999997
 20
-0.7189813542698199
 30
0.0
 10
-17.46249999999999
 20
-0.9363184328155131
 30
0.0
 10
-17.46249999999999
 20
-1.029380741958784
 30
0.0
 10
-17.46249999999999
 20
-1.186385892163865
 30
0.0
 10
-17.46250000000002
 20
-1.250545187183919
 30
0.0
 10
-17.4625
 20
-1.356686052192444
 30
0.0
 10
-17.46250000000003
 20
-1.409420513307474
 30
0.0
 10
-17.4625
 20
-1.457034529290688
 30
0.0
  0
SPLINE
  5
2E6
330
1F
100
AcDbEntity
  8
외형선
  6
Continuous
370
    15
100
AcDbSpline
210
0.0
220
0.0
230
1.0
 70
    24
 71
     3
 72
    11
 73
     7
 74
     0
 42
0.000000001
 43
0.00000001
 40
0.0
 40
0.0
 40
0.0
 40
0.0
 40
0.2770216332540136
 40
0.5574661088774214
 40
0.9758323278568993
 40
1.0
 40
1.0
 40
1.0
 40
1.0
 10
-17.4625
 20
1.832178537121325
 30
0.0
 10
-17.4625
 20
1.788757437530881
 30
0.0
 10
-17.46250000000002
 20
1.70137873303213
 30
0.0
 10
-17.46250000000004
 20
1.553372559255914
 30
0.0
 10
-17.46249999999999
 20
1.444151922740688
 30
0.0
 10
-17.46249999999997
 20
1.385329884733832
 30
0.0
 10
-17.46249999999999
 20
1.382117494094705
 30
0.0
  0
LINE
  5
2EB
330
1F
100
AcDbEntity
  8
외형선
  6
Continuous
370
    15
100
AcDbLine
 10
-14.98134233574609
 20
-0.0000000000000009
 30
0.0
 11
-14.98134233574609
 21
-2.381250000000006
 31
0.0
  0
LINE
  5
2EC
330
1F
100
AcDbEntity
  8
외형선
  6
Continuous
370
    15
100
AcDbLine
 10
-14.98134233574609
 20
2.381250000000004
 30
0.0
 11
-14.98134233574609
 21
-0.0000000000000009
 31
0.0
  0
ENDSEC
  0
SECTION
  2
OBJECTS
  0
DICTIONARY
  5
C
330
0
100
AcDbDictionary
281
     1
  3
ACAD_GROUP
350
D
  3
ACAD_IMAGE_VARS
350
151
  3
ACAD_LAYOUT
350
1A
  3
ACAD_MLINESTYLE
350
17
  3
ACAD_PLOTSETTINGS
350
19
  3
ACAD_PLOTSTYLENAME
350
E
  3
ACAD_SCALELIST
350
47
  3
APPDATA
350
14F
  3
DWGPROPS
350
33F
  0
DICTIONARY
  5
20B
330
2
100
AcDbDictionary
280
     1
281
     1
  3
ACAD_LAYERSTATES
360
20C
  0
DICTIONARY
  5
33D
330
1F
100
AcDbDictionary
280
     1
281
     1
  3
DIM_BOUNDING_BOXES_V1
360
33E
  0
DICTIONARY
  5
D
102
{ACAD_REACTORS
330
C
102
}
330
C
100
AcDbDictionary
281
     1
  0
RASTERVARIABLES
  5
151
102
{ACAD_REACTORS
330
C
102
}
330
C
100
AcDbRasterVariables
 90
        0
 70
     1
 71
     1
 72
     1
  0
DICTIONARY
  5
1A
102
{ACAD_REACTORS
330
C
102
}
330
C
100
AcDbDictionary
281
     1
  3
Layout1
350
1E
  3
Layout2
350
26
  3
Model
350
22
  0
DICTIONARY
  5
17
102
{ACAD_REACTORS
330
C
102
}
330
C
100
AcDbDictionary
281
     1
  3
Standard
350
18
  0
DICTIONARY
  5
19
102
{ACAD_REACTORS
330
C
102
}
330
C
100
AcDbDictionary
281
     1
  0
ACDBDICTIONARYWDFLT
  5
E
102
{ACAD_REACTORS
330
C
102
}
330
C
100
AcDbDictionary
281
     1
  3
Normal
350
F
100
AcDbDictionaryWithDefault
340
F
  0
DICTIONARY
  5
47
102
{ACAD_REACTORS
330
C
102
}
330
C
100
AcDbDictionary
281
     1
  3
A0
350
48
  3
A1
350
49
  3
A2
350
4A
  3
A3
350
4B
  3
A4
350
4C
  3
A5
350
4D
  3
A6
350
4E
  3
A7
350
4F
  3
A8
350
50
  3
A9
350
51
  3
B0
350
52
  3
B1
350
53
  3
B2
350
54
  3
B3
350
55
  3
B4
350
56
  3
B5
350
57
  3
B6
350
58
  3
B7
350
59
  3
B8
350
5A
  3
B9
350
5B
  3
C0
350
5C
  3
C1
350
5D
  3
C2
350
5E
  3
C3
350
5F
  3
C4
350
60
  3
C5
350
61
  3
C6
350
62
  3
C7
350
63
  3
C8
350
64
  3
C9
350
65
  3
D0
350
66
  3
D1
350
67
  3
D2
350
68
  0
DICTIONARY
  5
14F
102
{ACAD_REACTORS
330
C
102
}
330
C
100
AcDbDictionary
281
     1
  0
XRECORD
  5
33F
102
{ACAD_REACTORS
330
C
102
}
330
C
100
AcDbXrecord
280
     1
  1
DWGPROPS COOKIE
  2

  3

  4

  6

  7

  8
12011056
  9

300
=
301
=
302
=
303
=
304
=
305
=
306
=
307
=
308
=
309
=
 40
0.0
 41
2458313.122287581
 42
2459719.271047616
  1

 90
        0
  0
DICTIONARY
  5
20C
102
{ACAD_REACTORS
330
20B
102
}
330
20B
100
AcDbDictionary
281
     1
  0
DICTIONARY
  5
33E
102
{ACAD_REACTORS
330
33D
102
}
330
33D
100
AcDbDictionary
281
     1
  0
LAYOUT
  5
1E
102
{ACAD_REACTORS
330
1A
102
}
330
1A
100
AcDbPlotSettings
  1

  2
none_device
  4

  6

 40
0.0
 41
0.0
 42
0.0
 43
0.0
 44
0.0
 45
0.0
 46
0.0
 47
0.0
 48
0.0
 49
0.0
140
0.0
141
0.0
142
1.0
143
1.0
 70
   688
 72
     1
 73
     0
 74
     5
  7

 75
    16
147
1.0
148
0.0
149
0.0
100
AcDbLayout
  1
Layout1
 70
     1
 71
     1
 10
0.0
 20
0.0
 11
420.0
 21
297.0
 12
0.0
 22
0.0
 32
0.0
 14
1.000000000000000E+20
 24
1.000000000000000E+20
 34
1.000000000000000E+20
 15
-1.000000000000000E+20
 25
-1.000000000000000E+20
 35
-1.000000000000000E+20
146
0.0
 13
0.0
 23
0.0
 33
0.0
 16
1.0
 26
0.0
 36
0.0
 17
0.0
 27
1.0
 37
0.0
 76
     0
330
1B
  0
LAYOUT
  5
26
102
{ACAD_REACTORS
330
1A
102
}
330
1A
100
AcDbPlotSettings
  1

  2
none_device
  4

  6

 40
0.0
 41
0.0
 42
0.0
 43
0.0
 44
0.0
 45
0.0
 46
0.0
 47
0.0
 48
0.0
 49
0.0
140
0.0
141
0.0
142
1.0
143
1.0
 70
   688
 72
     1
 73
     0
 74
     5
  7

 75
    16
147
1.0
148
0.0
149
0.0
100
AcDbLayout
  1
Layout2
 70
     1
 71
     2
 10
0.0
 20
0.0
 11
0.0
 21
0.0
 12
0.0
 22
0.0
 32
0.0
 14
0.0
 24
0.0
 34
0.0
 15
0.0
 25
0.0
 35
0.0
146
0.0
 13
0.0
 23
0.0
 33
0.0
 16
1.0
 26
0.0
 36
0.0
 17
0.0
 27
1.0
 37
0.0
 76
     0
330
23
  0
LAYOUT
  5
22
102
{ACAD_REACTORS
330
1A
102
}
330
1A
100
AcDbPlotSettings
  1

  2
none_device
  4
ANSI_A_(11.00_x_8.50_Inches)
  6

 40
6.35
 41
19.05
 42
6.35000508
 43
19.05000254
 44
279.4
 45
215.9
 46
116.0200047679344
 47
79.68011986469361
 48
0.0
 49
0.0
140
0.0
141
0.0
142
0.0752558462788414
143
1.0
 70
  1696
 72
     0
 73
     0
 74
     0
  7

 75
     0
147
0.0235690232323232
148
0.0
149
0.0
100
AcDbLayout
  1
Model
 70
     1
 71
     0
 10
0.0
 20
0.0
 11
420.0
 21
297.0
 12
0.0
 22
0.0
 32
0.0
 14
-90.19909037164251
 24
-39.99892507127611
 34
0.0
 15
81.41936447236121
 25
174.2843554991033
 35
0.0
146
0.0
 13
0.0
 23
0.0
 33
0.0
 16
1.0
 26
0.0
 36
0.0
 17
0.0
 27
1.0
 37
0.0
 76
     0
330
1F
331
29
  0
MLINESTYLE
  5
18
102
{ACAD_REACTORS
330
17
102
}
330
17
100
AcDbMlineStyle
  2
Standard
 70
     0
  3

 62
   256
 51
90.0
 52
90.0
 71
     2
 49
0.5
 62
   256
  6
BYLAYER
 49
-0.5
 62
   256
  6
BYLAYER
  0
ACDBPLACEHOLDER
  5
F
102
{ACAD_REACTORS
330
E
102
}
330
E
  0
SCALE
  5
48
102
{ACAD_REACTORS
330
47
102
}
330
47
100
AcDbScale
 70
     0
300
1:1
140
1.0
141
1.0
290
     1
  0
SCALE
  5
49
102
{ACAD_REACTORS
330
47
102
}
330
47
100
AcDbScale
 70
     0
300
1:2
140
1.0
141
2.0
290
     0
  0
SCALE
  5
4A
102
{ACAD_REACTORS
330
47
102
}
330
47
100
AcDbScale
 70
     0
300
1:4
140
1.0
141
4.0
290
     0
  0
SCALE
  5
4B
102
{ACAD_REACTORS
330
47
102
}
330
47
100
AcDbScale
 70
     0
300
1:5
140
1.0
141
5.0
290
     0
  0
SCALE
  5
4C
102
{ACAD_REACTORS
330
47
102
}
330
47
100
AcDbScale
 70
     0
300
1:8
140
1.0
141
8.0
290
     0
  0
SCALE
  5
4D
102
{ACAD_REACTORS
330
47
102
}
330
47
100
AcDbScale
 70
     0
300
1:10
140
1.0
141
10.0
290
     0
  0
SCALE
  5
4E
102
{ACAD_REACTORS
330
47
102
}
330
47
100
AcDbScale
 70
     0
300
1:16
140
1.0
141
16.0
290
     0
  0
SCALE
  5
4F
102
{ACAD_REACTORS
330
47
102
}
330
47
100
AcDbScale
 70
     0
300
1:20
140
1.0
141
20.0
290
     0
  0
SCALE
  5
50
102
{ACAD_REACTORS
330
47
102
}
330
47
100
AcDbScale
 70
     0
300
1:30
140
1.0
141
30.0
290
     0
  0
SCALE
  5
51
102
{ACAD_REACTORS
330
47
102
}
330
47
100
AcDbScale
 70
     0
300
1:40
140
1.0
141
40.0
290
     0
  0
SCALE
  5
52
102
{ACAD_REACTORS
330
47
102
}
330
47
100
AcDbScale
 70
     0
300
1:50
140
1.0
141
50.0
290
     0
  0
SCALE
  5
53
102
{ACAD_REACTORS
330
47
102
}
330
47
100
AcDbScale
 70
     0
300
1:100
140
1.0
141
100.0
290
     0
  0
SCALE
  5
54
102
{ACAD_REACTORS
330
47
102
}
330
47
100
AcDbScale
 70
     0
300
2:1
140
2.0
141
1.0
290
     0
  0
SCALE
  5
55
102
{ACAD_REACTORS
330
47
102
}
330
47
100
AcDbScale
 70
     0
300
4:1
140
4.0
141
1.0
290
     0
  0
SCALE
  5
56
102
{ACAD_REACTORS
330
47
102
}
330
47
100
AcDbScale
 70
     0
300
8:1
140
8.0
141
1.0
290
     0
  0
SCALE
  5
57
102
{ACAD_REACTORS
330
47
102
}
330
47
100
AcDbScale
 70
     0
300
10:1
140
10.0
141
1.0
290
     0
  0
SCALE
  5
58
102
{ACAD_REACTORS
330
47
102
}
330
47
100
AcDbScale
 70
     0
300
100:1
140
100.0
141
1.0
290
     0
  0
SCALE
  5
59
102
{ACAD_REACTORS
330
47
102
}
330
47
100
AcDbScale
 70
     0
300
1/128" = 1'-0"
140
0.0078125
141
12.0
290
     0
  0
SCALE
  5
5A
102
{ACAD_REACTORS
330
47
102
}
330
47
100
AcDbScale
 70
     0
300
1/64" = 1'-0"
140
0.015625
141
12.0
290
     0
  0
SCALE
  5
5B
102
{ACAD_REACTORS
330
47
102
}
330
47
100
AcDbScale
 70
     0
300
1/32" = 1'-0"
140
0.03125
141
12.0
290
     0
  0
SCALE
  5
5C
102
{ACAD_REACTORS
330
47
102
}
330
47
100
AcDbScale
 70
     0
300
1/16" = 1'-0"
140
0.0625
141
12.0
290
     0
  0
SCALE
  5
5D
102
{ACAD_REACTORS
330
47
102
}
330
47
100
AcDbScale
 70
     0
300
3/32" = 1'-0"
140
0.09375
141
12.0
290
     0
  0
SCALE
  5
5E
102
{ACAD_REACTORS
330
47
102
}
330
47
100
AcDbScale
 70
     0
300
1/8" = 1'-0"
140
0.125
141
12.0
290
     0
  0
SCALE
  5
5F
102
{ACAD_REACTORS
330
47
102
}
330
47
100
AcDbScale
 70
     0
300
3/16" = 1'-0"
140
0.1875
141
12.0
290
     0
  0
SCALE
  5
60
102
{ACAD_REACTORS
330
47
102
}
330
47
100
AcDbScale
 70
     0
300
1/4" = 1'-0"
140
0.25
141
12.0
290
     0
  0
SCALE
  5
61
102
{ACAD_REACTORS
330
47
102
}
330
47
100
AcDbScale
 70
     0
300
3/8" = 1'-0"
140
0.375
141
12.0
290
     0
  0
SCALE
  5
62
102
{ACAD_REACTORS
330
47
102
}
330
47
100
AcDbScale
 70
     0
300
1/2" = 1'-0"
140
0.5
141
12.0
290
     0
  0
SCALE
  5
63
102
{ACAD_REACTORS
330
47
102
}
330
47
100
AcDbScale
 70
     0
300
3/4" = 1'-0"
140
0.75
141
12.0
290
     0
  0
SCALE
  5
64
102
{ACAD_REACTORS
330
47
102
}
330
47
100
AcDbScale
 70
     0
300
1" = 1'-0"
140
1.0
141
12.0
290
     0
  0
SCALE
  5
65
102
{ACAD_REACTORS
330
47
102
}
330
47
100
AcDbScale
 70
     0
300
1-1/2" = 1'-0"
140
1.5
141
12.0
290
     0
  0
SCALE
  5
66
102
{ACAD_REACTORS
330
47
102
}
330
47
100
AcDbScale
 70
     0
300
3" = 1'-0"
140
3.0
141
12.0
290
     0
  0
SCALE
  5
67
102
{ACAD_REACTORS
330
47
102
}
330
47
100
AcDbScale
 70
     0
300
6" = 1'-0"
140
6.0
141
12.0
290
     0
  0
SCALE
  5
68
102
{ACAD_REACTORS
330
47
102
}
330
47
100
AcDbScale
 70
     0
300
1'-0" = 1'-0"
140
12.0
141
12.0
290
     0
  0
ENDSEC
  0
EOF
