  0
SECTION
  2
HEADER
  9
$ACADVER
  1
AC1015
  9
$ACADMAINTVER
 70
     6
  9
$DWGCODEPAGE
  3
ANSI_949
  9
$INSBASE
 10
0.0
 20
0.0
 30
0.0
  9
$EXTMIN
 10
-37.26111860444514
 20
-39.99892507127611
 30
0.0
  9
$EXTMAX
 10
81.41936447236121
 20
38.53681250000006
 30
0.0
  9
$LIMMIN
 10
0.0
 20
0.0
  9
$LIMMAX
 10
420.0
 20
297.0
  9
$ORTHOMODE
 70
     0
  9
$REGENMODE
 70
     1
  9
$FILLMODE
 70
     1
  9
$QTEXTMODE
 70
     0
  9
$MIRRTEXT
 70
     1
  9
$LTSCALE
 40
1.0
  9
$ATTMODE
 70
     1
  9
$TEXTSIZE
 40
3.5
  9
$TRACEWID
 40
1.0
  9
$TEXTSTYLE
  7
Standard
  9
$CLAYER
  8
0
  9
$CELTYPE
  6
ByLayer
  9
$CECOLOR
 62
   256
  9
$CELTSCALE
 40
1.0
  9
$DISPSILH
 70
     0
  9
$DIMSCALE
 40
1.0
  9
$DIMASZ
 40
3.302
  9
$DIMEXO
 40
1.0
  9
$DIMDLI
 40
3.75
  9
$DIMRND
 40
0.0
  9
$DIMDLE
 40
0.0
  9
$DIMEXE
 40
1.0
  9
$DIMTP
 40
0.0
  9
$DIMTM
 40
0.0
  9
$DIMTXT
 40
3.5
  9
$DIMCEN
 40
2.5
  9
$DIMTSZ
 40
0.0
  9
$DIMTOL
 70
     0
  9
$DIMLIM
 70
     0
  9
$DIMTIH
 70
     1
  9
$DIMTOH
 70
     1
  9
$DIMSE1
 70
     0
  9
$DIMSE2
 70
     0
  9
$DIMTAD
 70
     1
  9
$DIMZIN
 70
     0
  9
$DIMBLK
  1

  9
$DIMASO
 70
     1
  9
$DIMSHO
 70
     1
  9
$DIMPOST
  1

  9
$DIMAPOST
  1

  9
$DIMALT
 70
     0
  9
$DIMALTD
 70
     3
  9
$DIMALTF
 40
0.0393700787401575
  9
$DIMLFAC
 40
1.0
  9
$DIMTOFL
 70
     1
  9
$DIMTVP
 40
0.0
  9
$DIMTIX
 70
     0
  9
$DIMSOXD
 70
     0
  9
$DIMSAH
 70
     0
  9
$DIMBLK1
  1

  9
$DIMBLK2
  1

  9
$DIMSTYLE
  2
ISO-25
  9
$DIMCLRD
 70
     0
  9
$DIMCLRE
 70
     0
  9
$DIMCLRT
 70
     0
  9
$DIMTFAC
 40
1.0
  9
$DIMGAP
 40
1.524
  9
$DIMJUST
 70
     0
  9
$DIMSD1
 70
     0
  9
$DIMSD2
 70
     0
  9
$DIMTOLJ
 70
     0
  9
$DIMTZIN
 70
     0
  9
$DIMALTZ
 70
     0
  9
$DIMALTTZ
 70
     0
  9
$DIMUPT
 70
     0
  9
$DIMDEC
 70
     2
  9
$DIMTDEC
 70
     2
  9
$DIMALTU
 70
     2
  9
$DIMALTTD
 70
     3
  9
$DIMTXSTY
  7
Standard
  9
$DIMAUNIT
 70
     0
  9
$DIMADEC
 70
     2
  9
$DIMALTRND
 40
0.0
  9
$DIMAZIN
 70
     0
  9
$DIMDSEP
 70
    44
  9
$DIMATFIT
 70
     3
  9
$DIMFRAC
 70
     0
  9
$DIMLDRBLK
  1

  9
$DIMLUNIT
 70
     2
  9
$DIMLWD
 70
    -2
  9
$DIMLWE
 70
    -2
  9
$DIMTMOVE
 70
     0
  9
$LUNITS
 70
     2
  9
$LUPREC
 70
     2
  9
$SKETCHINC
 40
1.0
  9
$FILLETRAD
 40
10.0
  9
$AUNITS
 70
     0
  9
$AUPREC
 70
     2
  9
$MENU
  1
.
  9
$ELEVATION
 40
0.0
  9
$PELEVATION
 40
0.0
  9
$THICKNESS
 40
0.0
  9
$LIMCHECK
 70
     0
  9
$CHAMFERA
 40
0.0
  9
$CHAMFERB
 40
0.0
  9
$CHAMFERC
 40
0.0
  9
$CHAMFERD
 40
0.0
  9
$SKPOLY
 70
     0
  9
$TDCREATE
 40
2458313.497499004
  9
$TDUCREATE
 40
2458313.122499004
  9
$TDUPDATE
 40
2459719.646470174
  9
$TDUUPDATE
 40
2459719.271470174
  9
$TDINDWG
 40
0.0017700694
  9
$TDUSRTIMER
 40
0.0001965741
  9
$USRTIMER
 70
     1
  9
$ANGBASE
 50
0.0
  9
$ANGDIR
 70
     0
  9
$PDMODE
 70
     0
  9
$PDSIZE
 40
-1.0
  9
$PLINEWID
 40
0.0
  9
$SPLFRAME
 70
     0
  9
$SPLINETYPE
 70
     6
  9
$SPLINESEGS
 70
     8
  9
$HANDSEED
  5
336
  9
$SURFTAB1
 70
     6
  9
$SURFTAB2
 70
     6
  9
$SURFTYPE
 70
     6
  9
$SURFU
 70
     6
  9
$SURFV
 70
     6
  9
$UCSBASE
  2

  9
$UCSNAME
  2

  9
$UCSORG
 10
0.0
 20
0.0
 30
0.0
  9
$UCSXDIR
 10
1.0
 20
0.0
 30
0.0
  9
$UCSYDIR
 10
0.0
 20
1.0
 30
0.0
  9
$UCSORTHOREF
  2

  9
$UCSORTHOVIEW
 70
     0
  9
$UCSORGTOP
 10
0.0
 20
0.0
 30
0.0
  9
$UCSORGBOTTOM
 10
0.0
 20
0.0
 30
0.0
  9
$UCSORGLEFT
 10
0.0
 20
0.0
 30
0.0
  9
$UCSORGRIGHT
 10
0.0
 20
0.0
 30
0.0
  9
$UCSORGFRONT
 10
0.0
 20
0.0
 30
0.0
  9
$UCSORGBACK
 10
0.0
 20
0.0
 30
0.0
  9
$PUCSBASE
  2

  9
$PUCSNAME
  2

  9
$PUCSORG
 10
0.0
 20
0.0
 30
0.0
  9
$PUCSXDIR
 10
1.0
 20
0.0
 30
0.0
  9
$PUCSYDIR
 10
0.0
 20
1.0
 30
0.0
  9
$PUCSORTHOREF
  2

  9
$PUCSORTHOVIEW
 70
     0
  9
$PUCSORGTOP
 10
0.0
 20
0.0
 30
0.0
  9
$PUCSORGBOTTOM
 10
0.0
 20
0.0
 30
0.0
  9
$PUCSORGLEFT
 10
0.0
 20
0.0
 30
0.0
  9
$PUCSORGRIGHT
 10
0.0
 20
0.0
 30
0.0
  9
$PUCSORGFRONT
 10
0.0
 20
0.0
 30
0.0
  9
$PUCSORGBACK
 10
0.0
 20
0.0
 30
0.0
  9
$USERI1
 70
     0
  9
$USERI2
 70
     0
  9
$USERI3
 70
     0
  9
$USERI4
 70
     0
  9
$USERI5
 70
     0
  9
$USERR1
 40
0.0
  9
$USERR2
 40
0.0
  9
$USERR3
 40
0.0
  9
$USERR4
 40
0.0
  9
$USERR5
 40
0.0
  9
$WORLDVIEW
 70
     1
  9
$SHADEDGE
 70
     3
  9
$SHADEDIF
 70
    70
  9
$TILEMODE
 70
     1
  9
$MAXACTVP
 70
    64
  9
$PINSBASE
 10
0.0
 20
0.0
 30
0.0
  9
$PLIMCHECK
 70
     0
  9
$PEXTMIN
 10
1.000000000000000E+20
 20
1.000000000000000E+20
 30
1.000000000000000E+20
  9
$PEXTMAX
 10
-1.000000000000000E+20
 20
-1.000000000000000E+20
 30
-1.000000000000000E+20
  9
$PLIMMIN
 10
0.0
 20
0.0
  9
$PLIMMAX
 10
0.0
 20
0.0
  9
$UNITMODE
 70
     0
  9
$VISRETAIN
 70
     1
  9
$PLINEGEN
 70
     0
  9
$PSLTSCALE
 70
     1
  9
$TREEDEPTH
 70
  3020
  9
$CMLSTYLE
  2
Standard
  9
$CMLJUST
 70
     0
  9
$CMLSCALE
 40
20.0
  9
$PROXYGRAPHICS
 70
     1
  9
$MEASUREMENT
 70
     1
  9
$CELWEIGHT
370
    -1
  9
$ENDCAPS
280
     0
  9
$JOINSTYLE
280
     0
  9
$LWDISPLAY
290
     1
  9
$INSUNITS
 70
     4
  9
$HYPERLINKBASE
  1

  9
$STYLESHEET
  1

  9
$XEDIT
290
     1
  9
$CEPSNTYPE
380
     0
  9
$PSTYLEMODE
290
     1
  9
$FINGERPRINTGUID
  2
{A1C7FB81-0364-4293-BF86-7A8DB67B6459}
  9
$VERSIONGUID
  2
{FAEB1C32-E019-11D5-929B-00C0DF256EC4}
  9
$EXTNAMES
290
     1
  9
$PSVPSCALE
 40
0.0
  9
$OLESTARTUP
290
     0
  0
ENDSEC
  0
SECTION
  2
CLASSES
  0
CLASS
  1
ACDBDICTIONARYWDFLT
  2
AcDbDictionaryWithDefault
  3
ObjectDBX Classes
 90
        0
280
     0
281
     0
  0
CLASS
  1
VISUALSTYLE
  2
AcDbVisualStyle
  3
ObjectDBX Classes
 90
     4095
280
     0
281
     0
  0
CLASS
  1
MATERIAL
  2
AcDbMaterial
  3
ObjectDBX Classes
 90
     1153
280
     0
281
     0
  0
CLASS
  1
SCALE
  2
AcDbScale
  3
ObjectDBX Classes
 90
     1153
280
     0
281
     0
  0
CLASS
  1
SUN
  2
AcDbSun
  3
SCENEOE
 90
     1153
280
     0
281
     0
  0
CLASS
  1
ACDBPLACEHOLDER
  2
AcDbPlaceHolder
  3
ObjectDBX Classes
 90
        0
280
     0
281
     0
  0
CLASS
  1
LAYOUT
  2
AcDbLayout
  3
ObjectDBX Classes
 90
        0
280
     0
281
     0
  0
CLASS
  1
TABLESTYLE
  2
AcDbTableStyle
  3
ObjectDBX Classes
 90
     4095
280
     0
281
     0
  0
CLASS
  1
MLEADERSTYLE
  2
AcDbMLeaderStyle
  3
ACDB_MLEADERSTYLE_CLASS
 90
     4095
280
     0
281
     0
  0
CLASS
  1
RASTERVARIABLES
  2
AcDbRasterVariables
  3
ISM
 90
        0
280
     0
281
     0
  0
ENDSEC
  0
SECTION
  2
TABLES
  0
TABLE
  2
VPORT
  5
8
330
0
100
AcDbSymbolTable
 70
     1
  0
VPORT
  5
29
330
8
100
AcDbSymbolTableRecord
100
AcDbViewportTableRecord
  2
*Active
 70
     0
 10
0.0
 20
0.0
 11
1.0
 21
1.0
 12
2.549912525099963
 22
5.532753127815646
 13
0.0
 23
0.0
 14
10.0
 24
10.0
 15
10.0
 25
10.0
 16
0.0
 26
0.0
 36
1.0
 17
0.0
 27
0.0
 37
0.0
 40
76.25485549924149
 41
1.519944979367263
 42
50.0
 43
0.0
 44
0.0
 50
0.0
 51
0.0
 71
    16
 72
  2000
 73
     1
 74
     3
 75
     0
 76
     0
 77
     0
 78
     0
281
     0
 65
     1
110
0.0
120
0.0
130
0.0
111
1.0
121
0.0
131
0.0
112
0.0
122
1.0
132
0.0
 79
     0
146
0.0
  0
ENDTAB
  0
TABLE
  2
LTYPE
  5
5
330
0
100
AcDbSymbolTable
 70
     6
  0
LTYPE
  5
14
330
5
100
AcDbSymbolTableRecord
100
AcDbLinetypeTableRecord
  2
ByBlock
 70
     0
  3

 72
    65
 73
     0
 40
0.0
  0
LTYPE
  5
15
330
5
100
AcDbSymbolTableRecord
100
AcDbLinetypeTableRecord
  2
ByLayer
 70
     0
  3

 72
    65
 73
     0
 40
0.0
  0
LTYPE
  5
16
330
5
100
AcDbSymbolTableRecord
100
AcDbLinetypeTableRecord
  2
Continuous
 70
     0
  3
Solid line
 72
    65
 73
     0
 40
0.0
  0
LTYPE
  5
6A
330
5
100
AcDbSymbolTableRecord
100
AcDbLinetypeTableRecord
  2
HIDDEN
 70
     0
  3
Hidden __ __ __ __ __ __ __ __ __ __ __ __ __ __
 72
    65
 73
     2
 40
1.905
 49
1.27
 74
     0
 49
-0.635
 74
     0
  0
LTYPE
  5
6B
330
5
100
AcDbSymbolTableRecord
100
AcDbLinetypeTableRecord
  2
PHANTOM
 70
     0
  3
Phantom ______  __  __  ______  __  __  ______
 72
    65
 73
     6
 40
12.7
 49
6.35
 74
     0
 49
-1.27
 74
     0
 49
1.27
 74
     0
 49
-1.27
 74
     0
 49
1.27
 74
     0
 49
-1.27
 74
     0
  0
LTYPE
  5
6C
330
5
100
AcDbSymbolTableRecord
100
AcDbLinetypeTableRecord
  2
CENTER
 70
     0
  3
Center ____ _ ____ _ ____ _ ____ _ ____ _ ____
 72
    65
 73
     4
 40
10.16
 49
6.35
 74
     0
 49
-1.27
 74
     0
 49
1.27
 74
     0
 49
-1.27
 74
     0
  0
LTYPE
  5
6D
330
5
100
AcDbSymbolTableRecord
100
AcDbLinetypeTableRecord
  2
CENTERX2
 70
     0
  3
Center (2x) ________  __  ________  __  _____
 72
    65
 73
     4
 40
20.32
 49
12.7
 74
     0
 49
-2.54
 74
     0
 49
2.54
 74
     0
 49
-2.54
 74
     0
  0
LTYPE
  5
6E
330
5
100
AcDbSymbolTableRecord
100
AcDbLinetypeTableRecord
  2
DOT2
 70
     0
  3
Dot (.5x) ........................................
 72
    65
 73
     2
 40
0.635
 49
0.0
 74
     0
 49
-0.635
 74
     0
  0
ENDTAB
  0
TABLE
  2
LAYER
  5
2
102
{ACAD_XDICTIONARY
360
207
102
}
330
0
100
AcDbSymbolTable
 70
    18
  0
LAYER
  5
10
330
2
100
AcDbSymbolTableRecord
100
AcDbLayerTableRecord
  2
0
 70
     0
 62
     7
  6
Continuous
370
    -3
390
F
  0
LAYER
  5
6F
330
2
100
AcDbSymbolTableRecord
100
AcDbLayerTableRecord
  2
FORMAT
 70
     0
 62
     2
  6
Continuous
370
    -3
390
F
  0
LAYER
  5
70
330
2
100
AcDbSymbolTableRecord
100
AcDbLayerTableRecord
  2
외형선
 70
     0
 62
     4
  6
Continuous
370
    30
390
F
  0
LAYER
  5
71
330
2
100
AcDbSymbolTableRecord
100
AcDbLayerTableRecord
  2
숨은선
 70
     0
 62
     2
  6
HIDDEN
370
    15
390
F
  0
LAYER
  5
72
330
2
100
AcDbSymbolTableRecord
100
AcDbLayerTableRecord
  2
중심선
 70
     0
 62
     1
  6
CENTERX2
370
    -3
390
F
  0
LAYER
  5
73
330
2
100
AcDbSymbolTableRecord
100
AcDbLayerTableRecord
  2
파단선
 70
     0
 62
     4
  6
Continuous
370
    -3
390
F
  0
LAYER
  5
74
330
2
100
AcDbSymbolTableRecord
100
AcDbLayerTableRecord
  2
해칭선
 70
     0
 62
   100
  6
Continuous
370
    -3
390
F
  0
LAYER
  5
75
330
2
100
AcDbSymbolTableRecord
100
AcDbLayerTableRecord
  2
가는실선
 70
     0
 62
     4
  6
Continuous
370
    -3
390
F
  0
LAYER
  5
76
330
2
100
AcDbSymbolTableRecord
100
AcDbLayerTableRecord
  2
치수_보조선
 70
     0
 62
     4
  6
Continuous
370
    -3
390
F
  0
LAYER
  5
77
330
2
100
AcDbSymbolTableRecord
100
AcDbLayerTableRecord
  2
치수문자_일반주서
 70
     0
 62
     7
  6
Continuous
370
    15
390
F
  0
LAYER
  5
78
330
2
100
AcDbSymbolTableRecord
100
AcDbLayerTableRecord
  2
개별주서
 70
     0
 62
   100
  6
Continuous
370
    30
390
F
  0
LAYER
  5
79
330
2
100
AcDbSymbolTableRecord
100
AcDbLayerTableRecord
  2
중간선
 70
     0
 62
     2
  6
Continuous
370
    15
390
F
  0
LAYER
  5
7A
330
2
100
AcDbSymbolTableRecord
100
AcDbLayerTableRecord
  2
윤곽선
 70
     0
 62
     3
  6
Continuous
370
    40
390
F
  0
LAYER
  5
7B
330
2
100
AcDbSymbolTableRecord
100
AcDbLayerTableRecord
  2
중심마크
 70
     0
 62
   100
  6
Continuous
370
    30
390
F
  0
LAYER
  5
7C
330
2
100
AcDbSymbolTableRecord
100
AcDbLayerTableRecord
  2
가상선
 70
     0
 62
     4
  6
PHANTOM
370
    -3
390
F
  0
LAYER
  5
7D
330
2
100
AcDbSymbolTableRecord
100
AcDbLayerTableRecord
  2
특수지정선
 70
     0
 62
     5
  6
CENTERX2
370
    60
390
F
  0
LAYER
  5
7E
330
2
100
AcDbSymbolTableRecord
100
AcDbLayerTableRecord
  2
참조1
 70
     0
 62
    -4
  6
Continuous
370
    -3
390
F
  0
LAYER
  5
14F
330
2
100
AcDbSymbolTableRecord
100
AcDbLayerTableRecord
  2
Defpoints
 70
     0
 62
     7
  6
Continuous
290
     0
370
    -3
390
F
  0
ENDTAB
  0
TABLE
  2
STYLE
  5
3
330
0
100
AcDbSymbolTable
 70
     2
  0
STYLE
  5
11
330
3
100
AcDbSymbolTableRecord
100
AcDbTextStyleTableRecord
  2
Standard
 70
     0
 40
0.0
 41
1.0
 50
0.0
 71
     0
 42
3.5
  3
txt
  4

  0
STYLE
  5
94
330
3
100
AcDbSymbolTableRecord
100
AcDbTextStyleTableRecord
  2
SLDTEXTSTYLE0
 70
     0
 40
0.0
 41
0.75
 50
0.0
 71
     0
 42
3.5
  3
TXT
  4

  0
ENDTAB
  0
TABLE
  2
VIEW
  5
6
330
0
100
AcDbSymbolTable
 70
     0
  0
ENDTAB
  0
TABLE
  2
UCS
  5
7
330
0
100
AcDbSymbolTable
 70
     0
  0
ENDTAB
  0
TABLE
  2
APPID
  5
9
330
0
100
AcDbSymbolTable
 70
     3
  0
APPID
  5
12
330
9
100
AcDbSymbolTableRecord
100
AcDbRegAppTableRecord
  2
ACAD
 70
     0
  0
APPID
  5
15B
330
9
100
AcDbSymbolTableRecord
100
AcDbRegAppTableRecord
  2
PE_URL
 70
     0
  0
APPID
  5
15C
330
9
100
AcDbSymbolTableRecord
100
AcDbRegAppTableRecord
  2
ACAD_DSTYLE_DIMRADIAL_EXTENSION
 70
     0
  0
ENDTAB
  0
TABLE
  2
DIMSTYLE
  5
A
330
0
100
AcDbSymbolTable
 70
     4
100
AcDbDimStyleTable
  0
DIMSTYLE
105
27
330
A
100
AcDbSymbolTableRecord
100
AcDbDimStyleTableRecord
  2
ISO-25
 70
     0
 41
2.5
 42
0.625
 43
3.75
 44
1.25
 73
     0
 74
     0
 77
     1
 78
     8
140
2.5
141
2.5
143
0.03937007874016
147
0.625
171
     3
172
     1
178
     0
271
     2
272
     2
274
     3
278
    44
283
     0
284
     8
340
11
  0
DIMSTYLE
105
CB
102
{ACAD_REACTORS
330
CA
330
108
330
DF
330
F4
102
}
330
A
100
AcDbSymbolTableRecord
100
AcDbDimStyleTableRecord
  2
SLDDIMSTYLE0
 70
     0
 41
3.302
 44
0.0
 45
0.000000001
 73
     0
 74
     0
 77
     1
 78
    12
 79
     3
140
3.5
143
0.0393700787401575
147
0.875
148
0.000000001
170
     1
172
     1
173
     1
178
     0
271
     2
272
     2
276
     2
284
    12
289
     0
340
94
  0
DIMSTYLE
105
E0
102
{ACAD_REACTORS
102
}
330
A
100
AcDbSymbolTableRecord
100
AcDbDimStyleTableRecord
  2
SLDDIMSTYLE1
 70
     0
 41
3.302
 44
0.0
 45
0.000000001
 73
     0
 74
     0
 77
     1
 78
    12
 79
     3
140
3.5
143
0.0393700787401575
147
0.875
148
0.000000001
170
     1
173
     1
178
     0
271
     2
272
     2
276
     2
284
    12
340
94
  0
DIMSTYLE
105
F5
102
{ACAD_REACTORS
102
}
330
A
100
AcDbSymbolTableRecord
100
AcDbDimStyleTableRecord
  2
SLDDIMSTYLE2
 70
     0
 41
3.302
 44
0.0
 45
0.000000001
 73
     0
 74
     0
 77
     1
 78
     4
 79
     1
140
3.5
143
0.0393700787401575
147
0.875
148
0.000000001
170
     1
173
     1
178
     0
271
     2
272
     2
276
     2
284
    12
340
94
  0
ENDTAB
  0
TABLE
  2
BLOCK_RECORD
  5
1
330
0
100
AcDbSymbolTable
 70
    20
  0
BLOCK_RECORD
  5
1F
102
{ACAD_XDICTIONARY
360
333
102
}
330
1
100
AcDbSymbolTableRecord
100
AcDbBlockTableRecord
  2
*Model_Space
340
22
  0
BLOCK_RECORD
  5
1B
330
1
100
AcDbSymbolTableRecord
100
AcDbBlockTableRecord
  2
*Paper_Space
340
1E
  0
BLOCK_RECORD
  5
23
330
1
100
AcDbSymbolTableRecord
100
AcDbBlockTableRecord
  2
*Paper_Space0
340
26
  0
BLOCK_RECORD
  5
7F
330
1
100
AcDbSymbolTableRecord
100
AcDbBlockTableRecord
  2
블럭10
340
0
102
{BLKREFS
331
C3
102
}
  0
BLOCK_RECORD
  5
CC
330
1
100
AcDbSymbolTableRecord
100
AcDbBlockTableRecord
  2
_D
340
0
  0
BLOCK_RECORD
  5
E1
330
1
100
AcDbSymbolTableRecord
100
AcDbBlockTableRecord
  2
_D_1
340
0
  0
BLOCK_RECORD
  5
F6
330
1
100
AcDbSymbolTableRecord
100
AcDbBlockTableRecord
  2
_D_2
340
0
  0
BLOCK_RECORD
  5
109
330
1
100
AcDbSymbolTableRecord
100
AcDbBlockTableRecord
  2
_D_3
340
0
  0
BLOCK_RECORD
  5
123
330
1
100
AcDbSymbolTableRecord
100
AcDbBlockTableRecord
  2
SW_DOWELSYMBOL_0
340
0
102
{BLKREFS
331
129
102
}
  0
BLOCK_RECORD
  5
1E5
330
1
100
AcDbSymbolTableRecord
100
AcDbBlockTableRecord
  2
_D_4
340
0
  0
BLOCK_RECORD
  5
1FF
330
1
100
AcDbSymbolTableRecord
100
AcDbBlockTableRecord
  2
*D8
340
0
  0
BLOCK_RECORD
  5
20B
330
1
100
AcDbSymbolTableRecord
100
AcDbBlockTableRecord
  2
*D9
340
0
  0
BLOCK_RECORD
  5
217
330
1
100
AcDbSymbolTableRecord
100
AcDbBlockTableRecord
  2
*D10
340
0
  0
BLOCK_RECORD
  5
223
330
1
100
AcDbSymbolTableRecord
100
AcDbBlockTableRecord
  2
*D11
340
0
  0
BLOCK_RECORD
  5
27E
330
1
100
AcDbSymbolTableRecord
100
AcDbBlockTableRecord
  2
*D12
340
0
  0
BLOCK_RECORD
  5
28A
330
1
100
AcDbSymbolTableRecord
100
AcDbBlockTableRecord
  2
*D13
340
0
  0
BLOCK_RECORD
  5
296
330
1
100
AcDbSymbolTableRecord
100
AcDbBlockTableRecord
  2
*D14
340
0
  0
BLOCK_RECORD
  5
2A4
330
1
100
AcDbSymbolTableRecord
100
AcDbBlockTableRecord
  2
*D15
340
0
  0
BLOCK_RECORD
  5
2B2
330
1
100
AcDbSymbolTableRecord
100
AcDbBlockTableRecord
  2
*D16
340
0
  0
BLOCK_RECORD
  5
2E5
330
1
100
AcDbSymbolTableRecord
100
AcDbBlockTableRecord
  2
*D17
340
0
  0
BLOCK_RECORD
  5
2F4
330
1
100
AcDbSymbolTableRecord
100
AcDbBlockTableRecord
  2
*D18
340
0
  0
BLOCK_RECORD
  5
303
330
1
100
AcDbSymbolTableRecord
100
AcDbBlockTableRecord
  2
*D19
340
0
  0
ENDTAB
  0
ENDSEC
  0
SECTION
  2
BLOCKS
  0
BLOCK
  5
20
330
1F
100
AcDbEntity
  8
0
100
AcDbBlockBegin
  2
*Model_Space
 70
     0
 10
0.0
 20
0.0
 30
0.0
  3
*Model_Space
  1
*Model_Space
  0
ENDBLK
  5
21
330
1F
100
AcDbEntity
  8
0
100
AcDbBlockEnd
  0
BLOCK
  5
1C
330
1B
100
AcDbEntity
 67
     1
  8
0
100
AcDbBlockBegin
  2
*Paper_Space
 70
     0
 10
0.0
 20
0.0
 30
0.0
  3
*Paper_Space
  1
*Paper_Space
  0
ENDBLK
  5
1D
330
1B
100
AcDbEntity
 67
     1
  8
0
100
AcDbBlockEnd
  0
BLOCK
  5
24
330
23
100
AcDbEntity
  8
0
100
AcDbBlockBegin
  2
*Paper_Space0
 70
     0
 10
0.0
 20
0.0
 30
0.0
  3
*Paper_Space0
  1
*Paper_Space0
  0
ENDBLK
  5
25
330
23
100
AcDbEntity
  8
0
100
AcDbBlockEnd
  0
BLOCK
  5
80
330
7F
100
AcDbEntity
  8
0
100
AcDbBlockBegin
  2
블럭10
 70
     2
 10
0.0
 20
0.0
 30
0.0
  3
블럭10
  1
블럭10
  0
ELLIPSE
  5
82
330
7F
100
AcDbEntity
  8
중심선
100
AcDbEllipse
 10
20.54032771741204
 20
12.0471743016438
 30
0.0
 11
6.600054785286829
 21
-1.261213355974178E-13
 31
0.0
210
0.0
220
0.0
230
1.0
 40
0.636358354079598
 41
0.9219305317359503
 42
6.513795318482858
  0
ELLIPSE
  5
83
330
7F
100
AcDbEntity
  8
중심선
100
AcDbEllipse
 10
20.54032771746488
 20
12.04717430159265
 30
0.0
 11
3.960054785062283
 21
1.540847449632565E-10
 31
0.0
210
0.0
220
0.0
230
1.0
 40
0.3939339440162632
 41
1.131841032648279
 42
5.62031148352944
  0
LINE
  5
84
330
7F
100
AcDbEntity
  8
중심선
100
AcDbLine
 10
2.268634060543552
 20
16.24717430164393
 30
0.0
 11
5.714909304380834
 21
16.24717430164393
 31
0.0
  0
LINE
  5
85
330
7F
100
AcDbEntity
  8
중심선
100
AcDbLine
 10
5.245725140726316
 20
7.84717430164391
 30
0.0
 11
8.692000384563599
 21
7.84717430164391
 31
0.0
  0
LINE
  5
86
330
7F
100
AcDbEntity
  8
중심선
100
AcDbLine
 10
15.74043728645272
 20
16.24717430164393
 30
0.0
 11
8.692000384563599
 21
7.84717430164391
 31
0.0
  0
LINE
  5
87
330
7F
100
AcDbEntity
  8
중심선
100
AcDbLine
 10
0.1404042013395286
 20
13.71084872107135
 30
0.0
 11
3.58671253028996
 21
13.71088815037384
 31
0.0
  0
LINE
  5
88
330
7F
100
AcDbEntity
  8
중심선
100
AcDbLine
 10
2.750260043222114
 20
10.84717430164391
 30
0.0
 11
6.196535287059397
 21
10.84717430164391
 31
0.0
  0
LINE
  5
89
330
7F
100
AcDbEntity
  8
중심선
100
AcDbLine
 10
12.29416204261559
 20
16.24717430164393
 30
0.0
 11
5.245725140726316
 21
7.84717430164391
 31
0.0
  0
LINE
  5
8A
330
7F
100
AcDbEntity
  8
중심선
100
AcDbLine
 10
10.72767329541681
 20
16.24717430164393
 30
0.0
 11
6.196535287059397
 21
10.84717430164391
 31
0.0
  0
LINE
  5
8B
330
7F
100
AcDbEntity
  8
중심선
100
AcDbLine
 10
7.28139805157953
 20
16.24717430164393
 30
0.0
 11
2.750260043222114
 21
10.84717430164391
 31
0.0
  0
LINE
  5
8C
330
7F
100
AcDbEntity
  8
중심선
100
AcDbLine
 10
5.714909304380834
 20
16.24717430164393
 30
0.0
 11
3.58671253028996
 21
13.71088815037384
 31
0.0
  0
LINE
  5
8D
330
7F
100
AcDbEntity
  8
중심선
100
AcDbLine
 10
2.268634060543552
 20
16.24717430164393
 30
0.0
 11
0.1404042013395286
 21
13.71084872107135
 31
0.0
  0
LINE
  5
8E
330
7F
100
AcDbEntity
  8
중심선
100
AcDbLine
 10
7.28139805157953
 20
16.24717430164393
 30
0.0
 11
10.72767329541681
 21
16.24717430164393
 31
0.0
  0
LINE
  5
8F
330
7F
100
AcDbEntity
  8
중심선
100
AcDbLine
 10
12.29416204261559
 20
16.24717430164393
 30
0.0
 11
15.74043728645272
 21
16.24717430164393
 31
0.0
  0
LINE
  5
90
330
7F
100
AcDbEntity
  8
중심선
100
AcDbLine
 10
19.22036997980202
 20
11.08717430171403
 30
0.0
 11
23.66174974927406
 21
11.08717430171406
 31
0.0
  0
LINE
  5
91
330
7F
100
AcDbEntity
  8
중심선
100
AcDbLine
 10
19.22039502424796
 20
13.00717430171391
 30
0.0
 11
19.22036997980202
 21
11.08717430171403
 31
0.0
  0
LINE
  5
92
330
7F
100
AcDbEntity
  8
중심선
100
AcDbLine
 10
19.22039502424796
 20
13.00717430171391
 30
0.0
 11
26.96566020931264
 21
13.00717430171391
 31
0.0
  0
LINE
  5
93
330
7F
100
AcDbEntity
  8
중심선
100
AcDbLine
 10
22.22332737316547
 20
13.45928029700563
 30
0.0
 11
24.52862924686651
 21
15.39360700705356
 31
0.0
  0
ATTDEF
  5
95
330
7F
100
AcDbEntity
  8
FORMAT
 62
     2
100
AcDbText
 10
4.408487351596664
 20
2.075366912832191
 30
0.0
 40
4.233333333333333
  1
E5023011
 41
0.75
  7
SLDTEXTSTYLE0
 11
4.408487351596664
 21
-0.0412997538344756
 31
0.0
100
AcDbAttributeDefinition
  3

  2
AUTOATTR0
 70
     0
 74
     1
  0
ENDBLK
  5
81
330
7F
100
AcDbEntity
  8
0
100
AcDbBlockEnd
  0
BLOCK
  5
CD
330
CC
100
AcDbEntity
  8
0
100
AcDbBlockBegin
  2
_D
 70
     0
 10
0.0
 20
0.0
 30
0.0
  3
_D
  1
_D
  0
LINE
  5
CF
330
CC
100
AcDbEntity
  8
치수문자_일반주서
 62
     0
370
    -2
100
AcDbLine
 10
25.4625
 20
2.182812500000016
 30
0.0
 11
40.96878617555021
 21
2.182812500000072
 31
0.0
  0
LINE
  5
D0
330
CC
100
AcDbEntity
  8
치수문자_일반주서
 62
     0
370
    -2
100
AcDbLine
 10
25.4625
 20
-2.182812499999986
 30
0.0
 11
40.96878617555023
 21
-2.18281249999993
 31
0.0
  0
LINE
  5
D1
330
CC
100
AcDbEntity
  8
치수문자_일반주서
 62
     0
370
    -2
100
AcDbLine
 10
40.96878617555021
 20
2.182812500000072
 30
0.0
 11
40.96878617555009
 21
38.53681250000007
 31
0.0
  0
LINE
  5
D2
330
CC
100
AcDbEntity
  8
치수문자_일반주서
 62
     0
370
    -2
100
AcDbLine
 10
40.96878617555021
 20
2.182812500000072
 30
0.0
 11
40.96878617555023
 21
-2.18281249999993
 31
0.0
  0
LINE
  5
D3
330
CC
100
AcDbEntity
  8
치수문자_일반주서
 62
     0
370
    -2
100
AcDbLine
 10
40.9687861755502
 20
5.484812500000071
 30
0.0
 11
40.96878617555019
 21
8.786812500000071
 31
0.0
  0
LINE
  5
D4
330
CC
100
AcDbEntity
  8
치수문자_일반주서
 62
     0
370
    -2
100
AcDbLine
 10
40.96878617555024
 20
-5.484812499999929
 30
0.0
 11
40.96878617555026
 21
-8.786812499999929
 31
0.0
  0
SOLID
  5
D5
330
CC
100
AcDbEntity
  8
치수문자_일반주서
 62
     0
100
AcDbTrace
 10
40.41845284221687
 20
5.48481250000007
 30
0.0
 11
41.51911950888353
 21
5.484812500000073
 31
0.0
 12
40.96878617555021
 22
2.182812500000072
 32
0.0
 13
40.96878617555021
 23
2.182812500000072
 33
0.0
  0
SOLID
  5
D6
330
CC
100
AcDbEntity
  8
치수문자_일반주서
 62
     0
100
AcDbTrace
 10
41.51911950888358
 20
-5.484812499999927
 30
0.0
 11
40.41845284221691
 21
-5.484812499999931
 31
0.0
 12
40.96878617555023
 22
-2.18281249999993
 32
0.0
 13
40.96878617555023
 23
-2.18281249999993
 33
0.0
  0
MTEXT
  5
D7
330
CC
100
AcDbEntity
  8
치수문자_일반주서
 62
     0
100
AcDbMText
 10
36.59378617555014
 20
23.66181250000006
 30
0.0
 40
3.5
 41
0.0
 71
     2
 72
     1
  1
\A1;%%c4.37 [11/64]
  7
SLDTEXTSTYLE0
 11
-3.255170729323292E-15
 21
1.0
 31
0.0
 73
     1
 44
1.0
  0
POINT
  5
D8
330
CC
100
AcDbEntity
  8
Defpoints
 62
     0
100
AcDbPoint
 10
25.4
 20
2.182812500000016
 30
0.0
  0
POINT
  5
D9
330
CC
100
AcDbEntity
  8
Defpoints
 62
     0
100
AcDbPoint
 10
25.4
 20
-2.182812499999987
 30
0.0
  0
POINT
  5
DA
330
CC
100
AcDbEntity
  8
Defpoints
 62
     0
100
AcDbPoint
 10
40.96878617555023
 20
-2.182812499999929
 30
0.0
  0
ENDBLK
  5
CE
330
CC
100
AcDbEntity
  8
0
100
AcDbBlockEnd
  0
BLOCK
  5
E2
330
E1
100
AcDbEntity
  8
0
100
AcDbBlockBegin
  2
_D_1
 70
     0
 10
0.0
 20
0.0
 30
0.0
  3
_D_1
  1
_D_1
  0
LINE
  5
E4
330
E1
100
AcDbEntity
  8
치수문자_일반주서
 62
     0
370
    -2
100
AcDbLine
 10
25.4
 20
2.23728540682042
 30
0.0
 11
25.4
 21
16.1026210268
 31
0.0
  0
LINE
  5
E5
330
E1
100
AcDbEntity
  8
치수문자_일반주서
 62
     0
370
    -2
100
AcDbLine
 10
17.4625
 20
1.858868958501696
 30
0.0
 11
17.4625
 21
16.1026210268
 31
0.0
  0
LINE
  5
E6
330
E1
100
AcDbEntity
  8
치수문자_일반주서
 62
     0
370
    -2
100
AcDbLine
 10
17.4625
 20
16.1026210268
 30
0.0
 11
-20.45730346251177
 21
16.1026210268
 31
0.0
  0
LINE
  5
E7
330
E1
100
AcDbEntity
  8
치수문자_일반주서
 62
     0
370
    -2
100
AcDbLine
 10
25.4
 20
16.1026210268
 30
0.0
 11
17.4625
 21
16.1026210268
 31
0.0
  0
LINE
  5
E8
330
E1
100
AcDbEntity
  8
치수문자_일반주서
 62
     0
370
    -2
100
AcDbLine
 10
28.702
 20
16.1026210268
 30
0.0
 11
32.004
 21
16.1026210268
 31
0.0
  0
LINE
  5
E9
330
E1
100
AcDbEntity
  8
치수문자_일반주서
 62
     0
370
    -2
100
AcDbLine
 10
14.1605
 20
16.1026210268
 30
0.0
 11
10.8585
 21
16.1026210268
 31
0.0
  0
SOLID
  5
EA
330
E1
100
AcDbEntity
  8
치수문자_일반주서
 62
     0
100
AcDbTrace
 10
28.702
 20
16.65295436013334
 30
0.0
 11
28.702
 21
15.55228769346667
 31
0.0
 12
25.4
 22
16.1026210268
 32
0.0
 13
25.4
 23
16.1026210268
 33
0.0
  0
SOLID
  5
EB
330
E1
100
AcDbEntity
  8
치수문자_일반주서
 62
     0
100
AcDbTrace
 10
14.1605
 20
15.55228769346667
 30
0.0
 11
14.1605
 21
16.65295436013334
 31
0.0
 12
17.4625
 22
16.1026210268
 32
0.0
 13
17.4625
 23
16.1026210268
 33
0.0
  0
MTEXT
  5
EC
330
E1
100
AcDbEntity
  8
치수문자_일반주서
 62
     0
100
AcDbMText
 10
-7.769803462511771
 20
20.4776210268
 30
0.0
 40
3.5
 41
0.0
 71
     2
 72
     1
  1
\A1;7.94 [5/16]
  7
SLDTEXTSTYLE0
 73
     1
 44
1.0
  0
POINT
  5
ED
330
E1
100
AcDbEntity
  8
Defpoints
 62
     0
100
AcDbPoint
 10
25.4
 20
2.17478540682042
 30
0.0
  0
POINT
  5
EE
330
E1
100
AcDbEntity
  8
Defpoints
 62
     0
100
AcDbPoint
 10
17.4625
 20
1.796368958501696
 30
0.0
  0
POINT
  5
EF
330
E1
100
AcDbEntity
  8
Defpoints
 62
     0
100
AcDbPoint
 10
17.4625
 20
16.1026210268
 30
0.0
  0
ENDBLK
  5
E3
330
E1
100
AcDbEntity
  8
0
100
AcDbBlockEnd
  0
BLOCK
  5
F7
330
F6
100
AcDbEntity
  8
0
100
AcDbBlockBegin
  2
_D_2
 70
     0
 10
0.0
 20
0.0
 30
0.0
  3
_D_2
  1
_D_2
  0
LINE
  5
F9
330
F6
100
AcDbEntity
  8
치수문자_일반주서
 62
     0
370
    -2
100
AcDbLine
 10
25.4
 20
2.23728540682042
 30
0.0
 11
25.4
 21
31.15697450715891
 31
0.0
  0
LINE
  5
FA
330
F6
100
AcDbEntity
  8
치수문자_일반주서
 62
     0
370
    -2
100
AcDbLine
 10
-25.4
 20
1.967500000000002
 30
0.0
 11
-25.4
 21
31.15697450715891
 31
0.0
  0
LINE
  5
FB
330
F6
100
AcDbEntity
  8
치수문자_일반주서
 62
     0
370
    -2
100
AcDbLine
 10
22.098
 20
31.15697450715891
 30
0.0
 11
-22.098
 21
31.15697450715891
 31
0.0
  0
SOLID
  5
FC
330
F6
100
AcDbEntity
  8
치수문자_일반주서
 62
     0
100
AcDbTrace
 10
22.098
 20
30.60664117382558
 30
0.0
 11
22.098
 21
31.70730784049224
 31
0.0
 12
25.4
 22
31.15697450715891
 32
0.0
 13
25.4
 23
31.15697450715891
 33
0.0
  0
SOLID
  5
FD
330
F6
100
AcDbEntity
  8
치수문자_일반주서
 62
     0
100
AcDbTrace
 10
-22.098
 20
31.70730784049224
 30
0.0
 11
-22.098
 21
30.60664117382558
 31
0.0
 12
-25.4
 22
31.15697450715891
 32
0.0
 13
-25.4
 23
31.15697450715891
 33
0.0
  0
MTEXT
  5
FE
330
F6
100
AcDbEntity
  8
치수문자_일반주서
 62
     0
100
AcDbMText
 10
1.639172668044584
 20
35.53197450715891
 30
0.0
 40
3.5
 41
0.0
 71
     2
 72
     1
  1
\A1;50.8 [2]
  7
SLDTEXTSTYLE0
 73
     1
 44
1.0
  0
POINT
  5
FF
330
F6
100
AcDbEntity
  8
Defpoints
 62
     0
100
AcDbPoint
 10
25.4
 20
2.17478540682042
 30
0.0
  0
POINT
  5
100
330
F6
100
AcDbEntity
  8
Defpoints
 62
     0
100
AcDbPoint
 10
-25.4
 20
1.905000000000002
 30
0.0
  0
POINT
  5
101
330
F6
100
AcDbEntity
  8
Defpoints
 62
     0
100
AcDbPoint
 10
-25.4
 20
31.15697450715891
 30
0.0
  0
ENDBLK
  5
F8
330
F6
100
AcDbEntity
  8
0
100
AcDbBlockEnd
  0
BLOCK
  5
10A
330
109
100
AcDbEntity
  8
0
100
AcDbBlockBegin
  2
_D_3
 70
     0
 10
0.0
 20
0.0
 30
0.0
  3
_D_3
  1
_D_3
  0
LINE
  5
10C
330
109
100
AcDbEntity
  8
치수문자_일반주서
 62
     0
370
    -2
100
AcDbLine
 10
-15.78442116787301
 20
2.381250000000002
 30
0.0
 11
-32.88611860444504
 21
2.381249999999937
 31
0.0
  0
LINE
  5
10D
330
109
100
AcDbEntity
  8
치수문자_일반주서
 62
     0
370
    -2
100
AcDbLine
 10
-15.78442116787303
 20
-2.381250000000003
 30
0.0
 11
-32.88611860444502
 21
-2.381250000000065
 31
0.0
  0
LINE
  5
10E
330
109
100
AcDbEntity
  8
치수문자_일반주서
 62
     0
370
    -2
100
AcDbLine
 10
-32.88611860444504
 20
2.381249999999937
 30
0.0
 11
-32.88611860444514
 21
36.98524999999998
 31
0.0
  0
LINE
  5
10F
330
109
100
AcDbEntity
  8
치수문자_일반주서
 62
     0
370
    -2
100
AcDbLine
 10
-32.88611860444504
 20
2.381249999999937
 30
0.0
 11
-32.88611860444502
 21
-2.381250000000065
 31
0.0
  0
LINE
  5
110
330
109
100
AcDbEntity
  8
치수문자_일반주서
 62
     0
370
    -2
100
AcDbLine
 10
-32.88611860444504
 20
5.683249999999937
 30
0.0
 11
-32.88611860444505
 21
8.985249999999937
 31
0.0
  0
LINE
  5
111
330
109
100
AcDbEntity
  8
치수문자_일반주서
 62
     0
370
    -2
100
AcDbLine
 10
-32.88611860444502
 20
-5.683250000000065
 30
0.0
 11
-32.88611860444501
 21
-8.985250000000065
 31
0.0
  0
SOLID
  5
112
330
109
100
AcDbEntity
  8
치수문자_일반주서
 62
     0
100
AcDbTrace
 10
-33.43645193777838
 20
5.683249999999935
 30
0.0
 11
-32.33578527111171
 21
5.683249999999939
 31
0.0
 12
-32.88611860444504
 22
2.381249999999937
 32
0.0
 13
-32.88611860444504
 23
2.381249999999937
 33
0.0
  0
SOLID
  5
113
330
109
100
AcDbEntity
  8
치수문자_일반주서
 62
     0
100
AcDbTrace
 10
-32.33578527111168
 20
-5.683250000000063
 30
0.0
 11
-33.43645193777835
 21
-5.683250000000067
 31
0.0
 12
-32.88611860444502
 22
-2.381250000000065
 32
0.0
 13
-32.88611860444502
 23
-2.381250000000065
 33
0.0
  0
MTEXT
  5
114
330
109
100
AcDbEntity
  8
치수문자_일반주서
 62
     0
100
AcDbMText
 10
-37.2611186044451
 20
22.98524999999996
 30
0.0
 40
3.5
 41
0.0
 71
     2
 72
     1
  1
\A1;%%c4.76 [3/16]
  7
SLDTEXTSTYLE0
 11
-2.983906501879683E-15
 21
1.0
 31
0.0
 73
     1
 44
1.0
  0
POINT
  5
2BC
330
109
100
AcDbEntity
  8
Defpoints
 62
     0
100
AcDbPoint
 10
-15.72192116787301
 20
2.381250000000003
 30
0.0
  0
POINT
  5
2BD
330
109
100
AcDbEntity
  8
Defpoints
 62
     0
100
AcDbPoint
 10
-15.72192116787303
 20
-2.381250000000002
 30
0.0
  0
POINT
  5
2BE
330
109
100
AcDbEntity
  8
Defpoints
 62
     0
100
AcDbPoint
 10
-32.88611860444503
 20
-2.381250000000066
 30
0.0
  0
ENDBLK
  5
10B
330
109
100
AcDbEntity
  8
0
100
AcDbBlockEnd
  0
BLOCK
  5
124
330
123
100
AcDbEntity
  8
0
100
AcDbBlockBegin
  2
SW_DOWELSYMBOL_0
 70
     0
 10
0.0
 20
0.0
 30
0.0
  3
SW_DOWELSYMBOL_0
  1
SW_DOWELSYMBOL_0
  0
CIRCLE
  5
126
330
123
100
AcDbEntity
  8
해칭선
 62
     0
100
AcDbCircle
 10
0.0
 20
0.0
 30
0.0
 40
3.000000000000007
  0
HATCH
  5
127
330
123
100
AcDbEntity
  8
0
  6
Continuous
 62
     0
370
     0
100
AcDbHatch
 10
0.0
 20
0.0
 30
0.0
210
0.0
220
0.0
230
1.0
  2
SOLID
 70
     1
 71
     0
 91
        1
 92
        0
 93
        3
 72
     2
 10
0.0
 20
0.0
 40
3.000000000000007
 50
0.0
 51
90.0
 73
     1
 72
     1
 10
0.0
 20
3.000000000000007
 11
0.0
 21
0.0
 72
     1
 10
0.0
 20
0.0
 11
3.000000000000007
 21
0.0
 97
        0
 75
     0
 76
     1
 98
        1
 10
0.0
 20
0.0
  0
HATCH
  5
128
330
123
100
AcDbEntity
  8
0
  6
Continuous
 62
     0
370
     0
100
AcDbHatch
 10
0.0
 20
0.0
 30
0.0
210
0.0
220
0.0
230
1.0
  2
SOLID
 70
     1
 71
     0
 91
        1
 92
        0
 93
        3
 72
     2
 10
0.0
 20
0.0
 40
3.000000000000007
 50
180.0
 51
270.0000000000007
 73
     1
 72
     1
 10
0.0
 20
-3.000000000000007
 11
0.0
 21
0.0
 72
     1
 10
0.0
 20
0.0
 11
-3.000000000000007
 21
0.0
 97
        0
 75
     0
 76
     1
 98
        1
 10
0.0
 20
0.0
  0
ENDBLK
  5
125
330
123
100
AcDbEntity
  8
0
100
AcDbBlockEnd
  0
BLOCK
  5
1E6
330
1E5
100
AcDbEntity
  8
0
100
AcDbBlockBegin
  2
_D_4
 70
     0
 10
0.0
 20
0.0
 30
0.0
  3
_D_4
  1
_D_4
  0
LINE
  5
1E7
330
1E5
100
AcDbEntity
  8
치수문자_일반주서
 62
     0
370
    -2
100
AcDbLine
 10
102.4375000000001
 20
36.22143424691529
 30
0.0
 11
117.3750000000001
 21
36.22143424691535
 31
0.0
  0
LINE
  5
1E8
330
1E5
100
AcDbEntity
  8
치수문자_일반주서
 62
     0
370
    -2
100
AcDbLine
 10
102.4375000000001
 20
22.22143424691529
 30
0.0
 11
117.3750000000001
 21
22.22143424691535
 31
0.0
  0
LINE
  5
1E9
330
1E5
100
AcDbEntity
  8
치수문자_일반주서
 62
     0
370
    -2
100
AcDbLine
 10
117.3750000000001
 20
36.22143424691535
 30
0.0
 11
117.3750000000001
 21
22.22143424691535
 31
0.0
  0
LINE
  5
1EA
330
1E5
100
AcDbEntity
  8
치수문자_일반주서
 62
     0
370
    -2
100
AcDbLine
 10
117.3750000000001
 20
39.52343424691535
 30
0.0
 11
117.375
 21
42.82543424691535
 31
0.0
  0
LINE
  5
1EB
330
1E5
100
AcDbEntity
  8
치수문자_일반주서
 62
     0
370
    -2
100
AcDbLine
 10
117.3750000000001
 20
18.91943424691535
 30
0.0
 11
117.3750000000001
 21
15.61743424691535
 31
0.0
  0
SOLID
  5
1EC
330
1E5
100
AcDbEntity
  8
치수문자_일반주서
 62
     0
100
AcDbTrace
 10
116.8246666666667
 20
39.52343424691535
 30
0.0
 11
117.9253333333334
 21
39.52343424691535
 31
0.0
 12
117.3750000000001
 22
36.22143424691535
 32
0.0
 13
117.3750000000001
 23
36.22143424691535
 33
0.0
  0
SOLID
  5
1ED
330
1E5
100
AcDbEntity
  8
치수문자_일반주서
 62
     0
100
AcDbTrace
 10
117.9253333333335
 20
18.91943424691535
 30
0.0
 11
116.8246666666668
 21
18.91943424691535
 31
0.0
 12
117.3750000000001
 22
22.22143424691535
 32
0.0
 13
117.3750000000001
 23
22.22143424691535
 33
0.0
  0
MTEXT
  5
1EE
330
1E5
100
AcDbEntity
  8
치수문자_일반주서
 62
     0
100
AcDbMText
 10
113.0000000000001
 20
29.28713862862833
 30
0.0
 40
3.5
 41
0.0
 71
     2
 72
     1
  1
\A1;%%c14.00 [0.55]
  7
SLDTEXTSTYLE0
 11
-3.045183153257572E-15
 21
1.0
 31
0.0
 73
     1
 44
1.0
  0
POINT
  5
1EF
330
1E5
100
AcDbEntity
  8
Defpoints
 62
     0
100
AcDbPoint
 10
102.3750000000001
 20
36.22143424691529
 30
0.0
  0
POINT
  5
1F0
330
1E5
100
AcDbEntity
  8
Defpoints
 62
     0
100
AcDbPoint
 10
102.3750000000001
 20
22.22143424691529
 30
0.0
  0
POINT
  5
1F1
330
1E5
100
AcDbEntity
  8
Defpoints
 62
     0
100
AcDbPoint
 10
117.3750000000001
 20
22.22143424691535
 30
0.0
  0
ENDBLK
  5
1F2
330
1E5
100
AcDbEntity
  8
0
100
AcDbBlockEnd
  0
BLOCK
  5
200
330
1FF
100
AcDbEntity
  8
0
100
AcDbBlockBegin
  2
*D8
 70
     1
 10
0.0
 20
0.0
 30
0.0
  3
*D8
  1
*D8
  0
LINE
  5
201
330
1FF
100
AcDbEntity
  8
치수문자_일반주서
 62
     0
370
    -2
100
AcDbLine
 10
103.8657751816695
 20
19.48229575403651
 30
0.0
 11
119.6194267469468
 21
-6.150060756304035
 31
0.0
  0
MTEXT
  5
202
330
1FF
100
AcDbEntity
  8
치수문자_일반주서
 62
     0
100
AcDbMText
 10
115.6706384014277
 20
5.288158154535728
 30
0.0
 40
3.5
 41
0.0
 71
     5
 72
     1
  1
\A1;R.5 [R0.02]
  7
SLDTEXTSTYLE0
 11
0.5236126201129557
 21
-0.8519564684057781
 31
0.0
 73
     1
 44
1.0
  0
SOLID
  5
203
330
1FF
100
AcDbEntity
  8
치수문자_일반주서
 62
     0
100
AcDbTrace
 10
104.3346352247821
 20
19.77045723263868
 30
0.0
 11
103.3969151385569
 21
19.19413427543435
 31
0.0
 12
102.1368063100565
 22
22.29545601271239
 32
0.0
 13
102.1368063100565
 23
22.29545601271239
 33
0.0
  0
LINE
  5
204
330
1FF
100
AcDbEntity
  8
치수문자_일반주서
 62
     0
100
AcDbLine
 10
101.785
 20
22.72143424691529
 30
0.0
 11
101.965
 21
22.72143424691529
 31
0.0
  0
LINE
  5
205
330
1FF
100
AcDbEntity
  8
치수문자_일반주서
 62
     0
100
AcDbLine
 10
101.875
 20
22.63143424691529
 30
0.0
 11
101.875
 21
22.81143424691529
 31
0.0
  0
POINT
  5
231
330
1FF
100
AcDbEntity
  8
Defpoints
 62
     0
100
AcDbPoint
 10
102.1368063100565
 20
22.29545601271239
 30
0.0
  0
POINT
  5
232
330
1FF
100
AcDbEntity
  8
Defpoints
 62
     0
100
AcDbPoint
 10
101.875
 20
22.72143424691529
 30
0.0
  0
ENDBLK
  5
206
330
1FF
100
AcDbEntity
  8
0
100
AcDbBlockEnd
  0
BLOCK
  5
20C
330
20B
100
AcDbEntity
  8
0
100
AcDbBlockBegin
  2
*D9
 70
     1
 10
0.0
 20
0.0
 30
0.0
  3
*D9
  1
*D10
  0
LINE
  5
20E
330
20B
100
AcDbEntity
  8
치수문자_일반주서
 62
     0
370
    -2
100
AcDbLine
 10
19.37500000000004
 20
35.78393424691529
 30
0.0
 11
19.37500000000004
 21
70.88391841499404
 31
0.0
  0
LINE
  5
20F
330
20B
100
AcDbEntity
  8
치수문자_일반주서
 62
     0
370
    -2
100
AcDbLine
 10
102.3750000000001
 20
36.34643424691529
 30
0.0
 11
102.3750000000001
 21
70.88391841499404
 31
0.0
  0
LINE
  5
210
330
20B
100
AcDbEntity
  8
치수문자_일반주서
 62
     0
370
    -2
100
AcDbLine
 10
22.67700000000004
 20
70.88391841499404
 30
0.0
 11
99.07300000000006
 21
70.88391841499404
 31
0.0
  0
SOLID
  5
211
330
20B
100
AcDbEntity
  8
치수문자_일반주서
 62
     0
100
AcDbTrace
 10
22.67700000000004
 20
71.43425174832737
 30
0.0
 11
22.67700000000004
 21
70.33358508166071
 31
0.0
 12
19.37500000000004
 22
70.88391841499404
 32
0.0
 13
19.37500000000004
 23
70.88391841499404
 33
0.0
  0
SOLID
  5
212
330
20B
100
AcDbEntity
  8
치수문자_일반주서
 62
     0
100
AcDbTrace
 10
99.07300000000006
 20
70.33358508166071
 30
0.0
 11
99.07300000000006
 21
71.43425174832737
 31
0.0
 12
102.3750000000001
 22
70.88391841499404
 32
0.0
 13
102.3750000000001
 23
70.88391841499404
 33
0.0
  0
MTEXT
  5
213
330
20B
100
AcDbEntity
  8
치수문자_일반주서
 62
     0
100
AcDbMText
 10
60.87500000000005
 20
75.25891841499404
 30
0.0
 40
3.5
 41
0.0
 71
     2
 72
     1
  1
\A1;83 [3.27]
  7
SLDTEXTSTYLE0
 73
     1
 44
1.0
  0
POINT
  5
214
330
20B
100
AcDbEntity
  8
Defpoints
 62
     0
100
AcDbPoint
 10
19.37500000000004
 20
35.72143424691529
 30
0.0
  0
POINT
  5
215
330
20B
100
AcDbEntity
  8
Defpoints
 62
     0
100
AcDbPoint
 10
102.3750000000001
 20
36.28393424691529
 30
0.0
  0
POINT
  5
216
330
20B
100
AcDbEntity
  8
Defpoints
 62
     0
100
AcDbPoint
 10
102.3750000000001
 20
70.88391841499404
 30
0.0
  0
ENDBLK
  5
20D
330
20B
100
AcDbEntity
  8
0
100
AcDbBlockEnd
  0
BLOCK
  5
218
330
217
100
AcDbEntity
  8
0
100
AcDbBlockBegin
  2
*D10
 70
     1
 10
0.0
 20
0.0
 30
0.0
  3
*D10
  1
*D11
  0
LINE
  5
21A
330
217
100
AcDbEntity
  8
치수문자_일반주서
 62
     0
370
    -2
100
AcDbLine
 10
76.37504186422882
 20
28.62038676313042
 30
0.0
 11
76.37504186422882
 21
61.90091383617725
 31
0.0
  0
LINE
  5
21B
330
217
100
AcDbEntity
  8
치수문자_일반주서
 62
     0
370
    -2
100
AcDbLine
 10
102.3750000000001
 20
36.28393424691529
 30
0.0
 11
102.3750000000001
 21
61.90091383617725
 31
0.0
  0
LINE
  5
21C
330
217
100
AcDbEntity
  8
치수문자_일반주서
 62
     0
370
    -2
100
AcDbLine
 10
79.67704186422881
 20
61.90091383617725
 30
0.0
 11
99.07300000000006
 21
61.90091383617725
 31
0.0
  0
SOLID
  5
21D
330
217
100
AcDbEntity
  8
치수문자_일반주서
 62
     0
100
AcDbTrace
 10
79.67704186422881
 20
62.45124716951059
 30
0.0
 11
79.67704186422881
 21
61.35058050284392
 31
0.0
 12
76.37504186422882
 22
61.90091383617725
 32
0.0
 13
76.37504186422882
 23
61.90091383617725
 33
0.0
  0
SOLID
  5
21E
330
217
100
AcDbEntity
  8
치수문자_일반주서
 62
     0
100
AcDbTrace
 10
99.07300000000006
 20
61.35058050284392
 30
0.0
 11
99.07300000000006
 21
62.45124716951059
 31
0.0
 12
102.3750000000001
 22
61.90091383617725
 32
0.0
 13
102.3750000000001
 23
61.90091383617725
 33
0.0
  0
MTEXT
  5
21F
330
217
100
AcDbEntity
  8
치수문자_일반주서
 62
     0
100
AcDbMText
 10
89.42159572693208
 20
66.27591383617725
 30
0.0
 40
3.5
 41
0.0
 71
     2
 72
     1
  1
\A1;26 [1.02]
  7
SLDTEXTSTYLE0
 73
     1
 44
1.0
  0
POINT
  5
220
330
217
100
AcDbEntity
  8
Defpoints
 62
     0
100
AcDbPoint
 10
76.37504186422882
 20
28.55788676313042
 30
0.0
  0
POINT
  5
221
330
217
100
AcDbEntity
  8
Defpoints
 62
     0
100
AcDbPoint
 10
102.3750000000001
 20
36.22143424691529
 30
0.0
  0
POINT
  5
222
330
217
100
AcDbEntity
  8
Defpoints
 62
     0
100
AcDbPoint
 10
102.3750000000001
 20
61.90091383617725
 30
0.0
  0
ENDBLK
  5
219
330
217
100
AcDbEntity
  8
0
100
AcDbBlockEnd
  0
BLOCK
  5
224
330
223
100
AcDbEntity
  8
0
100
AcDbBlockBegin
  2
*D11
 70
     1
 10
0.0
 20
0.0
 30
0.0
  3
*D11
  1
*D12
  0
LINE
  5
226
330
223
100
AcDbEntity
  8
치수문자_일반주서
 62
     0
370
    -2
100
AcDbLine
 10
19.81250000000005
 20
36.22143424691529
 30
0.0
 11
4.374999999999983
 21
36.22143424691524
 31
0.0
  0
LINE
  5
227
330
223
100
AcDbEntity
  8
치수문자_일반주서
 62
     0
370
    -2
100
AcDbLine
 10
19.81250000000005
 20
22.22143424691529
 30
0.0
 11
4.375000000000032
 21
22.22143424691524
 31
0.0
  0
LINE
  5
228
330
223
100
AcDbEntity
  8
치수문자_일반주서
 62
     0
370
    -2
100
AcDbLine
 10
4.374999999999983
 20
36.22143424691524
 30
0.0
 11
4.375000000000032
 21
22.22143424691524
 31
0.0
  0
LINE
  5
229
330
223
100
AcDbEntity
  8
치수문자_일반주서
 62
     0
370
    -2
100
AcDbLine
 10
4.374999999999972
 20
39.52343424691524
 30
0.0
 11
4.37499999999996
 21
42.82543424691524
 31
0.0
  0
LINE
  5
22A
330
223
100
AcDbEntity
  8
치수문자_일반주서
 62
     0
370
    -2
100
AcDbLine
 10
4.375000000000044
 20
18.91943424691524
 30
0.0
 11
4.375000000000055
 21
15.61743424691524
 31
0.0
  0
SOLID
  5
22B
330
223
100
AcDbEntity
  8
치수문자_일반주서
 62
     0
100
AcDbTrace
 10
3.824666666666638
 20
39.52343424691524
 30
0.0
 11
4.925333333333305
 21
39.52343424691524
 31
0.0
 12
4.374999999999983
 22
36.22143424691524
 32
0.0
 13
4.374999999999983
 23
36.22143424691524
 33
0.0
  0
SOLID
  5
22C
330
223
100
AcDbEntity
  8
치수문자_일반주서
 62
     0
100
AcDbTrace
 10
4.925333333333377
 20
18.91943424691524
 30
0.0
 11
3.82466666666671
 21
18.91943424691523
 31
0.0
 12
4.375000000000032
 22
22.22143424691524
 32
0.0
 13
4.375000000000032
 23
22.22143424691524
 33
0.0
  0
MTEXT
  5
22D
330
223
100
AcDbEntity
  8
치수문자_일반주서
 62
     0
100
AcDbMText
 10
0.0000000000000071
 20
29.22143424691528
 30
0.0
 40
3.5
 41
0.0
 71
     2
 72
     1
  1
\A1;%%c14.00 [0.55]
  7
SLDTEXTSTYLE0
 11
-3.489272363107635E-15
 21
1.0
 31
0.0
 73
     1
 44
1.0
  0
POINT
  5
22E
330
223
100
AcDbEntity
  8
Defpoints
 62
     0
100
AcDbPoint
 10
19.87500000000005
 20
36.22143424691529
 30
0.0
  0
POINT
  5
22F
330
223
100
AcDbEntity
  8
Defpoints
 62
     0
100
AcDbPoint
 10
19.87500000000005
 20
22.22143424691529
 30
0.0
  0
POINT
  5
230
330
223
100
AcDbEntity
  8
Defpoints
 62
     0
100
AcDbPoint
 10
4.375000000000043
 20
22.22143424691524
 30
0.0
  0
ENDBLK
  5
225
330
223
100
AcDbEntity
  8
0
100
AcDbBlockEnd
  0
BLOCK
  5
27F
330
27E
100
AcDbEntity
  8
0
100
AcDbBlockBegin
  2
*D12
 70
     1
 10
0.0
 20
0.0
 30
0.0
  3
*D12
  1
*D13
  0
LINE
  5
281
330
27E
100
AcDbEntity
  8
치수문자_일반주서
 62
     0
370
    -2
100
AcDbLine
 10
-79.87478286265583
 20
105.7747958133735
 30
0.0
 11
-79.87478286265583
 21
140.8747799814522
 31
0.0
  0
LINE
  5
282
330
27E
100
AcDbEntity
  8
치수문자_일반주서
 62
     0
370
    -2
100
AcDbLine
 10
3.12521713734418
 20
106.3372958133735
 30
0.0
 11
3.12521713734418
 21
140.8747799814522
 31
0.0
  0
LINE
  5
283
330
27E
100
AcDbEntity
  8
치수문자_일반주서
 62
     0
370
    -2
100
AcDbLine
 10
-76.57278286265583
 20
140.8747799814522
 30
0.0
 11
-0.1767828626558199
 21
140.8747799814522
 31
0.0
  0
SOLID
  5
284
330
27E
100
AcDbEntity
  8
치수문자_일반주서
 62
     0
100
AcDbTrace
 10
-76.57278286265583
 20
141.4251133147855
 30
0.0
 11
-76.57278286265583
 21
140.3244466481189
 31
0.0
 12
-79.87478286265583
 22
140.8747799814522
 32
0.0
 13
-79.87478286265583
 23
140.8747799814522
 33
0.0
  0
SOLID
  5
285
330
27E
100
AcDbEntity
  8
치수문자_일반주서
 62
     0
100
AcDbTrace
 10
-0.1767828626558199
 20
140.3244466481189
 30
0.0
 11
-0.1767828626558199
 21
141.4251133147855
 31
0.0
 12
3.12521713734418
 22
140.8747799814522
 32
0.0
 13
3.12521713734418
 23
140.8747799814522
 33
0.0
  0
MTEXT
  5
286
330
27E
100
AcDbEntity
  8
치수문자_일반주서
 62
     0
100
AcDbMText
 10
-38.37478286265583
 20
145.2497799814522
 30
0.0
 40
3.5
 41
0.0
 71
     2
 72
     1
  1
\A1;83 [3.27]
  7
SLDTEXTSTYLE0
 73
     1
 44
1.0
  0
POINT
  5
287
330
27E
100
AcDbEntity
  8
Defpoints
 62
     0
100
AcDbPoint
 10
-79.87478286265583
 20
105.7122958133735
 30
0.0
  0
POINT
  5
288
330
27E
100
AcDbEntity
  8
Defpoints
 62
     0
100
AcDbPoint
 10
3.12521713734418
 20
106.2747958133735
 30
0.0
  0
POINT
  5
289
330
27E
100
AcDbEntity
  8
Defpoints
 62
     0
100
AcDbPoint
 10
3.12521713734418
 20
140.8747799814522
 30
0.0
  0
ENDBLK
  5
280
330
27E
100
AcDbEntity
  8
0
100
AcDbBlockEnd
  0
BLOCK
  5
28B
330
28A
100
AcDbEntity
  8
0
100
AcDbBlockBegin
  2
*D13
 70
     1
 10
0.0
 20
0.0
 30
0.0
  3
*D13
  1
*D14
  0
LINE
  5
28D
330
28A
100
AcDbEntity
  8
치수문자_일반주서
 62
     0
370
    -2
100
AcDbLine
 10
-22.87474099842706
 20
98.61124832958859
 30
0.0
 11
-22.87474099842706
 21
131.8917754026354
 31
0.0
  0
LINE
  5
28E
330
28A
100
AcDbEntity
  8
치수문자_일반주서
 62
     0
370
    -2
100
AcDbLine
 10
3.12521713734418
 20
106.2747958133735
 30
0.0
 11
3.12521713734418
 21
131.8917754026354
 31
0.0
  0
LINE
  5
28F
330
28A
100
AcDbEntity
  8
치수문자_일반주서
 62
     0
370
    -2
100
AcDbLine
 10
-19.57274099842706
 20
131.8917754026354
 30
0.0
 11
-0.1767828626558199
 21
131.8917754026354
 31
0.0
  0
SOLID
  5
290
330
28A
100
AcDbEntity
  8
치수문자_일반주서
 62
     0
100
AcDbTrace
 10
-19.57274099842706
 20
132.4421087359687
 30
0.0
 11
-19.57274099842706
 21
131.3414420693021
 31
0.0
 12
-22.87474099842706
 22
131.8917754026354
 32
0.0
 13
-22.87474099842706
 23
131.8917754026354
 33
0.0
  0
SOLID
  5
291
330
28A
100
AcDbEntity
  8
치수문자_일반주서
 62
     0
100
AcDbTrace
 10
-0.1767828626558199
 20
131.3414420693021
 30
0.0
 11
-0.1767828626558199
 21
132.4421087359687
 31
0.0
 12
3.12521713734418
 22
131.8917754026354
 32
0.0
 13
3.12521713734418
 23
131.8917754026354
 33
0.0
  0
MTEXT
  5
292
330
28A
100
AcDbEntity
  8
치수문자_일반주서
 62
     0
100
AcDbMText
 10
-9.828187135723795
 20
136.2667754026354
 30
0.0
 40
3.5
 41
0.0
 71
     2
 72
     1
  1
\A1;26 [1.02]
  7
SLDTEXTSTYLE0
 73
     1
 44
1.0
  0
POINT
  5
293
330
28A
100
AcDbEntity
  8
Defpoints
 62
     0
100
AcDbPoint
 10
-22.87474099842706
 20
98.54874832958859
 30
0.0
  0
POINT
  5
294
330
28A
100
AcDbEntity
  8
Defpoints
 62
     0
100
AcDbPoint
 10
3.12521713734418
 20
106.2122958133735
 30
0.0
  0
POINT
  5
295
330
28A
100
AcDbEntity
  8
Defpoints
 62
     0
100
AcDbPoint
 10
3.12521713734418
 20
131.8917754026354
 30
0.0
  0
ENDBLK
  5
28C
330
28A
100
AcDbEntity
  8
0
100
AcDbBlockEnd
  0
BLOCK
  5
297
330
296
100
AcDbEntity
  8
0
100
AcDbBlockBegin
  2
*D14
 70
     1
 10
0.0
 20
0.0
 30
0.0
  3
*D14
  1
*D15
  0
LINE
  5
299
330
296
100
AcDbEntity
  8
치수문자_일반주서
 62
     0
370
    -2
100
AcDbLine
 10
-79.43728286265582
 20
106.2122958133735
 30
0.0
 11
-94.87478286265589
 21
106.2122958133734
 31
0.0
  0
LINE
  5
29A
330
296
100
AcDbEntity
  8
치수문자_일반주서
 62
     0
370
    -2
100
AcDbLine
 10
-79.43728286265582
 20
92.21229581337346
 30
0.0
 11
-94.87478286265585
 21
92.2122958133734
 31
0.0
  0
LINE
  5
29B
330
296
100
AcDbEntity
  8
치수문자_일반주서
 62
     0
370
    -2
100
AcDbLine
 10
-94.87478286265589
 20
106.2122958133734
 30
0.0
 11
-94.87478286265585
 21
92.2122958133734
 31
0.0
  0
LINE
  5
29C
330
296
100
AcDbEntity
  8
치수문자_일반주서
 62
     0
370
    -2
100
AcDbLine
 10
-94.8747828626559
 20
109.5142958133734
 30
0.0
 11
-94.87478286265592
 21
112.8162958133734
 31
0.0
  0
LINE
  5
29D
330
296
100
AcDbEntity
  8
치수문자_일반주서
 62
     0
370
    -2
100
AcDbLine
 10
-94.87478286265583
 20
88.91029581337341
 30
0.0
 11
-94.87478286265582
 21
85.60829581337342
 31
0.0
  0
SOLID
  5
29E
330
296
100
AcDbEntity
  8
치수문자_일반주서
 62
     0
100
AcDbTrace
 10
-95.42511619598923
 20
109.5142958133734
 30
0.0
 11
-94.32444952932258
 21
109.5142958133734
 31
0.0
 12
-94.87478286265589
 22
106.2122958133734
 32
0.0
 13
-94.87478286265589
 23
106.2122958133734
 33
0.0
  0
SOLID
  5
29F
330
296
100
AcDbEntity
  8
치수문자_일반주서
 62
     0
100
AcDbTrace
 10
-94.32444952932251
 20
88.91029581337341
 30
0.0
 11
-95.42511619598916
 21
88.91029581337341
 31
0.0
 12
-94.87478286265585
 22
92.2122958133734
 32
0.0
 13
-94.87478286265585
 23
92.2122958133734
 33
0.0
  0
MTEXT
  5
2A0
330
296
100
AcDbEntity
  8
치수문자_일반주서
 62
     0
100
AcDbMText
 10
-99.24978286265588
 20
99.21229581337344
 30
0.0
 40
3.5
 41
0.0
 71
     2
 72
     1
  1
\A1;%%c14.00 [0.55]
  7
SLDTEXTSTYLE0
 11
-3.045183153257572E-15
 21
1.0
 31
0.0
 73
     1
 44
1.0
  0
POINT
  5
2A1
330
296
100
AcDbEntity
  8
Defpoints
 62
     0
100
AcDbPoint
 10
-79.37478286265582
 20
106.2122958133735
 30
0.0
  0
POINT
  5
2A2
330
296
100
AcDbEntity
  8
Defpoints
 62
     0
100
AcDbPoint
 10
-79.37478286265582
 20
92.21229581337346
 30
0.0
  0
POINT
  5
2A3
330
296
100
AcDbEntity
  8
Defpoints
 62
     0
100
AcDbPoint
 10
-94.87478286265585
 20
92.2122958133734
 30
0.0
  0
ENDBLK
  5
298
330
296
100
AcDbEntity
  8
0
100
AcDbBlockEnd
  0
BLOCK
  5
2A5
330
2A4
100
AcDbEntity
  8
0
100
AcDbBlockBegin
  2
*D15
 70
     1
 10
0.0
 20
0.0
 30
0.0
  3
*D15
  1
*D16
  0
LINE
  5
2A7
330
2A4
100
AcDbEntity
  8
치수문자_일반주서
 62
     0
370
    -2
100
AcDbLine
 10
3.187717137344194
 20
106.2122958133735
 30
0.0
 11
18.12521713734418
 21
106.2122958133735
 31
0.0
  0
LINE
  5
2A8
330
2A4
100
AcDbEntity
  8
치수문자_일반주서
 62
     0
370
    -2
100
AcDbLine
 10
3.18771713734418
 20
92.21229581337346
 30
0.0
 11
18.12521713734423
 21
92.21229581337352
 31
0.0
  0
LINE
  5
2A9
330
2A4
100
AcDbEntity
  8
치수문자_일반주서
 62
     0
370
    -2
100
AcDbLine
 10
18.12521713734418
 20
106.2122958133735
 30
0.0
 11
18.12521713734423
 21
92.21229581337352
 31
0.0
  0
LINE
  5
2AA
330
2A4
100
AcDbEntity
  8
치수문자_일반주서
 62
     0
370
    -2
100
AcDbLine
 10
18.12521713734417
 20
109.5142958133735
 30
0.0
 11
18.12521713734416
 21
112.8162958133735
 31
0.0
  0
LINE
  5
2AB
330
2A4
100
AcDbEntity
  8
치수문자_일반주서
 62
     0
370
    -2
100
AcDbLine
 10
18.12521713734424
 20
88.91029581337352
 30
0.0
 11
18.12521713734425
 21
85.60829581337353
 31
0.0
  0
SOLID
  5
2AC
330
2A4
100
AcDbEntity
  8
치수문자_일반주서
 62
     0
100
AcDbTrace
 10
17.57488380401084
 20
109.5142958133735
 30
0.0
 11
18.67555047067751
 21
109.5142958133735
 31
0.0
 12
18.12521713734418
 22
106.2122958133735
 32
0.0
 13
18.12521713734418
 23
106.2122958133735
 33
0.0
  0
SOLID
  5
2AD
330
2A4
100
AcDbEntity
  8
치수문자_일반주서
 62
     0
100
AcDbTrace
 10
18.67555047067758
 20
88.91029581337352
 30
0.0
 11
17.57488380401091
 21
88.91029581337352
 31
0.0
 12
18.12521713734423
 22
92.21229581337352
 32
0.0
 13
18.12521713734423
 23
92.21229581337352
 33
0.0
  0
MTEXT
  5
2AE
330
2A4
100
AcDbEntity
  8
치수문자_일반주서
 62
     0
100
AcDbMText
 10
13.75021713734421
 20
99.27800019508649
 30
0.0
 40
3.5
 41
0.0
 71
     2
 72
     1
  1
\A1;%%c14.00 [0.55]
  7
SLDTEXTSTYLE0
 11
-3.552713678800501E-15
 21
1.0
 31
0.0
 73
     1
 44
1.0
  0
POINT
  5
2AF
330
2A4
100
AcDbEntity
  8
Defpoints
 62
     0
100
AcDbPoint
 10
3.125217137344194
 20
106.2122958133735
 30
0.0
  0
POINT
  5
2B0
330
2A4
100
AcDbEntity
  8
Defpoints
 62
     0
100
AcDbPoint
 10
3.12521713734418
 20
92.21229581337346
 30
0.0
  0
POINT
  5
2B1
330
2A4
100
AcDbEntity
  8
Defpoints
 62
     0
100
AcDbPoint
 10
18.12521713734424
 20
92.21229581337352
 30
0.0
  0
ENDBLK
  5
2A6
330
2A4
100
AcDbEntity
  8
0
100
AcDbBlockEnd
  0
BLOCK
  5
2B3
330
2B2
100
AcDbEntity
  8
0
100
AcDbBlockBegin
  2
*D16
 70
     1
 10
0.0
 20
0.0
 30
0.0
  3
*D16
  1
*D17
  0
LINE
  5
2B5
330
2B2
100
AcDbEntity
  8
치수문자_일반주서
 62
     0
370
    -2
100
AcDbLine
 10
4.61599231901363
 20
89.47315732049468
 30
0.0
 11
20.36964388429092
 21
63.84080081015412
 31
0.0
  0
MTEXT
  5
2B6
330
2B2
100
AcDbEntity
  8
치수문자_일반주서
 62
     0
100
AcDbMText
 10
16.4208555387718
 20
75.27901972099389
 30
0.0
 40
3.5
 41
0.0
 71
     5
 72
     1
  1
\A1;R.5 [R0.02]
  7
SLDTEXTSTYLE0
 11
0.5236126201129557
 21
-0.8519564684057781
 31
0.0
 73
     1
 44
1.0
  0
SOLID
  5
2B7
330
2B2
100
AcDbEntity
  8
치수문자_일반주서
 62
     0
100
AcDbTrace
 10
5.084852362126276
 20
89.76131879909684
 30
0.0
 11
4.147132275900984
 21
89.18499584189252
 31
0.0
 12
2.887023447400651
 22
92.28631757917056
 32
0.0
 13
2.887023447400651
 23
92.28631757917056
 33
0.0
  0
LINE
  5
2B8
330
2B2
100
AcDbEntity
  8
치수문자_일반주서
 62
     0
100
AcDbLine
 10
2.535217137344166
 20
92.71229581337346
 30
0.0
 11
2.715217137344165
 21
92.71229581337346
 31
0.0
  0
LINE
  5
2B9
330
2B2
100
AcDbEntity
  8
치수문자_일반주서
 62
     0
100
AcDbLine
 10
2.625217137344166
 20
92.62229581337346
 30
0.0
 11
2.625217137344166
 21
92.80229581337346
 31
0.0
  0
POINT
  5
2BA
330
2B2
100
AcDbEntity
  8
Defpoints
 62
     0
100
AcDbPoint
 10
2.887023447400651
 20
92.28631757917056
 30
0.0
  0
POINT
  5
2BB
330
2B2
100
AcDbEntity
  8
Defpoints
 62
     0
100
AcDbPoint
 10
2.625217137344166
 20
92.71229581337346
 30
0.0
  0
ENDBLK
  5
2B4
330
2B2
100
AcDbEntity
  8
0
100
AcDbBlockEnd
  0
BLOCK
  5
2E6
330
2E5
100
AcDbEntity
  8
0
100
AcDbBlockBegin
  2
*D17
 70
     1
 10
0.0
 20
0.0
 30
0.0
  3
*D17
  1
*D18
  0
LINE
  5
2E8
330
2E5
100
AcDbEntity
  8
치수문자_일반주서
 62
     0
370
    -2
100
AcDbLine
 10
95.18072013824286
 20
2.183887428723909
 30
0.0
 11
110.6870063137931
 21
2.183887428723967
 31
0.0
  0
LINE
  5
2E9
330
2E5
100
AcDbEntity
  8
치수문자_일반주서
 62
     0
370
    -2
100
AcDbLine
 10
95.18072013824286
 20
-2.181737571276094
 30
0.0
 11
110.6870063137931
 21
-2.181737571276038
 31
0.0
  0
LINE
  5
2EA
330
2E5
100
AcDbEntity
  8
치수문자_일반주서
 62
     0
370
    -2
100
AcDbLine
 10
110.6870063137931
 20
2.183887428723967
 30
0.0
 11
110.687006313793
 21
38.53788742872396
 31
0.0
  0
LINE
  5
2EB
330
2E5
100
AcDbEntity
  8
치수문자_일반주서
 62
     0
370
    -2
100
AcDbLine
 10
110.6870063137931
 20
2.183887428723967
 30
0.0
 11
110.6870063137931
 21
-2.181737571276038
 31
0.0
  0
LINE
  5
2EC
330
2E5
100
AcDbEntity
  8
치수문자_일반주서
 62
     0
370
    -2
100
AcDbLine
 10
110.6870063137931
 20
5.485887428723967
 30
0.0
 11
110.687006313793
 21
8.787887428723966
 31
0.0
  0
LINE
  5
2ED
330
2E5
100
AcDbEntity
  8
치수문자_일반주서
 62
     0
370
    -2
100
AcDbLine
 10
110.6870063137931
 20
-5.483737571276038
 30
0.0
 11
110.6870063137931
 21
-8.785737571276037
 31
0.0
  0
SOLID
  5
2EE
330
2E5
100
AcDbEntity
  8
치수문자_일반주서
 62
     0
100
AcDbTrace
 10
110.1366729804597
 20
5.485887428723965
 30
0.0
 11
111.2373396471264
 21
5.485887428723968
 31
0.0
 12
110.6870063137931
 22
2.183887428723967
 32
0.0
 13
110.6870063137931
 23
2.183887428723967
 33
0.0
  0
SOLID
  5
2EF
330
2E5
100
AcDbEntity
  8
치수문자_일반주서
 62
     0
100
AcDbTrace
 10
111.2373396471264
 20
-5.483737571276036
 30
0.0
 11
110.1366729804598
 21
-5.483737571276039
 31
0.0
 12
110.6870063137931
 22
-2.181737571276038
 32
0.0
 13
110.6870063137931
 23
-2.181737571276038
 33
0.0
  0
MTEXT
  5
2F0
330
2E5
100
AcDbEntity
  8
치수문자_일반주서
 62
     0
100
AcDbMText
 10
106.312006313793
 20
23.66288742872395
 30
0.0
 40
3.5
 41
0.0
 71
     2
 72
     1
  1
\A1;%%c4.37 [11/64]
  7
SLDTEXTSTYLE0
 11
-3.255170729323292E-15
 21
1.0
 31
0.0
 73
     1
 44
1.0
  0
POINT
  5
2F1
330
2E5
100
AcDbEntity
  8
Defpoints
 62
     0
100
AcDbPoint
 10
95.11822013824286
 20
2.183887428723909
 30
0.0
  0
POINT
  5
2F2
330
2E5
100
AcDbEntity
  8
Defpoints
 62
     0
100
AcDbPoint
 10
95.11822013824286
 20
-2.181737571276094
 30
0.0
  0
POINT
  5
2F3
330
2E5
100
AcDbEntity
  8
Defpoints
 62
     0
100
AcDbPoint
 10
110.6870063137931
 20
-2.181737571276036
 30
0.0
  0
ENDBLK
  5
2E7
330
2E5
100
AcDbEntity
  8
0
100
AcDbBlockEnd
  0
BLOCK
  5
2F5
330
2F4
100
AcDbEntity
  8
0
100
AcDbBlockBegin
  2
*D18
 70
     1
 10
0.0
 20
0.0
 30
0.0
  3
*D18
  1
*D19
  0
LINE
  5
2F7
330
2F4
100
AcDbEntity
  8
치수문자_일반주서
 62
     0
370
    -2
100
AcDbLine
 10
95.11822013824286
 20
2.238360335544313
 30
0.0
 11
95.11822013824286
 21
16.1036959555239
 31
0.0
  0
LINE
  5
2F8
330
2F4
100
AcDbEntity
  8
치수문자_일반주서
 62
     0
370
    -2
100
AcDbLine
 10
87.18072013824286
 20
1.859943887225589
 30
0.0
 11
87.18072013824286
 21
16.1036959555239
 31
0.0
  0
LINE
  5
2F9
330
2F4
100
AcDbEntity
  8
치수문자_일반주서
 62
     0
370
    -2
100
AcDbLine
 10
87.18072013824286
 20
16.1036959555239
 30
0.0
 11
49.2609166757311
 21
16.1036959555239
 31
0.0
  0
LINE
  5
2FA
330
2F4
100
AcDbEntity
  8
치수문자_일반주서
 62
     0
370
    -2
100
AcDbLine
 10
95.11822013824286
 20
16.1036959555239
 30
0.0
 11
87.18072013824286
 21
16.1036959555239
 31
0.0
  0
LINE
  5
2FB
330
2F4
100
AcDbEntity
  8
치수문자_일반주서
 62
     0
370
    -2
100
AcDbLine
 10
98.42022013824285
 20
16.1036959555239
 30
0.0
 11
101.7222201382428
 21
16.1036959555239
 31
0.0
  0
LINE
  5
2FC
330
2F4
100
AcDbEntity
  8
치수문자_일반주서
 62
     0
370
    -2
100
AcDbLine
 10
83.87872013824287
 20
16.1036959555239
 30
0.0
 11
80.57672013824288
 21
16.1036959555239
 31
0.0
  0
SOLID
  5
2FD
330
2F4
100
AcDbEntity
  8
치수문자_일반주서
 62
     0
100
AcDbTrace
 10
98.42022013824285
 20
16.65402928885723
 30
0.0
 11
98.42022013824285
 21
15.55336262219056
 31
0.0
 12
95.11822013824286
 22
16.1036959555239
 32
0.0
 13
95.11822013824286
 23
16.1036959555239
 33
0.0
  0
SOLID
  5
2FE
330
2F4
100
AcDbEntity
  8
치수문자_일반주서
 62
     0
100
AcDbTrace
 10
83.87872013824287
 20
15.55336262219056
 30
0.0
 11
83.87872013824287
 21
16.65402928885723
 31
0.0
 12
87.18072013824286
 22
16.1036959555239
 32
0.0
 13
87.18072013824286
 23
16.1036959555239
 33
0.0
  0
MTEXT
  5
2FF
330
2F4
100
AcDbEntity
  8
치수문자_일반주서
 62
     0
100
AcDbMText
 10
61.9484166757311
 20
20.4786959555239
 30
0.0
 40
3.5
 41
0.0
 71
     2
 72
     1
  1
\A1;7.94 [5/16]
  7
SLDTEXTSTYLE0
 73
     1
 44
1.0
  0
POINT
  5
300
330
2F4
100
AcDbEntity
  8
Defpoints
 62
     0
100
AcDbPoint
 10
95.11822013824286
 20
2.175860335544313
 30
0.0
  0
POINT
  5
301
330
2F4
100
AcDbEntity
  8
Defpoints
 62
     0
100
AcDbPoint
 10
87.18072013824286
 20
1.797443887225589
 30
0.0
  0
POINT
  5
302
330
2F4
100
AcDbEntity
  8
Defpoints
 62
     0
100
AcDbPoint
 10
87.18072013824286
 20
16.1036959555239
 30
0.0
  0
ENDBLK
  5
2F6
330
2F4
100
AcDbEntity
  8
0
100
AcDbBlockEnd
  0
BLOCK
  5
304
330
303
100
AcDbEntity
  8
0
100
AcDbBlockBegin
  2
*D19
 70
     1
 10
0.0
 20
0.0
 30
0.0
  3
*D19
  1
*D20
  0
LINE
  5
306
330
303
100
AcDbEntity
  8
치수문자_일반주서
 62
     0
370
    -2
100
AcDbLine
 10
95.11822013824286
 20
2.238360335544313
 30
0.0
 11
95.11822013824286
 21
31.1580494358828
 31
0.0
  0
LINE
  5
307
330
303
100
AcDbEntity
  8
치수문자_일반주서
 62
     0
370
    -2
100
AcDbLine
 10
44.31822013824287
 20
1.968574928723895
 30
0.0
 11
44.31822013824287
 21
31.1580494358828
 31
0.0
  0
LINE
  5
308
330
303
100
AcDbEntity
  8
치수문자_일반주서
 62
     0
370
    -2
100
AcDbLine
 10
91.81622013824287
 20
31.1580494358828
 30
0.0
 11
47.62022013824287
 21
31.1580494358828
 31
0.0
  0
SOLID
  5
309
330
303
100
AcDbEntity
  8
치수문자_일반주서
 62
     0
100
AcDbTrace
 10
91.81622013824287
 20
30.60771610254947
 30
0.0
 11
91.81622013824287
 21
31.70838276921614
 31
0.0
 12
95.11822013824286
 22
31.1580494358828
 32
0.0
 13
95.11822013824286
 23
31.1580494358828
 33
0.0
  0
SOLID
  5
30A
330
303
100
AcDbEntity
  8
치수문자_일반주서
 62
     0
100
AcDbTrace
 10
47.62022013824287
 20
31.70838276921614
 30
0.0
 11
47.62022013824287
 21
30.60771610254947
 31
0.0
 12
44.31822013824287
 22
31.1580494358828
 32
0.0
 13
44.31822013824287
 23
31.1580494358828
 33
0.0
  0
MTEXT
  5
30B
330
303
100
AcDbEntity
  8
치수문자_일반주서
 62
     0
100
AcDbMText
 10
71.35739280628745
 20
35.5330494358828
 30
0.0
 40
3.5
 41
0.0
 71
     2
 72
     1
  1
\A1;50.8 [2]
  7
SLDTEXTSTYLE0
 73
     1
 44
1.0
  0
POINT
  5
30C
330
303
100
AcDbEntity
  8
Defpoints
 62
     0
100
AcDbPoint
 10
95.11822013824286
 20
2.175860335544313
 30
0.0
  0
POINT
  5
30D
330
303
100
AcDbEntity
  8
Defpoints
 62
     0
100
AcDbPoint
 10
44.31822013824287
 20
1.906074928723895
 30
0.0
  0
POINT
  5
30E
330
303
100
AcDbEntity
  8
Defpoints
 62
     0
100
AcDbPoint
 10
44.31822013824287
 20
31.1580494358828
 30
0.0
  0
ENDBLK
  5
305
330
303
100
AcDbEntity
  8
0
100
AcDbBlockEnd
  0
ENDSEC
  0
SECTION
  2
ENTITIES
  0
LINE
  5
96
330
1F
100
AcDbEntity
  8
0
  6
Continuous
 62
     1
370
    15
100
AcDbLine
 10
21.11655826913386
 20
2.182812500000001
 30
0.0
 11
19.78533018298057
 21
2.182812500000001
 31
0.0
  0
LINE
  5
97
330
1F
100
AcDbEntity
  8
0
  6
Continuous
 62
     1
370
    15
100
AcDbLine
 10
19.78533018298054
 20
-2.182812500000001
 30
0.0
 11
21.11655826913386
 21
-2.182812500000001
 31
0.0
  0
LINE
  5
98
330
1F
100
AcDbEntity
  8
외형선
  6
Continuous
370
    15
100
AcDbLine
 10
15.72192116787304
 20
-2.381250000000005
 30
0.0
 11
16.46250000000001
 21
-2.1828125
 31
0.0
  0
LINE
  5
99
330
1F
100
AcDbEntity
  8
외형선
  6
Continuous
370
    15
100
AcDbLine
 10
16.46250000000001
 20
2.182812500000001
 30
0.0
 11
15.72192116787304
 21
2.381250000000005
 31
0.0
  0
LINE
  5
9A
330
1F
100
AcDbEntity
  8
외형선
  6
Continuous
370
    15
100
AcDbLine
 10
-15.72192116787303
 20
-2.381250000000002
 30
0.0
 11
15.72192116787304
 21
-2.381250000000002
 31
0.0
  0
LINE
  5
9B
330
1F
100
AcDbEntity
  8
외형선
  6
Continuous
370
    15
100
AcDbLine
 10
15.72192116787304
 20
2.381250000000003
 30
0.0
 11
-15.72192116787301
 21
2.381250000000003
 31
0.0
  0
LINE
  5
9E
330
1F
100
AcDbEntity
  8
외형선
  6
Continuous
370
    15
100
AcDbLine
 10
16.46250000000001
 20
-2.1828125
 30
0.0
 11
16.96235854062041
 21
-2.1828125
 31
0.0
  0
LINE
  5
9F
330
1F
100
AcDbEntity
  8
외형선
  6
Continuous
370
    15
100
AcDbLine
 10
16.96235854062041
 20
2.1828125
 30
0.0
 11
16.46250000000001
 21
2.1828125
 31
0.0
  0
SPLINE
  5
A0
330
1F
100
AcDbEntity
  8
0
  6
Continuous
 62
     1
370
    15
100
AcDbSpline
210
0.0
220
0.0
230
1.0
 70
     8
 71
     3
 72
    14
 73
    10
 74
     0
 42
0.000000001
 43
0.00000001
 40
0.0
 40
0.0
 40
0.0
 40
0.0
 40
0.1491473996455056
 40
0.2983112607315689
 40
0.447593822021045
 40
0.5970648861756072
 40
0.7464111494852818
 40
0.8929310028556332
 40
1.0
 40
1.0
 40
1.0
 40
1.0
 10
17.46249999999989
 20
-1.240052004993215
 30
0.0
 10
17.75856036407456
 20
-1.374185843969922
 30
0.0
 10
18.35071376848978
 20
-1.642468326312968
 30
0.0
 10
19.23919523843227
 20
-1.93639827999846
 30
0.0
 10
20.12843960203454
 20
-2.128415909370264
 30
0.0
 10
21.01841450373949
 20
-2.202787302067573
 30
0.0
 10
21.90265310101845
 20
-2.153213147702269
 30
0.0
 10
22.70247413129053
 20
-2.013805304296923
 30
0.0
 10
23.20582799952293
 20
-1.850051341132694
 30
0.0
 10
23.41835151453942
 20
-1.78091197408709
 30
0.0
  0
SPLINE
  5
A1
330
1F
100
AcDbEntity
  8
외형선
  6
Continuous
370
    15
100
AcDbSpline
210
0.0
220
0.0
230
1.0
 70
    24
 71
     3
 72
    22
 73
    18
 74
     0
 42
0.000000001
 43
0.00000001
 40
0.0
 40
0.0
 40
0.0
 40
0.0
 40
0.125
 40
0.125
 40
0.25
 40
0.25
 40
0.375
 40
0.375
 40
0.5
 40
0.5
 40
0.625
 40
0.625
 40
0.75
 40
0.75
 40
0.875
 40
0.875
 40
1.0
 40
1.0
 40
1.0
 40
1.0
 10
17.46249999999999
 20
1.25863881008606
 30
0.0
 10
17.46249999999999
 20
1.226487505831726
 30
0.0
 10
17.46250000000001
 20
1.185627078913296
 30
0.0
 10
17.46250000000001
 20
1.098135175243081
 30
0.0
 10
17.46250000000001
 20
1.042635914482173
 30
0.0
 10
17.46250000000001
 20
0.8990009681993515
 30
0.0
 10
17.46250000000001
 20
0.8106386944456224
 30
0.0
 10
17.46250000000001
 20
0.594792458297747
 30
0.0
 10
17.4625
 20
0.4669400889598066
 30
0.0
 10
17.46249999999999
 20
0.177663197691515
 30
0.0
 10
17.46250000000001
 20
0.0161351578960215
 30
0.0
 10
17.46250000000001
 20
-0.3137571762814121
 30
0.0
 10
17.46250000000001
 20
-0.4814224721608672
 30
0.0
 10
17.46250000000001
 20
-0.7831631827365494
 30
0.0
 10
17.46249999999998
 20
-0.916359071284087
 30
0.0
 10
17.46250000000001
 20
-1.122581964329216
 30
0.0
 10
17.46250000000001
 20
-1.195665337861093
 30
0.0
 10
17.4625
 20
-1.240052004993274
 30
0.0
  0
SPLINE
  5
A2
330
1F
100
AcDbEntity
  8
0
  6
Continuous
 62
     1
370
    15
100
AcDbSpline
210
0.0
220
0.0
230
1.0
 70
     8
 71
     3
 72
    32
 73
    28
 74
     0
 42
0.000000001
 43
0.00000001
 40
0.0
 40
0.0
 40
0.0
 40
0.0
 40
0.1250000000000017
 40
0.1250000000000017
 40
0.1875000000000016
 40
0.1875000000000016
 40
0.2500000000000014
 40
0.2500000000000014
 40
0.3125000000000013
 40
0.3125000000000013
 40
0.3750000000000012
 40
0.3750000000000012
 40
0.437500000000001
 40
0.437500000000001
 40
0.5000000000000009
 40
0.5000000000000009
 40
0.5625000000000008
 40
0.5625000000000008
 40
0.6250000000000006
 40
0.6250000000000006
 40
0.7500000000000004
 40
0.7500000000000004
 40
0.8750000000000002
 40
0.8750000000000002
 40
0.9375000000000001
 40
0.9375000000000001
 40
1.0
 40
1.0
 40
1.0
 40
1.0
 10
25.4
 20
-2.182812499999987
 30
0.0
 10
25.07260638979271
 20
-2.15847885996228
 30
0.0
 10
24.73592375162171
 20
-2.116795451848409
 30
0.0
 10
24.24258665550254
 20
-2.019214055125004
 30
0.0
 10
24.07828570172283
 20
-1.980835979196471
 30
0.0
 10
23.74613482926297
 20
-1.892628169901697
 30
0.0
 10
23.579492194144
 20
-1.84287663907635
 30
0.0
 10
23.24936144345373
 20
-1.733425084732943
 30
0.0
 10
23.08604037265936
 20
-1.673787155478244
 30
0.0
 10
22.75442447128344
 20
-1.544650738253569
 30
0.0
 10
22.58766876804545
 20
-1.475313862063662
 30
0.0
 10
22.25656039067462
 20
-1.328903424347451
 30
0.0
 10
22.0934854991279
 20
-1.252056505734358
 30
0.0
 10
21.76267026109469
 20
-1.090914943733524
 30
0.0
 10
21.59593687537807
 20
-1.006752658640431
 30
0.0
 10
21.26411520594226
 20
-0.8333962090936545
 30
0.0
 10
21.10055213506305
 20
-0.744490708962427
 30
0.0
 10
20.77080111198908
 20
-0.5624696385383788
 30
0.0
 10
20.6042253688071
 20
-0.4692674290416158
 30
0.0
 10
20.10582229168479
 20
-0.1866523374752609
 30
0.0
 10
19.77868720693704
 20
0.0050962245540209
 30
0.0
 10
19.11379055808686
 20
0.3861347872871095
 30
0.0
 10
18.78675883852127
 20
0.5733635693395226
 30
0.0
 10
18.28821882914976
 20
0.8426645582120922
 30
0.0
 10
18.12172766055484
 20
0.9303085077747646
 30
0.0
 10
17.79239903913163
 20
1.099140818422607
 30
0.0
 10
17.6285020003556
 20
1.180530452274186
 30
0.0
 10
17.46249999999988
 20
1.258638810086083
 30
0.0
  0
LINE
  5
A3
330
1F
100
AcDbEntity
  8
0
  6
Continuous
 62
     1
370
    15
100
AcDbLine
 10
25.40000000000001
 20
-1.976932570172307
 30
0.0
 11
25.40000000000001
 21
0.1870263201723347
 31
0.0
  0
SPLINE
  5
A4
330
1F
100
AcDbEntity
  8
0
  6
Continuous
 62
     1
370
    15
100
AcDbSpline
210
0.0
220
0.0
230
1.0
 70
     8
 71
     3
 72
    32
 73
    28
 74
     0
 42
0.000000001
 43
0.00000001
 40
0.0
 40
0.0
 40
0.0
 40
0.0
 40
0.1249999999999981
 40
0.1249999999999981
 40
0.1874999999999981
 40
0.1874999999999981
 40
0.2499999999999981
 40
0.2499999999999981
 40
0.3124999999999981
 40
0.3124999999999981
 40
0.3749999999999981
 40
0.3749999999999981
 40
0.4374999999999981
 40
0.4374999999999981
 40
0.4999999999999981
 40
0.4999999999999981
 40
0.5624999999999981
 40
0.5624999999999981
 40
0.6249999999999981
 40
0.6249999999999981
 40
0.7499999999999981
 40
0.7499999999999981
 40
0.874999999999998
 40
0.874999999999998
 40
0.937499999999999
 40
0.937499999999999
 40
1.0
 40
1.0
 40
1.0
 40
1.0
 10
25.40000000000003
 20
-1.976932570172307
 30
0.0
 10
25.07260638979272
 20
-1.896246300499872
 30
0.0
 10
24.73592375162169
 20
-1.791882961908908
 30
0.0
 10
24.24258665550253
 20
-1.60762415289054
 30
0.0
 10
24.07828570172283
 20
-1.54145463966959
 30
0.0
 10
23.74613482926298
 20
-1.400152725358264
 30
0.0
 10
23.57949219414398
 20
-1.325171201142569
 30
0.0
 10
23.24936144345374
 20
-1.16852615084214
 30
0.0
 10
23.08604037265937
 20
-1.086919254553581
 30
0.0
 10
22.75442447128344
 20
-0.917118002929413
 30
0.0
 10
22.58766876804546
 20
-0.8291635606158373
 30
0.0
 10
22.2565603906746
 20
-0.6494220609730049
 30
0.0
 10
22.09348549912791
 20
-0.5578868925231879
 30
0.0
 10
21.76267026109469
 20
-0.3712872539573942
 30
0.0
 10
21.59593687537805
 20
-0.2763999799360413
 30
0.0
 10
21.26411520594225
 20
-0.0858906771078521
 30
0.0
 10
21.10055213506305
 20
0.0094327231292142
 30
0.0
 10
20.77080111198907
 20
0.1999837943035707
 30
0.0
 10
20.6042253688071
 20
0.2952845315626437
 30
0.0
 10
20.10582229168477
 20
0.5775649978832896
 30
0.0
 10
19.77868720693704
 20
0.7602999022573574
 30
0.0
 10
19.11379055808689
 20
1.10615018410025
 30
0.0
 10
18.7867588385213
 20
1.267396405952846
 30
0.0
 10
18.28821882914976
 20
1.486061225829347
 30
0.0
 10
18.12172766055484
 20
1.554906936019711
 30
0.0
 10
17.79239903913162
 20
1.68282072701296
 30
0.0
 10
17.62850200035562
 20
1.742057709434915
 30
0.0
 10
17.46249999999989
 20
1.796368958501735
 30
0.0
  0
SPLINE
  5
A5
330
1F
100
AcDbEntity
  8
0
  6
Continuous
 62
     1
370
    15
100
AcDbSpline
210
0.0
220
0.0
230
1.0
 70
     8
 71
     3
 72
    32
 73
    28
 74
     0
 42
0.000000001
 43
0.00000001
 40
0.0
 40
0.0
 40
0.0
 40
0.0
 40
0.1250000000000017
 40
0.1250000000000017
 40
0.1875000000000016
 40
0.1875000000000016
 40
0.2500000000000016
 40
0.2500000000000016
 40
0.3125000000000014
 40
0.3125000000000014
 40
0.3750000000000013
 40
0.3750000000000013
 40
0.4375000000000012
 40
0.4375000000000012
 40
0.500000000000001
 40
0.500000000000001
 40
0.562500000000001
 40
0.562500000000001
 40
0.6250000000000009
 40
0.6250000000000009
 40
0.7500000000000006
 40
0.7500000000000006
 40
0.8750000000000003
 40
0.8750000000000003
 40
0.9375000000000002
 40
0.9375000000000002
 40
1.0
 40
1.0
 40
1.0
 40
1.0
 10
25.4
 20
0.1870263201723346
 30
0.0
 10
25.07260638979271
 20
0.3766426271715047
 30
0.0
 10
24.7359237516217
 20
0.5658425011136584
 30
0.0
 10
24.24258665550252
 20
0.8345822832177949
 30
0.0
 10
24.07828570172282
 20
0.9220095678332758
 30
0.0
 10
23.74613482926296
 20
1.091682843205804
 30
0.0
 10
23.57949219414399
 20
1.173704152951304
 30
0.0
 10
23.24936144345372
 20
1.33004256365241
 30
0.0
 10
23.08604037265937
 20
1.404364469159626
 30
0.0
 10
22.75442447128344
 20
1.545269264851486
 30
0.0
 10
22.58766876804545
 20
1.611596320074951
 30
0.0
 10
22.2565603906746
 20
1.7343037159719
 30
0.0
 10
22.0934854991279
 20
1.790570528290519
 30
0.0
 10
21.7626702610947
 20
1.893064419366969
 30
0.0
 10
21.59593687537807
 20
1.939137917739126
 30
0.0
 10
21.26411520594225
 20
2.019717192668698
 30
0.0
 10
21.10055213506305
 20
2.054142730688004
 30
0.0
 10
20.77080111198907
 20
2.111254764231983
 30
0.0
 10
20.60422536880709
 20
2.133917304319562
 30
0.0
 10
20.10582229168479
 20
2.183210846661718
 30
0.0
 10
19.77868720693704
 20
2.191172267082739
 30
0.0
 10
19.11379055808688
 20
2.15688706277912
 30
0.0
 10
18.78675883852127
 20
2.114830870831856
 30
0.0
 10
18.28821882914976
 20
2.015870307997933
 30
0.0
 10
18.12172766055484
 20
1.976938819957332
 30
0.0
 10
17.79239903913163
 20
1.88829300659873
 30
0.0
 10
17.62850200035564
 20
1.8385205944731
 30
0.0
 10
17.46249999999988
 20
1.783395288740356
 30
0.0
  0
LINE
  5
A6
330
1F
100
AcDbEntity
  8
0
  6
Continuous
 62
     1
370
    15
100
AcDbLine
 10
25.4
 20
-2.182812499999987
 30
0.0
 11
25.40000000000001
 21
-1.976932570172307
 31
0.0
  0
LINE
  5
A7
330
1F
100
AcDbEntity
  8
외형선
  6
Continuous
370
    15
100
AcDbLine
 10
17.46250000000001
 20
1.258638810086031
 30
0.0
 11
17.46250000000001
 21
1.796368958501696
 31
0.0
  0
SPLINE
  5
A8
330
1F
100
AcDbEntity
  8
0
  6
Continuous
 62
     1
370
    15
100
AcDbSpline
210
0.0
220
0.0
230
1.0
 70
     8
 71
     3
 72
    12
 73
     8
 74
     0
 42
0.000000001
 43
0.00000001
 40
0.0
 40
0.0
 40
0.0
 40
0.0
 40
0.1847944598755695
 40
0.3885201335622518
 40
0.5921758002514721
 40
0.7959425705491175
 40
1.0
 40
1.0
 40
1.0
 40
1.0
 10
21.11655826913386
 20
2.176916269594728
 30
0.0
 10
21.38046132733397
 20
2.170094045606489
 30
0.0
 10
21.93530291451377
 20
2.155750696910393
 30
0.0
 10
22.7806819655243
 20
1.990778508854182
 30
0.0
 10
23.65312200423652
 20
1.724661015863637
 30
0.0
 10
24.52609517237421
 20
1.367465015801514
 30
0.0
 10
25.10856001520532
 20
1.072840438241119
 30
0.0
 10
25.40000000000003
 20
0.9254231589646615
 30
0.0
  0
LINE
  5
A9
330
1F
100
AcDbEntity
  8
0
  6
Continuous
 62
     1
370
    15
100
AcDbLine
 10
25.40000000000001
 20
0.1870263201723347
 30
0.0
 11
25.40000000000001
 21
0.9254231589646613
 31
0.0
  0
SPLINE
  5
AA
330
1F
100
AcDbEntity
  8
0
  6
Continuous
 62
     1
370
    15
100
AcDbSpline
210
0.0
220
0.0
230
1.0
 70
     8
 71
     3
 72
    10
 73
     6
 74
     0
 42
0.000000001
 43
0.00000001
 40
0.0
 40
0.0
 40
0.0
 40
0.0
 40
0.4491148287987762
 40
0.8976689412205829
 40
0.9999999999999999
 40
0.9999999999999999
 40
0.9999999999999999
 40
0.9999999999999999
 10
25.4
 20
2.182812500000016
 30
0.0
 10
25.1032764459565
 20
2.147026900338453
 30
0.0
 10
24.51019979492304
 20
2.091544543654352
 30
0.0
 10
23.84973828182423
 20
1.939743107219169
 30
0.0
 10
23.48593137954217
 20
1.805794022748102
 30
0.0
 10
23.41835151453943
 20
1.780911974087092
 30
0.0
  0
LINE
  5
AB
330
1F
100
AcDbEntity
  8
0
  6
Continuous
 62
     1
370
    15
100
AcDbLine
 10
25.40000000000001
 20
0.9254231589646613
 30
0.0
 11
25.4
 21
2.182812500000016
 31
0.0
  0
SPLINE
  5
AC
330
1F
100
AcDbEntity
  8
0
  6
Continuous
 62
     1
370
    15
100
AcDbSpline
210
0.0
220
0.0
230
1.0
 70
     8
 71
     3
 72
    10
 73
     6
 74
     0
 42
0.000000001
 43
0.00000001
 40
0.0
 40
0.0
 40
0.0
 40
0.0
 40
0.2488638483614174
 40
0.6244695207038954
 40
0.9999999999999999
 40
0.9999999999999999
 40
0.9999999999999999
 40
0.9999999999999999
 10
19.78533018298054
 20
-2.169798104860611
 30
0.0
 10
19.59259777691866
 20
-2.169829911419316
 30
0.0
 10
19.108977861732
 20
-2.169909723037601
 30
0.0
 10
18.33478870266546
 20
-2.043836746922453
 30
0.0
 10
17.75324349554907
 20
-1.870203314232837
 30
0.0
 10
17.46249999999988
 20
-1.783395288740364
 30
0.0
  0
LINE
  5
AD
330
1F
100
AcDbEntity
  8
외형선
  6
Continuous
370
    15
100
AcDbLine
 10
17.46250000000002
 20
-1.783395288740399
 30
0.0
 11
17.4625
 21
-1.240052004993268
 31
0.0
  0
LINE
  5
AE
330
1F
100
AcDbEntity
  8
외형선
  6
Continuous
370
    15
100
AcDbLine
 10
16.46250000000001
 20
0.0000000000000004
 30
0.0
 11
16.46250000000001
 21
2.182812500000001
 31
0.0
  0
LINE
  5
AF
330
1F
100
AcDbEntity
  8
외형선
  6
Continuous
370
    15
100
AcDbLine
 10
16.46250000000001
 20
-2.1828125
 30
0.0
 11
16.46250000000001
 21
0.0000000000000004
 31
0.0
  0
LINE
  5
B0
330
1F
100
AcDbEntity
  8
외형선
  6
Continuous
370
    15
100
AcDbLine
 10
15.72192116787304
 20
0.0000000000000004
 30
0.0
 11
15.72192116787304
 21
2.381250000000005
 31
0.0
  0
LINE
  5
B1
330
1F
100
AcDbEntity
  8
외형선
  6
Continuous
370
    15
100
AcDbLine
 10
15.72192116787304
 20
-2.381250000000005
 30
0.0
 11
15.72192116787304
 21
0.0000000000000004
 31
0.0
  0
LINE
  5
B4
330
1F
100
AcDbEntity
  8
외형선
  6
Continuous
370
    15
100
AcDbLine
 10
-25.4
 20
0.0000000000000004
 30
0.0
 11
-25.4
 21
1.905000000000002
 31
0.0
  0
LINE
  5
B5
330
1F
100
AcDbEntity
  8
외형선
  6
Continuous
370
    15
100
AcDbLine
 10
-25.4
 20
-1.905000000000001
 30
0.0
 11
-25.4
 21
0.0000000000000004
 31
0.0
  0
LINE
  5
B6
330
1F
100
AcDbEntity
  8
외형선
  6
Continuous
370
    15
100
AcDbLine
 10
16.96235854062041
 20
1.943917315959493
 30
0.0
 11
16.96235854062041
 21
2.1828125
 31
0.0
  0
SPLINE
  5
B7
330
1F
100
AcDbEntity
  8
외형선
  6
Continuous
370
    15
100
AcDbSpline
210
0.0
220
0.0
230
1.0
 70
     8
 71
     3
 72
     8
 73
     4
 74
     0
 42
0.000000001
 43
0.00000001
 40
0.0
 40
0.0
 40
0.0
 40
0.0
 40
1.0
 40
1.0
 40
1.0
 40
1.0
 10
17.4624999999999
 20
1.796368958501731
 30
0.0
 10
17.29576005801031
 20
1.850921641598185
 30
0.0
 10
17.1283211320927
 20
1.900312143305275
 30
0.0
 10
16.96235854062041
 20
1.9439236954749
 30
0.0
  0
SPLINE
  5
B8
330
1F
100
AcDbEntity
  8
외형선
  6
Continuous
370
    15
100
AcDbSpline
210
0.0
220
0.0
230
1.0
 70
     8
 71
     3
 72
     8
 73
     4
 74
     0
 42
0.000000001
 43
0.00000001
 40
0.0
 40
0.0
 40
0.0
 40
0.0
 40
1.0
 40
1.0
 40
1.0
 40
1.0
 10
17.46249999999989
 20
1.258638810086085
 30
0.0
 10
17.2957600580103
 20
1.337094389070366
 30
0.0
 10
17.1283211320927
 20
1.411988562257359
 30
0.0
 10
16.9623585406204
 20
1.482366294369974
 30
0.0
  0
LINE
  5
B9
330
1F
100
AcDbEntity
  8
외형선
  6
Continuous
370
    15
100
AcDbLine
 10
16.96235854062041
 20
-0.9929027539840598
 30
0.0
 11
16.96235854062041
 21
1.482380680848872
 31
0.0
  0
SPLINE
  5
BA
330
1F
100
AcDbEntity
  8
외형선
  6
Continuous
370
    15
100
AcDbSpline
210
0.0
220
0.0
230
1.0
 70
     8
 71
     3
 72
     8
 73
     4
 74
     0
 42
0.000000001
 43
0.00000001
 40
0.0
 40
0.0
 40
0.0
 40
0.0
 40
1.0
 40
1.0
 40
1.0
 40
1.0
 10
17.4624999999999
 20
-1.240052004993221
 30
0.0
 10
17.29576005801031
 20
-1.161025685030141
 30
0.0
 10
17.1283211320927
 20
-1.078274855554951
 30
0.0
 10
16.96235854062041
 20
-0.9928902639906892
 30
0.0
  0
SPLINE
  5
BB
330
1F
100
AcDbEntity
  8
외형선
  6
Continuous
370
    15
100
AcDbSpline
210
0.0
220
0.0
230
1.0
 70
     8
 71
     3
 72
     8
 73
     4
 74
     0
 42
0.000000001
 43
0.00000001
 40
0.0
 40
0.0
 40
0.0
 40
0.0
 40
1.0
 40
1.0
 40
1.0
 40
1.0
 10
17.46249999999989
 20
-1.783395288740361
 30
0.0
 10
17.2957600580103
 20
-1.728024930188423
 30
0.0
 10
17.1283211320927
 20
-1.667378543153854
 30
0.0
 10
16.9623585406204
 20
-1.602267324597259
 30
0.0
  0
LINE
  5
BC
330
1F
100
AcDbEntity
  8
외형선
  6
Continuous
370
    15
100
AcDbLine
 10
16.96235854062041
 20
-2.1828125
 30
0.0
 11
16.96235854062041
 21
-1.602254014568935
 31
0.0
  0
SPLINE
  5
BD
330
1F
100
AcDbEntity
  8
외형선
  6
Continuous
370
    15
100
AcDbSpline
210
0.0
220
0.0
230
1.0
 70
     8
 71
     3
 72
     8
 73
     4
 74
     0
 42
0.000000001
 43
0.00000001
 40
0.0
 40
0.0
 40
0.0
 40
0.0
 40
1.0
 40
1.0
 40
1.0
 40
1.0
 10
17.4624999999999
 20
-1.796368958501722
 30
0.0
 10
17.29576005801031
 20
-1.850921641598176
 30
0.0
 10
17.1283211320927
 20
-1.900312143305266
 30
0.0
 10
16.96235854062041
 20
-1.943923695474892
 30
0.0
  0
SPLINE
  5
BE
330
1F
100
AcDbEntity
  8
외형선
  6
Continuous
370
    15
100
AcDbSpline
210
0.0
220
0.0
230
1.0
 70
    24
 71
     3
 72
    22
 73
    18
 74
     0
 42
0.000000001
 43
0.00000001
 40
0.0
 40
0.0
 40
0.0
 40
0.0
 40
0.125
 40
0.125
 40
0.2499999999999999
 40
0.2499999999999999
 40
0.375
 40
0.375
 40
0.5000000000000001
 40
0.5000000000000001
 40
0.6250000000000001
 40
0.6250000000000001
 40
0.75
 40
0.75
 40
0.875
 40
0.875
 40
1.0
 40
1.0
 40
1.0
 40
1.0
 10
17.46250000000001
 20
-1.240052004993262
 30
0.0
 10
17.46250000000001
 20
-1.195665337861075
 30
0.0
 10
17.4625
 20
-1.122581964329191
 30
0.0
 10
17.46249999999999
 20
-0.9163590712840458
 30
0.0
 10
17.46250000000003
 20
-0.7831631827365
 30
0.0
 10
17.46250000000001
 20
-0.4814224721608029
 30
0.0
 10
17.46250000000003
 20
-0.3137571762813428
 30
0.0
 10
17.46250000000003
 20
0.016135157896096
 30
0.0
 10
17.46250000000001
 20
0.1776631976915887
 30
0.0
 10
17.46250000000003
 20
0.4669400889598757
 30
0.0
 10
17.46250000000002
 20
0.5947924582978117
 30
0.0
 10
17.46250000000001
 20
0.8106386944456777
 30
0.0
 10
17.46250000000001
 20
0.8990009681994009
 30
0.0
 10
17.46250000000001
 20
1.042635914482213
 30
0.0
 10
17.46250000000001
 20
1.098135175243115
 30
0.0
 10
17.46250000000001
 20
1.185627078913321
 30
0.0
 10
17.46250000000002
 20
1.226487505831755
 30
0.0
 10
17.46250000000001
 20
1.258638810086085
 30
0.0
  0
LINE
  5
BF
330
1F
100
AcDbEntity
  8
중심선
 62
     1
100
AcDbLine
 10
-28.4
 20
-0.0000000000000035
 30
0.0
 11
28.4
 21
0.0000000000000035
 31
0.0
  0
LINE
  5
C0
330
1F
100
AcDbEntity
  8
참조1
100
AcDbLine
 10
-14.09411934298439
 20
0.0010749287238892
 30
0.0
 11
-14.09411934298438
 21
-39.99892507127611
 31
0.0
  0
LINE
  5
C1
330
1F
100
AcDbEntity
  8
참조1
100
AcDbLine
 10
-14.09411934298438
 20
-39.99892507127611
 30
0.0
 11
-29.25297615729306
 21
-39.9989250712761
 31
0.0
  0
CIRCLE
  5
C2
330
1F
100
AcDbEntity
  8
해칭선
100
AcDbCircle
 10
0.0
 20
0.0000000000000006
 30
0.0
 40
3.000000000000007
  0
INSERT
  5
C3
330
1F
100
AcDbEntity
  8
0
  6
Continuous
 62
     7
100
AcDbBlockReference
 66
     1
  2
블럭10
 10
-11.4417638696624
 20
-27.78161052194351
 30
0.0
  0
ATTRIB
  5
C4
330
C3
100
AcDbEntity
  8
FORMAT
 62
     2
100
AcDbText
 10
-20.62305915840368
 20
-25.70624360911132
 30
0.0
 40
4.233333333333333
  1
E5023011 [ 4 FLUTE ]
 41
0.75
  7
SLDTEXTSTYLE0
 11
-20.62305915840368
 21
-27.82291027577799
 31
0.0
100
AcDbAttribute
  2
AUTOATTR0
 70
     0
 74
     1
  0
SEQEND
  5
C5
330
C3
100
AcDbEntity
  8
0
  6
Continuous
 62
     7
  0
HATCH
  5
C6
330
1F
100
AcDbEntity
  8
중심선
100
AcDbHatch
 10
0.0
 20
0.0
 30
0.0
210
0.0
220
0.0
230
1.0
  2
SOLID
 70
     1
 71
     0
 91
        1
 92
        0
 93
        4
 72
     1
 10
-5.72685456528156
 20
-11.53443622029957
 11
-9.17312980911884
 21
-11.53443622029957
 72
     1
 10
-9.17312980911884
 20
-11.53443622029957
 11
-11.30135966832286
 21
-14.07076180087217
 72
     1
 10
-11.30135966832286
 20
-14.07076180087217
 11
-7.855051339372434
 21
-14.07072237156968
 72
     1
 10
-7.855051339372434
 20
-14.07072237156968
 11
-5.72685456528156
 21
-11.53443622029957
 97
        0
 75
     0
 76
     1
 98
        1
 10
16.59262840544719
 20
24.26448885097653
  0
HATCH
  5
C7
330
1F
100
AcDbEntity
  8
중심선
100
AcDbHatch
 10
0.0
 20
0.0
 30
0.0
210
0.0
220
0.0
230
1.0
  2
SOLID
 70
     1
 71
     0
 91
        1
 92
        0
 93
        4
 72
     1
 10
-0.7140905742455814
 20
-11.53443622029957
 11
-4.160365818082862
 21
-11.53443622029957
 72
     1
 10
-4.160365818082862
 20
-11.53443622029957
 11
-8.691503826440279
 21
-16.93443622029959
 72
     1
 10
-8.691503826440279
 20
-16.93443622029959
 11
-5.245228582602994
 21
-16.93443622029959
 72
     1
 10
-5.245228582602994
 20
-16.93443622029959
 11
-0.7140905742455814
 21
-11.53443622029957
 97
        0
 75
     0
 76
     1
 98
        1
 10
16.59262840544719
 20
24.26448885097653
  0
HATCH
  5
C8
330
1F
100
AcDbEntity
  8
중심선
100
AcDbHatch
 10
0.0
 20
0.0
 30
0.0
210
0.0
220
0.0
230
1.0
  2
SOLID
 70
     1
 71
     0
 91
        1
 92
        0
 93
        4
 72
     1
 10
4.298673416790288
 20
-11.53443622029957
 11
0.8523981729531727
 21
-11.53443622029957
 72
     1
 10
0.8523981729531727
 20
-11.53443622029957
 11
-6.196038728936077
 21
-19.93443622029959
 72
     1
 10
-6.196038728936077
 20
-19.93443622029959
 11
-2.749763485098793
 21
-19.93443622029959
 72
     1
 10
-2.749763485098793
 20
-19.93443622029959
 11
4.298673416790288
 21
-11.53443622029957
 97
        0
 75
     0
 76
     1
 98
        1
 10
16.59262840544719
 20
24.26448885097653
  0
HATCH
  5
C9
330
1F
100
AcDbEntity
  8
중심선
100
AcDbHatch
 10
0.0
 20
0.0
 30
0.0
210
0.0
220
0.0
230
1.0
  2
SOLID
 70
     1
 71
     0
 91
        1
 92
        0
 93
        6
 72
     3
 10
9.098563847802488
 20
-15.73443622035085
 11
3.960054785062283
 21
1.540882976769353E-10
 40
0.3939339440162628
 50
17.09539180608436
 51
320.0019657685075
 73
     0
 72
     1
 10
10.78156350350308
 20
-14.32233022493785
 11
13.08686537720412
 21
-12.38800351488996
 72
     3
 10
9.098563847749642
 20
-15.73443622029972
 11
6.600054785286829
 21
-1.278976924368180E-13
 40
0.636358354079598
 50
39.99873849337411
 51
368.4976242363724
 73
     1
 72
     1
 10
15.52389633965025
 20
-14.7744362202296
 11
7.778631154585563
 21
-14.77443622022957
 72
     1
 10
7.778631154585563
 20
-14.77443622022957
 11
7.778606110139629
 21
-16.69443622022949
 72
     1
 10
7.778606110139629
 20
-16.69443622022949
 11
12.21998587961167
 21
-16.69443622022946
 97
        0
 75
     0
 76
     1
 98
        1
 10
16.59262840544719
 20
24.26448885097653
  0
DIMENSION
  5
CA
330
1F
100
AcDbEntity
  8
치수문자_일반주서
100
AcDbDimension
  2
_D
 10
40.96878617555023
 20
-2.18281249999993
 30
0.0
 11
40.96878617555014
 21
23.66181250000007
 31
0.0
 70
   160
  1
%%c<>
 71
     2
 42
4.365625000000003
 52
-270.0
  3
SLDDIMSTYLE0
100
AcDbAlignedDimension
 13
25.4
 23
2.182812500000016
 33
0.0
 14
25.4
 24
-2.182812499999987
 34
0.0
 50
90.0000000000002
100
AcDbRotatedDimension
1001
ACAD
1000
DSTYLE
1002
{
1070
   171
1070
     6
1070
   273
1070
     5
1002
}
  0
DIMENSION
  5
DF
330
1F
100
AcDbEntity
  8
치수문자_일반주서
100
AcDbDimension
  2
_D_1
 10
17.4625
 20
16.1026210268
 30
0.0
 11
-7.769803462511771
 21
16.1026210268
 31
0.0
 70
   160
  1
<>
 71
     2
 42
7.9375
  3
SLDDIMSTYLE0
100
AcDbAlignedDimension
 13
25.4
 23
2.17478540682042
 33
0.0
 14
17.4625
 24
1.796368958501696
 34
0.0
100
AcDbRotatedDimension
1001
ACAD
1000
DSTYLE
1002
{
1070
   171
1070
     6
1070
   273
1070
     5
1002
}
  0
DIMENSION
  5
F4
330
1F
100
AcDbEntity
  8
치수문자_일반주서
100
AcDbDimension
  2
_D_2
 10
-25.4
 20
31.15697450715891
 30
0.0
 11
1.639172668044584
 21
31.15697450715891
 31
0.0
 70
   160
  1
<>
 71
     2
 42
50.8
  3
SLDDIMSTYLE0
100
AcDbAlignedDimension
 13
25.4
 23
2.17478540682042
 33
0.0
 14
-25.4
 24
1.905000000000002
 34
0.0
100
AcDbRotatedDimension
1001
ACAD
1000
DSTYLE
1002
{
1070
   171
1070
     6
1070
   273
1070
     5
1002
}
  0
DIMENSION
  5
108
330
1F
100
AcDbEntity
  8
치수문자_일반주서
100
AcDbDimension
  2
_D_3
 10
-32.88611860444502
 20
-2.381250000000065
 30
0.0
 11
-32.8861186044451
 21
22.98524999999998
 31
0.0
 70
   160
  1
%%c<>
 71
     2
 42
4.762500000000005
 52
-270.0
  3
SLDDIMSTYLE0
100
AcDbAlignedDimension
 13
-15.72192116787301
 23
2.381250000000003
 33
0.0
 14
-15.72192116787303
 24
-2.381250000000002
 34
0.0
 50
90.0000000000002
100
AcDbRotatedDimension
1001
ACAD
1000
DSTYLE
1002
{
1070
   171
1070
     6
1070
   273
1070
     5
1002
}
  0
LINE
  5
11C
330
1F
100
AcDbEntity
  8
참조1
100
AcDbLine
 10
68.7193644723612
 20
7.441074928723896
 30
0.0
 11
68.7193644723612
 21
-7.438925071276109
 31
0.0
  0
LINE
  5
11D
330
1F
100
AcDbEntity
  8
참조1
100
AcDbLine
 10
81.41936447236121
 20
5.441074928723896
 30
0.0
 11
68.7193644723612
 21
5.441074928723896
 31
0.0
  0
SOLID
  5
11E
330
1F
100
AcDbEntity
  8
참조1
100
AcDbTrace
 10
68.7193644723612
 20
5.441074928723896
 30
0.0
 11
75.0693644723612
 21
4.425074928723896
 31
0.0
 12
75.0693644723612
 22
6.457074928723896
 32
0.0
 13
75.0693644723612
 23
6.457074928723896
 33
0.0
  0
LINE
  5
11F
330
1F
100
AcDbEntity
  8
참조1
100
AcDbLine
 10
81.41936447236121
 20
-5.438925071276109
 30
0.0
 11
68.7193644723612
 21
-5.438925071276109
 31
0.0
  0
SOLID
  5
120
330
1F
100
AcDbEntity
  8
참조1
100
AcDbTrace
 10
68.7193644723612
 20
-5.438925071276109
 30
0.0
 11
75.0693644723612
 21
-6.454925071276109
 31
0.0
 12
75.0693644723612
 22
-4.422925071276109
 32
0.0
 13
75.0693644723612
 23
-4.422925071276109
 33
0.0
  0
MTEXT
  5
121
330
1F
100
AcDbEntity
  8
참조1
100
AcDbMText
 10
78.1037146049872
 20
11.01136670591223
 30
0.0
 40
3.5
 41
0.0
 71
     1
 72
     1
  1
A
  7
SLDTEXTSTYLE0
 73
     1
 44
1.0
  0
MTEXT
  5
122
330
1F
100
AcDbEntity
  8
참조1
100
AcDbMText
 10
78.1037146049872
 20
0.1313667059122219
 30
0.0
 40
3.5
 41
0.0
 71
     1
 72
     1
  1
A
  7
SLDTEXTSTYLE0
 73
     1
 44
1.0
  0
INSERT
  5
129
330
1F
100
AcDbEntity
  8
해칭선
100
AcDbBlockReference
  2
SW_DOWELSYMBOL_0
 10
0.0
 20
0.0000000000000006
 30
0.0
  0
LINE
  5
2C0
330
1F
100
AcDbEntity
  8
0
  6
Continuous
 62
     1
370
    15
100
AcDbLine
 10
-21.11655826913384
 20
-2.182812500000001
 30
0.0
 11
-19.78533018298056
 21
-2.182812500000001
 31
0.0
  0
LINE
  5
2C1
330
1F
100
AcDbEntity
  8
0
  6
Continuous
 62
     1
370
    15
100
AcDbLine
 10
-19.78533018298053
 20
2.1828125
 30
0.0
 11
-21.11655826913384
 21
2.1828125
 31
0.0
  0
LINE
  5
2C2
330
1F
100
AcDbEntity
  8
외형선
  6
Continuous
370
    15
100
AcDbLine
 10
-15.72192116787302
 20
2.381250000000005
 30
0.0
 11
-16.46249999999999
 21
2.182812499999999
 31
0.0
  0
LINE
  5
2C3
330
1F
100
AcDbEntity
  8
외형선
  6
Continuous
370
    15
100
AcDbLine
 10
-16.46249999999999
 20
-2.182812500000001
 30
0.0
 11
-15.72192116787302
 21
-2.381250000000006
 31
0.0
  0
LINE
  5
2C4
330
1F
100
AcDbEntity
  8
외형선
  6
Continuous
370
    15
100
AcDbLine
 10
-16.46249999999999
 20
2.182812499999999
 30
0.0
 11
-16.96235854062038
 21
2.182812499999999
 31
0.0
  0
LINE
  5
2C5
330
1F
100
AcDbEntity
  8
외형선
  6
Continuous
370
    15
100
AcDbLine
 10
-16.96235854062038
 20
-2.182812500000001
 30
0.0
 11
-16.46249999999999
 21
-2.182812500000001
 31
0.0
  0
SPLINE
  5
2C6
330
1F
100
AcDbEntity
  8
0
  6
Continuous
 62
     1
370
    15
100
AcDbSpline
210
0.0
220
0.0
230
1.0
 70
     8
 71
     3
 72
    14
 73
    10
 74
     0
 42
0.000000001
 43
0.00000001
 40
0.0
 40
0.0
 40
0.0
 40
0.0
 40
0.1491473996455056
 40
0.2983112607315689
 40
0.447593822021045
 40
0.5970648861756072
 40
0.7464111494852818
 40
0.8929310028556332
 40
1.0
 40
1.0
 40
1.0
 40
1.0
 10
-17.46249999999987
 20
1.240052004993215
 30
0.0
 10
-17.75856036407454
 20
1.374185843969922
 30
0.0
 10
-18.35071376848976
 20
1.642468326312969
 30
0.0
 10
-19.23919523843226
 20
1.93639827999846
 30
0.0
 10
-20.12843960203451
 20
2.128415909370263
 30
0.0
 10
-21.01841450373946
 20
2.202787302067573
 30
0.0
 10
-21.90265310101843
 20
2.153213147702269
 30
0.0
 10
-22.70247413129051
 20
2.013805304296923
 30
0.0
 10
-23.20582799952291
 20
1.850051341132694
 30
0.0
 10
-23.41835151453941
 20
1.780911974087091
 30
0.0
  0
SPLINE
  5
2C7
330
1F
100
AcDbEntity
  8
외형선
  6
Continuous
370
    15
100
AcDbSpline
210
0.0
220
0.0
230
1.0
 70
    24
 71
     3
 72
    22
 73
    18
 74
     0
 42
0.000000001
 43
0.00000001
 40
0.0
 40
0.0
 40
0.0
 40
0.0
 40
0.125
 40
0.125
 40
0.25
 40
0.25
 40
0.375
 40
0.375
 40
0.5
 40
0.5
 40
0.625
 40
0.625
 40
0.75
 40
0.75
 40
0.875
 40
0.875
 40
1.0
 40
1.0
 40
1.0
 40
1.0
 10
-17.46249999999997
 20
-1.25863881008606
 30
0.0
 10
-17.46249999999997
 20
-1.226487505831726
 30
0.0
 10
-17.46249999999999
 20
-1.185627078913296
 30
0.0
 10
-17.46249999999999
 20
-1.098135175243081
 30
0.0
 10
-17.46249999999999
 20
-1.042635914482173
 30
0.0
 10
-17.46249999999999
 20
-0.8990009681993515
 30
0.0
 10
-17.46249999999999
 20
-0.8106386944456224
 30
0.0
 10
-17.46249999999999
 20
-0.594792458297747
 30
0.0
 10
-17.46249999999997
 20
-0.4669400889598066
 30
0.0
 10
-17.46249999999997
 20
-0.1776631976915151
 30
0.0
 10
-17.46249999999999
 20
-0.0161351578960215
 30
0.0
 10
-17.46249999999999
 20
0.3137571762814121
 30
0.0
 10
-17.46249999999999
 20
0.4814224721608672
 30
0.0
 10
-17.46249999999999
 20
0.7831631827365494
 30
0.0
 10
-17.46249999999996
 20
0.916359071284087
 30
0.0
 10
-17.46249999999999
 20
1.122581964329216
 30
0.0
 10
-17.46249999999999
 20
1.195665337861093
 30
0.0
 10
-17.46249999999997
 20
1.240052004993274
 30
0.0
  0
SPLINE
  5
2C8
330
1F
100
AcDbEntity
  8
0
  6
Continuous
 62
     1
370
    15
100
AcDbSpline
210
0.0
220
0.0
230
1.0
 70
     8
 71
     3
 72
    32
 73
    28
 74
     0
 42
0.000000001
 43
0.00000001
 40
0.0
 40
0.0
 40
0.0
 40
0.0
 40
0.1250000000000017
 40
0.1250000000000017
 40
0.1875000000000016
 40
0.1875000000000016
 40
0.2500000000000014
 40
0.2500000000000014
 40
0.3125000000000013
 40
0.3125000000000013
 40
0.3750000000000012
 40
0.3750000000000012
 40
0.437500000000001
 40
0.437500000000001
 40
0.5000000000000009
 40
0.5000000000000009
 40
0.5625000000000008
 40
0.5625000000000008
 40
0.6250000000000006
 40
0.6250000000000006
 40
0.7500000000000004
 40
0.7500000000000004
 40
0.8750000000000002
 40
0.8750000000000002
 40
0.9375000000000001
 40
0.9375000000000001
 40
1.0
 40
1.0
 40
1.0
 40
1.0
 10
-25.39999999999997
 20
2.182812499999987
 30
0.0
 10
-25.07260638979269
 20
2.15847885996228
 30
0.0
 10
-24.73592375162169
 20
2.116795451848409
 30
0.0
 10
-24.24258665550252
 20
2.019214055125004
 30
0.0
 10
-24.07828570172282
 20
1.980835979196472
 30
0.0
 10
-23.74613482926295
 20
1.892628169901698
 30
0.0
 10
-23.57949219414398
 20
1.842876639076351
 30
0.0
 10
-23.2493614434537
 20
1.733425084732944
 30
0.0
 10
-23.08604037265934
 20
1.673787155478245
 30
0.0
 10
-22.75442447128341
 20
1.54465073825357
 30
0.0
 10
-22.58766876804543
 20
1.475313862063663
 30
0.0
 10
-22.25656039067459
 20
1.328903424347452
 30
0.0
 10
-22.09348549912788
 20
1.252056505734359
 30
0.0
 10
-21.76267026109467
 20
1.090914943733525
 30
0.0
 10
-21.59593687537804
 20
1.006752658640432
 30
0.0
 10
-21.26411520594224
 20
0.833396209093655
 30
0.0
 10
-21.10055213506304
 20
0.7444907089624274
 30
0.0
 10
-20.77080111198905
 20
0.5624696385383793
 30
0.0
 10
-20.60422536880708
 20
0.4692674290416162
 30
0.0
 10
-20.10582229168477
 20
0.1866523374752611
 30
0.0
 10
-19.77868720693702
 20
-0.0050962245540207
 30
0.0
 10
-19.11379055808684
 20
-0.3861347872871093
 30
0.0
 10
-18.78675883852125
 20
-0.5733635693395224
 30
0.0
 10
-18.28821882914974
 20
-0.8426645582120921
 30
0.0
 10
-18.12172766055482
 20
-0.9303085077747645
 30
0.0
 10
-17.79239903913161
 20
-1.099140818422607
 30
0.0
 10
-17.62850200035558
 20
-1.180530452274186
 30
0.0
 10
-17.46249999999986
 20
-1.258638810086083
 30
0.0
  0
LINE
  5
2C9
330
1F
100
AcDbEntity
  8
0
  6
Continuous
 62
     1
370
    15
100
AcDbLine
 10
-25.39999999999999
 20
1.976932570172308
 30
0.0
 11
-25.39999999999999
 21
-0.1870263201723338
 31
0.0
  0
SPLINE
  5
2CA
330
1F
100
AcDbEntity
  8
0
  6
Continuous
 62
     1
370
    15
100
AcDbSpline
210
0.0
220
0.0
230
1.0
 70
     8
 71
     3
 72
    32
 73
    28
 74
     0
 42
0.000000001
 43
0.00000001
 40
0.0
 40
0.0
 40
0.0
 40
0.0
 40
0.1249999999999981
 40
0.1249999999999981
 40
0.1874999999999981
 40
0.1874999999999981
 40
0.2499999999999981
 40
0.2499999999999981
 40
0.3124999999999981
 40
0.3124999999999981
 40
0.3749999999999981
 40
0.3749999999999981
 40
0.4374999999999981
 40
0.4374999999999981
 40
0.4999999999999981
 40
0.4999999999999981
 40
0.5624999999999981
 40
0.5624999999999981
 40
0.6249999999999981
 40
0.6249999999999981
 40
0.7499999999999981
 40
0.7499999999999981
 40
0.874999999999998
 40
0.874999999999998
 40
0.937499999999999
 40
0.937499999999999
 40
1.0
 40
1.0
 40
1.0
 40
1.0
 10
-25.4
 20
1.976932570172308
 30
0.0
 10
-25.07260638979269
 20
1.896246300499873
 30
0.0
 10
-24.73592375162167
 20
1.791882961908909
 30
0.0
 10
-24.2425866555025
 20
1.607624152890541
 30
0.0
 10
-24.07828570172282
 20
1.541454639669591
 30
0.0
 10
-23.74613482926295
 20
1.400152725358265
 30
0.0
 10
-23.57949219414396
 20
1.32517120114257
 30
0.0
 10
-23.24936144345372
 20
1.168526150842141
 30
0.0
 10
-23.08604037265935
 20
1.086919254553581
 30
0.0
 10
-22.75442447128341
 20
0.9171180029294137
 30
0.0
 10
-22.58766876804544
 20
0.829163560615838
 30
0.0
 10
-22.25656039067458
 20
0.6494220609730055
 30
0.0
 10
-22.09348549912789
 20
0.5578868925231885
 30
0.0
 10
-21.76267026109467
 20
0.3712872539573948
 30
0.0
 10
-21.59593687537803
 20
0.2763999799360418
 30
0.0
 10
-21.26411520594223
 20
0.0858906771078525
 30
0.0
 10
-21.10055213506304
 20
-0.0094327231292138
 30
0.0
 10
-20.77080111198904
 20
-0.1999837943035704
 30
0.0
 10
-20.60422536880708
 20
-0.2952845315626433
 30
0.0
 10
-20.10582229168474
 20
-0.5775649978832893
 30
0.0
 10
-19.77868720693702
 20
-0.7602999022573571
 30
0.0
 10
-19.11379055808686
 20
-1.10615018410025
 30
0.0
 10
-18.78675883852128
 20
-1.267396405952846
 30
0.0
 10
-18.28821882914974
 20
-1.486061225829346
 30
0.0
 10
-18.12172766055482
 20
-1.554906936019711
 30
0.0
 10
-17.79239903913161
 20
-1.68282072701296
 30
0.0
 10
-17.62850200035561
 20
-1.742057709434915
 30
0.0
 10
-17.46249999999987
 20
-1.796368958501735
 30
0.0
  0
SPLINE
  5
2CB
330
1F
100
AcDbEntity
  8
0
  6
Continuous
 62
     1
370
    15
100
AcDbSpline
210
0.0
220
0.0
230
1.0
 70
     8
 71
     3
 72
    32
 73
    28
 74
     0
 42
0.000000001
 43
0.00000001
 40
0.0
 40
0.0
 40
0.0
 40
0.0
 40
0.1250000000000017
 40
0.1250000000000017
 40
0.1875000000000016
 40
0.1875000000000016
 40
0.2500000000000016
 40
0.2500000000000016
 40
0.3125000000000014
 40
0.3125000000000014
 40
0.3750000000000013
 40
0.3750000000000013
 40
0.4375000000000012
 40
0.4375000000000012
 40
0.500000000000001
 40
0.500000000000001
 40
0.562500000000001
 40
0.562500000000001
 40
0.6250000000000009
 40
0.6250000000000009
 40
0.7500000000000006
 40
0.7500000000000006
 40
0.8750000000000003
 40
0.8750000000000003
 40
0.9375000000000002
 40
0.9375000000000002
 40
1.0
 40
1.0
 40
1.0
 40
1.0
 10
-25.39999999999997
 20
-0.1870263201723337
 30
0.0
 10
-25.07260638979269
 20
-0.3766426271715038
 30
0.0
 10
-24.73592375162168
 20
-0.5658425011136575
 30
0.0
 10
-24.2425866555025
 20
-0.834582283217794
 30
0.0
 10
-24.0782857017228
 20
-0.922009567833275
 30
0.0
 10
-23.74613482926294
 20
-1.091682843205803
 30
0.0
 10
-23.57949219414396
 20
-1.173704152951303
 30
0.0
 10
-23.2493614434537
 20
-1.330042563652409
 30
0.0
 10
-23.08604037265935
 20
-1.404364469159626
 30
0.0
 10
-22.75442447128341
 20
-1.545269264851486
 30
0.0
 10
-22.58766876804543
 20
-1.61159632007495
 30
0.0
 10
-22.25656039067459
 20
-1.734303715971899
 30
0.0
 10
-22.09348549912788
 20
-1.790570528290518
 30
0.0
 10
-21.76267026109468
 20
-1.893064419366968
 30
0.0
 10
-21.59593687537805
 20
-1.939137917739125
 30
0.0
 10
-21.26411520594223
 20
-2.019717192668698
 30
0.0
 10
-21.10055213506304
 20
-2.054142730688004
 30
0.0
 10
-20.77080111198904
 20
-2.111254764231983
 30
0.0
 10
-20.60422536880708
 20
-2.133917304319562
 30
0.0
 10
-20.10582229168477
 20
-2.183210846661718
 30
0.0
 10
-19.77868720693702
 20
-2.191172267082739
 30
0.0
 10
-19.11379055808686
 20
-2.15688706277912
 30
0.0
 10
-18.78675883852125
 20
-2.114830870831856
 30
0.0
 10
-18.28821882914974
 20
-2.015870307997934
 30
0.0
 10
-18.12172766055482
 20
-1.976938819957332
 30
0.0
 10
-17.79239903913162
 20
-1.88829300659873
 30
0.0
 10
-17.62850200035562
 20
-1.8385205944731
 30
0.0
 10
-17.46249999999986
 20
-1.783395288740356
 30
0.0
  0
LINE
  5
2CC
330
1F
100
AcDbEntity
  8
0
  6
Continuous
 62
     1
370
    15
100
AcDbLine
 10
-25.39999999999997
 20
2.182812499999987
 30
0.0
 11
-25.39999999999999
 21
1.976932570172308
 31
0.0
  0
LINE
  5
2CD
330
1F
100
AcDbEntity
  8
외형선
  6
Continuous
370
    15
100
AcDbLine
 10
-17.46249999999999
 20
-1.258638810086031
 30
0.0
 11
-17.46249999999999
 21
-1.796368958501696
 31
0.0
  0
SPLINE
  5
2CE
330
1F
100
AcDbEntity
  8
0
  6
Continuous
 62
     1
370
    15
100
AcDbSpline
210
0.0
220
0.0
230
1.0
 70
     8
 71
     3
 72
    12
 73
     8
 74
     0
 42
0.000000001
 43
0.00000001
 40
0.0
 40
0.0
 40
0.0
 40
0.0
 40
0.1847944598755695
 40
0.3885201335622518
 40
0.5921758002514721
 40
0.7959425705491175
 40
1.0
 40
1.0
 40
1.0
 40
1.0
 10
-21.11655826913384
 20
-2.176916269594728
 30
0.0
 10
-21.38046132733394
 20
-2.170094045606489
 30
0.0
 10
-21.93530291451375
 20
-2.155750696910393
 30
0.0
 10
-22.78068196552428
 20
-1.990778508854181
 30
0.0
 10
-23.6531220042365
 20
-1.724661015863637
 30
0.0
 10
-24.52609517237419
 20
-1.367465015801513
 30
0.0
 10
-25.1085600152053
 20
-1.072840438241118
 30
0.0
 10
-25.4
 20
-0.9254231589646605
 30
0.0
  0
LINE
  5
2CF
330
1F
100
AcDbEntity
  8
0
  6
Continuous
 62
     1
370
    15
100
AcDbLine
 10
-25.39999999999999
 20
-0.1870263201723338
 30
0.0
 11
-25.39999999999999
 21
-0.9254231589646603
 31
0.0
  0
SPLINE
  5
2D0
330
1F
100
AcDbEntity
  8
0
  6
Continuous
 62
     1
370
    15
100
AcDbSpline
210
0.0
220
0.0
230
1.0
 70
     8
 71
     3
 72
    10
 73
     6
 74
     0
 42
0.000000001
 43
0.00000001
 40
0.0
 40
0.0
 40
0.0
 40
0.0
 40
0.4491148287987762
 40
0.8976689412205829
 40
0.9999999999999999
 40
0.9999999999999999
 40
0.9999999999999999
 40
0.9999999999999999
 10
-25.39999999999997
 20
-2.182812500000016
 30
0.0
 10
-25.10327644595648
 20
-2.147026900338453
 30
0.0
 10
-24.51019979492302
 20
-2.091544543654351
 30
0.0
 10
-23.84973828182421
 20
-1.939743107219168
 30
0.0
 10
-23.48593137954215
 20
-1.805794022748101
 30
0.0
 10
-23.41835151453941
 20
-1.780911974087091
 30
0.0
  0
LINE
  5
2D1
330
1F
100
AcDbEntity
  8
0
  6
Continuous
 62
     1
370
    15
100
AcDbLine
 10
-25.39999999999999
 20
-0.9254231589646603
 30
0.0
 11
-25.39999999999997
 21
-2.182812500000015
 31
0.0
  0
SPLINE
  5
2D2
330
1F
100
AcDbEntity
  8
0
  6
Continuous
 62
     1
370
    15
100
AcDbSpline
210
0.0
220
0.0
230
1.0
 70
     8
 71
     3
 72
    10
 73
     6
 74
     0
 42
0.000000001
 43
0.00000001
 40
0.0
 40
0.0
 40
0.0
 40
0.0
 40
0.2488638483614174
 40
0.6244695207038954
 40
0.9999999999999999
 40
0.9999999999999999
 40
0.9999999999999999
 40
0.9999999999999999
 10
-19.78533018298051
 20
2.169798104860611
 30
0.0
 10
-19.59259777691863
 20
2.169829911419316
 30
0.0
 10
-19.10897786173198
 20
2.1699097230376
 30
0.0
 10
-18.33478870266543
 20
2.043836746922453
 30
0.0
 10
-17.75324349554905
 20
1.870203314232837
 30
0.0
 10
-17.46249999999986
 20
1.783395288740364
 30
0.0
  0
LINE
  5
2D3
330
1F
100
AcDbEntity
  8
외형선
  6
Continuous
370
    15
100
AcDbLine
 10
-17.4625
 20
1.783395288740399
 30
0.0
 11
-17.46249999999997
 21
1.240052004993268
 31
0.0
  0
LINE
  5
2D4
330
1F
100
AcDbEntity
  8
외형선
  6
Continuous
370
    15
100
AcDbLine
 10
-16.46249999999999
 20
-0.0000000000000006
 30
0.0
 11
-16.46249999999999
 21
-2.182812500000001
 31
0.0
  0
LINE
  5
2D5
330
1F
100
AcDbEntity
  8
외형선
  6
Continuous
370
    15
100
AcDbLine
 10
-16.46249999999999
 20
2.182812499999999
 30
0.0
 11
-16.46249999999999
 21
-0.0000000000000006
 31
0.0
  0
LINE
  5
2D6
330
1F
100
AcDbEntity
  8
외형선
  6
Continuous
370
    15
100
AcDbLine
 10
-16.96235854062038
 20
-1.943917315959493
 30
0.0
 11
-16.96235854062038
 21
-2.182812500000001
 31
0.0
  0
SPLINE
  5
2D7
330
1F
100
AcDbEntity
  8
외형선
  6
Continuous
370
    15
100
AcDbSpline
210
0.0
220
0.0
230
1.0
 70
     8
 71
     3
 72
     8
 73
     4
 74
     0
 42
0.000000001
 43
0.00000001
 40
0.0
 40
0.0
 40
0.0
 40
0.0
 40
1.0
 40
1.0
 40
1.0
 40
1.0
 10
-17.46249999999987
 20
-1.796368958501731
 30
0.0
 10
-17.29576005801028
 20
-1.850921641598185
 30
0.0
 10
-17.12832113209269
 20
-1.900312143305275
 30
0.0
 10
-16.9623585406204
 20
-1.9439236954749
 30
0.0
  0
SPLINE
  5
2D8
330
1F
100
AcDbEntity
  8
외형선
  6
Continuous
370
    15
100
AcDbSpline
210
0.0
220
0.0
230
1.0
 70
     8
 71
     3
 72
     8
 73
     4
 74
     0
 42
0.000000001
 43
0.00000001
 40
0.0
 40
0.0
 40
0.0
 40
0.0
 40
1.0
 40
1.0
 40
1.0
 40
1.0
 10
-17.46249999999987
 20
-1.258638810086085
 30
0.0
 10
-17.29576005801027
 20
-1.337094389070366
 30
0.0
 10
-17.12832113209268
 20
-1.411988562257359
 30
0.0
 10
-16.96235854062038
 20
-1.482366294369974
 30
0.0
  0
LINE
  5
2D9
330
1F
100
AcDbEntity
  8
외형선
  6
Continuous
370
    15
100
AcDbLine
 10
-16.96235854062038
 20
0.9929027539840598
 30
0.0
 11
-16.96235854062038
 21
-1.482380680848872
 31
0.0
  0
SPLINE
  5
2DA
330
1F
100
AcDbEntity
  8
외형선
  6
Continuous
370
    15
100
AcDbSpline
210
0.0
220
0.0
230
1.0
 70
     8
 71
     3
 72
     8
 73
     4
 74
     0
 42
0.000000001
 43
0.00000001
 40
0.0
 40
0.0
 40
0.0
 40
0.0
 40
1.0
 40
1.0
 40
1.0
 40
1.0
 10
-17.46249999999987
 20
1.240052004993221
 30
0.0
 10
-17.29576005801028
 20
1.161025685030141
 30
0.0
 10
-17.12832113209269
 20
1.078274855554951
 30
0.0
 10
-16.9623585406204
 20
0.9928902639906892
 30
0.0
  0
SPLINE
  5
2DB
330
1F
100
AcDbEntity
  8
외형선
  6
Continuous
370
    15
100
AcDbSpline
210
0.0
220
0.0
230
1.0
 70
     8
 71
     3
 72
     8
 73
     4
 74
     0
 42
0.000000001
 43
0.00000001
 40
0.0
 40
0.0
 40
0.0
 40
0.0
 40
1.0
 40
1.0
 40
1.0
 40
1.0
 10
-17.46249999999987
 20
1.783395288740361
 30
0.0
 10
-17.29576005801027
 20
1.728024930188423
 30
0.0
 10
-17.12832113209268
 20
1.667378543153854
 30
0.0
 10
-16.96235854062038
 20
1.602267324597259
 30
0.0
  0
LINE
  5
2DC
330
1F
100
AcDbEntity
  8
외형선
  6
Continuous
370
    15
100
AcDbLine
 10
-16.96235854062038
 20
2.182812499999999
 30
0.0
 11
-16.96235854062038
 21
1.602254014568935
 31
0.0
  0
SPLINE
  5
2DD
330
1F
100
AcDbEntity
  8
외형선
  6
Continuous
370
    15
100
AcDbSpline
210
0.0
220
0.0
230
1.0
 70
     8
 71
     3
 72
     8
 73
     4
 74
     0
 42
0.000000001
 43
0.00000001
 40
0.0
 40
0.0
 40
0.0
 40
0.0
 40
1.0
 40
1.0
 40
1.0
 40
1.0
 10
-17.46249999999987
 20
1.796368958501722
 30
0.0
 10
-17.29576005801028
 20
1.850921641598176
 30
0.0
 10
-17.12832113209269
 20
1.900312143305266
 30
0.0
 10
-16.9623585406204
 20
1.943923695474892
 30
0.0
  0
SPLINE
  5
2DE
330
1F
100
AcDbEntity
  8
외형선
  6
Continuous
370
    15
100
AcDbSpline
210
0.0
220
0.0
230
1.0
 70
    24
 71
     3
 72
    22
 73
    18
 74
     0
 42
0.000000001
 43
0.00000001
 40
0.0
 40
0.0
 40
0.0
 40
0.0
 40
0.125
 40
0.125
 40
0.2499999999999999
 40
0.2499999999999999
 40
0.375
 40
0.375
 40
0.5000000000000001
 40
0.5000000000000001
 40
0.6250000000000001
 40
0.6250000000000001
 40
0.75
 40
0.75
 40
0.875
 40
0.875
 40
1.0
 40
1.0
 40
1.0
 40
1.0
 10
-17.46249999999999
 20
1.240052004993262
 30
0.0
 10
-17.46249999999999
 20
1.195665337861075
 30
0.0
 10
-17.46249999999997
 20
1.122581964329191
 30
0.0
 10
-17.46249999999997
 20
0.9163590712840458
 30
0.0
 10
-17.4625
 20
0.7831631827365
 30
0.0
 10
-17.46249999999999
 20
0.4814224721608029
 30
0.0
 10
-17.4625
 20
0.3137571762813428
 30
0.0
 10
-17.4625
 20
-0.0161351578960961
 30
0.0
 10
-17.46249999999999
 20
-0.1776631976915888
 30
0.0
 10
-17.46250000000002
 20
-0.4669400889598757
 30
0.0
 10
-17.4625
 20
-0.5947924582978117
 30
0.0
 10
-17.46249999999999
 20
-0.8106386944456777
 30
0.0
 10
-17.46249999999999
 20
-0.8990009681994009
 30
0.0
 10
-17.46249999999999
 20
-1.042635914482213
 30
0.0
 10
-17.46249999999999
 20
-1.098135175243115
 30
0.0
 10
-17.46249999999999
 20
-1.185627078913321
 30
0.0
 10
-17.4625
 20
-1.226487505831755
 30
0.0
 10
-17.46249999999999
 20
-1.258638810086085
 30
0.0
  0
LINE
  5
2E3
330
1F
100
AcDbEntity
  8
외형선
  6
Continuous
370
    15
100
AcDbLine
 10
-15.72192116787302
 20
-0.0000000000000007
 30
0.0
 11
-15.72192116787302
 21
-2.381250000000006
 31
0.0
  0
LINE
  5
2E4
330
1F
100
AcDbEntity
  8
외형선
  6
Continuous
370
    15
100
AcDbLine
 10
-15.72192116787302
 20
2.381250000000005
 30
0.0
 11
-15.72192116787302
 21
-0.0000000000000007
 31
0.0
  0
ENDSEC
  0
SECTION
  2
OBJECTS
  0
DICTIONARY
  5
C
330
0
100
AcDbDictionary
281
     1
  3
ACAD_GROUP
350
D
  3
ACAD_IMAGE_VARS
350
14D
  3
ACAD_LAYOUT
350
1A
  3
ACAD_MLINESTYLE
350
17
  3
ACAD_PLOTSETTINGS
350
19
  3
ACAD_PLOTSTYLENAME
350
E
  3
ACAD_SCALELIST
350
47
  3
APPDATA
350
14B
  3
DWGPROPS
350
335
  0
DICTIONARY
  5
207
330
2
100
AcDbDictionary
280
     1
281
     1
  3
ACAD_LAYERSTATES
360
208
  0
DICTIONARY
  5
333
330
1F
100
AcDbDictionary
280
     1
281
     1
  3
DIM_BOUNDING_BOXES_V1
360
334
  0
DICTIONARY
  5
D
102
{ACAD_REACTORS
330
C
102
}
330
C
100
AcDbDictionary
281
     1
  0
RASTERVARIABLES
  5
14D
102
{ACAD_REACTORS
330
C
102
}
330
C
100
AcDbRasterVariables
 90
        0
 70
     1
 71
     1
 72
     1
  0
DICTIONARY
  5
1A
102
{ACAD_REACTORS
330
C
102
}
330
C
100
AcDbDictionary
281
     1
  3
Layout1
350
1E
  3
Layout2
350
26
  3
Model
350
22
  0
DICTIONARY
  5
17
102
{ACAD_REACTORS
330
C
102
}
330
C
100
AcDbDictionary
281
     1
  3
Standard
350
18
  0
DICTIONARY
  5
19
102
{ACAD_REACTORS
330
C
102
}
330
C
100
AcDbDictionary
281
     1
  0
ACDBDICTIONARYWDFLT
  5
E
102
{ACAD_REACTORS
330
C
102
}
330
C
100
AcDbDictionary
281
     1
  3
Normal
350
F
100
AcDbDictionaryWithDefault
340
F
  0
DICTIONARY
  5
47
102
{ACAD_REACTORS
330
C
102
}
330
C
100
AcDbDictionary
281
     1
  3
A0
350
48
  3
A1
350
49
  3
A2
350
4A
  3
A3
350
4B
  3
A4
350
4C
  3
A5
350
4D
  3
A6
350
4E
  3
A7
350
4F
  3
A8
350
50
  3
A9
350
51
  3
B0
350
52
  3
B1
350
53
  3
B2
350
54
  3
B3
350
55
  3
B4
350
56
  3
B5
350
57
  3
B6
350
58
  3
B7
350
59
  3
B8
350
5A
  3
B9
350
5B
  3
C0
350
5C
  3
C1
350
5D
  3
C2
350
5E
  3
C3
350
5F
  3
C4
350
60
  3
C5
350
61
  3
C6
350
62
  3
C7
350
63
  3
C8
350
64
  3
C9
350
65
  3
D0
350
66
  3
D1
350
67
  3
D2
350
68
  0
DICTIONARY
  5
14B
102
{ACAD_REACTORS
330
C
102
}
330
C
100
AcDbDictionary
281
     1
  0
XRECORD
  5
335
102
{ACAD_REACTORS
330
C
102
}
330
C
100
AcDbXrecord
280
     1
  1
DWGPROPS COOKIE
  2

  3

  4

  6

  7

  8
12011056
  9

300
=
301
=
302
=
303
=
304
=
305
=
306
=
307
=
308
=
309
=
 40
0.0
 41
2458313.122499004
 42
2459719.271470174
  1

 90
        0
  0
DICTIONARY
  5
208
102
{ACAD_REACTORS
330
207
102
}
330
207
100
AcDbDictionary
281
     1
  0
DICTIONARY
  5
334
102
{ACAD_REACTORS
330
333
102
}
330
333
100
AcDbDictionary
281
     1
  0
LAYOUT
  5
1E
102
{ACAD_REACTORS
330
1A
102
}
330
1A
100
AcDbPlotSettings
  1

  2
none_device
  4

  6

 40
0.0
 41
0.0
 42
0.0
 43
0.0
 44
0.0
 45
0.0
 46
0.0
 47
0.0
 48
0.0
 49
0.0
140
0.0
141
0.0
142
1.0
143
1.0
 70
   688
 72
     1
 73
     0
 74
     5
  7

 75
    16
147
1.0
148
0.0
149
0.0
100
AcDbLayout
  1
Layout1
 70
     1
 71
     1
 10
0.0
 20
0.0
 11
420.0
 21
297.0
 12
0.0
 22
0.0
 32
0.0
 14
1.000000000000000E+20
 24
1.000000000000000E+20
 34
1.000000000000000E+20
 15
-1.000000000000000E+20
 25
-1.000000000000000E+20
 35
-1.000000000000000E+20
146
0.0
 13
0.0
 23
0.0
 33
0.0
 16
1.0
 26
0.0
 36
0.0
 17
0.0
 27
1.0
 37
0.0
 76
     0
330
1B
  0
LAYOUT
  5
26
102
{ACAD_REACTORS
330
1A
102
}
330
1A
100
AcDbPlotSettings
  1

  2
none_device
  4

  6

 40
0.0
 41
0.0
 42
0.0
 43
0.0
 44
0.0
 45
0.0
 46
0.0
 47
0.0
 48
0.0
 49
0.0
140
0.0
141
0.0
142
1.0
143
1.0
 70
   688
 72
     1
 73
     0
 74
     5
  7

 75
    16
147
1.0
148
0.0
149
0.0
100
AcDbLayout
  1
Layout2
 70
     1
 71
     2
 10
0.0
 20
0.0
 11
0.0
 21
0.0
 12
0.0
 22
0.0
 32
0.0
 14
0.0
 24
0.0
 34
0.0
 15
0.0
 25
0.0
 35
0.0
146
0.0
 13
0.0
 23
0.0
 33
0.0
 16
1.0
 26
0.0
 36
0.0
 17
0.0
 27
1.0
 37
0.0
 76
     0
330
23
  0
LAYOUT
  5
22
102
{ACAD_REACTORS
330
1A
102
}
330
1A
100
AcDbPlotSettings
  1

  2
none_device
  4
ANSI_A_(11.00_x_8.50_Inches)
  6

 40
6.35
 41
19.05
 42
6.35000508
 43
19.05000254
 44
279.4
 45
215.9
 46
116.0200047679344
 47
79.49116081773292
 48
0.0
 49
0.0
140
0.0
141
0.0
142
0.0752558462788414
143
1.0
 70
  1696
 72
     0
 73
     0
 74
     0
  7

 75
     0
147
0.0235690232323232
148
0.0
149
0.0
100
AcDbLayout
  1
Model
 70
     1
 71
     0
 10
0.0
 20
0.0
 11
420.0
 21
297.0
 12
0.0
 22
0.0
 32
0.0
 14
-37.26111860444514
 24
-39.99892507127611
 34
0.0
 15
81.41936447236121
 25
38.53681250000006
 35
0.0
146
0.0
 13
0.0
 23
0.0
 33
0.0
 16
1.0
 26
0.0
 36
0.0
 17
0.0
 27
1.0
 37
0.0
 76
     0
330
1F
331
29
  0
MLINESTYLE
  5
18
102
{ACAD_REACTORS
330
17
102
}
330
17
100
AcDbMlineStyle
  2
Standard
 70
     0
  3

 62
   256
 51
90.0
 52
90.0
 71
     2
 49
0.5
 62
   256
  6
BYLAYER
 49
-0.5
 62
   256
  6
BYLAYER
  0
ACDBPLACEHOLDER
  5
F
102
{ACAD_REACTORS
330
E
102
}
330
E
  0
SCALE
  5
48
102
{ACAD_REACTORS
330
47
102
}
330
47
100
AcDbScale
 70
     0
300
1:1
140
1.0
141
1.0
290
     1
  0
SCALE
  5
49
102
{ACAD_REACTORS
330
47
102
}
330
47
100
AcDbScale
 70
     0
300
1:2
140
1.0
141
2.0
290
     0
  0
SCALE
  5
4A
102
{ACAD_REACTORS
330
47
102
}
330
47
100
AcDbScale
 70
     0
300
1:4
140
1.0
141
4.0
290
     0
  0
SCALE
  5
4B
102
{ACAD_REACTORS
330
47
102
}
330
47
100
AcDbScale
 70
     0
300
1:5
140
1.0
141
5.0
290
     0
  0
SCALE
  5
4C
102
{ACAD_REACTORS
330
47
102
}
330
47
100
AcDbScale
 70
     0
300
1:8
140
1.0
141
8.0
290
     0
  0
SCALE
  5
4D
102
{ACAD_REACTORS
330
47
102
}
330
47
100
AcDbScale
 70
     0
300
1:10
140
1.0
141
10.0
290
     0
  0
SCALE
  5
4E
102
{ACAD_REACTORS
330
47
102
}
330
47
100
AcDbScale
 70
     0
300
1:16
140
1.0
141
16.0
290
     0
  0
SCALE
  5
4F
102
{ACAD_REACTORS
330
47
102
}
330
47
100
AcDbScale
 70
     0
300
1:20
140
1.0
141
20.0
290
     0
  0
SCALE
  5
50
102
{ACAD_REACTORS
330
47
102
}
330
47
100
AcDbScale
 70
     0
300
1:30
140
1.0
141
30.0
290
     0
  0
SCALE
  5
51
102
{ACAD_REACTORS
330
47
102
}
330
47
100
AcDbScale
 70
     0
300
1:40
140
1.0
141
40.0
290
     0
  0
SCALE
  5
52
102
{ACAD_REACTORS
330
47
102
}
330
47
100
AcDbScale
 70
     0
300
1:50
140
1.0
141
50.0
290
     0
  0
SCALE
  5
53
102
{ACAD_REACTORS
330
47
102
}
330
47
100
AcDbScale
 70
     0
300
1:100
140
1.0
141
100.0
290
     0
  0
SCALE
  5
54
102
{ACAD_REACTORS
330
47
102
}
330
47
100
AcDbScale
 70
     0
300
2:1
140
2.0
141
1.0
290
     0
  0
SCALE
  5
55
102
{ACAD_REACTORS
330
47
102
}
330
47
100
AcDbScale
 70
     0
300
4:1
140
4.0
141
1.0
290
     0
  0
SCALE
  5
56
102
{ACAD_REACTORS
330
47
102
}
330
47
100
AcDbScale
 70
     0
300
8:1
140
8.0
141
1.0
290
     0
  0
SCALE
  5
57
102
{ACAD_REACTORS
330
47
102
}
330
47
100
AcDbScale
 70
     0
300
10:1
140
10.0
141
1.0
290
     0
  0
SCALE
  5
58
102
{ACAD_REACTORS
330
47
102
}
330
47
100
AcDbScale
 70
     0
300
100:1
140
100.0
141
1.0
290
     0
  0
SCALE
  5
59
102
{ACAD_REACTORS
330
47
102
}
330
47
100
AcDbScale
 70
     0
300
1/128" = 1'-0"
140
0.0078125
141
12.0
290
     0
  0
SCALE
  5
5A
102
{ACAD_REACTORS
330
47
102
}
330
47
100
AcDbScale
 70
     0
300
1/64" = 1'-0"
140
0.015625
141
12.0
290
     0
  0
SCALE
  5
5B
102
{ACAD_REACTORS
330
47
102
}
330
47
100
AcDbScale
 70
     0
300
1/32" = 1'-0"
140
0.03125
141
12.0
290
     0
  0
SCALE
  5
5C
102
{ACAD_REACTORS
330
47
102
}
330
47
100
AcDbScale
 70
     0
300
1/16" = 1'-0"
140
0.0625
141
12.0
290
     0
  0
SCALE
  5
5D
102
{ACAD_REACTORS
330
47
102
}
330
47
100
AcDbScale
 70
     0
300
3/32" = 1'-0"
140
0.09375
141
12.0
290
     0
  0
SCALE
  5
5E
102
{ACAD_REACTORS
330
47
102
}
330
47
100
AcDbScale
 70
     0
300
1/8" = 1'-0"
140
0.125
141
12.0
290
     0
  0
SCALE
  5
5F
102
{ACAD_REACTORS
330
47
102
}
330
47
100
AcDbScale
 70
     0
300
3/16" = 1'-0"
140
0.1875
141
12.0
290
     0
  0
SCALE
  5
60
102
{ACAD_REACTORS
330
47
102
}
330
47
100
AcDbScale
 70
     0
300
1/4" = 1'-0"
140
0.25
141
12.0
290
     0
  0
SCALE
  5
61
102
{ACAD_REACTORS
330
47
102
}
330
47
100
AcDbScale
 70
     0
300
3/8" = 1'-0"
140
0.375
141
12.0
290
     0
  0
SCALE
  5
62
102
{ACAD_REACTORS
330
47
102
}
330
47
100
AcDbScale
 70
     0
300
1/2" = 1'-0"
140
0.5
141
12.0
290
     0
  0
SCALE
  5
63
102
{ACAD_REACTORS
330
47
102
}
330
47
100
AcDbScale
 70
     0
300
3/4" = 1'-0"
140
0.75
141
12.0
290
     0
  0
SCALE
  5
64
102
{ACAD_REACTORS
330
47
102
}
330
47
100
AcDbScale
 70
     0
300
1" = 1'-0"
140
1.0
141
12.0
290
     0
  0
SCALE
  5
65
102
{ACAD_REACTORS
330
47
102
}
330
47
100
AcDbScale
 70
     0
300
1-1/2" = 1'-0"
140
1.5
141
12.0
290
     0
  0
SCALE
  5
66
102
{ACAD_REACTORS
330
47
102
}
330
47
100
AcDbScale
 70
     0
300
3" = 1'-0"
140
3.0
141
12.0
290
     0
  0
SCALE
  5
67
102
{ACAD_REACTORS
330
47
102
}
330
47
100
AcDbScale
 70
     0
300
6" = 1'-0"
140
6.0
141
12.0
290
     0
  0
SCALE
  5
68
102
{ACAD_REACTORS
330
47
102
}
330
47
100
AcDbScale
 70
     0
300
1'-0" = 1'-0"
140
12.0
141
12.0
290
     0
  0
ENDSEC
  0
EOF
