  0
SECTION
  2
HEADER
  9
$ACADVER
  1
AC1015
  9
$ACADMAINTVER
 70
     6
  9
$DWGCODEPAGE
  3
ANSI_949
  9
$INSBASE
 10
0.0
 20
0.0
 30
0.0
  9
$EXTMIN
 10
-43.56919698809578
 20
-39.99892507127612
 30
0.0
  9
$EXTMAX
 10
81.4193644723612
 20
54.53561987830763
 30
0.0
  9
$LIMMIN
 10
0.0
 20
0.0
  9
$LIMMAX
 10
420.0
 20
297.0
  9
$ORTHOMODE
 70
     0
  9
$REGENMODE
 70
     1
  9
$FILLMODE
 70
     1
  9
$QTEXTMODE
 70
     0
  9
$MIRRTEXT
 70
     1
  9
$LTSCALE
 40
1.0
  9
$ATTMODE
 70
     1
  9
$TEXTSIZE
 40
3.5
  9
$TRACEWID
 40
1.0
  9
$TEXTSTYLE
  7
Standard
  9
$CLAYER
  8
0
  9
$CELTYPE
  6
ByLayer
  9
$CECOLOR
 62
   256
  9
$CELTSCALE
 40
1.0
  9
$DISPSILH
 70
     0
  9
$DIMSCALE
 40
1.0
  9
$DIMASZ
 40
3.302
  9
$DIMEXO
 40
1.0
  9
$DIMDLI
 40
3.75
  9
$DIMRND
 40
0.0
  9
$DIMDLE
 40
0.0
  9
$DIMEXE
 40
1.0
  9
$DIMTP
 40
0.0
  9
$DIMTM
 40
0.0
  9
$DIMTXT
 40
3.5
  9
$DIMCEN
 40
2.5
  9
$DIMTSZ
 40
0.0
  9
$DIMTOL
 70
     0
  9
$DIMLIM
 70
     0
  9
$DIMTIH
 70
     1
  9
$DIMTOH
 70
     1
  9
$DIMSE1
 70
     0
  9
$DIMSE2
 70
     0
  9
$DIMTAD
 70
     1
  9
$DIMZIN
 70
     0
  9
$DIMBLK
  1

  9
$DIMASO
 70
     1
  9
$DIMSHO
 70
     1
  9
$DIMPOST
  1

  9
$DIMAPOST
  1

  9
$DIMALT
 70
     0
  9
$DIMALTD
 70
     3
  9
$DIMALTF
 40
0.0393700787401575
  9
$DIMLFAC
 40
1.0
  9
$DIMTOFL
 70
     1
  9
$DIMTVP
 40
0.0
  9
$DIMTIX
 70
     0
  9
$DIMSOXD
 70
     0
  9
$DIMSAH
 70
     0
  9
$DIMBLK1
  1

  9
$DIMBLK2
  1

  9
$DIMSTYLE
  2
ISO-25
  9
$DIMCLRD
 70
     0
  9
$DIMCLRE
 70
     0
  9
$DIMCLRT
 70
     0
  9
$DIMTFAC
 40
1.0
  9
$DIMGAP
 40
1.524
  9
$DIMJUST
 70
     0
  9
$DIMSD1
 70
     0
  9
$DIMSD2
 70
     0
  9
$DIMTOLJ
 70
     0
  9
$DIMTZIN
 70
     0
  9
$DIMALTZ
 70
     0
  9
$DIMALTTZ
 70
     0
  9
$DIMUPT
 70
     0
  9
$DIMDEC
 70
     2
  9
$DIMTDEC
 70
     2
  9
$DIMALTU
 70
     2
  9
$DIMALTTD
 70
     3
  9
$DIMTXSTY
  7
Standard
  9
$DIMAUNIT
 70
     0
  9
$DIMADEC
 70
     2
  9
$DIMALTRND
 40
0.0
  9
$DIMAZIN
 70
     0
  9
$DIMDSEP
 70
    44
  9
$DIMATFIT
 70
     3
  9
$DIMFRAC
 70
     0
  9
$DIMLDRBLK
  1

  9
$DIMLUNIT
 70
     2
  9
$DIMLWD
 70
    -2
  9
$DIMLWE
 70
    -2
  9
$DIMTMOVE
 70
     0
  9
$LUNITS
 70
     2
  9
$LUPREC
 70
     2
  9
$SKETCHINC
 40
1.0
  9
$FILLETRAD
 40
10.0
  9
$AUNITS
 70
     0
  9
$AUPREC
 70
     2
  9
$MENU
  1
.
  9
$ELEVATION
 40
0.0
  9
$PELEVATION
 40
0.0
  9
$THICKNESS
 40
0.0
  9
$LIMCHECK
 70
     0
  9
$CHAMFERA
 40
0.0
  9
$CHAMFERB
 40
0.0
  9
$CHAMFERC
 40
0.0
  9
$CHAMFERD
 40
0.0
  9
$SKPOLY
 70
     0
  9
$TDCREATE
 40
2458313.497922222
  9
$TDUCREATE
 40
2458313.122922222
  9
$TDUPDATE
 40
2459719.64708022
  9
$TDUUPDATE
 40
2459719.27208022
  9
$TDINDWG
 40
0.0010874769
  9
$TDUSRTIMER
 40
0.0001329977
  9
$USRTIMER
 70
     1
  9
$ANGBASE
 50
0.0
  9
$ANGDIR
 70
     0
  9
$PDMODE
 70
     0
  9
$PDSIZE
 40
-1.0
  9
$PLINEWID
 40
0.0
  9
$SPLFRAME
 70
     0
  9
$SPLINETYPE
 70
     6
  9
$SPLINESEGS
 70
     8
  9
$HANDSEED
  5
33D
  9
$SURFTAB1
 70
     6
  9
$SURFTAB2
 70
     6
  9
$SURFTYPE
 70
     6
  9
$SURFU
 70
     6
  9
$SURFV
 70
     6
  9
$UCSBASE
  2

  9
$UCSNAME
  2

  9
$UCSORG
 10
0.0
 20
0.0
 30
0.0
  9
$UCSXDIR
 10
1.0
 20
0.0
 30
0.0
  9
$UCSYDIR
 10
0.0
 20
1.0
 30
0.0
  9
$UCSORTHOREF
  2

  9
$UCSORTHOVIEW
 70
     0
  9
$UCSORGTOP
 10
0.0
 20
0.0
 30
0.0
  9
$UCSORGBOTTOM
 10
0.0
 20
0.0
 30
0.0
  9
$UCSORGLEFT
 10
0.0
 20
0.0
 30
0.0
  9
$UCSORGRIGHT
 10
0.0
 20
0.0
 30
0.0
  9
$UCSORGFRONT
 10
0.0
 20
0.0
 30
0.0
  9
$UCSORGBACK
 10
0.0
 20
0.0
 30
0.0
  9
$PUCSBASE
  2

  9
$PUCSNAME
  2

  9
$PUCSORG
 10
0.0
 20
0.0
 30
0.0
  9
$PUCSXDIR
 10
1.0
 20
0.0
 30
0.0
  9
$PUCSYDIR
 10
0.0
 20
1.0
 30
0.0
  9
$PUCSORTHOREF
  2

  9
$PUCSORTHOVIEW
 70
     0
  9
$PUCSORGTOP
 10
0.0
 20
0.0
 30
0.0
  9
$PUCSORGBOTTOM
 10
0.0
 20
0.0
 30
0.0
  9
$PUCSORGLEFT
 10
0.0
 20
0.0
 30
0.0
  9
$PUCSORGRIGHT
 10
0.0
 20
0.0
 30
0.0
  9
$PUCSORGFRONT
 10
0.0
 20
0.0
 30
0.0
  9
$PUCSORGBACK
 10
0.0
 20
0.0
 30
0.0
  9
$USERI1
 70
     0
  9
$USERI2
 70
     0
  9
$USERI3
 70
     0
  9
$USERI4
 70
     0
  9
$USERI5
 70
     0
  9
$USERR1
 40
0.0
  9
$USERR2
 40
0.0
  9
$USERR3
 40
0.0
  9
$USERR4
 40
0.0
  9
$USERR5
 40
0.0
  9
$WORLDVIEW
 70
     1
  9
$SHADEDGE
 70
     3
  9
$SHADEDIF
 70
    70
  9
$TILEMODE
 70
     1
  9
$MAXACTVP
 70
    64
  9
$PINSBASE
 10
0.0
 20
0.0
 30
0.0
  9
$PLIMCHECK
 70
     0
  9
$PEXTMIN
 10
1.000000000000000E+20
 20
1.000000000000000E+20
 30
1.000000000000000E+20
  9
$PEXTMAX
 10
-1.000000000000000E+20
 20
-1.000000000000000E+20
 30
-1.000000000000000E+20
  9
$PLIMMIN
 10
0.0
 20
0.0
  9
$PLIMMAX
 10
0.0
 20
0.0
  9
$UNITMODE
 70
     0
  9
$VISRETAIN
 70
     1
  9
$PLINEGEN
 70
     0
  9
$PSLTSCALE
 70
     1
  9
$TREEDEPTH
 70
  3020
  9
$CMLSTYLE
  2
Standard
  9
$CMLJUST
 70
     0
  9
$CMLSCALE
 40
20.0
  9
$PROXYGRAPHICS
 70
     1
  9
$MEASUREMENT
 70
     1
  9
$CELWEIGHT
370
    -1
  9
$ENDCAPS
280
     0
  9
$JOINSTYLE
280
     0
  9
$LWDISPLAY
290
     1
  9
$INSUNITS
 70
     4
  9
$HYPERLINKBASE
  1

  9
$STYLESHEET
  1

  9
$XEDIT
290
     1
  9
$CEPSNTYPE
380
     0
  9
$PSTYLEMODE
290
     1
  9
$FINGERPRINTGUID
  2
{72B0C770-BEF0-48A9-9594-6EA39CDB2704}
  9
$VERSIONGUID
  2
{FAEB1C32-E019-11D5-929B-00C0DF256EC4}
  9
$EXTNAMES
290
     1
  9
$PSVPSCALE
 40
0.0
  9
$OLESTARTUP
290
     0
  0
ENDSEC
  0
SECTION
  2
CLASSES
  0
CLASS
  1
ACDBDICTIONARYWDFLT
  2
AcDbDictionaryWithDefault
  3
ObjectDBX Classes
 90
        0
280
     0
281
     0
  0
CLASS
  1
VISUALSTYLE
  2
AcDbVisualStyle
  3
ObjectDBX Classes
 90
     4095
280
     0
281
     0
  0
CLASS
  1
MATERIAL
  2
AcDbMaterial
  3
ObjectDBX Classes
 90
     1153
280
     0
281
     0
  0
CLASS
  1
SCALE
  2
AcDbScale
  3
ObjectDBX Classes
 90
     1153
280
     0
281
     0
  0
CLASS
  1
SUN
  2
AcDbSun
  3
SCENEOE
 90
     1153
280
     0
281
     0
  0
CLASS
  1
ACDBPLACEHOLDER
  2
AcDbPlaceHolder
  3
ObjectDBX Classes
 90
        0
280
     0
281
     0
  0
CLASS
  1
LAYOUT
  2
AcDbLayout
  3
ObjectDBX Classes
 90
        0
280
     0
281
     0
  0
CLASS
  1
TABLESTYLE
  2
AcDbTableStyle
  3
ObjectDBX Classes
 90
     4095
280
     0
281
     0
  0
CLASS
  1
MLEADERSTYLE
  2
AcDbMLeaderStyle
  3
ACDB_MLEADERSTYLE_CLASS
 90
     4095
280
     0
281
     0
  0
CLASS
  1
RASTERVARIABLES
  2
AcDbRasterVariables
  3
ISM
 90
        0
280
     0
281
     0
  0
ENDSEC
  0
SECTION
  2
TABLES
  0
TABLE
  2
VPORT
  5
8
330
0
100
AcDbSymbolTable
 70
     1
  0
VPORT
  5
29
330
8
100
AcDbSymbolTableRecord
100
AcDbViewportTableRecord
  2
*Active
 70
     0
 10
0.0
 20
0.0
 11
1.0
 21
1.0
 12
-2.338584316296405
 22
14.04205328134188
 13
0.0
 23
0.0
 14
10.0
 24
10.0
 15
10.0
 25
10.0
 16
0.0
 26
0.0
 36
1.0
 17
0.0
 27
0.0
 37
0.0
 40
95.65315963979576
 41
1.519944979367263
 42
50.0
 43
0.0
 44
0.0
 50
0.0
 51
0.0
 71
    16
 72
  2000
 73
     1
 74
     3
 75
     0
 76
     0
 77
     0
 78
     0
281
     0
 65
     1
110
0.0
120
0.0
130
0.0
111
1.0
121
0.0
131
0.0
112
0.0
122
1.0
132
0.0
 79
     0
146
0.0
  0
ENDTAB
  0
TABLE
  2
LTYPE
  5
5
330
0
100
AcDbSymbolTable
 70
     6
  0
LTYPE
  5
14
330
5
100
AcDbSymbolTableRecord
100
AcDbLinetypeTableRecord
  2
ByBlock
 70
     0
  3

 72
    65
 73
     0
 40
0.0
  0
LTYPE
  5
15
330
5
100
AcDbSymbolTableRecord
100
AcDbLinetypeTableRecord
  2
ByLayer
 70
     0
  3

 72
    65
 73
     0
 40
0.0
  0
LTYPE
  5
16
330
5
100
AcDbSymbolTableRecord
100
AcDbLinetypeTableRecord
  2
Continuous
 70
     0
  3
Solid line
 72
    65
 73
     0
 40
0.0
  0
LTYPE
  5
6A
330
5
100
AcDbSymbolTableRecord
100
AcDbLinetypeTableRecord
  2
HIDDEN
 70
     0
  3
Hidden __ __ __ __ __ __ __ __ __ __ __ __ __ __
 72
    65
 73
     2
 40
1.905
 49
1.27
 74
     0
 49
-0.635
 74
     0
  0
LTYPE
  5
6B
330
5
100
AcDbSymbolTableRecord
100
AcDbLinetypeTableRecord
  2
PHANTOM
 70
     0
  3
Phantom ______  __  __  ______  __  __  ______
 72
    65
 73
     6
 40
12.7
 49
6.35
 74
     0
 49
-1.27
 74
     0
 49
1.27
 74
     0
 49
-1.27
 74
     0
 49
1.27
 74
     0
 49
-1.27
 74
     0
  0
LTYPE
  5
6C
330
5
100
AcDbSymbolTableRecord
100
AcDbLinetypeTableRecord
  2
CENTER
 70
     0
  3
Center ____ _ ____ _ ____ _ ____ _ ____ _ ____
 72
    65
 73
     4
 40
10.16
 49
6.35
 74
     0
 49
-1.27
 74
     0
 49
1.27
 74
     0
 49
-1.27
 74
     0
  0
LTYPE
  5
6D
330
5
100
AcDbSymbolTableRecord
100
AcDbLinetypeTableRecord
  2
CENTERX2
 70
     0
  3
Center (2x) ________  __  ________  __  _____
 72
    65
 73
     4
 40
20.32
 49
12.7
 74
     0
 49
-2.54
 74
     0
 49
2.54
 74
     0
 49
-2.54
 74
     0
  0
LTYPE
  5
6E
330
5
100
AcDbSymbolTableRecord
100
AcDbLinetypeTableRecord
  2
DOT2
 70
     0
  3
Dot (.5x) ........................................
 72
    65
 73
     2
 40
0.635
 49
0.0
 74
     0
 49
-0.635
 74
     0
  0
ENDTAB
  0
TABLE
  2
LAYER
  5
2
102
{ACAD_XDICTIONARY
360
209
102
}
330
0
100
AcDbSymbolTable
 70
    18
  0
LAYER
  5
10
330
2
100
AcDbSymbolTableRecord
100
AcDbLayerTableRecord
  2
0
 70
     0
 62
     7
  6
Continuous
370
    -3
390
F
  0
LAYER
  5
6F
330
2
100
AcDbSymbolTableRecord
100
AcDbLayerTableRecord
  2
FORMAT
 70
     0
 62
     2
  6
Continuous
370
    -3
390
F
  0
LAYER
  5
70
330
2
100
AcDbSymbolTableRecord
100
AcDbLayerTableRecord
  2
외형선
 70
     0
 62
     4
  6
Continuous
370
    30
390
F
  0
LAYER
  5
71
330
2
100
AcDbSymbolTableRecord
100
AcDbLayerTableRecord
  2
숨은선
 70
     0
 62
     2
  6
HIDDEN
370
    15
390
F
  0
LAYER
  5
72
330
2
100
AcDbSymbolTableRecord
100
AcDbLayerTableRecord
  2
중심선
 70
     0
 62
     1
  6
CENTERX2
370
    -3
390
F
  0
LAYER
  5
73
330
2
100
AcDbSymbolTableRecord
100
AcDbLayerTableRecord
  2
파단선
 70
     0
 62
     4
  6
Continuous
370
    -3
390
F
  0
LAYER
  5
74
330
2
100
AcDbSymbolTableRecord
100
AcDbLayerTableRecord
  2
해칭선
 70
     0
 62
   100
  6
Continuous
370
    -3
390
F
  0
LAYER
  5
75
330
2
100
AcDbSymbolTableRecord
100
AcDbLayerTableRecord
  2
가는실선
 70
     0
 62
     4
  6
Continuous
370
    -3
390
F
  0
LAYER
  5
76
330
2
100
AcDbSymbolTableRecord
100
AcDbLayerTableRecord
  2
치수_보조선
 70
     0
 62
     4
  6
Continuous
370
    -3
390
F
  0
LAYER
  5
77
330
2
100
AcDbSymbolTableRecord
100
AcDbLayerTableRecord
  2
치수문자_일반주서
 70
     0
 62
     7
  6
Continuous
370
    15
390
F
  0
LAYER
  5
78
330
2
100
AcDbSymbolTableRecord
100
AcDbLayerTableRecord
  2
개별주서
 70
     0
 62
   100
  6
Continuous
370
    30
390
F
  0
LAYER
  5
79
330
2
100
AcDbSymbolTableRecord
100
AcDbLayerTableRecord
  2
중간선
 70
     0
 62
     2
  6
Continuous
370
    15
390
F
  0
LAYER
  5
7A
330
2
100
AcDbSymbolTableRecord
100
AcDbLayerTableRecord
  2
윤곽선
 70
     0
 62
     3
  6
Continuous
370
    40
390
F
  0
LAYER
  5
7B
330
2
100
AcDbSymbolTableRecord
100
AcDbLayerTableRecord
  2
중심마크
 70
     0
 62
   100
  6
Continuous
370
    30
390
F
  0
LAYER
  5
7C
330
2
100
AcDbSymbolTableRecord
100
AcDbLayerTableRecord
  2
가상선
 70
     0
 62
     4
  6
PHANTOM
370
    -3
390
F
  0
LAYER
  5
7D
330
2
100
AcDbSymbolTableRecord
100
AcDbLayerTableRecord
  2
특수지정선
 70
     0
 62
     5
  6
CENTERX2
370
    60
390
F
  0
LAYER
  5
7E
330
2
100
AcDbSymbolTableRecord
100
AcDbLayerTableRecord
  2
참조1
 70
     0
 62
    -4
  6
Continuous
370
    -3
390
F
  0
LAYER
  5
151
330
2
100
AcDbSymbolTableRecord
100
AcDbLayerTableRecord
  2
Defpoints
 70
     0
 62
     7
  6
Continuous
290
     0
370
    -3
390
F
  0
ENDTAB
  0
TABLE
  2
STYLE
  5
3
330
0
100
AcDbSymbolTable
 70
     2
  0
STYLE
  5
11
330
3
100
AcDbSymbolTableRecord
100
AcDbTextStyleTableRecord
  2
Standard
 70
     0
 40
0.0
 41
1.0
 50
0.0
 71
     0
 42
3.5
  3
txt
  4

  0
STYLE
  5
94
330
3
100
AcDbSymbolTableRecord
100
AcDbTextStyleTableRecord
  2
SLDTEXTSTYLE0
 70
     0
 40
0.0
 41
0.75
 50
0.0
 71
     0
 42
3.5
  3
TXT
  4

  0
ENDTAB
  0
TABLE
  2
VIEW
  5
6
330
0
100
AcDbSymbolTable
 70
     0
  0
ENDTAB
  0
TABLE
  2
UCS
  5
7
330
0
100
AcDbSymbolTable
 70
     0
  0
ENDTAB
  0
TABLE
  2
APPID
  5
9
330
0
100
AcDbSymbolTable
 70
     3
  0
APPID
  5
12
330
9
100
AcDbSymbolTableRecord
100
AcDbRegAppTableRecord
  2
ACAD
 70
     0
  0
APPID
  5
15D
330
9
100
AcDbSymbolTableRecord
100
AcDbRegAppTableRecord
  2
PE_URL
 70
     0
  0
APPID
  5
15E
330
9
100
AcDbSymbolTableRecord
100
AcDbRegAppTableRecord
  2
ACAD_DSTYLE_DIMRADIAL_EXTENSION
 70
     0
  0
ENDTAB
  0
TABLE
  2
DIMSTYLE
  5
A
330
0
100
AcDbSymbolTable
 70
     4
100
AcDbDimStyleTable
  0
DIMSTYLE
105
27
330
A
100
AcDbSymbolTableRecord
100
AcDbDimStyleTableRecord
  2
ISO-25
 70
     0
 41
2.5
 42
0.625
 43
3.75
 44
1.25
 73
     0
 74
     0
 77
     1
 78
     8
140
2.5
141
2.5
143
0.03937007874016
147
0.625
171
     3
172
     1
178
     0
271
     2
272
     2
274
     3
278
    44
283
     0
284
     8
340
11
  0
DIMSTYLE
105
CE
102
{ACAD_REACTORS
330
CD
330
10A
330
E2
330
F7
102
}
330
A
100
AcDbSymbolTableRecord
100
AcDbDimStyleTableRecord
  2
SLDDIMSTYLE0
 70
     0
 41
3.302
 44
0.0
 45
0.000000001
 73
     0
 74
     0
 77
     1
 78
    12
 79
     3
140
3.5
143
0.0393700787401575
147
0.875
148
0.000000001
170
     1
172
     1
173
     1
178
     0
271
     2
272
     2
276
     2
284
    12
289
     0
340
94
  0
DIMSTYLE
105
E3
102
{ACAD_REACTORS
102
}
330
A
100
AcDbSymbolTableRecord
100
AcDbDimStyleTableRecord
  2
SLDDIMSTYLE1
 70
     0
 41
3.302
 44
0.0
 45
0.000000001
 73
     0
 74
     0
 77
     1
 78
     4
 79
     1
140
3.5
143
0.0393700787401575
147
0.875
148
0.000000001
170
     1
173
     1
178
     0
271
     2
272
     2
276
     2
284
    12
340
94
  0
DIMSTYLE
105
15C
102
{ACAD_REACTORS
102
}
330
A
100
AcDbSymbolTableRecord
100
AcDbDimStyleTableRecord
  2
SLDDIMSTYLE2
 70
     0
 41
3.302
 44
0.0
 45
0.000000001
 73
     0
 74
     0
 77
     1
 78
    12
 79
     3
140
3.5
147
0.875
172
     1
173
     1
178
     0
271
     2
272
     2
276
     2
284
    12
289
     0
340
94
  0
ENDTAB
  0
TABLE
  2
BLOCK_RECORD
  5
1
330
0
100
AcDbSymbolTable
 70
    20
  0
BLOCK_RECORD
  5
1F
102
{ACAD_XDICTIONARY
360
33A
102
}
330
1
100
AcDbSymbolTableRecord
100
AcDbBlockTableRecord
  2
*Model_Space
340
22
  0
BLOCK_RECORD
  5
1B
330
1
100
AcDbSymbolTableRecord
100
AcDbBlockTableRecord
  2
*Paper_Space
340
1E
  0
BLOCK_RECORD
  5
23
330
1
100
AcDbSymbolTableRecord
100
AcDbBlockTableRecord
  2
*Paper_Space0
340
26
  0
BLOCK_RECORD
  5
7F
330
1
100
AcDbSymbolTableRecord
100
AcDbBlockTableRecord
  2
블럭10
340
0
102
{BLKREFS
331
C6
102
}
  0
BLOCK_RECORD
  5
CF
330
1
100
AcDbSymbolTableRecord
100
AcDbBlockTableRecord
  2
_D
340
0
  0
BLOCK_RECORD
  5
E4
330
1
100
AcDbSymbolTableRecord
100
AcDbBlockTableRecord
  2
_D_1
340
0
  0
BLOCK_RECORD
  5
F8
330
1
100
AcDbSymbolTableRecord
100
AcDbBlockTableRecord
  2
_D_2
340
0
  0
BLOCK_RECORD
  5
10B
330
1
100
AcDbSymbolTableRecord
100
AcDbBlockTableRecord
  2
_D_3
340
0
  0
BLOCK_RECORD
  5
125
330
1
100
AcDbSymbolTableRecord
100
AcDbBlockTableRecord
  2
SW_DOWELSYMBOL_0
340
0
102
{BLKREFS
331
12B
102
}
  0
BLOCK_RECORD
  5
1E7
330
1
100
AcDbSymbolTableRecord
100
AcDbBlockTableRecord
  2
_D_4
340
0
  0
BLOCK_RECORD
  5
201
330
1
100
AcDbSymbolTableRecord
100
AcDbBlockTableRecord
  2
*D8
340
0
  0
BLOCK_RECORD
  5
20D
330
1
100
AcDbSymbolTableRecord
100
AcDbBlockTableRecord
  2
*D9
340
0
  0
BLOCK_RECORD
  5
219
330
1
100
AcDbSymbolTableRecord
100
AcDbBlockTableRecord
  2
*D10
340
0
  0
BLOCK_RECORD
  5
225
330
1
100
AcDbSymbolTableRecord
100
AcDbBlockTableRecord
  2
*D11
340
0
  0
BLOCK_RECORD
  5
280
330
1
100
AcDbSymbolTableRecord
100
AcDbBlockTableRecord
  2
*D12
340
0
  0
BLOCK_RECORD
  5
28C
330
1
100
AcDbSymbolTableRecord
100
AcDbBlockTableRecord
  2
*D13
340
0
  0
BLOCK_RECORD
  5
298
330
1
100
AcDbSymbolTableRecord
100
AcDbBlockTableRecord
  2
*D14
340
0
  0
BLOCK_RECORD
  5
2A6
330
1
100
AcDbSymbolTableRecord
100
AcDbBlockTableRecord
  2
*D15
340
0
  0
BLOCK_RECORD
  5
2B4
330
1
100
AcDbSymbolTableRecord
100
AcDbBlockTableRecord
  2
*D16
340
0
  0
BLOCK_RECORD
  5
2EC
330
1
100
AcDbSymbolTableRecord
100
AcDbBlockTableRecord
  2
*D17
340
0
  0
BLOCK_RECORD
  5
2FB
330
1
100
AcDbSymbolTableRecord
100
AcDbBlockTableRecord
  2
*D18
340
0
  0
BLOCK_RECORD
  5
30A
330
1
100
AcDbSymbolTableRecord
100
AcDbBlockTableRecord
  2
*D19
340
0
  0
ENDTAB
  0
ENDSEC
  0
SECTION
  2
BLOCKS
  0
BLOCK
  5
20
330
1F
100
AcDbEntity
  8
0
100
AcDbBlockBegin
  2
*Model_Space
 70
     0
 10
0.0
 20
0.0
 30
0.0
  3
*Model_Space
  1
*Model_Space
  0
ENDBLK
  5
21
330
1F
100
AcDbEntity
  8
0
100
AcDbBlockEnd
  0
BLOCK
  5
1C
330
1B
100
AcDbEntity
 67
     1
  8
0
100
AcDbBlockBegin
  2
*Paper_Space
 70
     0
 10
0.0
 20
0.0
 30
0.0
  3
*Paper_Space
  1
*Paper_Space
  0
ENDBLK
  5
1D
330
1B
100
AcDbEntity
 67
     1
  8
0
100
AcDbBlockEnd
  0
BLOCK
  5
24
330
23
100
AcDbEntity
  8
0
100
AcDbBlockBegin
  2
*Paper_Space0
 70
     0
 10
0.0
 20
0.0
 30
0.0
  3
*Paper_Space0
  1
*Paper_Space0
  0
ENDBLK
  5
25
330
23
100
AcDbEntity
  8
0
100
AcDbBlockEnd
  0
BLOCK
  5
80
330
7F
100
AcDbEntity
  8
0
100
AcDbBlockBegin
  2
블럭10
 70
     2
 10
0.0
 20
0.0
 30
0.0
  3
블럭10
  1
블럭10
  0
ELLIPSE
  5
82
330
7F
100
AcDbEntity
  8
중심선
100
AcDbEllipse
 10
20.54032771741204
 20
12.0471743016438
 30
0.0
 11
6.600054785286829
 21
-1.261213355974178E-13
 31
0.0
210
0.0
220
0.0
230
1.0
 40
0.636358354079598
 41
0.9219305317359503
 42
6.513795318482858
  0
ELLIPSE
  5
83
330
7F
100
AcDbEntity
  8
중심선
100
AcDbEllipse
 10
20.54032771746488
 20
12.04717430159265
 30
0.0
 11
3.960054785062283
 21
1.540847449632565E-10
 31
0.0
210
0.0
220
0.0
230
1.0
 40
0.3939339440162632
 41
1.131841032648279
 42
5.62031148352944
  0
LINE
  5
84
330
7F
100
AcDbEntity
  8
중심선
100
AcDbLine
 10
2.268634060543552
 20
16.24717430164393
 30
0.0
 11
5.714909304380834
 21
16.24717430164393
 31
0.0
  0
LINE
  5
85
330
7F
100
AcDbEntity
  8
중심선
100
AcDbLine
 10
5.245725140726316
 20
7.84717430164391
 30
0.0
 11
8.692000384563599
 21
7.84717430164391
 31
0.0
  0
LINE
  5
86
330
7F
100
AcDbEntity
  8
중심선
100
AcDbLine
 10
15.74043728645272
 20
16.24717430164393
 30
0.0
 11
8.692000384563599
 21
7.84717430164391
 31
0.0
  0
LINE
  5
87
330
7F
100
AcDbEntity
  8
중심선
100
AcDbLine
 10
0.1404042013395286
 20
13.71084872107135
 30
0.0
 11
3.58671253028996
 21
13.71088815037384
 31
0.0
  0
LINE
  5
88
330
7F
100
AcDbEntity
  8
중심선
100
AcDbLine
 10
2.750260043222114
 20
10.84717430164391
 30
0.0
 11
6.196535287059397
 21
10.84717430164391
 31
0.0
  0
LINE
  5
89
330
7F
100
AcDbEntity
  8
중심선
100
AcDbLine
 10
12.29416204261559
 20
16.24717430164393
 30
0.0
 11
5.245725140726316
 21
7.84717430164391
 31
0.0
  0
LINE
  5
8A
330
7F
100
AcDbEntity
  8
중심선
100
AcDbLine
 10
10.72767329541681
 20
16.24717430164393
 30
0.0
 11
6.196535287059397
 21
10.84717430164391
 31
0.0
  0
LINE
  5
8B
330
7F
100
AcDbEntity
  8
중심선
100
AcDbLine
 10
7.28139805157953
 20
16.24717430164393
 30
0.0
 11
2.750260043222114
 21
10.84717430164391
 31
0.0
  0
LINE
  5
8C
330
7F
100
AcDbEntity
  8
중심선
100
AcDbLine
 10
5.714909304380834
 20
16.24717430164393
 30
0.0
 11
3.58671253028996
 21
13.71088815037384
 31
0.0
  0
LINE
  5
8D
330
7F
100
AcDbEntity
  8
중심선
100
AcDbLine
 10
2.268634060543552
 20
16.24717430164393
 30
0.0
 11
0.1404042013395286
 21
13.71084872107135
 31
0.0
  0
LINE
  5
8E
330
7F
100
AcDbEntity
  8
중심선
100
AcDbLine
 10
7.28139805157953
 20
16.24717430164393
 30
0.0
 11
10.72767329541681
 21
16.24717430164393
 31
0.0
  0
LINE
  5
8F
330
7F
100
AcDbEntity
  8
중심선
100
AcDbLine
 10
12.29416204261559
 20
16.24717430164393
 30
0.0
 11
15.74043728645272
 21
16.24717430164393
 31
0.0
  0
LINE
  5
90
330
7F
100
AcDbEntity
  8
중심선
100
AcDbLine
 10
19.22036997980202
 20
11.08717430171403
 30
0.0
 11
23.66174974927406
 21
11.08717430171406
 31
0.0
  0
LINE
  5
91
330
7F
100
AcDbEntity
  8
중심선
100
AcDbLine
 10
19.22039502424796
 20
13.00717430171391
 30
0.0
 11
19.22036997980202
 21
11.08717430171403
 31
0.0
  0
LINE
  5
92
330
7F
100
AcDbEntity
  8
중심선
100
AcDbLine
 10
19.22039502424796
 20
13.00717430171391
 30
0.0
 11
26.96566020931264
 21
13.00717430171391
 31
0.0
  0
LINE
  5
93
330
7F
100
AcDbEntity
  8
중심선
100
AcDbLine
 10
22.22332737316547
 20
13.45928029700563
 30
0.0
 11
24.52862924686651
 21
15.39360700705356
 31
0.0
  0
ATTDEF
  5
95
330
7F
100
AcDbEntity
  8
FORMAT
 62
     2
100
AcDbText
 10
4.408487351596664
 20
2.075366912832191
 30
0.0
 40
4.233333333333333
  1
E5023013
 41
0.75
  7
SLDTEXTSTYLE0
 11
4.408487351596664
 21
-0.0412997538344756
 31
0.0
100
AcDbAttributeDefinition
  3

  2
AUTOATTR0
 70
     0
 74
     1
  0
ENDBLK
  5
81
330
7F
100
AcDbEntity
  8
0
100
AcDbBlockEnd
  0
BLOCK
  5
D0
330
CF
100
AcDbEntity
  8
0
100
AcDbBlockBegin
  2
_D
 70
     0
 10
0.0
 20
0.0
 30
0.0
  3
_D
  1
_D
  0
LINE
  5
D2
330
CF
100
AcDbEntity
  8
치수문자_일반주서
 62
     0
370
    -2
100
AcDbLine
 10
31.8125
 20
2.579687500000018
 30
0.0
 11
46.53992444393941
 21
2.579687500000073
 31
0.0
  0
LINE
  5
D3
330
CF
100
AcDbEntity
  8
치수문자_일반주서
 62
     0
370
    -2
100
AcDbLine
 10
31.8125
 20
-2.579687499999983
 30
0.0
 11
46.53992444393943
 21
-2.579687499999928
 31
0.0
  0
LINE
  5
D4
330
CF
100
AcDbEntity
  8
치수문자_일반주서
 62
     0
370
    -2
100
AcDbLine
 10
46.53992444393941
 20
2.579687500000073
 30
0.0
 11
46.53992444393925
 21
41.6715787444025
 31
0.0
  0
LINE
  5
D5
330
CF
100
AcDbEntity
  8
치수문자_일반주서
 62
     0
370
    -2
100
AcDbLine
 10
46.53992444393941
 20
2.579687500000073
 30
0.0
 11
46.53992444393943
 21
-2.579687499999928
 31
0.0
  0
LINE
  5
D6
330
CF
100
AcDbEntity
  8
치수문자_일반주서
 62
     0
370
    -2
100
AcDbLine
 10
46.5399244439394
 20
5.881687500000073
 30
0.0
 11
46.53992444393938
 21
9.183687500000072
 31
0.0
  0
LINE
  5
D7
330
CF
100
AcDbEntity
  8
치수문자_일반주서
 62
     0
370
    -2
100
AcDbLine
 10
46.53992444393945
 20
-5.881687499999927
 30
0.0
 11
46.53992444393946
 21
-9.183687499999927
 31
0.0
  0
SOLID
  5
D8
330
CF
100
AcDbEntity
  8
치수문자_일반주서
 62
     0
100
AcDbTrace
 10
45.98959111060606
 20
5.88168750000007
 30
0.0
 11
47.09025777727273
 21
5.881687500000075
 31
0.0
 12
46.53992444393941
 22
2.579687500000073
 32
0.0
 13
46.53992444393941
 23
2.579687500000073
 33
0.0
  0
SOLID
  5
D9
330
CF
100
AcDbEntity
  8
치수문자_일반주서
 62
     0
100
AcDbTrace
 10
47.09025777727278
 20
-5.881687499999924
 30
0.0
 11
45.98959111060611
 21
-5.88168749999993
 31
0.0
 12
46.53992444393943
 22
-2.579687499999928
 32
0.0
 13
46.53992444393943
 23
-2.579687499999928
 33
0.0
  0
MTEXT
  5
DA
330
CF
100
AcDbEntity
  8
치수문자_일반주서
 62
     0
100
AcDbMText
 10
42.16492444393931
 20
26.79657874440248
 30
0.0
 40
3.5
 41
0.0
 71
     2
 72
     1
  1
\A1;%%c5.16 [13/64]
  7
SLDTEXTSTYLE0
 11
-4.131562848756488E-15
 21
1.0
 31
0.0
 73
     1
 44
1.0
  0
POINT
  5
DB
330
CF
100
AcDbEntity
  8
Defpoints
 62
     0
100
AcDbPoint
 10
31.75
 20
2.579687500000017
 30
0.0
  0
POINT
  5
DC
330
CF
100
AcDbEntity
  8
Defpoints
 62
     0
100
AcDbPoint
 10
31.75
 20
-2.579687499999983
 30
0.0
  0
POINT
  5
DD
330
CF
100
AcDbEntity
  8
Defpoints
 62
     0
100
AcDbPoint
 10
46.53992444393943
 20
-2.579687499999928
 30
0.0
  0
ENDBLK
  5
D1
330
CF
100
AcDbEntity
  8
0
100
AcDbBlockEnd
  0
BLOCK
  5
E5
330
E4
100
AcDbEntity
  8
0
100
AcDbBlockBegin
  2
_D_1
 70
     0
 10
0.0
 20
0.0
 30
0.0
  3
_D_1
  1
_D_1
  0
LINE
  5
E7
330
E4
100
AcDbEntity
  8
치수문자_일반주서
 62
     0
370
    -2
100
AcDbLine
 10
31.75
 20
2.632700935333222
 30
0.0
 11
31.75
 21
27.5936950842288
 31
0.0
  0
LINE
  5
E8
330
E4
100
AcDbEntity
  8
치수문자_일반주서
 62
     0
370
    -2
100
AcDbLine
 10
19.04999999999998
 20
2.617492422028601
 30
0.0
 11
19.04999999999998
 21
27.5936950842288
 31
0.0
  0
LINE
  5
E9
330
E4
100
AcDbEntity
  8
치수문자_일반주서
 62
     0
370
    -2
100
AcDbLine
 10
19.04999999999998
 20
27.5936950842288
 30
0.0
 11
-9.866500000000023
 21
27.5936950842288
 31
0.0
  0
LINE
  5
EA
330
E4
100
AcDbEntity
  8
치수문자_일반주서
 62
     0
370
    -2
100
AcDbLine
 10
31.75
 20
27.5936950842288
 30
0.0
 11
19.04999999999998
 21
27.5936950842288
 31
0.0
  0
LINE
  5
EB
330
E4
100
AcDbEntity
  8
치수문자_일반주서
 62
     0
370
    -2
100
AcDbLine
 10
35.052
 20
27.5936950842288
 30
0.0
 11
38.354
 21
27.5936950842288
 31
0.0
  0
LINE
  5
EC
330
E4
100
AcDbEntity
  8
치수문자_일반주서
 62
     0
370
    -2
100
AcDbLine
 10
15.74799999999998
 20
27.5936950842288
 30
0.0
 11
12.44599999999998
 21
27.5936950842288
 31
0.0
  0
SOLID
  5
ED
330
E4
100
AcDbEntity
  8
치수문자_일반주서
 62
     0
100
AcDbTrace
 10
35.052
 20
28.14402841756213
 30
0.0
 11
35.052
 21
27.04336175089546
 31
0.0
 12
31.75
 22
27.5936950842288
 32
0.0
 13
31.75
 23
27.5936950842288
 33
0.0
  0
SOLID
  5
EE
330
E4
100
AcDbEntity
  8
치수문자_일반주서
 62
     0
100
AcDbTrace
 10
15.74799999999998
 20
27.04336175089546
 30
0.0
 11
15.74799999999998
 21
28.14402841756213
 31
0.0
 12
19.04999999999998
 22
27.5936950842288
 32
0.0
 13
19.04999999999998
 23
27.5936950842288
 33
0.0
  0
MTEXT
  5
EF
330
E4
100
AcDbEntity
  8
치수문자_일반주서
 62
     0
100
AcDbMText
 10
1.070999999999977
 20
31.9686950842288
 30
0.0
 40
3.5
 41
0.0
 71
     2
 72
     1
  1
\A1;12.7 [1/2]
  7
SLDTEXTSTYLE0
 73
     1
 44
1.0
  0
POINT
  5
F0
330
E4
100
AcDbEntity
  8
Defpoints
 62
     0
100
AcDbPoint
 10
31.75
 20
2.570200935333222
 30
0.0
  0
POINT
  5
F1
330
E4
100
AcDbEntity
  8
Defpoints
 62
     0
100
AcDbPoint
 10
19.04999999999998
 20
2.554992422028601
 30
0.0
  0
POINT
  5
F2
330
E4
100
AcDbEntity
  8
Defpoints
 62
     0
100
AcDbPoint
 10
19.04999999999998
 20
27.5936950842288
 30
0.0
  0
ENDBLK
  5
E6
330
E4
100
AcDbEntity
  8
0
100
AcDbBlockEnd
  0
BLOCK
  5
F9
330
F8
100
AcDbEntity
  8
0
100
AcDbBlockBegin
  2
_D_2
 70
     0
 10
0.0
 20
0.0
 30
0.0
  3
_D_2
  1
_D_2
  0
LINE
  5
FB
330
F8
100
AcDbEntity
  8
치수문자_일반주서
 62
     0
370
    -2
100
AcDbLine
 10
31.75
 20
2.632700935333222
 30
0.0
 11
31.75
 21
50.16061987830763
 31
0.0
  0
LINE
  5
FC
330
F8
100
AcDbEntity
  8
치수문자_일반주서
 62
     0
370
    -2
100
AcDbLine
 10
-31.75
 20
2.602500000000001
 30
0.0
 11
-31.75
 21
50.16061987830763
 31
0.0
  0
LINE
  5
FD
330
F8
100
AcDbEntity
  8
치수문자_일반주서
 62
     0
370
    -2
100
AcDbLine
 10
28.448
 20
50.16061987830763
 30
0.0
 11
-28.448
 21
50.16061987830763
 31
0.0
  0
SOLID
  5
FE
330
F8
100
AcDbEntity
  8
치수문자_일반주서
 62
     0
100
AcDbTrace
 10
28.448
 20
49.61028654497429
 30
0.0
 11
28.448
 21
50.71095321164096
 31
0.0
 12
31.75
 22
50.16061987830763
 32
0.0
 13
31.75
 23
50.16061987830763
 33
0.0
  0
SOLID
  5
FF
330
F8
100
AcDbEntity
  8
치수문자_일반주서
 62
     0
100
AcDbTrace
 10
-28.448
 20
50.71095321164096
 30
0.0
 11
-28.448
 21
49.61028654497429
 31
0.0
 12
-31.75
 22
50.16061987830763
 32
0.0
 13
-31.75
 23
50.16061987830763
 33
0.0
  0
MTEXT
  5
100
330
F8
100
AcDbEntity
  8
치수문자_일반주서
 62
     0
100
AcDbMText
 10
-1.620199429023449
 20
54.53561987830763
 30
0.0
 40
3.5
 41
0.0
 71
     2
 72
     1
  1
\A1;63.5 [2 1/2]
  7
SLDTEXTSTYLE0
 73
     1
 44
1.0
  0
POINT
  5
101
330
F8
100
AcDbEntity
  8
Defpoints
 62
     0
100
AcDbPoint
 10
31.75
 20
2.570200935333222
 30
0.0
  0
POINT
  5
102
330
F8
100
AcDbEntity
  8
Defpoints
 62
     0
100
AcDbPoint
 10
-31.75
 20
2.540000000000001
 30
0.0
  0
POINT
  5
103
330
F8
100
AcDbEntity
  8
Defpoints
 62
     0
100
AcDbPoint
 10
-31.75
 20
50.16061987830763
 30
0.0
  0
ENDBLK
  5
FA
330
F8
100
AcDbEntity
  8
0
100
AcDbBlockEnd
  0
BLOCK
  5
10C
330
10B
100
AcDbEntity
  8
0
100
AcDbBlockBegin
  2
_D_3
 70
     0
 10
0.0
 20
0.0
 30
0.0
  3
_D_3
  1
_D_3
  0
LINE
  5
10E
330
10B
100
AcDbEntity
  8
치수문자_일반주서
 62
     0
370
    -2
100
AcDbLine
 10
-15.89076350361913
 20
3.175000000000003
 30
0.0
 11
-39.19419698809567
 21
3.174999999999915
 31
0.0
  0
LINE
  5
10F
330
10B
100
AcDbEntity
  8
치수문자_일반주서
 62
     0
370
    -2
100
AcDbLine
 10
-15.89076350361913
 20
-3.175000000000003
 30
0.0
 11
-39.19419698809565
 21
-3.175000000000093
 31
0.0
  0
LINE
  5
110
330
10B
100
AcDbEntity
  8
치수문자_일반주서
 62
     0
370
    -2
100
AcDbLine
 10
-39.19419698809567
 20
3.174999999999915
 30
0.0
 11
-39.19419698809578
 21
35.81024999999998
 31
0.0
  0
LINE
  5
111
330
10B
100
AcDbEntity
  8
치수문자_일반주서
 62
     0
370
    -2
100
AcDbLine
 10
-39.19419698809567
 20
3.174999999999915
 30
0.0
 11
-39.19419698809565
 21
-3.175000000000093
 31
0.0
  0
LINE
  5
112
330
10B
100
AcDbEntity
  8
치수문자_일반주서
 62
     0
370
    -2
100
AcDbLine
 10
-39.19419698809568
 20
6.476999999999915
 30
0.0
 11
-39.1941969880957
 21
9.778999999999915
 31
0.0
  0
LINE
  5
113
330
10B
100
AcDbEntity
  8
치수문자_일반주서
 62
     0
370
    -2
100
AcDbLine
 10
-39.19419698809563
 20
-6.477000000000093
 30
0.0
 11
-39.19419698809562
 21
-9.779000000000092
 31
0.0
  0
SOLID
  5
114
330
10B
100
AcDbEntity
  8
치수문자_일반주서
 62
     0
100
AcDbTrace
 10
-39.74453032142902
 20
6.476999999999913
 30
0.0
 11
-38.64386365476235
 21
6.476999999999917
 31
0.0
 12
-39.19419698809567
 22
3.174999999999915
 32
0.0
 13
-39.19419698809567
 23
3.174999999999915
 33
0.0
  0
SOLID
  5
115
330
10B
100
AcDbEntity
  8
치수문자_일반주서
 62
     0
100
AcDbTrace
 10
-38.6438636547623
 20
-6.477000000000091
 30
0.0
 11
-39.74453032142897
 21
-6.477000000000094
 31
0.0
 12
-39.19419698809565
 22
-3.175000000000093
 32
0.0
 13
-39.19419698809565
 23
-3.175000000000093
 33
0.0
  0
MTEXT
  5
116
330
10B
100
AcDbEntity
  8
치수문자_일반주서
 62
     0
100
AcDbMText
 10
-43.56919698809573
 20
23.12274999999997
 30
0.0
 40
3.5
 41
0.0
 71
     2
 72
     1
  1
\A1;%%c6.35 [1/4]
  7
SLDTEXTSTYLE0
 11
-3.356894814614643E-15
 21
1.0
 31
0.0
 73
     1
 44
1.0
  0
POINT
  5
2BE
330
10B
100
AcDbEntity
  8
Defpoints
 62
     0
100
AcDbPoint
 10
-15.82826350361913
 20
3.175000000000003
 30
0.0
  0
POINT
  5
2BF
330
10B
100
AcDbEntity
  8
Defpoints
 62
     0
100
AcDbPoint
 10
-15.82826350361913
 20
-3.175000000000003
 30
0.0
  0
POINT
  5
2C0
330
10B
100
AcDbEntity
  8
Defpoints
 62
     0
100
AcDbPoint
 10
-39.19419698809565
 20
-3.17500000000009
 30
0.0
  0
ENDBLK
  5
10D
330
10B
100
AcDbEntity
  8
0
100
AcDbBlockEnd
  0
BLOCK
  5
126
330
125
100
AcDbEntity
  8
0
100
AcDbBlockBegin
  2
SW_DOWELSYMBOL_0
 70
     0
 10
0.0
 20
0.0
 30
0.0
  3
SW_DOWELSYMBOL_0
  1
SW_DOWELSYMBOL_0
  0
CIRCLE
  5
128
330
125
100
AcDbEntity
  8
해칭선
 62
     0
100
AcDbCircle
 10
0.0
 20
0.0
 30
0.0
 40
3.000000000000005
  0
HATCH
  5
129
330
125
100
AcDbEntity
  8
0
  6
Continuous
 62
     0
370
     0
100
AcDbHatch
 10
0.0
 20
0.0
 30
0.0
210
0.0
220
0.0
230
1.0
  2
SOLID
 70
     1
 71
     0
 91
        1
 92
        0
 93
        3
 72
     2
 10
0.0
 20
0.0
 40
3.000000000000005
 50
0.0
 51
90.0
 73
     1
 72
     1
 10
0.0
 20
3.000000000000005
 11
0.0
 21
0.0
 72
     1
 10
0.0
 20
0.0
 11
3.000000000000004
 21
0.0
 97
        0
 75
     0
 76
     1
 98
        1
 10
0.0
 20
0.0
  0
HATCH
  5
12A
330
125
100
AcDbEntity
  8
0
  6
Continuous
 62
     0
370
     0
100
AcDbHatch
 10
0.0
 20
0.0
 30
0.0
210
0.0
220
0.0
230
1.0
  2
SOLID
 70
     1
 71
     0
 91
        1
 92
        0
 93
        3
 72
     2
 10
0.0
 20
0.0
 40
3.000000000000005
 50
180.0
 51
270.0000000000007
 73
     1
 72
     1
 10
0.0
 20
-3.000000000000005
 11
0.0
 21
0.0
 72
     1
 10
0.0
 20
0.0
 11
-3.000000000000005
 21
0.0
 97
        0
 75
     0
 76
     1
 98
        1
 10
0.0
 20
0.0
  0
ENDBLK
  5
127
330
125
100
AcDbEntity
  8
0
100
AcDbBlockEnd
  0
BLOCK
  5
1E8
330
1E7
100
AcDbEntity
  8
0
100
AcDbBlockBegin
  2
_D_4
 70
     0
 10
0.0
 20
0.0
 30
0.0
  3
_D_4
  1
_D_4
  0
LINE
  5
1E9
330
1E7
100
AcDbEntity
  8
치수문자_일반주서
 62
     0
370
    -2
100
AcDbLine
 10
102.4375000000001
 20
36.22143424691529
 30
0.0
 11
117.3750000000001
 21
36.22143424691535
 31
0.0
  0
LINE
  5
1EA
330
1E7
100
AcDbEntity
  8
치수문자_일반주서
 62
     0
370
    -2
100
AcDbLine
 10
102.4375000000001
 20
22.22143424691529
 30
0.0
 11
117.3750000000001
 21
22.22143424691535
 31
0.0
  0
LINE
  5
1EB
330
1E7
100
AcDbEntity
  8
치수문자_일반주서
 62
     0
370
    -2
100
AcDbLine
 10
117.3750000000001
 20
36.22143424691535
 30
0.0
 11
117.3750000000001
 21
22.22143424691535
 31
0.0
  0
LINE
  5
1EC
330
1E7
100
AcDbEntity
  8
치수문자_일반주서
 62
     0
370
    -2
100
AcDbLine
 10
117.3750000000001
 20
39.52343424691535
 30
0.0
 11
117.375
 21
42.82543424691535
 31
0.0
  0
LINE
  5
1ED
330
1E7
100
AcDbEntity
  8
치수문자_일반주서
 62
     0
370
    -2
100
AcDbLine
 10
117.3750000000001
 20
18.91943424691535
 30
0.0
 11
117.3750000000001
 21
15.61743424691535
 31
0.0
  0
SOLID
  5
1EE
330
1E7
100
AcDbEntity
  8
치수문자_일반주서
 62
     0
100
AcDbTrace
 10
116.8246666666667
 20
39.52343424691535
 30
0.0
 11
117.9253333333334
 21
39.52343424691535
 31
0.0
 12
117.3750000000001
 22
36.22143424691535
 32
0.0
 13
117.3750000000001
 23
36.22143424691535
 33
0.0
  0
SOLID
  5
1EF
330
1E7
100
AcDbEntity
  8
치수문자_일반주서
 62
     0
100
AcDbTrace
 10
117.9253333333335
 20
18.91943424691535
 30
0.0
 11
116.8246666666668
 21
18.91943424691535
 31
0.0
 12
117.3750000000001
 22
22.22143424691535
 32
0.0
 13
117.3750000000001
 23
22.22143424691535
 33
0.0
  0
MTEXT
  5
1F0
330
1E7
100
AcDbEntity
  8
치수문자_일반주서
 62
     0
100
AcDbMText
 10
113.0000000000001
 20
29.28713862862833
 30
0.0
 40
3.5
 41
0.0
 71
     2
 72
     1
  1
\A1;%%c14
  7
SLDTEXTSTYLE0
 11
-3.045183153257572E-15
 21
1.0
 31
0.0
 73
     1
 44
1.0
  0
POINT
  5
1F1
330
1E7
100
AcDbEntity
  8
Defpoints
 62
     0
100
AcDbPoint
 10
102.3750000000001
 20
36.22143424691529
 30
0.0
  0
POINT
  5
1F2
330
1E7
100
AcDbEntity
  8
Defpoints
 62
     0
100
AcDbPoint
 10
102.3750000000001
 20
22.22143424691529
 30
0.0
  0
POINT
  5
1F3
330
1E7
100
AcDbEntity
  8
Defpoints
 62
     0
100
AcDbPoint
 10
117.3750000000001
 20
22.22143424691535
 30
0.0
  0
ENDBLK
  5
1F4
330
1E7
100
AcDbEntity
  8
0
100
AcDbBlockEnd
  0
BLOCK
  5
202
330
201
100
AcDbEntity
  8
0
100
AcDbBlockBegin
  2
*D8
 70
     1
 10
0.0
 20
0.0
 30
0.0
  3
*D8
  1
*D8
  0
LINE
  5
203
330
201
100
AcDbEntity
  8
치수문자_일반주서
 62
     0
370
    -2
100
AcDbLine
 10
103.8657751816695
 20
19.48229575403651
 30
0.0
 11
120.1921280501954
 21
-7.081888143622854
 31
0.0
  0
MTEXT
  5
204
330
201
100
AcDbEntity
  8
치수문자_일반주서
 62
     0
100
AcDbMText
 10
115.6706384014277
 20
5.288158154535728
 30
0.0
 40
3.5
 41
0.0
 71
     5
 72
     1
  1
\A1;R.50 [R0.02]
  7
SLDTEXTSTYLE0
 11
0.5236126201129557
 21
-0.8519564684057781
 31
0.0
 73
     1
 44
1.0
  0
SOLID
  5
205
330
201
100
AcDbEntity
  8
치수문자_일반주서
 62
     0
100
AcDbTrace
 10
104.3346352247821
 20
19.77045723263868
 30
0.0
 11
103.3969151385569
 21
19.19413427543435
 31
0.0
 12
102.1368063100565
 22
22.29545601271239
 32
0.0
 13
102.1368063100565
 23
22.29545601271239
 33
0.0
  0
LINE
  5
206
330
201
100
AcDbEntity
  8
치수문자_일반주서
 62
     0
100
AcDbLine
 10
101.785
 20
22.72143424691529
 30
0.0
 11
101.965
 21
22.72143424691529
 31
0.0
  0
LINE
  5
207
330
201
100
AcDbEntity
  8
치수문자_일반주서
 62
     0
100
AcDbLine
 10
101.875
 20
22.63143424691529
 30
0.0
 11
101.875
 21
22.81143424691529
 31
0.0
  0
POINT
  5
233
330
201
100
AcDbEntity
  8
Defpoints
 62
     0
100
AcDbPoint
 10
102.1368063100565
 20
22.29545601271239
 30
0.0
  0
POINT
  5
234
330
201
100
AcDbEntity
  8
Defpoints
 62
     0
100
AcDbPoint
 10
101.875
 20
22.72143424691529
 30
0.0
  0
ENDBLK
  5
208
330
201
100
AcDbEntity
  8
0
100
AcDbBlockEnd
  0
BLOCK
  5
20E
330
20D
100
AcDbEntity
  8
0
100
AcDbBlockBegin
  2
*D9
 70
     1
 10
0.0
 20
0.0
 30
0.0
  3
*D9
  1
*D10
  0
LINE
  5
210
330
20D
100
AcDbEntity
  8
치수문자_일반주서
 62
     0
370
    -2
100
AcDbLine
 10
19.37500000000004
 20
35.78393424691529
 30
0.0
 11
19.37500000000004
 21
70.88391841499404
 31
0.0
  0
LINE
  5
211
330
20D
100
AcDbEntity
  8
치수문자_일반주서
 62
     0
370
    -2
100
AcDbLine
 10
102.3750000000001
 20
36.34643424691529
 30
0.0
 11
102.3750000000001
 21
70.88391841499404
 31
0.0
  0
LINE
  5
212
330
20D
100
AcDbEntity
  8
치수문자_일반주서
 62
     0
370
    -2
100
AcDbLine
 10
22.67700000000004
 20
70.88391841499404
 30
0.0
 11
99.07300000000006
 21
70.88391841499404
 31
0.0
  0
SOLID
  5
213
330
20D
100
AcDbEntity
  8
치수문자_일반주서
 62
     0
100
AcDbTrace
 10
22.67700000000004
 20
71.43425174832737
 30
0.0
 11
22.67700000000004
 21
70.33358508166071
 31
0.0
 12
19.37500000000004
 22
70.88391841499404
 32
0.0
 13
19.37500000000004
 23
70.88391841499404
 33
0.0
  0
SOLID
  5
214
330
20D
100
AcDbEntity
  8
치수문자_일반주서
 62
     0
100
AcDbTrace
 10
99.07300000000006
 20
70.33358508166071
 30
0.0
 11
99.07300000000006
 21
71.43425174832737
 31
0.0
 12
102.3750000000001
 22
70.88391841499404
 32
0.0
 13
102.3750000000001
 23
70.88391841499404
 33
0.0
  0
MTEXT
  5
215
330
20D
100
AcDbEntity
  8
치수문자_일반주서
 62
     0
100
AcDbMText
 10
60.87500000000005
 20
75.25891841499404
 30
0.0
 40
3.5
 41
0.0
 71
     2
 72
     1
  1
\A1;83 [3.27]
  7
SLDTEXTSTYLE0
 73
     1
 44
1.0
  0
POINT
  5
216
330
20D
100
AcDbEntity
  8
Defpoints
 62
     0
100
AcDbPoint
 10
19.37500000000004
 20
35.72143424691529
 30
0.0
  0
POINT
  5
217
330
20D
100
AcDbEntity
  8
Defpoints
 62
     0
100
AcDbPoint
 10
102.3750000000001
 20
36.28393424691529
 30
0.0
  0
POINT
  5
218
330
20D
100
AcDbEntity
  8
Defpoints
 62
     0
100
AcDbPoint
 10
102.3750000000001
 20
70.88391841499404
 30
0.0
  0
ENDBLK
  5
20F
330
20D
100
AcDbEntity
  8
0
100
AcDbBlockEnd
  0
BLOCK
  5
21A
330
219
100
AcDbEntity
  8
0
100
AcDbBlockBegin
  2
*D10
 70
     1
 10
0.0
 20
0.0
 30
0.0
  3
*D10
  1
*D11
  0
LINE
  5
21C
330
219
100
AcDbEntity
  8
치수문자_일반주서
 62
     0
370
    -2
100
AcDbLine
 10
76.37504186422882
 20
28.62038676313042
 30
0.0
 11
76.37504186422882
 21
61.90091383617725
 31
0.0
  0
LINE
  5
21D
330
219
100
AcDbEntity
  8
치수문자_일반주서
 62
     0
370
    -2
100
AcDbLine
 10
102.3750000000001
 20
36.28393424691529
 30
0.0
 11
102.3750000000001
 21
61.90091383617725
 31
0.0
  0
LINE
  5
21E
330
219
100
AcDbEntity
  8
치수문자_일반주서
 62
     0
370
    -2
100
AcDbLine
 10
79.67704186422881
 20
61.90091383617725
 30
0.0
 11
99.07300000000006
 21
61.90091383617725
 31
0.0
  0
SOLID
  5
21F
330
219
100
AcDbEntity
  8
치수문자_일반주서
 62
     0
100
AcDbTrace
 10
79.67704186422881
 20
62.45124716951059
 30
0.0
 11
79.67704186422881
 21
61.35058050284392
 31
0.0
 12
76.37504186422882
 22
61.90091383617725
 32
0.0
 13
76.37504186422882
 23
61.90091383617725
 33
0.0
  0
SOLID
  5
220
330
219
100
AcDbEntity
  8
치수문자_일반주서
 62
     0
100
AcDbTrace
 10
99.07300000000006
 20
61.35058050284392
 30
0.0
 11
99.07300000000006
 21
62.45124716951059
 31
0.0
 12
102.3750000000001
 22
61.90091383617725
 32
0.0
 13
102.3750000000001
 23
61.90091383617725
 33
0.0
  0
MTEXT
  5
221
330
219
100
AcDbEntity
  8
치수문자_일반주서
 62
     0
100
AcDbMText
 10
89.42159572693208
 20
66.27591383617725
 30
0.0
 40
3.5
 41
0.0
 71
     2
 72
     1
  1
\A1;26 [1.02]
  7
SLDTEXTSTYLE0
 73
     1
 44
1.0
  0
POINT
  5
222
330
219
100
AcDbEntity
  8
Defpoints
 62
     0
100
AcDbPoint
 10
76.37504186422882
 20
28.55788676313042
 30
0.0
  0
POINT
  5
223
330
219
100
AcDbEntity
  8
Defpoints
 62
     0
100
AcDbPoint
 10
102.3750000000001
 20
36.22143424691529
 30
0.0
  0
POINT
  5
224
330
219
100
AcDbEntity
  8
Defpoints
 62
     0
100
AcDbPoint
 10
102.3750000000001
 20
61.90091383617725
 30
0.0
  0
ENDBLK
  5
21B
330
219
100
AcDbEntity
  8
0
100
AcDbBlockEnd
  0
BLOCK
  5
226
330
225
100
AcDbEntity
  8
0
100
AcDbBlockBegin
  2
*D11
 70
     1
 10
0.0
 20
0.0
 30
0.0
  3
*D11
  1
*D12
  0
LINE
  5
228
330
225
100
AcDbEntity
  8
치수문자_일반주서
 62
     0
370
    -2
100
AcDbLine
 10
19.81250000000005
 20
36.22143424691529
 30
0.0
 11
4.374999999999983
 21
36.22143424691524
 31
0.0
  0
LINE
  5
229
330
225
100
AcDbEntity
  8
치수문자_일반주서
 62
     0
370
    -2
100
AcDbLine
 10
19.81250000000005
 20
22.22143424691529
 30
0.0
 11
4.375000000000032
 21
22.22143424691524
 31
0.0
  0
LINE
  5
22A
330
225
100
AcDbEntity
  8
치수문자_일반주서
 62
     0
370
    -2
100
AcDbLine
 10
4.374999999999983
 20
36.22143424691524
 30
0.0
 11
4.375000000000032
 21
22.22143424691524
 31
0.0
  0
LINE
  5
22B
330
225
100
AcDbEntity
  8
치수문자_일반주서
 62
     0
370
    -2
100
AcDbLine
 10
4.374999999999972
 20
39.52343424691524
 30
0.0
 11
4.37499999999996
 21
42.82543424691524
 31
0.0
  0
LINE
  5
22C
330
225
100
AcDbEntity
  8
치수문자_일반주서
 62
     0
370
    -2
100
AcDbLine
 10
4.375000000000044
 20
18.91943424691524
 30
0.0
 11
4.375000000000055
 21
15.61743424691524
 31
0.0
  0
SOLID
  5
22D
330
225
100
AcDbEntity
  8
치수문자_일반주서
 62
     0
100
AcDbTrace
 10
3.824666666666638
 20
39.52343424691524
 30
0.0
 11
4.925333333333305
 21
39.52343424691524
 31
0.0
 12
4.374999999999983
 22
36.22143424691524
 32
0.0
 13
4.374999999999983
 23
36.22143424691524
 33
0.0
  0
SOLID
  5
22E
330
225
100
AcDbEntity
  8
치수문자_일반주서
 62
     0
100
AcDbTrace
 10
4.925333333333377
 20
18.91943424691524
 30
0.0
 11
3.82466666666671
 21
18.91943424691523
 31
0.0
 12
4.375000000000032
 22
22.22143424691524
 32
0.0
 13
4.375000000000032
 23
22.22143424691524
 33
0.0
  0
MTEXT
  5
22F
330
225
100
AcDbEntity
  8
치수문자_일반주서
 62
     0
100
AcDbMText
 10
0.0000000000000071
 20
29.22143424691528
 30
0.0
 40
3.5
 41
0.0
 71
     2
 72
     1
  1
\A1;%%c14
  7
SLDTEXTSTYLE0
 11
-3.489272363107635E-15
 21
1.0
 31
0.0
 73
     1
 44
1.0
  0
POINT
  5
230
330
225
100
AcDbEntity
  8
Defpoints
 62
     0
100
AcDbPoint
 10
19.87500000000005
 20
36.22143424691529
 30
0.0
  0
POINT
  5
231
330
225
100
AcDbEntity
  8
Defpoints
 62
     0
100
AcDbPoint
 10
19.87500000000005
 20
22.22143424691529
 30
0.0
  0
POINT
  5
232
330
225
100
AcDbEntity
  8
Defpoints
 62
     0
100
AcDbPoint
 10
4.375000000000043
 20
22.22143424691524
 30
0.0
  0
ENDBLK
  5
227
330
225
100
AcDbEntity
  8
0
100
AcDbBlockEnd
  0
BLOCK
  5
281
330
280
100
AcDbEntity
  8
0
100
AcDbBlockBegin
  2
*D12
 70
     1
 10
0.0
 20
0.0
 30
0.0
  3
*D12
  1
*D13
  0
LINE
  5
283
330
280
100
AcDbEntity
  8
치수문자_일반주서
 62
     0
370
    -2
100
AcDbLine
 10
-85.29079502300179
 20
121.5203309659432
 30
0.0
 11
-85.29079502300179
 21
156.620315134022
 31
0.0
  0
LINE
  5
284
330
280
100
AcDbEntity
  8
치수문자_일반주서
 62
     0
370
    -2
100
AcDbLine
 10
-2.290795023001778
 20
122.0828309659432
 30
0.0
 11
-2.290795023001778
 21
156.620315134022
 31
0.0
  0
LINE
  5
285
330
280
100
AcDbEntity
  8
치수문자_일반주서
 62
     0
370
    -2
100
AcDbLine
 10
-81.98879502300179
 20
156.620315134022
 30
0.0
 11
-5.592795023001777
 21
156.620315134022
 31
0.0
  0
SOLID
  5
286
330
280
100
AcDbEntity
  8
치수문자_일반주서
 62
     0
100
AcDbTrace
 10
-81.98879502300179
 20
157.1706484673553
 30
0.0
 11
-81.98879502300179
 21
156.0699818006886
 31
0.0
 12
-85.29079502300179
 22
156.620315134022
 32
0.0
 13
-85.29079502300179
 23
156.620315134022
 33
0.0
  0
SOLID
  5
287
330
280
100
AcDbEntity
  8
치수문자_일반주서
 62
     0
100
AcDbTrace
 10
-5.592795023001777
 20
156.0699818006886
 30
0.0
 11
-5.592795023001777
 21
157.1706484673553
 31
0.0
 12
-2.290795023001778
 22
156.620315134022
 32
0.0
 13
-2.290795023001778
 23
156.620315134022
 33
0.0
  0
MTEXT
  5
288
330
280
100
AcDbEntity
  8
치수문자_일반주서
 62
     0
100
AcDbMText
 10
-43.79079502300178
 20
160.995315134022
 30
0.0
 40
3.5
 41
0.0
 71
     2
 72
     1
  1
\A1;83 [3.27]
  7
SLDTEXTSTYLE0
 73
     1
 44
1.0
  0
POINT
  5
289
330
280
100
AcDbEntity
  8
Defpoints
 62
     0
100
AcDbPoint
 10
-85.29079502300179
 20
121.4578309659432
 30
0.0
  0
POINT
  5
28A
330
280
100
AcDbEntity
  8
Defpoints
 62
     0
100
AcDbPoint
 10
-2.290795023001778
 20
122.0203309659432
 30
0.0
  0
POINT
  5
28B
330
280
100
AcDbEntity
  8
Defpoints
 62
     0
100
AcDbPoint
 10
-2.290795023001778
 20
156.620315134022
 30
0.0
  0
ENDBLK
  5
282
330
280
100
AcDbEntity
  8
0
100
AcDbBlockEnd
  0
BLOCK
  5
28D
330
28C
100
AcDbEntity
  8
0
100
AcDbBlockBegin
  2
*D13
 70
     1
 10
0.0
 20
0.0
 30
0.0
  3
*D13
  1
*D14
  0
LINE
  5
28F
330
28C
100
AcDbEntity
  8
치수문자_일반주서
 62
     0
370
    -2
100
AcDbLine
 10
-28.29075315877301
 20
114.3567834821583
 30
0.0
 11
-28.29075315877301
 21
147.6373105552051
 31
0.0
  0
LINE
  5
290
330
28C
100
AcDbEntity
  8
치수문자_일반주서
 62
     0
370
    -2
100
AcDbLine
 10
-2.290795023001778
 20
122.0203309659432
 30
0.0
 11
-2.290795023001778
 21
147.6373105552051
 31
0.0
  0
LINE
  5
291
330
28C
100
AcDbEntity
  8
치수문자_일반주서
 62
     0
370
    -2
100
AcDbLine
 10
-24.98875315877302
 20
147.6373105552051
 30
0.0
 11
-5.592795023001777
 21
147.6373105552051
 31
0.0
  0
SOLID
  5
292
330
28C
100
AcDbEntity
  8
치수문자_일반주서
 62
     0
100
AcDbTrace
 10
-24.98875315877302
 20
148.1876438885385
 30
0.0
 11
-24.98875315877302
 21
147.0869772218718
 31
0.0
 12
-28.29075315877301
 22
147.6373105552051
 32
0.0
 13
-28.29075315877301
 23
147.6373105552051
 33
0.0
  0
SOLID
  5
293
330
28C
100
AcDbEntity
  8
치수문자_일반주서
 62
     0
100
AcDbTrace
 10
-5.592795023001777
 20
147.0869772218718
 30
0.0
 11
-5.592795023001777
 21
148.1876438885385
 31
0.0
 12
-2.290795023001778
 22
147.6373105552051
 32
0.0
 13
-2.290795023001778
 23
147.6373105552051
 33
0.0
  0
MTEXT
  5
294
330
28C
100
AcDbEntity
  8
치수문자_일반주서
 62
     0
100
AcDbMText
 10
-15.24419929606975
 20
152.0123105552051
 30
0.0
 40
3.5
 41
0.0
 71
     2
 72
     1
  1
\A1;26 [1.02]
  7
SLDTEXTSTYLE0
 73
     1
 44
1.0
  0
POINT
  5
295
330
28C
100
AcDbEntity
  8
Defpoints
 62
     0
100
AcDbPoint
 10
-28.29075315877301
 20
114.2942834821583
 30
0.0
  0
POINT
  5
296
330
28C
100
AcDbEntity
  8
Defpoints
 62
     0
100
AcDbPoint
 10
-2.290795023001778
 20
121.9578309659432
 30
0.0
  0
POINT
  5
297
330
28C
100
AcDbEntity
  8
Defpoints
 62
     0
100
AcDbPoint
 10
-2.290795023001778
 20
147.6373105552051
 30
0.0
  0
ENDBLK
  5
28E
330
28C
100
AcDbEntity
  8
0
100
AcDbBlockEnd
  0
BLOCK
  5
299
330
298
100
AcDbEntity
  8
0
100
AcDbBlockBegin
  2
*D14
 70
     1
 10
0.0
 20
0.0
 30
0.0
  3
*D14
  1
*D15
  0
LINE
  5
29B
330
298
100
AcDbEntity
  8
치수문자_일반주서
 62
     0
370
    -2
100
AcDbLine
 10
-84.85329502300178
 20
121.9578309659432
 30
0.0
 11
-100.2907950230018
 21
121.9578309659431
 31
0.0
  0
LINE
  5
29C
330
298
100
AcDbEntity
  8
치수문자_일반주서
 62
     0
370
    -2
100
AcDbLine
 10
-84.85329502300178
 20
107.9578309659432
 30
0.0
 11
-100.2907950230018
 21
107.9578309659431
 31
0.0
  0
LINE
  5
29D
330
298
100
AcDbEntity
  8
치수문자_일반주서
 62
     0
370
    -2
100
AcDbLine
 10
-100.2907950230018
 20
121.9578309659431
 30
0.0
 11
-100.2907950230018
 21
107.9578309659431
 31
0.0
  0
LINE
  5
29E
330
298
100
AcDbEntity
  8
치수문자_일반주서
 62
     0
370
    -2
100
AcDbLine
 10
-100.2907950230019
 20
125.2598309659432
 30
0.0
 11
-100.2907950230019
 21
128.5618309659432
 31
0.0
  0
LINE
  5
29F
330
298
100
AcDbEntity
  8
치수문자_일반주서
 62
     0
370
    -2
100
AcDbLine
 10
-100.2907950230018
 20
104.6558309659431
 30
0.0
 11
-100.2907950230018
 21
101.3538309659431
 31
0.0
  0
SOLID
  5
2A0
330
298
100
AcDbEntity
  8
치수문자_일반주서
 62
     0
100
AcDbTrace
 10
-100.8411283563352
 20
125.2598309659432
 30
0.0
 11
-99.74046168966854
 21
125.2598309659432
 31
0.0
 12
-100.2907950230018
 22
121.9578309659431
 32
0.0
 13
-100.2907950230018
 23
121.9578309659431
 33
0.0
  0
SOLID
  5
2A1
330
298
100
AcDbEntity
  8
치수문자_일반주서
 62
     0
100
AcDbTrace
 10
-99.74046168966846
 20
104.6558309659431
 30
0.0
 11
-100.8411283563351
 21
104.6558309659431
 31
0.0
 12
-100.2907950230018
 22
107.9578309659431
 32
0.0
 13
-100.2907950230018
 23
107.9578309659431
 33
0.0
  0
MTEXT
  5
2A2
330
298
100
AcDbEntity
  8
치수문자_일반주서
 62
     0
100
AcDbMText
 10
-104.6657950230018
 20
114.9578309659432
 30
0.0
 40
3.5
 41
0.0
 71
     2
 72
     1
  1
\A1;%%c14
  7
SLDTEXTSTYLE0
 11
-3.045183153257572E-15
 21
1.0
 31
0.0
 73
     1
 44
1.0
  0
POINT
  5
2A3
330
298
100
AcDbEntity
  8
Defpoints
 62
     0
100
AcDbPoint
 10
-84.79079502300178
 20
121.9578309659432
 30
0.0
  0
POINT
  5
2A4
330
298
100
AcDbEntity
  8
Defpoints
 62
     0
100
AcDbPoint
 10
-84.79079502300178
 20
107.9578309659432
 30
0.0
  0
POINT
  5
2A5
330
298
100
AcDbEntity
  8
Defpoints
 62
     0
100
AcDbPoint
 10
-100.2907950230018
 20
107.9578309659431
 30
0.0
  0
ENDBLK
  5
29A
330
298
100
AcDbEntity
  8
0
100
AcDbBlockEnd
  0
BLOCK
  5
2A7
330
2A6
100
AcDbEntity
  8
0
100
AcDbBlockBegin
  2
*D15
 70
     1
 10
0.0
 20
0.0
 30
0.0
  3
*D15
  1
*D16
  0
LINE
  5
2A9
330
2A6
100
AcDbEntity
  8
치수문자_일반주서
 62
     0
370
    -2
100
AcDbLine
 10
-2.228295023001763
 20
121.9578309659432
 30
0.0
 11
12.70920497699823
 21
121.9578309659433
 31
0.0
  0
LINE
  5
2AA
330
2A6
100
AcDbEntity
  8
치수문자_일반주서
 62
     0
370
    -2
100
AcDbLine
 10
-2.228295023001778
 20
107.9578309659432
 30
0.0
 11
12.70920497699828
 21
107.9578309659433
 31
0.0
  0
LINE
  5
2AB
330
2A6
100
AcDbEntity
  8
치수문자_일반주서
 62
     0
370
    -2
100
AcDbLine
 10
12.70920497699823
 20
121.9578309659433
 30
0.0
 11
12.70920497699828
 21
107.9578309659433
 31
0.0
  0
LINE
  5
2AC
330
2A6
100
AcDbEntity
  8
치수문자_일반주서
 62
     0
370
    -2
100
AcDbLine
 10
12.70920497699821
 20
125.2598309659433
 30
0.0
 11
12.7092049769982
 21
128.5618309659433
 31
0.0
  0
LINE
  5
2AD
330
2A6
100
AcDbEntity
  8
치수문자_일반주서
 62
     0
370
    -2
100
AcDbLine
 10
12.70920497699829
 20
104.6558309659433
 30
0.0
 11
12.7092049769983
 21
101.3538309659432
 31
0.0
  0
SOLID
  5
2AE
330
2A6
100
AcDbEntity
  8
치수문자_일반주서
 62
     0
100
AcDbTrace
 10
12.15887164366488
 20
125.2598309659433
 30
0.0
 11
13.25953831033155
 21
125.2598309659433
 31
0.0
 12
12.70920497699823
 22
121.9578309659433
 32
0.0
 13
12.70920497699823
 23
121.9578309659433
 33
0.0
  0
SOLID
  5
2AF
330
2A6
100
AcDbEntity
  8
치수문자_일반주서
 62
     0
100
AcDbTrace
 10
13.25953831033162
 20
104.6558309659433
 30
0.0
 11
12.15887164366496
 21
104.6558309659433
 31
0.0
 12
12.70920497699828
 22
107.9578309659433
 32
0.0
 13
12.70920497699828
 23
107.9578309659433
 33
0.0
  0
MTEXT
  5
2B0
330
2A6
100
AcDbEntity
  8
치수문자_일반주서
 62
     0
100
AcDbMText
 10
8.334204976998251
 20
115.0235353476562
 30
0.0
 40
3.5
 41
0.0
 71
     2
 72
     1
  1
\A1;%%c14
  7
SLDTEXTSTYLE0
 11
-3.552713678800501E-15
 21
1.0
 31
0.0
 73
     1
 44
1.0
  0
POINT
  5
2B1
330
2A6
100
AcDbEntity
  8
Defpoints
 62
     0
100
AcDbPoint
 10
-2.290795023001763
 20
121.9578309659432
 30
0.0
  0
POINT
  5
2B2
330
2A6
100
AcDbEntity
  8
Defpoints
 62
     0
100
AcDbPoint
 10
-2.290795023001778
 20
107.9578309659432
 30
0.0
  0
POINT
  5
2B3
330
2A6
100
AcDbEntity
  8
Defpoints
 62
     0
100
AcDbPoint
 10
12.70920497699828
 20
107.9578309659433
 30
0.0
  0
ENDBLK
  5
2A8
330
2A6
100
AcDbEntity
  8
0
100
AcDbBlockEnd
  0
BLOCK
  5
2B5
330
2B4
100
AcDbEntity
  8
0
100
AcDbBlockBegin
  2
*D16
 70
     1
 10
0.0
 20
0.0
 30
0.0
  3
*D16
  1
*D17
  0
LINE
  5
2B7
330
2B4
100
AcDbEntity
  8
치수문자_일반주서
 62
     0
370
    -2
100
AcDbLine
 10
-0.8000198413323267
 20
105.2186924730644
 30
0.0
 11
15.52633302719351
 21
78.65450857540505
 31
0.0
  0
MTEXT
  5
2B8
330
2B4
100
AcDbEntity
  8
치수문자_일반주서
 62
     0
100
AcDbMText
 10
11.00484337842584
 20
91.02455487356363
 30
0.0
 40
3.5
 41
0.0
 71
     5
 72
     1
  1
\A1;R.50 [R0.02]
  7
SLDTEXTSTYLE0
 11
0.5236126201129557
 21
-0.8519564684057781
 31
0.0
 73
     1
 44
1.0
  0
SOLID
  5
2B9
330
2B4
100
AcDbEntity
  8
치수문자_일반주서
 62
     0
100
AcDbTrace
 10
-0.3311597982196803
 20
105.5068539516666
 30
0.0
 11
-1.268879884444973
 21
104.9305309944623
 31
0.0
 12
-2.528988712945306
 22
108.0318527317403
 32
0.0
 13
-2.528988712945306
 23
108.0318527317403
 33
0.0
  0
LINE
  5
2BA
330
2B4
100
AcDbEntity
  8
치수문자_일반주서
 62
     0
100
AcDbLine
 10
-2.880795023001792
 20
108.4578309659432
 30
0.0
 11
-2.700795023001792
 21
108.4578309659432
 31
0.0
  0
LINE
  5
2BB
330
2B4
100
AcDbEntity
  8
치수문자_일반주서
 62
     0
100
AcDbLine
 10
-2.790795023001792
 20
108.3678309659432
 30
0.0
 11
-2.790795023001792
 21
108.5478309659432
 31
0.0
  0
POINT
  5
2BC
330
2B4
100
AcDbEntity
  8
Defpoints
 62
     0
100
AcDbPoint
 10
-2.528988712945306
 20
108.0318527317403
 30
0.0
  0
POINT
  5
2BD
330
2B4
100
AcDbEntity
  8
Defpoints
 62
     0
100
AcDbPoint
 10
-2.790795023001792
 20
108.4578309659432
 30
0.0
  0
ENDBLK
  5
2B6
330
2B4
100
AcDbEntity
  8
0
100
AcDbBlockEnd
  0
BLOCK
  5
2ED
330
2EC
100
AcDbEntity
  8
0
100
AcDbBlockBegin
  2
*D17
 70
     1
 10
0.0
 20
0.0
 30
0.0
  3
*D17
  1
*D18
  0
LINE
  5
2EF
330
2EC
100
AcDbEntity
  8
치수문자_일반주서
 62
     0
370
    -2
100
AcDbLine
 10
199.5498718094152
 20
0.436411877916439
 30
0.0
 11
214.2772962533547
 21
0.4364118779164912
 31
0.0
  0
LINE
  5
2F0
330
2EC
100
AcDbEntity
  8
치수문자_일반주서
 62
     0
370
    -2
100
AcDbLine
 10
199.5498718094152
 20
-4.722963122083561
 30
0.0
 11
214.2772962533547
 21
-4.72296312208351
 31
0.0
  0
LINE
  5
2F1
330
2EC
100
AcDbEntity
  8
치수문자_일반주서
 62
     0
370
    -2
100
AcDbLine
 10
214.2772962533547
 20
0.4364118779164912
 30
0.0
 11
214.2772962533545
 21
37.34080312231892
 31
0.0
  0
LINE
  5
2F2
330
2EC
100
AcDbEntity
  8
치수문자_일반주서
 62
     0
370
    -2
100
AcDbLine
 10
214.2772962533547
 20
0.4364118779164912
 30
0.0
 11
214.2772962533547
 21
-4.72296312208351
 31
0.0
  0
LINE
  5
2F3
330
2EC
100
AcDbEntity
  8
치수문자_일반주서
 62
     0
370
    -2
100
AcDbLine
 10
214.2772962533547
 20
3.738411877916491
 30
0.0
 11
214.2772962533546
 21
7.04041187791649
 31
0.0
  0
LINE
  5
2F4
330
2EC
100
AcDbEntity
  8
치수문자_일반주서
 62
     0
370
    -2
100
AcDbLine
 10
214.2772962533548
 20
-8.02496312208351
 30
0.0
 11
214.2772962533548
 21
-11.32696312208351
 31
0.0
  0
SOLID
  5
2F5
330
2EC
100
AcDbEntity
  8
치수문자_일반주서
 62
     0
100
AcDbTrace
 10
213.7269629200214
 20
3.738411877916488
 30
0.0
 11
214.827629586688
 21
3.738411877916494
 31
0.0
 12
214.2772962533547
 22
0.4364118779164912
 32
0.0
 13
214.2772962533547
 23
0.4364118779164912
 33
0.0
  0
SOLID
  5
2F6
330
2EC
100
AcDbEntity
  8
치수문자_일반주서
 62
     0
100
AcDbTrace
 10
214.8276295866881
 20
-8.024963122083506
 30
0.0
 11
213.7269629200214
 21
-8.024963122083513
 31
0.0
 12
214.2772962533547
 22
-4.72296312208351
 32
0.0
 13
214.2772962533547
 23
-4.72296312208351
 33
0.0
  0
MTEXT
  5
2F7
330
2EC
100
AcDbEntity
  8
치수문자_일반주서
 62
     0
100
AcDbMText
 10
209.9022962533546
 20
24.6533031223189
 30
0.0
 40
3.5
 41
0.0
 71
     2
 72
     1
  1
\A1;%%c5.16 [0.20]
  7
SLDTEXTSTYLE0
 11
-5.508750465008651E-15
 21
1.0
 31
0.0
 73
     1
 44
1.0
  0
POINT
  5
2F8
330
2EC
100
AcDbEntity
  8
Defpoints
 62
     0
100
AcDbPoint
 10
199.4873718094152
 20
0.4364118779164388
 30
0.0
  0
POINT
  5
2F9
330
2EC
100
AcDbEntity
  8
Defpoints
 62
     0
100
AcDbPoint
 10
199.4873718094152
 20
-4.722963122083561
 30
0.0
  0
POINT
  5
2FA
330
2EC
100
AcDbEntity
  8
Defpoints
 62
     0
100
AcDbPoint
 10
214.2772962533547
 20
-4.722963122083506
 30
0.0
  0
ENDBLK
  5
2EE
330
2EC
100
AcDbEntity
  8
0
100
AcDbBlockEnd
  0
BLOCK
  5
2FC
330
2FB
100
AcDbEntity
  8
0
100
AcDbBlockBegin
  2
*D18
 70
     1
 10
0.0
 20
0.0
 30
0.0
  3
*D18
  1
*D19
  0
LINE
  5
2FE
330
2FB
100
AcDbEntity
  8
치수문자_일반주서
 62
     0
370
    -2
100
AcDbLine
 10
199.4873718094152
 20
0.4894253132496433
 30
0.0
 11
199.4873718094152
 21
25.45041946214522
 31
0.0
  0
LINE
  5
2FF
330
2FB
100
AcDbEntity
  8
치수문자_일반주서
 62
     0
370
    -2
100
AcDbLine
 10
186.7873718094152
 20
0.4742167999450224
 30
0.0
 11
186.7873718094152
 21
25.45041946214522
 31
0.0
  0
LINE
  5
300
330
2FB
100
AcDbEntity
  8
치수문자_일반주서
 62
     0
370
    -2
100
AcDbLine
 10
186.7873718094152
 20
25.45041946214522
 30
0.0
 11
157.4333718094152
 21
25.45041946214522
 31
0.0
  0
LINE
  5
301
330
2FB
100
AcDbEntity
  8
치수문자_일반주서
 62
     0
370
    -2
100
AcDbLine
 10
199.4873718094152
 20
25.45041946214522
 30
0.0
 11
186.7873718094152
 21
25.45041946214522
 31
0.0
  0
LINE
  5
302
330
2FB
100
AcDbEntity
  8
치수문자_일반주서
 62
     0
370
    -2
100
AcDbLine
 10
202.7893718094152
 20
25.45041946214522
 30
0.0
 11
206.0913718094152
 21
25.45041946214522
 31
0.0
  0
LINE
  5
303
330
2FB
100
AcDbEntity
  8
치수문자_일반주서
 62
     0
370
    -2
100
AcDbLine
 10
183.4853718094152
 20
25.45041946214522
 30
0.0
 11
180.1833718094152
 21
25.45041946214522
 31
0.0
  0
SOLID
  5
304
330
2FB
100
AcDbEntity
  8
치수문자_일반주서
 62
     0
100
AcDbTrace
 10
202.7893718094152
 20
26.00075279547855
 30
0.0
 11
202.7893718094152
 21
24.90008612881189
 31
0.0
 12
199.4873718094152
 22
25.45041946214522
 32
0.0
 13
199.4873718094152
 23
25.45041946214522
 33
0.0
  0
SOLID
  5
305
330
2FB
100
AcDbEntity
  8
치수문자_일반주서
 62
     0
100
AcDbTrace
 10
183.4853718094152
 20
24.90008612881189
 30
0.0
 11
183.4853718094152
 21
26.00075279547855
 31
0.0
 12
186.7873718094152
 22
25.45041946214522
 32
0.0
 13
186.7873718094152
 23
25.45041946214522
 33
0.0
  0
MTEXT
  5
306
330
2FB
100
AcDbEntity
  8
치수문자_일반주서
 62
     0
100
AcDbMText
 10
168.8083718094152
 20
29.82541946214522
 30
0.0
 40
3.5
 41
0.0
 71
     2
 72
     1
  1
\A1;12.7 [0.50]
  7
SLDTEXTSTYLE0
 73
     1
 44
1.0
  0
POINT
  5
307
330
2FB
100
AcDbEntity
  8
Defpoints
 62
     0
100
AcDbPoint
 10
199.4873718094152
 20
0.4269253132496433
 30
0.0
  0
POINT
  5
308
330
2FB
100
AcDbEntity
  8
Defpoints
 62
     0
100
AcDbPoint
 10
186.7873718094152
 20
0.4117167999450224
 30
0.0
  0
POINT
  5
309
330
2FB
100
AcDbEntity
  8
Defpoints
 62
     0
100
AcDbPoint
 10
186.7873718094152
 20
25.45041946214522
 30
0.0
  0
ENDBLK
  5
2FD
330
2FB
100
AcDbEntity
  8
0
100
AcDbBlockEnd
  0
BLOCK
  5
30B
330
30A
100
AcDbEntity
  8
0
100
AcDbBlockBegin
  2
*D19
 70
     1
 10
0.0
 20
0.0
 30
0.0
  3
*D19
  1
*D20
  0
LINE
  5
30D
330
30A
100
AcDbEntity
  8
치수문자_일반주서
 62
     0
370
    -2
100
AcDbLine
 10
199.4873718094152
 20
0.4894253132496433
 30
0.0
 11
199.4873718094152
 21
48.01734425622405
 31
0.0
  0
LINE
  5
30E
330
30A
100
AcDbEntity
  8
치수문자_일반주서
 62
     0
370
    -2
100
AcDbLine
 10
135.9873718094152
 20
0.4592243779164229
 30
0.0
 11
135.9873718094152
 21
48.01734425622405
 31
0.0
  0
LINE
  5
30F
330
30A
100
AcDbEntity
  8
치수문자_일반주서
 62
     0
370
    -2
100
AcDbLine
 10
196.1853718094152
 20
48.01734425622405
 30
0.0
 11
139.2893718094152
 21
48.01734425622405
 31
0.0
  0
SOLID
  5
310
330
30A
100
AcDbEntity
  8
치수문자_일반주서
 62
     0
100
AcDbTrace
 10
196.1853718094152
 20
47.46701092289072
 30
0.0
 11
196.1853718094152
 21
48.56767758955738
 31
0.0
 12
199.4873718094152
 22
48.01734425622405
 32
0.0
 13
199.4873718094152
 23
48.01734425622405
 33
0.0
  0
SOLID
  5
311
330
30A
100
AcDbEntity
  8
치수문자_일반주서
 62
     0
100
AcDbTrace
 10
139.2893718094152
 20
48.56767758955738
 30
0.0
 11
139.2893718094152
 21
47.46701092289072
 31
0.0
 12
135.9873718094152
 22
48.01734425622405
 32
0.0
 13
135.9873718094152
 23
48.01734425622405
 33
0.0
  0
MTEXT
  5
312
330
30A
100
AcDbEntity
  8
치수문자_일반주서
 62
     0
100
AcDbMText
 10
166.1171723803918
 20
52.39234425622405
 30
0.0
 40
3.5
 41
0.0
 71
     2
 72
     1
  1
\A1;63.5 [2.50]
  7
SLDTEXTSTYLE0
 73
     1
 44
1.0
  0
POINT
  5
313
330
30A
100
AcDbEntity
  8
Defpoints
 62
     0
100
AcDbPoint
 10
199.4873718094152
 20
0.4269253132496433
 30
0.0
  0
POINT
  5
314
330
30A
100
AcDbEntity
  8
Defpoints
 62
     0
100
AcDbPoint
 10
135.9873718094152
 20
0.3967243779164229
 30
0.0
  0
POINT
  5
315
330
30A
100
AcDbEntity
  8
Defpoints
 62
     0
100
AcDbPoint
 10
135.9873718094152
 20
48.01734425622405
 30
0.0
  0
ENDBLK
  5
30C
330
30A
100
AcDbEntity
  8
0
100
AcDbBlockEnd
  0
ENDSEC
  0
SECTION
  2
ENTITIES
  0
LINE
  5
96
330
1F
100
AcDbEntity
  8
0
  6
Continuous
 62
     1
370
    15
100
AcDbLine
 10
25.11413004979737
 20
-2.579687500000001
 30
0.0
 11
26.68782737961001
 21
-2.579687500000001
 31
0.0
  0
LINE
  5
97
330
1F
100
AcDbEntity
  8
0
  6
Continuous
 62
     1
370
    15
100
AcDbLine
 10
19.66966941062784
 20
2.5796875
 30
0.0
 11
19.05
 21
2.5796875
 31
0.0
  0
LINE
  5
98
330
1F
100
AcDbEntity
  8
0
  6
Continuous
 62
     1
370
    15
100
AcDbLine
 10
26.68782737961002
 20
2.5796875
 30
0.0
 11
25.11413004979739
 21
2.5796875
 31
0.0
  0
LINE
  5
99
330
1F
100
AcDbEntity
  8
0
  6
Continuous
 62
     1
370
    15
100
AcDbLine
 10
19.05
 20
-2.579687500000001
 30
0.0
 11
19.6696694106278
 21
-2.579687500000001
 31
0.0
  0
LINE
  5
9A
330
1F
100
AcDbEntity
  8
외형선
  6
Continuous
370
    15
100
AcDbLine
 10
15.82826350361913
 20
-3.175000000000006
 30
0.0
 11
18.05
 21
-2.5796875
 31
0.0
  0
LINE
  5
9B
330
1F
100
AcDbEntity
  8
외형선
  6
Continuous
370
    15
100
AcDbLine
 10
18.05
 20
2.579687499999999
 30
0.0
 11
15.82826350361913
 21
3.175000000000006
 31
0.0
  0
LINE
  5
9C
330
1F
100
AcDbEntity
  8
외형선
  6
Continuous
370
    15
100
AcDbLine
 10
-15.82826350361913
 20
-3.175000000000003
 30
0.0
 11
15.82826350361913
 21
-3.175000000000003
 31
0.0
  0
LINE
  5
9D
330
1F
100
AcDbEntity
  8
외형선
  6
Continuous
370
    15
100
AcDbLine
 10
15.82826350361913
 20
3.175000000000002
 30
0.0
 11
-15.82826350361914
 21
3.175000000000002
 31
0.0
  0
LINE
  5
A0
330
1F
100
AcDbEntity
  8
외형선
  6
Continuous
370
    15
100
AcDbLine
 10
18.05
 20
-2.5796875
 30
0.0
 11
19.05
 21
-2.5796875
 31
0.0
  0
LINE
  5
A1
330
1F
100
AcDbEntity
  8
외형선
  6
Continuous
370
    15
100
AcDbLine
 10
19.05
 20
2.579687499999999
 30
0.0
 11
18.05
 21
2.579687499999999
 31
0.0
  0
SPLINE
  5
A2
330
1F
100
AcDbEntity
  8
0
  6
Continuous
 62
     1
370
    15
100
AcDbSpline
210
0.0
220
0.0
230
1.0
 70
     8
 71
     3
 72
    17
 73
    13
 74
     0
 42
0.000000001
 43
0.00000001
 40
0.0
 40
0.0
 40
0.0
 40
0.0
 40
0.098123659856979
 40
0.1960823273431057
 40
0.2939673022772782
 40
0.3918855326502106
 40
0.4899434388274244
 40
0.5880549152844537
 40
0.6860020467700821
 40
0.7937125622591894
 40
0.901423667945544
 40
0.9999999999999999
 40
0.9999999999999999
 40
0.9999999999999999
 40
0.9999999999999999
 10
19.05000000000012
 20
0.35609173120504
 30
0.0
 10
19.38925176122061
 20
0.160601457898663
 30
0.0
 10
20.06718484068708
 20
-0.2300503769261448
 30
0.0
 10
21.08306271686427
 20
-0.8096033825180909
 30
0.0
 10
22.09811080035856
 20
-1.345963900356576
 30
0.0
 10
23.11354435226908
 20
-1.813470673490619
 30
0.0
 10
24.13012546776251
 20
-2.187411752723861
 30
0.0
 10
25.14704159442226
 20
-2.448509785762258
 30
0.0
 10
26.19666956216347
 20
-2.589055558428195
 30
0.0
 10
27.2797909490457
 20
-2.58189233724404
 30
0.0
 10
28.36497726101437
 20
-2.429981046737256
 30
0.0
 10
29.07798017525717
 20
-2.211432737056735
 30
0.0
 10
29.41869511553632
 20
-2.106997435610625
 30
0.0
  0
SPLINE
  5
A3
330
1F
100
AcDbEntity
  8
외형선
  6
Continuous
370
    15
100
AcDbSpline
210
0.0
220
0.0
230
1.0
 70
    24
 71
     3
 72
    19
 73
    15
 74
     0
 42
0.000000001
 43
0.00000001
 40
0.0
 40
0.0
 40
0.0
 40
0.0
 40
0.1426918055508645
 40
0.2215134341486701
 40
0.3026208953155686
 40
0.3814425239133757
 40
0.4625499850802757
 40
0.5413716136780833
 40
0.6224790748449832
 40
0.7013007034427903
 40
0.7824081646096896
 40
0.8612297932074985
 40
0.9423372543744004
 40
1.0
 40
1.0
 40
1.0
 40
1.0
 10
19.04999999999999
 20
2.521090940724695
 30
0.0
 10
19.04999999999998
 20
2.37919818963713
 30
0.0
 10
19.04999999999999
 20
2.158925200218653
 30
0.0
 10
19.05
 20
1.829599286378045
 30
0.0
 10
19.05000000000005
 20
1.569322144520319
 30
0.0
 10
19.04999999999999
 20
1.311463262522428
 30
0.0
 10
19.05
 20
1.068573336696194
 30
0.0
 10
19.05000000000002
 20
0.8430008323779387
 30
0.0
 10
19.04999999999991
 20
0.6451979719750979
 30
0.0
 10
19.05000000000001
 20
0.4773282712797324
 30
0.0
 10
19.05
 20
0.3466587781651117
 30
0.0
 10
19.05
 20
0.2564389841737137
 30
0.0
 10
19.05000000000001
 20
0.2084247531524097
 30
0.0
 10
19.05000000000002
 20
0.2103253486068196
 30
0.0
 10
19.05000000000002
 20
0.2111150970316287
 30
0.0
  0
SPLINE
  5
A4
330
1F
100
AcDbEntity
  8
0
  6
Continuous
 62
     1
370
    15
100
AcDbSpline
210
0.0
220
0.0
230
1.0
 70
     8
 71
     3
 72
    38
 73
    34
 74
     0
 42
0.000000001
 43
0.00000001
 40
0.0
 40
0.0
 40
0.0
 40
0.0
 40
0.0625
 40
0.0625
 40
0.125
 40
0.125
 40
0.1875
 40
0.1875
 40
0.25
 40
0.25
 40
0.3125
 40
0.3125
 40
0.375
 40
0.375
 40
0.4375
 40
0.4375
 40
0.5
 40
0.5
 40
0.5625
 40
0.5625
 40
0.625
 40
0.625
 40
0.6875
 40
0.6875
 40
0.75
 40
0.75
 40
0.8125
 40
0.8125
 40
0.875
 40
0.875
 40
0.9375
 40
0.9375
 40
1.0
 40
1.0
 40
1.0
 40
1.0
 10
31.75
 20
-2.579687499999983
 30
0.0
 10
31.488120862947
 20
-2.557157478508208
 30
0.0
 10
31.22121773504185
 20
-2.530498967080539
 30
0.0
 10
30.68985235561603
 20
-2.450822004417714
 30
0.0
 10
30.42865664631677
 20
-2.398127726128661
 30
0.0
 10
29.89894096737153
 20
-2.267686843808422
 30
0.0
 10
29.63149428904334
 20
-2.189882311887084
 30
0.0
 10
29.10399569526631
 20
-2.012860718494713
 30
0.0
 10
28.84113656065834
 20
-1.9134265251069
 30
0.0
 10
28.30929036987295
 20
-1.69468339190214
 30
0.0
 10
28.04586654089756
 20
-1.576134079365955
 30
0.0
 10
27.51895737371952
 20
-1.323812892436804
 30
0.0
 10
27.25156447604256
 20
-1.189364321345705
 30
0.0
 10
26.72146621431173
 20
-0.9101329973870376
 30
0.0
 10
26.46043508540251
 20
-0.765718568628339
 30
0.0
 10
25.92928050113695
 20
-0.4687147930694655
 30
0.0
 10
25.66223564656758
 20
-0.3166690581892219
 30
0.0
 10
25.13772144497965
 20
-0.0126800754070996
 30
0.0
 10
24.87170820311138
 20
0.1409031132339652
 30
0.0
 10
24.3401698816059
 20
0.4448864113866726
 30
0.0
 10
24.07873743705096
 20
0.5945097395472008
 30
0.0
 10
23.54944180259175
 20
0.8871706694576128
 30
0.0
 10
23.28196068773637
 20
1.030088318222303
 30
0.0
 10
22.75390960541669
 20
1.302400534981341
 30
0.0
 10
22.49154340344593
 20
1.43215971871875
 30
0.0
 10
21.95973518009041
 20
1.676393579404406
 30
0.0
 10
21.69567502829952
 20
1.790005966467835
 30
0.0
 10
21.16939208701496
 20
1.99710520050529
 30
0.0
 10
20.90207230105326
 20
2.091197259097403
 30
0.0
 10
20.3716290088699
 20
2.255876678091814
 30
0.0
 10
20.11069026654551
 20
2.326378285339207
 30
0.0
 10
19.57978428042814
 20
2.443022595766697
 30
0.0
 10
19.31261694581995
 20
2.488798593411881
 30
0.0
 10
19.05000000000011
 20
2.521090940724681
 30
0.0
  0
LINE
  5
A5
330
1F
100
AcDbEntity
  8
0
  6
Continuous
 62
     1
370
    15
100
AcDbLine
 10
31.75
 20
-2.336374855658182
 30
0.0
 11
31.75
 21
0.2210311056582127
 31
0.0
  0
SPLINE
  5
A6
330
1F
100
AcDbEntity
  8
0
  6
Continuous
 62
     1
370
    15
100
AcDbSpline
210
0.0
220
0.0
230
1.0
 70
     8
 71
     3
 72
    19
 73
    15
 74
     0
 42
0.000000001
 43
0.00000001
 40
0.0
 40
0.0
 40
0.0
 40
0.0
 40
0.0329387963966957
 40
0.1170196114930467
 40
0.2010371740973642
 40
0.2850832808261478
 40
0.3692492754196264
 40
0.4534612509651453
 40
0.5375321643718394
 40
0.6299832783894408
 40
0.7224348989907574
 40
0.8149078219815837
 40
0.9074227160038463
 40
1.0
 40
1.0
 40
1.0
 40
1.0
 10
19.66966941062785
 20
2.563808688470594
 30
0.0
 10
19.8023439712833
 20
2.567833034552537
 30
0.0
 10
20.27368862383009
 20
2.58213007835921
 30
0.0
 10
21.0830523044641
 20
2.467693854451463
 30
0.0
 10
22.09811359168805
 20
2.228209185938237
 30
0.0
 10
23.1135435981816
 20
1.865597509161014
 30
0.0
 10
24.13012568827886
 20
1.409275644467456
 30
0.0
 10
25.14704146750132
 20
0.8801428155736001
 30
0.0
 10
26.1966698628813
 20
0.2860041362290954
 30
0.0
 10
27.27978976313215
 20
-0.344306020920076
 30
0.0
 10
28.39663748203428
 20
-0.9736602757383819
 30
0.0
 10
29.51382585729681
 20
-1.539685366428112
 30
0.0
 10
30.63160000519886
 20
-2.020423575987484
 30
0.0
 10
31.37711623673411
 20
-2.231034098576701
 30
0.0
 10
31.74999999999999
 20
-2.336374855658182
 30
0.0
  0
SPLINE
  5
A7
330
1F
100
AcDbEntity
  8
0
  6
Continuous
 62
     1
370
    15
100
AcDbSpline
210
0.0
220
0.0
230
1.0
 70
     8
 71
     3
 72
    17
 73
    13
 74
     0
 42
0.000000001
 43
0.00000001
 40
0.0
 40
0.0
 40
0.0
 40
0.0
 40
0.108516557197479
 40
0.2168620285614629
 40
0.325153916443651
 40
0.4335105730815413
 40
0.5420467604068684
 40
0.6505421536029186
 40
0.7588774933409193
 40
0.8780388076696758
 40
0.9972111892624234
 40
0.9999999999999999
 40
0.9999999999999999
 40
0.9999999999999999
 40
0.9999999999999999
 10
31.75
 20
0.2210311056582129
 30
0.0
 10
31.41090411625406
 20
0.4147637373449946
 30
0.0
 10
30.73324696304969
 20
0.8019235642983162
 30
0.0
 10
29.71766340759829
 20
1.338854932190034
 30
0.0
 10
28.70263001578767
 20
1.807512672412687
 30
0.0
 10
27.68693482063399
 20
2.182961382325755
 30
0.0
 10
26.67008714653413
 20
2.44605582065631
 30
0.0
 10
25.6534240155428
 20
2.582480373694657
 30
0.0
 10
24.60407929306621
 20
2.589594120653531
 30
0.0
 10
23.52102315432069
 20
2.433381017018671
 30
0.0
 10
22.76780518485085
 20
2.259568351854427
 30
0.0
 10
22.38677515627268
 20
2.112474546902898
 30
0.0
 10
22.37806237957106
 20
2.109111044342437
 30
0.0
  0
SPLINE
  5
A8
330
1F
100
AcDbEntity
  8
0
  6
Continuous
 62
     1
370
    15
100
AcDbSpline
210
0.0
220
0.0
230
1.0
 70
     8
 71
     3
 72
    13
 73
     9
 74
     0
 42
0.000000001
 43
0.00000001
 40
0.0
 40
0.0
 40
0.0
 40
0.0
 40
0.0785605372127757
 40
0.2627368465948877
 40
0.4469302615942743
 40
0.6311821424756651
 40
0.8155335008593916
 40
1.0
 40
1.0
 40
1.0
 40
1.0
 10
25.11413004979737
 20
-2.563106068351028
 30
0.0
 10
24.95536843133586
 20
-2.566555159697648
 30
0.0
 10
24.42440812384836
 20
-2.578090256276406
 30
0.0
 10
23.52103400678078
 20
-2.43736399852205
 30
0.0
 10
22.40409857005766
 20
-2.142831646142317
 30
0.0
 10
21.28671295343262
 20
-1.705974570703868
 30
0.0
 10
20.16866383836259
 20
-1.167490672394943
 30
0.0
 10
19.42296554564066
 20
-0.7536776621800504
 30
0.0
 10
19.05000000000011
 20
-0.5467065632056974
 30
0.0
  0
LINE
  5
A9
330
1F
100
AcDbEntity
  8
외형선
  6
Continuous
370
    15
100
AcDbLine
 10
19.04999999999999
 20
-0.5467065632056302
 30
0.0
 11
19.05
 21
0.3560917312051102
 31
0.0
  0
LINE
  5
AA
330
1F
100
AcDbEntity
  8
0
  6
Continuous
 62
     1
370
    15
100
AcDbLine
 10
31.75
 20
-2.579687499999983
 30
0.0
 11
31.75
 21
-2.336374855658182
 31
0.0
  0
LINE
  5
AB
330
1F
100
AcDbEntity
  8
외형선
  6
Continuous
370
    15
100
AcDbLine
 10
19.04999999999999
 20
2.521090940724695
 30
0.0
 11
19.05
 21
2.5796875
 31
0.0
  0
SPLINE
  5
AC
330
1F
100
AcDbEntity
  8
0
  6
Continuous
 62
     1
370
    15
100
AcDbSpline
210
0.0
220
0.0
230
1.0
 70
     8
 71
     3
 72
    12
 73
     8
 74
     0
 42
0.000000001
 43
0.00000001
 40
0.0
 40
0.0
 40
0.0
 40
0.0
 40
0.1169463593181253
 40
0.3375843342820181
 40
0.5582731479013325
 40
0.7790621263779355
 40
1.0
 40
1.0
 40
1.0
 40
1.0
 10
26.68782737961002
 20
2.55962350576878
 30
0.0
 10
26.88514187907295
 20
2.563018339681929
 30
0.0
 10
27.45472167902367
 20
2.572818069688494
 30
0.0
 10
28.3966414422431
 20
2.413470720632475
 30
0.0
 10
29.51382480062682
 20
2.102646295884132
 30
0.0
 10
30.63160026962417
 20
1.657850293216265
 30
0.0
 10
31.37711632489567
 20
1.281780295782539
 30
0.0
 10
31.74999999999999
 20
1.093681915140053
 30
0.0
  0
LINE
  5
AD
330
1F
100
AcDbEntity
  8
0
  6
Continuous
 62
     1
370
    15
100
AcDbLine
 10
31.75
 20
0.2210311056582127
 30
0.0
 11
31.75
 21
1.093681915140053
 31
0.0
  0
SPLINE
  5
AE
330
1F
100
AcDbEntity
  8
0
  6
Continuous
 62
     1
370
    15
100
AcDbSpline
210
0.0
220
0.0
230
1.0
 70
     8
 71
     3
 72
    11
 73
     7
 74
     0
 42
0.000000001
 43
0.00000001
 40
0.0
 40
0.0
 40
0.0
 40
0.0
 40
0.3056985351208059
 40
0.6108830461403002
 40
0.9158379723153814
 40
1.0
 40
1.0
 40
1.0
 40
1.0
 10
19.05000000000012
 20
-2.554992422028614
 30
0.0
 10
19.38925106882596
 20
-2.569656751442772
 30
0.0
 10
20.0671827646674
 20
-2.598960752584243
 30
0.0
 10
21.08307100205798
 20
-2.466200022279797
 30
0.0
 10
21.85309244569385
 20
-2.299539368778029
 30
0.0
 10
22.28470827801259
 20
-2.142974441066263
 30
0.0
 10
22.37806237957103
 20
-2.109111044342438
 30
0.0
  0
SPLINE
  5
AF
330
1F
100
AcDbEntity
  8
외형선
  6
Continuous
370
    15
100
AcDbSpline
210
0.0
220
0.0
230
1.0
 70
    24
 71
     3
 72
    17
 73
    13
 74
     0
 42
0.000000001
 43
0.00000001
 40
0.0
 40
0.0
 40
0.0
 40
0.0
 40
0.039206291298181
 40
0.1575085386608809
 40
0.2724767015123903
 40
0.3907789488750892
 40
0.5057471117266013
 40
0.624049359089304
 40
0.7390175219406716
 40
0.8573197693035132
 40
0.9282800651276798
 40
1.0
 40
1.0
 40
1.0
 40
1.0
 10
19.05
 20
-0.5904865551703742
 30
0.0
 10
19.05
 20
-0.6050990180753222
 30
0.0
 10
19.05
 20
-0.6638035678346987
 30
0.0
 10
19.04999999999991
 20
-0.8027513001757938
 30
0.0
 10
19.05000000000003
 20
-1.00342444389241
 30
0.0
 10
19.05
 20
-1.229884434619631
 30
0.0
 10
19.05000000000003
 20
-1.476583031790716
 30
0.0
 10
19.05
 20
-1.73294208940175
 30
0.0
 10
19.05
 20
-1.996147539440371
 30
0.0
 10
19.05000000000007
 20
-2.22128646781808
 30
0.0
 10
19.04999999999998
 20
-2.408509077476706
 30
0.0
 10
19.04999999999998
 20
-2.505991639294738
 30
0.0
 10
19.04999999999998
 20
-2.554992422028603
 30
0.0
  0
SPLINE
  5
B0
330
1F
100
AcDbEntity
  8
0
  6
Continuous
 62
     1
370
    15
100
AcDbSpline
210
0.0
220
0.0
230
1.0
 70
     8
 71
     3
 72
    10
 73
     6
 74
     0
 42
0.000000001
 43
0.00000001
 40
0.0
 40
0.0
 40
0.0
 40
0.0
 40
0.4362432428612014
 40
0.8717987101355337
 40
1.0
 40
1.0
 40
1.0
 40
1.0
 10
31.75
 20
2.579687500000017
 30
0.0
 10
31.41090414882984
 20
2.53913683721593
 30
0.0
 10
30.73324706072565
 20
2.477057616246094
 30
0.0
 10
29.95629508936952
 20
2.301118310749369
 30
0.0
 10
29.51829798940273
 20
2.142962833643329
 30
0.0
 10
29.41869511553632
 20
2.106997435610624
 30
0.0
  0
LINE
  5
B1
330
1F
100
AcDbEntity
  8
0
  6
Continuous
 62
     1
370
    15
100
AcDbLine
 10
31.75
 20
1.093681915140053
 30
0.0
 11
31.75
 21
2.579687500000017
 31
0.0
  0
LINE
  5
B2
330
1F
100
AcDbEntity
  8
외형선
  6
Continuous
370
    15
100
AcDbLine
 10
18.05
 20
-0.0000000000000004
 30
0.0
 11
18.05
 21
2.579687499999999
 31
0.0
  0
LINE
  5
B3
330
1F
100
AcDbEntity
  8
외형선
  6
Continuous
370
    15
100
AcDbLine
 10
18.05
 20
-2.579687500000002
 30
0.0
 11
18.05
 21
-0.0000000000000004
 31
0.0
  0
LINE
  5
B4
330
1F
100
AcDbEntity
  8
외형선
  6
Continuous
370
    15
100
AcDbLine
 10
15.82826350361913
 20
-0.0000000000000004
 30
0.0
 11
15.82826350361913
 21
3.175000000000006
 31
0.0
  0
LINE
  5
B5
330
1F
100
AcDbEntity
  8
외형선
  6
Continuous
370
    15
100
AcDbLine
 10
15.82826350361913
 20
-3.175000000000006
 30
0.0
 11
15.82826350361913
 21
-0.0000000000000004
 31
0.0
  0
LINE
  5
B8
330
1F
100
AcDbEntity
  8
외형선
  6
Continuous
370
    15
100
AcDbLine
 10
-31.75
 20
-0.0000000000000004
 30
0.0
 11
-31.75
 21
2.540000000000001
 31
0.0
  0
LINE
  5
B9
330
1F
100
AcDbEntity
  8
외형선
  6
Continuous
370
    15
100
AcDbLine
 10
-31.75
 20
-2.540000000000002
 30
0.0
 11
-31.75
 21
-0.0000000000000004
 31
0.0
  0
SPLINE
  5
BA
330
1F
100
AcDbEntity
  8
외형선
  6
Continuous
370
    15
100
AcDbSpline
210
0.0
220
0.0
230
1.0
 70
     8
 71
     3
 72
     8
 73
     4
 74
     0
 42
0.000000001
 43
0.00000001
 40
0.0
 40
0.0
 40
0.0
 40
0.0
 40
1.0
 40
1.0
 40
1.0
 40
1.0
 10
19.05000000000011
 20
2.521090940724678
 30
0.0
 10
18.88412433061532
 20
2.54148762422808
 30
0.0
 10
18.71783998311628
 20
2.556639171330215
 30
0.0
 10
18.55012324046201
 20
2.566422618679983
 30
0.0
  0
LINE
  5
BB
330
1F
100
AcDbEntity
  8
외형선
  6
Continuous
370
    15
100
AcDbLine
 10
18.550123240462
 20
0.6396580623350543
 30
0.0
 11
18.55012324046201
 21
2.566422109064758
 31
0.0
  0
SPLINE
  5
BC
330
1F
100
AcDbEntity
  8
외형선
  6
Continuous
370
    15
100
AcDbSpline
210
0.0
220
0.0
230
1.0
 70
     8
 71
     3
 72
     8
 73
     4
 74
     0
 42
0.000000001
 43
0.00000001
 40
0.0
 40
0.0
 40
0.0
 40
0.0
 40
1.0
 40
1.0
 40
1.0
 40
1.0
 10
19.05000000000012
 20
0.35609173120504
 30
0.0
 10
18.88412433061534
 20
0.4514141130695076
 30
0.0
 10
18.71783998311627
 20
0.546072397493896
 30
0.0
 10
18.55012324046201
 20
0.6396536480520205
 30
0.0
  0
SPLINE
  5
BD
330
1F
100
AcDbEntity
  8
외형선
  6
Continuous
370
    15
100
AcDbSpline
210
0.0
220
0.0
230
1.0
 70
     8
 71
     3
 72
     8
 73
     4
 74
     0
 42
0.000000001
 43
0.00000001
 40
0.0
 40
0.0
 40
0.0
 40
0.0
 40
1.0
 40
1.0
 40
1.0
 40
1.0
 10
19.05000000000011
 20
-0.5467065632057052
 30
0.0
 10
18.88412433061532
 20
-0.4526489874200169
 30
0.0
 10
18.71783998311628
 20
-0.3573722205836342
 30
0.0
 10
18.55012324046201
 20
-0.2612710086940723
 30
0.0
  0
LINE
  5
BE
330
1F
100
AcDbEntity
  8
외형선
  6
Continuous
370
    15
100
AcDbLine
 10
18.550123240462
 20
-2.499124879021855
 30
0.0
 11
18.55012324046201
 21
-0.2612760145130826
 31
0.0
  0
SPLINE
  5
BF
330
1F
100
AcDbEntity
  8
외형선
  6
Continuous
370
    15
100
AcDbSpline
210
0.0
220
0.0
230
1.0
 70
     8
 71
     3
 72
     8
 73
     4
 74
     0
 42
0.000000001
 43
0.00000001
 40
0.0
 40
0.0
 40
0.0
 40
0.0
 40
1.0
 40
1.0
 40
1.0
 40
1.0
 10
19.05000000000012
 20
-2.554992422028614
 30
0.0
 10
18.88412433061534
 20
-2.541707250734933
 30
0.0
 10
18.71783998311627
 20
-2.523078217796705
 30
0.0
 10
18.55012324046201
 20
-2.499126008865896
 30
0.0
  0
SPLINE
  5
C0
330
1F
100
AcDbEntity
  8
외형선
  6
Continuous
370
    15
100
AcDbSpline
210
0.0
220
0.0
230
1.0
 70
    24
 71
     3
 72
    15
 73
    11
 74
     0
 42
0.000000001
 43
0.00000001
 40
0.0
 40
0.0
 40
0.0
 40
0.0
 40
0.2272642539621881
 40
0.3439682458087954
 40
0.4606722376554027
 40
0.5773762295020752
 40
0.6940802213487479
 40
0.8107842131953883
 40
0.9274882050420287
 40
1.0
 40
1.0
 40
1.0
 40
1.0
 10
19.05
 20
-2.554992422028605
 30
0.0
 10
19.04999999999999
 20
-2.394507065793502
 30
0.0
 10
19.04999999999999
 20
-2.15160979752635
 30
0.0
 10
19.04999999999998
 20
-1.805424733991286
 30
0.0
 10
19.05000000000003
 20
-1.546191652706667
 30
0.0
 10
19.04999999999999
 20
-1.296662832814661
 30
0.0
 10
19.05000000000001
 20
-1.063358629725591
 30
0.0
 10
19.05
 20
-0.8555623216922478
 30
0.0
 10
19.05000000000003
 20
-0.6941043896038649
 30
0.0
 10
19.05
 20
-0.6191939428818071
 30
0.0
 10
19.05
 20
-0.5904865551703949
 30
0.0
  0
SPLINE
  5
C1
330
1F
100
AcDbEntity
  8
외형선
  6
Continuous
370
    15
100
AcDbSpline
210
0.0
220
0.0
230
1.0
 70
    24
 71
     3
 72
    20
 73
    16
 74
     0
 42
0.000000001
 43
0.00000001
 40
0.0
 40
0.0
 40
0.0
 40
0.0
 40
0.034364761364047
 40
0.1144498155549568
 40
0.1945348697459116
 40
0.2746199239368664
 40
0.354704978127799
 40
0.4347900323187316
 40
0.5148750865096647
 40
0.5949601407005979
 40
0.6750451948915264
 40
0.7551302490824546
 40
0.8352153032733923
 40
0.9153003574643302
 40
1.0
 40
1.0
 40
1.0
 40
1.0
 10
19.04999999999999
 20
0.212277248336642
 30
0.0
 10
19.04999999999999
 20
0.2103954011928007
 30
0.0
 10
19.05
 20
0.204128020016088
 30
0.0
 10
19.05
 20
0.2394563376770108
 30
0.0
 10
19.04999999999999
 20
0.3172951457312684
 30
0.0
 10
19.05
 20
0.437683094832122
 30
0.0
 10
19.05
 20
0.5955226370035264
 30
0.0
 10
19.05000000000003
 20
0.7857679070244342
 30
0.0
 10
19.04999999999998
 20
1.004023458950676
 30
0.0
 10
19.04999999999999
 20
1.243161884860398
 30
0.0
 10
19.04999999999999
 20
1.497078117976181
 30
0.0
 10
19.04999999999999
 20
1.758258793170186
 30
0.0
 10
19.04999999999997
 20
2.018916701578097
 30
0.0
 10
19.04999999999999
 20
2.278645463855572
 30
0.0
 10
19.04999999999999
 20
2.438780983771411
 30
0.0
 10
19.04999999999999
 20
2.521090940724744
 30
0.0
  0
LINE
  5
C2
330
1F
100
AcDbEntity
  8
중심선
 62
     1
100
AcDbLine
 10
-34.75000000000001
 20
-0.0000000000000043
 30
0.0
 11
34.75
 21
0.0000000000000043
 31
0.0
  0
LINE
  5
C3
330
1F
100
AcDbEntity
  8
참조1
100
AcDbLine
 10
-7.744119342984384
 20
0.0010749287238892
 30
0.0
 11
-7.744119342984377
 21
-39.99892507127611
 31
0.0
  0
LINE
  5
C4
330
1F
100
AcDbEntity
  8
참조1
100
AcDbLine
 10
-7.744119342984377
 20
-39.99892507127611
 30
0.0
 11
-29.25297615729306
 21
-39.9989250712761
 31
0.0
  0
CIRCLE
  5
C5
330
1F
100
AcDbEntity
  8
해칭선
100
AcDbCircle
 10
0.0
 20
0.0000000000000016
 30
0.0
 40
3.000000000000004
  0
INSERT
  5
C6
330
1F
100
AcDbEntity
  8
0
  6
Continuous
 62
     7
100
AcDbBlockReference
 66
     1
  2
블럭10
 10
-14.9703308331749
 20
-29.38614200639049
 30
0.0
  0
ATTRIB
  5
C7
330
C6
100
AcDbEntity
  8
FORMAT
 62
     2
100
AcDbText
 10
-24.15162612191618
 20
-27.3107750935583
 30
0.0
 40
4.233333333333333
  1
E5023013 [ 4 FLUTE ]
 41
0.75
  7
SLDTEXTSTYLE0
 11
-24.15162612191618
 21
-29.42744176022497
 31
0.0
100
AcDbAttribute
  2
AUTOATTR0
 70
     0
 74
     1
  0
SEQEND
  5
C8
330
C6
100
AcDbEntity
  8
0
  6
Continuous
 62
     7
  0
HATCH
  5
C9
330
1F
100
AcDbEntity
  8
중심선
100
AcDbHatch
 10
0.0
 20
0.0
 30
0.0
210
0.0
220
0.0
230
1.0
  2
SOLID
 70
     1
 71
     0
 91
        1
 92
        0
 93
        4
 72
     1
 10
-9.255421528794066
 20
-13.13896770474655
 11
-12.70169677263135
 21
-13.13896770474655
 72
     1
 10
-12.70169677263135
 20
-13.13896770474655
 11
-14.82992663183537
 21
-15.67529328531915
 72
     1
 10
-14.82992663183537
 20
-15.67529328531915
 11
-11.38361830288494
 21
-15.67525385601666
 72
     1
 10
-11.38361830288494
 20
-15.67525385601666
 11
-9.255421528794066
 21
-13.13896770474655
 97
        0
 75
     0
 76
     1
 98
        1
 10
6.714061441934689
 20
22.65995736652955
  0
HATCH
  5
CA
330
1F
100
AcDbEntity
  8
중심선
100
AcDbHatch
 10
0.0
 20
0.0
 30
0.0
210
0.0
220
0.0
230
1.0
  2
SOLID
 70
     1
 71
     0
 91
        1
 92
        0
 93
        4
 72
     1
 10
-4.242657537758086
 20
-13.13896770474655
 11
-7.688932781595369
 21
-13.13896770474655
 72
     1
 10
-7.688932781595369
 20
-13.13896770474655
 11
-12.22007078995279
 21
-18.53896770474657
 72
     1
 10
-12.22007078995279
 20
-18.53896770474657
 11
-8.773795546115503
 21
-18.53896770474657
 72
     1
 10
-8.773795546115503
 20
-18.53896770474657
 11
-4.242657537758086
 21
-13.13896770474655
 97
        0
 75
     0
 76
     1
 98
        1
 10
6.714061441934689
 20
22.65995736652955
  0
HATCH
  5
CB
330
1F
100
AcDbEntity
  8
중심선
100
AcDbHatch
 10
0.0
 20
0.0
 30
0.0
210
0.0
220
0.0
230
1.0
  2
SOLID
 70
     1
 71
     0
 91
        1
 92
        0
 93
        4
 72
     1
 10
0.7701064532777817
 20
-13.13896770474655
 11
-2.676168790559334
 21
-13.13896770474655
 72
     1
 10
-2.676168790559334
 20
-13.13896770474655
 11
-9.724605692448584
 21
-21.53896770474657
 72
     1
 10
-9.724605692448584
 20
-21.53896770474657
 11
-6.278330448611301
 21
-21.53896770474657
 72
     1
 10
-6.278330448611301
 20
-21.53896770474657
 11
0.7701064532777817
 21
-13.13896770474655
 97
        0
 75
     0
 76
     1
 98
        1
 10
6.714061441934689
 20
22.65995736652955
  0
HATCH
  5
CC
330
1F
100
AcDbEntity
  8
중심선
100
AcDbHatch
 10
0.0
 20
0.0
 30
0.0
210
0.0
220
0.0
230
1.0
  2
SOLID
 70
     1
 71
     0
 91
        1
 92
        0
 93
        6
 72
     3
 10
5.569996884289981
 20
-17.33896770479782
 11
3.960054785062284
 21
1.540882976769353E-10
 40
0.3939339440162627
 50
17.09539180608436
 51
320.0019657685078
 73
     0
 72
     1
 10
7.252996539990576
 20
-15.92686170938485
 11
9.558298413691642
 21
-13.9925349993369
 72
     3
 10
5.569996884237134
 20
-17.3389677047467
 11
6.60005478528683
 21
-1.278976924368180E-13
 40
0.636358354079598
 50
39.99873849337413
 51
368.4976242363724
 73
     1
 72
     1
 10
11.99532937613774
 20
-16.37896770467658
 11
4.250064191073056
 21
-16.37896770467658
 72
     1
 10
4.250064191073056
 20
-16.37896770467658
 11
4.250039146627122
 21
-18.29896770467646
 72
     1
 10
4.250039146627122
 20
-18.29896770467646
 11
8.69141891609916
 21
-18.29896770467644
 97
        0
 75
     0
 76
     1
 98
        1
 10
6.714061441934689
 20
22.65995736652955
  0
DIMENSION
  5
CD
330
1F
100
AcDbEntity
  8
치수문자_일반주서
100
AcDbDimension
  2
_D
 10
46.53992444393943
 20
-2.579687499999928
 30
0.0
 11
46.53992444393931
 21
26.7965787444025
 31
0.0
 70
   160
  1
%%c<>
 71
     2
 42
5.159375000000001
 52
-270.0
  3
SLDDIMSTYLE0
100
AcDbAlignedDimension
 13
31.75
 23
2.579687500000017
 33
0.0
 14
31.75
 24
-2.579687499999983
 34
0.0
 50
90.0000000000002
100
AcDbRotatedDimension
1001
ACAD
1000
DSTYLE
1002
{
1070
   171
1070
     6
1070
   273
1070
     5
1002
}
  0
DIMENSION
  5
E2
330
1F
100
AcDbEntity
  8
치수문자_일반주서
100
AcDbDimension
  2
_D_1
 10
19.04999999999998
 20
27.5936950842288
 30
0.0
 11
1.070999999999977
 21
27.5936950842288
 31
0.0
 70
   160
  1
<>
 71
     2
 42
12.70000000000002
  3
SLDDIMSTYLE0
100
AcDbAlignedDimension
 13
31.75
 23
2.570200935333222
 33
0.0
 14
19.04999999999998
 24
2.554992422028601
 34
0.0
100
AcDbRotatedDimension
1001
ACAD
1000
DSTYLE
1002
{
1070
   171
1070
     6
1070
   273
1070
     5
1002
}
  0
DIMENSION
  5
F7
330
1F
100
AcDbEntity
  8
치수문자_일반주서
100
AcDbDimension
  2
_D_2
 10
-31.75
 20
50.16061987830763
 30
0.0
 11
-1.620199429023449
 21
50.16061987830763
 31
0.0
 70
   160
  1
<>
 71
     2
 42
63.5
  3
SLDDIMSTYLE0
100
AcDbAlignedDimension
 13
31.75
 23
2.570200935333222
 33
0.0
 14
-31.75
 24
2.540000000000001
 34
0.0
100
AcDbRotatedDimension
1001
ACAD
1000
DSTYLE
1002
{
1070
   171
1070
     6
1070
   273
1070
     5
1002
}
  0
DIMENSION
  5
10A
330
1F
100
AcDbEntity
  8
치수문자_일반주서
100
AcDbDimension
  2
_D_3
 10
-39.19419698809565
 20
-3.175000000000093
 30
0.0
 11
-39.19419698809573
 21
23.12274999999998
 31
0.0
 70
   160
  1
%%c<>
 71
     2
 42
6.350000000000007
 52
-270.0
  3
SLDDIMSTYLE0
100
AcDbAlignedDimension
 13
-15.82826350361913
 23
3.175000000000003
 33
0.0
 14
-15.82826350361913
 24
-3.175000000000003
 34
0.0
 50
90.0000000000002
100
AcDbRotatedDimension
1001
ACAD
1000
DSTYLE
1002
{
1070
   171
1070
     6
1070
   273
1070
     5
1002
}
  0
LINE
  5
11E
330
1F
100
AcDbEntity
  8
참조1
100
AcDbLine
 10
68.7193644723612
 20
7.441074928723896
 30
0.0
 11
68.7193644723612
 21
-7.438925071276109
 31
0.0
  0
LINE
  5
11F
330
1F
100
AcDbEntity
  8
참조1
100
AcDbLine
 10
81.41936447236121
 20
5.441074928723896
 30
0.0
 11
68.7193644723612
 21
5.441074928723896
 31
0.0
  0
SOLID
  5
120
330
1F
100
AcDbEntity
  8
참조1
100
AcDbTrace
 10
68.7193644723612
 20
5.441074928723896
 30
0.0
 11
75.0693644723612
 21
4.425074928723896
 31
0.0
 12
75.0693644723612
 22
6.457074928723896
 32
0.0
 13
75.0693644723612
 23
6.457074928723896
 33
0.0
  0
LINE
  5
121
330
1F
100
AcDbEntity
  8
참조1
100
AcDbLine
 10
81.41936447236121
 20
-5.438925071276109
 30
0.0
 11
68.7193644723612
 21
-5.438925071276109
 31
0.0
  0
SOLID
  5
122
330
1F
100
AcDbEntity
  8
참조1
100
AcDbTrace
 10
68.7193644723612
 20
-5.438925071276109
 30
0.0
 11
75.0693644723612
 21
-6.454925071276109
 31
0.0
 12
75.0693644723612
 22
-4.422925071276109
 32
0.0
 13
75.0693644723612
 23
-4.422925071276109
 33
0.0
  0
MTEXT
  5
123
330
1F
100
AcDbEntity
  8
참조1
100
AcDbMText
 10
78.1037146049872
 20
11.01136670591223
 30
0.0
 40
3.5
 41
0.0
 71
     1
 72
     1
  1
A
  7
SLDTEXTSTYLE0
 73
     1
 44
1.0
  0
MTEXT
  5
124
330
1F
100
AcDbEntity
  8
참조1
100
AcDbMText
 10
78.1037146049872
 20
0.1313667059122219
 30
0.0
 40
3.5
 41
0.0
 71
     1
 72
     1
  1
A
  7
SLDTEXTSTYLE0
 73
     1
 44
1.0
  0
INSERT
  5
12B
330
1F
100
AcDbEntity
  8
해칭선
100
AcDbBlockReference
  2
SW_DOWELSYMBOL_0
 10
0.0
 20
0.0000000000000016
 30
0.0
  0
LINE
  5
2C4
330
1F
100
AcDbEntity
  8
0
  6
Continuous
 62
     1
370
    15
100
AcDbLine
 10
-25.11413004979739
 20
2.579687499999999
 30
0.0
 11
-26.68782737961002
 21
2.579687499999999
 31
0.0
  0
LINE
  5
2C5
330
1F
100
AcDbEntity
  8
0
  6
Continuous
 62
     1
370
    15
100
AcDbLine
 10
-19.66966941062785
 20
-2.579687500000002
 30
0.0
 11
-19.05000000000002
 21
-2.579687500000002
 31
0.0
  0
LINE
  5
2C6
330
1F
100
AcDbEntity
  8
0
  6
Continuous
 62
     1
370
    15
100
AcDbLine
 10
-26.68782737961002
 20
-2.579687500000001
 30
0.0
 11
-25.11413004979739
 21
-2.579687500000001
 31
0.0
  0
LINE
  5
2C7
330
1F
100
AcDbEntity
  8
0
  6
Continuous
 62
     1
370
    15
100
AcDbLine
 10
-19.05000000000002
 20
2.579687499999999
 30
0.0
 11
-19.66966941062783
 21
2.579687499999999
 31
0.0
  0
LINE
  5
2C8
330
1F
100
AcDbEntity
  8
외형선
  6
Continuous
370
    15
100
AcDbLine
 10
-15.82826350361913
 20
3.175000000000003
 30
0.0
 11
-18.05000000000002
 21
2.579687499999999
 31
0.0
  0
LINE
  5
2C9
330
1F
100
AcDbEntity
  8
외형선
  6
Continuous
370
    15
100
AcDbLine
 10
-18.05000000000002
 20
-2.579687500000001
 30
0.0
 11
-15.82826350361913
 21
-3.175000000000008
 31
0.0
  0
LINE
  5
2CA
330
1F
100
AcDbEntity
  8
외형선
  6
Continuous
370
    15
100
AcDbLine
 10
-18.05000000000002
 20
2.579687499999999
 30
0.0
 11
-19.05000000000002
 21
2.579687499999999
 31
0.0
  0
LINE
  5
2CB
330
1F
100
AcDbEntity
  8
외형선
  6
Continuous
370
    15
100
AcDbLine
 10
-19.05000000000002
 20
-2.579687500000001
 30
0.0
 11
-18.05000000000002
 21
-2.579687500000001
 31
0.0
  0
SPLINE
  5
2CC
330
1F
100
AcDbEntity
  8
0
  6
Continuous
 62
     1
370
    15
100
AcDbSpline
210
0.0
220
0.0
230
1.0
 70
     8
 71
     3
 72
    17
 73
    13
 74
     0
 42
0.000000001
 43
0.00000001
 40
0.0
 40
0.0
 40
0.0
 40
0.0
 40
0.098123659856979
 40
0.1960823273431057
 40
0.2939673022772782
 40
0.3918855326502106
 40
0.4899434388274244
 40
0.5880549152844537
 40
0.6860020467700821
 40
0.7937125622591894
 40
0.901423667945544
 40
0.9999999999999999
 40
0.9999999999999999
 40
0.9999999999999999
 40
0.9999999999999999
 10
-19.05000000000013
 20
-0.3560917312050426
 30
0.0
 10
-19.38925176122061
 20
-0.1606014578986656
 30
0.0
 10
-20.06718484068708
 20
0.2300503769261429
 30
0.0
 10
-21.08306271686428
 20
0.8096033825180892
 30
0.0
 10
-22.09811080035858
 20
1.345963900356574
 30
0.0
 10
-23.11354435226909
 20
1.813470673490618
 30
0.0
 10
-24.13012546776253
 20
2.187411752723859
 30
0.0
 10
-25.14704159442227
 20
2.448509785762258
 30
0.0
 10
-26.1966695621635
 20
2.589055558428194
 30
0.0
 10
-27.27979094904573
 20
2.581892337244039
 30
0.0
 10
-28.3649772610144
 20
2.429981046737255
 30
0.0
 10
-29.07798017525719
 20
2.211432737056733
 30
0.0
 10
-29.41869511553634
 20
2.106997435610624
 30
0.0
  0
SPLINE
  5
2CD
330
1F
100
AcDbEntity
  8
외형선
  6
Continuous
370
    15
100
AcDbSpline
210
0.0
220
0.0
230
1.0
 70
    24
 71
     3
 72
    19
 73
    15
 74
     0
 42
0.000000001
 43
0.00000001
 40
0.0
 40
0.0
 40
0.0
 40
0.0
 40
0.1426918055508645
 40
0.2215134341486701
 40
0.3026208953155686
 40
0.3814425239133757
 40
0.4625499850802757
 40
0.5413716136780833
 40
0.6224790748449832
 40
0.7013007034427903
 40
0.7824081646096896
 40
0.8612297932074985
 40
0.9423372543744004
 40
1.0
 40
1.0
 40
1.0
 40
1.0
 10
-19.04999999999999
 20
-2.521090940724697
 30
0.0
 10
-19.04999999999999
 20
-2.379198189637132
 30
0.0
 10
-19.04999999999999
 20
-2.158925200218655
 30
0.0
 10
-19.05000000000002
 20
-1.829599286378048
 30
0.0
 10
-19.05000000000008
 20
-1.569322144520321
 30
0.0
 10
-19.04999999999999
 20
-1.311463262522431
 30
0.0
 10
-19.05000000000002
 20
-1.068573336696197
 30
0.0
 10
-19.05000000000005
 20
-0.8430008323779409
 30
0.0
 10
-19.04999999999993
 20
-0.6451979719751001
 30
0.0
 10
-19.05000000000002
 20
-0.4773282712797348
 30
0.0
 10
-19.05000000000002
 20
-0.3466587781651139
 30
0.0
 10
-19.05000000000002
 20
-0.2564389841737161
 30
0.0
 10
-19.05000000000002
 20
-0.2084247531524121
 30
0.0
 10
-19.05000000000005
 20
-0.2103253486068219
 30
0.0
 10
-19.05000000000005
 20
-0.2111150970316313
 30
0.0
  0
SPLINE
  5
2CE
330
1F
100
AcDbEntity
  8
0
  6
Continuous
 62
     1
370
    15
100
AcDbSpline
210
0.0
220
0.0
230
1.0
 70
     8
 71
     3
 72
    38
 73
    34
 74
     0
 42
0.000000001
 43
0.00000001
 40
0.0
 40
0.0
 40
0.0
 40
0.0
 40
0.0625
 40
0.0625
 40
0.125
 40
0.125
 40
0.1875
 40
0.1875
 40
0.25
 40
0.25
 40
0.3125
 40
0.3125
 40
0.375
 40
0.375
 40
0.4375
 40
0.4375
 40
0.5
 40
0.5
 40
0.5625
 40
0.5625
 40
0.625
 40
0.625
 40
0.6875
 40
0.6875
 40
0.75
 40
0.75
 40
0.8125
 40
0.8125
 40
0.875
 40
0.875
 40
0.9375
 40
0.9375
 40
1.0
 40
1.0
 40
1.0
 40
1.0
 10
-31.75000000000001
 20
2.579687499999983
 30
0.0
 10
-31.48812086294701
 20
2.557157478508207
 30
0.0
 10
-31.22121773504185
 20
2.530498967080539
 30
0.0
 10
-30.68985235561605
 20
2.450822004417714
 30
0.0
 10
-30.4286566463168
 20
2.39812772612866
 30
0.0
 10
-29.89894096737155
 20
2.267686843808421
 30
0.0
 10
-29.63149428904334
 20
2.189882311887083
 30
0.0
 10
-29.10399569526633
 20
2.012860718494712
 30
0.0
 10
-28.84113656065836
 20
1.913426525106898
 30
0.0
 10
-28.30929036987298
 20
1.694683391902139
 30
0.0
 10
-28.04586654089758
 20
1.576134079365954
 30
0.0
 10
-27.51895737371954
 20
1.323812892436803
 30
0.0
 10
-27.25156447604258
 20
1.189364321345704
 30
0.0
 10
-26.72146621431174
 20
0.9101329973870363
 30
0.0
 10
-26.46043508540252
 20
0.7657185686283378
 30
0.0
 10
-25.92928050113697
 20
0.4687147930694641
 30
0.0
 10
-25.66223564656759
 20
0.3166690581892201
 30
0.0
 10
-25.13772144497967
 20
0.0126800754070982
 30
0.0
 10
-24.87170820311139
 20
-0.140903113233967
 30
0.0
 10
-24.34016988160591
 20
-0.4448864113866741
 30
0.0
 10
-24.07873743705097
 20
-0.5945097395472022
 30
0.0
 10
-23.54944180259177
 20
-0.8871706694576141
 30
0.0
 10
-23.28196068773639
 20
-1.030088318222305
 30
0.0
 10
-22.75390960541669
 20
-1.302400534981343
 30
0.0
 10
-22.49154340344595
 20
-1.432159718718752
 30
0.0
 10
-21.95973518009041
 20
-1.676393579404409
 30
0.0
 10
-21.69567502829953
 20
-1.790005966467837
 30
0.0
 10
-21.16939208701496
 20
-1.997105200505292
 30
0.0
 10
-20.90207230105327
 20
-2.091197259097405
 30
0.0
 10
-20.37162900886992
 20
-2.255876678091815
 30
0.0
 10
-20.11069026654551
 20
-2.326378285339208
 30
0.0
 10
-19.57978428042816
 20
-2.443022595766699
 30
0.0
 10
-19.31261694581998
 20
-2.488798593411883
 30
0.0
 10
-19.05000000000013
 20
-2.521090940724683
 30
0.0
  0
LINE
  5
2CF
330
1F
100
AcDbEntity
  8
0
  6
Continuous
 62
     1
370
    15
100
AcDbLine
 10
-31.75000000000001
 20
2.336374855658182
 30
0.0
 11
-31.75000000000001
 21
-0.2210311056582134
 31
0.0
  0
SPLINE
  5
2D0
330
1F
100
AcDbEntity
  8
0
  6
Continuous
 62
     1
370
    15
100
AcDbSpline
210
0.0
220
0.0
230
1.0
 70
     8
 71
     3
 72
    19
 73
    15
 74
     0
 42
0.000000001
 43
0.00000001
 40
0.0
 40
0.0
 40
0.0
 40
0.0
 40
0.0329387963966957
 40
0.1170196114930467
 40
0.2010371740973642
 40
0.2850832808261478
 40
0.3692492754196264
 40
0.4534612509651453
 40
0.5375321643718394
 40
0.6299832783894408
 40
0.7224348989907574
 40
0.8149078219815837
 40
0.9074227160038463
 40
1.0
 40
1.0
 40
1.0
 40
1.0
 10
-19.66966941062785
 20
-2.563808688470596
 30
0.0
 10
-19.80234397128331
 20
-2.567833034552539
 30
0.0
 10
-20.27368862383012
 20
-2.582130078359212
 30
0.0
 10
-21.08305230446411
 20
-2.467693854451464
 30
0.0
 10
-22.09811359168805
 20
-2.228209185938239
 30
0.0
 10
-23.1135435981816
 20
-1.865597509161016
 30
0.0
 10
-24.13012568827887
 20
-1.409275644467458
 30
0.0
 10
-25.14704146750135
 20
-0.8801428155736019
 30
0.0
 10
-26.1966698628813
 20
-0.2860041362290967
 30
0.0
 10
-27.27978976313216
 20
0.3443060209200749
 30
0.0
 10
-28.3966374820343
 20
0.9736602757383807
 30
0.0
 10
-29.51382585729682
 20
1.539685366428111
 30
0.0
 10
-30.63160000519887
 20
2.020423575987484
 30
0.0
 10
-31.37711623673412
 20
2.2310340985767
 30
0.0
 10
-31.75000000000001
 20
2.336374855658182
 30
0.0
  0
SPLINE
  5
2D2
330
1F
100
AcDbEntity
  8
0
  6
Continuous
 62
     1
370
    15
100
AcDbSpline
210
0.0
220
0.0
230
1.0
 70
     8
 71
     3
 72
    13
 73
     9
 74
     0
 42
0.000000001
 43
0.00000001
 40
0.0
 40
0.0
 40
0.0
 40
0.0
 40
0.0785605372127757
 40
0.2627368465948877
 40
0.4469302615942743
 40
0.6311821424756651
 40
0.8155335008593916
 40
1.0
 40
1.0
 40
1.0
 40
1.0
 10
-25.11413004979739
 20
2.563106068351027
 30
0.0
 10
-24.95536843133588
 20
2.566555159697647
 30
0.0
 10
-24.42440812384837
 20
2.578090256276404
 30
0.0
 10
-23.52103400678079
 20
2.437363998522049
 30
0.0
 10
-22.40409857005768
 20
2.142831646142316
 30
0.0
 10
-21.28671295343262
 20
1.705974570703866
 30
0.0
 10
-20.1686638383626
 20
1.16749067239494
 30
0.0
 10
-19.42296554564067
 20
0.7536776621800482
 30
0.0
 10
-19.05000000000013
 20
0.5467065632056957
 30
0.0
  0
LINE
  5
2D3
330
1F
100
AcDbEntity
  8
외형선
  6
Continuous
370
    15
100
AcDbLine
 10
-19.04999999999999
 20
0.5467065632056282
 30
0.0
 11
-19.05000000000002
 21
-0.3560917312051127
 31
0.0
  0
LINE
  5
2D4
330
1F
100
AcDbEntity
  8
0
  6
Continuous
 62
     1
370
    15
100
AcDbLine
 10
-31.75000000000001
 20
2.579687499999983
 30
0.0
 11
-31.75000000000001
 21
2.336374855658182
 31
0.0
  0
LINE
  5
2D5
330
1F
100
AcDbEntity
  8
외형선
  6
Continuous
370
    15
100
AcDbLine
 10
-19.04999999999999
 20
-2.521090940724697
 30
0.0
 11
-19.05000000000002
 21
-2.579687500000002
 31
0.0
  0
SPLINE
  5
2D6
330
1F
100
AcDbEntity
  8
0
  6
Continuous
 62
     1
370
    15
100
AcDbSpline
210
0.0
220
0.0
230
1.0
 70
     8
 71
     3
 72
    12
 73
     8
 74
     0
 42
0.000000001
 43
0.00000001
 40
0.0
 40
0.0
 40
0.0
 40
0.0
 40
0.1169463593181253
 40
0.3375843342820181
 40
0.5582731479013325
 40
0.7790621263779355
 40
1.0
 40
1.0
 40
1.0
 40
1.0
 10
-26.68782737961002
 20
-2.559623505768781
 30
0.0
 10
-26.88514187907297
 20
-2.56301833968193
 30
0.0
 10
-27.45472167902367
 20
-2.572818069688496
 30
0.0
 10
-28.39664144224313
 20
-2.413470720632476
 30
0.0
 10
-29.51382480062683
 20
-2.102646295884132
 30
0.0
 10
-30.63160026962417
 20
-1.657850293216266
 30
0.0
 10
-31.3771163248957
 20
-1.28178029578254
 30
0.0
 10
-31.75000000000001
 20
-1.093681915140054
 30
0.0
  0
LINE
  5
2D7
330
1F
100
AcDbEntity
  8
0
  6
Continuous
 62
     1
370
    15
100
AcDbLine
 10
-31.75000000000001
 20
-0.2210311056582134
 30
0.0
 11
-31.75000000000001
 21
-1.093681915140054
 31
0.0
  0
SPLINE
  5
2D8
330
1F
100
AcDbEntity
  8
0
  6
Continuous
 62
     1
370
    15
100
AcDbSpline
210
0.0
220
0.0
230
1.0
 70
     8
 71
     3
 72
    11
 73
     7
 74
     0
 42
0.000000001
 43
0.00000001
 40
0.0
 40
0.0
 40
0.0
 40
0.0
 40
0.3056985351208059
 40
0.6108830461403002
 40
0.9158379723153814
 40
1.0
 40
1.0
 40
1.0
 40
1.0
 10
-19.05000000000013
 20
2.554992422028612
 30
0.0
 10
-19.38925106882596
 20
2.56965675144277
 30
0.0
 10
-20.06718276466743
 20
2.598960752584242
 30
0.0
 10
-21.08307100205798
 20
2.466200022279796
 30
0.0
 10
-21.85309244569385
 20
2.299539368778028
 30
0.0
 10
-22.28470827801261
 20
2.142974441066261
 30
0.0
 10
-22.37806237957106
 20
2.109111044342436
 30
0.0
  0
SPLINE
  5
2D9
330
1F
100
AcDbEntity
  8
외형선
  6
Continuous
370
    15
100
AcDbSpline
210
0.0
220
0.0
230
1.0
 70
    24
 71
     3
 72
    17
 73
    13
 74
     0
 42
0.000000001
 43
0.00000001
 40
0.0
 40
0.0
 40
0.0
 40
0.0
 40
0.039206291298181
 40
0.1575085386608809
 40
0.2724767015123903
 40
0.3907789488750892
 40
0.5057471117266013
 40
0.624049359089304
 40
0.7390175219406716
 40
0.8573197693035132
 40
0.9282800651276798
 40
1.0
 40
1.0
 40
1.0
 40
1.0
 10
-19.05000000000002
 20
0.5904865551703721
 30
0.0
 10
-19.05000000000002
 20
0.6050990180753203
 30
0.0
 10
-19.05000000000002
 20
0.6638035678346966
 30
0.0
 10
-19.04999999999993
 20
0.8027513001757919
 30
0.0
 10
-19.05000000000005
 20
1.003424443892408
 30
0.0
 10
-19.05000000000002
 20
1.229884434619629
 30
0.0
 10
-19.05000000000005
 20
1.476583031790714
 30
0.0
 10
-19.05000000000002
 20
1.732942089401748
 30
0.0
 10
-19.05000000000002
 20
1.996147539440369
 30
0.0
 10
-19.05000000000008
 20
2.221286467818079
 30
0.0
 10
-19.04999999999999
 20
2.408509077476705
 30
0.0
 10
-19.04999999999999
 20
2.505991639294736
 30
0.0
 10
-19.04999999999999
 20
2.554992422028601
 30
0.0
  0
SPLINE
  5
2DA
330
1F
100
AcDbEntity
  8
0
  6
Continuous
 62
     1
370
    15
100
AcDbSpline
210
0.0
220
0.0
230
1.0
 70
     8
 71
     3
 72
    10
 73
     6
 74
     0
 42
0.000000001
 43
0.00000001
 40
0.0
 40
0.0
 40
0.0
 40
0.0
 40
0.4362432428612014
 40
0.8717987101355337
 40
1.0
 40
1.0
 40
1.0
 40
1.0
 10
-31.75000000000001
 20
-2.579687500000018
 30
0.0
 10
-31.41090414882985
 20
-2.539136837215931
 30
0.0
 10
-30.73324706072567
 20
-2.477057616246095
 30
0.0
 10
-29.95629508936953
 20
-2.301118310749369
 30
0.0
 10
-29.51829798940273
 20
-2.14296283364333
 30
0.0
 10
-29.41869511553634
 20
-2.106997435610625
 30
0.0
  0
LINE
  5
2DB
330
1F
100
AcDbEntity
  8
0
  6
Continuous
 62
     1
370
    15
100
AcDbLine
 10
-31.75000000000001
 20
-1.093681915140054
 30
0.0
 11
-31.75000000000001
 21
-2.579687500000018
 31
0.0
  0
LINE
  5
2DC
330
1F
100
AcDbEntity
  8
외형선
  6
Continuous
370
    15
100
AcDbLine
 10
-18.05000000000002
 20
-0.0000000000000024
 30
0.0
 11
-18.05000000000002
 21
-2.579687500000001
 31
0.0
  0
LINE
  5
2DD
330
1F
100
AcDbEntity
  8
외형선
  6
Continuous
370
    15
100
AcDbLine
 10
-18.05000000000002
 20
2.5796875
 30
0.0
 11
-18.05000000000002
 21
-0.0000000000000024
 31
0.0
  0
SPLINE
  5
2DE
330
1F
100
AcDbEntity
  8
외형선
  6
Continuous
370
    15
100
AcDbSpline
210
0.0
220
0.0
230
1.0
 70
     8
 71
     3
 72
     8
 73
     4
 74
     0
 42
0.000000001
 43
0.00000001
 40
0.0
 40
0.0
 40
0.0
 40
0.0
 40
1.0
 40
1.0
 40
1.0
 40
1.0
 10
-19.05000000000013
 20
-2.52109094072468
 30
0.0
 10
-18.88412433061533
 20
-2.541487624228082
 30
0.0
 10
-18.71783998311631
 20
-2.556639171330217
 30
0.0
 10
-18.55012324046204
 20
-2.566422618679985
 30
0.0
  0
LINE
  5
2DF
330
1F
100
AcDbEntity
  8
외형선
  6
Continuous
370
    15
100
AcDbLine
 10
-18.55012324046201
 20
-0.6396580623350562
 30
0.0
 11
-18.55012324046204
 21
-2.56642210906476
 31
0.0
  0
SPLINE
  5
2E0
330
1F
100
AcDbEntity
  8
외형선
  6
Continuous
370
    15
100
AcDbSpline
210
0.0
220
0.0
230
1.0
 70
     8
 71
     3
 72
     8
 73
     4
 74
     0
 42
0.000000001
 43
0.00000001
 40
0.0
 40
0.0
 40
0.0
 40
0.0
 40
1.0
 40
1.0
 40
1.0
 40
1.0
 10
-19.05000000000013
 20
-0.3560917312050426
 30
0.0
 10
-18.88412433061536
 20
-0.4514141130695101
 30
0.0
 10
-18.71783998311628
 20
-0.546072397493898
 30
0.0
 10
-18.55012324046204
 20
-0.6396536480520228
 30
0.0
  0
SPLINE
  5
2E1
330
1F
100
AcDbEntity
  8
외형선
  6
Continuous
370
    15
100
AcDbSpline
210
0.0
220
0.0
230
1.0
 70
     8
 71
     3
 72
     8
 73
     4
 74
     0
 42
0.000000001
 43
0.00000001
 40
0.0
 40
0.0
 40
0.0
 40
0.0
 40
1.0
 40
1.0
 40
1.0
 40
1.0
 10
-19.05000000000013
 20
0.5467065632057032
 30
0.0
 10
-18.88412433061533
 20
0.4526489874200145
 30
0.0
 10
-18.71783998311631
 20
0.3573722205836319
 30
0.0
 10
-18.55012324046204
 20
0.2612710086940696
 30
0.0
  0
LINE
  5
2E2
330
1F
100
AcDbEntity
  8
외형선
  6
Continuous
370
    15
100
AcDbLine
 10
-18.55012324046201
 20
2.499124879021853
 30
0.0
 11
-18.55012324046204
 21
0.26127601451308
 31
0.0
  0
SPLINE
  5
2E3
330
1F
100
AcDbEntity
  8
외형선
  6
Continuous
370
    15
100
AcDbSpline
210
0.0
220
0.0
230
1.0
 70
     8
 71
     3
 72
     8
 73
     4
 74
     0
 42
0.000000001
 43
0.00000001
 40
0.0
 40
0.0
 40
0.0
 40
0.0
 40
1.0
 40
1.0
 40
1.0
 40
1.0
 10
-19.05000000000013
 20
2.554992422028612
 30
0.0
 10
-18.88412433061536
 20
2.541707250734932
 30
0.0
 10
-18.71783998311628
 20
2.523078217796703
 30
0.0
 10
-18.55012324046204
 20
2.499126008865895
 30
0.0
  0
SPLINE
  5
2E4
330
1F
100
AcDbEntity
  8
외형선
  6
Continuous
370
    15
100
AcDbSpline
210
0.0
220
0.0
230
1.0
 70
    24
 71
     3
 72
    15
 73
    11
 74
     0
 42
0.000000001
 43
0.00000001
 40
0.0
 40
0.0
 40
0.0
 40
0.0
 40
0.2272642539621881
 40
0.3439682458087954
 40
0.4606722376554027
 40
0.5773762295020752
 40
0.6940802213487479
 40
0.8107842131953883
 40
0.9274882050420287
 40
1.0
 40
1.0
 40
1.0
 40
1.0
 10
-19.05000000000002
 20
2.554992422028604
 30
0.0
 10
-19.05000000000002
 20
2.3945070657935
 30
0.0
 10
-19.05000000000002
 20
2.151609797526348
 30
0.0
 10
-19.04999999999999
 20
1.805424733991284
 30
0.0
 10
-19.05000000000005
 20
1.546191652706665
 30
0.0
 10
-19.04999999999999
 20
1.296662832814659
 30
0.0
 10
-19.05000000000002
 20
1.063358629725589
 30
0.0
 10
-19.05000000000002
 20
0.855562321692246
 30
0.0
 10
-19.05000000000005
 20
0.6941043896038631
 30
0.0
 10
-19.05000000000002
 20
0.6191939428818051
 30
0.0
 10
-19.05000000000002
 20
0.590486555170393
 30
0.0
  0
SPLINE
  5
2E5
330
1F
100
AcDbEntity
  8
외형선
  6
Continuous
370
    15
100
AcDbSpline
210
0.0
220
0.0
230
1.0
 70
    24
 71
     3
 72
    20
 73
    16
 74
     0
 42
0.000000001
 43
0.00000001
 40
0.0
 40
0.0
 40
0.0
 40
0.0
 40
0.034364761364047
 40
0.1144498155549568
 40
0.1945348697459116
 40
0.2746199239368664
 40
0.354704978127799
 40
0.4347900323187316
 40
0.5148750865096647
 40
0.5949601407005979
 40
0.6750451948915264
 40
0.7551302490824546
 40
0.8352153032733923
 40
0.9153003574643302
 40
1.0
 40
1.0
 40
1.0
 40
1.0
 10
-19.04999999999999
 20
-0.2122772483366441
 30
0.0
 10
-19.04999999999999
 20
-0.2103954011928028
 30
0.0
 10
-19.05000000000002
 20
-0.2041280200160901
 30
0.0
 10
-19.05000000000002
 20
-0.2394563376770133
 30
0.0
 10
-19.05000000000002
 20
-0.3172951457312704
 30
0.0
 10
-19.05000000000002
 20
-0.4376830948321243
 30
0.0
 10
-19.05000000000002
 20
-0.5955226370035286
 30
0.0
 10
-19.05000000000005
 20
-0.7857679070244364
 30
0.0
 10
-19.04999999999999
 20
-1.004023458950679
 30
0.0
 10
-19.04999999999999
 20
-1.243161884860401
 30
0.0
 10
-19.04999999999999
 20
-1.497078117976183
 30
0.0
 10
-19.04999999999999
 20
-1.758258793170189
 30
0.0
 10
-19.04999999999999
 20
-2.0189167015781
 30
0.0
 10
-19.04999999999999
 20
-2.278645463855574
 30
0.0
 10
-19.04999999999999
 20
-2.438780983771412
 30
0.0
 10
-19.04999999999999
 20
-2.521090940724746
 30
0.0
  0
LINE
  5
2EA
330
1F
100
AcDbEntity
  8
외형선
  6
Continuous
370
    15
100
AcDbLine
 10
-15.82826350361913
 20
-0.0000000000000024
 30
0.0
 11
-15.82826350361913
 21
-3.175000000000008
 31
0.0
  0
LINE
  5
2EB
330
1F
100
AcDbEntity
  8
외형선
  6
Continuous
370
    15
100
AcDbLine
 10
-15.82826350361913
 20
3.175000000000003
 30
0.0
 11
-15.82826350361913
 21
-0.0000000000000024
 31
0.0
  0
ENDSEC
  0
SECTION
  2
OBJECTS
  0
DICTIONARY
  5
C
330
0
100
AcDbDictionary
281
     1
  3
ACAD_GROUP
350
D
  3
ACAD_IMAGE_VARS
350
14F
  3
ACAD_LAYOUT
350
1A
  3
ACAD_MLINESTYLE
350
17
  3
ACAD_PLOTSETTINGS
350
19
  3
ACAD_PLOTSTYLENAME
350
E
  3
ACAD_SCALELIST
350
47
  3
APPDATA
350
14D
  3
DWGPROPS
350
33C
  0
DICTIONARY
  5
209
330
2
100
AcDbDictionary
280
     1
281
     1
  3
ACAD_LAYERSTATES
360
20A
  0
DICTIONARY
  5
33A
330
1F
100
AcDbDictionary
280
     1
281
     1
  3
DIM_BOUNDING_BOXES_V1
360
33B
  0
DICTIONARY
  5
D
102
{ACAD_REACTORS
330
C
102
}
330
C
100
AcDbDictionary
281
     1
  0
RASTERVARIABLES
  5
14F
102
{ACAD_REACTORS
330
C
102
}
330
C
100
AcDbRasterVariables
 90
        0
 70
     1
 71
     1
 72
     1
  0
DICTIONARY
  5
1A
102
{ACAD_REACTORS
330
C
102
}
330
C
100
AcDbDictionary
281
     1
  3
Layout1
350
1E
  3
Layout2
350
26
  3
Model
350
22
  0
DICTIONARY
  5
17
102
{ACAD_REACTORS
330
C
102
}
330
C
100
AcDbDictionary
281
     1
  3
Standard
350
18
  0
DICTIONARY
  5
19
102
{ACAD_REACTORS
330
C
102
}
330
C
100
AcDbDictionary
281
     1
  0
ACDBDICTIONARYWDFLT
  5
E
102
{ACAD_REACTORS
330
C
102
}
330
C
100
AcDbDictionary
281
     1
  3
Normal
350
F
100
AcDbDictionaryWithDefault
340
F
  0
DICTIONARY
  5
47
102
{ACAD_REACTORS
330
C
102
}
330
C
100
AcDbDictionary
281
     1
  3
A0
350
48
  3
A1
350
49
  3
A2
350
4A
  3
A3
350
4B
  3
A4
350
4C
  3
A5
350
4D
  3
A6
350
4E
  3
A7
350
4F
  3
A8
350
50
  3
A9
350
51
  3
B0
350
52
  3
B1
350
53
  3
B2
350
54
  3
B3
350
55
  3
B4
350
56
  3
B5
350
57
  3
B6
350
58
  3
B7
350
59
  3
B8
350
5A
  3
B9
350
5B
  3
C0
350
5C
  3
C1
350
5D
  3
C2
350
5E
  3
C3
350
5F
  3
C4
350
60
  3
C5
350
61
  3
C6
350
62
  3
C7
350
63
  3
C8
350
64
  3
C9
350
65
  3
D0
350
66
  3
D1
350
67
  3
D2
350
68
  0
DICTIONARY
  5
14D
102
{ACAD_REACTORS
330
C
102
}
330
C
100
AcDbDictionary
281
     1
  0
XRECORD
  5
33C
102
{ACAD_REACTORS
330
C
102
}
330
C
100
AcDbXrecord
280
     1
  1
DWGPROPS COOKIE
  2

  3

  4

  6

  7

  8
12011056
  9

300
=
301
=
302
=
303
=
304
=
305
=
306
=
307
=
308
=
309
=
 40
0.0
 41
2458313.122922222
 42
2459719.27208022
  1

 90
        0
  0
DICTIONARY
  5
20A
102
{ACAD_REACTORS
330
209
102
}
330
209
100
AcDbDictionary
281
     1
  0
DICTIONARY
  5
33B
102
{ACAD_REACTORS
330
33A
102
}
330
33A
100
AcDbDictionary
281
     1
  0
LAYOUT
  5
1E
102
{ACAD_REACTORS
330
1A
102
}
330
1A
100
AcDbPlotSettings
  1

  2
none_device
  4

  6

 40
0.0
 41
0.0
 42
0.0
 43
0.0
 44
0.0
 45
0.0
 46
0.0
 47
0.0
 48
0.0
 49
0.0
140
0.0
141
0.0
142
1.0
143
1.0
 70
   688
 72
     1
 73
     0
 74
     5
  7

 75
    16
147
1.0
148
0.0
149
0.0
100
AcDbLayout
  1
Layout1
 70
     1
 71
     1
 10
0.0
 20
0.0
 11
420.0
 21
297.0
 12
0.0
 22
0.0
 32
0.0
 14
1.000000000000000E+20
 24
1.000000000000000E+20
 34
1.000000000000000E+20
 15
-1.000000000000000E+20
 25
-1.000000000000000E+20
 35
-1.000000000000000E+20
146
0.0
 13
0.0
 23
0.0
 33
0.0
 16
1.0
 26
0.0
 36
0.0
 17
0.0
 27
1.0
 37
0.0
 76
     0
330
1B
  0
LAYOUT
  5
26
102
{ACAD_REACTORS
330
1A
102
}
330
1A
100
AcDbPlotSettings
  1

  2
none_device
  4

  6

 40
0.0
 41
0.0
 42
0.0
 43
0.0
 44
0.0
 45
0.0
 46
0.0
 47
0.0
 48
0.0
 49
0.0
140
0.0
141
0.0
142
1.0
143
1.0
 70
   688
 72
     1
 73
     0
 74
     5
  7

 75
    16
147
1.0
148
0.0
149
0.0
100
AcDbLayout
  1
Layout2
 70
     1
 71
     2
 10
0.0
 20
0.0
 11
0.0
 21
0.0
 12
0.0
 22
0.0
 32
0.0
 14
0.0
 24
0.0
 34
0.0
 15
0.0
 25
0.0
 35
0.0
146
0.0
 13
0.0
 23
0.0
 33
0.0
 16
1.0
 26
0.0
 36
0.0
 17
0.0
 27
1.0
 37
0.0
 76
     0
330
23
  0
LAYOUT
  5
22
102
{ACAD_REACTORS
330
1A
102
}
330
1A
100
AcDbPlotSettings
  1

  2
none_device
  4
ANSI_A_(11.00_x_8.50_Inches)
  6

 40
6.35
 41
19.05
 42
6.35000508
 43
19.05000254
 44
279.4
 45
215.9
 46
106.0259498593854
 47
79.89918728540957
 48
0.0
 49
0.0
140
0.0
141
0.0
142
0.0692122785150278
143
1.0
 70
  1696
 72
     0
 73
     0
 74
     0
  7

 75
     0
147
0.0235690232323232
148
0.0
149
0.0
100
AcDbLayout
  1
Model
 70
     1
 71
     0
 10
0.0
 20
0.0
 11
420.0
 21
297.0
 12
0.0
 22
0.0
 32
0.0
 14
-43.56919698809578
 24
-39.99892507127612
 34
0.0
 15
81.4193644723612
 25
54.53561987830763
 35
0.0
146
0.0
 13
0.0
 23
0.0
 33
0.0
 16
1.0
 26
0.0
 36
0.0
 17
0.0
 27
1.0
 37
0.0
 76
     0
330
1F
331
29
  0
MLINESTYLE
  5
18
102
{ACAD_REACTORS
330
17
102
}
330
17
100
AcDbMlineStyle
  2
Standard
 70
     0
  3

 62
   256
 51
90.0
 52
90.0
 71
     2
 49
0.5
 62
   256
  6
BYLAYER
 49
-0.5
 62
   256
  6
BYLAYER
  0
ACDBPLACEHOLDER
  5
F
102
{ACAD_REACTORS
330
E
102
}
330
E
  0
SCALE
  5
48
102
{ACAD_REACTORS
330
47
102
}
330
47
100
AcDbScale
 70
     0
300
1:1
140
1.0
141
1.0
290
     1
  0
SCALE
  5
49
102
{ACAD_REACTORS
330
47
102
}
330
47
100
AcDbScale
 70
     0
300
1:2
140
1.0
141
2.0
290
     0
  0
SCALE
  5
4A
102
{ACAD_REACTORS
330
47
102
}
330
47
100
AcDbScale
 70
     0
300
1:4
140
1.0
141
4.0
290
     0
  0
SCALE
  5
4B
102
{ACAD_REACTORS
330
47
102
}
330
47
100
AcDbScale
 70
     0
300
1:5
140
1.0
141
5.0
290
     0
  0
SCALE
  5
4C
102
{ACAD_REACTORS
330
47
102
}
330
47
100
AcDbScale
 70
     0
300
1:8
140
1.0
141
8.0
290
     0
  0
SCALE
  5
4D
102
{ACAD_REACTORS
330
47
102
}
330
47
100
AcDbScale
 70
     0
300
1:10
140
1.0
141
10.0
290
     0
  0
SCALE
  5
4E
102
{ACAD_REACTORS
330
47
102
}
330
47
100
AcDbScale
 70
     0
300
1:16
140
1.0
141
16.0
290
     0
  0
SCALE
  5
4F
102
{ACAD_REACTORS
330
47
102
}
330
47
100
AcDbScale
 70
     0
300
1:20
140
1.0
141
20.0
290
     0
  0
SCALE
  5
50
102
{ACAD_REACTORS
330
47
102
}
330
47
100
AcDbScale
 70
     0
300
1:30
140
1.0
141
30.0
290
     0
  0
SCALE
  5
51
102
{ACAD_REACTORS
330
47
102
}
330
47
100
AcDbScale
 70
     0
300
1:40
140
1.0
141
40.0
290
     0
  0
SCALE
  5
52
102
{ACAD_REACTORS
330
47
102
}
330
47
100
AcDbScale
 70
     0
300
1:50
140
1.0
141
50.0
290
     0
  0
SCALE
  5
53
102
{ACAD_REACTORS
330
47
102
}
330
47
100
AcDbScale
 70
     0
300
1:100
140
1.0
141
100.0
290
     0
  0
SCALE
  5
54
102
{ACAD_REACTORS
330
47
102
}
330
47
100
AcDbScale
 70
     0
300
2:1
140
2.0
141
1.0
290
     0
  0
SCALE
  5
55
102
{ACAD_REACTORS
330
47
102
}
330
47
100
AcDbScale
 70
     0
300
4:1
140
4.0
141
1.0
290
     0
  0
SCALE
  5
56
102
{ACAD_REACTORS
330
47
102
}
330
47
100
AcDbScale
 70
     0
300
8:1
140
8.0
141
1.0
290
     0
  0
SCALE
  5
57
102
{ACAD_REACTORS
330
47
102
}
330
47
100
AcDbScale
 70
     0
300
10:1
140
10.0
141
1.0
290
     0
  0
SCALE
  5
58
102
{ACAD_REACTORS
330
47
102
}
330
47
100
AcDbScale
 70
     0
300
100:1
140
100.0
141
1.0
290
     0
  0
SCALE
  5
59
102
{ACAD_REACTORS
330
47
102
}
330
47
100
AcDbScale
 70
     0
300
1/128" = 1'-0"
140
0.0078125
141
12.0
290
     0
  0
SCALE
  5
5A
102
{ACAD_REACTORS
330
47
102
}
330
47
100
AcDbScale
 70
     0
300
1/64" = 1'-0"
140
0.015625
141
12.0
290
     0
  0
SCALE
  5
5B
102
{ACAD_REACTORS
330
47
102
}
330
47
100
AcDbScale
 70
     0
300
1/32" = 1'-0"
140
0.03125
141
12.0
290
     0
  0
SCALE
  5
5C
102
{ACAD_REACTORS
330
47
102
}
330
47
100
AcDbScale
 70
     0
300
1/16" = 1'-0"
140
0.0625
141
12.0
290
     0
  0
SCALE
  5
5D
102
{ACAD_REACTORS
330
47
102
}
330
47
100
AcDbScale
 70
     0
300
3/32" = 1'-0"
140
0.09375
141
12.0
290
     0
  0
SCALE
  5
5E
102
{ACAD_REACTORS
330
47
102
}
330
47
100
AcDbScale
 70
     0
300
1/8" = 1'-0"
140
0.125
141
12.0
290
     0
  0
SCALE
  5
5F
102
{ACAD_REACTORS
330
47
102
}
330
47
100
AcDbScale
 70
     0
300
3/16" = 1'-0"
140
0.1875
141
12.0
290
     0
  0
SCALE
  5
60
102
{ACAD_REACTORS
330
47
102
}
330
47
100
AcDbScale
 70
     0
300
1/4" = 1'-0"
140
0.25
141
12.0
290
     0
  0
SCALE
  5
61
102
{ACAD_REACTORS
330
47
102
}
330
47
100
AcDbScale
 70
     0
300
3/8" = 1'-0"
140
0.375
141
12.0
290
     0
  0
SCALE
  5
62
102
{ACAD_REACTORS
330
47
102
}
330
47
100
AcDbScale
 70
     0
300
1/2" = 1'-0"
140
0.5
141
12.0
290
     0
  0
SCALE
  5
63
102
{ACAD_REACTORS
330
47
102
}
330
47
100
AcDbScale
 70
     0
300
3/4" = 1'-0"
140
0.75
141
12.0
290
     0
  0
SCALE
  5
64
102
{ACAD_REACTORS
330
47
102
}
330
47
100
AcDbScale
 70
     0
300
1" = 1'-0"
140
1.0
141
12.0
290
     0
  0
SCALE
  5
65
102
{ACAD_REACTORS
330
47
102
}
330
47
100
AcDbScale
 70
     0
300
1-1/2" = 1'-0"
140
1.5
141
12.0
290
     0
  0
SCALE
  5
66
102
{ACAD_REACTORS
330
47
102
}
330
47
100
AcDbScale
 70
     0
300
3" = 1'-0"
140
3.0
141
12.0
290
     0
  0
SCALE
  5
67
102
{ACAD_REACTORS
330
47
102
}
330
47
100
AcDbScale
 70
     0
300
6" = 1'-0"
140
6.0
141
12.0
290
     0
  0
SCALE
  5
68
102
{ACAD_REACTORS
330
47
102
}
330
47
100
AcDbScale
 70
     0
300
1'-0" = 1'-0"
140
12.0
141
12.0
290
     0
  0
ENDSEC
  0
EOF
