  0
SECTION
  2
HEADER
  9
$ACADVER
  1
AC1015
  9
$ACADMAINTVER
 70
     6
  9
$DWGCODEPAGE
  3
ANSI_949
  9
$INSBASE
 10
0.0
 20
0.0
 30
0.0
  9
$EXTMIN
 10
-45.14964702885833
 20
-39.99892507127611
 30
0.0
  9
$EXTMAX
 10
81.41936447236121
 20
54.73332764256402
 30
0.0
  9
$LIMMIN
 10
0.0
 20
0.0
  9
$LIMMAX
 10
420.0
 20
297.0
  9
$ORTHOMODE
 70
     0
  9
$REGENMODE
 70
     1
  9
$FILLMODE
 70
     1
  9
$QTEXTMODE
 70
     0
  9
$MIRRTEXT
 70
     1
  9
$LTSCALE
 40
1.0
  9
$ATTMODE
 70
     1
  9
$TEXTSIZE
 40
3.5
  9
$TRACEWID
 40
1.0
  9
$TEXTSTYLE
  7
Standard
  9
$CLAYER
  8
0
  9
$CELTYPE
  6
ByLayer
  9
$CECOLOR
 62
   256
  9
$CELTSCALE
 40
1.0
  9
$DISPSILH
 70
     0
  9
$DIMSCALE
 40
1.0
  9
$DIMASZ
 40
3.302
  9
$DIMEXO
 40
1.0
  9
$DIMDLI
 40
3.75
  9
$DIMRND
 40
0.0
  9
$DIMDLE
 40
0.0
  9
$DIMEXE
 40
1.0
  9
$DIMTP
 40
0.0
  9
$DIMTM
 40
0.0
  9
$DIMTXT
 40
3.5
  9
$DIMCEN
 40
2.5
  9
$DIMTSZ
 40
0.0
  9
$DIMTOL
 70
     0
  9
$DIMLIM
 70
     0
  9
$DIMTIH
 70
     1
  9
$DIMTOH
 70
     1
  9
$DIMSE1
 70
     0
  9
$DIMSE2
 70
     0
  9
$DIMTAD
 70
     1
  9
$DIMZIN
 70
     0
  9
$DIMBLK
  1

  9
$DIMASO
 70
     1
  9
$DIMSHO
 70
     1
  9
$DIMPOST
  1

  9
$DIMAPOST
  1

  9
$DIMALT
 70
     0
  9
$DIMALTD
 70
     3
  9
$DIMALTF
 40
0.0393700787401575
  9
$DIMLFAC
 40
1.0
  9
$DIMTOFL
 70
     1
  9
$DIMTVP
 40
0.0
  9
$DIMTIX
 70
     0
  9
$DIMSOXD
 70
     0
  9
$DIMSAH
 70
     0
  9
$DIMBLK1
  1

  9
$DIMBLK2
  1

  9
$DIMSTYLE
  2
ISO-25
  9
$DIMCLRD
 70
     0
  9
$DIMCLRE
 70
     0
  9
$DIMCLRT
 70
     0
  9
$DIMTFAC
 40
1.0
  9
$DIMGAP
 40
1.524
  9
$DIMJUST
 70
     0
  9
$DIMSD1
 70
     0
  9
$DIMSD2
 70
     0
  9
$DIMTOLJ
 70
     0
  9
$DIMTZIN
 70
     0
  9
$DIMALTZ
 70
     0
  9
$DIMALTTZ
 70
     0
  9
$DIMUPT
 70
     0
  9
$DIMDEC
 70
     2
  9
$DIMTDEC
 70
     2
  9
$DIMALTU
 70
     2
  9
$DIMALTTD
 70
     3
  9
$DIMTXSTY
  7
Standard
  9
$DIMAUNIT
 70
     0
  9
$DIMADEC
 70
     2
  9
$DIMALTRND
 40
0.0
  9
$DIMAZIN
 70
     0
  9
$DIMDSEP
 70
    44
  9
$DIMATFIT
 70
     3
  9
$DIMFRAC
 70
     0
  9
$DIMLDRBLK
  1

  9
$DIMLUNIT
 70
     2
  9
$DIMLWD
 70
    -2
  9
$DIMLWE
 70
    -2
  9
$DIMTMOVE
 70
     0
  9
$LUNITS
 70
     2
  9
$LUPREC
 70
     2
  9
$SKETCHINC
 40
1.0
  9
$FILLETRAD
 40
10.0
  9
$AUNITS
 70
     0
  9
$AUPREC
 70
     2
  9
$MENU
  1
.
  9
$ELEVATION
 40
0.0
  9
$PELEVATION
 40
0.0
  9
$THICKNESS
 40
0.0
  9
$LIMCHECK
 70
     0
  9
$CHAMFERA
 40
0.0
  9
$CHAMFERB
 40
0.0
  9
$CHAMFERC
 40
0.0
  9
$CHAMFERD
 40
0.0
  9
$SKPOLY
 70
     0
  9
$TDCREATE
 40
2458313.498134387
  9
$TDUCREATE
 40
2458313.123134387
  9
$TDUPDATE
 40
2459719.647494954
  9
$TDUUPDATE
 40
2459719.272494954
  9
$TDINDWG
 40
0.0017101389
  9
$TDUSRTIMER
 40
0.0002704514
  9
$USRTIMER
 70
     1
  9
$ANGBASE
 50
0.0
  9
$ANGDIR
 70
     0
  9
$PDMODE
 70
     0
  9
$PDSIZE
 40
-1.0
  9
$PLINEWID
 40
0.0
  9
$SPLFRAME
 70
     0
  9
$SPLINETYPE
 70
     6
  9
$SPLINESEGS
 70
     8
  9
$HANDSEED
  5
33B
  9
$SURFTAB1
 70
     6
  9
$SURFTAB2
 70
     6
  9
$SURFTYPE
 70
     6
  9
$SURFU
 70
     6
  9
$SURFV
 70
     6
  9
$UCSBASE
  2

  9
$UCSNAME
  2

  9
$UCSORG
 10
0.0
 20
0.0
 30
0.0
  9
$UCSXDIR
 10
1.0
 20
0.0
 30
0.0
  9
$UCSYDIR
 10
0.0
 20
1.0
 30
0.0
  9
$UCSORTHOREF
  2

  9
$UCSORTHOVIEW
 70
     0
  9
$UCSORGTOP
 10
0.0
 20
0.0
 30
0.0
  9
$UCSORGBOTTOM
 10
0.0
 20
0.0
 30
0.0
  9
$UCSORGLEFT
 10
0.0
 20
0.0
 30
0.0
  9
$UCSORGRIGHT
 10
0.0
 20
0.0
 30
0.0
  9
$UCSORGFRONT
 10
0.0
 20
0.0
 30
0.0
  9
$UCSORGBACK
 10
0.0
 20
0.0
 30
0.0
  9
$PUCSBASE
  2

  9
$PUCSNAME
  2

  9
$PUCSORG
 10
0.0
 20
0.0
 30
0.0
  9
$PUCSXDIR
 10
1.0
 20
0.0
 30
0.0
  9
$PUCSYDIR
 10
0.0
 20
1.0
 30
0.0
  9
$PUCSORTHOREF
  2

  9
$PUCSORTHOVIEW
 70
     0
  9
$PUCSORGTOP
 10
0.0
 20
0.0
 30
0.0
  9
$PUCSORGBOTTOM
 10
0.0
 20
0.0
 30
0.0
  9
$PUCSORGLEFT
 10
0.0
 20
0.0
 30
0.0
  9
$PUCSORGRIGHT
 10
0.0
 20
0.0
 30
0.0
  9
$PUCSORGFRONT
 10
0.0
 20
0.0
 30
0.0
  9
$PUCSORGBACK
 10
0.0
 20
0.0
 30
0.0
  9
$USERI1
 70
     0
  9
$USERI2
 70
     0
  9
$USERI3
 70
     0
  9
$USERI4
 70
     0
  9
$USERI5
 70
     0
  9
$USERR1
 40
0.0
  9
$USERR2
 40
0.0
  9
$USERR3
 40
0.0
  9
$USERR4
 40
0.0
  9
$USERR5
 40
0.0
  9
$WORLDVIEW
 70
     1
  9
$SHADEDGE
 70
     3
  9
$SHADEDIF
 70
    70
  9
$TILEMODE
 70
     1
  9
$MAXACTVP
 70
    64
  9
$PINSBASE
 10
0.0
 20
0.0
 30
0.0
  9
$PLIMCHECK
 70
     0
  9
$PEXTMIN
 10
1.000000000000000E+20
 20
1.000000000000000E+20
 30
1.000000000000000E+20
  9
$PEXTMAX
 10
-1.000000000000000E+20
 20
-1.000000000000000E+20
 30
-1.000000000000000E+20
  9
$PLIMMIN
 10
0.0
 20
0.0
  9
$PLIMMAX
 10
0.0
 20
0.0
  9
$UNITMODE
 70
     0
  9
$VISRETAIN
 70
     1
  9
$PLINEGEN
 70
     0
  9
$PSLTSCALE
 70
     1
  9
$TREEDEPTH
 70
  3020
  9
$CMLSTYLE
  2
Standard
  9
$CMLJUST
 70
     0
  9
$CMLSCALE
 40
20.0
  9
$PROXYGRAPHICS
 70
     1
  9
$MEASUREMENT
 70
     1
  9
$CELWEIGHT
370
    -1
  9
$ENDCAPS
280
     0
  9
$JOINSTYLE
280
     0
  9
$LWDISPLAY
290
     1
  9
$INSUNITS
 70
     4
  9
$HYPERLINKBASE
  1

  9
$STYLESHEET
  1

  9
$XEDIT
290
     1
  9
$CEPSNTYPE
380
     0
  9
$PSTYLEMODE
290
     1
  9
$FINGERPRINTGUID
  2
{535CABE4-FD93-41B0-BF5C-524C10A09637}
  9
$VERSIONGUID
  2
{FAEB1C32-E019-11D5-929B-00C0DF256EC4}
  9
$EXTNAMES
290
     1
  9
$PSVPSCALE
 40
0.0
  9
$OLESTARTUP
290
     0
  0
ENDSEC
  0
SECTION
  2
CLASSES
  0
CLASS
  1
ACDBDICTIONARYWDFLT
  2
AcDbDictionaryWithDefault
  3
ObjectDBX Classes
 90
        0
280
     0
281
     0
  0
CLASS
  1
VISUALSTYLE
  2
AcDbVisualStyle
  3
ObjectDBX Classes
 90
     4095
280
     0
281
     0
  0
CLASS
  1
MATERIAL
  2
AcDbMaterial
  3
ObjectDBX Classes
 90
     1153
280
     0
281
     0
  0
CLASS
  1
SCALE
  2
AcDbScale
  3
ObjectDBX Classes
 90
     1153
280
     0
281
     0
  0
CLASS
  1
SUN
  2
AcDbSun
  3
SCENEOE
 90
     1153
280
     0
281
     0
  0
CLASS
  1
ACDBPLACEHOLDER
  2
AcDbPlaceHolder
  3
ObjectDBX Classes
 90
        0
280
     0
281
     0
  0
CLASS
  1
LAYOUT
  2
AcDbLayout
  3
ObjectDBX Classes
 90
        0
280
     0
281
     0
  0
CLASS
  1
TABLESTYLE
  2
AcDbTableStyle
  3
ObjectDBX Classes
 90
     4095
280
     0
281
     0
  0
CLASS
  1
MLEADERSTYLE
  2
AcDbMLeaderStyle
  3
ACDB_MLEADERSTYLE_CLASS
 90
     4095
280
     0
281
     0
  0
CLASS
  1
RASTERVARIABLES
  2
AcDbRasterVariables
  3
ISM
 90
        0
280
     0
281
     0
  0
ENDSEC
  0
SECTION
  2
TABLES
  0
TABLE
  2
VPORT
  5
8
330
0
100
AcDbSymbolTable
 70
     1
  0
VPORT
  5
29
330
8
100
AcDbSymbolTableRecord
100
AcDbViewportTableRecord
  2
*Active
 70
     0
 10
0.0
 20
0.0
 11
1.0
 21
1.0
 12
-1.302343303677951
 22
12.66449685474912
 13
0.0
 23
0.0
 14
10.0
 24
10.0
 15
10.0
 25
10.0
 16
0.0
 26
0.0
 36
1.0
 17
0.0
 27
0.0
 37
0.0
 40
95.82045477266777
 41
1.519944979367263
 42
50.0
 43
0.0
 44
0.0
 50
0.0
 51
0.0
 71
    16
 72
  2000
 73
     1
 74
     3
 75
     0
 76
     0
 77
     0
 78
     0
281
     0
 65
     1
110
0.0
120
0.0
130
0.0
111
1.0
121
0.0
131
0.0
112
0.0
122
1.0
132
0.0
 79
     0
146
0.0
  0
ENDTAB
  0
TABLE
  2
LTYPE
  5
5
330
0
100
AcDbSymbolTable
 70
     6
  0
LTYPE
  5
14
330
5
100
AcDbSymbolTableRecord
100
AcDbLinetypeTableRecord
  2
ByBlock
 70
     0
  3

 72
    65
 73
     0
 40
0.0
  0
LTYPE
  5
15
330
5
100
AcDbSymbolTableRecord
100
AcDbLinetypeTableRecord
  2
ByLayer
 70
     0
  3

 72
    65
 73
     0
 40
0.0
  0
LTYPE
  5
16
330
5
100
AcDbSymbolTableRecord
100
AcDbLinetypeTableRecord
  2
Continuous
 70
     0
  3
Solid line
 72
    65
 73
     0
 40
0.0
  0
LTYPE
  5
6A
330
5
100
AcDbSymbolTableRecord
100
AcDbLinetypeTableRecord
  2
HIDDEN
 70
     0
  3
Hidden __ __ __ __ __ __ __ __ __ __ __ __ __ __
 72
    65
 73
     2
 40
1.905
 49
1.27
 74
     0
 49
-0.635
 74
     0
  0
LTYPE
  5
6B
330
5
100
AcDbSymbolTableRecord
100
AcDbLinetypeTableRecord
  2
PHANTOM
 70
     0
  3
Phantom ______  __  __  ______  __  __  ______
 72
    65
 73
     6
 40
12.7
 49
6.35
 74
     0
 49
-1.27
 74
     0
 49
1.27
 74
     0
 49
-1.27
 74
     0
 49
1.27
 74
     0
 49
-1.27
 74
     0
  0
LTYPE
  5
6C
330
5
100
AcDbSymbolTableRecord
100
AcDbLinetypeTableRecord
  2
CENTER
 70
     0
  3
Center ____ _ ____ _ ____ _ ____ _ ____ _ ____
 72
    65
 73
     4
 40
10.16
 49
6.35
 74
     0
 49
-1.27
 74
     0
 49
1.27
 74
     0
 49
-1.27
 74
     0
  0
LTYPE
  5
6D
330
5
100
AcDbSymbolTableRecord
100
AcDbLinetypeTableRecord
  2
CENTERX2
 70
     0
  3
Center (2x) ________  __  ________  __  _____
 72
    65
 73
     4
 40
20.32
 49
12.7
 74
     0
 49
-2.54
 74
     0
 49
2.54
 74
     0
 49
-2.54
 74
     0
  0
LTYPE
  5
6E
330
5
100
AcDbSymbolTableRecord
100
AcDbLinetypeTableRecord
  2
DOT2
 70
     0
  3
Dot (.5x) ........................................
 72
    65
 73
     2
 40
0.635
 49
0.0
 74
     0
 49
-0.635
 74
     0
  0
ENDTAB
  0
TABLE
  2
LAYER
  5
2
102
{ACAD_XDICTIONARY
360
209
102
}
330
0
100
AcDbSymbolTable
 70
    18
  0
LAYER
  5
10
330
2
100
AcDbSymbolTableRecord
100
AcDbLayerTableRecord
  2
0
 70
     0
 62
     7
  6
Continuous
370
    -3
390
F
  0
LAYER
  5
6F
330
2
100
AcDbSymbolTableRecord
100
AcDbLayerTableRecord
  2
FORMAT
 70
     0
 62
     2
  6
Continuous
370
    -3
390
F
  0
LAYER
  5
70
330
2
100
AcDbSymbolTableRecord
100
AcDbLayerTableRecord
  2
외형선
 70
     0
 62
     4
  6
Continuous
370
    30
390
F
  0
LAYER
  5
71
330
2
100
AcDbSymbolTableRecord
100
AcDbLayerTableRecord
  2
숨은선
 70
     0
 62
     2
  6
HIDDEN
370
    15
390
F
  0
LAYER
  5
72
330
2
100
AcDbSymbolTableRecord
100
AcDbLayerTableRecord
  2
중심선
 70
     0
 62
     1
  6
CENTERX2
370
    -3
390
F
  0
LAYER
  5
73
330
2
100
AcDbSymbolTableRecord
100
AcDbLayerTableRecord
  2
파단선
 70
     0
 62
     4
  6
Continuous
370
    -3
390
F
  0
LAYER
  5
74
330
2
100
AcDbSymbolTableRecord
100
AcDbLayerTableRecord
  2
해칭선
 70
     0
 62
   100
  6
Continuous
370
    -3
390
F
  0
LAYER
  5
75
330
2
100
AcDbSymbolTableRecord
100
AcDbLayerTableRecord
  2
가는실선
 70
     0
 62
     4
  6
Continuous
370
    -3
390
F
  0
LAYER
  5
76
330
2
100
AcDbSymbolTableRecord
100
AcDbLayerTableRecord
  2
치수_보조선
 70
     0
 62
     4
  6
Continuous
370
    -3
390
F
  0
LAYER
  5
77
330
2
100
AcDbSymbolTableRecord
100
AcDbLayerTableRecord
  2
치수문자_일반주서
 70
     0
 62
     7
  6
Continuous
370
    15
390
F
  0
LAYER
  5
78
330
2
100
AcDbSymbolTableRecord
100
AcDbLayerTableRecord
  2
개별주서
 70
     0
 62
   100
  6
Continuous
370
    30
390
F
  0
LAYER
  5
79
330
2
100
AcDbSymbolTableRecord
100
AcDbLayerTableRecord
  2
중간선
 70
     0
 62
     2
  6
Continuous
370
    15
390
F
  0
LAYER
  5
7A
330
2
100
AcDbSymbolTableRecord
100
AcDbLayerTableRecord
  2
윤곽선
 70
     0
 62
     3
  6
Continuous
370
    40
390
F
  0
LAYER
  5
7B
330
2
100
AcDbSymbolTableRecord
100
AcDbLayerTableRecord
  2
중심마크
 70
     0
 62
   100
  6
Continuous
370
    30
390
F
  0
LAYER
  5
7C
330
2
100
AcDbSymbolTableRecord
100
AcDbLayerTableRecord
  2
가상선
 70
     0
 62
     4
  6
PHANTOM
370
    -3
390
F
  0
LAYER
  5
7D
330
2
100
AcDbSymbolTableRecord
100
AcDbLayerTableRecord
  2
특수지정선
 70
     0
 62
     5
  6
CENTERX2
370
    60
390
F
  0
LAYER
  5
7E
330
2
100
AcDbSymbolTableRecord
100
AcDbLayerTableRecord
  2
참조1
 70
     0
 62
    -4
  6
Continuous
370
    -3
390
F
  0
LAYER
  5
151
330
2
100
AcDbSymbolTableRecord
100
AcDbLayerTableRecord
  2
Defpoints
 70
     0
 62
     7
  6
Continuous
290
     0
370
    -3
390
F
  0
ENDTAB
  0
TABLE
  2
STYLE
  5
3
330
0
100
AcDbSymbolTable
 70
     2
  0
STYLE
  5
11
330
3
100
AcDbSymbolTableRecord
100
AcDbTextStyleTableRecord
  2
Standard
 70
     0
 40
0.0
 41
1.0
 50
0.0
 71
     0
 42
3.5
  3
txt
  4

  0
STYLE
  5
94
330
3
100
AcDbSymbolTableRecord
100
AcDbTextStyleTableRecord
  2
SLDTEXTSTYLE0
 70
     0
 40
0.0
 41
0.75
 50
0.0
 71
     0
 42
3.5
  3
TXT
  4

  0
ENDTAB
  0
TABLE
  2
VIEW
  5
6
330
0
100
AcDbSymbolTable
 70
     0
  0
ENDTAB
  0
TABLE
  2
UCS
  5
7
330
0
100
AcDbSymbolTable
 70
     0
  0
ENDTAB
  0
TABLE
  2
APPID
  5
9
330
0
100
AcDbSymbolTable
 70
     3
  0
APPID
  5
12
330
9
100
AcDbSymbolTableRecord
100
AcDbRegAppTableRecord
  2
ACAD
 70
     0
  0
APPID
  5
15D
330
9
100
AcDbSymbolTableRecord
100
AcDbRegAppTableRecord
  2
PE_URL
 70
     0
  0
APPID
  5
15E
330
9
100
AcDbSymbolTableRecord
100
AcDbRegAppTableRecord
  2
ACAD_DSTYLE_DIMRADIAL_EXTENSION
 70
     0
  0
ENDTAB
  0
TABLE
  2
DIMSTYLE
  5
A
330
0
100
AcDbSymbolTable
 70
     4
100
AcDbDimStyleTable
  0
DIMSTYLE
105
27
330
A
100
AcDbSymbolTableRecord
100
AcDbDimStyleTableRecord
  2
ISO-25
 70
     0
 41
2.5
 42
0.625
 43
3.75
 44
1.25
 73
     0
 74
     0
 77
     1
 78
     8
140
2.5
141
2.5
143
0.03937007874016
147
0.625
171
     3
172
     1
178
     0
271
     2
272
     2
274
     3
278
    44
283
     0
284
     8
340
11
  0
DIMSTYLE
105
CE
102
{ACAD_REACTORS
330
CD
330
10A
330
E2
330
F7
102
}
330
A
100
AcDbSymbolTableRecord
100
AcDbDimStyleTableRecord
  2
SLDDIMSTYLE0
 70
     0
 41
3.302
 44
0.0
 45
0.000000001
 73
     0
 74
     0
 77
     1
 78
    12
 79
     3
140
3.5
143
0.0393700787401575
147
0.875
148
0.000000001
170
     1
172
     1
173
     1
178
     0
271
     2
272
     2
276
     2
284
    12
289
     0
340
94
  0
DIMSTYLE
105
E3
102
{ACAD_REACTORS
102
}
330
A
100
AcDbSymbolTableRecord
100
AcDbDimStyleTableRecord
  2
SLDDIMSTYLE1
 70
     0
 41
3.302
 44
0.0
 45
0.000000001
 73
     0
 74
     0
 77
     1
 78
     4
 79
     1
140
3.5
143
0.0393700787401575
147
0.875
148
0.000000001
170
     1
173
     1
178
     0
271
     2
272
     2
276
     2
284
    12
340
94
  0
DIMSTYLE
105
15C
102
{ACAD_REACTORS
102
}
330
A
100
AcDbSymbolTableRecord
100
AcDbDimStyleTableRecord
  2
SLDDIMSTYLE2
 70
     0
 41
3.302
 44
0.0
 45
0.000000001
 73
     0
 74
     0
 77
     1
 78
    12
 79
     3
140
3.5
147
0.875
172
     1
173
     1
178
     0
271
     2
272
     2
276
     2
284
    12
289
     0
340
94
  0
ENDTAB
  0
TABLE
  2
BLOCK_RECORD
  5
1
330
0
100
AcDbSymbolTable
 70
    20
  0
BLOCK_RECORD
  5
1F
102
{ACAD_XDICTIONARY
360
338
102
}
330
1
100
AcDbSymbolTableRecord
100
AcDbBlockTableRecord
  2
*Model_Space
340
22
  0
BLOCK_RECORD
  5
1B
330
1
100
AcDbSymbolTableRecord
100
AcDbBlockTableRecord
  2
*Paper_Space
340
1E
  0
BLOCK_RECORD
  5
23
330
1
100
AcDbSymbolTableRecord
100
AcDbBlockTableRecord
  2
*Paper_Space0
340
26
  0
BLOCK_RECORD
  5
7F
330
1
100
AcDbSymbolTableRecord
100
AcDbBlockTableRecord
  2
블럭10
340
0
102
{BLKREFS
331
C6
102
}
  0
BLOCK_RECORD
  5
CF
330
1
100
AcDbSymbolTableRecord
100
AcDbBlockTableRecord
  2
_D
340
0
  0
BLOCK_RECORD
  5
E4
330
1
100
AcDbSymbolTableRecord
100
AcDbBlockTableRecord
  2
_D_1
340
0
  0
BLOCK_RECORD
  5
F8
330
1
100
AcDbSymbolTableRecord
100
AcDbBlockTableRecord
  2
_D_2
340
0
  0
BLOCK_RECORD
  5
10B
330
1
100
AcDbSymbolTableRecord
100
AcDbBlockTableRecord
  2
_D_3
340
0
  0
BLOCK_RECORD
  5
125
330
1
100
AcDbSymbolTableRecord
100
AcDbBlockTableRecord
  2
SW_DOWELSYMBOL_0
340
0
102
{BLKREFS
331
12B
102
}
  0
BLOCK_RECORD
  5
1E7
330
1
100
AcDbSymbolTableRecord
100
AcDbBlockTableRecord
  2
_D_4
340
0
  0
BLOCK_RECORD
  5
201
330
1
100
AcDbSymbolTableRecord
100
AcDbBlockTableRecord
  2
*D8
340
0
  0
BLOCK_RECORD
  5
20D
330
1
100
AcDbSymbolTableRecord
100
AcDbBlockTableRecord
  2
*D9
340
0
  0
BLOCK_RECORD
  5
219
330
1
100
AcDbSymbolTableRecord
100
AcDbBlockTableRecord
  2
*D10
340
0
  0
BLOCK_RECORD
  5
225
330
1
100
AcDbSymbolTableRecord
100
AcDbBlockTableRecord
  2
*D11
340
0
  0
BLOCK_RECORD
  5
280
330
1
100
AcDbSymbolTableRecord
100
AcDbBlockTableRecord
  2
*D12
340
0
  0
BLOCK_RECORD
  5
28C
330
1
100
AcDbSymbolTableRecord
100
AcDbBlockTableRecord
  2
*D13
340
0
  0
BLOCK_RECORD
  5
298
330
1
100
AcDbSymbolTableRecord
100
AcDbBlockTableRecord
  2
*D14
340
0
  0
BLOCK_RECORD
  5
2A6
330
1
100
AcDbSymbolTableRecord
100
AcDbBlockTableRecord
  2
*D15
340
0
  0
BLOCK_RECORD
  5
2B4
330
1
100
AcDbSymbolTableRecord
100
AcDbBlockTableRecord
  2
*D16
340
0
  0
BLOCK_RECORD
  5
2EA
330
1
100
AcDbSymbolTableRecord
100
AcDbBlockTableRecord
  2
*D17
340
0
  0
BLOCK_RECORD
  5
2F9
330
1
100
AcDbSymbolTableRecord
100
AcDbBlockTableRecord
  2
*D18
340
0
  0
BLOCK_RECORD
  5
308
330
1
100
AcDbSymbolTableRecord
100
AcDbBlockTableRecord
  2
*D19
340
0
  0
ENDTAB
  0
ENDSEC
  0
SECTION
  2
BLOCKS
  0
BLOCK
  5
20
330
1F
100
AcDbEntity
  8
0
100
AcDbBlockBegin
  2
*Model_Space
 70
     0
 10
0.0
 20
0.0
 30
0.0
  3
*Model_Space
  1
*Model_Space
  0
ENDBLK
  5
21
330
1F
100
AcDbEntity
  8
0
100
AcDbBlockEnd
  0
BLOCK
  5
1C
330
1B
100
AcDbEntity
 67
     1
  8
0
100
AcDbBlockBegin
  2
*Paper_Space
 70
     0
 10
0.0
 20
0.0
 30
0.0
  3
*Paper_Space
  1
*Paper_Space
  0
ENDBLK
  5
1D
330
1B
100
AcDbEntity
 67
     1
  8
0
100
AcDbBlockEnd
  0
BLOCK
  5
24
330
23
100
AcDbEntity
  8
0
100
AcDbBlockBegin
  2
*Paper_Space0
 70
     0
 10
0.0
 20
0.0
 30
0.0
  3
*Paper_Space0
  1
*Paper_Space0
  0
ENDBLK
  5
25
330
23
100
AcDbEntity
  8
0
100
AcDbBlockEnd
  0
BLOCK
  5
80
330
7F
100
AcDbEntity
  8
0
100
AcDbBlockBegin
  2
블럭10
 70
     2
 10
0.0
 20
0.0
 30
0.0
  3
블럭10
  1
블럭10
  0
ELLIPSE
  5
82
330
7F
100
AcDbEntity
  8
중심선
100
AcDbEllipse
 10
20.54032771741204
 20
12.0471743016438
 30
0.0
 11
6.600054785286829
 21
-1.261213355974178E-13
 31
0.0
210
0.0
220
0.0
230
1.0
 40
0.636358354079598
 41
0.9219305317359503
 42
6.513795318482858
  0
ELLIPSE
  5
83
330
7F
100
AcDbEntity
  8
중심선
100
AcDbEllipse
 10
20.54032771746488
 20
12.04717430159265
 30
0.0
 11
3.960054785062283
 21
1.540847449632565E-10
 31
0.0
210
0.0
220
0.0
230
1.0
 40
0.3939339440162632
 41
1.131841032648279
 42
5.62031148352944
  0
LINE
  5
84
330
7F
100
AcDbEntity
  8
중심선
100
AcDbLine
 10
2.268634060543552
 20
16.24717430164393
 30
0.0
 11
5.714909304380834
 21
16.24717430164393
 31
0.0
  0
LINE
  5
85
330
7F
100
AcDbEntity
  8
중심선
100
AcDbLine
 10
5.245725140726316
 20
7.84717430164391
 30
0.0
 11
8.692000384563599
 21
7.84717430164391
 31
0.0
  0
LINE
  5
86
330
7F
100
AcDbEntity
  8
중심선
100
AcDbLine
 10
15.74043728645272
 20
16.24717430164393
 30
0.0
 11
8.692000384563599
 21
7.84717430164391
 31
0.0
  0
LINE
  5
87
330
7F
100
AcDbEntity
  8
중심선
100
AcDbLine
 10
0.1404042013395286
 20
13.71084872107135
 30
0.0
 11
3.58671253028996
 21
13.71088815037384
 31
0.0
  0
LINE
  5
88
330
7F
100
AcDbEntity
  8
중심선
100
AcDbLine
 10
2.750260043222114
 20
10.84717430164391
 30
0.0
 11
6.196535287059397
 21
10.84717430164391
 31
0.0
  0
LINE
  5
89
330
7F
100
AcDbEntity
  8
중심선
100
AcDbLine
 10
12.29416204261559
 20
16.24717430164393
 30
0.0
 11
5.245725140726316
 21
7.84717430164391
 31
0.0
  0
LINE
  5
8A
330
7F
100
AcDbEntity
  8
중심선
100
AcDbLine
 10
10.72767329541681
 20
16.24717430164393
 30
0.0
 11
6.196535287059397
 21
10.84717430164391
 31
0.0
  0
LINE
  5
8B
330
7F
100
AcDbEntity
  8
중심선
100
AcDbLine
 10
7.28139805157953
 20
16.24717430164393
 30
0.0
 11
2.750260043222114
 21
10.84717430164391
 31
0.0
  0
LINE
  5
8C
330
7F
100
AcDbEntity
  8
중심선
100
AcDbLine
 10
5.714909304380834
 20
16.24717430164393
 30
0.0
 11
3.58671253028996
 21
13.71088815037384
 31
0.0
  0
LINE
  5
8D
330
7F
100
AcDbEntity
  8
중심선
100
AcDbLine
 10
2.268634060543552
 20
16.24717430164393
 30
0.0
 11
0.1404042013395286
 21
13.71084872107135
 31
0.0
  0
LINE
  5
8E
330
7F
100
AcDbEntity
  8
중심선
100
AcDbLine
 10
7.28139805157953
 20
16.24717430164393
 30
0.0
 11
10.72767329541681
 21
16.24717430164393
 31
0.0
  0
LINE
  5
8F
330
7F
100
AcDbEntity
  8
중심선
100
AcDbLine
 10
12.29416204261559
 20
16.24717430164393
 30
0.0
 11
15.74043728645272
 21
16.24717430164393
 31
0.0
  0
LINE
  5
90
330
7F
100
AcDbEntity
  8
중심선
100
AcDbLine
 10
19.22036997980202
 20
11.08717430171403
 30
0.0
 11
23.66174974927406
 21
11.08717430171406
 31
0.0
  0
LINE
  5
91
330
7F
100
AcDbEntity
  8
중심선
100
AcDbLine
 10
19.22039502424796
 20
13.00717430171391
 30
0.0
 11
19.22036997980202
 21
11.08717430171403
 31
0.0
  0
LINE
  5
92
330
7F
100
AcDbEntity
  8
중심선
100
AcDbLine
 10
19.22039502424796
 20
13.00717430171391
 30
0.0
 11
26.96566020931264
 21
13.00717430171391
 31
0.0
  0
LINE
  5
93
330
7F
100
AcDbEntity
  8
중심선
100
AcDbLine
 10
22.22332737316547
 20
13.45928029700563
 30
0.0
 11
24.52862924686651
 21
15.39360700705356
 31
0.0
  0
ATTDEF
  5
95
330
7F
100
AcDbEntity
  8
FORMAT
 62
     2
100
AcDbText
 10
4.408487351596664
 20
2.075366912832191
 30
0.0
 40
4.233333333333333
  1
E5023014
 41
0.75
  7
SLDTEXTSTYLE0
 11
4.408487351596664
 21
-0.0412997538344756
 31
0.0
100
AcDbAttributeDefinition
  3

  2
AUTOATTR0
 70
     0
 74
     1
  0
ENDBLK
  5
81
330
7F
100
AcDbEntity
  8
0
100
AcDbBlockEnd
  0
BLOCK
  5
D0
330
CF
100
AcDbEntity
  8
0
100
AcDbBlockBegin
  2
_D
 70
     0
 10
0.0
 20
0.0
 30
0.0
  3
_D
  1
_D
  0
LINE
  5
D2
330
CF
100
AcDbEntity
  8
치수문자_일반주서
 62
     0
370
    -2
100
AcDbLine
 10
31.8125
 20
2.77812500000002
 30
0.0
 11
46.15049357813402
 21
2.778125000000074
 31
0.0
  0
LINE
  5
D3
330
CF
100
AcDbEntity
  8
치수문자_일반주서
 62
     0
370
    -2
100
AcDbLine
 10
31.8125
 20
-2.778124999999982
 30
0.0
 11
46.15049357813404
 21
-2.778124999999928
 31
0.0
  0
LINE
  5
D4
330
CF
100
AcDbEntity
  8
치수문자_일반주서
 62
     0
370
    -2
100
AcDbLine
 10
46.15049357813402
 20
2.778125000000074
 30
0.0
 11
46.15049357813386
 21
43.29535403243347
 31
0.0
  0
LINE
  5
D5
330
CF
100
AcDbEntity
  8
치수문자_일반주서
 62
     0
370
    -2
100
AcDbLine
 10
46.15049357813402
 20
2.778125000000074
 30
0.0
 11
46.15049357813404
 21
-2.778124999999928
 31
0.0
  0
LINE
  5
D6
330
CF
100
AcDbEntity
  8
치수문자_일반주서
 62
     0
370
    -2
100
AcDbLine
 10
46.150493578134
 20
6.080125000000073
 30
0.0
 11
46.15049357813399
 21
9.382125000000073
 31
0.0
  0
LINE
  5
D7
330
CF
100
AcDbEntity
  8
치수문자_일반주서
 62
     0
370
    -2
100
AcDbLine
 10
46.15049357813405
 20
-6.080124999999928
 30
0.0
 11
46.15049357813407
 21
-9.382124999999927
 31
0.0
  0
SOLID
  5
D8
330
CF
100
AcDbEntity
  8
치수문자_일반주서
 62
     0
100
AcDbTrace
 10
45.60016024480067
 20
6.080125000000072
 30
0.0
 11
46.70082691146734
 21
6.080125000000075
 31
0.0
 12
46.15049357813402
 22
2.778125000000074
 32
0.0
 13
46.15049357813402
 23
2.778125000000074
 33
0.0
  0
SOLID
  5
D9
330
CF
100
AcDbEntity
  8
치수문자_일반주서
 62
     0
100
AcDbTrace
 10
46.70082691146739
 20
-6.080124999999926
 30
0.0
 11
45.60016024480072
 21
-6.08012499999993
 31
0.0
 12
46.15049357813404
 22
-2.778124999999928
 32
0.0
 13
46.15049357813404
 23
-2.778124999999928
 33
0.0
  0
MTEXT
  5
DA
330
CF
100
AcDbEntity
  8
치수문자_일반주서
 62
     0
100
AcDbMText
 10
41.77549357813392
 20
28.85785403243345
 30
0.0
 40
3.5
 41
0.0
 71
     2
 72
     1
  1
\A1;%%c5.56 [7/32]
  7
SLDTEXTSTYLE0
 11
-3.836451216702453E-15
 21
1.0
 31
0.0
 73
     1
 44
1.0
  0
POINT
  5
DB
330
CF
100
AcDbEntity
  8
Defpoints
 62
     0
100
AcDbPoint
 10
31.75
 20
2.778125000000019
 30
0.0
  0
POINT
  5
DC
330
CF
100
AcDbEntity
  8
Defpoints
 62
     0
100
AcDbPoint
 10
31.75
 20
-2.778124999999982
 30
0.0
  0
POINT
  5
DD
330
CF
100
AcDbEntity
  8
Defpoints
 62
     0
100
AcDbPoint
 10
46.15049357813404
 20
-2.778124999999928
 30
0.0
  0
ENDBLK
  5
D1
330
CF
100
AcDbEntity
  8
0
100
AcDbBlockEnd
  0
BLOCK
  5
E5
330
E4
100
AcDbEntity
  8
0
100
AcDbBlockBegin
  2
_D_1
 70
     0
 10
0.0
 20
0.0
 30
0.0
  3
_D_1
  1
_D_1
  0
LINE
  5
E7
330
E4
100
AcDbEntity
  8
치수문자_일반주서
 62
     0
370
    -2
100
AcDbLine
 10
31.75
 20
2.830408699589625
 30
0.0
 11
31.75
 21
28.79030179660979
 31
0.0
  0
LINE
  5
E8
330
E4
100
AcDbEntity
  8
치수문자_일반주서
 62
     0
370
    -2
100
AcDbLine
 10
19.05000000000001
 20
2.83488734909574
 30
0.0
 11
19.05000000000001
 21
28.79030179660979
 31
0.0
  0
LINE
  5
E9
330
E4
100
AcDbEntity
  8
치수문자_일반주서
 62
     0
370
    -2
100
AcDbLine
 10
19.05000000000001
 20
28.79030179660979
 30
0.0
 11
-13.60797683964152
 21
28.79030179660979
 31
0.0
  0
LINE
  5
EA
330
E4
100
AcDbEntity
  8
치수문자_일반주서
 62
     0
370
    -2
100
AcDbLine
 10
31.75
 20
28.79030179660979
 30
0.0
 11
19.05000000000001
 21
28.79030179660979
 31
0.0
  0
LINE
  5
EB
330
E4
100
AcDbEntity
  8
치수문자_일반주서
 62
     0
370
    -2
100
AcDbLine
 10
35.052
 20
28.79030179660979
 30
0.0
 11
38.354
 21
28.79030179660979
 31
0.0
  0
LINE
  5
EC
330
E4
100
AcDbEntity
  8
치수문자_일반주서
 62
     0
370
    -2
100
AcDbLine
 10
15.74800000000001
 20
28.79030179660979
 30
0.0
 11
12.44600000000001
 21
28.79030179660979
 31
0.0
  0
SOLID
  5
ED
330
E4
100
AcDbEntity
  8
치수문자_일반주서
 62
     0
100
AcDbTrace
 10
35.052
 20
29.34063512994313
 30
0.0
 11
35.052
 21
28.23996846327646
 31
0.0
 12
31.75
 22
28.79030179660979
 32
0.0
 13
31.75
 23
28.79030179660979
 33
0.0
  0
SOLID
  5
EE
330
E4
100
AcDbEntity
  8
치수문자_일반주서
 62
     0
100
AcDbTrace
 10
15.74800000000001
 20
28.23996846327646
 30
0.0
 11
15.74800000000001
 21
29.34063512994313
 31
0.0
 12
19.05000000000001
 22
28.79030179660979
 32
0.0
 13
19.05000000000001
 23
28.79030179660979
 33
0.0
  0
MTEXT
  5
EF
330
E4
100
AcDbEntity
  8
치수문자_일반주서
 62
     0
100
AcDbMText
 10
-2.670476839641516
 20
33.1653017966098
 30
0.0
 40
3.5
 41
0.0
 71
     2
 72
     1
  1
\A1;12.7 [1/2]
  7
SLDTEXTSTYLE0
 73
     1
 44
1.0
  0
POINT
  5
F0
330
E4
100
AcDbEntity
  8
Defpoints
 62
     0
100
AcDbPoint
 10
31.75
 20
2.767908699589625
 30
0.0
  0
POINT
  5
F1
330
E4
100
AcDbEntity
  8
Defpoints
 62
     0
100
AcDbPoint
 10
19.05000000000001
 20
2.77238734909574
 30
0.0
  0
POINT
  5
F2
330
E4
100
AcDbEntity
  8
Defpoints
 62
     0
100
AcDbPoint
 10
19.05000000000001
 20
28.79030179660979
 30
0.0
  0
ENDBLK
  5
E6
330
E4
100
AcDbEntity
  8
0
100
AcDbBlockEnd
  0
BLOCK
  5
F9
330
F8
100
AcDbEntity
  8
0
100
AcDbBlockBegin
  2
_D_2
 70
     0
 10
0.0
 20
0.0
 30
0.0
  3
_D_2
  1
_D_2
  0
LINE
  5
FB
330
F8
100
AcDbEntity
  8
치수문자_일반주서
 62
     0
370
    -2
100
AcDbLine
 10
31.75
 20
2.830408699589625
 30
0.0
 11
31.75
 21
50.35832764256403
 31
0.0
  0
LINE
  5
FC
330
F8
100
AcDbEntity
  8
치수문자_일반주서
 62
     0
370
    -2
100
AcDbLine
 10
-31.75
 20
2.602500000000001
 30
0.0
 11
-31.75
 21
50.35832764256403
 31
0.0
  0
LINE
  5
FD
330
F8
100
AcDbEntity
  8
치수문자_일반주서
 62
     0
370
    -2
100
AcDbLine
 10
28.448
 20
50.35832764256403
 30
0.0
 11
-28.448
 21
50.35832764256403
 31
0.0
  0
SOLID
  5
FE
330
F8
100
AcDbEntity
  8
치수문자_일반주서
 62
     0
100
AcDbTrace
 10
28.448
 20
49.8079943092307
 30
0.0
 11
28.448
 21
50.90866097589737
 31
0.0
 12
31.75
 22
50.35832764256403
 32
0.0
 13
31.75
 23
50.35832764256403
 33
0.0
  0
SOLID
  5
FF
330
F8
100
AcDbEntity
  8
치수문자_일반주서
 62
     0
100
AcDbTrace
 10
-28.448
 20
50.90866097589737
 30
0.0
 11
-28.448
 21
49.8079943092307
 31
0.0
 12
-31.75
 22
50.35832764256403
 32
0.0
 13
-31.75
 23
50.35832764256403
 33
0.0
  0
MTEXT
  5
100
330
F8
100
AcDbEntity
  8
치수문자_일반주서
 62
     0
100
AcDbMText
 10
-1.620199429023449
 20
54.73332764256403
 30
0.0
 40
3.5
 41
0.0
 71
     2
 72
     1
  1
\A1;63.5 [2 1/2]
  7
SLDTEXTSTYLE0
 73
     1
 44
1.0
  0
POINT
  5
101
330
F8
100
AcDbEntity
  8
Defpoints
 62
     0
100
AcDbPoint
 10
31.75
 20
2.767908699589625
 30
0.0
  0
POINT
  5
102
330
F8
100
AcDbEntity
  8
Defpoints
 62
     0
100
AcDbPoint
 10
-31.75
 20
2.540000000000001
 30
0.0
  0
POINT
  5
103
330
F8
100
AcDbEntity
  8
Defpoints
 62
     0
100
AcDbPoint
 10
-31.75
 20
50.35832764256403
 30
0.0
  0
ENDBLK
  5
FA
330
F8
100
AcDbEntity
  8
0
100
AcDbBlockEnd
  0
BLOCK
  5
10C
330
10B
100
AcDbEntity
  8
0
100
AcDbBlockBegin
  2
_D_3
 70
     0
 10
0.0
 20
0.0
 30
0.0
  3
_D_3
  1
_D_3
  0
LINE
  5
10E
330
10B
100
AcDbEntity
  8
치수문자_일반주서
 62
     0
370
    -2
100
AcDbLine
 10
-16.6313423357461
 20
3.175000000000003
 30
0.0
 11
-40.77464702885824
 21
3.174999999999915
 31
0.0
  0
LINE
  5
10F
330
10B
100
AcDbEntity
  8
치수문자_일반주서
 62
     0
370
    -2
100
AcDbLine
 10
-16.6313423357461
 20
-3.175000000000008
 30
0.0
 11
-40.77464702885822
 21
-3.175000000000097
 31
0.0
  0
LINE
  5
110
330
10B
100
AcDbEntity
  8
치수문자_일반주서
 62
     0
370
    -2
100
AcDbLine
 10
-40.77464702885824
 20
3.174999999999915
 30
0.0
 11
-40.77464702885835
 21
35.81024999999998
 31
0.0
  0
LINE
  5
111
330
10B
100
AcDbEntity
  8
치수문자_일반주서
 62
     0
370
    -2
100
AcDbLine
 10
-40.77464702885824
 20
3.174999999999915
 30
0.0
 11
-40.77464702885822
 21
-3.175000000000097
 31
0.0
  0
LINE
  5
112
330
10B
100
AcDbEntity
  8
치수문자_일반주서
 62
     0
370
    -2
100
AcDbLine
 10
-40.77464702885825
 20
6.476999999999915
 30
0.0
 11
-40.77464702885827
 21
9.778999999999915
 31
0.0
  0
LINE
  5
113
330
10B
100
AcDbEntity
  8
치수문자_일반주서
 62
     0
370
    -2
100
AcDbLine
 10
-40.7746470288582
 20
-6.477000000000096
 30
0.0
 11
-40.77464702885819
 21
-9.779000000000096
 31
0.0
  0
SOLID
  5
114
330
10B
100
AcDbEntity
  8
치수문자_일반주서
 62
     0
100
AcDbTrace
 10
-41.32498036219159
 20
6.476999999999913
 30
0.0
 11
-40.22431369552492
 21
6.476999999999917
 31
0.0
 12
-40.77464702885824
 22
3.174999999999915
 32
0.0
 13
-40.77464702885824
 23
3.174999999999915
 33
0.0
  0
SOLID
  5
115
330
10B
100
AcDbEntity
  8
치수문자_일반주서
 62
     0
100
AcDbTrace
 10
-40.22431369552487
 20
-6.477000000000094
 30
0.0
 11
-41.32498036219154
 21
-6.477000000000098
 31
0.0
 12
-40.77464702885822
 22
-3.175000000000097
 32
0.0
 13
-40.77464702885822
 23
-3.175000000000097
 33
0.0
  0
MTEXT
  5
116
330
10B
100
AcDbEntity
  8
치수문자_일반주서
 62
     0
100
AcDbMText
 10
-45.1496470288583
 20
23.12274999999996
 30
0.0
 40
3.5
 41
0.0
 71
     2
 72
     1
  1
\A1;%%c6.35 [1/4]
  7
SLDTEXTSTYLE0
 11
-3.356894814614640E-15
 21
1.0
 31
0.0
 73
     1
 44
1.0
  0
POINT
  5
2BE
330
10B
100
AcDbEntity
  8
Defpoints
 62
     0
100
AcDbPoint
 10
-16.5688423357461
 20
3.175000000000004
 30
0.0
  0
POINT
  5
2BF
330
10B
100
AcDbEntity
  8
Defpoints
 62
     0
100
AcDbPoint
 10
-16.5688423357461
 20
-3.175000000000008
 30
0.0
  0
POINT
  5
2C0
330
10B
100
AcDbEntity
  8
Defpoints
 62
     0
100
AcDbPoint
 10
-40.77464702885822
 20
-3.175000000000098
 30
0.0
  0
ENDBLK
  5
10D
330
10B
100
AcDbEntity
  8
0
100
AcDbBlockEnd
  0
BLOCK
  5
126
330
125
100
AcDbEntity
  8
0
100
AcDbBlockBegin
  2
SW_DOWELSYMBOL_0
 70
     0
 10
0.0
 20
0.0
 30
0.0
  3
SW_DOWELSYMBOL_0
  1
SW_DOWELSYMBOL_0
  0
CIRCLE
  5
128
330
125
100
AcDbEntity
  8
해칭선
 62
     0
100
AcDbCircle
 10
0.0
 20
0.0
 30
0.0
 40
3.000000000000005
  0
HATCH
  5
129
330
125
100
AcDbEntity
  8
0
  6
Continuous
 62
     0
370
     0
100
AcDbHatch
 10
0.0
 20
0.0
 30
0.0
210
0.0
220
0.0
230
1.0
  2
SOLID
 70
     1
 71
     0
 91
        1
 92
        0
 93
        3
 72
     2
 10
0.0
 20
0.0
 40
3.000000000000005
 50
0.0
 51
90.0
 73
     1
 72
     1
 10
0.0
 20
3.000000000000005
 11
0.0
 21
0.0
 72
     1
 10
0.0
 20
0.0
 11
3.000000000000004
 21
0.0
 97
        0
 75
     0
 76
     1
 98
        1
 10
0.0
 20
0.0
  0
HATCH
  5
12A
330
125
100
AcDbEntity
  8
0
  6
Continuous
 62
     0
370
     0
100
AcDbHatch
 10
0.0
 20
0.0
 30
0.0
210
0.0
220
0.0
230
1.0
  2
SOLID
 70
     1
 71
     0
 91
        1
 92
        0
 93
        3
 72
     2
 10
0.0
 20
0.0
 40
3.000000000000005
 50
180.0
 51
270.0000000000007
 73
     1
 72
     1
 10
0.0
 20
-3.000000000000005
 11
0.0
 21
0.0
 72
     1
 10
0.0
 20
0.0
 11
-3.000000000000005
 21
0.0
 97
        0
 75
     0
 76
     1
 98
        1
 10
0.0
 20
0.0
  0
ENDBLK
  5
127
330
125
100
AcDbEntity
  8
0
100
AcDbBlockEnd
  0
BLOCK
  5
1E8
330
1E7
100
AcDbEntity
  8
0
100
AcDbBlockBegin
  2
_D_4
 70
     0
 10
0.0
 20
0.0
 30
0.0
  3
_D_4
  1
_D_4
  0
LINE
  5
1E9
330
1E7
100
AcDbEntity
  8
치수문자_일반주서
 62
     0
370
    -2
100
AcDbLine
 10
102.4375000000001
 20
36.22143424691529
 30
0.0
 11
117.3750000000001
 21
36.22143424691535
 31
0.0
  0
LINE
  5
1EA
330
1E7
100
AcDbEntity
  8
치수문자_일반주서
 62
     0
370
    -2
100
AcDbLine
 10
102.4375000000001
 20
22.22143424691529
 30
0.0
 11
117.3750000000001
 21
22.22143424691535
 31
0.0
  0
LINE
  5
1EB
330
1E7
100
AcDbEntity
  8
치수문자_일반주서
 62
     0
370
    -2
100
AcDbLine
 10
117.3750000000001
 20
36.22143424691535
 30
0.0
 11
117.3750000000001
 21
22.22143424691535
 31
0.0
  0
LINE
  5
1EC
330
1E7
100
AcDbEntity
  8
치수문자_일반주서
 62
     0
370
    -2
100
AcDbLine
 10
117.3750000000001
 20
39.52343424691535
 30
0.0
 11
117.375
 21
42.82543424691535
 31
0.0
  0
LINE
  5
1ED
330
1E7
100
AcDbEntity
  8
치수문자_일반주서
 62
     0
370
    -2
100
AcDbLine
 10
117.3750000000001
 20
18.91943424691535
 30
0.0
 11
117.3750000000001
 21
15.61743424691535
 31
0.0
  0
SOLID
  5
1EE
330
1E7
100
AcDbEntity
  8
치수문자_일반주서
 62
     0
100
AcDbTrace
 10
116.8246666666667
 20
39.52343424691535
 30
0.0
 11
117.9253333333334
 21
39.52343424691535
 31
0.0
 12
117.3750000000001
 22
36.22143424691535
 32
0.0
 13
117.3750000000001
 23
36.22143424691535
 33
0.0
  0
SOLID
  5
1EF
330
1E7
100
AcDbEntity
  8
치수문자_일반주서
 62
     0
100
AcDbTrace
 10
117.9253333333335
 20
18.91943424691535
 30
0.0
 11
116.8246666666668
 21
18.91943424691535
 31
0.0
 12
117.3750000000001
 22
22.22143424691535
 32
0.0
 13
117.3750000000001
 23
22.22143424691535
 33
0.0
  0
MTEXT
  5
1F0
330
1E7
100
AcDbEntity
  8
치수문자_일반주서
 62
     0
100
AcDbMText
 10
113.0000000000001
 20
29.28713862862833
 30
0.0
 40
3.5
 41
0.0
 71
     2
 72
     1
  1
\A1;%%c14
  7
SLDTEXTSTYLE0
 11
-3.045183153257572E-15
 21
1.0
 31
0.0
 73
     1
 44
1.0
  0
POINT
  5
1F1
330
1E7
100
AcDbEntity
  8
Defpoints
 62
     0
100
AcDbPoint
 10
102.3750000000001
 20
36.22143424691529
 30
0.0
  0
POINT
  5
1F2
330
1E7
100
AcDbEntity
  8
Defpoints
 62
     0
100
AcDbPoint
 10
102.3750000000001
 20
22.22143424691529
 30
0.0
  0
POINT
  5
1F3
330
1E7
100
AcDbEntity
  8
Defpoints
 62
     0
100
AcDbPoint
 10
117.3750000000001
 20
22.22143424691535
 30
0.0
  0
ENDBLK
  5
1F4
330
1E7
100
AcDbEntity
  8
0
100
AcDbBlockEnd
  0
BLOCK
  5
202
330
201
100
AcDbEntity
  8
0
100
AcDbBlockBegin
  2
*D8
 70
     1
 10
0.0
 20
0.0
 30
0.0
  3
*D8
  1
*D8
  0
LINE
  5
203
330
201
100
AcDbEntity
  8
치수문자_일반주서
 62
     0
370
    -2
100
AcDbLine
 10
103.8657751816695
 20
19.48229575403651
 30
0.0
 11
120.1921280501954
 21
-7.081888143622854
 31
0.0
  0
MTEXT
  5
204
330
201
100
AcDbEntity
  8
치수문자_일반주서
 62
     0
100
AcDbMText
 10
115.6706384014277
 20
5.288158154535728
 30
0.0
 40
3.5
 41
0.0
 71
     5
 72
     1
  1
\A1;R.50 [R0.02]
  7
SLDTEXTSTYLE0
 11
0.5236126201129557
 21
-0.8519564684057781
 31
0.0
 73
     1
 44
1.0
  0
SOLID
  5
205
330
201
100
AcDbEntity
  8
치수문자_일반주서
 62
     0
100
AcDbTrace
 10
104.3346352247821
 20
19.77045723263868
 30
0.0
 11
103.3969151385569
 21
19.19413427543435
 31
0.0
 12
102.1368063100565
 22
22.29545601271239
 32
0.0
 13
102.1368063100565
 23
22.29545601271239
 33
0.0
  0
LINE
  5
206
330
201
100
AcDbEntity
  8
치수문자_일반주서
 62
     0
100
AcDbLine
 10
101.785
 20
22.72143424691529
 30
0.0
 11
101.965
 21
22.72143424691529
 31
0.0
  0
LINE
  5
207
330
201
100
AcDbEntity
  8
치수문자_일반주서
 62
     0
100
AcDbLine
 10
101.875
 20
22.63143424691529
 30
0.0
 11
101.875
 21
22.81143424691529
 31
0.0
  0
POINT
  5
233
330
201
100
AcDbEntity
  8
Defpoints
 62
     0
100
AcDbPoint
 10
102.1368063100565
 20
22.29545601271239
 30
0.0
  0
POINT
  5
234
330
201
100
AcDbEntity
  8
Defpoints
 62
     0
100
AcDbPoint
 10
101.875
 20
22.72143424691529
 30
0.0
  0
ENDBLK
  5
208
330
201
100
AcDbEntity
  8
0
100
AcDbBlockEnd
  0
BLOCK
  5
20E
330
20D
100
AcDbEntity
  8
0
100
AcDbBlockBegin
  2
*D9
 70
     1
 10
0.0
 20
0.0
 30
0.0
  3
*D9
  1
*D10
  0
LINE
  5
210
330
20D
100
AcDbEntity
  8
치수문자_일반주서
 62
     0
370
    -2
100
AcDbLine
 10
19.37500000000004
 20
35.78393424691529
 30
0.0
 11
19.37500000000004
 21
70.88391841499404
 31
0.0
  0
LINE
  5
211
330
20D
100
AcDbEntity
  8
치수문자_일반주서
 62
     0
370
    -2
100
AcDbLine
 10
102.3750000000001
 20
36.34643424691529
 30
0.0
 11
102.3750000000001
 21
70.88391841499404
 31
0.0
  0
LINE
  5
212
330
20D
100
AcDbEntity
  8
치수문자_일반주서
 62
     0
370
    -2
100
AcDbLine
 10
22.67700000000004
 20
70.88391841499404
 30
0.0
 11
99.07300000000006
 21
70.88391841499404
 31
0.0
  0
SOLID
  5
213
330
20D
100
AcDbEntity
  8
치수문자_일반주서
 62
     0
100
AcDbTrace
 10
22.67700000000004
 20
71.43425174832737
 30
0.0
 11
22.67700000000004
 21
70.33358508166071
 31
0.0
 12
19.37500000000004
 22
70.88391841499404
 32
0.0
 13
19.37500000000004
 23
70.88391841499404
 33
0.0
  0
SOLID
  5
214
330
20D
100
AcDbEntity
  8
치수문자_일반주서
 62
     0
100
AcDbTrace
 10
99.07300000000006
 20
70.33358508166071
 30
0.0
 11
99.07300000000006
 21
71.43425174832737
 31
0.0
 12
102.3750000000001
 22
70.88391841499404
 32
0.0
 13
102.3750000000001
 23
70.88391841499404
 33
0.0
  0
MTEXT
  5
215
330
20D
100
AcDbEntity
  8
치수문자_일반주서
 62
     0
100
AcDbMText
 10
60.87500000000005
 20
75.25891841499404
 30
0.0
 40
3.5
 41
0.0
 71
     2
 72
     1
  1
\A1;83 [3.27]
  7
SLDTEXTSTYLE0
 73
     1
 44
1.0
  0
POINT
  5
216
330
20D
100
AcDbEntity
  8
Defpoints
 62
     0
100
AcDbPoint
 10
19.37500000000004
 20
35.72143424691529
 30
0.0
  0
POINT
  5
217
330
20D
100
AcDbEntity
  8
Defpoints
 62
     0
100
AcDbPoint
 10
102.3750000000001
 20
36.28393424691529
 30
0.0
  0
POINT
  5
218
330
20D
100
AcDbEntity
  8
Defpoints
 62
     0
100
AcDbPoint
 10
102.3750000000001
 20
70.88391841499404
 30
0.0
  0
ENDBLK
  5
20F
330
20D
100
AcDbEntity
  8
0
100
AcDbBlockEnd
  0
BLOCK
  5
21A
330
219
100
AcDbEntity
  8
0
100
AcDbBlockBegin
  2
*D10
 70
     1
 10
0.0
 20
0.0
 30
0.0
  3
*D10
  1
*D11
  0
LINE
  5
21C
330
219
100
AcDbEntity
  8
치수문자_일반주서
 62
     0
370
    -2
100
AcDbLine
 10
76.37504186422882
 20
28.62038676313042
 30
0.0
 11
76.37504186422882
 21
61.90091383617725
 31
0.0
  0
LINE
  5
21D
330
219
100
AcDbEntity
  8
치수문자_일반주서
 62
     0
370
    -2
100
AcDbLine
 10
102.3750000000001
 20
36.28393424691529
 30
0.0
 11
102.3750000000001
 21
61.90091383617725
 31
0.0
  0
LINE
  5
21E
330
219
100
AcDbEntity
  8
치수문자_일반주서
 62
     0
370
    -2
100
AcDbLine
 10
79.67704186422881
 20
61.90091383617725
 30
0.0
 11
99.07300000000006
 21
61.90091383617725
 31
0.0
  0
SOLID
  5
21F
330
219
100
AcDbEntity
  8
치수문자_일반주서
 62
     0
100
AcDbTrace
 10
79.67704186422881
 20
62.45124716951059
 30
0.0
 11
79.67704186422881
 21
61.35058050284392
 31
0.0
 12
76.37504186422882
 22
61.90091383617725
 32
0.0
 13
76.37504186422882
 23
61.90091383617725
 33
0.0
  0
SOLID
  5
220
330
219
100
AcDbEntity
  8
치수문자_일반주서
 62
     0
100
AcDbTrace
 10
99.07300000000006
 20
61.35058050284392
 30
0.0
 11
99.07300000000006
 21
62.45124716951059
 31
0.0
 12
102.3750000000001
 22
61.90091383617725
 32
0.0
 13
102.3750000000001
 23
61.90091383617725
 33
0.0
  0
MTEXT
  5
221
330
219
100
AcDbEntity
  8
치수문자_일반주서
 62
     0
100
AcDbMText
 10
89.42159572693208
 20
66.27591383617725
 30
0.0
 40
3.5
 41
0.0
 71
     2
 72
     1
  1
\A1;26 [1.02]
  7
SLDTEXTSTYLE0
 73
     1
 44
1.0
  0
POINT
  5
222
330
219
100
AcDbEntity
  8
Defpoints
 62
     0
100
AcDbPoint
 10
76.37504186422882
 20
28.55788676313042
 30
0.0
  0
POINT
  5
223
330
219
100
AcDbEntity
  8
Defpoints
 62
     0
100
AcDbPoint
 10
102.3750000000001
 20
36.22143424691529
 30
0.0
  0
POINT
  5
224
330
219
100
AcDbEntity
  8
Defpoints
 62
     0
100
AcDbPoint
 10
102.3750000000001
 20
61.90091383617725
 30
0.0
  0
ENDBLK
  5
21B
330
219
100
AcDbEntity
  8
0
100
AcDbBlockEnd
  0
BLOCK
  5
226
330
225
100
AcDbEntity
  8
0
100
AcDbBlockBegin
  2
*D11
 70
     1
 10
0.0
 20
0.0
 30
0.0
  3
*D11
  1
*D12
  0
LINE
  5
228
330
225
100
AcDbEntity
  8
치수문자_일반주서
 62
     0
370
    -2
100
AcDbLine
 10
19.81250000000005
 20
36.22143424691529
 30
0.0
 11
4.374999999999983
 21
36.22143424691524
 31
0.0
  0
LINE
  5
229
330
225
100
AcDbEntity
  8
치수문자_일반주서
 62
     0
370
    -2
100
AcDbLine
 10
19.81250000000005
 20
22.22143424691529
 30
0.0
 11
4.375000000000032
 21
22.22143424691524
 31
0.0
  0
LINE
  5
22A
330
225
100
AcDbEntity
  8
치수문자_일반주서
 62
     0
370
    -2
100
AcDbLine
 10
4.374999999999983
 20
36.22143424691524
 30
0.0
 11
4.375000000000032
 21
22.22143424691524
 31
0.0
  0
LINE
  5
22B
330
225
100
AcDbEntity
  8
치수문자_일반주서
 62
     0
370
    -2
100
AcDbLine
 10
4.374999999999972
 20
39.52343424691524
 30
0.0
 11
4.37499999999996
 21
42.82543424691524
 31
0.0
  0
LINE
  5
22C
330
225
100
AcDbEntity
  8
치수문자_일반주서
 62
     0
370
    -2
100
AcDbLine
 10
4.375000000000044
 20
18.91943424691524
 30
0.0
 11
4.375000000000055
 21
15.61743424691524
 31
0.0
  0
SOLID
  5
22D
330
225
100
AcDbEntity
  8
치수문자_일반주서
 62
     0
100
AcDbTrace
 10
3.824666666666638
 20
39.52343424691524
 30
0.0
 11
4.925333333333305
 21
39.52343424691524
 31
0.0
 12
4.374999999999983
 22
36.22143424691524
 32
0.0
 13
4.374999999999983
 23
36.22143424691524
 33
0.0
  0
SOLID
  5
22E
330
225
100
AcDbEntity
  8
치수문자_일반주서
 62
     0
100
AcDbTrace
 10
4.925333333333377
 20
18.91943424691524
 30
0.0
 11
3.82466666666671
 21
18.91943424691523
 31
0.0
 12
4.375000000000032
 22
22.22143424691524
 32
0.0
 13
4.375000000000032
 23
22.22143424691524
 33
0.0
  0
MTEXT
  5
22F
330
225
100
AcDbEntity
  8
치수문자_일반주서
 62
     0
100
AcDbMText
 10
0.0000000000000071
 20
29.22143424691528
 30
0.0
 40
3.5
 41
0.0
 71
     2
 72
     1
  1
\A1;%%c14
  7
SLDTEXTSTYLE0
 11
-3.489272363107635E-15
 21
1.0
 31
0.0
 73
     1
 44
1.0
  0
POINT
  5
230
330
225
100
AcDbEntity
  8
Defpoints
 62
     0
100
AcDbPoint
 10
19.87500000000005
 20
36.22143424691529
 30
0.0
  0
POINT
  5
231
330
225
100
AcDbEntity
  8
Defpoints
 62
     0
100
AcDbPoint
 10
19.87500000000005
 20
22.22143424691529
 30
0.0
  0
POINT
  5
232
330
225
100
AcDbEntity
  8
Defpoints
 62
     0
100
AcDbPoint
 10
4.375000000000043
 20
22.22143424691524
 30
0.0
  0
ENDBLK
  5
227
330
225
100
AcDbEntity
  8
0
100
AcDbBlockEnd
  0
BLOCK
  5
281
330
280
100
AcDbEntity
  8
0
100
AcDbBlockBegin
  2
*D12
 70
     1
 10
0.0
 20
0.0
 30
0.0
  3
*D12
  1
*D13
  0
LINE
  5
283
330
280
100
AcDbEntity
  8
치수문자_일반주서
 62
     0
370
    -2
100
AcDbLine
 10
-54.90311182816998
 20
108.3994505856917
 30
0.0
 11
-54.90311182816998
 21
143.4994347537705
 31
0.0
  0
LINE
  5
284
330
280
100
AcDbEntity
  8
치수문자_일반주서
 62
     0
370
    -2
100
AcDbLine
 10
28.09688817183003
 20
108.9619505856917
 30
0.0
 11
28.09688817183003
 21
143.4994347537705
 31
0.0
  0
LINE
  5
285
330
280
100
AcDbEntity
  8
치수문자_일반주서
 62
     0
370
    -2
100
AcDbLine
 10
-51.60111182816998
 20
143.4994347537705
 30
0.0
 11
24.79488817183003
 21
143.4994347537705
 31
0.0
  0
SOLID
  5
286
330
280
100
AcDbEntity
  8
치수문자_일반주서
 62
     0
100
AcDbTrace
 10
-51.60111182816998
 20
144.0497680871038
 30
0.0
 11
-51.60111182816998
 21
142.9491014204371
 31
0.0
 12
-54.90311182816998
 22
143.4994347537705
 32
0.0
 13
-54.90311182816998
 23
143.4994347537705
 33
0.0
  0
SOLID
  5
287
330
280
100
AcDbEntity
  8
치수문자_일반주서
 62
     0
100
AcDbTrace
 10
24.79488817183003
 20
142.9491014204371
 30
0.0
 11
24.79488817183003
 21
144.0497680871038
 31
0.0
 12
28.09688817183003
 22
143.4994347537705
 32
0.0
 13
28.09688817183003
 23
143.4994347537705
 33
0.0
  0
MTEXT
  5
288
330
280
100
AcDbEntity
  8
치수문자_일반주서
 62
     0
100
AcDbMText
 10
-13.40311182816998
 20
147.8744347537705
 30
0.0
 40
3.5
 41
0.0
 71
     2
 72
     1
  1
\A1;83 [3.27]
  7
SLDTEXTSTYLE0
 73
     1
 44
1.0
  0
POINT
  5
289
330
280
100
AcDbEntity
  8
Defpoints
 62
     0
100
AcDbPoint
 10
-54.90311182816998
 20
108.3369505856917
 30
0.0
  0
POINT
  5
28A
330
280
100
AcDbEntity
  8
Defpoints
 62
     0
100
AcDbPoint
 10
28.09688817183003
 20
108.8994505856917
 30
0.0
  0
POINT
  5
28B
330
280
100
AcDbEntity
  8
Defpoints
 62
     0
100
AcDbPoint
 10
28.09688817183003
 20
143.4994347537705
 30
0.0
  0
ENDBLK
  5
282
330
280
100
AcDbEntity
  8
0
100
AcDbBlockEnd
  0
BLOCK
  5
28D
330
28C
100
AcDbEntity
  8
0
100
AcDbBlockBegin
  2
*D13
 70
     1
 10
0.0
 20
0.0
 30
0.0
  3
*D13
  1
*D14
  0
LINE
  5
28F
330
28C
100
AcDbEntity
  8
치수문자_일반주서
 62
     0
370
    -2
100
AcDbLine
 10
2.096930036058794
 20
101.2359031019068
 30
0.0
 11
2.096930036058794
 21
134.5164301749537
 31
0.0
  0
LINE
  5
290
330
28C
100
AcDbEntity
  8
치수문자_일반주서
 62
     0
370
    -2
100
AcDbLine
 10
28.09688817183003
 20
108.8994505856917
 30
0.0
 11
28.09688817183003
 21
134.5164301749537
 31
0.0
  0
LINE
  5
291
330
28C
100
AcDbEntity
  8
치수문자_일반주서
 62
     0
370
    -2
100
AcDbLine
 10
5.398930036058793
 20
134.5164301749537
 30
0.0
 11
24.79488817183003
 21
134.5164301749537
 31
0.0
  0
SOLID
  5
292
330
28C
100
AcDbEntity
  8
치수문자_일반주서
 62
     0
100
AcDbTrace
 10
5.398930036058793
 20
135.066763508287
 30
0.0
 11
5.398930036058793
 21
133.9660968416203
 31
0.0
 12
2.096930036058794
 22
134.5164301749537
 32
0.0
 13
2.096930036058794
 23
134.5164301749537
 33
0.0
  0
SOLID
  5
293
330
28C
100
AcDbEntity
  8
치수문자_일반주서
 62
     0
100
AcDbTrace
 10
24.79488817183003
 20
133.9660968416203
 30
0.0
 11
24.79488817183003
 21
135.066763508287
 31
0.0
 12
28.09688817183003
 22
134.5164301749537
 32
0.0
 13
28.09688817183003
 23
134.5164301749537
 33
0.0
  0
MTEXT
  5
294
330
28C
100
AcDbEntity
  8
치수문자_일반주서
 62
     0
100
AcDbMText
 10
15.14348389876206
 20
138.8914301749537
 30
0.0
 40
3.5
 41
0.0
 71
     2
 72
     1
  1
\A1;26 [1.02]
  7
SLDTEXTSTYLE0
 73
     1
 44
1.0
  0
POINT
  5
295
330
28C
100
AcDbEntity
  8
Defpoints
 62
     0
100
AcDbPoint
 10
2.096930036058794
 20
101.1734031019068
 30
0.0
  0
POINT
  5
296
330
28C
100
AcDbEntity
  8
Defpoints
 62
     0
100
AcDbPoint
 10
28.09688817183003
 20
108.8369505856917
 30
0.0
  0
POINT
  5
297
330
28C
100
AcDbEntity
  8
Defpoints
 62
     0
100
AcDbPoint
 10
28.09688817183003
 20
134.5164301749537
 30
0.0
  0
ENDBLK
  5
28E
330
28C
100
AcDbEntity
  8
0
100
AcDbBlockEnd
  0
BLOCK
  5
299
330
298
100
AcDbEntity
  8
0
100
AcDbBlockBegin
  2
*D14
 70
     1
 10
0.0
 20
0.0
 30
0.0
  3
*D14
  1
*D15
  0
LINE
  5
29B
330
298
100
AcDbEntity
  8
치수문자_일반주서
 62
     0
370
    -2
100
AcDbLine
 10
-54.46561182816998
 20
108.8369505856917
 30
0.0
 11
-69.90311182817003
 21
108.8369505856917
 31
0.0
  0
LINE
  5
29C
330
298
100
AcDbEntity
  8
치수문자_일반주서
 62
     0
370
    -2
100
AcDbLine
 10
-54.46561182816998
 20
94.83695058569171
 30
0.0
 11
-69.90311182816998
 21
94.83695058569165
 31
0.0
  0
LINE
  5
29D
330
298
100
AcDbEntity
  8
치수문자_일반주서
 62
     0
370
    -2
100
AcDbLine
 10
-69.90311182817003
 20
108.8369505856917
 30
0.0
 11
-69.90311182816998
 21
94.83695058569165
 31
0.0
  0
LINE
  5
29E
330
298
100
AcDbEntity
  8
치수문자_일반주서
 62
     0
370
    -2
100
AcDbLine
 10
-69.90311182817004
 20
112.1389505856917
 30
0.0
 11
-69.90311182817005
 21
115.4409505856917
 31
0.0
  0
LINE
  5
29F
330
298
100
AcDbEntity
  8
치수문자_일반주서
 62
     0
370
    -2
100
AcDbLine
 10
-69.90311182816997
 20
91.53495058569165
 30
0.0
 11
-69.90311182816995
 21
88.23295058569164
 31
0.0
  0
SOLID
  5
2A0
330
298
100
AcDbEntity
  8
치수문자_일반주서
 62
     0
100
AcDbTrace
 10
-70.45344516150337
 20
112.1389505856917
 30
0.0
 11
-69.35277849483671
 21
112.1389505856917
 31
0.0
 12
-69.90311182817003
 22
108.8369505856917
 32
0.0
 13
-69.90311182817003
 23
108.8369505856917
 33
0.0
  0
SOLID
  5
2A1
330
298
100
AcDbEntity
  8
치수문자_일반주서
 62
     0
100
AcDbTrace
 10
-69.35277849483664
 20
91.53495058569165
 30
0.0
 11
-70.4534451615033
 21
91.53495058569165
 31
0.0
 12
-69.90311182816998
 22
94.83695058569165
 32
0.0
 13
-69.90311182816998
 23
94.83695058569165
 33
0.0
  0
MTEXT
  5
2A2
330
298
100
AcDbEntity
  8
치수문자_일반주서
 62
     0
100
AcDbMText
 10
-74.27811182817001
 20
101.8369505856917
 30
0.0
 40
3.5
 41
0.0
 71
     2
 72
     1
  1
\A1;%%c14
  7
SLDTEXTSTYLE0
 11
-3.045183153257572E-15
 21
1.0
 31
0.0
 73
     1
 44
1.0
  0
POINT
  5
2A3
330
298
100
AcDbEntity
  8
Defpoints
 62
     0
100
AcDbPoint
 10
-54.40311182816998
 20
108.8369505856917
 30
0.0
  0
POINT
  5
2A4
330
298
100
AcDbEntity
  8
Defpoints
 62
     0
100
AcDbPoint
 10
-54.40311182816998
 20
94.83695058569171
 30
0.0
  0
POINT
  5
2A5
330
298
100
AcDbEntity
  8
Defpoints
 62
     0
100
AcDbPoint
 10
-69.90311182817
 20
94.83695058569165
 30
0.0
  0
ENDBLK
  5
29A
330
298
100
AcDbEntity
  8
0
100
AcDbBlockEnd
  0
BLOCK
  5
2A7
330
2A6
100
AcDbEntity
  8
0
100
AcDbBlockBegin
  2
*D15
 70
     1
 10
0.0
 20
0.0
 30
0.0
  3
*D15
  1
*D16
  0
LINE
  5
2A9
330
2A6
100
AcDbEntity
  8
치수문자_일반주서
 62
     0
370
    -2
100
AcDbLine
 10
28.15938817183005
 20
108.8369505856917
 30
0.0
 11
43.09688817183004
 21
108.8369505856918
 31
0.0
  0
LINE
  5
2AA
330
2A6
100
AcDbEntity
  8
치수문자_일반주서
 62
     0
370
    -2
100
AcDbLine
 10
28.15938817183003
 20
94.83695058569171
 30
0.0
 11
43.09688817183009
 21
94.83695058569177
 31
0.0
  0
LINE
  5
2AB
330
2A6
100
AcDbEntity
  8
치수문자_일반주서
 62
     0
370
    -2
100
AcDbLine
 10
43.09688817183004
 20
108.8369505856918
 30
0.0
 11
43.09688817183009
 21
94.83695058569177
 31
0.0
  0
LINE
  5
2AC
330
2A6
100
AcDbEntity
  8
치수문자_일반주서
 62
     0
370
    -2
100
AcDbLine
 10
43.09688817183002
 20
112.1389505856918
 30
0.0
 11
43.09688817183001
 21
115.4409505856918
 31
0.0
  0
LINE
  5
2AD
330
2A6
100
AcDbEntity
  8
치수문자_일반주서
 62
     0
370
    -2
100
AcDbLine
 10
43.0968881718301
 20
91.53495058569176
 30
0.0
 11
43.09688817183012
 21
88.23295058569175
 31
0.0
  0
SOLID
  5
2AE
330
2A6
100
AcDbEntity
  8
치수문자_일반주서
 62
     0
100
AcDbTrace
 10
42.54655483849669
 20
112.1389505856918
 30
0.0
 11
43.64722150516336
 21
112.1389505856918
 31
0.0
 12
43.09688817183004
 22
108.8369505856918
 32
0.0
 13
43.09688817183004
 23
108.8369505856918
 33
0.0
  0
SOLID
  5
2AF
330
2A6
100
AcDbEntity
  8
치수문자_일반주서
 62
     0
100
AcDbTrace
 10
43.64722150516344
 20
91.53495058569176
 30
0.0
 11
42.54655483849677
 21
91.53495058569176
 31
0.0
 12
43.09688817183009
 22
94.83695058569177
 32
0.0
 13
43.09688817183009
 23
94.83695058569177
 33
0.0
  0
MTEXT
  5
2B0
330
2A6
100
AcDbEntity
  8
치수문자_일반주서
 62
     0
100
AcDbMText
 10
38.72188817183006
 20
101.9026549674047
 30
0.0
 40
3.5
 41
0.0
 71
     2
 72
     1
  1
\A1;%%c14
  7
SLDTEXTSTYLE0
 11
-3.552713678800501E-15
 21
1.0
 31
0.0
 73
     1
 44
1.0
  0
POINT
  5
2B1
330
2A6
100
AcDbEntity
  8
Defpoints
 62
     0
100
AcDbPoint
 10
28.09688817183005
 20
108.8369505856917
 30
0.0
  0
POINT
  5
2B2
330
2A6
100
AcDbEntity
  8
Defpoints
 62
     0
100
AcDbPoint
 10
28.09688817183003
 20
94.83695058569171
 30
0.0
  0
POINT
  5
2B3
330
2A6
100
AcDbEntity
  8
Defpoints
 62
     0
100
AcDbPoint
 10
43.09688817183009
 20
94.83695058569177
 30
0.0
  0
ENDBLK
  5
2A8
330
2A6
100
AcDbEntity
  8
0
100
AcDbBlockEnd
  0
BLOCK
  5
2B5
330
2B4
100
AcDbEntity
  8
0
100
AcDbBlockBegin
  2
*D16
 70
     1
 10
0.0
 20
0.0
 30
0.0
  3
*D16
  1
*D17
  0
LINE
  5
2B7
330
2B4
100
AcDbEntity
  8
치수문자_일반주서
 62
     0
370
    -2
100
AcDbLine
 10
29.58766335349948
 20
92.09781209281293
 30
0.0
 11
45.91401622202532
 21
65.53362819515355
 31
0.0
  0
MTEXT
  5
2B8
330
2B4
100
AcDbEntity
  8
치수문자_일반주서
 62
     0
100
AcDbMText
 10
41.39252657325765
 20
77.90367449331214
 30
0.0
 40
3.5
 41
0.0
 71
     5
 72
     1
  1
\A1;R.50 [R0.02]
  7
SLDTEXTSTYLE0
 11
0.5236126201129557
 21
-0.8519564684057781
 31
0.0
 73
     1
 44
1.0
  0
SOLID
  5
2B9
330
2B4
100
AcDbEntity
  8
치수문자_일반주서
 62
     0
100
AcDbTrace
 10
30.05652339661213
 20
92.3859735714151
 30
0.0
 11
29.11880331038684
 21
91.80965061421077
 31
0.0
 12
27.8586944818865
 22
94.91097235148881
 32
0.0
 13
27.8586944818865
 23
94.91097235148881
 33
0.0
  0
LINE
  5
2BA
330
2B4
100
AcDbEntity
  8
치수문자_일반주서
 62
     0
100
AcDbLine
 10
27.50688817183002
 20
95.33695058569171
 30
0.0
 11
27.68688817183002
 21
95.33695058569171
 31
0.0
  0
LINE
  5
2BB
330
2B4
100
AcDbEntity
  8
치수문자_일반주서
 62
     0
100
AcDbLine
 10
27.59688817183002
 20
95.2469505856917
 30
0.0
 11
27.59688817183002
 21
95.42695058569171
 31
0.0
  0
POINT
  5
2BC
330
2B4
100
AcDbEntity
  8
Defpoints
 62
     0
100
AcDbPoint
 10
27.8586944818865
 20
94.91097235148881
 30
0.0
  0
POINT
  5
2BD
330
2B4
100
AcDbEntity
  8
Defpoints
 62
     0
100
AcDbPoint
 10
27.59688817183002
 20
95.33695058569171
 30
0.0
  0
ENDBLK
  5
2B6
330
2B4
100
AcDbEntity
  8
0
100
AcDbBlockEnd
  0
BLOCK
  5
2EB
330
2EA
100
AcDbEntity
  8
0
100
AcDbBlockBegin
  2
*D17
 70
     1
 10
0.0
 20
0.0
 30
0.0
  3
*D17
  1
*D18
  0
LINE
  5
2ED
330
2EA
100
AcDbEntity
  8
치수문자_일반주서
 62
     0
370
    -2
100
AcDbLine
 10
136.1982257662911
 20
2.779199928723913
 30
0.0
 11
150.5362193444251
 21
2.779199928723965
 31
0.0
  0
LINE
  5
2EE
330
2EA
100
AcDbEntity
  8
치수문자_일반주서
 62
     0
370
    -2
100
AcDbLine
 10
136.1982257662911
 20
-2.777050071276088
 30
0.0
 11
150.5362193444252
 21
-2.777050071276037
 31
0.0
  0
LINE
  5
2EF
330
2EA
100
AcDbEntity
  8
치수문자_일반주서
 62
     0
370
    -2
100
AcDbLine
 10
150.5362193444251
 20
2.779199928723965
 30
0.0
 11
150.5362193444249
 21
42.20267896115737
 31
0.0
  0
LINE
  5
2F0
330
2EA
100
AcDbEntity
  8
치수문자_일반주서
 62
     0
370
    -2
100
AcDbLine
 10
150.5362193444251
 20
2.779199928723965
 30
0.0
 11
150.5362193444252
 21
-2.777050071276037
 31
0.0
  0
LINE
  5
2F1
330
2EA
100
AcDbEntity
  8
치수문자_일반주서
 62
     0
370
    -2
100
AcDbLine
 10
150.5362193444251
 20
6.081199928723965
 30
0.0
 11
150.5362193444251
 21
9.383199928723965
 31
0.0
  0
LINE
  5
2F2
330
2EA
100
AcDbEntity
  8
치수문자_일반주서
 62
     0
370
    -2
100
AcDbLine
 10
150.5362193444252
 20
-6.079050071276036
 30
0.0
 11
150.5362193444252
 21
-9.381050071276036
 31
0.0
  0
SOLID
  5
2F3
330
2EA
100
AcDbEntity
  8
치수문자_일반주서
 62
     0
100
AcDbTrace
 10
149.9858860110918
 20
6.081199928723962
 30
0.0
 11
151.0865526777584
 21
6.081199928723968
 31
0.0
 12
150.5362193444251
 22
2.779199928723965
 32
0.0
 13
150.5362193444251
 23
2.779199928723965
 33
0.0
  0
SOLID
  5
2F4
330
2EA
100
AcDbEntity
  8
치수문자_일반주서
 62
     0
100
AcDbTrace
 10
151.0865526777585
 20
-6.079050071276034
 30
0.0
 11
149.9858860110919
 21
-6.079050071276039
 31
0.0
 12
150.5362193444252
 22
-2.777050071276037
 32
0.0
 13
150.5362193444252
 23
-2.777050071276037
 33
0.0
  0
MTEXT
  5
2F5
330
2EA
100
AcDbEntity
  8
치수문자_일반주서
 62
     0
100
AcDbMText
 10
146.161219344425
 20
28.85892896115735
 30
0.0
 40
3.5
 41
0.0
 71
     2
 72
     1
  1
\A1;%%c5.56 [0.22]
  7
SLDTEXTSTYLE0
 11
-5.115268288936603E-15
 21
1.0
 31
0.0
 73
     1
 44
1.0
  0
POINT
  5
2F6
330
2EA
100
AcDbEntity
  8
Defpoints
 62
     0
100
AcDbPoint
 10
136.1357257662911
 20
2.779199928723913
 30
0.0
  0
POINT
  5
2F7
330
2EA
100
AcDbEntity
  8
Defpoints
 62
     0
100
AcDbPoint
 10
136.1357257662911
 20
-2.777050071276089
 30
0.0
  0
POINT
  5
2F8
330
2EA
100
AcDbEntity
  8
Defpoints
 62
     0
100
AcDbPoint
 10
150.5362193444251
 20
-2.777050071276035
 30
0.0
  0
ENDBLK
  5
2EC
330
2EA
100
AcDbEntity
  8
0
100
AcDbBlockEnd
  0
BLOCK
  5
2FA
330
2F9
100
AcDbEntity
  8
0
100
AcDbBlockBegin
  2
*D18
 70
     1
 10
0.0
 20
0.0
 30
0.0
  3
*D18
  1
*D19
  0
LINE
  5
2FC
330
2F9
100
AcDbEntity
  8
치수문자_일반주서
 62
     0
370
    -2
100
AcDbLine
 10
136.1357257662911
 20
2.831483628313519
 30
0.0
 11
136.1357257662911
 21
28.79137672533369
 31
0.0
  0
LINE
  5
2FD
330
2F9
100
AcDbEntity
  8
치수문자_일반주서
 62
     0
370
    -2
100
AcDbLine
 10
123.4357257662911
 20
2.835962277819633
 30
0.0
 11
123.4357257662911
 21
28.79137672533369
 31
0.0
  0
LINE
  5
2FE
330
2F9
100
AcDbEntity
  8
치수문자_일반주서
 62
     0
370
    -2
100
AcDbLine
 10
123.4357257662911
 20
28.79137672533369
 30
0.0
 11
90.34024892664956
 21
28.79137672533369
 31
0.0
  0
LINE
  5
2FF
330
2F9
100
AcDbEntity
  8
치수문자_일반주서
 62
     0
370
    -2
100
AcDbLine
 10
136.1357257662911
 20
28.79137672533369
 30
0.0
 11
123.4357257662911
 21
28.79137672533369
 31
0.0
  0
LINE
  5
300
330
2F9
100
AcDbEntity
  8
치수문자_일반주서
 62
     0
370
    -2
100
AcDbLine
 10
139.4377257662911
 20
28.79137672533369
 30
0.0
 11
142.7397257662911
 21
28.79137672533369
 31
0.0
  0
LINE
  5
301
330
2F9
100
AcDbEntity
  8
치수문자_일반주서
 62
     0
370
    -2
100
AcDbLine
 10
120.1337257662911
 20
28.79137672533369
 30
0.0
 11
116.8317257662911
 21
28.79137672533369
 31
0.0
  0
SOLID
  5
302
330
2F9
100
AcDbEntity
  8
치수문자_일반주서
 62
     0
100
AcDbTrace
 10
139.4377257662911
 20
29.34171005866702
 30
0.0
 11
139.4377257662911
 21
28.24104339200035
 31
0.0
 12
136.1357257662911
 22
28.79137672533369
 32
0.0
 13
136.1357257662911
 23
28.79137672533369
 33
0.0
  0
SOLID
  5
303
330
2F9
100
AcDbEntity
  8
치수문자_일반주서
 62
     0
100
AcDbTrace
 10
120.1337257662911
 20
28.24104339200035
 30
0.0
 11
120.1337257662911
 21
29.34171005866702
 31
0.0
 12
123.4357257662911
 22
28.79137672533369
 32
0.0
 13
123.4357257662911
 23
28.79137672533369
 33
0.0
  0
MTEXT
  5
304
330
2F9
100
AcDbEntity
  8
치수문자_일반주서
 62
     0
100
AcDbMText
 10
101.7152489266496
 20
33.16637672533369
 30
0.0
 40
3.5
 41
0.0
 71
     2
 72
     1
  1
\A1;12.7 [0.50]
  7
SLDTEXTSTYLE0
 73
     1
 44
1.0
  0
POINT
  5
305
330
2F9
100
AcDbEntity
  8
Defpoints
 62
     0
100
AcDbPoint
 10
136.1357257662911
 20
2.768983628313519
 30
0.0
  0
POINT
  5
306
330
2F9
100
AcDbEntity
  8
Defpoints
 62
     0
100
AcDbPoint
 10
123.4357257662911
 20
2.773462277819633
 30
0.0
  0
POINT
  5
307
330
2F9
100
AcDbEntity
  8
Defpoints
 62
     0
100
AcDbPoint
 10
123.4357257662911
 20
28.79137672533369
 30
0.0
  0
ENDBLK
  5
2FB
330
2F9
100
AcDbEntity
  8
0
100
AcDbBlockEnd
  0
BLOCK
  5
309
330
308
100
AcDbEntity
  8
0
100
AcDbBlockBegin
  2
*D19
 70
     1
 10
0.0
 20
0.0
 30
0.0
  3
*D19
  1
*D20
  0
LINE
  5
30B
330
308
100
AcDbEntity
  8
치수문자_일반주서
 62
     0
370
    -2
100
AcDbLine
 10
136.1357257662911
 20
2.831483628313519
 30
0.0
 11
136.1357257662911
 21
50.35940257128793
 31
0.0
  0
LINE
  5
30C
330
308
100
AcDbEntity
  8
치수문자_일반주서
 62
     0
370
    -2
100
AcDbLine
 10
72.63572576629107
 20
2.603574928723895
 30
0.0
 11
72.63572576629107
 21
50.35940257128793
 31
0.0
  0
LINE
  5
30D
330
308
100
AcDbEntity
  8
치수문자_일반주서
 62
     0
370
    -2
100
AcDbLine
 10
132.8337257662911
 20
50.35940257128793
 30
0.0
 11
75.93772576629107
 21
50.35940257128793
 31
0.0
  0
SOLID
  5
30E
330
308
100
AcDbEntity
  8
치수문자_일반주서
 62
     0
100
AcDbTrace
 10
132.8337257662911
 20
49.8090692379546
 30
0.0
 11
132.8337257662911
 21
50.90973590462126
 31
0.0
 12
136.1357257662911
 22
50.35940257128793
 32
0.0
 13
136.1357257662911
 23
50.35940257128793
 33
0.0
  0
SOLID
  5
30F
330
308
100
AcDbEntity
  8
치수문자_일반주서
 62
     0
100
AcDbTrace
 10
75.93772576629107
 20
50.90973590462126
 30
0.0
 11
75.93772576629107
 21
49.8090692379546
 31
0.0
 12
72.63572576629107
 22
50.35940257128793
 32
0.0
 13
72.63572576629107
 23
50.35940257128793
 33
0.0
  0
MTEXT
  5
310
330
308
100
AcDbEntity
  8
치수문자_일반주서
 62
     0
100
AcDbMText
 10
102.7655263372676
 20
54.73440257128793
 30
0.0
 40
3.5
 41
0.0
 71
     2
 72
     1
  1
\A1;63.5 [2.50]
  7
SLDTEXTSTYLE0
 73
     1
 44
1.0
  0
POINT
  5
311
330
308
100
AcDbEntity
  8
Defpoints
 62
     0
100
AcDbPoint
 10
136.1357257662911
 20
2.768983628313519
 30
0.0
  0
POINT
  5
312
330
308
100
AcDbEntity
  8
Defpoints
 62
     0
100
AcDbPoint
 10
72.63572576629107
 20
2.541074928723895
 30
0.0
  0
POINT
  5
313
330
308
100
AcDbEntity
  8
Defpoints
 62
     0
100
AcDbPoint
 10
72.63572576629107
 20
50.35940257128793
 30
0.0
  0
ENDBLK
  5
30A
330
308
100
AcDbEntity
  8
0
100
AcDbBlockEnd
  0
ENDSEC
  0
SECTION
  2
ENTITIES
  0
LINE
  5
96
330
1F
100
AcDbEntity
  8
외형선
  6
Continuous
370
    15
100
AcDbLine
 10
27.7231239252521
 20
-0.8115603408604899
 30
0.0
 11
27.76371109596166
 21
-0.8334381403942892
 31
0.0
  0
LINE
  5
97
330
1F
100
AcDbEntity
  8
0
  6
Continuous
 62
     1
370
    15
100
AcDbLine
 10
24.60533697206957
 20
-2.778125000000002
 30
0.0
 11
26.29838672946429
 21
-2.778125000000002
 31
0.0
  0
LINE
  5
98
330
1F
100
AcDbEntity
  8
0
  6
Continuous
 62
     1
370
    15
100
AcDbLine
 10
26.29838672946429
 20
2.778125000000001
 30
0.0
 11
24.6053369720696
 21
2.778125000000001
 31
0.0
  0
LINE
  5
99
330
1F
100
AcDbEntity
  8
외형선
  6
Continuous
370
    15
100
AcDbLine
 10
16.56884233574609
 20
-3.175000000000006
 30
0.0
 11
18.05
 21
-2.778125000000001
 31
0.0
  0
LINE
  5
9A
330
1F
100
AcDbEntity
  8
외형선
  6
Continuous
370
    15
100
AcDbLine
 10
18.05
 20
2.778125000000001
 30
0.0
 11
16.56884233574609
 21
3.175000000000006
 31
0.0
  0
LINE
  5
9B
330
1F
100
AcDbEntity
  8
외형선
  6
Continuous
370
    15
100
AcDbLine
 10
-16.56884233574612
 20
-3.175000000000003
 30
0.0
 11
16.56884233574608
 21
-3.175000000000003
 31
0.0
  0
LINE
  5
9C
330
1F
100
AcDbEntity
  8
외형선
  6
Continuous
370
    15
100
AcDbLine
 10
16.56884233574609
 20
3.175000000000002
 30
0.0
 11
-16.56884233574611
 21
3.175000000000002
 31
0.0
  0
LINE
  5
9F
330
1F
100
AcDbEntity
  8
외형선
  6
Continuous
370
    15
100
AcDbLine
 10
18.05
 20
-2.778125000000001
 30
0.0
 11
18.73995964337028
 21
-2.778125000000001
 31
0.0
  0
LINE
  5
A0
330
1F
100
AcDbEntity
  8
외형선
  6
Continuous
370
    15
100
AcDbLine
 10
18.73995964337031
 20
2.778125
 30
0.0
 11
18.05
 21
2.778125
 31
0.0
  0
SPLINE
  5
A1
330
1F
100
AcDbEntity
  8
0
  6
Continuous
 62
     1
370
    15
100
AcDbSpline
210
0.0
220
0.0
230
1.0
 70
     8
 71
     3
 72
    17
 73
    13
 74
     0
 42
0.000000001
 43
0.00000001
 40
0.0
 40
0.0
 40
0.0
 40
0.0
 40
0.0996865679121154
 40
0.1993758684848191
 40
0.2993079066955164
 40
0.3991800110397844
 40
0.4988503055849846
 40
0.5985632609183519
 40
0.698531967651668
 40
0.8083434424155933
 40
0.9180362234391788
 40
1.0
 40
1.0
 40
1.0
 40
1.0
 10
19.05000000000001
 20
-0.1784570037821658
 30
0.0
 10
19.38826382198229
 20
-0.3727302031661052
 30
0.0
 10
20.06480073861248
 20
-0.7612819274530226
 30
0.0
 10
21.08022922001834
 20
-1.30893367108438
 30
0.0
 10
22.09714303093726
 20
-1.798036923385222
 30
0.0
 10
23.1137377586154
 20
-2.207522299048455
 30
0.0
 10
24.12902180752003
 20
-2.51935773062325
 30
0.0
 10
25.14469046191076
 20
-2.718837071712163
 30
0.0
 10
26.19565935602976
 20
-2.800959900676082
 30
0.0
 10
27.28007922443169
 20
-2.742607918798909
 30
0.0
 10
28.30316732102113
 20
-2.566630779157137
 30
0.0
 10
28.95357226787434
 20
-2.355825046181593
 30
0.0
 10
29.23172422056426
 20
-2.265671939952822
 30
0.0
  0
SPLINE
  5
A2
330
1F
100
AcDbEntity
  8
외형선
  6
Continuous
370
    15
100
AcDbSpline
210
0.0
220
0.0
230
1.0
 70
    24
 71
     3
 72
    21
 73
    17
 74
     0
 42
0.000000001
 43
0.00000001
 40
0.0
 40
0.0
 40
0.0
 40
0.0
 40
0.0556398442436827
 40
0.1296147279880625
 40
0.2057348883724439
 40
0.2797097721168235
 40
0.3558299325012049
 40
0.429804816245585
 40
0.5059249766299665
 40
0.5798998603743506
 40
0.6560200207587276
 40
0.7299949045031072
 40
0.8061150648874892
 40
0.8800899486318658
 40
0.9562101090162501
 40
1.0
 40
1.0
 40
1.0
 40
1.0
 10
19.05
 20
2.540841975329711
 30
0.0
 10
19.05
 20
2.486991187777302
 30
0.0
 10
19.05000000000002
 20
2.361544122361747
 30
0.0
 10
19.04999999999999
 20
2.135488237760218
 30
0.0
 10
19.04999999999995
 20
1.871496436815411
 30
0.0
 10
19.05000000000003
 20
1.592272694563286
 30
0.0
 10
19.05
 20
1.311419567136535
 30
0.0
 10
19.05000000000003
 20
1.031651793736408
 30
0.0
 10
19.04999999999997
 20
0.7659682227803973
 30
0.0
 10
19.05000000000001
 20
0.5171078274602525
 30
0.0
 10
19.04999999999994
 20
0.2965462922635855
 30
0.0
 10
19.05000000000012
 20
0.1067459309789026
 30
0.0
 10
19.04999999999992
 20
-0.0442123460178733
 30
0.0
 10
19.05000000000006
 20
-0.1521261246040865
 30
0.0
 10
19.04999999999998
 20
-0.2124635655757817
 30
0.0
 10
19.05000000000001
 20
-0.217410667372195
 30
0.0
 10
19.05000000000002
 20
-0.2192172969739568
 30
0.0
  0
SPLINE
  5
A3
330
1F
100
AcDbEntity
  8
0
  6
Continuous
 62
     1
370
    15
100
AcDbSpline
210
0.0
220
0.0
230
1.0
 70
     8
 71
     3
 72
    38
 73
    34
 74
     0
 42
0.000000001
 43
0.00000001
 40
0.0
 40
0.0
 40
0.0
 40
0.0
 40
0.0625
 40
0.0625
 40
0.125
 40
0.125
 40
0.1875
 40
0.1875
 40
0.25
 40
0.25
 40
0.3125
 40
0.3125
 40
0.375
 40
0.375
 40
0.4375
 40
0.4375
 40
0.5
 40
0.5
 40
0.5625
 40
0.5625
 40
0.625
 40
0.625
 40
0.6875
 40
0.6875
 40
0.75
 40
0.75
 40
0.8125
 40
0.8125
 40
0.875
 40
0.875
 40
0.9375
 40
0.9375
 40
1.0
 40
1.0
 40
1.0
 40
1.0
 10
31.75
 20
-2.778124999999982
 30
0.0
 10
31.48808234683428
 20
-2.754863324386314
 30
0.0
 10
31.22150055848272
 20
-2.729185254547463
 30
0.0
 10
30.6897681983117
 20
-2.653235914208397
 30
0.0
 10
30.4276347518871
 20
-2.603223878663033
 30
0.0
 10
29.89956986026151
 20
-2.479939220215857
 30
0.0
 10
29.63230067662431
 20
-2.406456254393664
 30
0.0
 10
29.10213980159589
 20
-2.238706174629705
 30
0.0
 10
28.84118700198945
 20
-2.144769364670466
 30
0.0
 10
28.31042805036021
 20
-1.937280863400671
 30
0.0
 10
28.04327096727154
 20
-1.823970240080325
 30
0.0
 10
27.51623761678462
 20
-1.582934911613466
 30
0.0
 10
27.25318622201848
 20
-1.454784337342115
 30
0.0
 10
26.72129512155989
 20
-1.185487687276942
 30
0.0
 10
26.45628703975197
 20
-1.044974428834412
 30
0.0
 10
25.93111414992584
 20
-0.7566739653925537
 30
0.0
 10
25.66425943326829
 20
-0.6076535928851271
 30
0.0
 10
25.13280923244357
 20
-0.3058423300214091
 30
0.0
 10
24.87133710255502
 20
-0.1536741610351949
 30
0.0
 10
24.34236126235725
 20
0.1518254420904054
 30
0.0
 10
24.07504276872501
 20
0.3051191714687289
 30
0.0
 10
23.54560217529376
 20
0.6065663500274279
 30
0.0
 10
23.28439183628765
 20
0.7545671368597859
 30
0.0
 10
22.75315747458464
 20
1.044028363819385
 30
0.0
 10
22.4861751942714
 20
1.184882856857912
 30
0.0
 10
21.96029318679998
 20
1.453226877159188
 30
0.0
 10
21.69606791673028
 20
1.581648844283821
 30
0.0
 10
21.16414161792296
 20
1.823502007523111
 30
0.0
 10
20.90045281577377
 20
1.936324273382451
 30
0.0
 10
20.37406072304884
 20
2.143382206578979
 30
0.0
 10
20.10699554230069
 20
2.238132409732761
 30
0.0
 10
19.57595070157306
 20
2.40605719581152
 30
0.0
 10
19.31488274818765
 20
2.479041532018833
 30
0.0
 10
19.04999999999999
 20
2.540841975329705
 30
0.0
  0
LINE
  5
A4
330
1F
100
AcDbEntity
  8
0
  6
Continuous
 62
     1
370
    15
100
AcDbLine
 10
31.75
 20
-2.516095998401119
 30
0.0
 11
31.75
 21
0.2380334984011532
 31
0.0
  0
SPLINE
  5
A5
330
1F
100
AcDbEntity
  8
0
  6
Continuous
 62
     1
370
    15
100
AcDbSpline
210
0.0
220
0.0
230
1.0
 70
     8
 71
     3
 72
    38
 73
    34
 74
     0
 42
0.000000001
 43
0.00000001
 40
0.0
 40
0.0
 40
0.0
 40
0.0
 40
0.0624999999999988
 40
0.0624999999999988
 40
0.1249999999999988
 40
0.1249999999999988
 40
0.1874999999999988
 40
0.1874999999999988
 40
0.2499999999999989
 40
0.2499999999999989
 40
0.3124999999999989
 40
0.3124999999999989
 40
0.374999999999999
 40
0.374999999999999
 40
0.4374999999999991
 40
0.4374999999999991
 40
0.4999999999999992
 40
0.4999999999999992
 40
0.5624999999999993
 40
0.5624999999999993
 40
0.6249999999999994
 40
0.6249999999999994
 40
0.6874999999999996
 40
0.6874999999999996
 40
0.7499999999999997
 40
0.7499999999999997
 40
0.8124999999999998
 40
0.8124999999999998
 40
0.8749999999999999
 40
0.8749999999999999
 40
0.9375
 40
0.9375
 40
1.0
 40
1.0
 40
1.0
 40
1.0
 10
31.74999999999999
 20
-2.516095998401118
 30
0.0
 10
31.48808234683431
 20
-2.451546301227984
 30
0.0
 10
31.22150055848269
 20
-2.375201919878338
 30
0.0
 10
30.68976819831169
 20
-2.201692466539188
 30
0.0
 10
30.4276347518871
 20
-2.104958030880757
 30
0.0
 10
29.8995698602615
 20
-1.892921517594624
 30
0.0
 10
29.63230067662431
 20
-1.777357374983267
 30
0.0
 10
29.10213980159589
 20
-1.531764998292012
 30
0.0
 10
28.84118700198945
 20
-1.402127580532441
 30
0.0
 10
28.31042805036023
 20
-1.129888129474093
 30
0.0
 10
28.04327096727155
 20
-0.9876773837537292
 30
0.0
 10
27.51623761678462
 20
-0.6969136421986125
 30
0.0
 10
27.2531862220185
 20
-0.547806455257387
 30
0.0
 10
26.72129512155989
 20
-0.2448776833145319
 30
0.0
 10
26.45628703975202
 20
-0.0917879916255845
 30
0.0
 10
25.93111414992587
 20
0.2129068388356271
 30
0.0
 10
25.66425943326832
 20
0.3658001997619582
 30
0.0
 10
25.13280923244356
 20
0.6664483833400892
 30
0.0
 10
24.871337102555
 20
0.8136296492701034
 30
0.0
 10
24.34236126235724
 20
1.100429896256961
 30
0.0
 10
24.07504276872504
 20
1.239967252837168
 30
0.0
 10
23.54560217529379
 20
1.505639603810985
 30
0.0
 10
23.28439183628765
 20
1.631689307485371
 30
0.0
 10
22.7531574745846
 20
1.869253183216318
 30
0.0
 10
22.48617519427139
 20
1.980218771190534
 30
0.0
 10
21.96029318679995
 20
2.182190718158437
 30
0.0
 10
21.69606791673029
 20
2.273923137809357
 30
0.0
 10
21.16414161792297
 20
2.436269823355832
 30
0.0
 10
20.90045281577375
 20
2.506481456842356
 30
0.0
 10
20.37406072304884
 20
2.623623990273383
 30
0.0
 10
20.1069955423007
 20
2.670807399367303
 30
0.0
 10
19.57595070157307
 20
2.740274561888435
 30
0.0
 10
19.31488274818768
 20
2.762570362325745
 30
0.0
 10
19.05000000000001
 20
2.77238734909574
 30
0.0
  0
SPLINE
  5
A6
330
1F
100
AcDbEntity
  8
0
  6
Continuous
 62
     1
370
    15
100
AcDbSpline
210
0.0
220
0.0
230
1.0
 70
     8
 71
     3
 72
    17
 73
    13
 74
     0
 42
0.000000001
 43
0.00000001
 40
0.0
 40
0.0
 40
0.0
 40
0.0
 40
0.1009587009406214
 40
0.2016907442810542
 40
0.302442964871439
 40
0.4034492378816105
 40
0.5043543376421
 40
0.6050727715210492
 40
0.7058517233612466
 40
0.8168989331003912
 40
0.9279238264892603
 40
1.0
 40
1.0
 40
1.0
 40
1.0
 10
31.75
 20
0.2380334984011527
 30
0.0
 10
31.41082766560674
 20
0.4318563205489811
 30
0.0
 10
30.73324445657203
 20
0.8190668224020299
 30
0.0
 10
29.71787175731262
 20
1.361640669881935
 30
0.0
 10
28.70232091171648
 20
1.84441670035839
 30
0.0
 10
27.68532802279785
 20
2.244212845631824
 30
0.0
 10
26.66884315344611
 20
2.544965479146635
 30
0.0
 10
25.65362339908487
 20
2.732432126401569
 30
0.0
 10
24.60420712781522
 20
2.801748341749093
 30
0.0
 10
23.51944106146553
 20
2.729167158300787
 30
0.0
 10
22.53124329995143
 20
2.549969763823408
 30
0.0
 10
21.91633477354898
 20
2.345359648862583
 30
0.0
 10
21.6742812760316
 20
2.264816622010344
 30
0.0
  0
LINE
  5
A7
330
1F
100
AcDbEntity
  8
0
  6
Continuous
 62
     1
370
    15
100
AcDbLine
 10
31.75
 20
-2.778124999999982
 30
0.0
 11
31.75
 21
-2.516095998401119
 31
0.0
  0
LINE
  5
A8
330
1F
100
AcDbEntity
  8
외형선
  6
Continuous
370
    15
100
AcDbLine
 10
19.05
 20
2.540841975329711
 30
0.0
 11
19.05000000000001
 21
2.77238734909574
 31
0.0
  0
SPLINE
  5
A9
330
1F
100
AcDbEntity
  8
0
  6
Continuous
 62
     1
370
    15
100
AcDbSpline
210
0.0
220
0.0
230
1.0
 70
     8
 71
     3
 72
    12
 73
     8
 74
     0
 42
0.000000001
 43
0.00000001
 40
0.0
 40
0.0
 40
0.0
 40
0.0
 40
0.1954351286092285
 40
0.3968113365192649
 40
0.5979214641365157
 40
0.7989293007213611
 40
1.0
 40
1.0
 40
1.0
 40
1.0
 10
24.60533697206956
 20
-2.77597231118772
 30
0.0
 10
24.24335687436329
 20
-2.763188960027613
 30
0.0
 10
23.50839275923027
 20
-2.737233653552596
 30
0.0
 10
22.40089767309139
 20
-2.512977335209095
 30
0.0
 10
21.28350940913138
 20
-2.161730678966779
 30
0.0
 10
20.16678265690399
 20
-1.695688162275567
 30
0.0
 10
19.4222996841951
 20
-1.314204265395944
 30
0.0
 10
19.04999999999999
 20
-1.123432495536612
 30
0.0
  0
LINE
  5
AA
330
1F
100
AcDbEntity
  8
외형선
  6
Continuous
370
    15
100
AcDbLine
 10
19.05
 20
-1.123432495536606
 30
0.0
 11
19.05000000000001
 21
-0.1784570037821648
 31
0.0
  0
SPLINE
  5
AB
330
1F
100
AcDbEntity
  8
0
  6
Continuous
 62
     1
370
    15
100
AcDbSpline
210
0.0
220
0.0
230
1.0
 70
     8
 71
     3
 72
    12
 73
     8
 74
     0
 42
0.000000001
 43
0.00000001
 40
0.0
 40
0.0
 40
0.0
 40
0.0
 40
0.1801210026577146
 40
0.3850040783742963
 40
0.5898330086595808
 40
0.794776065795631
 40
1.0
 40
1.0
 40
1.0
 40
1.0
 10
26.29838672946429
 20
2.770129401155613
 30
0.0
 10
26.62575515323888
 20
2.76221024566472
 30
0.0
 10
27.32549686255914
 20
2.745283251498096
 30
0.0
 10
28.3971690426911
 20
2.538628644049347
 30
0.0
 10
29.51392717830646
 20
2.199861290369118
 30
0.0
 10
30.63138549975534
 20
1.74353386669912
 30
0.0
 10
31.3769583137011
 20
1.366471553522025
 30
0.0
 10
31.75
 20
1.177811293227749
 30
0.0
  0
LINE
  5
AC
330
1F
100
AcDbEntity
  8
0
  6
Continuous
 62
     1
370
    15
100
AcDbLine
 10
31.75
 20
0.2380334984011532
 30
0.0
 11
31.75
 21
1.177811293227749
 31
0.0
  0
SPLINE
  5
AD
330
1F
100
AcDbEntity
  8
0
  6
Continuous
 62
     1
370
    15
100
AcDbSpline
210
0.0
220
0.0
230
1.0
 70
     8
 71
     3
 72
    10
 73
     6
 74
     0
 42
0.000000001
 43
0.00000001
 40
0.0
 40
0.0
 40
0.0
 40
0.0
 40
0.3867239597171426
 40
0.7734585205147132
 40
1.0
 40
1.0
 40
1.0
 40
1.0
 10
19.05
 20
-2.772387349095741
 30
0.0
 10
19.38826599469749
 20
-2.747052493684019
 30
0.0
 10
20.06480725681767
 20
-2.696382088368203
 30
0.0
 10
20.93929306183964
 20
-2.512370838892362
 30
0.0
 10
21.47601758954257
 20
-2.331594579394178
 30
0.0
 10
21.67428127603158
 20
-2.264816622010345
 30
0.0
  0
SPLINE
  5
AE
330
1F
100
AcDbEntity
  8
외형선
  6
Continuous
370
    15
100
AcDbSpline
210
0.0
220
0.0
230
1.0
 70
    24
 71
     3
 72
    14
 73
    10
 74
     0
 42
0.000000001
 43
0.00000001
 40
0.0
 40
0.0
 40
0.0
 40
0.0
 40
0.1523962522406171
 40
0.3150648657582885
 40
0.4731490278654616
 40
0.6358176413831378
 40
0.7939018034903189
 40
0.9565704170079916
 40
0.9999999999999999
 40
0.9999999999999999
 40
0.9999999999999999
 40
0.9999999999999999
 10
19.04999999999999
 20
-1.16721248750135
 30
0.0
 10
19.05000000000002
 20
-1.23130659229895
 30
0.0
 10
19.05000000000008
 20
-1.363815103676708
 30
0.0
 10
19.04999999999992
 20
-1.600253627185583
 30
0.0
 10
19.05000000000007
 20
-1.861123092210133
 30
0.0
 10
19.04999999999997
 20
-2.134919393887937
 30
0.0
 10
19.05000000000003
 20
-2.41772485996781
 30
0.0
 10
19.05
 20
-2.630435039822699
 30
0.0
 10
19.05
 20
-2.7476809632625
 30
0.0
 10
19.05
 20
-2.772387349095742
 30
0.0
  0
SPLINE
  5
AF
330
1F
100
AcDbEntity
  8
0
  6
Continuous
 62
     1
370
    15
100
AcDbSpline
210
0.0
220
0.0
230
1.0
 70
     8
 71
     3
 72
    10
 73
     6
 74
     0
 42
0.000000001
 43
0.00000001
 40
0.0
 40
0.0
 40
0.0
 40
0.0
 40
0.4039022683073727
 40
0.8068977547525347
 40
1.0
 40
1.0
 40
1.0
 40
1.0
 10
31.75
 20
2.778125000000019
 30
0.0
 10
31.41082314923948
 20
2.738220897990084
 30
0.0
 10
30.73323091760982
 20
2.678911945468981
 30
0.0
 10
29.89411770341396
 20
2.494687936507678
 30
0.0
 10
29.39379932511697
 20
2.321707804656965
 30
0.0
 10
29.23172422056426
 20
2.265671939952821
 30
0.0
  0
LINE
  5
B0
330
1F
100
AcDbEntity
  8
0
  6
Continuous
 62
     1
370
    15
100
AcDbLine
 10
31.75
 20
1.177811293227749
 30
0.0
 11
31.75
 21
2.778125000000019
 31
0.0
  0
LINE
  5
B1
330
1F
100
AcDbEntity
  8
외형선
  6
Continuous
370
    15
100
AcDbLine
 10
18.05
 20
-0.0000000000000004
 30
0.0
 11
18.05
 21
2.778125000000001
 31
0.0
  0
LINE
  5
B2
330
1F
100
AcDbEntity
  8
외형선
  6
Continuous
370
    15
100
AcDbLine
 10
18.05
 20
-2.778125000000001
 30
0.0
 11
18.05
 21
-0.0000000000000004
 31
0.0
  0
LINE
  5
B3
330
1F
100
AcDbEntity
  8
외형선
  6
Continuous
370
    15
100
AcDbLine
 10
16.56884233574609
 20
-0.0000000000000004
 30
0.0
 11
16.56884233574609
 21
3.175000000000006
 31
0.0
  0
LINE
  5
B4
330
1F
100
AcDbEntity
  8
외형선
  6
Continuous
370
    15
100
AcDbLine
 10
16.56884233574609
 20
-3.175000000000006
 30
0.0
 11
16.56884233574609
 21
-0.0000000000000004
 31
0.0
  0
LINE
  5
B7
330
1F
100
AcDbEntity
  8
외형선
  6
Continuous
370
    15
100
AcDbLine
 10
-31.75
 20
-0.0000000000000004
 30
0.0
 11
-31.75
 21
2.540000000000001
 31
0.0
  0
LINE
  5
B8
330
1F
100
AcDbEntity
  8
외형선
  6
Continuous
370
    15
100
AcDbLine
 10
-31.75
 20
-2.540000000000002
 30
0.0
 11
-31.75
 21
-0.0000000000000004
 31
0.0
  0
SPLINE
  5
B9
330
1F
100
AcDbEntity
  8
외형선
  6
Continuous
370
    15
100
AcDbSpline
210
0.0
220
0.0
230
1.0
 70
    24
 71
     3
 72
    21
 73
    17
 74
     0
 42
0.000000001
 43
0.00000001
 40
0.0
 40
0.0
 40
0.0
 40
0.0
 40
0.0251888006867175
 40
0.0993132202143376
 40
0.1755872529298025
 40
0.2497116724574396
 40
0.3259857051729241
 40
0.4001101247002748
 40
0.4763841574160265
 40
0.5505085769436547
 40
0.6267826096591294
 40
0.7009070291867515
 40
0.7771810619022187
 40
0.8513054814298557
 40
0.9275795141453388
 40
0.9999999999999999
 40
0.9999999999999999
 40
0.9999999999999999
 40
0.9999999999999999
 10
19.05000000000002
 20
-0.2188330120119198
 30
0.0
 10
19.05000000000003
 20
-0.218883939975017
 30
0.0
 10
19.05000000000003
 20
-0.2190847363557995
 30
0.0
 10
19.04999999999995
 20
-0.1701103577252696
 30
0.0
 10
19.04999999999998
 20
-0.074715795024545
 30
0.0
 10
19.05000000000005
 20
0.0682494441867577
 30
0.0
 10
19.05
 20
0.2477851529794775
 30
0.0
 10
19.04999999999995
 20
0.4632166198065215
 30
0.0
 10
19.05
 20
0.7042552757079493
 30
0.0
 10
19.04999999999997
 20
0.9684973593405366
 30
0.0
 10
19.05000000000006
 20
1.243699460343276
 30
0.0
 10
19.05000000000004
 20
1.526977377039654
 30
0.0
 10
19.04999999999995
 20
1.805413372728676
 30
0.0
 10
19.05000000000005
 20
2.075388167832561
 30
0.0
 10
19.04999999999997
 20
2.325283564775822
 30
0.0
 10
19.05000000000001
 20
2.470241407706635
 30
0.0
 10
19.05000000000003
 20
2.540841975329717
 30
0.0
  0
SPLINE
  5
BA
330
1F
100
AcDbEntity
  8
외형선
  6
Continuous
370
    15
100
AcDbSpline
210
0.0
220
0.0
230
1.0
 70
     8
 71
     3
 72
     8
 73
     4
 74
     0
 42
0.000000001
 43
0.00000001
 40
0.0
 40
0.0
 40
0.0
 40
0.0
 40
1.0
 40
1.0
 40
1.0
 40
1.0
 10
19.04999999999998
 20
-0.1784570037821515
 30
0.0
 10
18.88380869556445
 20
-0.0827699594224303
 30
0.0
 10
18.71666313870475
 20
0.0134195286983271
 30
0.0
 10
18.54990534464135
 20
0.1093389944237293
 30
0.0
  0
SPLINE
  5
BB
330
1F
100
AcDbEntity
  8
외형선
  6
Continuous
370
    15
100
AcDbSpline
210
0.0
220
0.0
230
1.0
 70
     8
 71
     3
 72
     8
 73
     4
 74
     0
 42
0.000000001
 43
0.00000001
 40
0.0
 40
0.0
 40
0.0
 40
0.0
 40
1.0
 40
1.0
 40
1.0
 40
1.0
 10
19.05
 20
2.540841975329703
 30
0.0
 10
18.88380869556449
 20
2.579616475967442
 30
0.0
 10
18.71666313870475
 20
2.613912686789151
 30
0.0
 10
18.54990534464135
 20
2.643439361537895
 30
0.0
  0
SPLINE
  5
BC
330
1F
100
AcDbEntity
  8
외형선
  6
Continuous
370
    15
100
AcDbSpline
210
0.0
220
0.0
230
1.0
 70
     8
 71
     3
 72
     9
 73
     5
 74
     0
 42
0.000000001
 43
0.00000001
 40
0.0
 40
0.0
 40
0.0
 40
0.0
 40
0.290954174020098
 40
1.0
 40
1.0
 40
1.0
 40
1.0
 10
18.73995964337031
 20
2.777103018456699
 30
0.0
 10
18.77003711017188
 20
2.777412458429533
 30
0.0
 10
18.87341238190626
 20
2.778475993516717
 30
0.0
 10
18.97673764996482
 20
2.774913394826606
 30
0.0
 10
19.04999999999999
 20
2.77238734909574
 30
0.0
  0
LINE
  5
BD
330
1F
100
AcDbEntity
  8
외형선
  6
Continuous
370
    15
100
AcDbLine
 10
18.54990534464135
 20
0.1093384901223214
 30
0.0
 11
18.54990534464135
 21
2.64343780052104
 31
0.0
  0
SPLINE
  5
BE
330
1F
100
AcDbEntity
  8
외형선
  6
Continuous
370
    15
100
AcDbSpline
210
0.0
220
0.0
230
1.0
 70
     8
 71
     3
 72
     8
 73
     4
 74
     0
 42
0.000000001
 43
0.00000001
 40
0.0
 40
0.0
 40
0.0
 40
0.0
 40
1.0
 40
1.0
 40
1.0
 40
1.0
 10
19.05
 20
-1.12343249553662
 30
0.0
 10
18.88380869556449
 20
-1.035737080650338
 30
0.0
 10
18.71666313870475
 20
-0.9458614057916973
 30
0.0
 10
18.54990534464135
 20
-0.8545214201511375
 30
0.0
  0
LINE
  5
BF
330
1F
100
AcDbEntity
  8
외형선
  6
Continuous
370
    15
100
AcDbLine
 10
18.54990534464135
 20
-2.775972552134256
 30
0.0
 11
18.54990534464135
 21
-0.8545262491003255
 31
0.0
  0
SPLINE
  5
C0
330
1F
100
AcDbEntity
  8
외형선
  6
Continuous
370
    15
100
AcDbSpline
210
0.0
220
0.0
230
1.0
 70
     8
 71
     3
 72
     8
 73
     4
 74
     0
 42
0.000000001
 43
0.00000001
 40
0.0
 40
0.0
 40
0.0
 40
0.0
 40
1.0
 40
1.0
 40
1.0
 40
1.0
 10
19.04999999999998
 20
-2.772387349095739
 30
0.0
 10
18.88380869556445
 20
-2.778546669957874
 30
0.0
 10
18.71666313870475
 20
-2.779750573230096
 30
0.0
 10
18.54990534464135
 20
-2.77597253227106
 30
0.0
  0
SPLINE
  5
C1
330
1F
100
AcDbEntity
  8
외형선
  6
Continuous
370
    15
100
AcDbSpline
210
0.0
220
0.0
230
1.0
 70
    24
 71
     3
 72
    14
 73
    10
 74
     0
 42
0.000000001
 43
0.00000001
 40
0.0
 40
0.0
 40
0.0
 40
0.0
 40
0.1615071989936682
 40
0.3279327854265812
 40
0.4857357111871645
 40
0.6481149324851339
 40
0.8059178582457538
 40
0.9682970795437635
 40
1.0
 40
1.0
 40
1.0
 40
1.0
 10
19.04999999999999
 20
-2.772387349095739
 30
0.0
 10
19.04999999999999
 20
-2.679446022813623
 30
0.0
 10
19.04999999999998
 20
-2.490733023028827
 30
0.0
 10
19.05000000000003
 20
-2.204541341862797
 30
0.0
 10
19.05000000000001
 20
-1.924100772746862
 30
0.0
 10
19.04999999999997
 20
-1.660221670061623
 30
0.0
 10
19.05000000000007
 20
-1.417426362394957
 30
0.0
 10
19.05
 20
-1.251866821440568
 30
0.0
 10
19.05
 20
-1.179090371571613
 30
0.0
 10
19.04999999999999
 20
-1.16720248750135
 30
0.0
  0
LINE
  5
C2
330
1F
100
AcDbEntity
  8
중심선
 62
     1
100
AcDbLine
 10
-34.75000000000001
 20
-0.0000000000000043
 30
0.0
 11
34.75
 21
0.0000000000000043
 31
0.0
  0
LINE
  5
C3
330
1F
100
AcDbEntity
  8
참조1
100
AcDbLine
 10
-7.744119342984384
 20
0.0010749287238892
 30
0.0
 11
-7.744119342984377
 21
-39.99892507127611
 31
0.0
  0
LINE
  5
C4
330
1F
100
AcDbEntity
  8
참조1
100
AcDbLine
 10
-7.744119342984377
 20
-39.99892507127611
 30
0.0
 11
-29.25297615729306
 21
-39.9989250712761
 31
0.0
  0
CIRCLE
  5
C5
330
1F
100
AcDbEntity
  8
해칭선
100
AcDbCircle
 10
0.0000000000000009
 20
-0.0000000000000001
 30
0.0
 40
3.000000000000005
  0
INSERT
  5
C6
330
1F
100
AcDbEntity
  8
0
  6
Continuous
 62
     7
100
AcDbBlockReference
 66
     1
  2
블럭10
 10
-12.57653245082554
 20
-30.67765901594593
 30
0.0
  0
ATTRIB
  5
C7
330
C6
100
AcDbEntity
  8
FORMAT
 62
     2
100
AcDbText
 10
-21.75782773956682
 20
-28.60229210311374
 30
0.0
 40
4.233333333333333
  1
E5023014 [ 4 FLUTE ]
 41
0.75
  7
SLDTEXTSTYLE0
 11
-21.75782773956682
 21
-30.71895876978041
 31
0.0
100
AcDbAttribute
  2
AUTOATTR0
 70
     0
 74
     1
  0
SEQEND
  5
C8
330
C6
100
AcDbEntity
  8
0
  6
Continuous
 62
     7
  0
HATCH
  5
C9
330
1F
100
AcDbEntity
  8
중심선
100
AcDbHatch
 10
0.0
 20
0.0
 30
0.0
210
0.0
220
0.0
230
1.0
  2
SOLID
 70
     1
 71
     0
 91
        1
 92
        0
 93
        4
 72
     1
 10
-6.861623146444707
 20
-14.43048471430199
 11
-10.30789839028199
 21
-14.43048471430199
 72
     1
 10
-10.30789839028199
 20
-14.43048471430199
 11
-12.43612824948601
 21
-16.96681029487459
 72
     1
 10
-12.43612824948601
 20
-16.96681029487459
 11
-8.98981992053558
 21
-16.96677086557211
 72
     1
 10
-8.98981992053558
 20
-16.96677086557211
 11
-6.861623146444707
 21
-14.43048471430199
 97
        0
 75
     0
 76
     1
 98
        1
 10
9.107859824284048
 20
21.36844035697411
  0
HATCH
  5
CA
330
1F
100
AcDbEntity
  8
중심선
100
AcDbHatch
 10
0.0
 20
0.0
 30
0.0
210
0.0
220
0.0
230
1.0
  2
SOLID
 70
     1
 71
     0
 91
        1
 92
        0
 93
        4
 72
     1
 10
-1.848859155408727
 20
-14.43048471430199
 11
-5.29513439924601
 21
-14.43048471430199
 72
     1
 10
-5.29513439924601
 20
-14.43048471430199
 11
-9.826272407603426
 21
-19.83048471430201
 72
     1
 10
-9.826272407603426
 20
-19.83048471430201
 11
-6.379997163766143
 21
-19.83048471430201
 72
     1
 10
-6.379997163766143
 20
-19.83048471430201
 11
-1.848859155408727
 21
-14.43048471430199
 97
        0
 75
     0
 76
     1
 98
        1
 10
9.107859824284048
 20
21.36844035697411
  0
HATCH
  5
CB
330
1F
100
AcDbEntity
  8
중심선
100
AcDbHatch
 10
0.0
 20
0.0
 30
0.0
210
0.0
220
0.0
230
1.0
  2
SOLID
 70
     1
 71
     0
 91
        1
 92
        0
 93
        4
 72
     1
 10
3.163904835627141
 20
-14.43048471430199
 11
-0.2823704082099745
 21
-14.43048471430199
 72
     1
 10
-0.2823704082099745
 20
-14.43048471430199
 11
-7.330807310099225
 21
-22.83048471430201
 72
     1
 10
-7.330807310099225
 20
-22.83048471430201
 11
-3.884532066261942
 21
-22.83048471430201
 72
     1
 10
-3.884532066261942
 20
-22.83048471430201
 11
3.163904835627141
 21
-14.43048471430199
 97
        0
 75
     0
 76
     1
 98
        1
 10
9.107859824284048
 20
21.36844035697411
  0
HATCH
  5
CC
330
1F
100
AcDbEntity
  8
중심선
100
AcDbHatch
 10
0.0
 20
0.0
 30
0.0
210
0.0
220
0.0
230
1.0
  2
SOLID
 70
     1
 71
     0
 91
        1
 92
        0
 93
        6
 72
     3
 10
7.96379526663934
 20
-18.63048471435327
 11
3.960054785062284
 21
1.540882976769353E-10
 40
0.3939339440162627
 50
17.09539180608436
 51
320.0019657685081
 73
     0
 72
     1
 10
9.646794922339936
 20
-17.2183787189403
 11
11.952096796041
 21
-15.28405200889235
 72
     3
 10
7.963795266586494
 20
-18.63048471430215
 11
6.60005478528683
 21
-1.278976924368180E-13
 40
0.636358354079598
 50
39.99873849337413
 51
368.4976242363724
 73
     1
 72
     1
 10
14.3891277584871
 20
-17.67048471423202
 11
6.643862573422416
 21
-17.67048471423202
 72
     1
 10
6.643862573422416
 20
-17.67048471423202
 11
6.643837528976482
 21
-19.59048471423191
 72
     1
 10
6.643837528976482
 20
-19.59048471423191
 11
11.08521729844852
 21
-19.59048471423188
 97
        0
 75
     0
 76
     1
 98
        1
 10
9.107859824284048
 20
21.36844035697411
  0
DIMENSION
  5
CD
330
1F
100
AcDbEntity
  8
치수문자_일반주서
100
AcDbDimension
  2
_D
 10
46.15049357813404
 20
-2.778124999999928
 30
0.0
 11
46.15049357813392
 21
28.85785403243347
 31
0.0
 70
   160
  1
%%c<>
 71
     2
 42
5.556250000000001
 52
-270.0
  3
SLDDIMSTYLE0
100
AcDbAlignedDimension
 13
31.75
 23
2.778125000000019
 33
0.0
 14
31.75
 24
-2.778124999999982
 34
0.0
 50
90.0000000000002
100
AcDbRotatedDimension
1001
ACAD
1000
DSTYLE
1002
{
1070
   171
1070
     6
1070
   273
1070
     5
1002
}
  0
DIMENSION
  5
E2
330
1F
100
AcDbEntity
  8
치수문자_일반주서
100
AcDbDimension
  2
_D_1
 10
19.05000000000001
 20
28.79030179660979
 30
0.0
 11
-2.670476839641516
 21
28.79030179660979
 31
0.0
 70
   160
  1
<>
 71
     2
 42
12.69999999999999
  3
SLDDIMSTYLE0
100
AcDbAlignedDimension
 13
31.75
 23
2.767908699589625
 33
0.0
 14
19.05000000000001
 24
2.77238734909574
 34
0.0
 50
-0.0000000000002564
100
AcDbRotatedDimension
1001
ACAD
1000
DSTYLE
1002
{
1070
   171
1070
     6
1070
   273
1070
     5
1002
}
  0
DIMENSION
  5
F7
330
1F
100
AcDbEntity
  8
치수문자_일반주서
100
AcDbDimension
  2
_D_2
 10
-31.75
 20
50.35832764256403
 30
0.0
 11
-1.620199429023449
 21
50.35832764256403
 31
0.0
 70
   160
  1
<>
 71
     2
 42
63.5
  3
SLDDIMSTYLE0
100
AcDbAlignedDimension
 13
31.75
 23
2.767908699589625
 33
0.0
 14
-31.75
 24
2.540000000000001
 34
0.0
100
AcDbRotatedDimension
1001
ACAD
1000
DSTYLE
1002
{
1070
   171
1070
     6
1070
   273
1070
     5
1002
}
  0
DIMENSION
  5
10A
330
1F
100
AcDbEntity
  8
치수문자_일반주서
100
AcDbDimension
  2
_D_3
 10
-40.77464702885822
 20
-3.175000000000097
 30
0.0
 11
-40.7746470288583
 21
23.12274999999998
 31
0.0
 70
   160
  1
%%c<>
 71
     2
 42
6.350000000000012
 52
-270.0
  3
SLDDIMSTYLE0
100
AcDbAlignedDimension
 13
-16.5688423357461
 23
3.175000000000004
 33
0.0
 14
-16.5688423357461
 24
-3.175000000000008
 34
0.0
 50
90.0000000000002
100
AcDbRotatedDimension
1001
ACAD
1000
DSTYLE
1002
{
1070
   171
1070
     6
1070
   273
1070
     5
1002
}
  0
LINE
  5
11E
330
1F
100
AcDbEntity
  8
참조1
100
AcDbLine
 10
68.7193644723612
 20
7.441074928723896
 30
0.0
 11
68.7193644723612
 21
-7.438925071276109
 31
0.0
  0
LINE
  5
11F
330
1F
100
AcDbEntity
  8
참조1
100
AcDbLine
 10
81.41936447236121
 20
5.441074928723896
 30
0.0
 11
68.7193644723612
 21
5.441074928723896
 31
0.0
  0
SOLID
  5
120
330
1F
100
AcDbEntity
  8
참조1
100
AcDbTrace
 10
68.7193644723612
 20
5.441074928723896
 30
0.0
 11
75.0693644723612
 21
4.425074928723896
 31
0.0
 12
75.0693644723612
 22
6.457074928723896
 32
0.0
 13
75.0693644723612
 23
6.457074928723896
 33
0.0
  0
LINE
  5
121
330
1F
100
AcDbEntity
  8
참조1
100
AcDbLine
 10
81.41936447236121
 20
-5.438925071276109
 30
0.0
 11
68.7193644723612
 21
-5.438925071276109
 31
0.0
  0
SOLID
  5
122
330
1F
100
AcDbEntity
  8
참조1
100
AcDbTrace
 10
68.7193644723612
 20
-5.438925071276109
 30
0.0
 11
75.0693644723612
 21
-6.454925071276109
 31
0.0
 12
75.0693644723612
 22
-4.422925071276109
 32
0.0
 13
75.0693644723612
 23
-4.422925071276109
 33
0.0
  0
MTEXT
  5
123
330
1F
100
AcDbEntity
  8
참조1
100
AcDbMText
 10
78.1037146049872
 20
11.01136670591223
 30
0.0
 40
3.5
 41
0.0
 71
     1
 72
     1
  1
A
  7
SLDTEXTSTYLE0
 73
     1
 44
1.0
  0
MTEXT
  5
124
330
1F
100
AcDbEntity
  8
참조1
100
AcDbMText
 10
78.1037146049872
 20
0.1313667059122219
 30
0.0
 40
3.5
 41
0.0
 71
     1
 72
     1
  1
A
  7
SLDTEXTSTYLE0
 73
     1
 44
1.0
  0
INSERT
  5
12B
330
1F
100
AcDbEntity
  8
해칭선
100
AcDbBlockReference
  2
SW_DOWELSYMBOL_0
 10
0.0000000000000009
 20
-0.0000000000000001
 30
0.0
  0
LINE
  5
2C2
330
1F
100
AcDbEntity
  8
외형선
  6
Continuous
370
    15
100
AcDbLine
 10
-27.72312392525212
 20
0.8115603408604888
 30
0.0
 11
-27.76371109596167
 21
0.8334381403942881
 31
0.0
  0
LINE
  5
2C3
330
1F
100
AcDbEntity
  8
0
  6
Continuous
 62
     1
370
    15
100
AcDbLine
 10
-24.60533697206959
 20
2.778125000000001
 30
0.0
 11
-26.29838672946429
 21
2.778125000000001
 31
0.0
  0
LINE
  5
2C4
330
1F
100
AcDbEntity
  8
0
  6
Continuous
 62
     1
370
    15
100
AcDbLine
 10
-26.29838672946429
 20
-2.778125000000002
 30
0.0
 11
-24.60533697206962
 21
-2.778125000000002
 31
0.0
  0
LINE
  5
2C5
330
1F
100
AcDbEntity
  8
외형선
  6
Continuous
370
    15
100
AcDbLine
 10
-16.5688423357461
 20
3.175000000000004
 30
0.0
 11
-18.05000000000002
 21
2.778124999999999
 31
0.0
  0
LINE
  5
2C6
330
1F
100
AcDbEntity
  8
외형선
  6
Continuous
370
    15
100
AcDbLine
 10
-18.05000000000002
 20
-2.778125000000002
 30
0.0
 11
-16.5688423357461
 21
-3.175000000000008
 31
0.0
  0
LINE
  5
2C7
330
1F
100
AcDbEntity
  8
외형선
  6
Continuous
370
    15
100
AcDbLine
 10
-18.05000000000002
 20
2.778124999999999
 30
0.0
 11
-18.73995964337029
 21
2.778124999999999
 31
0.0
  0
LINE
  5
2C8
330
1F
100
AcDbEntity
  8
외형선
  6
Continuous
370
    15
100
AcDbLine
 10
-18.73995964337032
 20
-2.778125000000002
 30
0.0
 11
-18.05000000000002
 21
-2.778125000000002
 31
0.0
  0
SPLINE
  5
2C9
330
1F
100
AcDbEntity
  8
0
  6
Continuous
 62
     1
370
    15
100
AcDbSpline
210
0.0
220
0.0
230
1.0
 70
     8
 71
     3
 72
    17
 73
    13
 74
     0
 42
0.000000001
 43
0.00000001
 40
0.0
 40
0.0
 40
0.0
 40
0.0
 40
0.0996865679121154
 40
0.1993758684848191
 40
0.2993079066955164
 40
0.3991800110397844
 40
0.4988503055849846
 40
0.5985632609183519
 40
0.698531967651668
 40
0.8083434424155933
 40
0.9180362234391788
 40
1.0
 40
1.0
 40
1.0
 40
1.0
 10
-19.05000000000003
 20
0.1784570037821635
 30
0.0
 10
-19.3882638219823
 20
0.372730203166103
 30
0.0
 10
-20.0648007386125
 20
0.7612819274530205
 30
0.0
 10
-21.08022922001835
 20
1.308933671084378
 30
0.0
 10
-22.09714303093728
 20
1.79803692338522
 30
0.0
 10
-23.11373775861541
 20
2.207522299048454
 30
0.0
 10
-24.12902180752005
 20
2.519357730623249
 30
0.0
 10
-25.14469046191076
 20
2.718837071712163
 30
0.0
 10
-26.19565935602979
 20
2.800959900676081
 30
0.0
 10
-27.2800792244317
 20
2.742607918798909
 30
0.0
 10
-28.30316732102114
 20
2.566630779157137
 30
0.0
 10
-28.95357226787437
 20
2.355825046181592
 30
0.0
 10
-29.23172422056428
 20
2.265671939952821
 30
0.0
  0
SPLINE
  5
2CA
330
1F
100
AcDbEntity
  8
외형선
  6
Continuous
370
    15
100
AcDbSpline
210
0.0
220
0.0
230
1.0
 70
    24
 71
     3
 72
    21
 73
    17
 74
     0
 42
0.000000001
 43
0.00000001
 40
0.0
 40
0.0
 40
0.0
 40
0.0
 40
0.0556398442436827
 40
0.1296147279880625
 40
0.2057348883724439
 40
0.2797097721168235
 40
0.3558299325012049
 40
0.429804816245585
 40
0.5059249766299665
 40
0.5798998603743506
 40
0.6560200207587276
 40
0.7299949045031072
 40
0.8061150648874892
 40
0.8800899486318658
 40
0.9562101090162501
 40
1.0
 40
1.0
 40
1.0
 40
1.0
 10
-19.05000000000002
 20
-2.540841975329713
 30
0.0
 10
-19.05000000000002
 20
-2.486991187777304
 30
0.0
 10
-19.05000000000003
 20
-2.361544122361749
 30
0.0
 10
-19.05
 20
-2.13548823776022
 30
0.0
 10
-19.04999999999996
 20
-1.871496436815413
 30
0.0
 10
-19.05000000000005
 20
-1.592272694563289
 30
0.0
 10
-19.05000000000002
 20
-1.311419567136537
 30
0.0
 10
-19.05000000000005
 20
-1.03165179373641
 30
0.0
 10
-19.04999999999999
 20
-0.7659682227803996
 30
0.0
 10
-19.05000000000003
 20
-0.5171078274602547
 30
0.0
 10
-19.04999999999995
 20
-0.2965462922635877
 30
0.0
 10
-19.05000000000013
 20
-0.1067459309789049
 30
0.0
 10
-19.04999999999993
 20
0.0442123460178711
 30
0.0
 10
-19.05000000000008
 20
0.1521261246040843
 30
0.0
 10
-19.04999999999999
 20
0.2124635655757795
 30
0.0
 10
-19.05000000000003
 20
0.2174106673721927
 30
0.0
 10
-19.05000000000003
 20
0.2192172969739545
 30
0.0
  0
SPLINE
  5
2CB
330
1F
100
AcDbEntity
  8
0
  6
Continuous
 62
     1
370
    15
100
AcDbSpline
210
0.0
220
0.0
230
1.0
 70
     8
 71
     3
 72
    38
 73
    34
 74
     0
 42
0.000000001
 43
0.00000001
 40
0.0
 40
0.0
 40
0.0
 40
0.0
 40
0.0625
 40
0.0625
 40
0.125
 40
0.125
 40
0.1875
 40
0.1875
 40
0.25
 40
0.25
 40
0.3125
 40
0.3125
 40
0.375
 40
0.375
 40
0.4375
 40
0.4375
 40
0.5
 40
0.5
 40
0.5625
 40
0.5625
 40
0.625
 40
0.625
 40
0.6875
 40
0.6875
 40
0.75
 40
0.75
 40
0.8125
 40
0.8125
 40
0.875
 40
0.875
 40
0.9375
 40
0.9375
 40
1.0
 40
1.0
 40
1.0
 40
1.0
 10
-31.75000000000001
 20
2.778124999999982
 30
0.0
 10
-31.4880823468343
 20
2.754863324386313
 30
0.0
 10
-31.22150055848272
 20
2.729185254547462
 30
0.0
 10
-30.68976819831173
 20
2.653235914208396
 30
0.0
 10
-30.4276347518871
 20
2.603223878663032
 30
0.0
 10
-29.89956986026153
 20
2.479939220215857
 30
0.0
 10
-29.63230067662432
 20
2.406456254393664
 30
0.0
 10
-29.10213980159589
 20
2.238706174629704
 30
0.0
 10
-28.84118700198946
 20
2.144769364670466
 30
0.0
 10
-28.31042805036024
 20
1.93728086340067
 30
0.0
 10
-28.04327096727156
 20
1.823970240080324
 30
0.0
 10
-27.51623761678463
 20
1.582934911613464
 30
0.0
 10
-27.25318622201849
 20
1.454784337342113
 30
0.0
 10
-26.72129512155991
 20
1.18548768727694
 30
0.0
 10
-26.45628703975198
 20
1.04497442883441
 30
0.0
 10
-25.93111414992584
 20
0.7566739653925524
 30
0.0
 10
-25.66425943326829
 20
0.6076535928851257
 30
0.0
 10
-25.13280923244358
 20
0.3058423300214076
 30
0.0
 10
-24.87133710255504
 20
0.1536741610351933
 30
0.0
 10
-24.34236126235727
 20
-0.151825442090407
 30
0.0
 10
-24.07504276872502
 20
-0.3051191714687305
 30
0.0
 10
-23.54560217529377
 20
-0.6065663500274295
 30
0.0
 10
-23.28439183628766
 20
-0.7545671368597876
 30
0.0
 10
-22.75315747458466
 20
-1.044028363819387
 30
0.0
 10
-22.4861751942714
 20
-1.184882856857914
 30
0.0
 10
-21.96029318679999
 20
-1.45322687715919
 30
0.0
 10
-21.69606791673029
 20
-1.581648844283823
 30
0.0
 10
-21.16414161792297
 20
-1.823502007523113
 30
0.0
 10
-20.90045281577378
 20
-1.936324273382453
 30
0.0
 10
-20.37406072304885
 20
-2.143382206578981
 30
0.0
 10
-20.1069955423007
 20
-2.238132409732763
 30
0.0
 10
-19.57595070157307
 20
-2.406057195811522
 30
0.0
 10
-19.31488274818766
 20
-2.479041532018835
 30
0.0
 10
-19.05
 20
-2.540841975329707
 30
0.0
  0
LINE
  5
2CC
330
1F
100
AcDbEntity
  8
0
  6
Continuous
 62
     1
370
    15
100
AcDbLine
 10
-31.75000000000001
 20
2.516095998401119
 30
0.0
 11
-31.75000000000001
 21
-0.238033498401154
 31
0.0
  0
SPLINE
  5
2CD
330
1F
100
AcDbEntity
  8
0
  6
Continuous
 62
     1
370
    15
100
AcDbSpline
210
0.0
220
0.0
230
1.0
 70
     8
 71
     3
 72
    38
 73
    34
 74
     0
 42
0.000000001
 43
0.00000001
 40
0.0
 40
0.0
 40
0.0
 40
0.0
 40
0.0624999999999988
 40
0.0624999999999988
 40
0.1249999999999988
 40
0.1249999999999988
 40
0.1874999999999988
 40
0.1874999999999988
 40
0.2499999999999989
 40
0.2499999999999989
 40
0.3124999999999989
 40
0.3124999999999989
 40
0.374999999999999
 40
0.374999999999999
 40
0.4374999999999991
 40
0.4374999999999991
 40
0.4999999999999992
 40
0.4999999999999992
 40
0.5624999999999993
 40
0.5624999999999993
 40
0.6249999999999994
 40
0.6249999999999994
 40
0.6874999999999996
 40
0.6874999999999996
 40
0.7499999999999997
 40
0.7499999999999997
 40
0.8124999999999998
 40
0.8124999999999998
 40
0.8749999999999999
 40
0.8749999999999999
 40
0.9375
 40
0.9375
 40
1.0
 40
1.0
 40
1.0
 40
1.0
 10
-31.75000000000001
 20
2.516095998401118
 30
0.0
 10
-31.48808234683433
 20
2.451546301227983
 30
0.0
 10
-31.2215005584827
 20
2.375201919878337
 30
0.0
 10
-30.6897681983117
 20
2.201692466539187
 30
0.0
 10
-30.4276347518871
 20
2.104958030880757
 30
0.0
 10
-29.8995698602615
 20
1.892921517594623
 30
0.0
 10
-29.63230067662432
 20
1.777357374983266
 30
0.0
 10
-29.10213980159589
 20
1.531764998292011
 30
0.0
 10
-28.84118700198946
 20
1.40212758053244
 30
0.0
 10
-28.31042805036024
 20
1.129888129474091
 30
0.0
 10
-28.04327096727156
 20
0.987677383753728
 30
0.0
 10
-27.51623761678463
 20
0.6969136421986113
 30
0.0
 10
-27.25318622201852
 20
0.5478064552573858
 30
0.0
 10
-26.72129512155991
 20
0.2448776833145305
 30
0.0
 10
-26.45628703975203
 20
0.0917879916255832
 30
0.0
 10
-25.9311141499259
 20
-0.2129068388356285
 30
0.0
 10
-25.66425943326832
 20
-0.3658001997619596
 30
0.0
 10
-25.13280923244358
 20
-0.6664483833400906
 30
0.0
 10
-24.87133710255501
 20
-0.8136296492701048
 30
0.0
 10
-24.34236126235727
 20
-1.100429896256963
 30
0.0
 10
-24.07504276872505
 20
-1.239967252837169
 30
0.0
 10
-23.5456021752938
 20
-1.505639603810987
 30
0.0
 10
-23.28439183628766
 20
-1.631689307485373
 30
0.0
 10
-22.75315747458462
 20
-1.86925318321632
 30
0.0
 10
-22.4861751942714
 20
-1.980218771190536
 30
0.0
 10
-21.96029318679997
 20
-2.182190718158438
 30
0.0
 10
-21.69606791673031
 20
-2.273923137809358
 30
0.0
 10
-21.16414161792297
 20
-2.436269823355833
 30
0.0
 10
-20.90045281577377
 20
-2.506481456842357
 30
0.0
 10
-20.37406072304886
 20
-2.623623990273385
 30
0.0
 10
-20.10699554230072
 20
-2.670807399367304
 30
0.0
 10
-19.57595070157308
 20
-2.740274561888437
 30
0.0
 10
-19.31488274818769
 20
-2.762570362325747
 30
0.0
 10
-19.05000000000003
 20
-2.772387349095742
 30
0.0
  0
SPLINE
  5
2CE
330
1F
100
AcDbEntity
  8
0
  6
Continuous
 62
     1
370
    15
100
AcDbSpline
210
0.0
220
0.0
230
1.0
 70
     8
 71
     3
 72
    17
 73
    13
 74
     0
 42
0.000000001
 43
0.00000001
 40
0.0
 40
0.0
 40
0.0
 40
0.0
 40
0.1009587009406214
 40
0.2016907442810542
 40
0.302442964871439
 40
0.4034492378816105
 40
0.5043543376421
 40
0.6050727715210492
 40
0.7058517233612466
 40
0.8168989331003912
 40
0.9279238264892603
 40
1.0
 40
1.0
 40
1.0
 40
1.0
 10
-31.75000000000001
 20
-0.2380334984011535
 30
0.0
 10
-31.41082766560675
 20
-0.4318563205489818
 30
0.0
 10
-30.73324445657205
 20
-0.8190668224020307
 30
0.0
 10
-29.71787175731263
 20
-1.361640669881936
 30
0.0
 10
-28.70232091171651
 20
-1.844416700358391
 30
0.0
 10
-27.68532802279785
 20
-2.244212845631825
 30
0.0
 10
-26.66884315344613
 20
-2.544965479146636
 30
0.0
 10
-25.6536233990849
 20
-2.73243212640157
 30
0.0
 10
-24.60420712781522
 20
-2.801748341749094
 30
0.0
 10
-23.51944106146555
 20
-2.729167158300788
 30
0.0
 10
-22.53124329995143
 20
-2.54996976382341
 30
0.0
 10
-21.91633477354899
 20
-2.345359648862584
 30
0.0
 10
-21.67428127603161
 20
-2.264816622010345
 30
0.0
  0
LINE
  5
2CF
330
1F
100
AcDbEntity
  8
0
  6
Continuous
 62
     1
370
    15
100
AcDbLine
 10
-31.75000000000001
 20
2.778124999999982
 30
0.0
 11
-31.75000000000001
 21
2.516095998401119
 31
0.0
  0
LINE
  5
2D0
330
1F
100
AcDbEntity
  8
외형선
  6
Continuous
370
    15
100
AcDbLine
 10
-19.05000000000002
 20
-2.540841975329713
 30
0.0
 11
-19.05000000000003
 21
-2.772387349095742
 31
0.0
  0
SPLINE
  5
2D1
330
1F
100
AcDbEntity
  8
0
  6
Continuous
 62
     1
370
    15
100
AcDbSpline
210
0.0
220
0.0
230
1.0
 70
     8
 71
     3
 72
    12
 73
     8
 74
     0
 42
0.000000001
 43
0.00000001
 40
0.0
 40
0.0
 40
0.0
 40
0.0
 40
0.1954351286092285
 40
0.3968113365192649
 40
0.5979214641365157
 40
0.7989293007213611
 40
1.0
 40
1.0
 40
1.0
 40
1.0
 10
-24.60533697206959
 20
2.775972311187719
 30
0.0
 10
-24.24335687436329
 20
2.763188960027612
 30
0.0
 10
-23.50839275923028
 20
2.737233653552595
 30
0.0
 10
-22.40089767309141
 20
2.512977335209094
 30
0.0
 10
-21.28350940913139
 20
2.161730678966778
 30
0.0
 10
-20.16678265690401
 20
1.695688162275564
 30
0.0
 10
-19.42229968419512
 20
1.314204265395942
 30
0.0
 10
-19.05
 20
1.12343249553661
 30
0.0
  0
LINE
  5
2D2
330
1F
100
AcDbEntity
  8
외형선
  6
Continuous
370
    15
100
AcDbLine
 10
-19.05000000000002
 20
1.123432495536603
 30
0.0
 11
-19.05000000000003
 21
0.1784570037821626
 31
0.0
  0
SPLINE
  5
2D3
330
1F
100
AcDbEntity
  8
0
  6
Continuous
 62
     1
370
    15
100
AcDbSpline
210
0.0
220
0.0
230
1.0
 70
     8
 71
     3
 72
    12
 73
     8
 74
     0
 42
0.000000001
 43
0.00000001
 40
0.0
 40
0.0
 40
0.0
 40
0.0
 40
0.1801210026577146
 40
0.3850040783742963
 40
0.5898330086595808
 40
0.794776065795631
 40
1.0
 40
1.0
 40
1.0
 40
1.0
 10
-26.29838672946429
 20
-2.770129401155613
 30
0.0
 10
-26.62575515323889
 20
-2.762210245664721
 30
0.0
 10
-27.32549686255914
 20
-2.745283251498097
 30
0.0
 10
-28.39716904269111
 20
-2.538628644049347
 30
0.0
 10
-29.51392717830647
 20
-2.199861290369119
 30
0.0
 10
-30.63138549975535
 20
-1.743533866699122
 30
0.0
 10
-31.37695831370113
 20
-1.366471553522026
 30
0.0
 10
-31.75000000000001
 20
-1.17781129322775
 30
0.0
  0
LINE
  5
2D4
330
1F
100
AcDbEntity
  8
0
  6
Continuous
 62
     1
370
    15
100
AcDbLine
 10
-31.75000000000001
 20
-0.2380334984011539
 30
0.0
 11
-31.75000000000001
 21
-1.17781129322775
 31
0.0
  0
SPLINE
  5
2D5
330
1F
100
AcDbEntity
  8
0
  6
Continuous
 62
     1
370
    15
100
AcDbSpline
210
0.0
220
0.0
230
1.0
 70
     8
 71
     3
 72
    10
 73
     6
 74
     0
 42
0.000000001
 43
0.00000001
 40
0.0
 40
0.0
 40
0.0
 40
0.0
 40
0.3867239597171426
 40
0.7734585205147132
 40
1.0
 40
1.0
 40
1.0
 40
1.0
 10
-19.05000000000002
 20
2.772387349095739
 30
0.0
 10
-19.3882659946975
 20
2.747052493684018
 30
0.0
 10
-20.06480725681768
 20
2.696382088368201
 30
0.0
 10
-20.93929306183966
 20
2.51237083889236
 30
0.0
 10
-21.47601758954259
 20
2.331594579394177
 30
0.0
 10
-21.6742812760316
 20
2.264816622010344
 30
0.0
  0
SPLINE
  5
2D6
330
1F
100
AcDbEntity
  8
외형선
  6
Continuous
370
    15
100
AcDbSpline
210
0.0
220
0.0
230
1.0
 70
    24
 71
     3
 72
    14
 73
    10
 74
     0
 42
0.000000001
 43
0.00000001
 40
0.0
 40
0.0
 40
0.0
 40
0.0
 40
0.1523962522406171
 40
0.3150648657582885
 40
0.4731490278654616
 40
0.6358176413831378
 40
0.7939018034903189
 40
0.9565704170079916
 40
0.9999999999999999
 40
0.9999999999999999
 40
0.9999999999999999
 40
0.9999999999999999
 10
-19.05
 20
1.167212487501347
 30
0.0
 10
-19.05000000000003
 20
1.231306592298947
 30
0.0
 10
-19.0500000000001
 20
1.363815103676705
 30
0.0
 10
-19.04999999999993
 20
1.600253627185581
 30
0.0
 10
-19.05000000000009
 20
1.86112309221013
 30
0.0
 10
-19.04999999999998
 20
2.134919393887935
 30
0.0
 10
-19.05000000000005
 20
2.417724859967808
 30
0.0
 10
-19.05000000000002
 20
2.630435039822697
 30
0.0
 10
-19.05000000000002
 20
2.747680963262498
 30
0.0
 10
-19.05000000000002
 20
2.77238734909574
 30
0.0
  0
SPLINE
  5
2D7
330
1F
100
AcDbEntity
  8
0
  6
Continuous
 62
     1
370
    15
100
AcDbSpline
210
0.0
220
0.0
230
1.0
 70
     8
 71
     3
 72
    10
 73
     6
 74
     0
 42
0.000000001
 43
0.00000001
 40
0.0
 40
0.0
 40
0.0
 40
0.0
 40
0.4039022683073727
 40
0.8068977547525347
 40
1.0
 40
1.0
 40
1.0
 40
1.0
 10
-31.75000000000001
 20
-2.778125000000019
 30
0.0
 10
-31.4108231492395
 20
-2.738220897990085
 30
0.0
 10
-30.73323091760984
 20
-2.678911945468982
 30
0.0
 10
-29.89411770341398
 20
-2.494687936507679
 30
0.0
 10
-29.39379932511699
 20
-2.321707804656966
 30
0.0
 10
-29.23172422056428
 20
-2.265671939952822
 30
0.0
  0
LINE
  5
2D8
330
1F
100
AcDbEntity
  8
0
  6
Continuous
 62
     1
370
    15
100
AcDbLine
 10
-31.75000000000001
 20
-1.17781129322775
 30
0.0
 11
-31.75000000000001
 21
-2.778125000000019
 31
0.0
  0
LINE
  5
2D9
330
1F
100
AcDbEntity
  8
외형선
  6
Continuous
370
    15
100
AcDbLine
 10
-18.05000000000002
 20
-0.000000000000002
 30
0.0
 11
-18.05000000000002
 21
-2.778125000000002
 31
0.0
  0
LINE
  5
2DA
330
1F
100
AcDbEntity
  8
외형선
  6
Continuous
370
    15
100
AcDbLine
 10
-18.05000000000002
 20
2.778124999999999
 30
0.0
 11
-18.05000000000002
 21
-0.000000000000002
 31
0.0
  0
LINE
  5
2DB
330
1F
100
AcDbEntity
  8
외형선
  6
Continuous
370
    15
100
AcDbLine
 10
-16.5688423357461
 20
-0.0000000000000022
 30
0.0
 11
-16.5688423357461
 21
-3.175000000000008
 31
0.0
  0
LINE
  5
2DC
330
1F
100
AcDbEntity
  8
외형선
  6
Continuous
370
    15
100
AcDbLine
 10
-16.5688423357461
 20
3.175000000000004
 30
0.0
 11
-16.5688423357461
 21
-0.0000000000000022
 31
0.0
  0
SPLINE
  5
2DD
330
1F
100
AcDbEntity
  8
외형선
  6
Continuous
370
    15
100
AcDbSpline
210
0.0
220
0.0
230
1.0
 70
    24
 71
     3
 72
    21
 73
    17
 74
     0
 42
0.000000001
 43
0.00000001
 40
0.0
 40
0.0
 40
0.0
 40
0.0
 40
0.0251888006867175
 40
0.0993132202143376
 40
0.1755872529298025
 40
0.2497116724574396
 40
0.3259857051729241
 40
0.4001101247002748
 40
0.4763841574160265
 40
0.5505085769436547
 40
0.6267826096591294
 40
0.7009070291867515
 40
0.7771810619022187
 40
0.8513054814298557
 40
0.9275795141453388
 40
0.9999999999999999
 40
0.9999999999999999
 40
0.9999999999999999
 40
0.9999999999999999
 10
-19.05000000000003
 20
0.2188330120119175
 30
0.0
 10
-19.05000000000005
 20
0.2188839399750147
 30
0.0
 10
-19.05000000000005
 20
0.2190847363557972
 30
0.0
 10
-19.04999999999996
 20
0.1701103577252674
 30
0.0
 10
-19.04999999999999
 20
0.0747157950245427
 30
0.0
 10
-19.05000000000008
 20
-0.0682494441867599
 30
0.0
 10
-19.05000000000002
 20
-0.2477851529794798
 30
0.0
 10
-19.04999999999996
 20
-0.4632166198065237
 30
0.0
 10
-19.05000000000002
 20
-0.7042552757079515
 30
0.0
 10
-19.04999999999999
 20
-0.9684973593405388
 30
0.0
 10
-19.05000000000008
 20
-1.243699460343278
 30
0.0
 10
-19.05000000000006
 20
-1.526977377039657
 30
0.0
 10
-19.04999999999996
 20
-1.805413372728679
 30
0.0
 10
-19.05000000000008
 20
-2.075388167832563
 30
0.0
 10
-19.04999999999998
 20
-2.325283564775824
 30
0.0
 10
-19.05000000000003
 20
-2.470241407706637
 30
0.0
 10
-19.05000000000005
 20
-2.540841975329719
 30
0.0
  0
SPLINE
  5
2DE
330
1F
100
AcDbEntity
  8
외형선
  6
Continuous
370
    15
100
AcDbSpline
210
0.0
220
0.0
230
1.0
 70
     8
 71
     3
 72
     8
 73
     4
 74
     0
 42
0.000000001
 43
0.00000001
 40
0.0
 40
0.0
 40
0.0
 40
0.0
 40
1.0
 40
1.0
 40
1.0
 40
1.0
 10
-19.04999999999999
 20
0.1784570037821492
 30
0.0
 10
-18.88380869556446
 20
0.082769959422428
 30
0.0
 10
-18.71666313870475
 20
-0.0134195286983294
 30
0.0
 10
-18.54990534464137
 20
-0.1093389944237316
 30
0.0
  0
SPLINE
  5
2DF
330
1F
100
AcDbEntity
  8
외형선
  6
Continuous
370
    15
100
AcDbSpline
210
0.0
220
0.0
230
1.0
 70
     8
 71
     3
 72
     8
 73
     4
 74
     0
 42
0.000000001
 43
0.00000001
 40
0.0
 40
0.0
 40
0.0
 40
0.0
 40
1.0
 40
1.0
 40
1.0
 40
1.0
 10
-19.05000000000002
 20
-2.540841975329705
 30
0.0
 10
-18.8838086955645
 20
-2.579616475967444
 30
0.0
 10
-18.71666313870477
 20
-2.613912686789153
 30
0.0
 10
-18.54990534464135
 20
-2.643439361537896
 30
0.0
  0
SPLINE
  5
2E0
330
1F
100
AcDbEntity
  8
외형선
  6
Continuous
370
    15
100
AcDbSpline
210
0.0
220
0.0
230
1.0
 70
     8
 71
     3
 72
     9
 73
     5
 74
     0
 42
0.000000001
 43
0.00000001
 40
0.0
 40
0.0
 40
0.0
 40
0.0
 40
0.290954174020098
 40
1.0
 40
1.0
 40
1.0
 40
1.0
 10
-18.73995964337032
 20
-2.777103018456701
 30
0.0
 10
-18.77003711017191
 20
-2.777412458429534
 30
0.0
 10
-18.87341238190628
 20
-2.778475993516719
 30
0.0
 10
-18.97673764996484
 20
-2.774913394826608
 30
0.0
 10
-19.05
 20
-2.772387349095742
 30
0.0
  0
LINE
  5
2E1
330
1F
100
AcDbEntity
  8
외형선
  6
Continuous
370
    15
100
AcDbLine
 10
-18.54990534464137
 20
-0.1093384901223237
 30
0.0
 11
-18.54990534464137
 21
-2.643437800521042
 31
0.0
  0
SPLINE
  5
2E2
330
1F
100
AcDbEntity
  8
외형선
  6
Continuous
370
    15
100
AcDbSpline
210
0.0
220
0.0
230
1.0
 70
     8
 71
     3
 72
     8
 73
     4
 74
     0
 42
0.000000001
 43
0.00000001
 40
0.0
 40
0.0
 40
0.0
 40
0.0
 40
1.0
 40
1.0
 40
1.0
 40
1.0
 10
-19.05000000000002
 20
1.123432495536617
 30
0.0
 10
-18.8838086955645
 20
1.035737080650336
 30
0.0
 10
-18.71666313870477
 20
0.9458614057916951
 30
0.0
 10
-18.54990534464135
 20
0.8545214201511353
 30
0.0
  0
LINE
  5
2E3
330
1F
100
AcDbEntity
  8
외형선
  6
Continuous
370
    15
100
AcDbLine
 10
-18.54990534464137
 20
2.775972552134254
 30
0.0
 11
-18.54990534464137
 21
0.8545262491003233
 31
0.0
  0
SPLINE
  5
2E4
330
1F
100
AcDbEntity
  8
외형선
  6
Continuous
370
    15
100
AcDbSpline
210
0.0
220
0.0
230
1.0
 70
     8
 71
     3
 72
     8
 73
     4
 74
     0
 42
0.000000001
 43
0.00000001
 40
0.0
 40
0.0
 40
0.0
 40
0.0
 40
1.0
 40
1.0
 40
1.0
 40
1.0
 10
-19.04999999999999
 20
2.772387349095737
 30
0.0
 10
-18.88380869556446
 20
2.778546669957872
 30
0.0
 10
-18.71666313870475
 20
2.779750573230094
 30
0.0
 10
-18.54990534464137
 20
2.775972532271059
 30
0.0
  0
SPLINE
  5
2E5
330
1F
100
AcDbEntity
  8
외형선
  6
Continuous
370
    15
100
AcDbSpline
210
0.0
220
0.0
230
1.0
 70
    24
 71
     3
 72
    14
 73
    10
 74
     0
 42
0.000000001
 43
0.00000001
 40
0.0
 40
0.0
 40
0.0
 40
0.0
 40
0.1615071989936682
 40
0.3279327854265812
 40
0.4857357111871645
 40
0.6481149324851339
 40
0.8059178582457538
 40
0.9682970795437635
 40
1.0
 40
1.0
 40
1.0
 40
1.0
 10
-19.05
 20
2.772387349095737
 30
0.0
 10
-19.05
 20
2.679446022813621
 30
0.0
 10
-19.04999999999999
 20
2.490733023028825
 30
0.0
 10
-19.05000000000005
 20
2.204541341862796
 30
0.0
 10
-19.05000000000003
 20
1.924100772746859
 30
0.0
 10
-19.04999999999999
 20
1.660221670061621
 30
0.0
 10
-19.05000000000009
 20
1.417426362394955
 30
0.0
 10
-19.05000000000002
 20
1.251866821440565
 30
0.0
 10
-19.05000000000002
 20
1.17909037157161
 30
0.0
 10
-19.05
 20
1.167202487501347
 30
0.0
  0
ENDSEC
  0
SECTION
  2
OBJECTS
  0
DICTIONARY
  5
C
330
0
100
AcDbDictionary
281
     1
  3
ACAD_GROUP
350
D
  3
ACAD_IMAGE_VARS
350
14F
  3
ACAD_LAYOUT
350
1A
  3
ACAD_MLINESTYLE
350
17
  3
ACAD_PLOTSETTINGS
350
19
  3
ACAD_PLOTSTYLENAME
350
E
  3
ACAD_SCALELIST
350
47
  3
APPDATA
350
14D
  3
DWGPROPS
350
33A
  0
DICTIONARY
  5
209
330
2
100
AcDbDictionary
280
     1
281
     1
  3
ACAD_LAYERSTATES
360
20A
  0
DICTIONARY
  5
338
330
1F
100
AcDbDictionary
280
     1
281
     1
  3
DIM_BOUNDING_BOXES_V1
360
339
  0
DICTIONARY
  5
D
102
{ACAD_REACTORS
330
C
102
}
330
C
100
AcDbDictionary
281
     1
  0
RASTERVARIABLES
  5
14F
102
{ACAD_REACTORS
330
C
102
}
330
C
100
AcDbRasterVariables
 90
        0
 70
     1
 71
     1
 72
     1
  0
DICTIONARY
  5
1A
102
{ACAD_REACTORS
330
C
102
}
330
C
100
AcDbDictionary
281
     1
  3
Layout1
350
1E
  3
Layout2
350
26
  3
Model
350
22
  0
DICTIONARY
  5
17
102
{ACAD_REACTORS
330
C
102
}
330
C
100
AcDbDictionary
281
     1
  3
Standard
350
18
  0
DICTIONARY
  5
19
102
{ACAD_REACTORS
330
C
102
}
330
C
100
AcDbDictionary
281
     1
  0
ACDBDICTIONARYWDFLT
  5
E
102
{ACAD_REACTORS
330
C
102
}
330
C
100
AcDbDictionary
281
     1
  3
Normal
350
F
100
AcDbDictionaryWithDefault
340
F
  0
DICTIONARY
  5
47
102
{ACAD_REACTORS
330
C
102
}
330
C
100
AcDbDictionary
281
     1
  3
A0
350
48
  3
A1
350
49
  3
A2
350
4A
  3
A3
350
4B
  3
A4
350
4C
  3
A5
350
4D
  3
A6
350
4E
  3
A7
350
4F
  3
A8
350
50
  3
A9
350
51
  3
B0
350
52
  3
B1
350
53
  3
B2
350
54
  3
B3
350
55
  3
B4
350
56
  3
B5
350
57
  3
B6
350
58
  3
B7
350
59
  3
B8
350
5A
  3
B9
350
5B
  3
C0
350
5C
  3
C1
350
5D
  3
C2
350
5E
  3
C3
350
5F
  3
C4
350
60
  3
C5
350
61
  3
C6
350
62
  3
C7
350
63
  3
C8
350
64
  3
C9
350
65
  3
D0
350
66
  3
D1
350
67
  3
D2
350
68
  0
DICTIONARY
  5
14D
102
{ACAD_REACTORS
330
C
102
}
330
C
100
AcDbDictionary
281
     1
  0
XRECORD
  5
33A
102
{ACAD_REACTORS
330
C
102
}
330
C
100
AcDbXrecord
280
     1
  1
DWGPROPS COOKIE
  2

  3

  4

  6

  7

  8
12011056
  9

300
=
301
=
302
=
303
=
304
=
305
=
306
=
307
=
308
=
309
=
 40
0.0
 41
2458313.123134387
 42
2459719.272494954
  1

 90
        0
  0
DICTIONARY
  5
20A
102
{ACAD_REACTORS
330
209
102
}
330
209
100
AcDbDictionary
281
     1
  0
DICTIONARY
  5
339
102
{ACAD_REACTORS
330
338
102
}
330
338
100
AcDbDictionary
281
     1
  0
LAYOUT
  5
1E
102
{ACAD_REACTORS
330
1A
102
}
330
1A
100
AcDbPlotSettings
  1

  2
none_device
  4

  6

 40
0.0
 41
0.0
 42
0.0
 43
0.0
 44
0.0
 45
0.0
 46
0.0
 47
0.0
 48
0.0
 49
0.0
140
0.0
141
0.0
142
1.0
143
1.0
 70
   688
 72
     1
 73
     0
 74
     5
  7

 75
    16
147
1.0
148
0.0
149
0.0
100
AcDbLayout
  1
Layout1
 70
     1
 71
     1
 10
0.0
 20
0.0
 11
420.0
 21
297.0
 12
0.0
 22
0.0
 32
0.0
 14
1.000000000000000E+20
 24
1.000000000000000E+20
 34
1.000000000000000E+20
 15
-1.000000000000000E+20
 25
-1.000000000000000E+20
 35
-1.000000000000000E+20
146
0.0
 13
0.0
 23
0.0
 33
0.0
 16
1.0
 26
0.0
 36
0.0
 17
0.0
 27
1.0
 37
0.0
 76
     0
330
1B
  0
LAYOUT
  5
26
102
{ACAD_REACTORS
330
1A
102
}
330
1A
100
AcDbPlotSettings
  1

  2
none_device
  4

  6

 40
0.0
 41
0.0
 42
0.0
 43
0.0
 44
0.0
 45
0.0
 46
0.0
 47
0.0
 48
0.0
 49
0.0
140
0.0
141
0.0
142
1.0
143
1.0
 70
   688
 72
     1
 73
     0
 74
     5
  7

 75
    16
147
1.0
148
0.0
149
0.0
100
AcDbLayout
  1
Layout2
 70
     1
 71
     2
 10
0.0
 20
0.0
 11
0.0
 21
0.0
 12
0.0
 22
0.0
 32
0.0
 14
0.0
 24
0.0
 34
0.0
 15
0.0
 25
0.0
 35
0.0
146
0.0
 13
0.0
 23
0.0
 33
0.0
 16
1.0
 26
0.0
 36
0.0
 17
0.0
 27
1.0
 37
0.0
 76
     0
330
23
  0
LAYOUT
  5
22
102
{ACAD_REACTORS
330
1A
102
}
330
1A
100
AcDbPlotSettings
  1

  2
none_device
  4
ANSI_A_(11.00_x_8.50_Inches)
  6

 40
6.35
 41
19.05
 42
6.35000508
 43
19.05000254
 44
279.4
 45
215.9
 46
106.0259498593852
 47
79.72540296388699
 48
0.0
 49
0.0
140
0.0
141
0.0
142
0.0692122785150277
143
1.0
 70
  1696
 72
     0
 73
     0
 74
     0
  7

 75
     0
147
0.0235690232323232
148
0.0
149
0.0
100
AcDbLayout
  1
Model
 70
     1
 71
     0
 10
0.0
 20
0.0
 11
420.0
 21
297.0
 12
0.0
 22
0.0
 32
0.0
 14
-45.14964702885833
 24
-39.99892507127611
 34
0.0
 15
81.41936447236121
 25
54.73332764256402
 35
0.0
146
0.0
 13
0.0
 23
0.0
 33
0.0
 16
1.0
 26
0.0
 36
0.0
 17
0.0
 27
1.0
 37
0.0
 76
     0
330
1F
331
29
  0
MLINESTYLE
  5
18
102
{ACAD_REACTORS
330
17
102
}
330
17
100
AcDbMlineStyle
  2
Standard
 70
     0
  3

 62
   256
 51
90.0
 52
90.0
 71
     2
 49
0.5
 62
   256
  6
BYLAYER
 49
-0.5
 62
   256
  6
BYLAYER
  0
ACDBPLACEHOLDER
  5
F
102
{ACAD_REACTORS
330
E
102
}
330
E
  0
SCALE
  5
48
102
{ACAD_REACTORS
330
47
102
}
330
47
100
AcDbScale
 70
     0
300
1:1
140
1.0
141
1.0
290
     1
  0
SCALE
  5
49
102
{ACAD_REACTORS
330
47
102
}
330
47
100
AcDbScale
 70
     0
300
1:2
140
1.0
141
2.0
290
     0
  0
SCALE
  5
4A
102
{ACAD_REACTORS
330
47
102
}
330
47
100
AcDbScale
 70
     0
300
1:4
140
1.0
141
4.0
290
     0
  0
SCALE
  5
4B
102
{ACAD_REACTORS
330
47
102
}
330
47
100
AcDbScale
 70
     0
300
1:5
140
1.0
141
5.0
290
     0
  0
SCALE
  5
4C
102
{ACAD_REACTORS
330
47
102
}
330
47
100
AcDbScale
 70
     0
300
1:8
140
1.0
141
8.0
290
     0
  0
SCALE
  5
4D
102
{ACAD_REACTORS
330
47
102
}
330
47
100
AcDbScale
 70
     0
300
1:10
140
1.0
141
10.0
290
     0
  0
SCALE
  5
4E
102
{ACAD_REACTORS
330
47
102
}
330
47
100
AcDbScale
 70
     0
300
1:16
140
1.0
141
16.0
290
     0
  0
SCALE
  5
4F
102
{ACAD_REACTORS
330
47
102
}
330
47
100
AcDbScale
 70
     0
300
1:20
140
1.0
141
20.0
290
     0
  0
SCALE
  5
50
102
{ACAD_REACTORS
330
47
102
}
330
47
100
AcDbScale
 70
     0
300
1:30
140
1.0
141
30.0
290
     0
  0
SCALE
  5
51
102
{ACAD_REACTORS
330
47
102
}
330
47
100
AcDbScale
 70
     0
300
1:40
140
1.0
141
40.0
290
     0
  0
SCALE
  5
52
102
{ACAD_REACTORS
330
47
102
}
330
47
100
AcDbScale
 70
     0
300
1:50
140
1.0
141
50.0
290
     0
  0
SCALE
  5
53
102
{ACAD_REACTORS
330
47
102
}
330
47
100
AcDbScale
 70
     0
300
1:100
140
1.0
141
100.0
290
     0
  0
SCALE
  5
54
102
{ACAD_REACTORS
330
47
102
}
330
47
100
AcDbScale
 70
     0
300
2:1
140
2.0
141
1.0
290
     0
  0
SCALE
  5
55
102
{ACAD_REACTORS
330
47
102
}
330
47
100
AcDbScale
 70
     0
300
4:1
140
4.0
141
1.0
290
     0
  0
SCALE
  5
56
102
{ACAD_REACTORS
330
47
102
}
330
47
100
AcDbScale
 70
     0
300
8:1
140
8.0
141
1.0
290
     0
  0
SCALE
  5
57
102
{ACAD_REACTORS
330
47
102
}
330
47
100
AcDbScale
 70
     0
300
10:1
140
10.0
141
1.0
290
     0
  0
SCALE
  5
58
102
{ACAD_REACTORS
330
47
102
}
330
47
100
AcDbScale
 70
     0
300
100:1
140
100.0
141
1.0
290
     0
  0
SCALE
  5
59
102
{ACAD_REACTORS
330
47
102
}
330
47
100
AcDbScale
 70
     0
300
1/128" = 1'-0"
140
0.0078125
141
12.0
290
     0
  0
SCALE
  5
5A
102
{ACAD_REACTORS
330
47
102
}
330
47
100
AcDbScale
 70
     0
300
1/64" = 1'-0"
140
0.015625
141
12.0
290
     0
  0
SCALE
  5
5B
102
{ACAD_REACTORS
330
47
102
}
330
47
100
AcDbScale
 70
     0
300
1/32" = 1'-0"
140
0.03125
141
12.0
290
     0
  0
SCALE
  5
5C
102
{ACAD_REACTORS
330
47
102
}
330
47
100
AcDbScale
 70
     0
300
1/16" = 1'-0"
140
0.0625
141
12.0
290
     0
  0
SCALE
  5
5D
102
{ACAD_REACTORS
330
47
102
}
330
47
100
AcDbScale
 70
     0
300
3/32" = 1'-0"
140
0.09375
141
12.0
290
     0
  0
SCALE
  5
5E
102
{ACAD_REACTORS
330
47
102
}
330
47
100
AcDbScale
 70
     0
300
1/8" = 1'-0"
140
0.125
141
12.0
290
     0
  0
SCALE
  5
5F
102
{ACAD_REACTORS
330
47
102
}
330
47
100
AcDbScale
 70
     0
300
3/16" = 1'-0"
140
0.1875
141
12.0
290
     0
  0
SCALE
  5
60
102
{ACAD_REACTORS
330
47
102
}
330
47
100
AcDbScale
 70
     0
300
1/4" = 1'-0"
140
0.25
141
12.0
290
     0
  0
SCALE
  5
61
102
{ACAD_REACTORS
330
47
102
}
330
47
100
AcDbScale
 70
     0
300
3/8" = 1'-0"
140
0.375
141
12.0
290
     0
  0
SCALE
  5
62
102
{ACAD_REACTORS
330
47
102
}
330
47
100
AcDbScale
 70
     0
300
1/2" = 1'-0"
140
0.5
141
12.0
290
     0
  0
SCALE
  5
63
102
{ACAD_REACTORS
330
47
102
}
330
47
100
AcDbScale
 70
     0
300
3/4" = 1'-0"
140
0.75
141
12.0
290
     0
  0
SCALE
  5
64
102
{ACAD_REACTORS
330
47
102
}
330
47
100
AcDbScale
 70
     0
300
1" = 1'-0"
140
1.0
141
12.0
290
     0
  0
SCALE
  5
65
102
{ACAD_REACTORS
330
47
102
}
330
47
100
AcDbScale
 70
     0
300
1-1/2" = 1'-0"
140
1.5
141
12.0
290
     0
  0
SCALE
  5
66
102
{ACAD_REACTORS
330
47
102
}
330
47
100
AcDbScale
 70
     0
300
3" = 1'-0"
140
3.0
141
12.0
290
     0
  0
SCALE
  5
67
102
{ACAD_REACTORS
330
47
102
}
330
47
100
AcDbScale
 70
     0
300
6" = 1'-0"
140
6.0
141
12.0
290
     0
  0
SCALE
  5
68
102
{ACAD_REACTORS
330
47
102
}
330
47
100
AcDbScale
 70
     0
300
1'-0" = 1'-0"
140
12.0
141
12.0
290
     0
  0
ENDSEC
  0
EOF
