  0
SECTION
  2
HEADER
  9
$ACADVER
  1
AC1015
  9
$ACADMAINTVER
 70
     6
  9
$DWGCODEPAGE
  3
ANSI_949
  9
$INSBASE
 10
0.0
 20
0.0
 30
0.0
  9
$EXTMIN
 10
-45.35269989293604
 20
-39.99892507127611
 30
0.0
  9
$EXTMAX
 10
81.4193644723612
 20
54.93103540682043
 30
0.0
  9
$LIMMIN
 10
0.0
 20
0.0
  9
$LIMMAX
 10
420.0
 20
297.0
  9
$ORTHOMODE
 70
     0
  9
$REGENMODE
 70
     1
  9
$FILLMODE
 70
     1
  9
$QTEXTMODE
 70
     0
  9
$MIRRTEXT
 70
     1
  9
$LTSCALE
 40
1.0
  9
$ATTMODE
 70
     1
  9
$TEXTSIZE
 40
3.5
  9
$TRACEWID
 40
1.0
  9
$TEXTSTYLE
  7
Standard
  9
$CLAYER
  8
0
  9
$CELTYPE
  6
ByLayer
  9
$CECOLOR
 62
   256
  9
$CELTSCALE
 40
1.0
  9
$DISPSILH
 70
     0
  9
$DIMSCALE
 40
1.0
  9
$DIMASZ
 40
3.302
  9
$DIMEXO
 40
1.0
  9
$DIMDLI
 40
3.75
  9
$DIMRND
 40
0.0
  9
$DIMDLE
 40
0.0
  9
$DIMEXE
 40
1.0
  9
$DIMTP
 40
0.0
  9
$DIMTM
 40
0.0
  9
$DIMTXT
 40
3.5
  9
$DIMCEN
 40
2.5
  9
$DIMTSZ
 40
0.0
  9
$DIMTOL
 70
     0
  9
$DIMLIM
 70
     0
  9
$DIMTIH
 70
     1
  9
$DIMTOH
 70
     1
  9
$DIMSE1
 70
     0
  9
$DIMSE2
 70
     0
  9
$DIMTAD
 70
     1
  9
$DIMZIN
 70
     0
  9
$DIMBLK
  1

  9
$DIMASO
 70
     1
  9
$DIMSHO
 70
     1
  9
$DIMPOST
  1

  9
$DIMAPOST
  1

  9
$DIMALT
 70
     0
  9
$DIMALTD
 70
     3
  9
$DIMALTF
 40
0.0393700787401575
  9
$DIMLFAC
 40
1.0
  9
$DIMTOFL
 70
     1
  9
$DIMTVP
 40
0.0
  9
$DIMTIX
 70
     0
  9
$DIMSOXD
 70
     0
  9
$DIMSAH
 70
     0
  9
$DIMBLK1
  1

  9
$DIMBLK2
  1

  9
$DIMSTYLE
  2
ISO-25
  9
$DIMCLRD
 70
     0
  9
$DIMCLRE
 70
     0
  9
$DIMCLRT
 70
     0
  9
$DIMTFAC
 40
1.0
  9
$DIMGAP
 40
1.524
  9
$DIMJUST
 70
     0
  9
$DIMSD1
 70
     0
  9
$DIMSD2
 70
     0
  9
$DIMTOLJ
 70
     0
  9
$DIMTZIN
 70
     0
  9
$DIMALTZ
 70
     0
  9
$DIMALTTZ
 70
     0
  9
$DIMUPT
 70
     0
  9
$DIMDEC
 70
     2
  9
$DIMTDEC
 70
     2
  9
$DIMALTU
 70
     2
  9
$DIMALTTD
 70
     3
  9
$DIMTXSTY
  7
Standard
  9
$DIMAUNIT
 70
     0
  9
$DIMADEC
 70
     2
  9
$DIMALTRND
 40
0.0
  9
$DIMAZIN
 70
     0
  9
$DIMDSEP
 70
    44
  9
$DIMATFIT
 70
     3
  9
$DIMFRAC
 70
     0
  9
$DIMLDRBLK
  1

  9
$DIMLUNIT
 70
     2
  9
$DIMLWD
 70
    -2
  9
$DIMLWE
 70
    -2
  9
$DIMTMOVE
 70
     0
  9
$LUNITS
 70
     2
  9
$LUPREC
 70
     2
  9
$SKETCHINC
 40
1.0
  9
$FILLETRAD
 40
10.0
  9
$AUNITS
 70
     0
  9
$AUPREC
 70
     2
  9
$MENU
  1
.
  9
$ELEVATION
 40
0.0
  9
$PELEVATION
 40
0.0
  9
$THICKNESS
 40
0.0
  9
$LIMCHECK
 70
     0
  9
$CHAMFERA
 40
0.0
  9
$CHAMFERB
 40
0.0
  9
$CHAMFERC
 40
0.0
  9
$CHAMFERD
 40
0.0
  9
$SKPOLY
 70
     0
  9
$TDCREATE
 40
2458313.498345822
  9
$TDUCREATE
 40
2458313.123345822
  9
$TDUPDATE
 40
2459719.64784096
  9
$TDUUPDATE
 40
2459719.27284096
  9
$TDINDWG
 40
0.0017789236
  9
$TDUSRTIMER
 40
0.0002389583
  9
$USRTIMER
 70
     1
  9
$ANGBASE
 50
0.0
  9
$ANGDIR
 70
     0
  9
$PDMODE
 70
     0
  9
$PDSIZE
 40
-1.0
  9
$PLINEWID
 40
0.0
  9
$SPLFRAME
 70
     0
  9
$SPLINETYPE
 70
     6
  9
$SPLINESEGS
 70
     8
  9
$HANDSEED
  5
33B
  9
$SURFTAB1
 70
     6
  9
$SURFTAB2
 70
     6
  9
$SURFTYPE
 70
     6
  9
$SURFU
 70
     6
  9
$SURFV
 70
     6
  9
$UCSBASE
  2

  9
$UCSNAME
  2

  9
$UCSORG
 10
0.0
 20
0.0
 30
0.0
  9
$UCSXDIR
 10
1.0
 20
0.0
 30
0.0
  9
$UCSYDIR
 10
0.0
 20
1.0
 30
0.0
  9
$UCSORTHOREF
  2

  9
$UCSORTHOVIEW
 70
     0
  9
$UCSORGTOP
 10
0.0
 20
0.0
 30
0.0
  9
$UCSORGBOTTOM
 10
0.0
 20
0.0
 30
0.0
  9
$UCSORGLEFT
 10
0.0
 20
0.0
 30
0.0
  9
$UCSORGRIGHT
 10
0.0
 20
0.0
 30
0.0
  9
$UCSORGFRONT
 10
0.0
 20
0.0
 30
0.0
  9
$UCSORGBACK
 10
0.0
 20
0.0
 30
0.0
  9
$PUCSBASE
  2

  9
$PUCSNAME
  2

  9
$PUCSORG
 10
0.0
 20
0.0
 30
0.0
  9
$PUCSXDIR
 10
1.0
 20
0.0
 30
0.0
  9
$PUCSYDIR
 10
0.0
 20
1.0
 30
0.0
  9
$PUCSORTHOREF
  2

  9
$PUCSORTHOVIEW
 70
     0
  9
$PUCSORGTOP
 10
0.0
 20
0.0
 30
0.0
  9
$PUCSORGBOTTOM
 10
0.0
 20
0.0
 30
0.0
  9
$PUCSORGLEFT
 10
0.0
 20
0.0
 30
0.0
  9
$PUCSORGRIGHT
 10
0.0
 20
0.0
 30
0.0
  9
$PUCSORGFRONT
 10
0.0
 20
0.0
 30
0.0
  9
$PUCSORGBACK
 10
0.0
 20
0.0
 30
0.0
  9
$USERI1
 70
     0
  9
$USERI2
 70
     0
  9
$USERI3
 70
     0
  9
$USERI4
 70
     0
  9
$USERI5
 70
     0
  9
$USERR1
 40
0.0
  9
$USERR2
 40
0.0
  9
$USERR3
 40
0.0
  9
$USERR4
 40
0.0
  9
$USERR5
 40
0.0
  9
$WORLDVIEW
 70
     1
  9
$SHADEDGE
 70
     3
  9
$SHADEDIF
 70
    70
  9
$TILEMODE
 70
     1
  9
$MAXACTVP
 70
    64
  9
$PINSBASE
 10
0.0
 20
0.0
 30
0.0
  9
$PLIMCHECK
 70
     0
  9
$PEXTMIN
 10
1.000000000000000E+20
 20
1.000000000000000E+20
 30
1.000000000000000E+20
  9
$PEXTMAX
 10
-1.000000000000000E+20
 20
-1.000000000000000E+20
 30
-1.000000000000000E+20
  9
$PLIMMIN
 10
0.0
 20
0.0
  9
$PLIMMAX
 10
0.0
 20
0.0
  9
$UNITMODE
 70
     0
  9
$VISRETAIN
 70
     1
  9
$PLINEGEN
 70
     0
  9
$PSLTSCALE
 70
     1
  9
$TREEDEPTH
 70
  3020
  9
$CMLSTYLE
  2
Standard
  9
$CMLJUST
 70
     0
  9
$CMLSCALE
 40
20.0
  9
$PROXYGRAPHICS
 70
     1
  9
$MEASUREMENT
 70
     1
  9
$CELWEIGHT
370
    -1
  9
$ENDCAPS
280
     0
  9
$JOINSTYLE
280
     0
  9
$LWDISPLAY
290
     1
  9
$INSUNITS
 70
     4
  9
$HYPERLINKBASE
  1

  9
$STYLESHEET
  1

  9
$XEDIT
290
     1
  9
$CEPSNTYPE
380
     0
  9
$PSTYLEMODE
290
     1
  9
$FINGERPRINTGUID
  2
{77311E33-3967-492C-96B7-F7325497D25A}
  9
$VERSIONGUID
  2
{FAEB1C32-E019-11D5-929B-00C0DF256EC4}
  9
$EXTNAMES
290
     1
  9
$PSVPSCALE
 40
0.0
  9
$OLESTARTUP
290
     0
  0
ENDSEC
  0
SECTION
  2
CLASSES
  0
CLASS
  1
ACDBDICTIONARYWDFLT
  2
AcDbDictionaryWithDefault
  3
ObjectDBX Classes
 90
        0
280
     0
281
     0
  0
CLASS
  1
VISUALSTYLE
  2
AcDbVisualStyle
  3
ObjectDBX Classes
 90
     4095
280
     0
281
     0
  0
CLASS
  1
MATERIAL
  2
AcDbMaterial
  3
ObjectDBX Classes
 90
     1153
280
     0
281
     0
  0
CLASS
  1
SCALE
  2
AcDbScale
  3
ObjectDBX Classes
 90
     1153
280
     0
281
     0
  0
CLASS
  1
SUN
  2
AcDbSun
  3
SCENEOE
 90
     1153
280
     0
281
     0
  0
CLASS
  1
ACDBPLACEHOLDER
  2
AcDbPlaceHolder
  3
ObjectDBX Classes
 90
        0
280
     0
281
     0
  0
CLASS
  1
LAYOUT
  2
AcDbLayout
  3
ObjectDBX Classes
 90
        0
280
     0
281
     0
  0
CLASS
  1
TABLESTYLE
  2
AcDbTableStyle
  3
ObjectDBX Classes
 90
     4095
280
     0
281
     0
  0
CLASS
  1
MLEADERSTYLE
  2
AcDbMLeaderStyle
  3
ACDB_MLEADERSTYLE_CLASS
 90
     4095
280
     0
281
     0
  0
CLASS
  1
RASTERVARIABLES
  2
AcDbRasterVariables
  3
ISM
 90
        0
280
     0
281
     0
  0
ENDSEC
  0
SECTION
  2
TABLES
  0
TABLE
  2
VPORT
  5
8
330
0
100
AcDbSymbolTable
 70
     1
  0
VPORT
  5
29
330
8
100
AcDbSymbolTableRecord
100
AcDbViewportTableRecord
  2
*Active
 70
     0
 10
0.0
 20
0.0
 11
1.0
 21
1.0
 12
0.9751440442432706
 22
14.6460271309387
 13
0.0
 23
0.0
 14
10.0
 24
10.0
 15
10.0
 25
10.0
 16
0.0
 26
0.0
 36
1.0
 17
0.0
 27
0.0
 37
0.0
 40
95.98774990553959
 41
1.519944979367263
 42
50.0
 43
0.0
 44
0.0
 50
0.0
 51
0.0
 71
    16
 72
  2000
 73
     1
 74
     3
 75
     0
 76
     0
 77
     0
 78
     0
281
     0
 65
     1
110
0.0
120
0.0
130
0.0
111
1.0
121
0.0
131
0.0
112
0.0
122
1.0
132
0.0
 79
     0
146
0.0
  0
ENDTAB
  0
TABLE
  2
LTYPE
  5
5
330
0
100
AcDbSymbolTable
 70
     6
  0
LTYPE
  5
14
330
5
100
AcDbSymbolTableRecord
100
AcDbLinetypeTableRecord
  2
ByBlock
 70
     0
  3

 72
    65
 73
     0
 40
0.0
  0
LTYPE
  5
15
330
5
100
AcDbSymbolTableRecord
100
AcDbLinetypeTableRecord
  2
ByLayer
 70
     0
  3

 72
    65
 73
     0
 40
0.0
  0
LTYPE
  5
16
330
5
100
AcDbSymbolTableRecord
100
AcDbLinetypeTableRecord
  2
Continuous
 70
     0
  3
Solid line
 72
    65
 73
     0
 40
0.0
  0
LTYPE
  5
6A
330
5
100
AcDbSymbolTableRecord
100
AcDbLinetypeTableRecord
  2
HIDDEN
 70
     0
  3
Hidden __ __ __ __ __ __ __ __ __ __ __ __ __ __
 72
    65
 73
     2
 40
1.905
 49
1.27
 74
     0
 49
-0.635
 74
     0
  0
LTYPE
  5
6B
330
5
100
AcDbSymbolTableRecord
100
AcDbLinetypeTableRecord
  2
PHANTOM
 70
     0
  3
Phantom ______  __  __  ______  __  __  ______
 72
    65
 73
     6
 40
12.7
 49
6.35
 74
     0
 49
-1.27
 74
     0
 49
1.27
 74
     0
 49
-1.27
 74
     0
 49
1.27
 74
     0
 49
-1.27
 74
     0
  0
LTYPE
  5
6C
330
5
100
AcDbSymbolTableRecord
100
AcDbLinetypeTableRecord
  2
CENTER
 70
     0
  3
Center ____ _ ____ _ ____ _ ____ _ ____ _ ____
 72
    65
 73
     4
 40
10.16
 49
6.35
 74
     0
 49
-1.27
 74
     0
 49
1.27
 74
     0
 49
-1.27
 74
     0
  0
LTYPE
  5
6D
330
5
100
AcDbSymbolTableRecord
100
AcDbLinetypeTableRecord
  2
CENTERX2
 70
     0
  3
Center (2x) ________  __  ________  __  _____
 72
    65
 73
     4
 40
20.32
 49
12.7
 74
     0
 49
-2.54
 74
     0
 49
2.54
 74
     0
 49
-2.54
 74
     0
  0
LTYPE
  5
6E
330
5
100
AcDbSymbolTableRecord
100
AcDbLinetypeTableRecord
  2
DOT2
 70
     0
  3
Dot (.5x) ........................................
 72
    65
 73
     2
 40
0.635
 49
0.0
 74
     0
 49
-0.635
 74
     0
  0
ENDTAB
  0
TABLE
  2
LAYER
  5
2
102
{ACAD_XDICTIONARY
360
209
102
}
330
0
100
AcDbSymbolTable
 70
    18
  0
LAYER
  5
10
330
2
100
AcDbSymbolTableRecord
100
AcDbLayerTableRecord
  2
0
 70
     0
 62
     7
  6
Continuous
370
    -3
390
F
  0
LAYER
  5
6F
330
2
100
AcDbSymbolTableRecord
100
AcDbLayerTableRecord
  2
FORMAT
 70
     0
 62
     2
  6
Continuous
370
    -3
390
F
  0
LAYER
  5
70
330
2
100
AcDbSymbolTableRecord
100
AcDbLayerTableRecord
  2
외형선
 70
     0
 62
     4
  6
Continuous
370
    30
390
F
  0
LAYER
  5
71
330
2
100
AcDbSymbolTableRecord
100
AcDbLayerTableRecord
  2
숨은선
 70
     0
 62
     2
  6
HIDDEN
370
    15
390
F
  0
LAYER
  5
72
330
2
100
AcDbSymbolTableRecord
100
AcDbLayerTableRecord
  2
중심선
 70
     0
 62
     1
  6
CENTERX2
370
    -3
390
F
  0
LAYER
  5
73
330
2
100
AcDbSymbolTableRecord
100
AcDbLayerTableRecord
  2
파단선
 70
     0
 62
     4
  6
Continuous
370
    -3
390
F
  0
LAYER
  5
74
330
2
100
AcDbSymbolTableRecord
100
AcDbLayerTableRecord
  2
해칭선
 70
     0
 62
   100
  6
Continuous
370
    -3
390
F
  0
LAYER
  5
75
330
2
100
AcDbSymbolTableRecord
100
AcDbLayerTableRecord
  2
가는실선
 70
     0
 62
     4
  6
Continuous
370
    -3
390
F
  0
LAYER
  5
76
330
2
100
AcDbSymbolTableRecord
100
AcDbLayerTableRecord
  2
치수_보조선
 70
     0
 62
     4
  6
Continuous
370
    -3
390
F
  0
LAYER
  5
77
330
2
100
AcDbSymbolTableRecord
100
AcDbLayerTableRecord
  2
치수문자_일반주서
 70
     0
 62
     7
  6
Continuous
370
    15
390
F
  0
LAYER
  5
78
330
2
100
AcDbSymbolTableRecord
100
AcDbLayerTableRecord
  2
개별주서
 70
     0
 62
   100
  6
Continuous
370
    30
390
F
  0
LAYER
  5
79
330
2
100
AcDbSymbolTableRecord
100
AcDbLayerTableRecord
  2
중간선
 70
     0
 62
     2
  6
Continuous
370
    15
390
F
  0
LAYER
  5
7A
330
2
100
AcDbSymbolTableRecord
100
AcDbLayerTableRecord
  2
윤곽선
 70
     0
 62
     3
  6
Continuous
370
    40
390
F
  0
LAYER
  5
7B
330
2
100
AcDbSymbolTableRecord
100
AcDbLayerTableRecord
  2
중심마크
 70
     0
 62
   100
  6
Continuous
370
    30
390
F
  0
LAYER
  5
7C
330
2
100
AcDbSymbolTableRecord
100
AcDbLayerTableRecord
  2
가상선
 70
     0
 62
     4
  6
PHANTOM
370
    -3
390
F
  0
LAYER
  5
7D
330
2
100
AcDbSymbolTableRecord
100
AcDbLayerTableRecord
  2
특수지정선
 70
     0
 62
     5
  6
CENTERX2
370
    60
390
F
  0
LAYER
  5
7E
330
2
100
AcDbSymbolTableRecord
100
AcDbLayerTableRecord
  2
참조1
 70
     0
 62
    -4
  6
Continuous
370
    -3
390
F
  0
LAYER
  5
151
330
2
100
AcDbSymbolTableRecord
100
AcDbLayerTableRecord
  2
Defpoints
 70
     0
 62
     7
  6
Continuous
290
     0
370
    -3
390
F
  0
ENDTAB
  0
TABLE
  2
STYLE
  5
3
330
0
100
AcDbSymbolTable
 70
     2
  0
STYLE
  5
11
330
3
100
AcDbSymbolTableRecord
100
AcDbTextStyleTableRecord
  2
Standard
 70
     0
 40
0.0
 41
1.0
 50
0.0
 71
     0
 42
3.5
  3
txt
  4

  0
STYLE
  5
94
330
3
100
AcDbSymbolTableRecord
100
AcDbTextStyleTableRecord
  2
SLDTEXTSTYLE0
 70
     0
 40
0.0
 41
0.75
 50
0.0
 71
     0
 42
3.5
  3
TXT
  4

  0
ENDTAB
  0
TABLE
  2
VIEW
  5
6
330
0
100
AcDbSymbolTable
 70
     0
  0
ENDTAB
  0
TABLE
  2
UCS
  5
7
330
0
100
AcDbSymbolTable
 70
     0
  0
ENDTAB
  0
TABLE
  2
APPID
  5
9
330
0
100
AcDbSymbolTable
 70
     3
  0
APPID
  5
12
330
9
100
AcDbSymbolTableRecord
100
AcDbRegAppTableRecord
  2
ACAD
 70
     0
  0
APPID
  5
15D
330
9
100
AcDbSymbolTableRecord
100
AcDbRegAppTableRecord
  2
PE_URL
 70
     0
  0
APPID
  5
15E
330
9
100
AcDbSymbolTableRecord
100
AcDbRegAppTableRecord
  2
ACAD_DSTYLE_DIMRADIAL_EXTENSION
 70
     0
  0
ENDTAB
  0
TABLE
  2
DIMSTYLE
  5
A
330
0
100
AcDbSymbolTable
 70
     4
100
AcDbDimStyleTable
  0
DIMSTYLE
105
27
330
A
100
AcDbSymbolTableRecord
100
AcDbDimStyleTableRecord
  2
ISO-25
 70
     0
 41
2.5
 42
0.625
 43
3.75
 44
1.25
 73
     0
 74
     0
 77
     1
 78
     8
140
2.5
141
2.5
143
0.03937007874016
147
0.625
171
     3
172
     1
178
     0
271
     2
272
     2
274
     3
278
    44
283
     0
284
     8
340
11
  0
DIMSTYLE
105
CE
102
{ACAD_REACTORS
330
CD
330
10A
330
E2
330
F7
102
}
330
A
100
AcDbSymbolTableRecord
100
AcDbDimStyleTableRecord
  2
SLDDIMSTYLE0
 70
     0
 41
3.302
 44
0.0
 45
0.000000001
 73
     0
 74
     0
 77
     1
 78
    12
 79
     3
140
3.5
143
0.0393700787401575
147
0.875
148
0.000000001
170
     1
172
     1
173
     1
178
     0
271
     2
272
     2
276
     2
284
    12
289
     0
340
94
  0
DIMSTYLE
105
E3
102
{ACAD_REACTORS
102
}
330
A
100
AcDbSymbolTableRecord
100
AcDbDimStyleTableRecord
  2
SLDDIMSTYLE1
 70
     0
 41
3.302
 44
0.0
 45
0.000000001
 73
     0
 74
     0
 77
     1
 78
     4
 79
     1
140
3.5
143
0.0393700787401575
147
0.875
148
0.000000001
170
     1
173
     1
178
     0
271
     2
272
     2
276
     2
284
    12
340
94
  0
DIMSTYLE
105
15C
102
{ACAD_REACTORS
102
}
330
A
100
AcDbSymbolTableRecord
100
AcDbDimStyleTableRecord
  2
SLDDIMSTYLE2
 70
     0
 41
3.302
 44
0.0
 45
0.000000001
 73
     0
 74
     0
 77
     1
 78
    12
 79
     3
140
3.5
147
0.875
172
     1
173
     1
178
     0
271
     2
272
     2
276
     2
284
    12
289
     0
340
94
  0
ENDTAB
  0
TABLE
  2
BLOCK_RECORD
  5
1
330
0
100
AcDbSymbolTable
 70
    20
  0
BLOCK_RECORD
  5
1F
102
{ACAD_XDICTIONARY
360
338
102
}
330
1
100
AcDbSymbolTableRecord
100
AcDbBlockTableRecord
  2
*Model_Space
340
22
  0
BLOCK_RECORD
  5
1B
330
1
100
AcDbSymbolTableRecord
100
AcDbBlockTableRecord
  2
*Paper_Space
340
1E
  0
BLOCK_RECORD
  5
23
330
1
100
AcDbSymbolTableRecord
100
AcDbBlockTableRecord
  2
*Paper_Space0
340
26
  0
BLOCK_RECORD
  5
7F
330
1
100
AcDbSymbolTableRecord
100
AcDbBlockTableRecord
  2
블럭10
340
0
102
{BLKREFS
331
C6
102
}
  0
BLOCK_RECORD
  5
CF
330
1
100
AcDbSymbolTableRecord
100
AcDbBlockTableRecord
  2
_D
340
0
  0
BLOCK_RECORD
  5
E4
330
1
100
AcDbSymbolTableRecord
100
AcDbBlockTableRecord
  2
_D_1
340
0
  0
BLOCK_RECORD
  5
F8
330
1
100
AcDbSymbolTableRecord
100
AcDbBlockTableRecord
  2
_D_2
340
0
  0
BLOCK_RECORD
  5
10B
330
1
100
AcDbSymbolTableRecord
100
AcDbBlockTableRecord
  2
_D_3
340
0
  0
BLOCK_RECORD
  5
125
330
1
100
AcDbSymbolTableRecord
100
AcDbBlockTableRecord
  2
SW_DOWELSYMBOL_0
340
0
102
{BLKREFS
331
12B
102
}
  0
BLOCK_RECORD
  5
1E7
330
1
100
AcDbSymbolTableRecord
100
AcDbBlockTableRecord
  2
_D_4
340
0
  0
BLOCK_RECORD
  5
201
330
1
100
AcDbSymbolTableRecord
100
AcDbBlockTableRecord
  2
*D8
340
0
  0
BLOCK_RECORD
  5
20D
330
1
100
AcDbSymbolTableRecord
100
AcDbBlockTableRecord
  2
*D9
340
0
  0
BLOCK_RECORD
  5
219
330
1
100
AcDbSymbolTableRecord
100
AcDbBlockTableRecord
  2
*D10
340
0
  0
BLOCK_RECORD
  5
225
330
1
100
AcDbSymbolTableRecord
100
AcDbBlockTableRecord
  2
*D11
340
0
  0
BLOCK_RECORD
  5
280
330
1
100
AcDbSymbolTableRecord
100
AcDbBlockTableRecord
  2
*D12
340
0
  0
BLOCK_RECORD
  5
28C
330
1
100
AcDbSymbolTableRecord
100
AcDbBlockTableRecord
  2
*D13
340
0
  0
BLOCK_RECORD
  5
298
330
1
100
AcDbSymbolTableRecord
100
AcDbBlockTableRecord
  2
*D14
340
0
  0
BLOCK_RECORD
  5
2A6
330
1
100
AcDbSymbolTableRecord
100
AcDbBlockTableRecord
  2
*D15
340
0
  0
BLOCK_RECORD
  5
2B4
330
1
100
AcDbSymbolTableRecord
100
AcDbBlockTableRecord
  2
*D16
340
0
  0
BLOCK_RECORD
  5
2EA
330
1
100
AcDbSymbolTableRecord
100
AcDbBlockTableRecord
  2
*D17
340
0
  0
BLOCK_RECORD
  5
2F9
330
1
100
AcDbSymbolTableRecord
100
AcDbBlockTableRecord
  2
*D18
340
0
  0
BLOCK_RECORD
  5
308
330
1
100
AcDbSymbolTableRecord
100
AcDbBlockTableRecord
  2
*D19
340
0
  0
ENDTAB
  0
ENDSEC
  0
SECTION
  2
BLOCKS
  0
BLOCK
  5
20
330
1F
100
AcDbEntity
  8
0
100
AcDbBlockBegin
  2
*Model_Space
 70
     0
 10
0.0
 20
0.0
 30
0.0
  3
*Model_Space
  1
*Model_Space
  0
ENDBLK
  5
21
330
1F
100
AcDbEntity
  8
0
100
AcDbBlockEnd
  0
BLOCK
  5
1C
330
1B
100
AcDbEntity
 67
     1
  8
0
100
AcDbBlockBegin
  2
*Paper_Space
 70
     0
 10
0.0
 20
0.0
 30
0.0
  3
*Paper_Space
  1
*Paper_Space
  0
ENDBLK
  5
1D
330
1B
100
AcDbEntity
 67
     1
  8
0
100
AcDbBlockEnd
  0
BLOCK
  5
24
330
23
100
AcDbEntity
  8
0
100
AcDbBlockBegin
  2
*Paper_Space0
 70
     0
 10
0.0
 20
0.0
 30
0.0
  3
*Paper_Space0
  1
*Paper_Space0
  0
ENDBLK
  5
25
330
23
100
AcDbEntity
  8
0
100
AcDbBlockEnd
  0
BLOCK
  5
80
330
7F
100
AcDbEntity
  8
0
100
AcDbBlockBegin
  2
블럭10
 70
     2
 10
0.0
 20
0.0
 30
0.0
  3
블럭10
  1
블럭10
  0
ELLIPSE
  5
82
330
7F
100
AcDbEntity
  8
중심선
100
AcDbEllipse
 10
20.54032771741204
 20
12.0471743016438
 30
0.0
 11
6.600054785286829
 21
-1.261213355974178E-13
 31
0.0
210
0.0
220
0.0
230
1.0
 40
0.636358354079598
 41
0.9219305317359503
 42
6.513795318482858
  0
ELLIPSE
  5
83
330
7F
100
AcDbEntity
  8
중심선
100
AcDbEllipse
 10
20.54032771746488
 20
12.04717430159265
 30
0.0
 11
3.960054785062283
 21
1.540847449632565E-10
 31
0.0
210
0.0
220
0.0
230
1.0
 40
0.3939339440162632
 41
1.131841032648279
 42
5.62031148352944
  0
LINE
  5
84
330
7F
100
AcDbEntity
  8
중심선
100
AcDbLine
 10
2.268634060543552
 20
16.24717430164393
 30
0.0
 11
5.714909304380834
 21
16.24717430164393
 31
0.0
  0
LINE
  5
85
330
7F
100
AcDbEntity
  8
중심선
100
AcDbLine
 10
5.245725140726316
 20
7.84717430164391
 30
0.0
 11
8.692000384563599
 21
7.84717430164391
 31
0.0
  0
LINE
  5
86
330
7F
100
AcDbEntity
  8
중심선
100
AcDbLine
 10
15.74043728645272
 20
16.24717430164393
 30
0.0
 11
8.692000384563599
 21
7.84717430164391
 31
0.0
  0
LINE
  5
87
330
7F
100
AcDbEntity
  8
중심선
100
AcDbLine
 10
0.1404042013395286
 20
13.71084872107135
 30
0.0
 11
3.58671253028996
 21
13.71088815037384
 31
0.0
  0
LINE
  5
88
330
7F
100
AcDbEntity
  8
중심선
100
AcDbLine
 10
2.750260043222114
 20
10.84717430164391
 30
0.0
 11
6.196535287059397
 21
10.84717430164391
 31
0.0
  0
LINE
  5
89
330
7F
100
AcDbEntity
  8
중심선
100
AcDbLine
 10
12.29416204261559
 20
16.24717430164393
 30
0.0
 11
5.245725140726316
 21
7.84717430164391
 31
0.0
  0
LINE
  5
8A
330
7F
100
AcDbEntity
  8
중심선
100
AcDbLine
 10
10.72767329541681
 20
16.24717430164393
 30
0.0
 11
6.196535287059397
 21
10.84717430164391
 31
0.0
  0
LINE
  5
8B
330
7F
100
AcDbEntity
  8
중심선
100
AcDbLine
 10
7.28139805157953
 20
16.24717430164393
 30
0.0
 11
2.750260043222114
 21
10.84717430164391
 31
0.0
  0
LINE
  5
8C
330
7F
100
AcDbEntity
  8
중심선
100
AcDbLine
 10
5.714909304380834
 20
16.24717430164393
 30
0.0
 11
3.58671253028996
 21
13.71088815037384
 31
0.0
  0
LINE
  5
8D
330
7F
100
AcDbEntity
  8
중심선
100
AcDbLine
 10
2.268634060543552
 20
16.24717430164393
 30
0.0
 11
0.1404042013395286
 21
13.71084872107135
 31
0.0
  0
LINE
  5
8E
330
7F
100
AcDbEntity
  8
중심선
100
AcDbLine
 10
7.28139805157953
 20
16.24717430164393
 30
0.0
 11
10.72767329541681
 21
16.24717430164393
 31
0.0
  0
LINE
  5
8F
330
7F
100
AcDbEntity
  8
중심선
100
AcDbLine
 10
12.29416204261559
 20
16.24717430164393
 30
0.0
 11
15.74043728645272
 21
16.24717430164393
 31
0.0
  0
LINE
  5
90
330
7F
100
AcDbEntity
  8
중심선
100
AcDbLine
 10
19.22036997980202
 20
11.08717430171403
 30
0.0
 11
23.66174974927406
 21
11.08717430171406
 31
0.0
  0
LINE
  5
91
330
7F
100
AcDbEntity
  8
중심선
100
AcDbLine
 10
19.22039502424796
 20
13.00717430171391
 30
0.0
 11
19.22036997980202
 21
11.08717430171403
 31
0.0
  0
LINE
  5
92
330
7F
100
AcDbEntity
  8
중심선
100
AcDbLine
 10
19.22039502424796
 20
13.00717430171391
 30
0.0
 11
26.96566020931264
 21
13.00717430171391
 31
0.0
  0
LINE
  5
93
330
7F
100
AcDbEntity
  8
중심선
100
AcDbLine
 10
22.22332737316547
 20
13.45928029700563
 30
0.0
 11
24.52862924686651
 21
15.39360700705356
 31
0.0
  0
ATTDEF
  5
95
330
7F
100
AcDbEntity
  8
FORMAT
 62
     2
100
AcDbText
 10
4.408487351596664
 20
2.075366912832191
 30
0.0
 40
4.233333333333333
  1
E5023015
 41
0.75
  7
SLDTEXTSTYLE0
 11
4.408487351596664
 21
-0.0412997538344756
 31
0.0
100
AcDbAttributeDefinition
  3

  2
AUTOATTR0
 70
     0
 74
     1
  0
ENDBLK
  5
81
330
7F
100
AcDbEntity
  8
0
100
AcDbBlockEnd
  0
BLOCK
  5
D0
330
CF
100
AcDbEntity
  8
0
100
AcDbBlockBegin
  2
_D
 70
     0
 10
0.0
 20
0.0
 30
0.0
  3
_D
  1
_D
  0
LINE
  5
D2
330
CF
100
AcDbEntity
  8
치수문자_일반주서
 62
     0
370
    -2
100
AcDbLine
 10
31.8125
 20
2.976562500000021
 30
0.0
 11
45.7619475596824
 21
2.976562500000075
 31
0.0
  0
LINE
  5
D3
330
CF
100
AcDbEntity
  8
치수문자_일반주서
 62
     0
370
    -2
100
AcDbLine
 10
31.8125
 20
-2.97656249999998
 30
0.0
 11
45.76194755968242
 21
-2.976562499999932
 31
0.0
  0
LINE
  5
D4
330
CF
100
AcDbEntity
  8
치수문자_일반주서
 62
     0
370
    -2
100
AcDbLine
 10
45.7619475596824
 20
2.976562500000075
 30
0.0
 11
45.76194755968224
 21
46.23162932046444
 31
0.0
  0
LINE
  5
D5
330
CF
100
AcDbEntity
  8
치수문자_일반주서
 62
     0
370
    -2
100
AcDbLine
 10
45.7619475596824
 20
2.976562500000075
 30
0.0
 11
45.76194755968242
 21
-2.976562499999932
 31
0.0
  0
LINE
  5
D6
330
CF
100
AcDbEntity
  8
치수문자_일반주서
 62
     0
370
    -2
100
AcDbLine
 10
45.76194755968238
 20
6.278562500000074
 30
0.0
 11
45.76194755968237
 21
9.580562500000074
 31
0.0
  0
LINE
  5
D7
330
CF
100
AcDbEntity
  8
치수문자_일반주서
 62
     0
370
    -2
100
AcDbLine
 10
45.76194755968243
 20
-6.278562499999932
 30
0.0
 11
45.76194755968245
 21
-9.580562499999932
 31
0.0
  0
SOLID
  5
D8
330
CF
100
AcDbEntity
  8
치수문자_일반주서
 62
     0
100
AcDbTrace
 10
45.21161422634905
 20
6.278562500000072
 30
0.0
 11
46.31228089301572
 21
6.278562500000076
 31
0.0
 12
45.7619475596824
 22
2.976562500000075
 32
0.0
 13
45.7619475596824
 23
2.976562500000075
 33
0.0
  0
SOLID
  5
D9
330
CF
100
AcDbEntity
  8
치수문자_일반주서
 62
     0
100
AcDbTrace
 10
46.31228089301577
 20
-6.27856249999993
 30
0.0
 11
45.2116142263491
 21
-6.278562499999934
 31
0.0
 12
45.76194755968242
 22
-2.976562499999932
 32
0.0
 13
45.76194755968242
 23
-2.976562499999932
 33
0.0
  0
MTEXT
  5
DA
330
CF
100
AcDbEntity
  8
치수문자_일반주서
 62
     0
100
AcDbMText
 10
41.3869475596823
 20
30.91912932046441
 30
0.0
 40
3.5
 41
0.0
 71
     2
 72
     1
  1
\A1;%%c5.95 [15/64]
  7
SLDTEXTSTYLE0
 11
-3.580687802255622E-15
 21
1.0
 31
0.0
 73
     1
 44
1.0
  0
POINT
  5
DB
330
CF
100
AcDbEntity
  8
Defpoints
 62
     0
100
AcDbPoint
 10
31.75
 20
2.976562500000021
 30
0.0
  0
POINT
  5
DC
330
CF
100
AcDbEntity
  8
Defpoints
 62
     0
100
AcDbPoint
 10
31.75
 20
-2.97656249999998
 30
0.0
  0
POINT
  5
DD
330
CF
100
AcDbEntity
  8
Defpoints
 62
     0
100
AcDbPoint
 10
45.76194755968242
 20
-2.976562499999928
 30
0.0
  0
ENDBLK
  5
D1
330
CF
100
AcDbEntity
  8
0
100
AcDbBlockEnd
  0
BLOCK
  5
E5
330
E4
100
AcDbEntity
  8
0
100
AcDbBlockBegin
  2
_D_1
 70
     0
 10
0.0
 20
0.0
 30
0.0
  3
_D_1
  1
_D_1
  0
LINE
  5
E7
330
E4
100
AcDbEntity
  8
치수문자_일반주서
 62
     0
370
    -2
100
AcDbLine
 10
31.75
 20
3.028116463846026
 30
0.0
 11
31.75
 21
33.59590151253253
 31
0.0
  0
LINE
  5
E8
330
E4
100
AcDbEntity
  8
치수문자_일반주서
 62
     0
370
    -2
100
AcDbLine
 10
19.05
 20
2.953497716697112
 30
0.0
 11
19.05
 21
33.59590151253253
 31
0.0
  0
LINE
  5
E9
330
E4
100
AcDbEntity
  8
치수문자_일반주서
 62
     0
370
    -2
100
AcDbLine
 10
19.05
 20
33.59590151253253
 30
0.0
 11
-11.74281811756416
 21
33.59590151253253
 31
0.0
  0
LINE
  5
EA
330
E4
100
AcDbEntity
  8
치수문자_일반주서
 62
     0
370
    -2
100
AcDbLine
 10
31.75
 20
33.59590151253253
 30
0.0
 11
19.05
 21
33.59590151253253
 31
0.0
  0
LINE
  5
EB
330
E4
100
AcDbEntity
  8
치수문자_일반주서
 62
     0
370
    -2
100
AcDbLine
 10
35.052
 20
33.59590151253253
 30
0.0
 11
38.354
 21
33.59590151253253
 31
0.0
  0
LINE
  5
EC
330
E4
100
AcDbEntity
  8
치수문자_일반주서
 62
     0
370
    -2
100
AcDbLine
 10
15.748
 20
33.59590151253253
 30
0.0
 11
12.446
 21
33.59590151253253
 31
0.0
  0
SOLID
  5
ED
330
E4
100
AcDbEntity
  8
치수문자_일반주서
 62
     0
100
AcDbTrace
 10
35.052
 20
34.14623484586586
 30
0.0
 11
35.052
 21
33.04556817919919
 31
0.0
 12
31.75
 22
33.59590151253253
 32
0.0
 13
31.75
 23
33.59590151253253
 33
0.0
  0
SOLID
  5
EE
330
E4
100
AcDbEntity
  8
치수문자_일반주서
 62
     0
100
AcDbTrace
 10
15.748
 20
33.04556817919919
 30
0.0
 11
15.748
 21
34.14623484586586
 31
0.0
 12
19.05
 22
33.59590151253253
 32
0.0
 13
19.05
 23
33.59590151253253
 33
0.0
  0
MTEXT
  5
EF
330
E4
100
AcDbEntity
  8
치수문자_일반주서
 62
     0
100
AcDbMText
 10
-0.8053181175641626
 20
37.97090151253253
 30
0.0
 40
3.5
 41
0.0
 71
     2
 72
     1
  1
\A1;12.7 [1/2]
  7
SLDTEXTSTYLE0
 73
     1
 44
1.0
  0
POINT
  5
F0
330
E4
100
AcDbEntity
  8
Defpoints
 62
     0
100
AcDbPoint
 10
31.75
 20
2.965616463846026
 30
0.0
  0
POINT
  5
F1
330
E4
100
AcDbEntity
  8
Defpoints
 62
     0
100
AcDbPoint
 10
19.05
 20
2.890997716697112
 30
0.0
  0
POINT
  5
F2
330
E4
100
AcDbEntity
  8
Defpoints
 62
     0
100
AcDbPoint
 10
19.05
 20
33.59590151253253
 30
0.0
  0
ENDBLK
  5
E6
330
E4
100
AcDbEntity
  8
0
100
AcDbBlockEnd
  0
BLOCK
  5
F9
330
F8
100
AcDbEntity
  8
0
100
AcDbBlockBegin
  2
_D_2
 70
     0
 10
0.0
 20
0.0
 30
0.0
  3
_D_2
  1
_D_2
  0
LINE
  5
FB
330
F8
100
AcDbEntity
  8
치수문자_일반주서
 62
     0
370
    -2
100
AcDbLine
 10
31.75
 20
3.028116463846026
 30
0.0
 11
31.75
 21
50.55603540682043
 31
0.0
  0
LINE
  5
FC
330
F8
100
AcDbEntity
  8
치수문자_일반주서
 62
     0
370
    -2
100
AcDbLine
 10
-31.75
 20
2.602500000000001
 30
0.0
 11
-31.75
 21
50.55603540682043
 31
0.0
  0
LINE
  5
FD
330
F8
100
AcDbEntity
  8
치수문자_일반주서
 62
     0
370
    -2
100
AcDbLine
 10
28.448
 20
50.55603540682043
 30
0.0
 11
-28.448
 21
50.55603540682043
 31
0.0
  0
SOLID
  5
FE
330
F8
100
AcDbEntity
  8
치수문자_일반주서
 62
     0
100
AcDbTrace
 10
28.448
 20
50.0057020734871
 30
0.0
 11
28.448
 21
51.10636874015377
 31
0.0
 12
31.75
 22
50.55603540682043
 32
0.0
 13
31.75
 23
50.55603540682043
 33
0.0
  0
SOLID
  5
FF
330
F8
100
AcDbEntity
  8
치수문자_일반주서
 62
     0
100
AcDbTrace
 10
-28.448
 20
51.10636874015377
 30
0.0
 11
-28.448
 21
50.0057020734871
 31
0.0
 12
-31.75
 22
50.55603540682043
 32
0.0
 13
-31.75
 23
50.55603540682043
 33
0.0
  0
MTEXT
  5
100
330
F8
100
AcDbEntity
  8
치수문자_일반주서
 62
     0
100
AcDbMText
 10
-1.620199429023449
 20
54.93103540682043
 30
0.0
 40
3.5
 41
0.0
 71
     2
 72
     1
  1
\A1;63.5 [2 1/2]
  7
SLDTEXTSTYLE0
 73
     1
 44
1.0
  0
POINT
  5
101
330
F8
100
AcDbEntity
  8
Defpoints
 62
     0
100
AcDbPoint
 10
31.75
 20
2.965616463846026
 30
0.0
  0
POINT
  5
102
330
F8
100
AcDbEntity
  8
Defpoints
 62
     0
100
AcDbPoint
 10
-31.75
 20
2.540000000000001
 30
0.0
  0
POINT
  5
103
330
F8
100
AcDbEntity
  8
Defpoints
 62
     0
100
AcDbPoint
 10
-31.75
 20
50.55603540682043
 30
0.0
  0
ENDBLK
  5
FA
330
F8
100
AcDbEntity
  8
0
100
AcDbBlockEnd
  0
BLOCK
  5
10C
330
10B
100
AcDbEntity
  8
0
100
AcDbBlockBegin
  2
_D_3
 70
     0
 10
0.0
 20
0.0
 30
0.0
  3
_D_3
  1
_D_3
  0
LINE
  5
10E
330
10B
100
AcDbEntity
  8
치수문자_일반주서
 62
     0
370
    -2
100
AcDbLine
 10
-17.37192116787305
 20
3.175000000000002
 30
0.0
 11
-40.97769989293594
 21
3.174999999999915
 31
0.0
  0
LINE
  5
10F
330
10B
100
AcDbEntity
  8
치수문자_일반주서
 62
     0
370
    -2
100
AcDbLine
 10
-17.37192116787305
 20
-3.175000000000018
 30
0.0
 11
-40.97769989293592
 21
-3.175000000000107
 31
0.0
  0
LINE
  5
110
330
10B
100
AcDbEntity
  8
치수문자_일반주서
 62
     0
370
    -2
100
AcDbLine
 10
-40.97769989293594
 20
3.174999999999915
 30
0.0
 11
-40.97769989293604
 21
35.81024999999998
 31
0.0
  0
LINE
  5
111
330
10B
100
AcDbEntity
  8
치수문자_일반주서
 62
     0
370
    -2
100
AcDbLine
 10
-40.97769989293594
 20
3.174999999999915
 30
0.0
 11
-40.97769989293592
 21
-3.175000000000107
 31
0.0
  0
LINE
  5
112
330
10B
100
AcDbEntity
  8
치수문자_일반주서
 62
     0
370
    -2
100
AcDbLine
 10
-40.97769989293595
 20
6.476999999999915
 30
0.0
 11
-40.97769989293597
 21
9.778999999999915
 31
0.0
  0
LINE
  5
113
330
10B
100
AcDbEntity
  8
치수문자_일반주서
 62
     0
370
    -2
100
AcDbLine
 10
-40.9776998929359
 20
-6.477000000000107
 30
0.0
 11
-40.97769989293589
 21
-9.779000000000106
 31
0.0
  0
SOLID
  5
114
330
10B
100
AcDbEntity
  8
치수문자_일반주서
 62
     0
100
AcDbTrace
 10
-41.52803322626929
 20
6.476999999999913
 30
0.0
 11
-40.42736655960262
 21
6.476999999999917
 31
0.0
 12
-40.97769989293594
 22
3.174999999999915
 32
0.0
 13
-40.97769989293594
 23
3.174999999999915
 33
0.0
  0
SOLID
  5
115
330
10B
100
AcDbEntity
  8
치수문자_일반주서
 62
     0
100
AcDbTrace
 10
-40.42736655960257
 20
-6.477000000000105
 30
0.0
 11
-41.52803322626924
 21
-6.477000000000109
 31
0.0
 12
-40.97769989293592
 22
-3.175000000000107
 32
0.0
 13
-40.97769989293592
 23
-3.175000000000107
 33
0.0
  0
MTEXT
  5
116
330
10B
100
AcDbEntity
  8
치수문자_일반주서
 62
     0
100
AcDbMText
 10
-45.352699892936
 20
23.12274999999996
 30
0.0
 40
3.5
 41
0.0
 71
     2
 72
     1
  1
\A1;%%c6.35 [1/4]
  7
SLDTEXTSTYLE0
 11
-3.356894814614636E-15
 21
1.0
 31
0.0
 73
     1
 44
1.0
  0
POINT
  5
2BE
330
10B
100
AcDbEntity
  8
Defpoints
 62
     0
100
AcDbPoint
 10
-17.30942116787305
 20
3.175000000000002
 30
0.0
  0
POINT
  5
2BF
330
10B
100
AcDbEntity
  8
Defpoints
 62
     0
100
AcDbPoint
 10
-17.30942116787305
 20
-3.175000000000018
 30
0.0
  0
POINT
  5
2C0
330
10B
100
AcDbEntity
  8
Defpoints
 62
     0
100
AcDbPoint
 10
-40.97769989293592
 20
-3.175000000000106
 30
0.0
  0
ENDBLK
  5
10D
330
10B
100
AcDbEntity
  8
0
100
AcDbBlockEnd
  0
BLOCK
  5
126
330
125
100
AcDbEntity
  8
0
100
AcDbBlockBegin
  2
SW_DOWELSYMBOL_0
 70
     0
 10
0.0
 20
0.0
 30
0.0
  3
SW_DOWELSYMBOL_0
  1
SW_DOWELSYMBOL_0
  0
CIRCLE
  5
128
330
125
100
AcDbEntity
  8
해칭선
 62
     0
100
AcDbCircle
 10
0.0
 20
0.0
 30
0.0
 40
3.000000000000005
  0
HATCH
  5
129
330
125
100
AcDbEntity
  8
0
  6
Continuous
 62
     0
370
     0
100
AcDbHatch
 10
0.0
 20
0.0
 30
0.0
210
0.0
220
0.0
230
1.0
  2
SOLID
 70
     1
 71
     0
 91
        1
 92
        0
 93
        3
 72
     2
 10
0.0
 20
0.0
 40
3.000000000000005
 50
0.0
 51
90.0
 73
     1
 72
     1
 10
0.0
 20
3.000000000000005
 11
0.0
 21
0.0
 72
     1
 10
0.0
 20
0.0
 11
3.000000000000004
 21
0.0
 97
        0
 75
     0
 76
     1
 98
        1
 10
0.0
 20
0.0
  0
HATCH
  5
12A
330
125
100
AcDbEntity
  8
0
  6
Continuous
 62
     0
370
     0
100
AcDbHatch
 10
0.0
 20
0.0
 30
0.0
210
0.0
220
0.0
230
1.0
  2
SOLID
 70
     1
 71
     0
 91
        1
 92
        0
 93
        3
 72
     2
 10
0.0
 20
0.0
 40
3.000000000000005
 50
180.0
 51
270.0000000000007
 73
     1
 72
     1
 10
0.0
 20
-3.000000000000005
 11
0.0
 21
0.0
 72
     1
 10
0.0
 20
0.0
 11
-3.000000000000004
 21
0.0
 97
        0
 75
     0
 76
     1
 98
        1
 10
0.0
 20
0.0
  0
ENDBLK
  5
127
330
125
100
AcDbEntity
  8
0
100
AcDbBlockEnd
  0
BLOCK
  5
1E8
330
1E7
100
AcDbEntity
  8
0
100
AcDbBlockBegin
  2
_D_4
 70
     0
 10
0.0
 20
0.0
 30
0.0
  3
_D_4
  1
_D_4
  0
LINE
  5
1E9
330
1E7
100
AcDbEntity
  8
치수문자_일반주서
 62
     0
370
    -2
100
AcDbLine
 10
102.4375000000001
 20
36.22143424691529
 30
0.0
 11
117.3750000000001
 21
36.22143424691535
 31
0.0
  0
LINE
  5
1EA
330
1E7
100
AcDbEntity
  8
치수문자_일반주서
 62
     0
370
    -2
100
AcDbLine
 10
102.4375000000001
 20
22.22143424691529
 30
0.0
 11
117.3750000000001
 21
22.22143424691535
 31
0.0
  0
LINE
  5
1EB
330
1E7
100
AcDbEntity
  8
치수문자_일반주서
 62
     0
370
    -2
100
AcDbLine
 10
117.3750000000001
 20
36.22143424691535
 30
0.0
 11
117.3750000000001
 21
22.22143424691535
 31
0.0
  0
LINE
  5
1EC
330
1E7
100
AcDbEntity
  8
치수문자_일반주서
 62
     0
370
    -2
100
AcDbLine
 10
117.3750000000001
 20
39.52343424691535
 30
0.0
 11
117.375
 21
42.82543424691535
 31
0.0
  0
LINE
  5
1ED
330
1E7
100
AcDbEntity
  8
치수문자_일반주서
 62
     0
370
    -2
100
AcDbLine
 10
117.3750000000001
 20
18.91943424691535
 30
0.0
 11
117.3750000000001
 21
15.61743424691535
 31
0.0
  0
SOLID
  5
1EE
330
1E7
100
AcDbEntity
  8
치수문자_일반주서
 62
     0
100
AcDbTrace
 10
116.8246666666667
 20
39.52343424691535
 30
0.0
 11
117.9253333333334
 21
39.52343424691535
 31
0.0
 12
117.3750000000001
 22
36.22143424691535
 32
0.0
 13
117.3750000000001
 23
36.22143424691535
 33
0.0
  0
SOLID
  5
1EF
330
1E7
100
AcDbEntity
  8
치수문자_일반주서
 62
     0
100
AcDbTrace
 10
117.9253333333335
 20
18.91943424691535
 30
0.0
 11
116.8246666666668
 21
18.91943424691535
 31
0.0
 12
117.3750000000001
 22
22.22143424691535
 32
0.0
 13
117.3750000000001
 23
22.22143424691535
 33
0.0
  0
MTEXT
  5
1F0
330
1E7
100
AcDbEntity
  8
치수문자_일반주서
 62
     0
100
AcDbMText
 10
113.0000000000001
 20
29.28713862862833
 30
0.0
 40
3.5
 41
0.0
 71
     2
 72
     1
  1
\A1;%%c14
  7
SLDTEXTSTYLE0
 11
-3.045183153257572E-15
 21
1.0
 31
0.0
 73
     1
 44
1.0
  0
POINT
  5
1F1
330
1E7
100
AcDbEntity
  8
Defpoints
 62
     0
100
AcDbPoint
 10
102.3750000000001
 20
36.22143424691529
 30
0.0
  0
POINT
  5
1F2
330
1E7
100
AcDbEntity
  8
Defpoints
 62
     0
100
AcDbPoint
 10
102.3750000000001
 20
22.22143424691529
 30
0.0
  0
POINT
  5
1F3
330
1E7
100
AcDbEntity
  8
Defpoints
 62
     0
100
AcDbPoint
 10
117.3750000000001
 20
22.22143424691535
 30
0.0
  0
ENDBLK
  5
1F4
330
1E7
100
AcDbEntity
  8
0
100
AcDbBlockEnd
  0
BLOCK
  5
202
330
201
100
AcDbEntity
  8
0
100
AcDbBlockBegin
  2
*D8
 70
     1
 10
0.0
 20
0.0
 30
0.0
  3
*D8
  1
*D8
  0
LINE
  5
203
330
201
100
AcDbEntity
  8
치수문자_일반주서
 62
     0
370
    -2
100
AcDbLine
 10
103.8657751816695
 20
19.48229575403651
 30
0.0
 11
120.1921280501954
 21
-7.081888143622854
 31
0.0
  0
MTEXT
  5
204
330
201
100
AcDbEntity
  8
치수문자_일반주서
 62
     0
100
AcDbMText
 10
115.6706384014277
 20
5.288158154535728
 30
0.0
 40
3.5
 41
0.0
 71
     5
 72
     1
  1
\A1;R.50 [R0.02]
  7
SLDTEXTSTYLE0
 11
0.5236126201129557
 21
-0.8519564684057781
 31
0.0
 73
     1
 44
1.0
  0
SOLID
  5
205
330
201
100
AcDbEntity
  8
치수문자_일반주서
 62
     0
100
AcDbTrace
 10
104.3346352247821
 20
19.77045723263868
 30
0.0
 11
103.3969151385569
 21
19.19413427543435
 31
0.0
 12
102.1368063100565
 22
22.29545601271239
 32
0.0
 13
102.1368063100565
 23
22.29545601271239
 33
0.0
  0
LINE
  5
206
330
201
100
AcDbEntity
  8
치수문자_일반주서
 62
     0
100
AcDbLine
 10
101.785
 20
22.72143424691529
 30
0.0
 11
101.965
 21
22.72143424691529
 31
0.0
  0
LINE
  5
207
330
201
100
AcDbEntity
  8
치수문자_일반주서
 62
     0
100
AcDbLine
 10
101.875
 20
22.63143424691529
 30
0.0
 11
101.875
 21
22.81143424691529
 31
0.0
  0
POINT
  5
233
330
201
100
AcDbEntity
  8
Defpoints
 62
     0
100
AcDbPoint
 10
102.1368063100565
 20
22.29545601271239
 30
0.0
  0
POINT
  5
234
330
201
100
AcDbEntity
  8
Defpoints
 62
     0
100
AcDbPoint
 10
101.875
 20
22.72143424691529
 30
0.0
  0
ENDBLK
  5
208
330
201
100
AcDbEntity
  8
0
100
AcDbBlockEnd
  0
BLOCK
  5
20E
330
20D
100
AcDbEntity
  8
0
100
AcDbBlockBegin
  2
*D9
 70
     1
 10
0.0
 20
0.0
 30
0.0
  3
*D9
  1
*D10
  0
LINE
  5
210
330
20D
100
AcDbEntity
  8
치수문자_일반주서
 62
     0
370
    -2
100
AcDbLine
 10
19.37500000000004
 20
35.78393424691529
 30
0.0
 11
19.37500000000004
 21
70.88391841499404
 31
0.0
  0
LINE
  5
211
330
20D
100
AcDbEntity
  8
치수문자_일반주서
 62
     0
370
    -2
100
AcDbLine
 10
102.3750000000001
 20
36.34643424691529
 30
0.0
 11
102.3750000000001
 21
70.88391841499404
 31
0.0
  0
LINE
  5
212
330
20D
100
AcDbEntity
  8
치수문자_일반주서
 62
     0
370
    -2
100
AcDbLine
 10
22.67700000000004
 20
70.88391841499404
 30
0.0
 11
99.07300000000006
 21
70.88391841499404
 31
0.0
  0
SOLID
  5
213
330
20D
100
AcDbEntity
  8
치수문자_일반주서
 62
     0
100
AcDbTrace
 10
22.67700000000004
 20
71.43425174832737
 30
0.0
 11
22.67700000000004
 21
70.33358508166071
 31
0.0
 12
19.37500000000004
 22
70.88391841499404
 32
0.0
 13
19.37500000000004
 23
70.88391841499404
 33
0.0
  0
SOLID
  5
214
330
20D
100
AcDbEntity
  8
치수문자_일반주서
 62
     0
100
AcDbTrace
 10
99.07300000000006
 20
70.33358508166071
 30
0.0
 11
99.07300000000006
 21
71.43425174832737
 31
0.0
 12
102.3750000000001
 22
70.88391841499404
 32
0.0
 13
102.3750000000001
 23
70.88391841499404
 33
0.0
  0
MTEXT
  5
215
330
20D
100
AcDbEntity
  8
치수문자_일반주서
 62
     0
100
AcDbMText
 10
60.87500000000005
 20
75.25891841499404
 30
0.0
 40
3.5
 41
0.0
 71
     2
 72
     1
  1
\A1;83 [3.27]
  7
SLDTEXTSTYLE0
 73
     1
 44
1.0
  0
POINT
  5
216
330
20D
100
AcDbEntity
  8
Defpoints
 62
     0
100
AcDbPoint
 10
19.37500000000004
 20
35.72143424691529
 30
0.0
  0
POINT
  5
217
330
20D
100
AcDbEntity
  8
Defpoints
 62
     0
100
AcDbPoint
 10
102.3750000000001
 20
36.28393424691529
 30
0.0
  0
POINT
  5
218
330
20D
100
AcDbEntity
  8
Defpoints
 62
     0
100
AcDbPoint
 10
102.3750000000001
 20
70.88391841499404
 30
0.0
  0
ENDBLK
  5
20F
330
20D
100
AcDbEntity
  8
0
100
AcDbBlockEnd
  0
BLOCK
  5
21A
330
219
100
AcDbEntity
  8
0
100
AcDbBlockBegin
  2
*D10
 70
     1
 10
0.0
 20
0.0
 30
0.0
  3
*D10
  1
*D11
  0
LINE
  5
21C
330
219
100
AcDbEntity
  8
치수문자_일반주서
 62
     0
370
    -2
100
AcDbLine
 10
76.37504186422882
 20
28.62038676313042
 30
0.0
 11
76.37504186422882
 21
61.90091383617725
 31
0.0
  0
LINE
  5
21D
330
219
100
AcDbEntity
  8
치수문자_일반주서
 62
     0
370
    -2
100
AcDbLine
 10
102.3750000000001
 20
36.28393424691529
 30
0.0
 11
102.3750000000001
 21
61.90091383617725
 31
0.0
  0
LINE
  5
21E
330
219
100
AcDbEntity
  8
치수문자_일반주서
 62
     0
370
    -2
100
AcDbLine
 10
79.67704186422881
 20
61.90091383617725
 30
0.0
 11
99.07300000000006
 21
61.90091383617725
 31
0.0
  0
SOLID
  5
21F
330
219
100
AcDbEntity
  8
치수문자_일반주서
 62
     0
100
AcDbTrace
 10
79.67704186422881
 20
62.45124716951059
 30
0.0
 11
79.67704186422881
 21
61.35058050284392
 31
0.0
 12
76.37504186422882
 22
61.90091383617725
 32
0.0
 13
76.37504186422882
 23
61.90091383617725
 33
0.0
  0
SOLID
  5
220
330
219
100
AcDbEntity
  8
치수문자_일반주서
 62
     0
100
AcDbTrace
 10
99.07300000000006
 20
61.35058050284392
 30
0.0
 11
99.07300000000006
 21
62.45124716951059
 31
0.0
 12
102.3750000000001
 22
61.90091383617725
 32
0.0
 13
102.3750000000001
 23
61.90091383617725
 33
0.0
  0
MTEXT
  5
221
330
219
100
AcDbEntity
  8
치수문자_일반주서
 62
     0
100
AcDbMText
 10
89.42159572693208
 20
66.27591383617725
 30
0.0
 40
3.5
 41
0.0
 71
     2
 72
     1
  1
\A1;26 [1.02]
  7
SLDTEXTSTYLE0
 73
     1
 44
1.0
  0
POINT
  5
222
330
219
100
AcDbEntity
  8
Defpoints
 62
     0
100
AcDbPoint
 10
76.37504186422882
 20
28.55788676313042
 30
0.0
  0
POINT
  5
223
330
219
100
AcDbEntity
  8
Defpoints
 62
     0
100
AcDbPoint
 10
102.3750000000001
 20
36.22143424691529
 30
0.0
  0
POINT
  5
224
330
219
100
AcDbEntity
  8
Defpoints
 62
     0
100
AcDbPoint
 10
102.3750000000001
 20
61.90091383617725
 30
0.0
  0
ENDBLK
  5
21B
330
219
100
AcDbEntity
  8
0
100
AcDbBlockEnd
  0
BLOCK
  5
226
330
225
100
AcDbEntity
  8
0
100
AcDbBlockBegin
  2
*D11
 70
     1
 10
0.0
 20
0.0
 30
0.0
  3
*D11
  1
*D12
  0
LINE
  5
228
330
225
100
AcDbEntity
  8
치수문자_일반주서
 62
     0
370
    -2
100
AcDbLine
 10
19.81250000000005
 20
36.22143424691529
 30
0.0
 11
4.374999999999983
 21
36.22143424691524
 31
0.0
  0
LINE
  5
229
330
225
100
AcDbEntity
  8
치수문자_일반주서
 62
     0
370
    -2
100
AcDbLine
 10
19.81250000000005
 20
22.22143424691529
 30
0.0
 11
4.375000000000032
 21
22.22143424691524
 31
0.0
  0
LINE
  5
22A
330
225
100
AcDbEntity
  8
치수문자_일반주서
 62
     0
370
    -2
100
AcDbLine
 10
4.374999999999983
 20
36.22143424691524
 30
0.0
 11
4.375000000000032
 21
22.22143424691524
 31
0.0
  0
LINE
  5
22B
330
225
100
AcDbEntity
  8
치수문자_일반주서
 62
     0
370
    -2
100
AcDbLine
 10
4.374999999999972
 20
39.52343424691524
 30
0.0
 11
4.37499999999996
 21
42.82543424691524
 31
0.0
  0
LINE
  5
22C
330
225
100
AcDbEntity
  8
치수문자_일반주서
 62
     0
370
    -2
100
AcDbLine
 10
4.375000000000044
 20
18.91943424691524
 30
0.0
 11
4.375000000000055
 21
15.61743424691524
 31
0.0
  0
SOLID
  5
22D
330
225
100
AcDbEntity
  8
치수문자_일반주서
 62
     0
100
AcDbTrace
 10
3.824666666666638
 20
39.52343424691524
 30
0.0
 11
4.925333333333305
 21
39.52343424691524
 31
0.0
 12
4.374999999999983
 22
36.22143424691524
 32
0.0
 13
4.374999999999983
 23
36.22143424691524
 33
0.0
  0
SOLID
  5
22E
330
225
100
AcDbEntity
  8
치수문자_일반주서
 62
     0
100
AcDbTrace
 10
4.925333333333377
 20
18.91943424691524
 30
0.0
 11
3.82466666666671
 21
18.91943424691523
 31
0.0
 12
4.375000000000032
 22
22.22143424691524
 32
0.0
 13
4.375000000000032
 23
22.22143424691524
 33
0.0
  0
MTEXT
  5
22F
330
225
100
AcDbEntity
  8
치수문자_일반주서
 62
     0
100
AcDbMText
 10
0.0000000000000071
 20
29.22143424691528
 30
0.0
 40
3.5
 41
0.0
 71
     2
 72
     1
  1
\A1;%%c14
  7
SLDTEXTSTYLE0
 11
-3.489272363107635E-15
 21
1.0
 31
0.0
 73
     1
 44
1.0
  0
POINT
  5
230
330
225
100
AcDbEntity
  8
Defpoints
 62
     0
100
AcDbPoint
 10
19.87500000000005
 20
36.22143424691529
 30
0.0
  0
POINT
  5
231
330
225
100
AcDbEntity
  8
Defpoints
 62
     0
100
AcDbPoint
 10
19.87500000000005
 20
22.22143424691529
 30
0.0
  0
POINT
  5
232
330
225
100
AcDbEntity
  8
Defpoints
 62
     0
100
AcDbPoint
 10
4.375000000000043
 20
22.22143424691524
 30
0.0
  0
ENDBLK
  5
227
330
225
100
AcDbEntity
  8
0
100
AcDbBlockEnd
  0
BLOCK
  5
281
330
280
100
AcDbEntity
  8
0
100
AcDbBlockBegin
  2
*D12
 70
     1
 10
0.0
 20
0.0
 30
0.0
  3
*D12
  1
*D13
  0
LINE
  5
283
330
280
100
AcDbEntity
  8
치수문자_일반주서
 62
     0
370
    -2
100
AcDbLine
 10
-50.89163646242804
 20
119.3972473323734
 30
0.0
 11
-50.89163646242804
 21
154.4972315004522
 31
0.0
  0
LINE
  5
284
330
280
100
AcDbEntity
  8
치수문자_일반주서
 62
     0
370
    -2
100
AcDbLine
 10
32.10836353757198
 20
119.9597473323734
 30
0.0
 11
32.10836353757198
 21
154.4972315004522
 31
0.0
  0
LINE
  5
285
330
280
100
AcDbEntity
  8
치수문자_일반주서
 62
     0
370
    -2
100
AcDbLine
 10
-47.58963646242804
 20
154.4972315004522
 30
0.0
 11
28.80636353757198
 21
154.4972315004522
 31
0.0
  0
SOLID
  5
286
330
280
100
AcDbEntity
  8
치수문자_일반주서
 62
     0
100
AcDbTrace
 10
-47.58963646242804
 20
155.0475648337855
 30
0.0
 11
-47.58963646242804
 21
153.9468981671189
 31
0.0
 12
-50.89163646242804
 22
154.4972315004522
 32
0.0
 13
-50.89163646242804
 23
154.4972315004522
 33
0.0
  0
SOLID
  5
287
330
280
100
AcDbEntity
  8
치수문자_일반주서
 62
     0
100
AcDbTrace
 10
28.80636353757198
 20
153.9468981671189
 30
0.0
 11
28.80636353757198
 21
155.0475648337855
 31
0.0
 12
32.10836353757198
 22
154.4972315004522
 32
0.0
 13
32.10836353757198
 23
154.4972315004522
 33
0.0
  0
MTEXT
  5
288
330
280
100
AcDbEntity
  8
치수문자_일반주서
 62
     0
100
AcDbMText
 10
-9.391636462428032
 20
158.8722315004522
 30
0.0
 40
3.5
 41
0.0
 71
     2
 72
     1
  1
\A1;83 [3.27]
  7
SLDTEXTSTYLE0
 73
     1
 44
1.0
  0
POINT
  5
289
330
280
100
AcDbEntity
  8
Defpoints
 62
     0
100
AcDbPoint
 10
-50.89163646242804
 20
119.3347473323734
 30
0.0
  0
POINT
  5
28A
330
280
100
AcDbEntity
  8
Defpoints
 62
     0
100
AcDbPoint
 10
32.10836353757198
 20
119.8972473323734
 30
0.0
  0
POINT
  5
28B
330
280
100
AcDbEntity
  8
Defpoints
 62
     0
100
AcDbPoint
 10
32.10836353757198
 20
154.4972315004522
 30
0.0
  0
ENDBLK
  5
282
330
280
100
AcDbEntity
  8
0
100
AcDbBlockEnd
  0
BLOCK
  5
28D
330
28C
100
AcDbEntity
  8
0
100
AcDbBlockBegin
  2
*D13
 70
     1
 10
0.0
 20
0.0
 30
0.0
  3
*D13
  1
*D14
  0
LINE
  5
28F
330
28C
100
AcDbEntity
  8
치수문자_일반주서
 62
     0
370
    -2
100
AcDbLine
 10
6.108405401800738
 20
112.2336998485886
 30
0.0
 11
6.108405401800738
 21
145.5142269216354
 31
0.0
  0
LINE
  5
290
330
28C
100
AcDbEntity
  8
치수문자_일반주서
 62
     0
370
    -2
100
AcDbLine
 10
32.10836353757198
 20
119.8972473323734
 30
0.0
 11
32.10836353757198
 21
145.5142269216354
 31
0.0
  0
LINE
  5
291
330
28C
100
AcDbEntity
  8
치수문자_일반주서
 62
     0
370
    -2
100
AcDbLine
 10
9.410405401800737
 20
145.5142269216354
 30
0.0
 11
28.80636353757198
 21
145.5142269216354
 31
0.0
  0
SOLID
  5
292
330
28C
100
AcDbEntity
  8
치수문자_일반주서
 62
     0
100
AcDbTrace
 10
9.410405401800737
 20
146.0645602549687
 30
0.0
 11
9.410405401800737
 21
144.9638935883021
 31
0.0
 12
6.108405401800738
 22
145.5142269216354
 32
0.0
 13
6.108405401800738
 23
145.5142269216354
 33
0.0
  0
SOLID
  5
293
330
28C
100
AcDbEntity
  8
치수문자_일반주서
 62
     0
100
AcDbTrace
 10
28.80636353757198
 20
144.9638935883021
 30
0.0
 11
28.80636353757198
 21
146.0645602549687
 31
0.0
 12
32.10836353757198
 22
145.5142269216354
 32
0.0
 13
32.10836353757198
 23
145.5142269216354
 33
0.0
  0
MTEXT
  5
294
330
28C
100
AcDbEntity
  8
치수문자_일반주서
 62
     0
100
AcDbMText
 10
19.154959264504
 20
149.8892269216354
 30
0.0
 40
3.5
 41
0.0
 71
     2
 72
     1
  1
\A1;26 [1.02]
  7
SLDTEXTSTYLE0
 73
     1
 44
1.0
  0
POINT
  5
295
330
28C
100
AcDbEntity
  8
Defpoints
 62
     0
100
AcDbPoint
 10
6.108405401800738
 20
112.1711998485886
 30
0.0
  0
POINT
  5
296
330
28C
100
AcDbEntity
  8
Defpoints
 62
     0
100
AcDbPoint
 10
32.10836353757198
 20
119.8347473323734
 30
0.0
  0
POINT
  5
297
330
28C
100
AcDbEntity
  8
Defpoints
 62
     0
100
AcDbPoint
 10
32.10836353757198
 20
145.5142269216354
 30
0.0
  0
ENDBLK
  5
28E
330
28C
100
AcDbEntity
  8
0
100
AcDbBlockEnd
  0
BLOCK
  5
299
330
298
100
AcDbEntity
  8
0
100
AcDbBlockBegin
  2
*D14
 70
     1
 10
0.0
 20
0.0
 30
0.0
  3
*D14
  1
*D15
  0
LINE
  5
29B
330
298
100
AcDbEntity
  8
치수문자_일반주서
 62
     0
370
    -2
100
AcDbLine
 10
-50.45413646242803
 20
119.8347473323734
 30
0.0
 11
-65.89163646242808
 21
119.8347473323734
 31
0.0
  0
LINE
  5
29C
330
298
100
AcDbEntity
  8
치수문자_일반주서
 62
     0
370
    -2
100
AcDbLine
 10
-50.45413646242803
 20
105.8347473323734
 30
0.0
 11
-65.89163646242804
 21
105.8347473323734
 31
0.0
  0
LINE
  5
29D
330
298
100
AcDbEntity
  8
치수문자_일반주서
 62
     0
370
    -2
100
AcDbLine
 10
-65.89163646242808
 20
119.8347473323734
 30
0.0
 11
-65.89163646242804
 21
105.8347473323734
 31
0.0
  0
LINE
  5
29E
330
298
100
AcDbEntity
  8
치수문자_일반주서
 62
     0
370
    -2
100
AcDbLine
 10
-65.8916364624281
 20
123.1367473323734
 30
0.0
 11
-65.89163646242811
 21
126.4387473323734
 31
0.0
  0
LINE
  5
29F
330
298
100
AcDbEntity
  8
치수문자_일반주서
 62
     0
370
    -2
100
AcDbLine
 10
-65.89163646242802
 20
102.5327473323734
 30
0.0
 11
-65.89163646242801
 21
99.23074733237337
 31
0.0
  0
SOLID
  5
2A0
330
298
100
AcDbEntity
  8
치수문자_일반주서
 62
     0
100
AcDbTrace
 10
-66.44196979576142
 20
123.1367473323734
 30
0.0
 11
-65.34130312909477
 21
123.1367473323734
 31
0.0
 12
-65.89163646242808
 22
119.8347473323734
 32
0.0
 13
-65.89163646242808
 23
119.8347473323734
 33
0.0
  0
SOLID
  5
2A1
330
298
100
AcDbEntity
  8
치수문자_일반주서
 62
     0
100
AcDbTrace
 10
-65.3413031290947
 20
102.5327473323734
 30
0.0
 11
-66.44196979576135
 21
102.5327473323734
 31
0.0
 12
-65.89163646242804
 22
105.8347473323734
 32
0.0
 13
-65.89163646242804
 23
105.8347473323734
 33
0.0
  0
MTEXT
  5
2A2
330
298
100
AcDbEntity
  8
치수문자_일반주서
 62
     0
100
AcDbMText
 10
-70.26663646242807
 20
112.8347473323734
 30
0.0
 40
3.5
 41
0.0
 71
     2
 72
     1
  1
\A1;%%c14
  7
SLDTEXTSTYLE0
 11
-3.045183153257572E-15
 21
1.0
 31
0.0
 73
     1
 44
1.0
  0
POINT
  5
2A3
330
298
100
AcDbEntity
  8
Defpoints
 62
     0
100
AcDbPoint
 10
-50.39163646242803
 20
119.8347473323734
 30
0.0
  0
POINT
  5
2A4
330
298
100
AcDbEntity
  8
Defpoints
 62
     0
100
AcDbPoint
 10
-50.39163646242803
 20
105.8347473323734
 30
0.0
  0
POINT
  5
2A5
330
298
100
AcDbEntity
  8
Defpoints
 62
     0
100
AcDbPoint
 10
-65.89163646242805
 20
105.8347473323734
 30
0.0
  0
ENDBLK
  5
29A
330
298
100
AcDbEntity
  8
0
100
AcDbBlockEnd
  0
BLOCK
  5
2A7
330
2A6
100
AcDbEntity
  8
0
100
AcDbBlockBegin
  2
*D15
 70
     1
 10
0.0
 20
0.0
 30
0.0
  3
*D15
  1
*D16
  0
LINE
  5
2A9
330
2A6
100
AcDbEntity
  8
치수문자_일반주서
 62
     0
370
    -2
100
AcDbLine
 10
32.17086353757199
 20
119.8347473323734
 30
0.0
 11
47.10836353757198
 21
119.8347473323735
 31
0.0
  0
LINE
  5
2AA
330
2A6
100
AcDbEntity
  8
치수문자_일반주서
 62
     0
370
    -2
100
AcDbLine
 10
32.17086353757198
 20
105.8347473323734
 30
0.0
 11
47.10836353757203
 21
105.8347473323735
 31
0.0
  0
LINE
  5
2AB
330
2A6
100
AcDbEntity
  8
치수문자_일반주서
 62
     0
370
    -2
100
AcDbLine
 10
47.10836353757198
 20
119.8347473323735
 30
0.0
 11
47.10836353757203
 21
105.8347473323735
 31
0.0
  0
LINE
  5
2AC
330
2A6
100
AcDbEntity
  8
치수문자_일반주서
 62
     0
370
    -2
100
AcDbLine
 10
47.10836353757197
 20
123.1367473323735
 30
0.0
 11
47.10836353757195
 21
126.4387473323735
 31
0.0
  0
LINE
  5
2AD
330
2A6
100
AcDbEntity
  8
치수문자_일반주서
 62
     0
370
    -2
100
AcDbLine
 10
47.10836353757205
 20
102.5327473323735
 30
0.0
 11
47.10836353757206
 21
99.23074733237348
 31
0.0
  0
SOLID
  5
2AE
330
2A6
100
AcDbEntity
  8
치수문자_일반주서
 62
     0
100
AcDbTrace
 10
46.55803020423863
 20
123.1367473323735
 30
0.0
 11
47.6586968709053
 21
123.1367473323735
 31
0.0
 12
47.10836353757198
 22
119.8347473323735
 32
0.0
 13
47.10836353757198
 23
119.8347473323735
 33
0.0
  0
SOLID
  5
2AF
330
2A6
100
AcDbEntity
  8
치수문자_일반주서
 62
     0
100
AcDbTrace
 10
47.65869687090538
 20
102.5327473323735
 30
0.0
 11
46.55803020423871
 21
102.5327473323735
 31
0.0
 12
47.10836353757203
 22
105.8347473323735
 32
0.0
 13
47.10836353757203
 23
105.8347473323735
 33
0.0
  0
MTEXT
  5
2B0
330
2A6
100
AcDbEntity
  8
치수문자_일반주서
 62
     0
100
AcDbMText
 10
42.733363537572
 20
112.9004517140865
 30
0.0
 40
3.5
 41
0.0
 71
     2
 72
     1
  1
\A1;%%c14
  7
SLDTEXTSTYLE0
 11
-3.552713678800501E-15
 21
1.0
 31
0.0
 73
     1
 44
1.0
  0
POINT
  5
2B1
330
2A6
100
AcDbEntity
  8
Defpoints
 62
     0
100
AcDbPoint
 10
32.10836353757199
 20
119.8347473323734
 30
0.0
  0
POINT
  5
2B2
330
2A6
100
AcDbEntity
  8
Defpoints
 62
     0
100
AcDbPoint
 10
32.10836353757198
 20
105.8347473323734
 30
0.0
  0
POINT
  5
2B3
330
2A6
100
AcDbEntity
  8
Defpoints
 62
     0
100
AcDbPoint
 10
47.10836353757203
 20
105.8347473323735
 30
0.0
  0
ENDBLK
  5
2A8
330
2A6
100
AcDbEntity
  8
0
100
AcDbBlockEnd
  0
BLOCK
  5
2B5
330
2B4
100
AcDbEntity
  8
0
100
AcDbBlockBegin
  2
*D16
 70
     1
 10
0.0
 20
0.0
 30
0.0
  3
*D16
  1
*D17
  0
LINE
  5
2B7
330
2B4
100
AcDbEntity
  8
치수문자_일반주서
 62
     0
370
    -2
100
AcDbLine
 10
33.59913871924142
 20
103.0956088394947
 30
0.0
 11
49.92549158776726
 21
76.53142494183528
 31
0.0
  0
MTEXT
  5
2B8
330
2B4
100
AcDbEntity
  8
치수문자_일반주서
 62
     0
100
AcDbMText
 10
45.4040019389996
 20
88.90147123999387
 30
0.0
 40
3.5
 41
0.0
 71
     5
 72
     1
  1
\A1;R.50 [R0.02]
  7
SLDTEXTSTYLE0
 11
0.5236126201129557
 21
-0.8519564684057781
 31
0.0
 73
     1
 44
1.0
  0
SOLID
  5
2B9
330
2B4
100
AcDbEntity
  8
치수문자_일반주서
 62
     0
100
AcDbTrace
 10
34.06799876235407
 20
103.3837703180968
 30
0.0
 11
33.13027867612877
 21
102.8074473608925
 31
0.0
 12
31.87016984762845
 22
105.9087690981705
 32
0.0
 13
31.87016984762845
 23
105.9087690981705
 33
0.0
  0
LINE
  5
2BA
330
2B4
100
AcDbEntity
  8
치수문자_일반주서
 62
     0
100
AcDbLine
 10
31.51836353757196
 20
106.3347473323734
 30
0.0
 11
31.69836353757196
 21
106.3347473323734
 31
0.0
  0
LINE
  5
2BB
330
2B4
100
AcDbEntity
  8
치수문자_일반주서
 62
     0
100
AcDbLine
 10
31.60836353757196
 20
106.2447473323734
 30
0.0
 11
31.60836353757196
 21
106.4247473323734
 31
0.0
  0
POINT
  5
2BC
330
2B4
100
AcDbEntity
  8
Defpoints
 62
     0
100
AcDbPoint
 10
31.87016984762845
 20
105.9087690981705
 30
0.0
  0
POINT
  5
2BD
330
2B4
100
AcDbEntity
  8
Defpoints
 62
     0
100
AcDbPoint
 10
31.60836353757196
 20
106.3347473323734
 30
0.0
  0
ENDBLK
  5
2B6
330
2B4
100
AcDbEntity
  8
0
100
AcDbBlockEnd
  0
BLOCK
  5
2EB
330
2EA
100
AcDbEntity
  8
0
100
AcDbBlockBegin
  2
*D17
 70
     1
 10
0.0
 20
0.0
 30
0.0
  3
*D17
  1
*D18
  0
LINE
  5
2ED
330
2EA
100
AcDbEntity
  8
치수문자_일반주서
 62
     0
370
    -2
100
AcDbLine
 10
165.0568607605568
 20
2.977637428723915
 30
0.0
 11
179.0063083202392
 21
2.977637428723966
 31
0.0
  0
LINE
  5
2EE
330
2EA
100
AcDbEntity
  8
치수문자_일반주서
 62
     0
370
    -2
100
AcDbLine
 10
165.0568607605568
 20
-2.975487571276087
 30
0.0
 11
179.0063083202393
 21
-2.975487571276037
 31
0.0
  0
LINE
  5
2EF
330
2EA
100
AcDbEntity
  8
치수문자_일반주서
 62
     0
370
    -2
100
AcDbLine
 10
179.0063083202392
 20
2.977637428723966
 30
0.0
 11
179.006308320239
 21
44.26395424918833
 31
0.0
  0
LINE
  5
2F0
330
2EA
100
AcDbEntity
  8
치수문자_일반주서
 62
     0
370
    -2
100
AcDbLine
 10
179.0063083202392
 20
2.977637428723966
 30
0.0
 11
179.0063083202393
 21
-2.975487571276037
 31
0.0
  0
LINE
  5
2F1
330
2EA
100
AcDbEntity
  8
치수문자_일반주서
 62
     0
370
    -2
100
AcDbLine
 10
179.0063083202392
 20
6.279637428723966
 30
0.0
 11
179.0063083202392
 21
9.581637428723965
 31
0.0
  0
LINE
  5
2F2
330
2EA
100
AcDbEntity
  8
치수문자_일반주서
 62
     0
370
    -2
100
AcDbLine
 10
179.0063083202393
 20
-6.277487571276037
 30
0.0
 11
179.0063083202393
 21
-9.579487571276037
 31
0.0
  0
SOLID
  5
2F3
330
2EA
100
AcDbEntity
  8
치수문자_일반주서
 62
     0
100
AcDbTrace
 10
178.4559749869059
 20
6.279637428723963
 30
0.0
 11
179.5566416535725
 21
6.279637428723968
 31
0.0
 12
179.0063083202392
 22
2.977637428723966
 32
0.0
 13
179.0063083202392
 23
2.977637428723966
 33
0.0
  0
SOLID
  5
2F4
330
2EA
100
AcDbEntity
  8
치수문자_일반주서
 62
     0
100
AcDbTrace
 10
179.5566416535726
 20
-6.277487571276034
 30
0.0
 11
178.455974986906
 21
-6.27748757127604
 31
0.0
 12
179.0063083202393
 22
-2.975487571276037
 32
0.0
 13
179.0063083202393
 23
-2.975487571276037
 33
0.0
  0
MTEXT
  5
2F5
330
2EA
100
AcDbEntity
  8
치수문자_일반주서
 62
     0
100
AcDbMText
 10
174.6313083202391
 20
30.92020424918831
 30
0.0
 40
3.5
 41
0.0
 71
     2
 72
     1
  1
\A1;%%c5.95 [0.23]
  7
SLDTEXTSTYLE0
 11
-4.774250403007496E-15
 21
1.0
 31
0.0
 73
     1
 44
1.0
  0
POINT
  5
2F6
330
2EA
100
AcDbEntity
  8
Defpoints
 62
     0
100
AcDbPoint
 10
164.9943607605568
 20
2.977637428723914
 30
0.0
  0
POINT
  5
2F7
330
2EA
100
AcDbEntity
  8
Defpoints
 62
     0
100
AcDbPoint
 10
164.9943607605568
 20
-2.975487571276087
 30
0.0
  0
POINT
  5
2F8
330
2EA
100
AcDbEntity
  8
Defpoints
 62
     0
100
AcDbPoint
 10
179.0063083202392
 20
-2.975487571276035
 30
0.0
  0
ENDBLK
  5
2EC
330
2EA
100
AcDbEntity
  8
0
100
AcDbBlockEnd
  0
BLOCK
  5
2FA
330
2F9
100
AcDbEntity
  8
0
100
AcDbBlockBegin
  2
*D18
 70
     1
 10
0.0
 20
0.0
 30
0.0
  3
*D18
  1
*D19
  0
LINE
  5
2FC
330
2F9
100
AcDbEntity
  8
치수문자_일반주서
 62
     0
370
    -2
100
AcDbLine
 10
164.9943607605568
 20
3.02919139256992
 30
0.0
 11
164.9943607605568
 21
33.59697644125642
 31
0.0
  0
LINE
  5
2FD
330
2F9
100
AcDbEntity
  8
치수문자_일반주서
 62
     0
370
    -2
100
AcDbLine
 10
152.2943607605568
 20
2.954572645421006
 30
0.0
 11
152.2943607605568
 21
33.59697644125642
 31
0.0
  0
LINE
  5
2FE
330
2F9
100
AcDbEntity
  8
치수문자_일반주서
 62
     0
370
    -2
100
AcDbLine
 10
152.2943607605568
 20
33.59697644125642
 30
0.0
 11
121.0640426429926
 21
33.59697644125642
 31
0.0
  0
LINE
  5
2FF
330
2F9
100
AcDbEntity
  8
치수문자_일반주서
 62
     0
370
    -2
100
AcDbLine
 10
164.9943607605568
 20
33.59697644125642
 30
0.0
 11
152.2943607605568
 21
33.59697644125642
 31
0.0
  0
LINE
  5
300
330
2F9
100
AcDbEntity
  8
치수문자_일반주서
 62
     0
370
    -2
100
AcDbLine
 10
168.2963607605568
 20
33.59697644125642
 30
0.0
 11
171.5983607605568
 21
33.59697644125642
 31
0.0
  0
LINE
  5
301
330
2F9
100
AcDbEntity
  8
치수문자_일반주서
 62
     0
370
    -2
100
AcDbLine
 10
148.9923607605568
 20
33.59697644125642
 30
0.0
 11
145.6903607605568
 21
33.59697644125642
 31
0.0
  0
SOLID
  5
302
330
2F9
100
AcDbEntity
  8
치수문자_일반주서
 62
     0
100
AcDbTrace
 10
168.2963607605568
 20
34.14730977458976
 30
0.0
 11
168.2963607605568
 21
33.04664310792309
 31
0.0
 12
164.9943607605568
 22
33.59697644125642
 32
0.0
 13
164.9943607605568
 23
33.59697644125642
 33
0.0
  0
SOLID
  5
303
330
2F9
100
AcDbEntity
  8
치수문자_일반주서
 62
     0
100
AcDbTrace
 10
148.9923607605568
 20
33.04664310792309
 30
0.0
 11
148.9923607605568
 21
34.14730977458976
 31
0.0
 12
152.2943607605568
 22
33.59697644125642
 32
0.0
 13
152.2943607605568
 23
33.59697644125642
 33
0.0
  0
MTEXT
  5
304
330
2F9
100
AcDbEntity
  8
치수문자_일반주서
 62
     0
100
AcDbMText
 10
132.4390426429926
 20
37.97197644125642
 30
0.0
 40
3.5
 41
0.0
 71
     2
 72
     1
  1
\A1;12.7 [0.50]
  7
SLDTEXTSTYLE0
 73
     1
 44
1.0
  0
POINT
  5
305
330
2F9
100
AcDbEntity
  8
Defpoints
 62
     0
100
AcDbPoint
 10
164.9943607605568
 20
2.96669139256992
 30
0.0
  0
POINT
  5
306
330
2F9
100
AcDbEntity
  8
Defpoints
 62
     0
100
AcDbPoint
 10
152.2943607605568
 20
2.892072645421006
 30
0.0
  0
POINT
  5
307
330
2F9
100
AcDbEntity
  8
Defpoints
 62
     0
100
AcDbPoint
 10
152.2943607605568
 20
33.59697644125642
 30
0.0
  0
ENDBLK
  5
2FB
330
2F9
100
AcDbEntity
  8
0
100
AcDbBlockEnd
  0
BLOCK
  5
309
330
308
100
AcDbEntity
  8
0
100
AcDbBlockBegin
  2
*D19
 70
     1
 10
0.0
 20
0.0
 30
0.0
  3
*D19
  1
*D20
  0
LINE
  5
30B
330
308
100
AcDbEntity
  8
치수문자_일반주서
 62
     0
370
    -2
100
AcDbLine
 10
164.9943607605568
 20
3.02919139256992
 30
0.0
 11
164.9943607605568
 21
50.55711033554433
 31
0.0
  0
LINE
  5
30C
330
308
100
AcDbEntity
  8
치수문자_일반주서
 62
     0
370
    -2
100
AcDbLine
 10
101.4943607605568
 20
2.603574928723895
 30
0.0
 11
101.4943607605568
 21
50.55711033554433
 31
0.0
  0
LINE
  5
30D
330
308
100
AcDbEntity
  8
치수문자_일반주서
 62
     0
370
    -2
100
AcDbLine
 10
161.6923607605568
 20
50.55711033554433
 30
0.0
 11
104.7963607605568
 21
50.55711033554433
 31
0.0
  0
SOLID
  5
30E
330
308
100
AcDbEntity
  8
치수문자_일반주서
 62
     0
100
AcDbTrace
 10
161.6923607605568
 20
50.006777002211
 30
0.0
 11
161.6923607605568
 21
51.10744366887766
 31
0.0
 12
164.9943607605568
 22
50.55711033554433
 32
0.0
 13
164.9943607605568
 23
50.55711033554433
 33
0.0
  0
SOLID
  5
30F
330
308
100
AcDbEntity
  8
치수문자_일반주서
 62
     0
100
AcDbTrace
 10
104.7963607605568
 20
51.10744366887766
 30
0.0
 11
104.7963607605568
 21
50.006777002211
 31
0.0
 12
101.4943607605568
 22
50.55711033554433
 32
0.0
 13
101.4943607605568
 23
50.55711033554433
 33
0.0
  0
MTEXT
  5
310
330
308
100
AcDbEntity
  8
치수문자_일반주서
 62
     0
100
AcDbMText
 10
131.6241613315333
 20
54.93211033554433
 30
0.0
 40
3.5
 41
0.0
 71
     2
 72
     1
  1
\A1;63.5 [2.50]
  7
SLDTEXTSTYLE0
 73
     1
 44
1.0
  0
POINT
  5
311
330
308
100
AcDbEntity
  8
Defpoints
 62
     0
100
AcDbPoint
 10
164.9943607605568
 20
2.96669139256992
 30
0.0
  0
POINT
  5
312
330
308
100
AcDbEntity
  8
Defpoints
 62
     0
100
AcDbPoint
 10
101.4943607605568
 20
2.541074928723895
 30
0.0
  0
POINT
  5
313
330
308
100
AcDbEntity
  8
Defpoints
 62
     0
100
AcDbPoint
 10
101.4943607605568
 20
50.55711033554433
 30
0.0
  0
ENDBLK
  5
30A
330
308
100
AcDbEntity
  8
0
100
AcDbBlockEnd
  0
ENDSEC
  0
SECTION
  2
ENTITIES
  0
LINE
  5
96
330
1F
100
AcDbEntity
  8
0
  6
Continuous
 62
     1
370
    15
100
AcDbLine
 10
25.90989428564279
 20
2.976562500000001
 30
0.0
 11
24.09460132452425
 21
2.976562500000001
 31
0.0
  0
LINE
  5
97
330
1F
100
AcDbEntity
  8
0
  6
Continuous
 62
     1
370
    15
100
AcDbLine
 10
24.09460132452422
 20
-2.976562500000001
 30
0.0
 11
25.90989428564279
 21
-2.976562500000001
 31
0.0
  0
LINE
  5
98
330
1F
100
AcDbEntity
  8
외형선
  6
Continuous
370
    15
100
AcDbLine
 10
17.30942116787303
 20
-3.175000000000006
 30
0.0
 11
18.05
 21
-2.976562500000001
 31
0.0
  0
LINE
  5
99
330
1F
100
AcDbEntity
  8
외형선
  6
Continuous
370
    15
100
AcDbLine
 10
18.05
 20
2.9765625
 30
0.0
 11
17.30942116787303
 21
3.175000000000006
 31
0.0
  0
LINE
  5
9A
330
1F
100
AcDbEntity
  8
외형선
  6
Continuous
370
    15
100
AcDbLine
 10
-17.30942116787305
 20
-3.175000000000003
 30
0.0
 11
17.30942116787303
 21
-3.175000000000003
 31
0.0
  0
LINE
  5
9B
330
1F
100
AcDbEntity
  8
외형선
  6
Continuous
370
    15
100
AcDbLine
 10
17.30942116787303
 20
3.175000000000002
 30
0.0
 11
-17.30942116787305
 21
3.175000000000002
 31
0.0
  0
LINE
  5
9E
330
1F
100
AcDbEntity
  8
외형선
  6
Continuous
370
    15
100
AcDbLine
 10
18.05
 20
-2.9765625
 30
0.0
 11
18.54985005561183
 21
-2.9765625
 31
0.0
  0
LINE
  5
9F
330
1F
100
AcDbEntity
  8
외형선
  6
Continuous
370
    15
100
AcDbLine
 10
18.54985005561183
 20
2.9765625
 30
0.0
 11
18.05
 21
2.9765625
 31
0.0
  0
SPLINE
  5
A0
330
1F
100
AcDbEntity
  8
0
  6
Continuous
 62
     1
370
    15
100
AcDbSpline
210
0.0
220
0.0
230
1.0
 70
     8
 71
     3
 72
    16
 73
    12
 74
     0
 42
0.000000001
 43
0.00000001
 40
0.0
 40
0.0
 40
0.0
 40
0.0
 40
0.1185011177410031
 40
0.2370076688574892
 40
0.3555406358485529
 40
0.4741208739884481
 40
0.5927670415202547
 40
0.711392360177181
 40
0.8231771047734947
 40
0.9348973630920745
 40
1.0
 40
1.0
 40
1.0
 40
1.0
 10
19.05
 20
-0.70855946712918
 30
0.0
 10
19.44489739372049
 20
-0.9264630426880033
 30
0.0
 10
20.23471028753765
 20
-1.362280184867065
 30
0.0
 10
21.41952833995769
 20
-1.934390680222328
 30
0.0
 10
22.6046688220557
 20
-2.407394015716897
 30
0.0
 10
23.79035509896432
 20
-2.753135582398899
 30
0.0
 10
24.97653532527542
 20
-2.953680368082786
 30
0.0
 10
26.14002824540579
 20
-2.999350731003701
 30
0.0
 10
27.28016395803181
 20
-2.891325347787002
 30
0.0
 10
28.24182173702619
 20
-2.700286512557598
 30
0.0
 10
28.83101520173653
 20
-2.500910386334792
 30
0.0
 10
29.04794439607205
 20
-2.427504102963145
 30
0.0
  0
SPLINE
  5
A1
330
1F
100
AcDbEntity
  8
외형선
  6
Continuous
370
    15
100
AcDbSpline
210
0.0
220
0.0
230
1.0
 70
    24
 71
     3
 72
    21
 73
    17
 74
     0
 42
0.000000001
 43
0.00000001
 40
0.0
 40
0.0
 40
0.0
 40
0.0
 40
0.1021941341887849
 40
0.1735318352457168
 40
0.2469383344660591
 40
0.3182760355229949
 40
0.3916825347433409
 40
0.463020235800277
 40
0.5364267350206239
 40
0.6077644360775594
 40
0.6811709352979053
 40
0.7525086363548403
 40
0.8259151355751858
 40
0.8972528366320904
 40
0.9706593358524672
 40
1.0
 40
1.0
 40
1.0
 40
1.0
 10
19.04999999999998
 20
2.469399372047481
 30
0.0
 10
19.05
 20
2.373296063516478
 30
0.0
 10
19.05000000000001
 20
2.210106819486455
 30
0.0
 10
19.04999999999998
 20
1.918802344470462
 30
0.0
 10
19.05000000000003
 20
1.643097140194473
 30
0.0
 10
19.05
 20
1.347768995056431
 30
0.0
 10
19.05000000000003
 20
1.047589273905678
 30
0.0
 10
19.04999999999999
 20
0.7453598634099377
 30
0.0
 10
19.04999999999999
 20
0.4551438624312732
 30
0.0
 10
19.05000000000005
 20
0.1799481128990347
 30
0.0
 10
19.04999999999997
 20
-0.0676164648922878
 30
0.0
 10
19.04999999999997
 20
-0.2844868784386169
 30
0.0
 10
19.05
 20
-0.4625316279860099
 30
0.0
 10
19.04999999999999
 20
-0.5927702279951222
 30
0.0
 10
19.04999999999998
 20
-0.6757668068552354
 30
0.0
 10
19.04999999999997
 20
-0.6816868475570637
 30
0.0
 10
19.04999999999997
 20
-0.6833773849916603
 30
0.0
  0
SPLINE
  5
A2
330
1F
100
AcDbEntity
  8
0
  6
Continuous
 62
     1
370
    15
100
AcDbSpline
210
0.0
220
0.0
230
1.0
 70
     8
 71
     3
 72
    38
 73
    34
 74
     0
 42
0.000000001
 43
0.00000001
 40
0.0
 40
0.0
 40
0.0
 40
0.0
 40
0.0625000000000012
 40
0.0625000000000012
 40
0.1250000000000011
 40
0.1250000000000011
 40
0.187500000000001
 40
0.187500000000001
 40
0.2500000000000009
 40
0.2500000000000009
 40
0.3125000000000009
 40
0.3125000000000009
 40
0.3750000000000008
 40
0.3750000000000008
 40
0.4375000000000007
 40
0.4375000000000007
 40
0.5000000000000007
 40
0.5000000000000007
 40
0.5625000000000006
 40
0.5625000000000006
 40
0.6250000000000006
 40
0.6250000000000006
 40
0.6875000000000004
 40
0.6875000000000004
 40
0.7500000000000003
 40
0.7500000000000003
 40
0.8125000000000003
 40
0.8125000000000003
 40
0.8750000000000002
 40
0.8750000000000002
 40
0.9375000000000002
 40
0.9375000000000002
 40
1.0
 40
1.0
 40
1.0
 40
1.0
 10
31.75
 20
-2.97656249999998
 30
0.0
 10
31.48766975551068
 20
-2.952564841311428
 30
0.0
 10
31.22134765065482
 20
-2.927727800294612
 30
0.0
 10
30.6900991636085
 20
-2.855073100698857
 30
0.0
 10
30.42782360612511
 20
-2.80747460533457
 30
0.0
 10
29.89922614289074
 20
-2.690330040220006
 30
0.0
 10
29.63232746416167
 20
-2.620650024573889
 30
0.0
 10
29.10277668616147
 20
-2.461503388266198
 30
0.0
 10
28.84108668294844
 20
-2.372231646939593
 30
0.0
 10
28.310221815858
 20
-2.174823898139792
 30
0.0
 10
28.04360894279031
 20
-2.066922583512035
 30
0.0
 10
27.51743554318855
 20
-1.836687741454764
 30
0.0
 10
27.25286390007507
 20
-1.713653786144007
 30
0.0
 10
26.72142525570663
 20
-1.454623639779329
 30
0.0
 10
26.45816974806378
 20
-1.319238481045581
 30
0.0
 10
25.93071585292834
 20
-1.03901245299119
 30
0.0
 10
25.66391544808534
 20
-0.8936822341635116
 30
0.0
 10
25.13360276046442
 20
-0.5976886561532695
 30
0.0
 10
24.87210320838507
 20
-0.4474335147771896
 30
0.0
 10
24.34181495826313
 20
-0.1432034908409338
 30
0.0
 10
24.07500923840756
 20
0.0103998139113489
 30
0.0
 10
23.54751026415401
 20
0.3151452329225641
 30
0.0
 10
23.2842974557017
 20
0.4667752979983744
 30
0.0
 10
22.75286234760163
 20
0.7661009326701745
 30
0.0
 10
22.48823367648443
 20
0.9131064180239482
 30
0.0
 10
21.96211222445089
 20
1.198220983535111
 30
0.0
 10
21.69550824613354
 20
1.33723573313253
 30
0.0
 10
21.16462597641528
 20
1.603175536754611
 30
0.0
 10
20.90292154220142
 20
1.729721374867686
 30
0.0
 10
20.37340220696169
 20
1.969165429538303
 30
0.0
 10
20.10650179951382
 20
2.081853361129682
 30
0.0
 10
19.57786617987566
 20
2.289198868160068
 30
0.0
 10
19.3156189412685
 20
2.383995959113857
 30
0.0
 10
19.04999999999997
 20
2.469399372047487
 30
0.0
  0
LINE
  5
A3
330
1F
100
AcDbEntity
  8
0
  6
Continuous
 62
     1
370
    15
100
AcDbLine
 10
31.75
 20
-2.695817141144055
 30
0.0
 11
31.75
 21
0.2550358911440918
 31
0.0
  0
SPLINE
  5
A4
330
1F
100
AcDbEntity
  8
0
  6
Continuous
 62
     1
370
    15
100
AcDbSpline
210
0.0
220
0.0
230
1.0
 70
     8
 71
     3
 72
    38
 73
    34
 74
     0
 42
0.000000001
 43
0.00000001
 40
0.0
 40
0.0
 40
0.0
 40
0.0
 40
0.0625
 40
0.0625
 40
0.125
 40
0.125
 40
0.1875
 40
0.1875
 40
0.25
 40
0.25
 40
0.3125
 40
0.3125
 40
0.375
 40
0.375
 40
0.4375
 40
0.4375
 40
0.5
 40
0.5
 40
0.5625
 40
0.5625
 40
0.625
 40
0.625
 40
0.6875
 40
0.6875
 40
0.75
 40
0.75
 40
0.8125
 40
0.8125
 40
0.875
 40
0.875
 40
0.9375
 40
0.9375
 40
1.0
 40
1.0
 40
1.0
 40
1.0
 10
31.74999999999999
 20
-2.695817141144056
 30
0.0
 10
31.48766975551062
 20
-2.631236531610301
 30
0.0
 10
31.2213476506548
 20
-2.555676437020789
 30
0.0
 10
30.69009916360853
 20
-2.385012924772364
 30
0.0
 10
30.42782360612513
 20
-2.290280304250262
 30
0.0
 10
29.89922614289073
 20
-2.083067210270333
 30
0.0
 10
29.63232746416168
 20
-1.970439254638975
 30
0.0
 10
29.10277668616146
 20
-1.731098436400289
 30
0.0
 10
28.84108668294844
 20
-1.6046032725391
 30
0.0
 10
28.31022181585798
 20
-1.338752361243801
 30
0.0
 10
28.04360894279033
 20
-1.199773417617727
 30
0.0
 10
27.51743554318855
 20
-0.9147108816242256
 30
0.0
 10
27.2528639000751
 20
-0.7677403870404261
 30
0.0
 10
26.72142525570664
 20
-0.468450197887065
 30
0.0
 10
26.45816974806374
 20
-0.3168233703419623
 30
0.0
 10
25.93071585292833
 20
-0.0120961416896663
 30
0.0
 10
25.66391544808534
 20
0.1415080643824611
 30
0.0
 10
25.13360276046446
 20
0.4457599613905597
 30
0.0
 10
24.87210320838516
 20
0.5960302381630375
 30
0.0
 10
24.34181495826317
 20
0.8920627830687552
 30
0.0
 10
24.07500923840757
 20
1.037422434478532
 30
0.0
 10
23.54751026415403
 20
1.317725022622777
 30
0.0
 10
23.28429745570171
 20
1.453143186735029
 30
0.0
 10
22.75286234760166
 20
1.712265386799101
 30
0.0
 10
22.48823367648446
 20
1.835359797352801
 30
0.0
 10
21.96211222445091
 20
2.065700460721886
 30
0.0
 10
21.69550824613357
 20
2.173663022445967
 30
0.0
 10
21.16462597641531
 20
2.371205801352538
 30
0.0
 10
20.90292154220146
 20
2.460549279458835
 30
0.0
 10
20.37340220696172
 20
2.619841036570121
 30
0.0
 10
20.10650179951385
 20
2.689599476571481
 30
0.0
 10
19.57786617987569
 20
2.806907078453775
 30
0.0
 10
19.3156189412685
 20
2.854586063511409
 30
0.0
 10
19.05
 20
2.890997716697112
 30
0.0
  0
SPLINE
  5
A5
330
1F
100
AcDbEntity
  8
0
  6
Continuous
 62
     1
370
    15
100
AcDbSpline
210
0.0
220
0.0
230
1.0
 70
     8
 71
     3
 72
    17
 73
    13
 74
     0
 42
0.000000001
 43
0.00000001
 40
0.0
 40
0.0
 40
0.0
 40
0.0
 40
0.1097880450508822
 40
0.2195161410630107
 40
0.3292034156234071
 40
0.4388691924228114
 40
0.5485328987233967
 40
0.658213971773374
 40
0.7616845824029455
 40
0.8652527770413382
 40
0.9687373178101607
 40
0.9999999999999999
 40
0.9999999999999999
 40
0.9999999999999999
 40
0.9999999999999999
 10
31.75
 20
0.2550358911440923
 30
0.0
 10
31.35455149781236
 20
0.4810606419322344
 30
0.0
 10
30.56387042548659
 20
0.9329867241823251
 30
0.0
 10
29.37827841282116
 20
1.558309439116027
 30
0.0
 10
28.193203571546
 20
2.10247552943595
 30
0.0
 10
27.0084076907369
 20
2.535664343229181
 30
0.0
 10
25.82364788994035
 20
2.835665008688206
 30
0.0
 10
24.66112296062452
 20
2.982949991247057
 30
0.0
 10
23.52060696815988
 20
2.982763642964919
 30
0.0
 10
22.40200067784575
 20
2.834828503095054
 30
0.0
 10
21.54374111745999
 20
2.642880509876686
 30
0.0
 10
21.05854855477459
 20
2.467726439988249
 30
0.0
 10
20.94597910395361
 20
2.427088971542172
 30
0.0
  0
LINE
  5
A6
330
1F
100
AcDbEntity
  8
0
  6
Continuous
 62
     1
370
    15
100
AcDbLine
 10
31.75
 20
-2.97656249999998
 30
0.0
 11
31.75
 21
-2.695817141144055
 31
0.0
  0
LINE
  5
A7
330
1F
100
AcDbEntity
  8
외형선
  6
Continuous
370
    15
100
AcDbLine
 10
19.04999999999997
 20
2.469399372047481
 30
0.0
 11
19.05
 21
2.890997716697112
 31
0.0
  0
SPLINE
  5
A8
330
1F
100
AcDbEntity
  8
0
  6
Continuous
 62
     1
370
    15
100
AcDbSpline
210
0.0
220
0.0
230
1.0
 70
     8
 71
     3
 72
    13
 73
     9
 74
     0
 42
0.000000001
 43
0.00000001
 40
0.0
 40
0.0
 40
0.0
 40
0.0
 40
0.0432933354945173
 40
0.2346534238542581
 40
0.4259031205872188
 40
0.6171434914956947
 40
0.8084756913694149
 40
0.9999999999999999
 40
0.9999999999999999
 40
0.9999999999999999
 40
0.9999999999999999
 10
25.90989428564279
 20
2.963387850464337
 30
0.0
 10
25.99419126089382
 20
2.967477102882658
 30
0.0
 10
26.45108777018951
 20
2.989641185876095
 30
0.0
 10
27.28015318417135
 20
2.88674230558953
 30
0.0
 10
28.39714337169005
 20
2.659566796459132
 30
0.0
 10
29.51405839613243
 20
2.294383978713364
 30
0.0
 10
30.63159578918673
 20
1.829218029444249
 30
0.0
 10
31.37707390836271
 20
1.451096368330808
 30
0.0
 10
31.74999999999999
 20
1.261940671315445
 30
0.0
  0
LINE
  5
A9
330
1F
100
AcDbEntity
  8
0
  6
Continuous
 62
     1
370
    15
100
AcDbLine
 10
31.75
 20
0.2550358911440923
 30
0.0
 11
31.75
 21
1.261940671315445
 31
0.0
  0
SPLINE
  5
AA
330
1F
100
AcDbEntity
  8
0
  6
Continuous
 62
     1
370
    15
100
AcDbSpline
210
0.0
220
0.0
230
1.0
 70
     8
 71
     3
 72
    12
 73
     8
 74
     0
 42
0.000000001
 43
0.00000001
 40
0.0
 40
0.0
 40
0.0
 40
0.0
 40
0.1137252460224673
 40
0.3355283879484173
 40
0.5571523755387169
 40
0.7786040221409063
 40
1.0
 40
1.0
 40
1.0
 40
1.0
 10
24.09460132452422
 20
-2.959103814131994
 30
0.0
 10
23.90337242965463
 20
-2.962281262814713
 30
0.0
 10
23.33918175899145
 20
-2.971655823623232
 30
0.0
 10
22.40198982531379
 20
-2.835781360465019
 30
0.0
 10
21.28395519464524
 20
-2.565798172169741
 30
0.0
 10
20.16676351412837
 20
-2.174222631588502
 30
0.0
 10
19.42222330690742
 20
-1.832675834007092
 30
0.0
 10
19.04999999999997
 20
-1.661923902511094
 30
0.0
  0
LINE
  5
AB
330
1F
100
AcDbEntity
  8
외형선
  6
Continuous
370
    15
100
AcDbLine
 10
19.04999999999997
 20
-1.6619239025111
 30
0.0
 11
19.05
 21
-0.7085594671291789
 31
0.0
  0
SPLINE
  5
AC
330
1F
100
AcDbEntity
  8
0
  6
Continuous
 62
     1
370
    15
100
AcDbSpline
210
0.0
220
0.0
230
1.0
 70
     8
 71
     3
 72
    10
 73
     6
 74
     0
 42
0.000000001
 43
0.00000001
 40
0.0
 40
0.0
 40
0.0
 40
0.0
 40
0.4390113514029709
 40
0.877782983549566
 40
0.9999999999999999
 40
0.9999999999999999
 40
0.9999999999999999
 40
0.9999999999999999
 10
31.75000000000001
 20
2.976562500000021
 30
0.0
 10
31.35455244959163
 20
2.929137035870875
 30
0.0
 10
30.56387328030475
 20
2.856198099271907
 30
0.0
 10
29.66322451148299
 20
2.651116540879571
 30
0.0
 10
29.15801037449392
 20
2.467505593585233
 30
0.0
 10
29.04794439607207
 20
2.427504102963145
 30
0.0
  0
LINE
  5
AD
330
1F
100
AcDbEntity
  8
0
  6
Continuous
 62
     1
370
    15
100
AcDbLine
 10
31.75
 20
1.247759695800063
 30
0.0
 11
31.75
 21
2.976562500000021
 31
0.0
  0
SPLINE
  5
AE
330
1F
100
AcDbEntity
  8
0
  6
Continuous
 62
     1
370
    15
100
AcDbSpline
210
0.0
220
0.0
230
1.0
 70
     8
 71
     3
 72
     9
 73
     5
 74
     0
 42
0.000000001
 43
0.00000001
 40
0.0
 40
0.0
 40
0.0
 40
0.0
 40
0.6248468300065672
 40
1.0
 40
1.0
 40
1.0
 40
1.0
 10
19.04999999999999
 20
-2.890997716697108
 30
0.0
 10
19.44489635157999
 20
-2.826368047083315
 30
0.0
 10
20.07688539692069
 20
-2.722935227214303
 30
0.0
 10
20.7088831452421
 20
-2.507798279470843
 30
0.0
 10
20.94597910395358
 20
-2.427088971542172
 30
0.0
  0
SPLINE
  5
AF
330
1F
100
AcDbEntity
  8
외형선
  6
Continuous
370
    15
100
AcDbSpline
210
0.0
220
0.0
230
1.0
 70
    24
 71
     3
 72
    12
 73
     8
 74
     0
 42
0.000000001
 43
0.00000001
 40
0.0
 40
0.0
 40
0.0
 40
0.0
 40
0.1448084127954546
 40
0.3790674359413396
 40
0.6201199866284964
 40
0.8083302220735604
 40
1.0
 40
1.0
 40
1.0
 40
1.0
 10
19.04999999999997
 20
-1.705703894475844
 30
0.0
 10
19.04999999999997
 20
-1.754225347135189
 30
0.0
 10
19.04999999999998
 20
-1.88124077595359
 30
0.0
 10
19.05
 20
-2.120296315484027
 30
0.0
 10
19.04999999999997
 20
-2.388890029911079
 30
0.0
 10
19.04999999999994
 20
-2.649513873926639
 30
0.0
 10
19.04999999999999
 20
-2.810015875357391
 30
0.0
 10
19.05
 20
-2.89099771669711
 30
0.0
  0
LINE
  5
B0
330
1F
100
AcDbEntity
  8
외형선
  6
Continuous
370
    15
100
AcDbLine
 10
18.05
 20
-0.0000000000000004
 30
0.0
 11
18.05
 21
2.9765625
 31
0.0
  0
LINE
  5
B1
330
1F
100
AcDbEntity
  8
외형선
  6
Continuous
370
    15
100
AcDbLine
 10
18.05
 20
-2.976562500000001
 30
0.0
 11
18.05
 21
-0.0000000000000004
 31
0.0
  0
LINE
  5
B2
330
1F
100
AcDbEntity
  8
외형선
  6
Continuous
370
    15
100
AcDbLine
 10
17.30942116787303
 20
-0.0000000000000004
 30
0.0
 11
17.30942116787303
 21
3.175000000000006
 31
0.0
  0
LINE
  5
B3
330
1F
100
AcDbEntity
  8
외형선
  6
Continuous
370
    15
100
AcDbLine
 10
17.30942116787303
 20
-3.175000000000006
 30
0.0
 11
17.30942116787303
 21
-0.0000000000000004
 31
0.0
  0
LINE
  5
B6
330
1F
100
AcDbEntity
  8
외형선
  6
Continuous
370
    15
100
AcDbLine
 10
-31.75
 20
-0.0000000000000004
 30
0.0
 11
-31.75
 21
2.540000000000001
 31
0.0
  0
LINE
  5
B7
330
1F
100
AcDbEntity
  8
외형선
  6
Continuous
370
    15
100
AcDbLine
 10
-31.75
 20
-2.540000000000002
 30
0.0
 11
-31.75
 21
-0.0000000000000004
 31
0.0
  0
LINE
  5
B8
330
1F
100
AcDbEntity
  8
외형선
  6
Continuous
370
    15
100
AcDbLine
 10
18.54985005561183
 20
2.945946590811102
 30
0.0
 11
18.54985005561183
 21
2.9765625
 31
0.0
  0
SPLINE
  5
B9
330
1F
100
AcDbEntity
  8
외형선
  6
Continuous
370
    15
100
AcDbSpline
210
0.0
220
0.0
230
1.0
 70
     8
 71
     3
 72
     8
 73
     4
 74
     0
 42
0.000000001
 43
0.00000001
 40
0.0
 40
0.0
 40
0.0
 40
0.0
 40
1.0
 40
1.0
 40
1.0
 40
1.0
 10
19.05
 20
2.890997716697112
 30
0.0
 10
18.88317920093927
 20
2.913865894134131
 30
0.0
 10
18.71607236467507
 20
2.932219464432998
 30
0.0
 10
18.54985005561183
 20
2.945946126292373
 30
0.0
  0
SPLINE
  5
BA
330
1F
100
AcDbEntity
  8
외형선
  6
Continuous
370
    15
100
AcDbSpline
210
0.0
220
0.0
230
1.0
 70
     8
 71
     3
 72
     8
 73
     4
 74
     0
 42
0.000000001
 43
0.00000001
 40
0.0
 40
0.0
 40
0.0
 40
0.0
 40
1.0
 40
1.0
 40
1.0
 40
1.0
 10
19.04999999999999
 20
2.469399372047487
 30
0.0
 10
18.88317920093927
 20
2.523036607103324
 30
0.0
 10
18.71607236467507
 20
2.572836908484895
 30
0.0
 10
18.54985005561183
 20
2.618465462306158
 30
0.0
  0
LINE
  5
BB
330
1F
100
AcDbEntity
  8
외형선
  6
Continuous
370
    15
100
AcDbLine
 10
18.54985005561183
 20
-0.4258203852503022
 30
0.0
 11
18.54985005561182
 21
2.618463061268628
 31
0.0
  0
SPLINE
  5
BC
330
1F
100
AcDbEntity
  8
외형선
  6
Continuous
370
    15
100
AcDbSpline
210
0.0
220
0.0
230
1.0
 70
     8
 71
     3
 72
     8
 73
     4
 74
     0
 42
0.000000001
 43
0.00000001
 40
0.0
 40
0.0
 40
0.0
 40
0.0
 40
1.0
 40
1.0
 40
1.0
 40
1.0
 10
19.05
 20
-0.7085594671291799
 30
0.0
 10
18.88317920093927
 20
-0.6152548796916433
 30
0.0
 10
18.71607236467507
 20
-0.5207878198580406
 30
0.0
 10
18.54985005561183
 20
-0.4258235989106852
 30
0.0
  0
SPLINE
  5
BD
330
1F
100
AcDbEntity
  8
외형선
  6
Continuous
370
    15
100
AcDbSpline
210
0.0
220
0.0
230
1.0
 70
     8
 71
     3
 72
     8
 73
     4
 74
     0
 42
0.000000001
 43
0.00000001
 40
0.0
 40
0.0
 40
0.0
 40
0.0
 40
1.0
 40
1.0
 40
1.0
 40
1.0
 10
19.04999999999999
 20
-1.661923902511094
 30
0.0
 10
18.88317920093927
 20
-1.58222605692074
 30
0.0
 10
18.71607236467507
 20
-1.499880389647805
 30
0.0
 10
18.54985005561183
 20
-1.415472691052718
 30
0.0
  0
LINE
  5
BE
330
1F
100
AcDbEntity
  8
외형선
  6
Continuous
370
    15
100
AcDbLine
 10
18.54985005561183
 20
-2.9765625
 30
0.0
 11
18.54985005561182
 21
-1.415477132693408
 31
0.0
  0
SPLINE
  5
BF
330
1F
100
AcDbEntity
  8
외형선
  6
Continuous
370
    15
100
AcDbSpline
210
0.0
220
0.0
230
1.0
 70
     8
 71
     3
 72
     8
 73
     4
 74
     0
 42
0.000000001
 43
0.00000001
 40
0.0
 40
0.0
 40
0.0
 40
0.0
 40
1.0
 40
1.0
 40
1.0
 40
1.0
 10
19.05
 20
-2.890997716697107
 30
0.0
 10
18.88317920093927
 20
-2.913865894134127
 30
0.0
 10
18.71607236467507
 20
-2.932219464432995
 30
0.0
 10
18.54985005561183
 20
-2.945946126292371
 30
0.0
  0
SPLINE
  5
C0
330
1F
100
AcDbEntity
  8
외형선
  6
Continuous
370
    15
100
AcDbSpline
210
0.0
220
0.0
230
1.0
 70
    24
 71
     3
 72
    21
 73
    17
 74
     0
 42
0.000000001
 43
0.00000001
 40
0.0
 40
0.0
 40
0.0
 40
0.0
 40
0.0415175009286359
 40
0.1129748371883289
 40
0.1865044410404121
 40
0.2579617773002256
 40
0.3314913811524415
 40
0.4029487174120473
 40
0.4764783212643457
 40
0.5479356575240997
 40
0.6214652613762508
 40
0.6929225976360003
 40
0.7664522014881462
 40
0.8379095377479125
 40
0.9114391416000763
 40
1.0
 40
1.0
 40
1.0
 40
1.0
 10
19.05
 20
-0.6770363708592403
 30
0.0
 10
19.05
 20
-0.6743272512614247
 30
0.0
 10
19.05
 20
-0.6669553637768432
 30
0.0
 10
19.04999999999997
 20
-0.5720167261599117
 30
0.0
 10
19.04999999999999
 20
-0.4347805567440294
 30
0.0
 10
19.05000000000003
 20
-0.2479430842871627
 30
0.0
 10
19.05000000000004
 20
-0.0268439231136163
 30
0.0
 10
19.04999999999993
 20
0.2280333267108823
 30
0.0
 10
19.05000000000001
 20
0.5044083601327892
 30
0.0
 10
19.04999999999998
 20
0.7995561755658743
 30
0.0
 10
19.05000000000003
 20
1.099796085816184
 30
0.0
 10
19.04999999999998
 20
1.401967902191163
 30
0.0
 10
19.05
 20
1.692356868995815
 30
0.0
 10
19.04999999999999
 20
1.96692648932734
 30
0.0
 10
19.05000000000006
 20
2.236602112801465
 30
0.0
 10
19.05000000000002
 20
2.387146762891762
 30
0.0
 10
19.05
 20
2.469399372047618
 30
0.0
  0
SPLINE
  5
C1
330
1F
100
AcDbEntity
  8
외형선
  6
Continuous
370
    15
100
AcDbSpline
210
0.0
220
0.0
230
1.0
 70
    24
 71
     3
 72
    12
 73
     8
 74
     0
 42
0.000000001
 43
0.00000001
 40
0.0
 40
0.0
 40
0.0
 40
0.0
 40
0.2102395507078697
 40
0.4253397549663065
 40
0.659620011437492
 40
0.9006944112176006
 40
1.0
 40
1.0
 40
1.0
 40
1.0
 10
19.05
 20
-2.890997716697108
 30
0.0
 10
19.04999999999999
 20
-2.802151567516159
 30
0.0
 10
19.04999999999998
 20
-2.622405182047358
 30
0.0
 10
19.05000000000003
 20
-2.346105076554309
 30
0.0
 10
19.04999999999999
 20
-2.069729867281159
 30
0.0
 10
19.04999999999999
 20
-1.850231436215764
 30
0.0
 10
19.05000000000001
 20
-1.738338553348482
 30
0.0
 10
19.05000000000001
 20
-1.705693894475844
 30
0.0
  0
LINE
  5
C2
330
1F
100
AcDbEntity
  8
중심선
 62
     1
100
AcDbLine
 10
-34.75000000000001
 20
-0.0000000000000043
 30
0.0
 11
34.75
 21
0.0000000000000043
 31
0.0
  0
LINE
  5
C3
330
1F
100
AcDbEntity
  8
참조1
100
AcDbLine
 10
-7.744119342984384
 20
0.0010749287238892
 30
0.0
 11
-7.744119342984377
 21
-39.99892507127611
 31
0.0
  0
LINE
  5
C4
330
1F
100
AcDbEntity
  8
참조1
100
AcDbLine
 10
-7.744119342984377
 20
-39.99892507127611
 30
0.0
 11
-29.25297615729306
 21
-39.9989250712761
 31
0.0
  0
CIRCLE
  5
C5
330
1F
100
AcDbEntity
  8
해칭선
100
AcDbCircle
 10
0.0
 20
-0.0000000000000001
 30
0.0
 40
3.000000000000005
  0
INSERT
  5
C6
330
1F
100
AcDbEntity
  8
0
  6
Continuous
 62
     7
100
AcDbBlockReference
 66
     1
  2
블럭10
 10
-12.98172751128209
 20
-27.34176068850644
 30
0.0
  0
ATTRIB
  5
C7
330
C6
100
AcDbEntity
  8
FORMAT
 62
     2
100
AcDbText
 10
-22.16302280002337
 20
-25.26639377567425
 30
0.0
 40
4.233333333333333
  1
E5023015 [ 4 FLUTE ]
 41
0.75
  7
SLDTEXTSTYLE0
 11
-22.16302280002337
 21
-27.38306044234092
 31
0.0
100
AcDbAttribute
  2
AUTOATTR0
 70
     0
 74
     1
  0
SEQEND
  5
C8
330
C6
100
AcDbEntity
  8
0
  6
Continuous
 62
     7
  0
HATCH
  5
C9
330
1F
100
AcDbEntity
  8
중심선
100
AcDbHatch
 10
0.0
 20
0.0
 30
0.0
210
0.0
220
0.0
230
1.0
  2
SOLID
 70
     1
 71
     0
 91
        1
 92
        0
 93
        4
 72
     1
 10
-7.266818206901256
 20
-11.0945863868625
 11
-10.71309345073854
 21
-11.0945863868625
 72
     1
 10
-10.71309345073854
 20
-11.0945863868625
 11
-12.84132330994256
 21
-13.6309119674351
 72
     1
 10
-12.84132330994256
 20
-13.6309119674351
 11
-9.39501498099213
 21
-13.63087253813261
 72
     1
 10
-9.39501498099213
 20
-13.63087253813261
 11
-7.266818206901256
 21
-11.0945863868625
 97
        0
 75
     0
 76
     1
 98
        1
 10
8.7026647638275
 20
24.7043386844136
  0
HATCH
  5
CA
330
1F
100
AcDbEntity
  8
중심선
100
AcDbHatch
 10
0.0
 20
0.0
 30
0.0
210
0.0
220
0.0
230
1.0
  2
SOLID
 70
     1
 71
     0
 91
        1
 92
        0
 93
        4
 72
     1
 10
-2.254054215865276
 20
-11.0945863868625
 11
-5.700329459702559
 21
-11.0945863868625
 72
     1
 10
-5.700329459702559
 20
-11.0945863868625
 11
-10.23146746805998
 21
-16.49458638686252
 72
     1
 10
-10.23146746805998
 20
-16.49458638686252
 11
-6.785192224222692
 21
-16.49458638686252
 72
     1
 10
-6.785192224222692
 20
-16.49458638686252
 11
-2.254054215865276
 21
-11.0945863868625
 97
        0
 75
     0
 76
     1
 98
        1
 10
8.7026647638275
 20
24.7043386844136
  0
HATCH
  5
CB
330
1F
100
AcDbEntity
  8
중심선
100
AcDbHatch
 10
0.0
 20
0.0
 30
0.0
210
0.0
220
0.0
230
1.0
  2
SOLID
 70
     1
 71
     0
 91
        1
 92
        0
 93
        4
 72
     1
 10
2.758709775170592
 20
-11.0945863868625
 11
-0.6875654686665236
 21
-11.0945863868625
 72
     1
 10
-0.6875654686665236
 20
-11.0945863868625
 11
-7.736002370555774
 21
-19.49458638686252
 72
     1
 10
-7.736002370555774
 20
-19.49458638686252
 11
-4.289727126718491
 21
-19.49458638686252
 72
     1
 10
-4.289727126718491
 20
-19.49458638686252
 11
2.758709775170592
 21
-11.0945863868625
 97
        0
 75
     0
 76
     1
 98
        1
 10
8.7026647638275
 20
24.7043386844136
  0
HATCH
  5
CC
330
1F
100
AcDbEntity
  8
중심선
100
AcDbHatch
 10
0.0
 20
0.0
 30
0.0
210
0.0
220
0.0
230
1.0
  2
SOLID
 70
     1
 71
     0
 91
        1
 92
        0
 93
        6
 72
     3
 10
7.558600206182791
 20
-15.29458638691378
 11
3.960054785062284
 21
1.540882976769353E-10
 40
0.3939339440162627
 50
17.09539180608436
 51
320.0019657685081
 73
     0
 72
     1
 10
9.241599861883387
 20
-13.88248039150081
 11
11.54690173558445
 21
-11.94815368145286
 72
     3
 10
7.558600206129944
 20
-15.29458638686265
 11
6.60005478528683
 21
-1.278976924368180E-13
 40
0.636358354079598
 50
39.99873849337413
 51
368.4976242363724
 73
     1
 72
     1
 10
13.98393269803055
 20
-14.33458638679253
 11
6.238667512965867
 21
-14.33458638679253
 72
     1
 10
6.238667512965867
 20
-14.33458638679253
 11
6.238642468519933
 21
-16.25458638679242
 72
     1
 10
6.238642468519933
 20
-16.25458638679242
 11
10.68002223799197
 21
-16.25458638679239
 97
        0
 75
     0
 76
     1
 98
        1
 10
8.7026647638275
 20
24.7043386844136
  0
DIMENSION
  5
CD
330
1F
100
AcDbEntity
  8
치수문자_일반주서
100
AcDbDimension
  2
_D
 10
45.76194755968242
 20
-2.976562499999932
 30
0.0
 11
45.7619475596823
 21
30.91912932046443
 31
0.0
 70
   160
  1
%%c<>
 71
     2
 42
5.953125000000002
 52
-270.0
  3
SLDDIMSTYLE0
100
AcDbAlignedDimension
 13
31.75
 23
2.976562500000021
 33
0.0
 14
31.75
 24
-2.97656249999998
 34
0.0
 50
90.0000000000002
100
AcDbRotatedDimension
1001
ACAD
1000
DSTYLE
1002
{
1070
   171
1070
     6
1070
   273
1070
     5
1002
}
  0
DIMENSION
  5
E2
330
1F
100
AcDbEntity
  8
치수문자_일반주서
100
AcDbDimension
  2
_D_1
 10
19.05
 20
33.59590151253253
 30
0.0
 11
-0.8053181175641626
 21
33.59590151253253
 31
0.0
 70
   160
  1
<>
 71
     2
 42
12.7
  3
SLDDIMSTYLE0
100
AcDbAlignedDimension
 13
31.75
 23
2.965616463846026
 33
0.0
 14
19.05
 24
2.890997716697112
 34
0.0
100
AcDbRotatedDimension
1001
ACAD
1000
DSTYLE
1002
{
1070
   171
1070
     6
1070
   273
1070
     5
1002
}
  0
DIMENSION
  5
F7
330
1F
100
AcDbEntity
  8
치수문자_일반주서
100
AcDbDimension
  2
_D_2
 10
-31.75
 20
50.55603540682043
 30
0.0
 11
-1.620199429023449
 21
50.55603540682043
 31
0.0
 70
   160
  1
<>
 71
     2
 42
63.5
  3
SLDDIMSTYLE0
100
AcDbAlignedDimension
 13
31.75
 23
2.965616463846026
 33
0.0
 14
-31.75
 24
2.540000000000001
 34
0.0
100
AcDbRotatedDimension
1001
ACAD
1000
DSTYLE
1002
{
1070
   171
1070
     6
1070
   273
1070
     5
1002
}
  0
DIMENSION
  5
10A
330
1F
100
AcDbEntity
  8
치수문자_일반주서
100
AcDbDimension
  2
_D_3
 10
-40.97769989293592
 20
-3.175000000000107
 30
0.0
 11
-40.977699892936
 21
23.12274999999998
 31
0.0
 70
   160
  1
%%c<>
 71
     2
 42
6.35000000000002
 52
-270.0
  3
SLDDIMSTYLE0
100
AcDbAlignedDimension
 13
-17.30942116787305
 23
3.175000000000002
 33
0.0
 14
-17.30942116787305
 24
-3.175000000000018
 34
0.0
 50
90.0000000000002
100
AcDbRotatedDimension
1001
ACAD
1000
DSTYLE
1002
{
1070
   171
1070
     6
1070
   273
1070
     5
1002
}
  0
LINE
  5
11E
330
1F
100
AcDbEntity
  8
참조1
100
AcDbLine
 10
68.7193644723612
 20
7.441074928723896
 30
0.0
 11
68.7193644723612
 21
-7.438925071276109
 31
0.0
  0
LINE
  5
11F
330
1F
100
AcDbEntity
  8
참조1
100
AcDbLine
 10
81.41936447236121
 20
5.441074928723896
 30
0.0
 11
68.7193644723612
 21
5.441074928723896
 31
0.0
  0
SOLID
  5
120
330
1F
100
AcDbEntity
  8
참조1
100
AcDbTrace
 10
68.7193644723612
 20
5.441074928723896
 30
0.0
 11
75.0693644723612
 21
4.425074928723896
 31
0.0
 12
75.0693644723612
 22
6.457074928723896
 32
0.0
 13
75.0693644723612
 23
6.457074928723896
 33
0.0
  0
LINE
  5
121
330
1F
100
AcDbEntity
  8
참조1
100
AcDbLine
 10
81.41936447236121
 20
-5.438925071276109
 30
0.0
 11
68.7193644723612
 21
-5.438925071276109
 31
0.0
  0
SOLID
  5
122
330
1F
100
AcDbEntity
  8
참조1
100
AcDbTrace
 10
68.7193644723612
 20
-5.438925071276109
 30
0.0
 11
75.0693644723612
 21
-6.454925071276109
 31
0.0
 12
75.0693644723612
 22
-4.422925071276109
 32
0.0
 13
75.0693644723612
 23
-4.422925071276109
 33
0.0
  0
MTEXT
  5
123
330
1F
100
AcDbEntity
  8
참조1
100
AcDbMText
 10
78.1037146049872
 20
11.01136670591223
 30
0.0
 40
3.5
 41
0.0
 71
     1
 72
     1
  1
A
  7
SLDTEXTSTYLE0
 73
     1
 44
1.0
  0
MTEXT
  5
124
330
1F
100
AcDbEntity
  8
참조1
100
AcDbMText
 10
78.1037146049872
 20
0.1313667059122219
 30
0.0
 40
3.5
 41
0.0
 71
     1
 72
     1
  1
A
  7
SLDTEXTSTYLE0
 73
     1
 44
1.0
  0
INSERT
  5
12B
330
1F
100
AcDbEntity
  8
해칭선
100
AcDbBlockReference
  2
SW_DOWELSYMBOL_0
 10
0.0
 20
-0.0000000000000001
 30
0.0
  0
LINE
  5
2C2
330
1F
100
AcDbEntity
  8
0
  6
Continuous
 62
     1
370
    15
100
AcDbLine
 10
-25.9098942856428
 20
-2.976562500000004
 30
0.0
 11
-24.09460132452427
 21
-2.976562500000006
 31
0.0
  0
LINE
  5
2C3
330
1F
100
AcDbEntity
  8
0
  6
Continuous
 62
     1
370
    15
100
AcDbLine
 10
-24.09460132452424
 20
2.976562499999996
 30
0.0
 11
-25.9098942856428
 21
2.976562499999997
 31
0.0
  0
LINE
  5
2C4
330
1F
100
AcDbEntity
  8
외형선
  6
Continuous
370
    15
100
AcDbLine
 10
-17.30942116787305
 20
3.174999999999994
 30
0.0
 11
-18.05000000000002
 21
2.976562499999989
 31
0.0
  0
LINE
  5
2C5
330
1F
100
AcDbEntity
  8
외형선
  6
Continuous
370
    15
100
AcDbLine
 10
-18.05000000000002
 20
-2.976562500000012
 30
0.0
 11
-17.30942116787305
 21
-3.175000000000018
 31
0.0
  0
LINE
  5
2C6
330
1F
100
AcDbEntity
  8
외형선
  6
Continuous
370
    15
100
AcDbLine
 10
-18.05000000000002
 20
2.976562499999988
 30
0.0
 11
-18.54985005561185
 21
2.976562499999989
 31
0.0
  0
LINE
  5
2C7
330
1F
100
AcDbEntity
  8
외형선
  6
Continuous
370
    15
100
AcDbLine
 10
-18.54985005561185
 20
-2.976562500000012
 30
0.0
 11
-18.05000000000002
 21
-2.976562500000012
 31
0.0
  0
SPLINE
  5
2C8
330
1F
100
AcDbEntity
  8
0
  6
Continuous
 62
     1
370
    15
100
AcDbSpline
210
0.0
220
0.0
230
1.0
 70
     8
 71
     3
 72
    16
 73
    12
 74
     0
 42
0.000000001
 43
0.00000001
 40
0.0
 40
0.0
 40
0.0
 40
0.0
 40
0.1185011177410031
 40
0.2370076688574892
 40
0.3555406358485529
 40
0.4741208739884481
 40
0.5927670415202547
 40
0.711392360177181
 40
0.8231771047734947
 40
0.9348973630920745
 40
1.0
 40
1.0
 40
1.0
 40
1.0
 10
-19.05000000000002
 20
0.7085594671291694
 30
0.0
 10
-19.44489739372052
 20
0.9264630426879931
 30
0.0
 10
-20.23471028753767
 20
1.362280184867055
 30
0.0
 10
-21.41952833995771
 20
1.93439068022232
 30
0.0
 10
-22.60466882205572
 20
2.40739401571689
 30
0.0
 10
-23.79035509896432
 20
2.753135582398893
 30
0.0
 10
-24.97653532527543
 20
2.953680368082781
 30
0.0
 10
-26.14002824540581
 20
2.999350731003698
 30
0.0
 10
-27.28016395803184
 20
2.891325347787
 30
0.0
 10
-28.24182173702619
 20
2.700286512557597
 30
0.0
 10
-28.83101520173654
 20
2.500910386334792
 30
0.0
 10
-29.04794439607208
 20
2.427504102963144
 30
0.0
  0
SPLINE
  5
2C9
330
1F
100
AcDbEntity
  8
외형선
  6
Continuous
370
    15
100
AcDbSpline
210
0.0
220
0.0
230
1.0
 70
    24
 71
     3
 72
    21
 73
    17
 74
     0
 42
0.000000001
 43
0.00000001
 40
0.0
 40
0.0
 40
0.0
 40
0.0
 40
0.1021941341887849
 40
0.1735318352457168
 40
0.2469383344660591
 40
0.3182760355229949
 40
0.3916825347433409
 40
0.463020235800277
 40
0.5364267350206239
 40
0.6077644360775594
 40
0.6811709352979053
 40
0.7525086363548403
 40
0.8259151355751858
 40
0.8972528366320904
 40
0.9706593358524672
 40
1.0
 40
1.0
 40
1.0
 40
1.0
 10
-19.04999999999999
 20
-2.469399372047492
 30
0.0
 10
-19.05000000000002
 20
-2.373296063516488
 30
0.0
 10
-19.05000000000002
 20
-2.210106819486466
 30
0.0
 10
-19.04999999999999
 20
-1.918802344470473
 30
0.0
 10
-19.05000000000005
 20
-1.643097140194484
 30
0.0
 10
-19.05000000000002
 20
-1.347768995056442
 30
0.0
 10
-19.05000000000005
 20
-1.047589273905689
 30
0.0
 10
-19.04999999999999
 20
-0.7453598634099484
 30
0.0
 10
-19.04999999999999
 20
-0.4551438624312839
 30
0.0
 10
-19.05000000000008
 20
-0.1799481128990454
 30
0.0
 10
-19.04999999999999
 20
0.0676164648922771
 30
0.0
 10
-19.04999999999999
 20
0.2844868784386062
 30
0.0
 10
-19.05000000000002
 20
0.4625316279859993
 30
0.0
 10
-19.04999999999999
 20
0.5927702279951116
 30
0.0
 10
-19.04999999999999
 20
0.6757668068552246
 30
0.0
 10
-19.04999999999999
 20
0.6816868475570529
 30
0.0
 10
-19.04999999999999
 20
0.6833773849916497
 30
0.0
  0
SPLINE
  5
2CA
330
1F
100
AcDbEntity
  8
0
  6
Continuous
 62
     1
370
    15
100
AcDbSpline
210
0.0
220
0.0
230
1.0
 70
     8
 71
     3
 72
    38
 73
    34
 74
     0
 42
0.000000001
 43
0.00000001
 40
0.0
 40
0.0
 40
0.0
 40
0.0
 40
0.0625000000000012
 40
0.0625000000000012
 40
0.1250000000000011
 40
0.1250000000000011
 40
0.187500000000001
 40
0.187500000000001
 40
0.2500000000000009
 40
0.2500000000000009
 40
0.3125000000000009
 40
0.3125000000000009
 40
0.3750000000000008
 40
0.3750000000000008
 40
0.4375000000000007
 40
0.4375000000000007
 40
0.5000000000000007
 40
0.5000000000000007
 40
0.5625000000000006
 40
0.5625000000000006
 40
0.6250000000000006
 40
0.6250000000000006
 40
0.6875000000000004
 40
0.6875000000000004
 40
0.7500000000000003
 40
0.7500000000000003
 40
0.8125000000000003
 40
0.8125000000000003
 40
0.8750000000000002
 40
0.8750000000000002
 40
0.9375000000000002
 40
0.9375000000000002
 40
1.0
 40
1.0
 40
1.0
 40
1.0
 10
-31.75000000000001
 20
2.976562499999982
 30
0.0
 10
-31.4876697555107
 20
2.95256484131143
 30
0.0
 10
-31.22134765065483
 20
2.927727800294614
 30
0.0
 10
-30.6900991636085
 20
2.855073100698858
 30
0.0
 10
-30.42782360612512
 20
2.80747460533457
 30
0.0
 10
-29.89922614289075
 20
2.690330040220006
 30
0.0
 10
-29.63232746416168
 20
2.620650024573889
 30
0.0
 10
-29.10277668616147
 20
2.461503388266197
 30
0.0
 10
-28.84108668294846
 20
2.372231646939593
 30
0.0
 10
-28.31022181585801
 20
2.174823898139791
 30
0.0
 10
-28.04360894279032
 20
2.066922583512033
 30
0.0
 10
-27.51743554318856
 20
1.836687741454762
 30
0.0
 10
-27.25286390007509
 20
1.713653786144004
 30
0.0
 10
-26.72142525570664
 20
1.454623639779326
 30
0.0
 10
-26.4581697480638
 20
1.319238481045578
 30
0.0
 10
-25.93071585292837
 20
1.039012452991186
 30
0.0
 10
-25.66391544808534
 20
0.8936822341635077
 30
0.0
 10
-25.13360276046442
 20
0.5976886561532649
 30
0.0
 10
-24.87210320838509
 20
0.4474335147771848
 30
0.0
 10
-24.34181495826315
 20
0.1432034908409285
 30
0.0
 10
-24.07500923840758
 20
-0.0103998139113545
 30
0.0
 10
-23.54751026415403
 20
-0.3151452329225702
 30
0.0
 10
-23.28429745570171
 20
-0.4667752979983808
 30
0.0
 10
-22.75286234760166
 20
-0.7661009326701814
 30
0.0
 10
-22.48823367648445
 20
-0.9131064180239553
 30
0.0
 10
-21.9621122244509
 20
-1.198220983535119
 30
0.0
 10
-21.69550824613356
 20
-1.337235733132538
 30
0.0
 10
-21.1646259764153
 20
-1.60317553675462
 30
0.0
 10
-20.90292154220143
 20
-1.729721374867695
 30
0.0
 10
-20.37340220696172
 20
-1.969165429538312
 30
0.0
 10
-20.10650179951384
 20
-2.081853361129691
 30
0.0
 10
-19.57786617987566
 20
-2.289198868160078
 30
0.0
 10
-19.3156189412685
 20
-2.383995959113867
 30
0.0
 10
-19.04999999999999
 20
-2.469399372047498
 30
0.0
  0
LINE
  5
2CB
330
1F
100
AcDbEntity
  8
0
  6
Continuous
 62
     1
370
    15
100
AcDbLine
 10
-31.75000000000001
 20
2.695817141144057
 30
0.0
 11
-31.75000000000001
 21
-0.2550358911440896
 31
0.0
  0
SPLINE
  5
2CC
330
1F
100
AcDbEntity
  8
0
  6
Continuous
 62
     1
370
    15
100
AcDbSpline
210
0.0
220
0.0
230
1.0
 70
     8
 71
     3
 72
    38
 73
    34
 74
     0
 42
0.000000001
 43
0.00000001
 40
0.0
 40
0.0
 40
0.0
 40
0.0
 40
0.0625
 40
0.0625
 40
0.125
 40
0.125
 40
0.1875
 40
0.1875
 40
0.25
 40
0.25
 40
0.3125
 40
0.3125
 40
0.375
 40
0.375
 40
0.4375
 40
0.4375
 40
0.5
 40
0.5
 40
0.5625
 40
0.5625
 40
0.625
 40
0.625
 40
0.6875
 40
0.6875
 40
0.75
 40
0.75
 40
0.8125
 40
0.8125
 40
0.875
 40
0.875
 40
0.9375
 40
0.9375
 40
1.0
 40
1.0
 40
1.0
 40
1.0
 10
-31.75000000000001
 20
2.695817141144058
 30
0.0
 10
-31.48766975551064
 20
2.631236531610303
 30
0.0
 10
-31.22134765065483
 20
2.55567643702079
 30
0.0
 10
-30.69009916360853
 20
2.385012924772365
 30
0.0
 10
-30.42782360612515
 20
2.290280304250262
 30
0.0
 10
-29.89922614289075
 20
2.083067210270333
 30
0.0
 10
-29.63232746416168
 20
1.970439254638975
 30
0.0
 10
-29.10277668616147
 20
1.731098436400288
 30
0.0
 10
-28.84108668294846
 20
1.604603272539099
 30
0.0
 10
-28.31022181585798
 20
1.338752361243799
 30
0.0
 10
-28.04360894279035
 20
1.199773417617725
 30
0.0
 10
-27.51743554318856
 20
0.9147108816242234
 30
0.0
 10
-27.25286390007512
 20
0.7677403870404237
 30
0.0
 10
-26.72142525570667
 20
0.468450197887062
 30
0.0
 10
-26.45816974806375
 20
0.3168233703419591
 30
0.0
 10
-25.93071585292834
 20
0.0120961416896625
 30
0.0
 10
-25.66391544808534
 20
-0.1415080643824652
 30
0.0
 10
-25.13360276046448
 20
-0.4457599613905643
 30
0.0
 10
-24.87210320838518
 20
-0.5960302381630423
 30
0.0
 10
-24.34181495826318
 20
-0.8920627830687605
 30
0.0
 10
-24.07500923840758
 20
-1.037422434478538
 30
0.0
 10
-23.54751026415403
 20
-1.317725022622783
 30
0.0
 10
-23.28429745570171
 20
-1.453143186735036
 30
0.0
 10
-22.75286234760166
 20
-1.712265386799108
 30
0.0
 10
-22.48823367648448
 20
-1.835359797352808
 30
0.0
 10
-21.96211222445093
 20
-2.065700460721893
 30
0.0
 10
-21.69550824613359
 20
-2.173663022445974
 30
0.0
 10
-21.16462597641533
 20
-2.371205801352547
 30
0.0
 10
-20.90292154220146
 20
-2.460549279458843
 30
0.0
 10
-20.37340220696172
 20
-2.61984103657013
 30
0.0
 10
-20.10650179951387
 20
-2.689599476571491
 30
0.0
 10
-19.57786617987572
 20
-2.806907078453785
 30
0.0
 10
-19.3156189412685
 20
-2.85458606351142
 30
0.0
 10
-19.05000000000002
 20
-2.890997716697123
 30
0.0
  0
SPLINE
  5
2CD
330
1F
100
AcDbEntity
  8
0
  6
Continuous
 62
     1
370
    15
100
AcDbSpline
210
0.0
220
0.0
230
1.0
 70
     8
 71
     3
 72
    17
 73
    13
 74
     0
 42
0.000000001
 43
0.00000001
 40
0.0
 40
0.0
 40
0.0
 40
0.0
 40
0.1097880450508822
 40
0.2195161410630107
 40
0.3292034156234071
 40
0.4388691924228114
 40
0.5485328987233967
 40
0.658213971773374
 40
0.7616845824029455
 40
0.8652527770413382
 40
0.9687373178101607
 40
0.9999999999999999
 40
0.9999999999999999
 40
0.9999999999999999
 40
0.9999999999999999
 10
-31.75000000000001
 20
-0.2550358911440901
 30
0.0
 10
-31.35455149781237
 20
-0.4810606419322326
 30
0.0
 10
-30.56387042548662
 20
-0.9329867241823241
 30
0.0
 10
-29.37827841282118
 20
-1.558309439116028
 30
0.0
 10
-28.19320357154601
 20
-2.102475529435952
 30
0.0
 10
-27.00840769073691
 20
-2.535664343229183
 30
0.0
 10
-25.82364788994037
 20
-2.83566500868821
 30
0.0
 10
-24.66112296062455
 20
-2.982949991247062
 30
0.0
 10
-23.52060696815989
 20
-2.982763642964925
 30
0.0
 10
-22.40200067784577
 20
-2.834828503095062
 30
0.0
 10
-21.54374111746001
 20
-2.642880509876695
 30
0.0
 10
-21.05854855477461
 20
-2.467726439988258
 30
0.0
 10
-20.94597910395363
 20
-2.42708897154218
 30
0.0
  0
LINE
  5
2CE
330
1F
100
AcDbEntity
  8
0
  6
Continuous
 62
     1
370
    15
100
AcDbLine
 10
-31.75000000000001
 20
2.976562499999982
 30
0.0
 11
-31.75000000000001
 21
2.695817141144057
 31
0.0
  0
LINE
  5
2CF
330
1F
100
AcDbEntity
  8
외형선
  6
Continuous
370
    15
100
AcDbLine
 10
-19.04999999999999
 20
-2.469399372047492
 30
0.0
 11
-19.05000000000002
 21
-2.890997716697123
 31
0.0
  0
SPLINE
  5
2D0
330
1F
100
AcDbEntity
  8
0
  6
Continuous
 62
     1
370
    15
100
AcDbSpline
210
0.0
220
0.0
230
1.0
 70
     8
 71
     3
 72
    13
 73
     9
 74
     0
 42
0.000000001
 43
0.00000001
 40
0.0
 40
0.0
 40
0.0
 40
0.0
 40
0.0432933354945173
 40
0.2346534238542581
 40
0.4259031205872188
 40
0.6171434914956947
 40
0.8084756913694149
 40
0.9999999999999999
 40
0.9999999999999999
 40
0.9999999999999999
 40
0.9999999999999999
 10
-25.9098942856428
 20
-2.963387850464341
 30
0.0
 10
-25.99419126089382
 20
-2.967477102882661
 30
0.0
 10
-26.45108777018951
 20
-2.989641185876098
 30
0.0
 10
-27.28015318417136
 20
-2.886742305589533
 30
0.0
 10
-28.39714337169006
 20
-2.659566796459133
 30
0.0
 10
-29.51405839613245
 20
-2.294383978713364
 30
0.0
 10
-30.63159578918675
 20
-1.829218029444248
 30
0.0
 10
-31.37707390836272
 20
-1.451096368330807
 30
0.0
 10
-31.75000000000001
 20
-1.261940671315443
 30
0.0
  0
LINE
  5
2D1
330
1F
100
AcDbEntity
  8
0
  6
Continuous
 62
     1
370
    15
100
AcDbLine
 10
-31.75000000000001
 20
-0.2550358911440901
 30
0.0
 11
-31.75000000000001
 21
-1.261940671315443
 31
0.0
  0
SPLINE
  5
2D2
330
1F
100
AcDbEntity
  8
0
  6
Continuous
 62
     1
370
    15
100
AcDbSpline
210
0.0
220
0.0
230
1.0
 70
     8
 71
     3
 72
    12
 73
     8
 74
     0
 42
0.000000001
 43
0.00000001
 40
0.0
 40
0.0
 40
0.0
 40
0.0
 40
0.1137252460224673
 40
0.3355283879484173
 40
0.5571523755387169
 40
0.7786040221409063
 40
1.0
 40
1.0
 40
1.0
 40
1.0
 10
-24.09460132452424
 20
2.959103814131988
 30
0.0
 10
-23.90337242965465
 20
2.962281262814708
 30
0.0
 10
-23.33918175899147
 20
2.971655823623226
 30
0.0
 10
-22.4019898253138
 20
2.835781360465012
 30
0.0
 10
-21.28395519464525
 20
2.565798172169733
 30
0.0
 10
-20.16676351412838
 20
2.174222631588493
 30
0.0
 10
-19.42222330690743
 20
1.832675834007082
 30
0.0
 10
-19.04999999999999
 20
1.661923902511083
 30
0.0
  0
LINE
  5
2D3
330
1F
100
AcDbEntity
  8
외형선
  6
Continuous
370
    15
100
AcDbLine
 10
-19.04999999999999
 20
1.661923902511089
 30
0.0
 11
-19.05000000000002
 21
0.7085594671291683
 31
0.0
  0
SPLINE
  5
2D4
330
1F
100
AcDbEntity
  8
0
  6
Continuous
 62
     1
370
    15
100
AcDbSpline
210
0.0
220
0.0
230
1.0
 70
     8
 71
     3
 72
    10
 73
     6
 74
     0
 42
0.000000001
 43
0.00000001
 40
0.0
 40
0.0
 40
0.0
 40
0.0
 40
0.4390113514029709
 40
0.877782983549566
 40
0.9999999999999999
 40
0.9999999999999999
 40
0.9999999999999999
 40
0.9999999999999999
 10
-31.75000000000004
 20
-2.97656250000002
 30
0.0
 10
-31.35455244959164
 20
-2.929137035870873
 30
0.0
 10
-30.56387328030477
 20
-2.856198099271906
 30
0.0
 10
-29.66322451148302
 20
-2.651116540879571
 30
0.0
 10
-29.15801037449393
 20
-2.467505593585233
 30
0.0
 10
-29.04794439607208
 20
-2.427504102963145
 30
0.0
  0
LINE
  5
2D5
330
1F
100
AcDbEntity
  8
0
  6
Continuous
 62
     1
370
    15
100
AcDbLine
 10
-31.75000000000001
 20
-1.247759695800061
 30
0.0
 11
-31.75000000000001
 21
-2.976562500000019
 31
0.0
  0
SPLINE
  5
2D6
330
1F
100
AcDbEntity
  8
0
  6
Continuous
 62
     1
370
    15
100
AcDbSpline
210
0.0
220
0.0
230
1.0
 70
     8
 71
     3
 72
     9
 73
     5
 74
     0
 42
0.000000001
 43
0.00000001
 40
0.0
 40
0.0
 40
0.0
 40
0.0
 40
0.6248468300065672
 40
1.0
 40
1.0
 40
1.0
 40
1.0
 10
-19.05000000000002
 20
2.890997716697098
 30
0.0
 10
-19.44489635158002
 20
2.826368047083305
 30
0.0
 10
-20.07688539692072
 20
2.722935227214294
 30
0.0
 10
-20.70888314524212
 20
2.507798279470834
 30
0.0
 10
-20.9459791039536
 20
2.427088971542164
 30
0.0
  0
SPLINE
  5
2D7
330
1F
100
AcDbEntity
  8
외형선
  6
Continuous
370
    15
100
AcDbSpline
210
0.0
220
0.0
230
1.0
 70
    24
 71
     3
 72
    12
 73
     8
 74
     0
 42
0.000000001
 43
0.00000001
 40
0.0
 40
0.0
 40
0.0
 40
0.0
 40
0.1448084127954546
 40
0.3790674359413396
 40
0.6201199866284964
 40
0.8083302220735604
 40
1.0
 40
1.0
 40
1.0
 40
1.0
 10
-19.04999999999999
 20
1.705703894475833
 30
0.0
 10
-19.04999999999999
 20
1.754225347135178
 30
0.0
 10
-19.04999999999999
 20
1.881240775953579
 30
0.0
 10
-19.05000000000002
 20
2.120296315484016
 30
0.0
 10
-19.04999999999999
 20
2.388890029911069
 30
0.0
 10
-19.04999999999996
 20
2.649513873926629
 30
0.0
 10
-19.04999999999999
 20
2.81001587535738
 30
0.0
 10
-19.05000000000002
 20
2.890997716697099
 30
0.0
  0
LINE
  5
2D8
330
1F
100
AcDbEntity
  8
외형선
  6
Continuous
370
    15
100
AcDbLine
 10
-18.05000000000002
 20
-0.0000000000000114
 30
0.0
 11
-18.05000000000002
 21
-2.976562500000012
 31
0.0
  0
LINE
  5
2D9
330
1F
100
AcDbEntity
  8
외형선
  6
Continuous
370
    15
100
AcDbLine
 10
-18.05000000000002
 20
2.976562499999989
 30
0.0
 11
-18.05000000000002
 21
-0.0000000000000114
 31
0.0
  0
LINE
  5
2DA
330
1F
100
AcDbEntity
  8
외형선
  6
Continuous
370
    15
100
AcDbLine
 10
-17.30942116787305
 20
-0.0000000000000121
 30
0.0
 11
-17.30942116787305
 21
-3.175000000000018
 31
0.0
  0
LINE
  5
2DB
330
1F
100
AcDbEntity
  8
외형선
  6
Continuous
370
    15
100
AcDbLine
 10
-17.30942116787305
 20
3.174999999999994
 30
0.0
 11
-17.30942116787305
 21
-0.0000000000000121
 31
0.0
  0
LINE
  5
2DC
330
1F
100
AcDbEntity
  8
외형선
  6
Continuous
370
    15
100
AcDbLine
 10
-18.54985005561185
 20
-2.945946590811114
 30
0.0
 11
-18.54985005561185
 21
-2.976562500000012
 31
0.0
  0
SPLINE
  5
2DD
330
1F
100
AcDbEntity
  8
외형선
  6
Continuous
370
    15
100
AcDbSpline
210
0.0
220
0.0
230
1.0
 70
     8
 71
     3
 72
     8
 73
     4
 74
     0
 42
0.000000001
 43
0.00000001
 40
0.0
 40
0.0
 40
0.0
 40
0.0
 40
1.0
 40
1.0
 40
1.0
 40
1.0
 10
-19.05000000000002
 20
-2.890997716697123
 30
0.0
 10
-18.88317920093929
 20
-2.913865894134141
 30
0.0
 10
-18.71607236467509
 20
-2.932219464433009
 30
0.0
 10
-18.54985005561185
 20
-2.945946126292384
 30
0.0
  0
SPLINE
  5
2DE
330
1F
100
AcDbEntity
  8
외형선
  6
Continuous
370
    15
100
AcDbSpline
210
0.0
220
0.0
230
1.0
 70
     8
 71
     3
 72
     8
 73
     4
 74
     0
 42
0.000000001
 43
0.00000001
 40
0.0
 40
0.0
 40
0.0
 40
0.0
 40
1.0
 40
1.0
 40
1.0
 40
1.0
 10
-19.04999999999999
 20
-2.469399372047497
 30
0.0
 10
-18.88317920093929
 20
-2.523036607103335
 30
0.0
 10
-18.71607236467509
 20
-2.572836908484906
 30
0.0
 10
-18.54985005561185
 20
-2.618465462306169
 30
0.0
  0
LINE
  5
2DF
330
1F
100
AcDbEntity
  8
외형선
  6
Continuous
370
    15
100
AcDbLine
 10
-18.54985005561185
 20
0.4258203852502911
 30
0.0
 11
-18.54985005561185
 21
-2.618463061268639
 31
0.0
  0
SPLINE
  5
2E0
330
1F
100
AcDbEntity
  8
외형선
  6
Continuous
370
    15
100
AcDbSpline
210
0.0
220
0.0
230
1.0
 70
     8
 71
     3
 72
     8
 73
     4
 74
     0
 42
0.000000001
 43
0.00000001
 40
0.0
 40
0.0
 40
0.0
 40
0.0
 40
1.0
 40
1.0
 40
1.0
 40
1.0
 10
-19.05000000000002
 20
0.7085594671291692
 30
0.0
 10
-18.88317920093929
 20
0.6152548796916325
 30
0.0
 10
-18.71607236467509
 20
0.5207878198580295
 30
0.0
 10
-18.54985005561185
 20
0.4258235989106741
 30
0.0
  0
SPLINE
  5
2E1
330
1F
100
AcDbEntity
  8
외형선
  6
Continuous
370
    15
100
AcDbSpline
210
0.0
220
0.0
230
1.0
 70
     8
 71
     3
 72
     8
 73
     4
 74
     0
 42
0.000000001
 43
0.00000001
 40
0.0
 40
0.0
 40
0.0
 40
0.0
 40
1.0
 40
1.0
 40
1.0
 40
1.0
 10
-19.04999999999999
 20
1.661923902511083
 30
0.0
 10
-18.88317920093929
 20
1.582226056920728
 30
0.0
 10
-18.71607236467509
 20
1.499880389647794
 30
0.0
 10
-18.54985005561185
 20
1.415472691052707
 30
0.0
  0
LINE
  5
2E2
330
1F
100
AcDbEntity
  8
외형선
  6
Continuous
370
    15
100
AcDbLine
 10
-18.54985005561185
 20
2.976562499999989
 30
0.0
 11
-18.54985005561185
 21
1.415477132693396
 31
0.0
  0
SPLINE
  5
2E3
330
1F
100
AcDbEntity
  8
외형선
  6
Continuous
370
    15
100
AcDbSpline
210
0.0
220
0.0
230
1.0
 70
     8
 71
     3
 72
     8
 73
     4
 74
     0
 42
0.000000001
 43
0.00000001
 40
0.0
 40
0.0
 40
0.0
 40
0.0
 40
1.0
 40
1.0
 40
1.0
 40
1.0
 10
-19.05000000000002
 20
2.890997716697097
 30
0.0
 10
-18.88317920093929
 20
2.913865894134116
 30
0.0
 10
-18.71607236467509
 20
2.932219464432984
 30
0.0
 10
-18.54985005561185
 20
2.945946126292359
 30
0.0
  0
SPLINE
  5
2E4
330
1F
100
AcDbEntity
  8
외형선
  6
Continuous
370
    15
100
AcDbSpline
210
0.0
220
0.0
230
1.0
 70
    24
 71
     3
 72
    21
 73
    17
 74
     0
 42
0.000000001
 43
0.00000001
 40
0.0
 40
0.0
 40
0.0
 40
0.0
 40
0.0415175009286359
 40
0.1129748371883289
 40
0.1865044410404121
 40
0.2579617773002256
 40
0.3314913811524415
 40
0.4029487174120473
 40
0.4764783212643457
 40
0.5479356575240997
 40
0.6214652613762508
 40
0.6929225976360003
 40
0.7664522014881462
 40
0.8379095377479125
 40
0.9114391416000763
 40
1.0
 40
1.0
 40
1.0
 40
1.0
 10
-19.05000000000002
 20
0.6770363708592296
 30
0.0
 10
-19.05000000000002
 20
0.6743272512614139
 30
0.0
 10
-19.05000000000002
 20
0.6669553637768325
 30
0.0
 10
-19.04999999999999
 20
0.5720167261599011
 30
0.0
 10
-19.05000000000002
 20
0.4347805567440187
 30
0.0
 10
-19.05000000000005
 20
0.2479430842871519
 30
0.0
 10
-19.05000000000005
 20
0.0268439231136056
 30
0.0
 10
-19.04999999999993
 20
-0.228033326710893
 30
0.0
 10
-19.05000000000002
 20
-0.5044083601327999
 30
0.0
 10
-19.04999999999999
 20
-0.799556175565885
 30
0.0
 10
-19.05000000000005
 20
-1.099796085816195
 30
0.0
 10
-19.04999999999999
 20
-1.401967902191174
 30
0.0
 10
-19.05000000000002
 20
-1.692356868995826
 30
0.0
 10
-19.04999999999999
 20
-1.966926489327351
 30
0.0
 10
-19.05000000000008
 20
-2.236602112801475
 30
0.0
 10
-19.05000000000005
 20
-2.387146762891772
 30
0.0
 10
-19.05000000000002
 20
-2.469399372047628
 30
0.0
  0
SPLINE
  5
2E5
330
1F
100
AcDbEntity
  8
외형선
  6
Continuous
370
    15
100
AcDbSpline
210
0.0
220
0.0
230
1.0
 70
    24
 71
     3
 72
    12
 73
     8
 74
     0
 42
0.000000001
 43
0.00000001
 40
0.0
 40
0.0
 40
0.0
 40
0.0
 40
0.2102395507078697
 40
0.4253397549663065
 40
0.659620011437492
 40
0.9006944112176006
 40
1.0
 40
1.0
 40
1.0
 40
1.0
 10
-19.05000000000002
 20
2.890997716697098
 30
0.0
 10
-19.04999999999999
 20
2.802151567516149
 30
0.0
 10
-19.04999999999999
 20
2.622405182047348
 30
0.0
 10
-19.05000000000005
 20
2.346105076554299
 30
0.0
 10
-19.04999999999999
 20
2.069729867281149
 30
0.0
 10
-19.04999999999999
 20
1.850231436215753
 30
0.0
 10
-19.05000000000002
 20
1.738338553348471
 30
0.0
 10
-19.05000000000002
 20
1.705693894475834
 30
0.0
  0
LINE
  5
314
330
1F
100
AcDbEntity
  8
0
100
AcDbLine
 10
-37.38937036310737
 20
0.0000000000000055
 30
0.0
 11
-14.92035641782505
 21
-0.0000000000000172
 31
0.0
  0
ENDSEC
  0
SECTION
  2
OBJECTS
  0
DICTIONARY
  5
C
330
0
100
AcDbDictionary
281
     1
  3
ACAD_GROUP
350
D
  3
ACAD_IMAGE_VARS
350
14F
  3
ACAD_LAYOUT
350
1A
  3
ACAD_MLINESTYLE
350
17
  3
ACAD_PLOTSETTINGS
350
19
  3
ACAD_PLOTSTYLENAME
350
E
  3
ACAD_SCALELIST
350
47
  3
APPDATA
350
14D
  3
DWGPROPS
350
33A
  0
DICTIONARY
  5
209
330
2
100
AcDbDictionary
280
     1
281
     1
  3
ACAD_LAYERSTATES
360
20A
  0
DICTIONARY
  5
338
330
1F
100
AcDbDictionary
280
     1
281
     1
  3
DIM_BOUNDING_BOXES_V1
360
339
  0
DICTIONARY
  5
D
102
{ACAD_REACTORS
330
C
102
}
330
C
100
AcDbDictionary
281
     1
  0
RASTERVARIABLES
  5
14F
102
{ACAD_REACTORS
330
C
102
}
330
C
100
AcDbRasterVariables
 90
        0
 70
     1
 71
     1
 72
     1
  0
DICTIONARY
  5
1A
102
{ACAD_REACTORS
330
C
102
}
330
C
100
AcDbDictionary
281
     1
  3
Layout1
350
1E
  3
Layout2
350
26
  3
Model
350
22
  0
DICTIONARY
  5
17
102
{ACAD_REACTORS
330
C
102
}
330
C
100
AcDbDictionary
281
     1
  3
Standard
350
18
  0
DICTIONARY
  5
19
102
{ACAD_REACTORS
330
C
102
}
330
C
100
AcDbDictionary
281
     1
  0
ACDBDICTIONARYWDFLT
  5
E
102
{ACAD_REACTORS
330
C
102
}
330
C
100
AcDbDictionary
281
     1
  3
Normal
350
F
100
AcDbDictionaryWithDefault
340
F
  0
DICTIONARY
  5
47
102
{ACAD_REACTORS
330
C
102
}
330
C
100
AcDbDictionary
281
     1
  3
A0
350
48
  3
A1
350
49
  3
A2
350
4A
  3
A3
350
4B
  3
A4
350
4C
  3
A5
350
4D
  3
A6
350
4E
  3
A7
350
4F
  3
A8
350
50
  3
A9
350
51
  3
B0
350
52
  3
B1
350
53
  3
B2
350
54
  3
B3
350
55
  3
B4
350
56
  3
B5
350
57
  3
B6
350
58
  3
B7
350
59
  3
B8
350
5A
  3
B9
350
5B
  3
C0
350
5C
  3
C1
350
5D
  3
C2
350
5E
  3
C3
350
5F
  3
C4
350
60
  3
C5
350
61
  3
C6
350
62
  3
C7
350
63
  3
C8
350
64
  3
C9
350
65
  3
D0
350
66
  3
D1
350
67
  3
D2
350
68
  0
DICTIONARY
  5
14D
102
{ACAD_REACTORS
330
C
102
}
330
C
100
AcDbDictionary
281
     1
  0
XRECORD
  5
33A
102
{ACAD_REACTORS
330
C
102
}
330
C
100
AcDbXrecord
280
     1
  1
DWGPROPS COOKIE
  2

  3

  4

  6

  7

  8
12011056
  9

300
=
301
=
302
=
303
=
304
=
305
=
306
=
307
=
308
=
309
=
 40
0.0
 41
2458313.123345822
 42
2459719.27284096
  1

 90
        0
  0
DICTIONARY
  5
20A
102
{ACAD_REACTORS
330
209
102
}
330
209
100
AcDbDictionary
281
     1
  0
DICTIONARY
  5
339
102
{ACAD_REACTORS
330
338
102
}
330
338
100
AcDbDictionary
281
     1
  0
LAYOUT
  5
1E
102
{ACAD_REACTORS
330
1A
102
}
330
1A
100
AcDbPlotSettings
  1

  2
none_device
  4

  6

 40
0.0
 41
0.0
 42
0.0
 43
0.0
 44
0.0
 45
0.0
 46
0.0
 47
0.0
 48
0.0
 49
0.0
140
0.0
141
0.0
142
1.0
143
1.0
 70
   688
 72
     1
 73
     0
 74
     5
  7

 75
    16
147
1.0
148
0.0
149
0.0
100
AcDbLayout
  1
Layout1
 70
     1
 71
     1
 10
0.0
 20
0.0
 11
420.0
 21
297.0
 12
0.0
 22
0.0
 32
0.0
 14
1.000000000000000E+20
 24
1.000000000000000E+20
 34
1.000000000000000E+20
 15
-1.000000000000000E+20
 25
-1.000000000000000E+20
 35
-1.000000000000000E+20
146
0.0
 13
0.0
 23
0.0
 33
0.0
 16
1.0
 26
0.0
 36
0.0
 17
0.0
 27
1.0
 37
0.0
 76
     0
330
1B
  0
LAYOUT
  5
26
102
{ACAD_REACTORS
330
1A
102
}
330
1A
100
AcDbPlotSettings
  1

  2
none_device
  4

  6

 40
0.0
 41
0.0
 42
0.0
 43
0.0
 44
0.0
 45
0.0
 46
0.0
 47
0.0
 48
0.0
 49
0.0
140
0.0
141
0.0
142
1.0
143
1.0
 70
   688
 72
     1
 73
     0
 74
     5
  7

 75
    16
147
1.0
148
0.0
149
0.0
100
AcDbLayout
  1
Layout2
 70
     1
 71
     2
 10
0.0
 20
0.0
 11
0.0
 21
0.0
 12
0.0
 22
0.0
 32
0.0
 14
0.0
 24
0.0
 34
0.0
 15
0.0
 25
0.0
 35
0.0
146
0.0
 13
0.0
 23
0.0
 33
0.0
 16
1.0
 26
0.0
 36
0.0
 17
0.0
 27
1.0
 37
0.0
 76
     0
330
23
  0
LAYOUT
  5
22
102
{ACAD_REACTORS
330
1A
102
}
330
1A
100
AcDbPlotSettings
  1

  2
none_device
  4
ANSI_A_(11.00_x_8.50_Inches)
  6

 40
6.35
 41
19.05
 42
6.35000508
 43
19.05000254
 44
279.4
 45
215.9
 46
106.0259498593854
 47
79.5516186423644
 48
0.0
 49
0.0
140
0.0
141
0.0
142
0.0692122785150278
143
1.0
 70
  1696
 72
     0
 73
     0
 74
     0
  7

 75
     0
147
0.0235690232323232
148
0.0
149
0.0
100
AcDbLayout
  1
Model
 70
     1
 71
     0
 10
0.0
 20
0.0
 11
420.0
 21
297.0
 12
0.0
 22
0.0
 32
0.0
 14
-45.35269989293604
 24
-39.99892507127611
 34
0.0
 15
81.4193644723612
 25
54.93103540682043
 35
0.0
146
0.0
 13
0.0
 23
0.0
 33
0.0
 16
1.0
 26
0.0
 36
0.0
 17
0.0
 27
1.0
 37
0.0
 76
     0
330
1F
331
29
  0
MLINESTYLE
  5
18
102
{ACAD_REACTORS
330
17
102
}
330
17
100
AcDbMlineStyle
  2
Standard
 70
     0
  3

 62
   256
 51
90.0
 52
90.0
 71
     2
 49
0.5
 62
   256
  6
BYLAYER
 49
-0.5
 62
   256
  6
BYLAYER
  0
ACDBPLACEHOLDER
  5
F
102
{ACAD_REACTORS
330
E
102
}
330
E
  0
SCALE
  5
48
102
{ACAD_REACTORS
330
47
102
}
330
47
100
AcDbScale
 70
     0
300
1:1
140
1.0
141
1.0
290
     1
  0
SCALE
  5
49
102
{ACAD_REACTORS
330
47
102
}
330
47
100
AcDbScale
 70
     0
300
1:2
140
1.0
141
2.0
290
     0
  0
SCALE
  5
4A
102
{ACAD_REACTORS
330
47
102
}
330
47
100
AcDbScale
 70
     0
300
1:4
140
1.0
141
4.0
290
     0
  0
SCALE
  5
4B
102
{ACAD_REACTORS
330
47
102
}
330
47
100
AcDbScale
 70
     0
300
1:5
140
1.0
141
5.0
290
     0
  0
SCALE
  5
4C
102
{ACAD_REACTORS
330
47
102
}
330
47
100
AcDbScale
 70
     0
300
1:8
140
1.0
141
8.0
290
     0
  0
SCALE
  5
4D
102
{ACAD_REACTORS
330
47
102
}
330
47
100
AcDbScale
 70
     0
300
1:10
140
1.0
141
10.0
290
     0
  0
SCALE
  5
4E
102
{ACAD_REACTORS
330
47
102
}
330
47
100
AcDbScale
 70
     0
300
1:16
140
1.0
141
16.0
290
     0
  0
SCALE
  5
4F
102
{ACAD_REACTORS
330
47
102
}
330
47
100
AcDbScale
 70
     0
300
1:20
140
1.0
141
20.0
290
     0
  0
SCALE
  5
50
102
{ACAD_REACTORS
330
47
102
}
330
47
100
AcDbScale
 70
     0
300
1:30
140
1.0
141
30.0
290
     0
  0
SCALE
  5
51
102
{ACAD_REACTORS
330
47
102
}
330
47
100
AcDbScale
 70
     0
300
1:40
140
1.0
141
40.0
290
     0
  0
SCALE
  5
52
102
{ACAD_REACTORS
330
47
102
}
330
47
100
AcDbScale
 70
     0
300
1:50
140
1.0
141
50.0
290
     0
  0
SCALE
  5
53
102
{ACAD_REACTORS
330
47
102
}
330
47
100
AcDbScale
 70
     0
300
1:100
140
1.0
141
100.0
290
     0
  0
SCALE
  5
54
102
{ACAD_REACTORS
330
47
102
}
330
47
100
AcDbScale
 70
     0
300
2:1
140
2.0
141
1.0
290
     0
  0
SCALE
  5
55
102
{ACAD_REACTORS
330
47
102
}
330
47
100
AcDbScale
 70
     0
300
4:1
140
4.0
141
1.0
290
     0
  0
SCALE
  5
56
102
{ACAD_REACTORS
330
47
102
}
330
47
100
AcDbScale
 70
     0
300
8:1
140
8.0
141
1.0
290
     0
  0
SCALE
  5
57
102
{ACAD_REACTORS
330
47
102
}
330
47
100
AcDbScale
 70
     0
300
10:1
140
10.0
141
1.0
290
     0
  0
SCALE
  5
58
102
{ACAD_REACTORS
330
47
102
}
330
47
100
AcDbScale
 70
     0
300
100:1
140
100.0
141
1.0
290
     0
  0
SCALE
  5
59
102
{ACAD_REACTORS
330
47
102
}
330
47
100
AcDbScale
 70
     0
300
1/128" = 1'-0"
140
0.0078125
141
12.0
290
     0
  0
SCALE
  5
5A
102
{ACAD_REACTORS
330
47
102
}
330
47
100
AcDbScale
 70
     0
300
1/64" = 1'-0"
140
0.015625
141
12.0
290
     0
  0
SCALE
  5
5B
102
{ACAD_REACTORS
330
47
102
}
330
47
100
AcDbScale
 70
     0
300
1/32" = 1'-0"
140
0.03125
141
12.0
290
     0
  0
SCALE
  5
5C
102
{ACAD_REACTORS
330
47
102
}
330
47
100
AcDbScale
 70
     0
300
1/16" = 1'-0"
140
0.0625
141
12.0
290
     0
  0
SCALE
  5
5D
102
{ACAD_REACTORS
330
47
102
}
330
47
100
AcDbScale
 70
     0
300
3/32" = 1'-0"
140
0.09375
141
12.0
290
     0
  0
SCALE
  5
5E
102
{ACAD_REACTORS
330
47
102
}
330
47
100
AcDbScale
 70
     0
300
1/8" = 1'-0"
140
0.125
141
12.0
290
     0
  0
SCALE
  5
5F
102
{ACAD_REACTORS
330
47
102
}
330
47
100
AcDbScale
 70
     0
300
3/16" = 1'-0"
140
0.1875
141
12.0
290
     0
  0
SCALE
  5
60
102
{ACAD_REACTORS
330
47
102
}
330
47
100
AcDbScale
 70
     0
300
1/4" = 1'-0"
140
0.25
141
12.0
290
     0
  0
SCALE
  5
61
102
{ACAD_REACTORS
330
47
102
}
330
47
100
AcDbScale
 70
     0
300
3/8" = 1'-0"
140
0.375
141
12.0
290
     0
  0
SCALE
  5
62
102
{ACAD_REACTORS
330
47
102
}
330
47
100
AcDbScale
 70
     0
300
1/2" = 1'-0"
140
0.5
141
12.0
290
     0
  0
SCALE
  5
63
102
{ACAD_REACTORS
330
47
102
}
330
47
100
AcDbScale
 70
     0
300
3/4" = 1'-0"
140
0.75
141
12.0
290
     0
  0
SCALE
  5
64
102
{ACAD_REACTORS
330
47
102
}
330
47
100
AcDbScale
 70
     0
300
1" = 1'-0"
140
1.0
141
12.0
290
     0
  0
SCALE
  5
65
102
{ACAD_REACTORS
330
47
102
}
330
47
100
AcDbScale
 70
     0
300
1-1/2" = 1'-0"
140
1.5
141
12.0
290
     0
  0
SCALE
  5
66
102
{ACAD_REACTORS
330
47
102
}
330
47
100
AcDbScale
 70
     0
300
3" = 1'-0"
140
3.0
141
12.0
290
     0
  0
SCALE
  5
67
102
{ACAD_REACTORS
330
47
102
}
330
47
100
AcDbScale
 70
     0
300
6" = 1'-0"
140
6.0
141
12.0
290
     0
  0
SCALE
  5
68
102
{ACAD_REACTORS
330
47
102
}
330
47
100
AcDbScale
 70
     0
300
1'-0" = 1'-0"
140
12.0
141
12.0
290
     0
  0
ENDSEC
  0
EOF
