  0
SECTION
  2
HEADER
  9
$ACADVER
  1
AC1015
  9
$ACADMAINTVER
 70
     6
  9
$DWGCODEPAGE
  3
ANSI_949
  9
$INSBASE
 10
0.0
 20
0.0
 30
0.0
  9
$EXTMIN
 10
-62.52500000000009
 20
-39.99892507127611
 30
0.0
  9
$EXTMAX
 10
124.6017350925138
 20
43.37549028620469
 30
0.0
  9
$LIMMIN
 10
0.0
 20
0.0
  9
$LIMMAX
 10
420.0
 20
297.0
  9
$ORTHOMODE
 70
     0
  9
$REGENMODE
 70
     1
  9
$FILLMODE
 70
     1
  9
$QTEXTMODE
 70
     0
  9
$MIRRTEXT
 70
     1
  9
$LTSCALE
 40
1.0
  9
$ATTMODE
 70
     1
  9
$TEXTSIZE
 40
3.5
  9
$TRACEWID
 40
1.0
  9
$TEXTSTYLE
  7
Standard
  9
$CLAYER
  8
0
  9
$CELTYPE
  6
ByLayer
  9
$CECOLOR
 62
   256
  9
$CELTSCALE
 40
1.0
  9
$DISPSILH
 70
     0
  9
$DIMSCALE
 40
1.0
  9
$DIMASZ
 40
3.302
  9
$DIMEXO
 40
1.0
  9
$DIMDLI
 40
3.75
  9
$DIMRND
 40
0.0
  9
$DIMDLE
 40
0.0
  9
$DIMEXE
 40
1.0
  9
$DIMTP
 40
0.0
  9
$DIMTM
 40
0.0
  9
$DIMTXT
 40
3.5
  9
$DIMCEN
 40
2.5
  9
$DIMTSZ
 40
0.0
  9
$DIMTOL
 70
     0
  9
$DIMLIM
 70
     0
  9
$DIMTIH
 70
     1
  9
$DIMTOH
 70
     1
  9
$DIMSE1
 70
     0
  9
$DIMSE2
 70
     0
  9
$DIMTAD
 70
     1
  9
$DIMZIN
 70
     0
  9
$DIMBLK
  1

  9
$DIMASO
 70
     1
  9
$DIMSHO
 70
     1
  9
$DIMPOST
  1

  9
$DIMAPOST
  1

  9
$DIMALT
 70
     0
  9
$DIMALTD
 70
     3
  9
$DIMALTF
 40
0.0393700787401575
  9
$DIMLFAC
 40
1.0
  9
$DIMTOFL
 70
     1
  9
$DIMTVP
 40
0.0
  9
$DIMTIX
 70
     0
  9
$DIMSOXD
 70
     0
  9
$DIMSAH
 70
     0
  9
$DIMBLK1
  1

  9
$DIMBLK2
  1

  9
$DIMSTYLE
  2
ISO-25
  9
$DIMCLRD
 70
     0
  9
$DIMCLRE
 70
     0
  9
$DIMCLRT
 70
     0
  9
$DIMTFAC
 40
1.0
  9
$DIMGAP
 40
1.524
  9
$DIMJUST
 70
     0
  9
$DIMSD1
 70
     0
  9
$DIMSD2
 70
     0
  9
$DIMTOLJ
 70
     0
  9
$DIMTZIN
 70
     0
  9
$DIMALTZ
 70
     0
  9
$DIMALTTZ
 70
     0
  9
$DIMUPT
 70
     0
  9
$DIMDEC
 70
     2
  9
$DIMTDEC
 70
     2
  9
$DIMALTU
 70
     2
  9
$DIMALTTD
 70
     3
  9
$DIMTXSTY
  7
Standard
  9
$DIMAUNIT
 70
     0
  9
$DIMADEC
 70
     2
  9
$DIMALTRND
 40
0.0
  9
$DIMAZIN
 70
     0
  9
$DIMDSEP
 70
    44
  9
$DIMATFIT
 70
     3
  9
$DIMFRAC
 70
     0
  9
$DIMLDRBLK
  1

  9
$DIMLUNIT
 70
     2
  9
$DIMLWD
 70
    -2
  9
$DIMLWE
 70
    -2
  9
$DIMTMOVE
 70
     0
  9
$LUNITS
 70
     2
  9
$LUPREC
 70
     2
  9
$SKETCHINC
 40
1.0
  9
$FILLETRAD
 40
10.0
  9
$AUNITS
 70
     0
  9
$AUPREC
 70
     2
  9
$MENU
  1
.
  9
$ELEVATION
 40
0.0
  9
$PELEVATION
 40
0.0
  9
$THICKNESS
 40
0.0
  9
$LIMCHECK
 70
     0
  9
$CHAMFERA
 40
0.0
  9
$CHAMFERB
 40
0.0
  9
$CHAMFERC
 40
0.0
  9
$CHAMFERD
 40
0.0
  9
$SKPOLY
 70
     0
  9
$TDCREATE
 40
2458319.557055301
  9
$TDUCREATE
 40
2458319.182055301
  9
$TDUPDATE
 40
2459720.390876319
  9
$TDUUPDATE
 40
2459720.015876319
  9
$TDINDWG
 40
0.0041044792
  9
$TDUSRTIMER
 40
0.0001659954
  9
$USRTIMER
 70
     1
  9
$ANGBASE
 50
0.0
  9
$ANGDIR
 70
     0
  9
$PDMODE
 70
     0
  9
$PDSIZE
 40
-1.0
  9
$PLINEWID
 40
0.0
  9
$SPLFRAME
 70
     0
  9
$SPLINETYPE
 70
     6
  9
$SPLINESEGS
 70
     8
  9
$HANDSEED
  5
4D3
  9
$SURFTAB1
 70
     6
  9
$SURFTAB2
 70
     6
  9
$SURFTYPE
 70
     6
  9
$SURFU
 70
     6
  9
$SURFV
 70
     6
  9
$UCSBASE
  2

  9
$UCSNAME
  2

  9
$UCSORG
 10
0.0
 20
0.0
 30
0.0
  9
$UCSXDIR
 10
1.0
 20
0.0
 30
0.0
  9
$UCSYDIR
 10
0.0
 20
1.0
 30
0.0
  9
$UCSORTHOREF
  2

  9
$UCSORTHOVIEW
 70
     0
  9
$UCSORGTOP
 10
0.0
 20
0.0
 30
0.0
  9
$UCSORGBOTTOM
 10
0.0
 20
0.0
 30
0.0
  9
$UCSORGLEFT
 10
0.0
 20
0.0
 30
0.0
  9
$UCSORGRIGHT
 10
0.0
 20
0.0
 30
0.0
  9
$UCSORGFRONT
 10
0.0
 20
0.0
 30
0.0
  9
$UCSORGBACK
 10
0.0
 20
0.0
 30
0.0
  9
$PUCSBASE
  2

  9
$PUCSNAME
  2

  9
$PUCSORG
 10
0.0
 20
0.0
 30
0.0
  9
$PUCSXDIR
 10
1.0
 20
0.0
 30
0.0
  9
$PUCSYDIR
 10
0.0
 20
1.0
 30
0.0
  9
$PUCSORTHOREF
  2

  9
$PUCSORTHOVIEW
 70
     0
  9
$PUCSORGTOP
 10
0.0
 20
0.0
 30
0.0
  9
$PUCSORGBOTTOM
 10
0.0
 20
0.0
 30
0.0
  9
$PUCSORGLEFT
 10
0.0
 20
0.0
 30
0.0
  9
$PUCSORGRIGHT
 10
0.0
 20
0.0
 30
0.0
  9
$PUCSORGFRONT
 10
0.0
 20
0.0
 30
0.0
  9
$PUCSORGBACK
 10
0.0
 20
0.0
 30
0.0
  9
$USERI1
 70
     0
  9
$USERI2
 70
     0
  9
$USERI3
 70
     0
  9
$USERI4
 70
     0
  9
$USERI5
 70
     0
  9
$USERR1
 40
0.0
  9
$USERR2
 40
0.0
  9
$USERR3
 40
0.0
  9
$USERR4
 40
0.0
  9
$USERR5
 40
0.0
  9
$WORLDVIEW
 70
     1
  9
$SHADEDGE
 70
     3
  9
$SHADEDIF
 70
    70
  9
$TILEMODE
 70
     1
  9
$MAXACTVP
 70
    64
  9
$PINSBASE
 10
0.0
 20
0.0
 30
0.0
  9
$PLIMCHECK
 70
     0
  9
$PEXTMIN
 10
1.000000000000000E+20
 20
1.000000000000000E+20
 30
1.000000000000000E+20
  9
$PEXTMAX
 10
-1.000000000000000E+20
 20
-1.000000000000000E+20
 30
-1.000000000000000E+20
  9
$PLIMMIN
 10
0.0
 20
0.0
  9
$PLIMMAX
 10
0.0
 20
0.0
  9
$UNITMODE
 70
     0
  9
$VISRETAIN
 70
     1
  9
$PLINEGEN
 70
     0
  9
$PSLTSCALE
 70
     1
  9
$TREEDEPTH
 70
  3020
  9
$CMLSTYLE
  2
Standard
  9
$CMLJUST
 70
     0
  9
$CMLSCALE
 40
20.0
  9
$PROXYGRAPHICS
 70
     1
  9
$MEASUREMENT
 70
     1
  9
$CELWEIGHT
370
    -1
  9
$ENDCAPS
280
     0
  9
$JOINSTYLE
280
     0
  9
$LWDISPLAY
290
     1
  9
$INSUNITS
 70
     4
  9
$HYPERLINKBASE
  1

  9
$STYLESHEET
  1

  9
$XEDIT
290
     1
  9
$CEPSNTYPE
380
     0
  9
$PSTYLEMODE
290
     1
  9
$FINGERPRINTGUID
  2
{2CF5275D-770E-4394-9AB4-9438EE7412DD}
  9
$VERSIONGUID
  2
{FAEB1C32-E019-11D5-929B-00C0DF256EC4}
  9
$EXTNAMES
290
     1
  9
$PSVPSCALE
 40
0.0
  9
$OLESTARTUP
290
     0
  0
ENDSEC
  0
SECTION
  2
CLASSES
  0
CLASS
  1
ACDBDICTIONARYWDFLT
  2
AcDbDictionaryWithDefault
  3
ObjectDBX Classes
 90
        0
280
     0
281
     0
  0
CLASS
  1
VISUALSTYLE
  2
AcDbVisualStyle
  3
ObjectDBX Classes
 90
     4095
280
     0
281
     0
  0
CLASS
  1
MATERIAL
  2
AcDbMaterial
  3
ObjectDBX Classes
 90
     1153
280
     0
281
     0
  0
CLASS
  1
SCALE
  2
AcDbScale
  3
ObjectDBX Classes
 90
     1153
280
     0
281
     0
  0
CLASS
  1
SUN
  2
AcDbSun
  3
SCENEOE
 90
     1153
280
     0
281
     0
  0
CLASS
  1
ACDBPLACEHOLDER
  2
AcDbPlaceHolder
  3
ObjectDBX Classes
 90
        0
280
     0
281
     0
  0
CLASS
  1
LAYOUT
  2
AcDbLayout
  3
ObjectDBX Classes
 90
        0
280
     0
281
     0
  0
CLASS
  1
TABLESTYLE
  2
AcDbTableStyle
  3
ObjectDBX Classes
 90
     4095
280
     0
281
     0
  0
CLASS
  1
MLEADERSTYLE
  2
AcDbMLeaderStyle
  3
ACDB_MLEADERSTYLE_CLASS
 90
     4095
280
     0
281
     0
  0
CLASS
  1
RASTERVARIABLES
  2
AcDbRasterVariables
  3
ISM
 90
        0
280
     0
281
     0
  0
CLASS
  1
DIMASSOC
  2
AcDbDimAssoc
  3
"AcDbDimAssoc|Product Desc:     AcDim ARX App For Dimension|Company:          Autodesk, Inc.|WEB Address:      www.autodesk.com"
 90
        0
280
     0
281
     0
  0
ENDSEC
  0
SECTION
  2
TABLES
  0
TABLE
  2
VPORT
  5
8
330
0
100
AcDbSymbolTable
 70
     1
  0
VPORT
  5
29
330
8
100
AcDbSymbolTableRecord
100
AcDbViewportTableRecord
  2
*Active
 70
     0
 10
0.0
 20
0.0
 11
1.0
 21
1.0
 12
-1.911414152057738
 22
1.52814078197526
 13
0.0
 23
0.0
 14
10.0
 24
10.0
 15
10.0
 25
10.0
 16
0.0
 26
0.0
 36
1.0
 17
0.0
 27
0.0
 37
0.0
 40
133.6847428352313
 41
1.519944979367263
 42
50.0
 43
0.0
 44
0.0
 50
0.0
 51
0.0
 71
    16
 72
  2000
 73
     1
 74
     3
 75
     0
 76
     0
 77
     0
 78
     0
281
     0
 65
     1
110
0.0
120
0.0
130
0.0
111
1.0
121
0.0
131
0.0
112
0.0
122
1.0
132
0.0
 79
     0
146
0.0
  0
ENDTAB
  0
TABLE
  2
LTYPE
  5
5
330
0
100
AcDbSymbolTable
 70
     6
  0
LTYPE
  5
14
330
5
100
AcDbSymbolTableRecord
100
AcDbLinetypeTableRecord
  2
ByBlock
 70
     0
  3

 72
    65
 73
     0
 40
0.0
  0
LTYPE
  5
15
330
5
100
AcDbSymbolTableRecord
100
AcDbLinetypeTableRecord
  2
ByLayer
 70
     0
  3

 72
    65
 73
     0
 40
0.0
  0
LTYPE
  5
16
330
5
100
AcDbSymbolTableRecord
100
AcDbLinetypeTableRecord
  2
Continuous
 70
     0
  3
Solid line
 72
    65
 73
     0
 40
0.0
  0
LTYPE
  5
6A
330
5
100
AcDbSymbolTableRecord
100
AcDbLinetypeTableRecord
  2
HIDDEN
 70
     0
  3
Hidden __ __ __ __ __ __ __ __ __ __ __ __ __ __
 72
    65
 73
     2
 40
1.905
 49
1.27
 74
     0
 49
-0.635
 74
     0
  0
LTYPE
  5
6B
330
5
100
AcDbSymbolTableRecord
100
AcDbLinetypeTableRecord
  2
PHANTOM
 70
     0
  3
Phantom ______  __  __  ______  __  __  ______
 72
    65
 73
     6
 40
12.7
 49
6.35
 74
     0
 49
-1.27
 74
     0
 49
1.27
 74
     0
 49
-1.27
 74
     0
 49
1.27
 74
     0
 49
-1.27
 74
     0
  0
LTYPE
  5
6C
330
5
100
AcDbSymbolTableRecord
100
AcDbLinetypeTableRecord
  2
CENTER
 70
     0
  3
Center ____ _ ____ _ ____ _ ____ _ ____ _ ____
 72
    65
 73
     4
 40
10.16
 49
6.35
 74
     0
 49
-1.27
 74
     0
 49
1.27
 74
     0
 49
-1.27
 74
     0
  0
LTYPE
  5
6D
330
5
100
AcDbSymbolTableRecord
100
AcDbLinetypeTableRecord
  2
CENTERX2
 70
     0
  3
Center (2x) ________  __  ________  __  _____
 72
    65
 73
     4
 40
20.32
 49
12.7
 74
     0
 49
-2.54
 74
     0
 49
2.54
 74
     0
 49
-2.54
 74
     0
  0
LTYPE
  5
6E
330
5
100
AcDbSymbolTableRecord
100
AcDbLinetypeTableRecord
  2
DOT2
 70
     0
  3
Dot (.5x) ........................................
 72
    65
 73
     2
 40
0.635
 49
0.0
 74
     0
 49
-0.635
 74
     0
  0
ENDTAB
  0
TABLE
  2
LAYER
  5
2
102
{ACAD_XDICTIONARY
360
369
102
}
330
0
100
AcDbSymbolTable
 70
    18
  0
LAYER
  5
10
330
2
100
AcDbSymbolTableRecord
100
AcDbLayerTableRecord
  2
0
 70
     0
 62
     7
  6
Continuous
370
    -3
390
F
  0
LAYER
  5
6F
330
2
100
AcDbSymbolTableRecord
100
AcDbLayerTableRecord
  2
FORMAT
 70
     0
 62
     2
  6
Continuous
370
    -3
390
F
  0
LAYER
  5
70
330
2
100
AcDbSymbolTableRecord
100
AcDbLayerTableRecord
  2
외형선
 70
     0
 62
     4
  6
Continuous
370
    30
390
F
  0
LAYER
  5
71
330
2
100
AcDbSymbolTableRecord
100
AcDbLayerTableRecord
  2
숨은선
 70
     0
 62
     2
  6
HIDDEN
370
    15
390
F
  0
LAYER
  5
72
330
2
100
AcDbSymbolTableRecord
100
AcDbLayerTableRecord
  2
중심선
 70
     0
 62
     1
  6
CENTERX2
370
    -3
390
F
  0
LAYER
  5
73
330
2
100
AcDbSymbolTableRecord
100
AcDbLayerTableRecord
  2
파단선
 70
     0
 62
     4
  6
Continuous
370
    -3
390
F
  0
LAYER
  5
74
330
2
100
AcDbSymbolTableRecord
100
AcDbLayerTableRecord
  2
해칭선
 70
     0
 62
   100
  6
Continuous
370
    -3
390
F
  0
LAYER
  5
75
330
2
100
AcDbSymbolTableRecord
100
AcDbLayerTableRecord
  2
가는실선
 70
     0
 62
     4
  6
Continuous
370
    -3
390
F
  0
LAYER
  5
76
330
2
100
AcDbSymbolTableRecord
100
AcDbLayerTableRecord
  2
치수_보조선
 70
     0
 62
     4
  6
Continuous
370
    -3
390
F
  0
LAYER
  5
77
330
2
100
AcDbSymbolTableRecord
100
AcDbLayerTableRecord
  2
치수문자_일반주서
 70
     0
 62
     7
  6
Continuous
370
    15
390
F
  0
LAYER
  5
78
330
2
100
AcDbSymbolTableRecord
100
AcDbLayerTableRecord
  2
개별주서
 70
     0
 62
   100
  6
Continuous
370
    30
390
F
  0
LAYER
  5
79
330
2
100
AcDbSymbolTableRecord
100
AcDbLayerTableRecord
  2
중간선
 70
     0
 62
     2
  6
Continuous
370
    15
390
F
  0
LAYER
  5
7A
330
2
100
AcDbSymbolTableRecord
100
AcDbLayerTableRecord
  2
윤곽선
 70
     0
 62
     3
  6
Continuous
370
    40
390
F
  0
LAYER
  5
7B
330
2
100
AcDbSymbolTableRecord
100
AcDbLayerTableRecord
  2
중심마크
 70
     0
 62
   100
  6
Continuous
370
    30
390
F
  0
LAYER
  5
7C
330
2
100
AcDbSymbolTableRecord
100
AcDbLayerTableRecord
  2
가상선
 70
     0
 62
     4
  6
PHANTOM
370
    -3
390
F
  0
LAYER
  5
7D
330
2
100
AcDbSymbolTableRecord
100
AcDbLayerTableRecord
  2
특수지정선
 70
     0
 62
     5
  6
CENTERX2
370
    60
390
F
  0
LAYER
  5
7E
330
2
100
AcDbSymbolTableRecord
100
AcDbLayerTableRecord
  2
참조1
 70
     0
 62
    -4
  6
Continuous
370
    -3
390
F
  0
LAYER
  5
2B1
330
2
100
AcDbSymbolTableRecord
100
AcDbLayerTableRecord
  2
Defpoints
 70
     0
 62
     7
  6
Continuous
290
     0
370
    -3
390
F
  0
ENDTAB
  0
TABLE
  2
STYLE
  5
3
330
0
100
AcDbSymbolTable
 70
     2
  0
STYLE
  5
11
330
3
100
AcDbSymbolTableRecord
100
AcDbTextStyleTableRecord
  2
Standard
 70
     0
 40
0.0
 41
1.0
 50
0.0
 71
     0
 42
3.5
  3
txt
  4

  0
STYLE
  5
94
330
3
100
AcDbSymbolTableRecord
100
AcDbTextStyleTableRecord
  2
SLDTEXTSTYLE0
 70
     0
 40
0.0
 41
0.75
 50
0.0
 71
     0
 42
3.5
  3
TXT
  4

  0
ENDTAB
  0
TABLE
  2
VIEW
  5
6
330
0
100
AcDbSymbolTable
 70
     0
  0
ENDTAB
  0
TABLE
  2
UCS
  5
7
330
0
100
AcDbSymbolTable
 70
     0
  0
ENDTAB
  0
TABLE
  2
APPID
  5
9
330
0
100
AcDbSymbolTable
 70
     3
  0
APPID
  5
12
330
9
100
AcDbSymbolTableRecord
100
AcDbRegAppTableRecord
  2
ACAD
 70
     0
  0
APPID
  5
2BD
330
9
100
AcDbSymbolTableRecord
100
AcDbRegAppTableRecord
  2
PE_URL
 70
     0
  0
APPID
  5
2BE
330
9
100
AcDbSymbolTableRecord
100
AcDbRegAppTableRecord
  2
ACAD_DSTYLE_DIMRADIAL_EXTENSION
 70
     0
  0
ENDTAB
  0
TABLE
  2
DIMSTYLE
  5
A
330
0
100
AcDbSymbolTable
 70
     4
100
AcDbDimStyleTable
  0
DIMSTYLE
105
27
330
A
100
AcDbSymbolTableRecord
100
AcDbDimStyleTableRecord
  2
ISO-25
 70
     0
 41
2.5
 42
0.625
 43
3.75
 44
1.25
 73
     0
 74
     0
 77
     1
 78
     8
140
2.5
141
2.5
143
0.03937007874016
147
0.625
171
     3
172
     1
178
     0
271
     2
272
     2
274
     3
278
    44
283
     0
284
     8
340
11
  0
DIMSTYLE
105
22D
102
{ACAD_REACTORS
330
22C
330
241
330
256
330
26A
330
42C
102
}
330
A
100
AcDbSymbolTableRecord
100
AcDbDimStyleTableRecord
  2
SLDDIMSTYLE0
 70
     0
 41
3.302
 44
0.0
 45
0.000000001
 73
     0
 74
     0
 77
     1
 78
    12
 79
     3
140
3.5
143
0.0393700787401575
147
0.875
148
0.000000001
170
     1
172
     1
173
     1
178
     0
271
     2
272
     2
276
     2
284
    12
289
     0
340
94
  0
DIMSTYLE
105
257
330
A
100
AcDbSymbolTableRecord
100
AcDbDimStyleTableRecord
  2
SLDDIMSTYLE1
 70
     0
 41
3.302
 44
0.0
 45
0.000000001
 73
     0
 74
     0
 77
     1
 78
     4
 79
     1
140
3.5
143
0.0393700787401575
147
0.875
148
0.000000001
170
     1
173
     1
178
     0
271
     2
272
     2
276
     2
284
    12
340
94
  0
DIMSTYLE
105
26B
330
A
100
AcDbSymbolTableRecord
100
AcDbDimStyleTableRecord
  2
SLDDIMSTYLE2
 70
     0
 41
3.302
 44
0.0
 45
0.000000001
 73
     0
 74
     0
 77
     1
 78
    12
 79
     3
140
3.5
143
0.0393700787401575
147
0.875
148
0.000000001
170
     1
173
     1
178
     0
271
     2
272
     2
276
     2
284
    12
340
94
  0
ENDTAB
  0
TABLE
  2
BLOCK_RECORD
  5
1
330
0
100
AcDbSymbolTable
 70
    19
  0
BLOCK_RECORD
  5
1F
102
{ACAD_XDICTIONARY
360
4D0
102
}
330
1
100
AcDbSymbolTableRecord
100
AcDbBlockTableRecord
  2
*Model_Space
340
22
  0
BLOCK_RECORD
  5
1B
330
1
100
AcDbSymbolTableRecord
100
AcDbBlockTableRecord
  2
*Paper_Space
340
1E
  0
BLOCK_RECORD
  5
23
330
1
100
AcDbSymbolTableRecord
100
AcDbBlockTableRecord
  2
*Paper_Space0
340
26
  0
BLOCK_RECORD
  5
7F
330
1
100
AcDbSymbolTableRecord
100
AcDbBlockTableRecord
  2
블럭10
340
0
102
{BLKREFS
331
225
102
}
  0
BLOCK_RECORD
  5
22E
330
1
100
AcDbSymbolTableRecord
100
AcDbBlockTableRecord
  2
_D
340
0
  0
BLOCK_RECORD
  5
242
330
1
100
AcDbSymbolTableRecord
100
AcDbBlockTableRecord
  2
_D_1
340
0
  0
BLOCK_RECORD
  5
258
330
1
100
AcDbSymbolTableRecord
100
AcDbBlockTableRecord
  2
_D_2
340
0
  0
BLOCK_RECORD
  5
26C
330
1
100
AcDbSymbolTableRecord
100
AcDbBlockTableRecord
  2
_D_3
340
0
  0
BLOCK_RECORD
  5
285
330
1
100
AcDbSymbolTableRecord
100
AcDbBlockTableRecord
  2
SW_DOWELSYMBOL_0
340
0
102
{BLKREFS
331
28B
102
}
  0
BLOCK_RECORD
  5
347
330
1
100
AcDbSymbolTableRecord
100
AcDbBlockTableRecord
  2
_D_4
340
0
  0
BLOCK_RECORD
  5
361
330
1
100
AcDbSymbolTableRecord
100
AcDbBlockTableRecord
  2
*D8
340
0
  0
BLOCK_RECORD
  5
36D
330
1
100
AcDbSymbolTableRecord
100
AcDbBlockTableRecord
  2
*D9
340
0
  0
BLOCK_RECORD
  5
379
330
1
100
AcDbSymbolTableRecord
100
AcDbBlockTableRecord
  2
*D10
340
0
  0
BLOCK_RECORD
  5
385
330
1
100
AcDbSymbolTableRecord
100
AcDbBlockTableRecord
  2
*D11
340
0
  0
BLOCK_RECORD
  5
3E0
330
1
100
AcDbSymbolTableRecord
100
AcDbBlockTableRecord
  2
*D12
340
0
  0
BLOCK_RECORD
  5
3EC
330
1
100
AcDbSymbolTableRecord
100
AcDbBlockTableRecord
  2
*D13
340
0
  0
BLOCK_RECORD
  5
3F8
330
1
100
AcDbSymbolTableRecord
100
AcDbBlockTableRecord
  2
*D14
340
0
  0
BLOCK_RECORD
  5
406
330
1
100
AcDbSymbolTableRecord
100
AcDbBlockTableRecord
  2
*D15
340
0
  0
BLOCK_RECORD
  5
414
330
1
100
AcDbSymbolTableRecord
100
AcDbBlockTableRecord
  2
*D16
340
0
  0
BLOCK_RECORD
  5
42F
330
1
100
AcDbSymbolTableRecord
100
AcDbBlockTableRecord
  2
*D17
340
0
  0
BLOCK_RECORD
  5
49B
330
1
100
AcDbSymbolTableRecord
100
AcDbBlockTableRecord
  2
*D18
340
0
  0
ENDTAB
  0
ENDSEC
  0
SECTION
  2
BLOCKS
  0
BLOCK
  5
20
330
1F
100
AcDbEntity
  8
0
100
AcDbBlockBegin
  2
*Model_Space
 70
     0
 10
0.0
 20
0.0
 30
0.0
  3
*Model_Space
  1
*Model_Space
  0
ENDBLK
  5
21
330
1F
100
AcDbEntity
  8
0
100
AcDbBlockEnd
  0
BLOCK
  5
1C
330
1B
100
AcDbEntity
 67
     1
  8
0
100
AcDbBlockBegin
  2
*Paper_Space
 70
     0
 10
0.0
 20
0.0
 30
0.0
  3
*Paper_Space
  1
*Paper_Space
  0
ENDBLK
  5
1D
330
1B
100
AcDbEntity
 67
     1
  8
0
100
AcDbBlockEnd
  0
BLOCK
  5
24
330
23
100
AcDbEntity
  8
0
100
AcDbBlockBegin
  2
*Paper_Space0
 70
     0
 10
0.0
 20
0.0
 30
0.0
  3
*Paper_Space0
  1
*Paper_Space0
  0
ENDBLK
  5
25
330
23
100
AcDbEntity
  8
0
100
AcDbBlockEnd
  0
BLOCK
  5
80
330
7F
100
AcDbEntity
  8
0
100
AcDbBlockBegin
  2
블럭10
 70
     2
 10
0.0
 20
0.0
 30
0.0
  3
블럭10
  1
블럭10
  0
ELLIPSE
  5
82
330
7F
100
AcDbEntity
  8
중심선
100
AcDbEllipse
 10
20.54032771741204
 20
12.0471743016438
 30
0.0
 11
6.600054785286829
 21
-1.261213355974178E-13
 31
0.0
210
0.0
220
0.0
230
1.0
 40
0.636358354079598
 41
0.9219305317359503
 42
6.513795318482858
  0
ELLIPSE
  5
83
330
7F
100
AcDbEntity
  8
중심선
100
AcDbEllipse
 10
20.54032771746488
 20
12.04717430159265
 30
0.0
 11
3.960054785062283
 21
1.540847449632565E-10
 31
0.0
210
0.0
220
0.0
230
1.0
 40
0.3939339440162632
 41
1.131841032648279
 42
5.62031148352944
  0
LINE
  5
84
330
7F
100
AcDbEntity
  8
중심선
100
AcDbLine
 10
2.268634060543552
 20
16.24717430164393
 30
0.0
 11
5.714909304380834
 21
16.24717430164393
 31
0.0
  0
LINE
  5
85
330
7F
100
AcDbEntity
  8
중심선
100
AcDbLine
 10
5.245725140726316
 20
7.84717430164391
 30
0.0
 11
8.692000384563599
 21
7.84717430164391
 31
0.0
  0
LINE
  5
86
330
7F
100
AcDbEntity
  8
중심선
100
AcDbLine
 10
15.74043728645272
 20
16.24717430164393
 30
0.0
 11
8.692000384563599
 21
7.84717430164391
 31
0.0
  0
LINE
  5
87
330
7F
100
AcDbEntity
  8
중심선
100
AcDbLine
 10
0.1404042013395286
 20
13.71084872107135
 30
0.0
 11
3.58671253028996
 21
13.71088815037384
 31
0.0
  0
LINE
  5
88
330
7F
100
AcDbEntity
  8
중심선
100
AcDbLine
 10
2.750260043222114
 20
10.84717430164391
 30
0.0
 11
6.196535287059397
 21
10.84717430164391
 31
0.0
  0
LINE
  5
89
330
7F
100
AcDbEntity
  8
중심선
100
AcDbLine
 10
12.29416204261559
 20
16.24717430164393
 30
0.0
 11
5.245725140726316
 21
7.84717430164391
 31
0.0
  0
LINE
  5
8A
330
7F
100
AcDbEntity
  8
중심선
100
AcDbLine
 10
10.72767329541681
 20
16.24717430164393
 30
0.0
 11
6.196535287059397
 21
10.84717430164391
 31
0.0
  0
LINE
  5
8B
330
7F
100
AcDbEntity
  8
중심선
100
AcDbLine
 10
7.28139805157953
 20
16.24717430164393
 30
0.0
 11
2.750260043222114
 21
10.84717430164391
 31
0.0
  0
LINE
  5
8C
330
7F
100
AcDbEntity
  8
중심선
100
AcDbLine
 10
5.714909304380834
 20
16.24717430164393
 30
0.0
 11
3.58671253028996
 21
13.71088815037384
 31
0.0
  0
LINE
  5
8D
330
7F
100
AcDbEntity
  8
중심선
100
AcDbLine
 10
2.268634060543552
 20
16.24717430164393
 30
0.0
 11
0.1404042013395286
 21
13.71084872107135
 31
0.0
  0
LINE
  5
8E
330
7F
100
AcDbEntity
  8
중심선
100
AcDbLine
 10
7.28139805157953
 20
16.24717430164393
 30
0.0
 11
10.72767329541681
 21
16.24717430164393
 31
0.0
  0
LINE
  5
8F
330
7F
100
AcDbEntity
  8
중심선
100
AcDbLine
 10
12.29416204261559
 20
16.24717430164393
 30
0.0
 11
15.74043728645272
 21
16.24717430164393
 31
0.0
  0
LINE
  5
90
330
7F
100
AcDbEntity
  8
중심선
100
AcDbLine
 10
19.22036997980202
 20
11.08717430171403
 30
0.0
 11
23.66174974927406
 21
11.08717430171406
 31
0.0
  0
LINE
  5
91
330
7F
100
AcDbEntity
  8
중심선
100
AcDbLine
 10
19.22039502424796
 20
13.00717430171391
 30
0.0
 11
19.22036997980202
 21
11.08717430171403
 31
0.0
  0
LINE
  5
92
330
7F
100
AcDbEntity
  8
중심선
100
AcDbLine
 10
19.22039502424796
 20
13.00717430171391
 30
0.0
 11
26.96566020931264
 21
13.00717430171391
 31
0.0
  0
LINE
  5
93
330
7F
100
AcDbEntity
  8
중심선
100
AcDbLine
 10
22.22332737316547
 20
13.45928029700563
 30
0.0
 11
24.52862924686651
 21
15.39360700705356
 31
0.0
  0
ATTDEF
  5
95
330
7F
100
AcDbEntity
  8
FORMAT
 62
     2
100
AcDbText
 10
-9.18129528874128
 20
2.075366912832191
 30
0.0
 40
4.233333333333333
  1
E5056040 [ 5 FLUTE ]
 41
0.75
  7
SLDTEXTSTYLE0
 11
-9.18129528874128
 21
-0.0412997538344756
 31
0.0
100
AcDbAttributeDefinition
  3

  2
AUTOATTR0
 70
     0
 74
     1
  0
ENDBLK
  5
81
330
7F
100
AcDbEntity
  8
0
100
AcDbBlockEnd
  0
BLOCK
  5
22F
330
22E
100
AcDbEntity
  8
0
100
AcDbBlockBegin
  2
_D
 70
     0
 10
0.0
 20
0.0
 30
0.0
  3
_D
  1
_D
  0
LINE
  5
231
330
22E
100
AcDbEntity
  8
치수문자_일반주서
 62
     0
370
    -2
100
AcDbLine
 10
-44.21249999999998
 20
7.93749999999998
 30
0.0
 11
-58.14999999999998
 21
7.937499999999929
 31
0.0
  0
LINE
  5
232
330
22E
100
AcDbEntity
  8
치수문자_일반주서
 62
     0
370
    -2
100
AcDbLine
 10
-44.21249999999998
 20
-7.93750000000002
 30
0.0
 11
-58.14999999999992
 21
-7.937500000000071
 31
0.0
  0
LINE
  5
233
330
22E
100
AcDbEntity
  8
치수문자_일반주서
 62
     0
370
    -2
100
AcDbLine
 10
-58.14999999999998
 20
7.937499999999929
 30
0.0
 11
-58.1500000000001
 21
42.76024999999994
 31
0.0
  0
LINE
  5
234
330
22E
100
AcDbEntity
  8
치수문자_일반주서
 62
     0
370
    -2
100
AcDbLine
 10
-58.14999999999998
 20
7.937499999999929
 30
0.0
 11
-58.14999999999992
 21
-7.937500000000071
 31
0.0
  0
LINE
  5
235
330
22E
100
AcDbEntity
  8
치수문자_일반주서
 62
     0
370
    -2
100
AcDbLine
 10
-58.14999999999999
 20
11.23949999999993
 30
0.0
 11
-58.15000000000001
 21
14.54149999999993
 31
0.0
  0
LINE
  5
236
330
22E
100
AcDbEntity
  8
치수문자_일반주서
 62
     0
370
    -2
100
AcDbLine
 10
-58.14999999999991
 20
-11.23950000000007
 30
0.0
 11
-58.14999999999989
 21
-14.54150000000007
 31
0.0
  0
SOLID
  5
237
330
22E
100
AcDbEntity
  8
치수문자_일반주서
 62
     0
100
AcDbTrace
 10
-58.70033333333333
 20
11.23949999999993
 30
0.0
 11
-57.59966666666666
 21
11.23949999999993
 31
0.0
 12
-58.14999999999998
 22
7.937499999999929
 32
0.0
 13
-58.14999999999998
 23
7.937499999999929
 33
0.0
  0
SOLID
  5
238
330
22E
100
AcDbEntity
  8
치수문자_일반주서
 62
     0
100
AcDbTrace
 10
-57.59966666666657
 20
-11.23950000000007
 30
0.0
 11
-58.70033333333324
 21
-11.23950000000007
 31
0.0
 12
-58.14999999999992
 22
-7.937500000000071
 32
0.0
 13
-58.14999999999992
 23
-7.937500000000071
 33
0.0
  0
MTEXT
  5
239
330
22E
100
AcDbEntity
  8
치수문자_일반주서
 62
     0
100
AcDbMText
 10
-62.52500000000005
 20
28.76024999999992
 30
0.0
 40
3.5
 41
0.0
 71
     2
 72
     1
  1
\A1;%%c15.88 [5/8]
  7
SLDTEXTSTYLE0
 11
-3.580687802255623E-15
 21
1.0
 31
0.0
 73
     1
 44
1.0
  0
POINT
  5
41E
330
22E
100
AcDbEntity
  8
Defpoints
 62
     0
100
AcDbPoint
 10
-44.14999999999998
 20
7.93749999999998
 30
0.0
  0
POINT
  5
41F
330
22E
100
AcDbEntity
  8
Defpoints
 62
     0
100
AcDbPoint
 10
-44.14999999999998
 20
-7.93750000000002
 30
0.0
  0
POINT
  5
420
330
22E
100
AcDbEntity
  8
Defpoints
 62
     0
100
AcDbPoint
 10
-58.14999999999992
 20
-7.937500000000072
 30
0.0
  0
ENDBLK
  5
230
330
22E
100
AcDbEntity
  8
0
100
AcDbBlockEnd
  0
BLOCK
  5
243
330
242
100
AcDbEntity
  8
0
100
AcDbBlockBegin
  2
_D_1
 70
     0
 10
0.0
 20
0.0
 30
0.0
  3
_D_1
  1
_D_1
  0
LINE
  5
245
330
242
100
AcDbEntity
  8
치수문자_일반주서
 62
     0
370
    -2
100
AcDbLine
 10
31.05
 20
8.000000253319735
 30
0.0
 11
31.05
 21
18.46987061926136
 31
0.0
  0
LINE
  5
246
330
242
100
AcDbEntity
  8
치수문자_일반주서
 62
     0
370
    -2
100
AcDbLine
 10
12.0
 20
-5.676577443912263
 30
0.0
 11
12.0
 21
18.46987061926136
 31
0.0
  0
LINE
  5
247
330
242
100
AcDbEntity
  8
치수문자_일반주서
 62
     0
370
    -2
100
AcDbLine
 10
27.748
 20
18.46987061926136
 30
0.0
 11
15.302
 21
18.46987061926136
 31
0.0
  0
SOLID
  5
248
330
242
100
AcDbEntity
  8
치수문자_일반주서
 62
     0
100
AcDbTrace
 10
27.748
 20
17.91953728592803
 30
0.0
 11
27.748
 21
19.0202039525947
 31
0.0
 12
31.05
 22
18.46987061926136
 32
0.0
 13
31.05
 23
18.46987061926136
 33
0.0
  0
SOLID
  5
249
330
242
100
AcDbEntity
  8
치수문자_일반주서
 62
     0
100
AcDbTrace
 10
15.302
 20
19.0202039525947
 30
0.0
 11
15.302
 21
17.91953728592803
 31
0.0
 12
12.0
 22
18.46987061926136
 32
0.0
 13
12.0
 23
18.46987061926136
 33
0.0
  0
MTEXT
  5
24A
330
242
100
AcDbEntity
  8
치수문자_일반주서
 62
     0
100
AcDbMText
 10
22.06156083771382
 20
22.84487061926136
 30
0.0
 40
3.5
 41
0.0
 71
     2
 72
     1
  1
\A1;19.05 [3/4]
  7
SLDTEXTSTYLE0
 73
     1
 44
1.0
  0
POINT
  5
24B
330
242
100
AcDbEntity
  8
Defpoints
 62
     0
100
AcDbPoint
 10
31.05
 20
7.937500253319735
 30
0.0
  0
POINT
  5
24C
330
242
100
AcDbEntity
  8
Defpoints
 62
     0
100
AcDbPoint
 10
12.0
 20
-5.739077443912263
 30
0.0
  0
POINT
  5
24D
330
242
100
AcDbEntity
  8
Defpoints
 62
     0
100
AcDbPoint
 10
12.0
 20
18.46987061926136
 30
0.0
  0
ENDBLK
  5
244
330
242
100
AcDbEntity
  8
0
100
AcDbBlockEnd
  0
BLOCK
  5
259
330
258
100
AcDbEntity
  8
0
100
AcDbBlockBegin
  2
_D_2
 70
     0
 10
0.0
 20
0.0
 30
0.0
  3
_D_2
  1
_D_2
  0
LINE
  5
25B
330
258
100
AcDbEntity
  8
치수문자_일반주서
 62
     0
370
    -2
100
AcDbLine
 10
-45.14999999999998
 20
6.999999999999986
 30
0.0
 11
-45.14999999999998
 21
39.00049028620469
 31
0.0
  0
LINE
  5
25C
330
258
100
AcDbEntity
  8
치수문자_일반주서
 62
     0
370
    -2
100
AcDbLine
 10
31.05
 20
8.000000253319735
 30
0.0
 11
31.05
 21
39.00049028620469
 31
0.0
  0
LINE
  5
25D
330
258
100
AcDbEntity
  8
치수문자_일반주서
 62
     0
370
    -2
100
AcDbLine
 10
-41.84799999999998
 20
39.00049028620469
 30
0.0
 11
27.748
 21
39.00049028620469
 31
0.0
  0
SOLID
  5
25E
330
258
100
AcDbEntity
  8
치수문자_일반주서
 62
     0
100
AcDbTrace
 10
-41.84799999999998
 20
39.55082361953803
 30
0.0
 11
-41.84799999999998
 21
38.45015695287136
 31
0.0
 12
-45.14999999999998
 22
39.00049028620469
 32
0.0
 13
-45.14999999999998
 23
39.00049028620469
 33
0.0
  0
SOLID
  5
25F
330
258
100
AcDbEntity
  8
치수문자_일반주서
 62
     0
100
AcDbTrace
 10
27.748
 20
38.45015695287136
 30
0.0
 11
27.748
 21
39.55082361953803
 31
0.0
 12
31.05
 22
39.00049028620469
 32
0.0
 13
31.05
 23
39.00049028620469
 33
0.0
  0
MTEXT
  5
260
330
258
100
AcDbEntity
  8
치수문자_일반주서
 62
     0
100
AcDbMText
 10
-7.049999999999985
 20
43.37549028620469
 30
0.0
 40
3.5
 41
0.0
 71
     2
 72
     1
  1
\A1;76.2 [3]
  7
SLDTEXTSTYLE0
 73
     1
 44
1.0
  0
POINT
  5
261
330
258
100
AcDbEntity
  8
Defpoints
 62
     0
100
AcDbPoint
 10
-45.14999999999998
 20
6.937499999999986
 30
0.0
  0
POINT
  5
262
330
258
100
AcDbEntity
  8
Defpoints
 62
     0
100
AcDbPoint
 10
31.05
 20
7.937500253319735
 30
0.0
  0
POINT
  5
263
330
258
100
AcDbEntity
  8
Defpoints
 62
     0
100
AcDbPoint
 10
31.05
 20
39.00049028620469
 30
0.0
  0
ENDBLK
  5
25A
330
258
100
AcDbEntity
  8
0
100
AcDbBlockEnd
  0
BLOCK
  5
26D
330
26C
100
AcDbEntity
  8
0
100
AcDbBlockBegin
  2
_D_3
 70
     0
 10
0.0
 20
0.0
 30
0.0
  3
_D_3
  1
_D_3
  0
LINE
  5
26F
330
26C
100
AcDbEntity
  8
치수문자_일반주서
 62
     0
370
    -2
100
AcDbLine
 10
31.1125
 20
7.937500253319735
 30
0.0
 11
62.08325005266997
 21
7.937500253319847
 31
0.0
  0
LINE
  5
270
330
26C
100
AcDbEntity
  8
치수문자_일반주서
 62
     0
370
    -2
100
AcDbLine
 10
31.1125
 20
-7.937499999999924
 30
0.0
 11
62.08325005267002
 21
-7.937499999999808
 31
0.0
  0
LINE
  5
271
330
26C
100
AcDbEntity
  8
치수문자_일반주서
 62
     0
370
    -2
100
AcDbLine
 10
62.08325005266997
 20
7.937500253319847
 30
0.0
 11
62.08325005266985
 21
42.76025025331982
 31
0.0
  0
LINE
  5
272
330
26C
100
AcDbEntity
  8
치수문자_일반주서
 62
     0
370
    -2
100
AcDbLine
 10
62.08325005266997
 20
7.937500253319847
 30
0.0
 11
62.08325005267002
 21
-7.937499999999808
 31
0.0
  0
LINE
  5
273
330
26C
100
AcDbEntity
  8
치수문자_일반주서
 62
     0
370
    -2
100
AcDbLine
 10
62.08325005266995
 20
11.23950025331985
 30
0.0
 11
62.08325005266994
 21
14.54150025331985
 31
0.0
  0
LINE
  5
274
330
26C
100
AcDbEntity
  8
치수문자_일반주서
 62
     0
370
    -2
100
AcDbLine
 10
62.08325005267004
 20
-11.23949999999981
 30
0.0
 11
62.08325005267005
 21
-14.54149999999981
 31
0.0
  0
SOLID
  5
275
330
26C
100
AcDbEntity
  8
치수문자_일반주서
 62
     0
100
AcDbTrace
 10
61.53291671933662
 20
11.23950025331984
 30
0.0
 11
62.63358338600329
 21
11.23950025331985
 31
0.0
 12
62.08325005266997
 22
7.937500253319847
 32
0.0
 13
62.08325005266997
 23
7.937500253319847
 33
0.0
  0
SOLID
  5
276
330
26C
100
AcDbEntity
  8
치수문자_일반주서
 62
     0
100
AcDbTrace
 10
62.63358338600337
 20
-11.23949999999981
 30
0.0
 11
61.5329167193367
 21
-11.23949999999981
 31
0.0
 12
62.08325005267002
 22
-7.937499999999808
 32
0.0
 13
62.08325005267002
 23
-7.937499999999808
 33
0.0
  0
MTEXT
  5
277
330
26C
100
AcDbEntity
  8
치수문자_일반주서
 62
     0
100
AcDbMText
 10
57.7082500526699
 20
28.76025025331981
 30
0.0
 40
3.5
 41
0.0
 71
     2
 72
     1
  1
\A1;%%c15.88 [5/8]
  7
SLDTEXTSTYLE0
 11
-3.580687745118074E-15
 21
1.0
 31
0.0
 73
     1
 44
1.0
  0
POINT
  5
278
330
26C
100
AcDbEntity
  8
Defpoints
 62
     0
100
AcDbPoint
 10
31.05
 20
7.937500253319735
 30
0.0
  0
POINT
  5
279
330
26C
100
AcDbEntity
  8
Defpoints
 62
     0
100
AcDbPoint
 10
31.05
 20
-7.937499999999924
 30
0.0
  0
POINT
  5
27A
330
26C
100
AcDbEntity
  8
Defpoints
 62
     0
100
AcDbPoint
 10
62.08325005267003
 20
-7.937499999999807
 30
0.0
  0
ENDBLK
  5
26E
330
26C
100
AcDbEntity
  8
0
100
AcDbBlockEnd
  0
BLOCK
  5
286
330
285
100
AcDbEntity
  8
0
100
AcDbBlockBegin
  2
SW_DOWELSYMBOL_0
 70
     0
 10
0.0
 20
0.0
 30
0.0
  3
SW_DOWELSYMBOL_0
  1
SW_DOWELSYMBOL_0
  0
CIRCLE
  5
288
330
285
100
AcDbEntity
  8
해칭선
 62
     0
100
AcDbCircle
 10
0.0
 20
0.0
 30
0.0
 40
3.000000000000001
  0
HATCH
  5
289
330
285
100
AcDbEntity
  8
0
  6
Continuous
 62
     0
370
     0
100
AcDbHatch
 10
0.0
 20
0.0
 30
0.0
210
0.0
220
0.0
230
1.0
  2
SOLID
 70
     1
 71
     0
 91
        1
 92
        0
 93
        3
 72
     2
 10
0.0000000000000069
 20
0.0
 40
3.000000000000001
 50
0.0
 51
90.0
 73
     1
 72
     1
 10
0.0000000000000069
 20
3.000000000000001
 11
0.0000000000000069
 21
0.0
 72
     1
 10
0.0000000000000069
 20
0.0
 11
3.000000000000008
 21
0.0
 97
        0
 75
     0
 76
     1
 98
        1
 10
0.0
 20
0.0
  0
HATCH
  5
28A
330
285
100
AcDbEntity
  8
0
  6
Continuous
 62
     0
370
     0
100
AcDbHatch
 10
0.0
 20
0.0
 30
0.0
210
0.0
220
0.0
230
1.0
  2
SOLID
 70
     1
 71
     0
 91
        1
 92
        0
 93
        3
 72
     2
 10
0.0000000000000069
 20
0.0
 40
3.000000000000001
 50
180.0
 51
270.0000000000007
 73
     1
 72
     1
 10
0.0000000000000069
 20
-3.000000000000001
 11
0.0000000000000069
 21
0.0
 72
     1
 10
0.0000000000000069
 20
0.0
 11
-2.999999999999994
 21
0.0
 97
        0
 75
     0
 76
     1
 98
        1
 10
0.0
 20
0.0
  0
ENDBLK
  5
287
330
285
100
AcDbEntity
  8
0
100
AcDbBlockEnd
  0
BLOCK
  5
348
330
347
100
AcDbEntity
  8
0
100
AcDbBlockBegin
  2
_D_4
 70
     0
 10
0.0
 20
0.0
 30
0.0
  3
_D_4
  1
_D_4
  0
LINE
  5
349
330
347
100
AcDbEntity
  8
치수문자_일반주서
 62
     0
370
    -2
100
AcDbLine
 10
102.4375000000001
 20
36.22143424691529
 30
0.0
 11
117.3750000000001
 21
36.22143424691535
 31
0.0
  0
LINE
  5
34A
330
347
100
AcDbEntity
  8
치수문자_일반주서
 62
     0
370
    -2
100
AcDbLine
 10
102.4375000000001
 20
22.22143424691529
 30
0.0
 11
117.3750000000001
 21
22.22143424691535
 31
0.0
  0
LINE
  5
34B
330
347
100
AcDbEntity
  8
치수문자_일반주서
 62
     0
370
    -2
100
AcDbLine
 10
117.3750000000001
 20
36.22143424691535
 30
0.0
 11
117.3750000000001
 21
22.22143424691535
 31
0.0
  0
LINE
  5
34C
330
347
100
AcDbEntity
  8
치수문자_일반주서
 62
     0
370
    -2
100
AcDbLine
 10
117.3750000000001
 20
39.52343424691535
 30
0.0
 11
117.375
 21
42.82543424691535
 31
0.0
  0
LINE
  5
34D
330
347
100
AcDbEntity
  8
치수문자_일반주서
 62
     0
370
    -2
100
AcDbLine
 10
117.3750000000001
 20
18.91943424691535
 30
0.0
 11
117.3750000000001
 21
15.61743424691535
 31
0.0
  0
SOLID
  5
34E
330
347
100
AcDbEntity
  8
치수문자_일반주서
 62
     0
100
AcDbTrace
 10
116.8246666666667
 20
39.52343424691535
 30
0.0
 11
117.9253333333334
 21
39.52343424691535
 31
0.0
 12
117.3750000000001
 22
36.22143424691535
 32
0.0
 13
117.3750000000001
 23
36.22143424691535
 33
0.0
  0
SOLID
  5
34F
330
347
100
AcDbEntity
  8
치수문자_일반주서
 62
     0
100
AcDbTrace
 10
117.9253333333335
 20
18.91943424691535
 30
0.0
 11
116.8246666666668
 21
18.91943424691535
 31
0.0
 12
117.3750000000001
 22
22.22143424691535
 32
0.0
 13
117.3750000000001
 23
22.22143424691535
 33
0.0
  0
MTEXT
  5
350
330
347
100
AcDbEntity
  8
치수문자_일반주서
 62
     0
100
AcDbMText
 10
113.0000000000001
 20
29.28713862862833
 30
0.0
 40
3.5
 41
0.0
 71
     2
 72
     1
  1
\A1;%%c14 [0.55]
  7
SLDTEXTSTYLE0
 11
-3.045183153257572E-15
 21
1.0
 31
0.0
 73
     1
 44
1.0
  0
POINT
  5
351
330
347
100
AcDbEntity
  8
Defpoints
 62
     0
100
AcDbPoint
 10
102.3750000000001
 20
36.22143424691529
 30
0.0
  0
POINT
  5
352
330
347
100
AcDbEntity
  8
Defpoints
 62
     0
100
AcDbPoint
 10
102.3750000000001
 20
22.22143424691529
 30
0.0
  0
POINT
  5
353
330
347
100
AcDbEntity
  8
Defpoints
 62
     0
100
AcDbPoint
 10
117.3750000000001
 20
22.22143424691535
 30
0.0
  0
ENDBLK
  5
354
330
347
100
AcDbEntity
  8
0
100
AcDbBlockEnd
  0
BLOCK
  5
362
330
361
100
AcDbEntity
  8
0
100
AcDbBlockBegin
  2
*D8
 70
     1
 10
0.0
 20
0.0
 30
0.0
  3
*D8
  1
*D8
  0
LINE
  5
363
330
361
100
AcDbEntity
  8
치수문자_일반주서
 62
     0
370
    -2
100
AcDbLine
 10
103.8657751816695
 20
19.48229575403651
 30
0.0
 11
120.1921280501954
 21
-7.081888143622854
 31
0.0
  0
MTEXT
  5
364
330
361
100
AcDbEntity
  8
치수문자_일반주서
 62
     0
100
AcDbMText
 10
115.6706384014277
 20
5.288158154535728
 30
0.0
 40
3.5
 41
0.0
 71
     5
 72
     1
  1
\A1;R.50 [R0.02]
  7
SLDTEXTSTYLE0
 11
0.5236126201129557
 21
-0.8519564684057781
 31
0.0
 73
     1
 44
1.0
  0
SOLID
  5
365
330
361
100
AcDbEntity
  8
치수문자_일반주서
 62
     0
100
AcDbTrace
 10
104.3346352247821
 20
19.77045723263868
 30
0.0
 11
103.3969151385569
 21
19.19413427543435
 31
0.0
 12
102.1368063100565
 22
22.29545601271239
 32
0.0
 13
102.1368063100565
 23
22.29545601271239
 33
0.0
  0
LINE
  5
366
330
361
100
AcDbEntity
  8
치수문자_일반주서
 62
     0
100
AcDbLine
 10
101.785
 20
22.72143424691529
 30
0.0
 11
101.965
 21
22.72143424691529
 31
0.0
  0
LINE
  5
367
330
361
100
AcDbEntity
  8
치수문자_일반주서
 62
     0
100
AcDbLine
 10
101.875
 20
22.63143424691529
 30
0.0
 11
101.875
 21
22.81143424691529
 31
0.0
  0
POINT
  5
393
330
361
100
AcDbEntity
  8
Defpoints
 62
     0
100
AcDbPoint
 10
102.1368063100565
 20
22.29545601271239
 30
0.0
  0
POINT
  5
394
330
361
100
AcDbEntity
  8
Defpoints
 62
     0
100
AcDbPoint
 10
101.875
 20
22.72143424691529
 30
0.0
  0
ENDBLK
  5
368
330
361
100
AcDbEntity
  8
0
100
AcDbBlockEnd
  0
BLOCK
  5
36E
330
36D
100
AcDbEntity
  8
0
100
AcDbBlockBegin
  2
*D9
 70
     1
 10
0.0
 20
0.0
 30
0.0
  3
*D9
  1
*D10
  0
LINE
  5
370
330
36D
100
AcDbEntity
  8
치수문자_일반주서
 62
     0
370
    -2
100
AcDbLine
 10
19.37500000000004
 20
35.78393424691529
 30
0.0
 11
19.37500000000004
 21
70.88391841499404
 31
0.0
  0
LINE
  5
371
330
36D
100
AcDbEntity
  8
치수문자_일반주서
 62
     0
370
    -2
100
AcDbLine
 10
102.3750000000001
 20
36.34643424691529
 30
0.0
 11
102.3750000000001
 21
70.88391841499404
 31
0.0
  0
LINE
  5
372
330
36D
100
AcDbEntity
  8
치수문자_일반주서
 62
     0
370
    -2
100
AcDbLine
 10
22.67700000000004
 20
70.88391841499404
 30
0.0
 11
99.07300000000006
 21
70.88391841499404
 31
0.0
  0
SOLID
  5
373
330
36D
100
AcDbEntity
  8
치수문자_일반주서
 62
     0
100
AcDbTrace
 10
22.67700000000004
 20
71.43425174832737
 30
0.0
 11
22.67700000000004
 21
70.33358508166071
 31
0.0
 12
19.37500000000004
 22
70.88391841499404
 32
0.0
 13
19.37500000000004
 23
70.88391841499404
 33
0.0
  0
SOLID
  5
374
330
36D
100
AcDbEntity
  8
치수문자_일반주서
 62
     0
100
AcDbTrace
 10
99.07300000000006
 20
70.33358508166071
 30
0.0
 11
99.07300000000006
 21
71.43425174832737
 31
0.0
 12
102.3750000000001
 22
70.88391841499404
 32
0.0
 13
102.3750000000001
 23
70.88391841499404
 33
0.0
  0
MTEXT
  5
375
330
36D
100
AcDbEntity
  8
치수문자_일반주서
 62
     0
100
AcDbMText
 10
60.87500000000005
 20
75.25891841499404
 30
0.0
 40
3.5
 41
0.0
 71
     2
 72
     1
  1
\A1;83 [3.27]
  7
SLDTEXTSTYLE0
 73
     1
 44
1.0
  0
POINT
  5
376
330
36D
100
AcDbEntity
  8
Defpoints
 62
     0
100
AcDbPoint
 10
19.37500000000004
 20
35.72143424691529
 30
0.0
  0
POINT
  5
377
330
36D
100
AcDbEntity
  8
Defpoints
 62
     0
100
AcDbPoint
 10
102.3750000000001
 20
36.28393424691529
 30
0.0
  0
POINT
  5
378
330
36D
100
AcDbEntity
  8
Defpoints
 62
     0
100
AcDbPoint
 10
102.3750000000001
 20
70.88391841499404
 30
0.0
  0
ENDBLK
  5
36F
330
36D
100
AcDbEntity
  8
0
100
AcDbBlockEnd
  0
BLOCK
  5
37A
330
379
100
AcDbEntity
  8
0
100
AcDbBlockBegin
  2
*D10
 70
     1
 10
0.0
 20
0.0
 30
0.0
  3
*D10
  1
*D11
  0
LINE
  5
37C
330
379
100
AcDbEntity
  8
치수문자_일반주서
 62
     0
370
    -2
100
AcDbLine
 10
76.37504186422882
 20
28.62038676313042
 30
0.0
 11
76.37504186422882
 21
61.90091383617725
 31
0.0
  0
LINE
  5
37D
330
379
100
AcDbEntity
  8
치수문자_일반주서
 62
     0
370
    -2
100
AcDbLine
 10
102.3750000000001
 20
36.28393424691529
 30
0.0
 11
102.3750000000001
 21
61.90091383617725
 31
0.0
  0
LINE
  5
37E
330
379
100
AcDbEntity
  8
치수문자_일반주서
 62
     0
370
    -2
100
AcDbLine
 10
79.67704186422881
 20
61.90091383617725
 30
0.0
 11
99.07300000000006
 21
61.90091383617725
 31
0.0
  0
SOLID
  5
37F
330
379
100
AcDbEntity
  8
치수문자_일반주서
 62
     0
100
AcDbTrace
 10
79.67704186422881
 20
62.45124716951059
 30
0.0
 11
79.67704186422881
 21
61.35058050284392
 31
0.0
 12
76.37504186422882
 22
61.90091383617725
 32
0.0
 13
76.37504186422882
 23
61.90091383617725
 33
0.0
  0
SOLID
  5
380
330
379
100
AcDbEntity
  8
치수문자_일반주서
 62
     0
100
AcDbTrace
 10
99.07300000000006
 20
61.35058050284392
 30
0.0
 11
99.07300000000006
 21
62.45124716951059
 31
0.0
 12
102.3750000000001
 22
61.90091383617725
 32
0.0
 13
102.3750000000001
 23
61.90091383617725
 33
0.0
  0
MTEXT
  5
381
330
379
100
AcDbEntity
  8
치수문자_일반주서
 62
     0
100
AcDbMText
 10
89.42159572693208
 20
66.27591383617725
 30
0.0
 40
3.5
 41
0.0
 71
     2
 72
     1
  1
\A1;26 [1.02]
  7
SLDTEXTSTYLE0
 73
     1
 44
1.0
  0
POINT
  5
382
330
379
100
AcDbEntity
  8
Defpoints
 62
     0
100
AcDbPoint
 10
76.37504186422882
 20
28.55788676313042
 30
0.0
  0
POINT
  5
383
330
379
100
AcDbEntity
  8
Defpoints
 62
     0
100
AcDbPoint
 10
102.3750000000001
 20
36.22143424691529
 30
0.0
  0
POINT
  5
384
330
379
100
AcDbEntity
  8
Defpoints
 62
     0
100
AcDbPoint
 10
102.3750000000001
 20
61.90091383617725
 30
0.0
  0
ENDBLK
  5
37B
330
379
100
AcDbEntity
  8
0
100
AcDbBlockEnd
  0
BLOCK
  5
386
330
385
100
AcDbEntity
  8
0
100
AcDbBlockBegin
  2
*D11
 70
     1
 10
0.0
 20
0.0
 30
0.0
  3
*D11
  1
*D12
  0
LINE
  5
388
330
385
100
AcDbEntity
  8
치수문자_일반주서
 62
     0
370
    -2
100
AcDbLine
 10
19.81250000000005
 20
36.22143424691529
 30
0.0
 11
4.374999999999983
 21
36.22143424691524
 31
0.0
  0
LINE
  5
389
330
385
100
AcDbEntity
  8
치수문자_일반주서
 62
     0
370
    -2
100
AcDbLine
 10
19.81250000000005
 20
22.22143424691529
 30
0.0
 11
4.375000000000032
 21
22.22143424691524
 31
0.0
  0
LINE
  5
38A
330
385
100
AcDbEntity
  8
치수문자_일반주서
 62
     0
370
    -2
100
AcDbLine
 10
4.374999999999983
 20
36.22143424691524
 30
0.0
 11
4.375000000000032
 21
22.22143424691524
 31
0.0
  0
LINE
  5
38B
330
385
100
AcDbEntity
  8
치수문자_일반주서
 62
     0
370
    -2
100
AcDbLine
 10
4.374999999999972
 20
39.52343424691524
 30
0.0
 11
4.37499999999996
 21
42.82543424691524
 31
0.0
  0
LINE
  5
38C
330
385
100
AcDbEntity
  8
치수문자_일반주서
 62
     0
370
    -2
100
AcDbLine
 10
4.375000000000044
 20
18.91943424691524
 30
0.0
 11
4.375000000000055
 21
15.61743424691524
 31
0.0
  0
SOLID
  5
38D
330
385
100
AcDbEntity
  8
치수문자_일반주서
 62
     0
100
AcDbTrace
 10
3.824666666666638
 20
39.52343424691524
 30
0.0
 11
4.925333333333305
 21
39.52343424691524
 31
0.0
 12
4.374999999999983
 22
36.22143424691524
 32
0.0
 13
4.374999999999983
 23
36.22143424691524
 33
0.0
  0
SOLID
  5
38E
330
385
100
AcDbEntity
  8
치수문자_일반주서
 62
     0
100
AcDbTrace
 10
4.925333333333377
 20
18.91943424691524
 30
0.0
 11
3.82466666666671
 21
18.91943424691523
 31
0.0
 12
4.375000000000032
 22
22.22143424691524
 32
0.0
 13
4.375000000000032
 23
22.22143424691524
 33
0.0
  0
MTEXT
  5
38F
330
385
100
AcDbEntity
  8
치수문자_일반주서
 62
     0
100
AcDbMText
 10
0.0000000000000071
 20
29.22143424691528
 30
0.0
 40
3.5
 41
0.0
 71
     2
 72
     1
  1
\A1;%%c14 [0.55]
  7
SLDTEXTSTYLE0
 11
-3.489272363107635E-15
 21
1.0
 31
0.0
 73
     1
 44
1.0
  0
POINT
  5
390
330
385
100
AcDbEntity
  8
Defpoints
 62
     0
100
AcDbPoint
 10
19.87500000000005
 20
36.22143424691529
 30
0.0
  0
POINT
  5
391
330
385
100
AcDbEntity
  8
Defpoints
 62
     0
100
AcDbPoint
 10
19.87500000000005
 20
22.22143424691529
 30
0.0
  0
POINT
  5
392
330
385
100
AcDbEntity
  8
Defpoints
 62
     0
100
AcDbPoint
 10
4.375000000000043
 20
22.22143424691524
 30
0.0
  0
ENDBLK
  5
387
330
385
100
AcDbEntity
  8
0
100
AcDbBlockEnd
  0
BLOCK
  5
3E1
330
3E0
100
AcDbEntity
  8
0
100
AcDbBlockBegin
  2
*D12
 70
     1
 10
0.0
 20
0.0
 30
0.0
  3
*D12
  1
*D13
  0
LINE
  5
3E3
330
3E0
100
AcDbEntity
  8
치수문자_일반주서
 62
     0
370
    -2
100
AcDbLine
 10
-58.11628632608175
 20
90.76155677337633
 30
0.0
 11
-58.11628632608175
 21
125.8615409414551
 31
0.0
  0
LINE
  5
3E4
330
3E0
100
AcDbEntity
  8
치수문자_일반주서
 62
     0
370
    -2
100
AcDbLine
 10
24.88371367391827
 20
91.32405677337634
 30
0.0
 11
24.88371367391827
 21
125.8615409414551
 31
0.0
  0
LINE
  5
3E5
330
3E0
100
AcDbEntity
  8
치수문자_일반주서
 62
     0
370
    -2
100
AcDbLine
 10
-54.81428632608175
 20
125.8615409414551
 30
0.0
 11
21.58171367391827
 21
125.8615409414551
 31
0.0
  0
SOLID
  5
3E6
330
3E0
100
AcDbEntity
  8
치수문자_일반주서
 62
     0
100
AcDbTrace
 10
-54.81428632608175
 20
126.4118742747884
 30
0.0
 11
-54.81428632608175
 21
125.3112076081218
 31
0.0
 12
-58.11628632608175
 22
125.8615409414551
 32
0.0
 13
-58.11628632608175
 23
125.8615409414551
 33
0.0
  0
SOLID
  5
3E7
330
3E0
100
AcDbEntity
  8
치수문자_일반주서
 62
     0
100
AcDbTrace
 10
21.58171367391827
 20
125.3112076081218
 30
0.0
 11
21.58171367391827
 21
126.4118742747884
 31
0.0
 12
24.88371367391827
 22
125.8615409414551
 32
0.0
 13
24.88371367391827
 23
125.8615409414551
 33
0.0
  0
MTEXT
  5
3E8
330
3E0
100
AcDbEntity
  8
치수문자_일반주서
 62
     0
100
AcDbMText
 10
-16.61628632608174
 20
130.2365409414551
 30
0.0
 40
3.5
 41
0.0
 71
     2
 72
     1
  1
\A1;83 [3.27]
  7
SLDTEXTSTYLE0
 73
     1
 44
1.0
  0
POINT
  5
3E9
330
3E0
100
AcDbEntity
  8
Defpoints
 62
     0
100
AcDbPoint
 10
-58.11628632608175
 20
90.69905677337633
 30
0.0
  0
POINT
  5
3EA
330
3E0
100
AcDbEntity
  8
Defpoints
 62
     0
100
AcDbPoint
 10
24.88371367391827
 20
91.26155677337634
 30
0.0
  0
POINT
  5
3EB
330
3E0
100
AcDbEntity
  8
Defpoints
 62
     0
100
AcDbPoint
 10
24.88371367391827
 20
125.8615409414551
 30
0.0
  0
ENDBLK
  5
3E2
330
3E0
100
AcDbEntity
  8
0
100
AcDbBlockEnd
  0
BLOCK
  5
3ED
330
3EC
100
AcDbEntity
  8
0
100
AcDbBlockBegin
  2
*D13
 70
     1
 10
0.0
 20
0.0
 30
0.0
  3
*D13
  1
*D14
  0
LINE
  5
3EF
330
3EC
100
AcDbEntity
  8
치수문자_일반주서
 62
     0
370
    -2
100
AcDbLine
 10
-1.116244461852972
 20
83.59800928959147
 30
0.0
 11
-1.116244461852972
 21
116.8785363626383
 31
0.0
  0
LINE
  5
3F0
330
3EC
100
AcDbEntity
  8
치수문자_일반주서
 62
     0
370
    -2
100
AcDbLine
 10
24.88371367391827
 20
91.26155677337634
 30
0.0
 11
24.88371367391827
 21
116.8785363626383
 31
0.0
  0
LINE
  5
3F1
330
3EC
100
AcDbEntity
  8
치수문자_일반주서
 62
     0
370
    -2
100
AcDbLine
 10
2.185755538147028
 20
116.8785363626383
 30
0.0
 11
21.58171367391827
 21
116.8785363626383
 31
0.0
  0
SOLID
  5
3F2
330
3EC
100
AcDbEntity
  8
치수문자_일반주서
 62
     0
100
AcDbTrace
 10
2.185755538147028
 20
117.4288696959716
 30
0.0
 11
2.185755538147028
 21
116.328203029305
 31
0.0
 12
-1.116244461852972
 22
116.8785363626383
 32
0.0
 13
-1.116244461852972
 23
116.8785363626383
 33
0.0
  0
SOLID
  5
3F3
330
3EC
100
AcDbEntity
  8
치수문자_일반주서
 62
     0
100
AcDbTrace
 10
21.58171367391827
 20
116.328203029305
 30
0.0
 11
21.58171367391827
 21
117.4288696959716
 31
0.0
 12
24.88371367391827
 22
116.8785363626383
 32
0.0
 13
24.88371367391827
 23
116.8785363626383
 33
0.0
  0
MTEXT
  5
3F4
330
3EC
100
AcDbEntity
  8
치수문자_일반주서
 62
     0
100
AcDbMText
 10
11.93030940085029
 20
121.2535363626383
 30
0.0
 40
3.5
 41
0.0
 71
     2
 72
     1
  1
\A1;26 [1.02]
  7
SLDTEXTSTYLE0
 73
     1
 44
1.0
  0
POINT
  5
3F5
330
3EC
100
AcDbEntity
  8
Defpoints
 62
     0
100
AcDbPoint
 10
-1.116244461852972
 20
83.53550928959147
 30
0.0
  0
POINT
  5
3F6
330
3EC
100
AcDbEntity
  8
Defpoints
 62
     0
100
AcDbPoint
 10
24.88371367391827
 20
91.19905677337634
 30
0.0
  0
POINT
  5
3F7
330
3EC
100
AcDbEntity
  8
Defpoints
 62
     0
100
AcDbPoint
 10
24.88371367391827
 20
116.8785363626383
 30
0.0
  0
ENDBLK
  5
3EE
330
3EC
100
AcDbEntity
  8
0
100
AcDbBlockEnd
  0
BLOCK
  5
3F9
330
3F8
100
AcDbEntity
  8
0
100
AcDbBlockBegin
  2
*D14
 70
     1
 10
0.0
 20
0.0
 30
0.0
  3
*D14
  1
*D15
  0
LINE
  5
3FB
330
3F8
100
AcDbEntity
  8
치수문자_일반주서
 62
     0
370
    -2
100
AcDbLine
 10
-57.67878632608174
 20
91.19905677337634
 30
0.0
 11
-73.1162863260818
 21
91.19905677337628
 31
0.0
  0
LINE
  5
3FC
330
3F8
100
AcDbEntity
  8
치수문자_일반주서
 62
     0
370
    -2
100
AcDbLine
 10
-57.67878632608174
 20
77.19905677337634
 30
0.0
 11
-73.11628632608176
 21
77.19905677337628
 31
0.0
  0
LINE
  5
3FD
330
3F8
100
AcDbEntity
  8
치수문자_일반주서
 62
     0
370
    -2
100
AcDbLine
 10
-73.1162863260818
 20
91.19905677337628
 30
0.0
 11
-73.11628632608176
 21
77.19905677337628
 31
0.0
  0
LINE
  5
3FE
330
3F8
100
AcDbEntity
  8
치수문자_일반주서
 62
     0
370
    -2
100
AcDbLine
 10
-73.11628632608182
 20
94.50105677337629
 30
0.0
 11
-73.11628632608183
 21
97.80305677337628
 31
0.0
  0
LINE
  5
3FF
330
3F8
100
AcDbEntity
  8
치수문자_일반주서
 62
     0
370
    -2
100
AcDbLine
 10
-73.11628632608175
 20
73.89705677337628
 30
0.0
 11
-73.11628632608173
 21
70.59505677337629
 31
0.0
  0
SOLID
  5
400
330
3F8
100
AcDbEntity
  8
치수문자_일반주서
 62
     0
100
AcDbTrace
 10
-73.66661965941515
 20
94.50105677337629
 30
0.0
 11
-72.56595299274849
 21
94.50105677337629
 31
0.0
 12
-73.1162863260818
 22
91.19905677337628
 32
0.0
 13
-73.1162863260818
 23
91.19905677337628
 33
0.0
  0
SOLID
  5
401
330
3F8
100
AcDbEntity
  8
치수문자_일반주서
 62
     0
100
AcDbTrace
 10
-72.56595299274842
 20
73.89705677337628
 30
0.0
 11
-73.66661965941508
 21
73.89705677337628
 31
0.0
 12
-73.11628632608176
 22
77.19905677337628
 32
0.0
 13
-73.11628632608176
 23
77.19905677337628
 33
0.0
  0
MTEXT
  5
402
330
3F8
100
AcDbEntity
  8
치수문자_일반주서
 62
     0
100
AcDbMText
 10
-77.49128632608179
 20
84.19905677337633
 30
0.0
 40
3.5
 41
0.0
 71
     2
 72
     1
  1
\A1;%%c14 [0.55]
  7
SLDTEXTSTYLE0
 11
-3.045183153257572E-15
 21
1.0
 31
0.0
 73
     1
 44
1.0
  0
POINT
  5
403
330
3F8
100
AcDbEntity
  8
Defpoints
 62
     0
100
AcDbPoint
 10
-57.61628632608174
 20
91.19905677337634
 30
0.0
  0
POINT
  5
404
330
3F8
100
AcDbEntity
  8
Defpoints
 62
     0
100
AcDbPoint
 10
-57.61628632608174
 20
77.19905677337634
 30
0.0
  0
POINT
  5
405
330
3F8
100
AcDbEntity
  8
Defpoints
 62
     0
100
AcDbPoint
 10
-73.11628632608176
 20
77.19905677337628
 30
0.0
  0
ENDBLK
  5
3FA
330
3F8
100
AcDbEntity
  8
0
100
AcDbBlockEnd
  0
BLOCK
  5
407
330
406
100
AcDbEntity
  8
0
100
AcDbBlockBegin
  2
*D15
 70
     1
 10
0.0
 20
0.0
 30
0.0
  3
*D15
  1
*D16
  0
LINE
  5
409
330
406
100
AcDbEntity
  8
치수문자_일반주서
 62
     0
370
    -2
100
AcDbLine
 10
24.94621367391828
 20
91.19905677337634
 30
0.0
 11
39.88371367391827
 21
91.1990567733764
 31
0.0
  0
LINE
  5
40A
330
406
100
AcDbEntity
  8
치수문자_일반주서
 62
     0
370
    -2
100
AcDbLine
 10
24.94621367391827
 20
77.19905677337634
 30
0.0
 11
39.88371367391832
 21
77.1990567733764
 31
0.0
  0
LINE
  5
40B
330
406
100
AcDbEntity
  8
치수문자_일반주서
 62
     0
370
    -2
100
AcDbLine
 10
39.88371367391827
 20
91.1990567733764
 30
0.0
 11
39.88371367391832
 21
77.1990567733764
 31
0.0
  0
LINE
  5
40C
330
406
100
AcDbEntity
  8
치수문자_일반주서
 62
     0
370
    -2
100
AcDbLine
 10
39.88371367391826
 20
94.5010567733764
 30
0.0
 11
39.88371367391824
 21
97.8030567733764
 31
0.0
  0
LINE
  5
40D
330
406
100
AcDbEntity
  8
치수문자_일반주서
 62
     0
370
    -2
100
AcDbLine
 10
39.88371367391834
 20
73.89705677337639
 30
0.0
 11
39.88371367391835
 21
70.5950567733764
 31
0.0
  0
SOLID
  5
40E
330
406
100
AcDbEntity
  8
치수문자_일반주서
 62
     0
100
AcDbTrace
 10
39.33338034058492
 20
94.5010567733764
 30
0.0
 11
40.43404700725159
 21
94.5010567733764
 31
0.0
 12
39.88371367391827
 22
91.1990567733764
 32
0.0
 13
39.88371367391827
 23
91.1990567733764
 33
0.0
  0
SOLID
  5
40F
330
406
100
AcDbEntity
  8
치수문자_일반주서
 62
     0
100
AcDbTrace
 10
40.43404700725167
 20
73.89705677337639
 30
0.0
 11
39.333380340585
 21
73.89705677337639
 31
0.0
 12
39.88371367391832
 22
77.1990567733764
 32
0.0
 13
39.88371367391832
 23
77.1990567733764
 33
0.0
  0
MTEXT
  5
410
330
406
100
AcDbEntity
  8
치수문자_일반주서
 62
     0
100
AcDbMText
 10
35.50871367391829
 20
84.26476115508937
 30
0.0
 40
3.5
 41
0.0
 71
     2
 72
     1
  1
\A1;%%c14 [0.55]
  7
SLDTEXTSTYLE0
 11
-3.552713678800501E-15
 21
1.0
 31
0.0
 73
     1
 44
1.0
  0
POINT
  5
411
330
406
100
AcDbEntity
  8
Defpoints
 62
     0
100
AcDbPoint
 10
24.88371367391828
 20
91.19905677337634
 30
0.0
  0
POINT
  5
412
330
406
100
AcDbEntity
  8
Defpoints
 62
     0
100
AcDbPoint
 10
24.88371367391827
 20
77.19905677337634
 30
0.0
  0
POINT
  5
413
330
406
100
AcDbEntity
  8
Defpoints
 62
     0
100
AcDbPoint
 10
39.88371367391832
 20
77.1990567733764
 30
0.0
  0
ENDBLK
  5
408
330
406
100
AcDbEntity
  8
0
100
AcDbBlockEnd
  0
BLOCK
  5
415
330
414
100
AcDbEntity
  8
0
100
AcDbBlockBegin
  2
*D16
 70
     1
 10
0.0
 20
0.0
 30
0.0
  3
*D16
  1
*D17
  0
LINE
  5
417
330
414
100
AcDbEntity
  8
치수문자_일반주서
 62
     0
370
    -2
100
AcDbLine
 10
26.37448885558772
 20
74.45991828049756
 30
0.0
 11
42.70084172411354
 21
47.89573438283819
 31
0.0
  0
MTEXT
  5
418
330
414
100
AcDbEntity
  8
치수문자_일반주서
 62
     0
100
AcDbMText
 10
38.17935207534588
 20
60.26578068099677
 30
0.0
 40
3.5
 41
0.0
 71
     5
 72
     1
  1
\A1;R.50 [R0.02]
  7
SLDTEXTSTYLE0
 11
0.5236126201129557
 21
-0.8519564684057781
 31
0.0
 73
     1
 44
1.0
  0
SOLID
  5
419
330
414
100
AcDbEntity
  8
치수문자_일반주서
 62
     0
100
AcDbTrace
 10
26.84334889870036
 20
74.74807975909972
 30
0.0
 11
25.90562881247507
 21
74.1717568018954
 31
0.0
 12
24.64551998397474
 22
77.27307853917344
 32
0.0
 13
24.64551998397474
 23
77.27307853917344
 33
0.0
  0
LINE
  5
41A
330
414
100
AcDbEntity
  8
치수문자_일반주서
 62
     0
100
AcDbLine
 10
24.29371367391825
 20
77.69905677337634
 30
0.0
 11
24.47371367391825
 21
77.69905677337634
 31
0.0
  0
LINE
  5
41B
330
414
100
AcDbEntity
  8
치수문자_일반주서
 62
     0
100
AcDbLine
 10
24.38371367391825
 20
77.60905677337634
 30
0.0
 11
24.38371367391825
 21
77.78905677337634
 31
0.0
  0
POINT
  5
41C
330
414
100
AcDbEntity
  8
Defpoints
 62
     0
100
AcDbPoint
 10
24.64551998397474
 20
77.27307853917344
 30
0.0
  0
POINT
  5
41D
330
414
100
AcDbEntity
  8
Defpoints
 62
     0
100
AcDbPoint
 10
24.38371367391825
 20
77.69905677337634
 30
0.0
  0
ENDBLK
  5
416
330
414
100
AcDbEntity
  8
0
100
AcDbBlockEnd
  0
BLOCK
  5
430
330
42F
100
AcDbEntity
  8
0
100
AcDbBlockBegin
  2
*D17
 70
     1
 10
0.0
 20
0.0
 30
0.0
  3
*D17
  1
*D18
  0
LINE
  5
432
330
42F
100
AcDbEntity
  8
치수문자_일반주서
 62
     0
370
    -2
100
AcDbLine
 10
32.76096171272287
 20
9.994742875262162
 30
0.0
 11
53.74330144161875
 21
33.22310105015688
 31
0.0
  0
MTEXT
  5
433
330
42F
100
AcDbEntity
  8
치수문자_일반주서
 62
     0
100
AcDbMText
 10
42.41088829186344
 20
24.5936724941485
 30
0.0
 40
3.5
 41
0.0
 71
     5
 72
     1
  1
\A1;R1.52 [R0.06]
  7
SLDTEXTSTYLE0
 11
0.6703194597436545
 21
0.7420726527025338
 31
0.0
 73
     1
 44
1.0
  0
LINE
  5
434
330
42F
100
AcDbEntity
  8
치수문자_일반주서
 62
     0
370
    -2
100
AcDbLine
 10
29.526
 20
6.413500253319734
 30
0.0
 11
30.54756685664933
 21
7.544418976038395
 31
0.0
  0
SOLID
  5
435
330
42F
100
AcDbEntity
  8
치수문자_일반주서
 62
     0
100
AcDbTrace
 10
32.35257439618558
 20
10.36364201794109
 30
0.0
 11
33.16934902926017
 21
9.625843732583238
 31
0.0
 12
30.54756685664933
 22
7.544418976038395
 32
0.0
 13
30.54756685664933
 23
7.544418976038395
 33
0.0
  0
POINT
  5
436
330
42F
100
AcDbEntity
  8
Defpoints
 62
     0
100
AcDbPoint
 10
30.54756685664933
 20
7.544418976038395
 30
0.0
  0
POINT
  5
437
330
42F
100
AcDbEntity
  8
Defpoints
 62
     0
100
AcDbPoint
 10
29.526
 20
6.413500253319734
 30
0.0
  0
ENDBLK
  5
431
330
42F
100
AcDbEntity
  8
0
100
AcDbBlockEnd
  0
BLOCK
  5
49C
330
49B
100
AcDbEntity
  8
0
100
AcDbBlockBegin
  2
*D18
 70
     1
 10
0.0
 20
0.0
 30
0.0
  3
*D18
  1
*D19
  0
LINE
  5
49E
330
49B
100
AcDbEntity
  8
치수문자_일반주서
 62
     0
370
    -2
100
AcDbLine
 10
-141.1631094908076
 20
5.82767773161952
 30
0.0
 11
-157.2766276896217
 21
5.827677731619522
 31
0.0
  0
LINE
  5
49F
330
49B
100
AcDbEntity
  8
치수문자_일반주서
 62
     0
370
    -2
100
AcDbLine
 10
-141.1631094908076
 20
-10.04732226838045
 30
0.0
 11
-157.2766276896217
 21
-10.04732226838045
 31
0.0
  0
LINE
  5
4A0
330
49B
100
AcDbEntity
  8
치수문자_일반주서
 62
     0
370
    -2
100
AcDbLine
 10
-157.2766276896217
 20
-13.34932226838045
 30
0.0
 11
-157.2766276896217
 21
-42.02632226838045
 31
0.0
  0
LINE
  5
4A1
330
49B
100
AcDbEntity
  8
치수문자_일반주서
 62
     0
370
    -2
100
AcDbLine
 10
-157.2766276896217
 20
5.827677731619522
 30
0.0
 11
-157.2766276896217
 21
-10.04732226838045
 31
0.0
  0
LINE
  5
4A2
330
49B
100
AcDbEntity
  8
치수문자_일반주서
 62
     0
370
    -2
100
AcDbLine
 10
-157.2766276896217
 20
9.129677731619521
 30
0.0
 11
-157.2766276896217
 21
12.43167773161952
 31
0.0
  0
SOLID
  5
4A3
330
49B
100
AcDbEntity
  8
치수문자_일반주서
 62
     0
100
AcDbTrace
 10
-157.826961022955
 20
9.129677731619521
 30
0.0
 11
-156.7262943562884
 21
9.129677731619521
 31
0.0
 12
-157.2766276896217
 22
5.827677731619522
 32
0.0
 13
-157.2766276896217
 23
5.827677731619522
 33
0.0
  0
SOLID
  5
4A4
330
49B
100
AcDbEntity
  8
치수문자_일반주서
 62
     0
100
AcDbTrace
 10
-156.7262943562884
 20
-13.34932226838045
 30
0.0
 11
-157.826961022955
 21
-13.34932226838045
 31
0.0
 12
-157.2766276896217
 22
-10.04732226838045
 32
0.0
 13
-157.2766276896217
 23
-10.04732226838045
 33
0.0
  0
MTEXT
  5
4A5
330
49B
100
AcDbEntity
  8
치수문자_일반주서
 62
     0
100
AcDbMText
 10
-159.9016276896217
 20
-29.33882226838045
 30
0.0
 40
3.5
 41
0.0
 71
     5
 72
     1
  1
\A1;15.88 [5/8]
  7
SLDTEXTSTYLE0
 11
0.0
 21
1.0
 31
0.0
 73
     1
 44
1.0
  0
POINT
  5
4A6
330
49B
100
AcDbEntity
  8
Defpoints
 62
     0
100
AcDbPoint
 10
-141.1006094908076
 20
5.82767773161952
 30
0.0
  0
POINT
  5
4A7
330
49B
100
AcDbEntity
  8
Defpoints
 62
     0
100
AcDbPoint
 10
-141.1006094908076
 20
-10.04732226838045
 30
0.0
  0
POINT
  5
4A8
330
49B
100
AcDbEntity
  8
Defpoints
 62
     0
100
AcDbPoint
 10
-157.2766276896217
 20
-10.04732226838045
 30
0.0
  0
ENDBLK
  5
49D
330
49B
100
AcDbEntity
  8
0
100
AcDbBlockEnd
  0
ENDSEC
  0
SECTION
  2
ENTITIES
  0
SPLINE
  5
96
330
1F
100
AcDbEntity
  8
외형선
  6
Continuous
370
    15
100
AcDbSpline
210
0.0
220
0.0
230
1.0
 70
     8
 71
     3
 72
     9
 73
     5
 74
     0
 42
0.000000001
 43
0.00000001
 40
0.0
 40
0.0
 40
0.0
 40
0.0
 40
0.5007842294001429
 40
1.0
 40
1.0
 40
1.0
 40
1.0
 10
8.301643248647451
 20
-7.93735962361098
 30
0.0
 10
8.379976529361231
 20
-7.923238647505093
 30
0.0
 10
8.536397750547867
 20
-7.895040922263625
 30
0.0
 10
8.67511364111132
 20
-7.814855500611374
 30
0.0
 10
8.7443628013134
 20
-7.774825673550374
 30
0.0
  0
LINE
  5
97
330
1F
100
AcDbEntity
  8
0
  6
Continuous
 62
     1
370
    15
100
AcDbLine
 10
14.94285190850496
 20
2.960152924060816
 30
0.0
 11
15.28868224844337
 21
2.778149675577873
 31
0.0
  0
LINE
  5
98
330
1F
100
AcDbEntity
  8
외형선
  6
Continuous
370
    15
100
AcDbLine
 10
9.549265670590103
 20
7.937500253319735
 30
0.0
 11
-14.1969252890826
 21
7.937500253319735
 31
0.0
  0
LINE
  5
99
330
1F
100
AcDbEntity
  8
외형선
  6
Continuous
370
    15
100
AcDbLine
 10
-44.14999851584435
 20
-7.937500253319747
 30
0.0
 11
8.299311682581902
 21
-7.937500253319747
 31
0.0
  0
LINE
  5
9A
330
1F
100
AcDbEntity
  8
외형선
  6
Continuous
370
    15
100
AcDbLine
 10
-44.14999851584435
 20
7.937500253319735
 30
0.0
 11
-45.15000054240227
 21
6.937500089406962
 31
0.0
  0
LINE
  5
9B
330
1F
100
AcDbEntity
  8
외형선
  6
Continuous
370
    15
100
AcDbLine
 10
-45.15000054240227
 20
-6.937500089406972
 30
0.0
 11
-44.14999851584435
 21
-7.937500253319747
 31
0.0
  0
SPLINE
  5
9C
330
1F
100
AcDbEntity
  8
외형선
  6
Continuous
370
    15
100
AcDbSpline
210
0.0
220
0.0
230
1.0
 70
     8
 71
     3
 72
     9
 73
     5
 74
     0
 42
0.000000001
 43
0.00000001
 40
0.0
 40
0.0
 40
0.0
 40
0.0
 40
0.6346290470800009
 40
1.0
 40
1.0
 40
1.0
 40
1.0
 10
8.744311112910509
 20
-7.774859666824348
 30
0.0
 10
8.785774350374584
 20
-7.754624911544074
 30
0.0
 10
8.851108954352853
 20
-7.722740529047915
 30
0.0
 10
8.917039722136135
 20
-7.748825822336217
 30
0.0
 10
8.94112890958786
 20
-7.758356630802162
 30
0.0
  0
LINE
  5
9D
330
1F
100
AcDbEntity
  8
0
  6
Continuous
 62
     1
370
    15
100
AcDbLine
 10
15.12257574498654
 20
-7.757395505905158
 30
0.0
 11
15.12797508761287
 21
-7.75771168991924
 31
0.0
  0
LINE
  5
9E
330
1F
100
AcDbEntity
  8
0
  6
Continuous
 62
     1
370
    15
100
AcDbLine
 10
15.12052311003208
 20
-7.757275365293033
 30
0.0
 11
15.12257574498654
 21
-7.757395505905158
 31
0.0
  0
SPLINE
  5
9F
330
1F
100
AcDbEntity
  8
0
  6
Continuous
 62
     1
370
    15
100
AcDbSpline
210
0.0
220
0.0
230
1.0
 70
     8
 71
     3
 72
    11
 73
     7
 74
     0
 42
0.000000001
 43
0.00000001
 40
0.0
 40
0.0
 40
0.0
 40
0.0
 40
0.2449247999748581
 40
0.5000243952353695
 40
0.7551115022936651
 40
1.0
 40
1.0
 40
1.0
 40
1.0
 10
16.32471155747771
 20
7.771258708089585
 30
0.0
 10
16.24102142006949
 20
7.814663017330677
 30
0.0
 10
16.07016444540215
 20
7.903274760531501
 30
0.0
 10
15.77687574432253
 20
7.937717822797778
 30
0.0
 10
15.48359250644957
 20
7.896831798450473
 30
0.0
 10
15.31273805310645
 20
7.80387802262921
 30
0.0
 10
15.22905338928104
 20
7.758349180221552
 30
0.0
  0
SPLINE
  5
A0
330
1F
100
AcDbEntity
  8
0
  6
Continuous
 62
     1
370
    15
100
AcDbSpline
210
0.0
220
0.0
230
1.0
 70
     8
 71
     3
 72
     9
 73
     5
 74
     0
 42
0.000000001
 43
0.00000001
 40
0.0
 40
0.0
 40
0.0
 40
0.0
 40
0.5003058321431071
 40
1.0
 40
1.0
 40
1.0
 40
1.0
 10
15.82612987980247
 20
-7.919787429273136
 30
0.0
 10
15.90345415530165
 20
-7.904903697157271
 30
0.0
 10
16.05800817112823
 20
-7.87515442949012
 30
0.0
 10
16.19441642744468
 20
-7.794973757484442
 30
0.0
 10
16.26257883757353
 20
-7.754907943308361
 30
0.0
  0
SPLINE
  5
A1
330
1F
100
AcDbEntity
  8
0
  6
Continuous
 62
     1
370
    15
100
AcDbSpline
210
0.0
220
0.0
230
1.0
 70
     8
 71
     3
 72
    11
 73
     7
 74
     0
 42
0.000000001
 43
0.00000001
 40
0.0
 40
0.0
 40
0.0
 40
0.0
 40
0.2477421705266221
 40
0.5001485125075181
 40
0.7524822839504048
 40
1.0
 40
1.0
 40
1.0
 40
1.0
 10
16.24408696219325
 20
-7.775005418807275
 30
0.0
 10
16.26376393357301
 20
-7.764225325374344
 30
0.0
 10
16.30348832908194
 20
-7.742462184752338
 30
0.0
 10
16.37504165733307
 20
-7.733228222266526
 30
0.0
 10
16.44670439710099
 20
-7.743795071139113
 30
0.0
 10
16.48670071330673
 20
-7.766597452819571
 30
0.0
 10
16.50650618970394
 20
-7.777888793498285
 30
0.0
  0
SPLINE
  5
A2
330
1F
100
AcDbEntity
  8
0
  6
Continuous
 62
     1
370
    15
100
AcDbSpline
210
0.0
220
0.0
230
1.0
 70
     8
 71
     3
 72
    11
 73
     7
 74
     0
 42
0.000000001
 43
0.00000001
 40
0.0
 40
0.0
 40
0.0
 40
0.0
 40
0.2449514033992853
 40
0.499974988210703
 40
0.7550116053587372
 40
1.0
 40
1.0
 40
1.0
 40
1.0
 10
16.50844566896558
 20
-7.777872495353229
 30
0.0
 10
16.59236254475394
 20
-7.822033001666204
 30
0.0
 10
16.76364688279292
 20
-7.912169854596247
 30
0.0
 10
17.0577183542084
 20
-7.94852022684092
 30
0.0
 10
17.35179538419723
 20
-7.909181072775233
 30
0.0
 10
17.52308055367752
 20
-7.8170415598314
 30
0.0
 10
17.60700211301446
 20
-7.771897595375783
 30
0.0
  0
SPLINE
  5
A3
330
1F
100
AcDbEntity
  8
0
  6
Continuous
 62
     1
370
    15
100
AcDbSpline
210
0.0
220
0.0
230
1.0
 70
     8
 71
     3
 72
     9
 73
     5
 74
     0
 42
0.000000001
 43
0.00000001
 40
0.0
 40
0.0
 40
0.0
 40
0.0
 40
0.4997412586640536
 40
0.9999999999999999
 40
0.9999999999999999
 40
0.9999999999999999
 40
0.9999999999999999
 10
15.24607982859016
 20
7.774841040372843
 30
0.0
 10
15.20283894409144
 20
7.755833126594425
 30
0.0
 10
15.11631239910634
 20
7.717797616320109
 30
0.0
 10
15.03039235758958
 20
7.758092042214933
 30
0.0
 10
14.98741010576487
 20
7.778249680995936
 30
0.0
  0
SPLINE
  5
A4
330
1F
100
AcDbEntity
  8
0
  6
Continuous
 62
     1
370
    15
100
AcDbSpline
210
0.0
220
0.0
230
1.0
 70
     8
 71
     3
 72
     9
 73
     5
 74
     0
 42
0.000000001
 43
0.00000001
 40
0.0
 40
0.0
 40
0.0
 40
0.0
 40
0.4996749007712801
 40
1.0
 40
1.0
 40
1.0
 40
1.0
 10
14.97630129009485
 20
7.7788820490241
 30
0.0
 10
14.90808350497318
 20
7.817578374777572
 30
0.0
 10
14.77155916681575
 20
7.895021379606801
 30
0.0
 10
14.61690958557511
 20
7.921769588726916
 30
0.0
 10
14.5395345184952
 20
7.935152389109129
 30
0.0
  0
SPLINE
  5
A5
330
1F
100
AcDbEntity
  8
0
  6
Continuous
 62
     1
370
    15
100
AcDbSpline
210
0.0
220
0.0
230
1.0
 70
     8
 71
     3
 72
     9
 73
     5
 74
     0
 42
0.000000001
 43
0.00000001
 40
0.0
 40
0.0
 40
0.0
 40
0.0
 40
0.5005057102632476
 40
1.0
 40
1.0
 40
1.0
 40
1.0
 10
14.54383350349963
 20
7.936770096421236
 30
0.0
 10
14.46616515599349
 20
7.922616088569891
 30
0.0
 10
14.31098541295862
 20
7.894336675246317
 30
0.0
 10
14.17378389185772
 20
7.815076467893258
 30
0.0
 10
14.10525251552463
 20
7.775486446917052
 30
0.0
  0
SPLINE
  5
A6
330
1F
100
AcDbEntity
  8
0
  6
Continuous
 62
     1
370
    15
100
AcDbSpline
210
0.0
220
0.0
230
1.0
 70
     8
 71
     3
 72
     9
 73
     5
 74
     0
 42
0.000000001
 43
0.00000001
 40
0.0
 40
0.0
 40
0.0
 40
0.0
 40
0.5433176917613729
 40
1.0
 40
1.0
 40
1.0
 40
1.0
 10
17.60460209473968
 20
-7.773582357913263
 30
0.0
 10
17.6532882727454
 20
-7.754761994148714
 30
0.0
 10
17.74289731501289
 20
-7.720122290619944
 30
0.0
 10
17.81817292644281
 20
-7.756865327357874
 30
0.0
 10
17.8525499664247
 20
-7.773645222187049
 30
0.0
  0
SPLINE
  5
A7
330
1F
100
AcDbEntity
  8
0
  6
Continuous
 62
     1
370
    15
100
AcDbSpline
210
0.0
220
0.0
230
1.0
 70
     8
 71
     3
 72
     9
 73
     5
 74
     0
 42
0.000000001
 43
0.00000001
 40
0.0
 40
0.0
 40
0.0
 40
0.0
 40
0.4995165401741143
 40
1.0
 40
1.0
 40
1.0
 40
1.0
 10
17.85847131535411
 20
-7.777210790663965
 30
0.0
 10
17.92696434339499
 20
-7.81660519761439
 30
0.0
 10
18.06408298218321
 20
-7.895470267701347
 30
0.0
 10
18.21919794331014
 20
-7.923383782975311
 30
0.0
 10
18.29683041572571
 20
-7.937354035675533
 30
0.0
  0
SPLINE
  5
A8
330
1F
100
AcDbEntity
  8
0
  6
Continuous
 62
     1
370
    15
100
AcDbSpline
210
0.0
220
0.0
230
1.0
 70
     8
 71
     3
 72
     9
 73
     5
 74
     0
 42
0.000000001
 43
0.00000001
 40
0.0
 40
0.0
 40
0.0
 40
0.0
 40
0.4996021831549944
 40
1.0
 40
1.0
 40
1.0
 40
1.0
 10
14.10433167032898
 20
7.774899713695044
 30
0.0
 10
14.06277240165307
 20
7.756319274513254
 30
0.0
 10
13.97958767973399
 20
7.719128806160111
 30
0.0
 10
13.89626779364264
 20
7.75543334237744
 30
0.0
 10
13.85457470454276
 20
7.773600053042166
 30
0.0
  0
SPLINE
  5
A9
330
1F
100
AcDbEntity
  8
0
  6
Continuous
 62
     1
370
    15
100
AcDbSpline
210
0.0
220
0.0
230
1.0
 70
     8
 71
     3
 72
    11
 73
     7
 74
     0
 42
0.000000001
 43
0.00000001
 40
0.0
 40
0.0
 40
0.0
 40
0.0
 40
0.2829929887220187
 40
0.5506924118047157
 40
0.7912361740860527
 40
1.0
 40
1.0
 40
1.0
 40
1.0
 10
13.8571963775903
 20
7.77174904942512
 30
0.0
 10
13.75475591862326
 20
7.824832892914126
 30
0.0
 10
13.55541110916456
 20
7.928131811840847
 30
0.0
 10
13.23534771548301
 20
7.948616324463522
 30
0.0
 10
12.95825609931618
 20
7.893144711920613
 30
0.0
 10
12.81190668446795
 20
7.811480343805513
 30
0.0
 10
12.74390769097954
 20
7.773536257445807
 30
0.0
  0
SPLINE
  5
AA
330
1F
100
AcDbEntity
  8
0
  6
Continuous
 62
     1
370
    15
100
AcDbSpline
210
0.0
220
0.0
230
1.0
 70
     8
 71
     3
 72
     9
 73
     5
 74
     0
 42
0.000000001
 43
0.00000001
 40
0.0
 40
0.0
 40
0.0
 40
0.0
 40
0.5009894713685259
 40
1.0
 40
1.0
 40
1.0
 40
1.0
 10
18.29772262275219
 20
-7.937441579997547
 30
0.0
 10
18.37653788832
 20
-7.923651795182542
 30
0.0
 10
18.53385709375661
 20
-7.89612669614735
 30
0.0
 10
18.67366884273095
 20
-7.815599556784187
 30
0.0
 10
18.74343637749553
 20
-7.775415666401393
 30
0.0
  0
SPLINE
  5
AB
330
1F
100
AcDbEntity
  8
0
  6
Continuous
 62
     1
370
    15
100
AcDbSpline
210
0.0
220
0.0
230
1.0
 70
     8
 71
     3
 72
     9
 73
     5
 74
     0
 42
0.000000001
 43
0.00000001
 40
0.0
 40
0.0
 40
0.0
 40
0.0
 40
0.56011443702571
 40
1.0
 40
1.0
 40
1.0
 40
1.0
 10
18.74436583742499
 20
-7.774823810905225
 30
0.0
 10
18.79204719721047
 20
-7.75490414135713
 30
0.0
 10
18.87717508650159
 20
-7.719340570359268
 30
0.0
 10
18.95837582914316
 20
-7.757064186555281
 30
0.0
 10
18.99409486353397
 20
-7.773658260703094
 30
0.0
  0
SPLINE
  5
AC
330
1F
100
AcDbEntity
  8
0
  6
Continuous
 62
     1
370
    15
100
AcDbSpline
210
0.0
220
0.0
230
1.0
 70
     8
 71
     3
 72
    11
 73
     7
 74
     0
 42
0.000000001
 43
0.00000001
 40
0.0
 40
0.0
 40
0.0
 40
0.0
 40
0.2452749756992519
 40
0.4998715673638549
 40
0.7545322942221548
 40
1.0
 40
1.0
 40
1.0
 40
1.0
 10
18.99507927149534
 20
-7.774268742650754
 30
0.0
 10
19.07994176756451
 20
-7.819666825176284
 30
0.0
 10
19.25289193828439
 20
-7.912188333343408
 30
0.0
 10
19.5504611550162
 20
-7.950540719515708
 30
0.0
 10
19.84805337617834
 20
-7.911399488636334
 30
0.0
 10
20.0209885677391
 20
-7.818382437983583
 30
0.0
 10
20.10586677491665
 20
-7.772728800773628
 30
0.0
  0
SPLINE
  5
AD
330
1F
100
AcDbEntity
  8
0
  6
Continuous
 62
     1
370
    15
100
AcDbSpline
210
0.0
220
0.0
230
1.0
 70
     8
 71
     3
 72
     9
 73
     5
 74
     0
 42
0.000000001
 43
0.00000001
 40
0.0
 40
0.0
 40
0.0
 40
0.0
 40
0.4400710377980901
 40
1.0
 40
1.0
 40
1.0
 40
1.0
 10
12.74408522434533
 20
7.773651741445059
 30
0.0
 10
12.70837571990349
 20
7.757056542742442
 30
0.0
 10
12.62723085606397
 20
7.71934627036085
 30
0.0
 10
12.54205360114046
 20
7.75491250543803
 30
0.0
 10
12.49436038918793
 20
7.774827070534224
 30
0.0
  0
SPLINE
  5
AE
330
1F
100
AcDbEntity
  8
0
  6
Continuous
 62
     1
370
    15
100
AcDbSpline
210
0.0
220
0.0
230
1.0
 70
     8
 71
     3
 72
     9
 73
     5
 74
     0
 42
0.000000001
 43
0.00000001
 40
0.0
 40
0.0
 40
0.0
 40
0.0
 40
0.4494102352978629
 40
1.0
 40
1.0
 40
1.0
 40
1.0
 10
12.49565900210291
 20
7.773931138217444
 30
0.0
 10
12.43572420165011
 20
7.809612303718977
 30
0.0
 10
12.30236097192063
 20
7.889007837463071
 30
0.0
 10
12.14068671403609
 20
7.920188270842809
 30
0.0
 10
12.05167052242905
 20
7.93735589832067
 30
0.0
  0
SPLINE
  5
B0
330
1F
100
AcDbEntity
  8
0
  6
Continuous
 62
     1
370
    15
100
AcDbSpline
210
0.0
220
0.0
230
1.0
 70
     8
 71
     3
 72
     9
 73
     5
 74
     0
 42
0.000000001
 43
0.00000001
 40
0.0
 40
0.0
 40
0.0
 40
0.0
 40
0.5008857083988769
 40
1.0
 40
1.0
 40
1.0
 40
1.0
 10
29.52512129738214
 20
7.937500000000064
 30
0.0
 10
29.46855354376243
 20
7.923243457118033
 30
0.0
 10
29.31222739575682
 20
7.895066624981375
 30
0.0
 10
29.17355201850066
 20
7.814910193726902
 30
0.0
 10
29.10433715581894
 20
7.774902973324055
 30
0.0
  0
LINE
  5
B1
330
1F
100
AcDbEntity
  8
외형선
  6
Continuous
370
    15
100
AcDbLine
 10
12.00000004749745
 20
7.874255999922745
 30
0.0
 11
11.8290620171465
 21
7.885066792368884
 31
0.0
  0
SPLINE
  5
B2
330
1F
100
AcDbEntity
  8
0
  6
Continuous
 62
     1
370
    15
100
AcDbSpline
210
0.0
220
0.0
230
1.0
 70
     8
 71
     3
 72
     9
 73
     5
 74
     0
 42
0.000000001
 43
0.00000001
 40
0.0
 40
0.0
 40
0.0
 40
0.0
 40
0.5581828104133139
 40
1.0
 40
1.0
 40
1.0
 40
1.0
 10
29.10433343052864
 20
7.774900179356331
 30
0.0
 10
29.05647708403306
 20
7.75501301620494
 30
0.0
 10
28.97074111079492
 20
7.719384611351945
 30
0.0
 10
28.89017062896095
 20
7.756987418007578
 30
0.0
 10
28.85457320511341
 20
7.773600984364743
 30
0.0
  0
SPLINE
  5
B3
330
1F
100
AcDbEntity
  8
외형선
  6
Continuous
370
    15
100
AcDbSpline
210
0.0
220
0.0
230
1.0
 70
     8
 71
     3
 72
     9
 73
     5
 74
     0
 42
0.000000001
 43
0.00000001
 40
0.0
 40
0.0
 40
0.0
 40
0.0
 40
0.5019849326390847
 40
1.0
 40
1.0
 40
1.0
 40
1.0
 10
11.84255158435553
 20
7.89119210094213
 30
0.0
 10
11.800894932765
 20
7.875635768588452
 30
0.0
 10
11.71791106436175
 20
7.844646128576956
 30
0.0
 10
11.64206960863769
 20
7.798072608175696
 30
0.0
 10
11.60429942095652
 20
7.774878293275828
 30
0.0
  0
SPLINE
  5
B4
330
1F
100
AcDbEntity
  8
0
  6
Continuous
 62
     1
370
    15
100
AcDbSpline
210
0.0
220
0.0
230
1.0
 70
     8
 71
     3
 72
     9
 73
     5
 74
     0
 42
0.000000001
 43
0.00000001
 40
0.0
 40
0.0
 40
0.0
 40
0.0
 40
0.5003979361893535
 40
1.0
 40
1.0
 40
1.0
 40
1.0
 10
20.10458620637655
 20
-7.773592602461584
 30
0.0
 10
20.14627692422976
 20
-7.755429110438866
 30
0.0
 10
20.22959205172748
 20
-7.719131015044962
 30
0.0
 10
20.31277252958104
 20
-7.756319081807503
 30
0.0
 10
20.35432966798544
 20
-7.774898316711194
 30
0.0
  0
SPLINE
  5
B5
330
1F
100
AcDbEntity
  8
0
  6
Continuous
 62
     1
370
    15
100
AcDbSpline
210
0.0
220
0.0
230
1.0
 70
     8
 71
     3
 72
    11
 73
     7
 74
     0
 42
0.000000001
 43
0.00000001
 40
0.0
 40
0.0
 40
0.0
 40
0.0
 40
0.2454001346948487
 40
0.5001118857169531
 40
0.7547672522993123
 40
1.0
 40
1.0
 40
1.0
 40
1.0
 10
28.85521768033504
 20
7.773175835609431
 30
0.0
 10
28.77045323963478
 20
7.818700539115952
 30
0.0
 10
28.59770800323519
 20
7.911477363976555
 30
0.0
 10
28.30054812690441
 20
7.950492572753159
 30
0.0
 10
28.00340854514323
 20
7.91227748721359
 30
0.0
 10
27.83065121131493
 20
7.820007317926475
 30
0.0
 10
27.74590073525906
 20
7.774741854518647
 30
0.0
  0
SPLINE
  5
B6
330
1F
100
AcDbEntity
  8
외형선
  6
Continuous
370
    15
100
AcDbSpline
210
0.0
220
0.0
230
1.0
 70
     8
 71
     3
 72
     9
 73
     5
 74
     0
 42
0.000000001
 43
0.00000001
 40
0.0
 40
0.0
 40
0.0
 40
0.0
 40
0.4413248372845129
 40
1.0
 40
1.0
 40
1.0
 40
1.0
 10
11.60433009639383
 20
7.774898316711182
 30
0.0
 10
11.56887679991892
 20
7.757925972114441
 30
0.0
 10
11.488543010656
 20
7.719468257608334
 30
0.0
 10
11.40260684442696
 20
7.754188657913508
 30
0.0
 10
11.3545964427758
 20
7.773586083203549
 30
0.0
  0
SPLINE
  5
B7
330
1F
100
AcDbEntity
  8
0
  6
Continuous
 62
     1
370
    15
100
AcDbSpline
210
0.0
220
0.0
230
1.0
 70
     8
 71
     3
 72
     9
 73
     5
 74
     0
 42
0.000000001
 43
0.00000001
 40
0.0
 40
0.0
 40
0.0
 40
0.0
 40
0.4991156107119693
 40
1.0
 40
1.0
 40
1.0
 40
1.0
 10
20.35432035475969
 20
-7.774892263114459
 30
0.0
 10
20.42353783007652
 20
-7.814902071258551
 30
0.0
 10
20.56221807535694
 20
-7.895063475320871
 30
0.0
 10
20.71854744329451
 20
-7.923242430758238
 30
0.0
 10
20.79685038328171
 20
-7.937356829643257
 30
0.0
  0
SPLINE
  5
B8
330
1F
100
AcDbEntity
  8
외형선
  6
Continuous
370
    15
100
AcDbSpline
210
0.0
220
0.0
230
1.0
 70
     8
 71
     3
 72
    11
 73
     7
 74
     0
 42
0.000000001
 43
0.00000001
 40
0.0
 40
0.0
 40
0.0
 40
0.0
 40
0.2865107187561003
 40
0.5556145365391704
 40
0.7951238085279063
 40
1.0
 40
1.0
 40
1.0
 40
1.0
 10
11.35640792339109
 20
7.772340439260001
 30
0.0
 10
11.25402133084939
 20
7.825381296003743
 30
0.0
 10
11.0554686225603
 20
7.92824052292992
 30
0.0
 10
10.73559839304274
 20
7.948688539911362
 30
0.0
 10
10.45932421298514
 20
7.89359519868799
 30
0.0
 10
10.31178548022169
 20
7.811357103468055
 30
0.0
 10
10.24376531271264
 20
7.773442659527058
 30
0.0
  0
SPLINE
  5
BA
330
1F
100
AcDbEntity
  8
0
  6
Continuous
 62
     1
370
    15
100
AcDbSpline
210
0.0
220
0.0
230
1.0
 70
     8
 71
     3
 72
     9
 73
     5
 74
     0
 42
0.000000001
 43
0.00000001
 40
0.0
 40
0.0
 40
0.0
 40
0.0
 40
0.533309506754678
 40
1.0
 40
1.0
 40
1.0
 40
1.0
 10
20.80164855718613
 20
-7.937358692288406
 30
0.0
 10
20.89040007034778
 20
-7.919990780514423
 30
0.0
 10
21.05681659215654
 20
-7.887424491044598
 30
0.0
 10
21.18664534274737
 20
-7.809228281822254
 30
0.0
 10
21.24723518639803
 20
-7.772734854370363
 30
0.0
  0
SPLINE
  5
BB
330
1F
100
AcDbEntity
  8
0
  6
Continuous
 62
     1
370
    15
100
AcDbSpline
210
0.0
220
0.0
230
1.0
 70
     8
 71
     3
 72
     9
 73
     5
 74
     0
 42
0.000000001
 43
0.00000001
 40
0.0
 40
0.0
 40
0.0
 40
0.0
 40
0.5004670151141455
 40
1.0
 40
1.0
 40
1.0
 40
1.0
 10
21.24434994906187
 20
-7.774834055453546
 30
0.0
 10
21.28582228825618
 20
-7.756255424359352
 30
0.0
 10
21.36868956610238
 20
-7.719132835790846
 30
0.0
 10
21.45231257668573
 20
-7.755490092485918
 30
0.0
 10
21.49408502876759
 20
-7.773651741445072
 30
0.0
  0
SPLINE
  5
BC
330
1F
100
AcDbEntity
  8
0
  6
Continuous
 62
     1
370
    15
100
AcDbSpline
210
0.0
220
0.0
230
1.0
 70
     8
 71
     3
 72
     9
 73
     5
 74
     0
 42
0.000000001
 43
0.00000001
 40
0.0
 40
0.0
 40
0.0
 40
0.0
 40
0.4995337995561927
 40
1.0
 40
1.0
 40
1.0
 40
1.0
 10
27.74408465623856
 20
7.773651275783772
 30
0.0
 10
27.7023132479584
 20
7.755490342490747
 30
0.0
 10
27.61869246330426
 20
7.719134577757389
 30
0.0
 10
27.53582978889925
 20
7.756251680709559
 30
0.0
 10
27.49435982108116
 20
7.774827536195511
 30
0.0
  0
SPLINE
  5
BD
330
1F
100
AcDbEntity
  8
0
  6
Continuous
 62
     1
370
    15
100
AcDbSpline
210
0.0
220
0.0
230
1.0
 70
     8
 71
     3
 72
    11
 73
     7
 74
     0
 42
0.000000001
 43
0.00000001
 40
0.0
 40
0.0
 40
0.0
 40
0.0
 40
0.2452622248190094
 40
0.4998784024786583
 40
0.7545552478496528
 40
1.0
 40
1.0
 40
1.0
 40
1.0
 10
21.49607060849667
 20
-7.774835918098695
 30
0.0
 10
21.58089750103665
 20
-7.820113558980564
 30
0.0
 10
21.75378646329493
 20
-7.912395665647148
 30
0.0
 10
22.05121867986831
 20
-7.950467277291542
 30
0.0
 10
22.34867300912586
 20
-7.911136253513947
 30
0.0
 10
22.5215484712566
 20
-7.818041569799956
 30
0.0
 10
22.60639058798552
 20
-7.772353477776058
 30
0.0
  0
SPLINE
  5
BF
330
1F
100
AcDbEntity
  8
0
  6
Continuous
 62
     1
370
    15
100
AcDbSpline
210
0.0
220
0.0
230
1.0
 70
     8
 71
     3
 72
     9
 73
     5
 74
     0
 42
0.000000001
 43
0.00000001
 40
0.0
 40
0.0
 40
0.0
 40
0.0
 40
0.4424352758815915
 40
1.0
 40
1.0
 40
1.0
 40
1.0
 10
27.49424619972706
 20
7.77490204200148
 30
0.0
 10
27.43368724489623
 20
7.810605043702814
 30
0.0
 10
27.29681082899527
 20
7.891301596730127
 30
0.0
 10
27.13701185306298
 20
7.920933722054579
 30
0.0
 10
27.04791358113289
 20
7.937455549836153
 30
0.0
  0
SPLINE
  5
C0
330
1F
100
AcDbEntity
  8
외형선
  6
Continuous
370
    15
100
AcDbSpline
210
0.0
220
0.0
230
1.0
 70
     8
 71
     3
 72
     9
 73
     5
 74
     0
 42
0.000000001
 43
0.00000001
 40
0.0
 40
0.0
 40
0.0
 40
0.0
 40
0.4397443476422507
 40
1.0
 40
1.0
 40
1.0
 40
1.0
 10
10.24410186940804
 20
7.773662451654667
 30
0.0
 10
10.20837478152464
 20
7.757069483842139
 30
0.0
 10
10.12712964881296
 20
7.719336269301703
 30
0.0
 10
10.04204005459562
 20
7.754898482799087
 30
0.0
 10
9.994368128478527
 20
7.774822413921351
 30
0.0
  0
SPLINE
  5
C1
330
1F
100
AcDbEntity
  8
외형선
  6
Continuous
370
    15
100
AcDbSpline
210
0.0
220
0.0
230
1.0
 70
     8
 71
     3
 72
     9
 73
     5
 74
     0
 42
0.000000001
 43
0.00000001
 40
0.0
 40
0.0
 40
0.0
 40
0.0
 40
0.4991361359606751
 40
1.0
 40
1.0
 40
1.0
 40
1.0
 10
9.991711298003793
 20
7.77640519663691
 30
0.0
 10
9.922262798240247
 20
7.816276923604118
 30
0.0
 10
9.783125407135758
 20
7.896158390992705
 30
0.0
 10
9.62635971556953
 20
7.923670260588173
 30
0.0
 10
9.547841445542872
 20
7.937449961900706
 30
0.0
  0
SPLINE
  5
C2
330
1F
100
AcDbEntity
  8
0
  6
Continuous
 62
     1
370
    15
100
AcDbSpline
210
0.0
220
0.0
230
1.0
 70
     8
 71
     3
 72
     9
 73
     5
 74
     0
 42
0.000000001
 43
0.00000001
 40
0.0
 40
0.0
 40
0.0
 40
0.0
 40
0.5005094520724174
 40
1.0
 40
1.0
 40
1.0
 40
1.0
 10
27.0458292812109
 20
7.93720874935388
 30
0.0
 10
26.96815119844016
 20
7.923169988497442
 30
0.0
 10
26.81295316481842
 20
7.895121045968363
 30
0.0
 10
26.67572884420667
 20
7.816068885964068
 30
0.0
 10
26.60718659311533
 20
7.776583079248661
 30
0.0
  0
SPLINE
  5
C3
330
1F
100
AcDbEntity
  8
0
  6
Continuous
 62
     1
370
    15
100
AcDbSpline
210
0.0
220
0.0
230
1.0
 70
     8
 71
     3
 72
     9
 73
     5
 74
     0
 42
0.000000001
 43
0.00000001
 40
0.0
 40
0.0
 40
0.0
 40
0.0
 40
0.4453263137894645
 40
1.0
 40
1.0
 40
1.0
 40
1.0
 10
26.60388039797544
 20
7.774596568197007
 30
0.0
 10
26.56869728943282
 20
7.75766592163219
 30
0.0
 10
26.48969205786847
 20
7.719647403434267
 30
0.0
 10
26.40279597842216
 20
7.754341638363698
 30
0.0
 10
26.35459700971842
 20
7.773585617542262
 30
0.0
  0
SPLINE
  5
C4
330
1F
100
AcDbEntity
  8
0
  6
Continuous
 62
     1
370
    15
100
AcDbSpline
210
0.0
220
0.0
230
1.0
 70
     8
 71
     3
 72
     9
 73
     5
 74
     0
 42
0.000000001
 43
0.00000001
 40
0.0
 40
0.0
 40
0.0
 40
0.0
 40
0.4558420659377087
 40
1.0
 40
1.0
 40
1.0
 40
1.0
 10
22.60618755966425
 20
-7.77250016108156
 30
0.0
 10
22.64080498763483
 20
-7.756041564962626
 30
0.0
 10
22.71674670200769
 20
-7.719935647258275
 30
0.0
 10
22.80584961088772
 20
-7.75553200274156
 30
0.0
 10
22.85433566570282
 20
-7.774902042001493
 30
0.0
  0
SPLINE
  5
C5
330
1F
100
AcDbEntity
  8
0
  6
Continuous
 62
     1
370
    15
100
AcDbSpline
210
0.0
220
0.0
230
1.0
 70
     8
 71
     3
 72
    11
 73
     7
 74
     0
 42
0.000000001
 43
0.00000001
 40
0.0
 40
0.0
 40
0.0
 40
0.0
 40
0.2450011236150326
 40
0.5000272013707382
 40
0.755039378729211
 40
0.9999999999999999
 40
0.9999999999999999
 40
0.9999999999999999
 40
0.9999999999999999
 10
26.35580959171057
 20
7.772768847644324
 30
0.0
 10
26.27185404408584
 20
7.817867969724212
 30
0.0
 10
26.10050765636763
 20
7.909911579423392
 30
0.0
 10
25.80631119602688
 20
7.949067592858166
 30
0.0
 10
25.51212073102609
 20
7.912478284374426
 30
0.0
 10
25.34077452249308
 20
7.822153171492594
 30
0.0
 10
25.25682380795479
 20
7.777898572385306
 30
0.0
  0
SPLINE
  5
C6
330
1F
100
AcDbEntity
  8
0
  6
Continuous
 62
     1
370
    15
100
AcDbSpline
210
0.0
220
0.0
230
1.0
 70
     8
 71
     3
 72
     9
 73
     5
 74
     0
 42
0.000000001
 43
0.00000001
 40
0.0
 40
0.0
 40
0.0
 40
0.0
 40
0.4995203276670821
 40
1.0
 40
1.0
 40
1.0
 40
1.0
 10
22.85425370931625
 20
-7.774848025292165
 30
0.0
 10
22.92273521858235
 20
-7.814465563980797
 30
0.0
 10
23.05982975802966
 20
-7.893776728100297
 30
0.0
 10
23.2149244696643
 20
-7.922171606695132
 30
0.0
 10
23.29254622012377
 20
-7.936382666230209
 30
0.0
  0
LINE
  5
C7
330
1F
100
AcDbEntity
  8
0
  6
Continuous
 62
     1
370
    15
100
AcDbLine
 10
12.04488804936409
 20
7.93702714145183
 30
0.0
 11
11.99958200007677
 21
7.929578423500056
 31
0.0
  0
SPLINE
  5
C8
330
1F
100
AcDbEntity
  8
0
  6
Continuous
 62
     1
370
    15
100
AcDbSpline
210
0.0
220
0.0
230
1.0
 70
     8
 71
     3
 72
     9
 73
     5
 74
     0
 42
0.000000001
 43
0.00000001
 40
0.0
 40
0.0
 40
0.0
 40
0.0
 40
0.7664016677841731
 40
1.0
 40
1.0
 40
1.0
 40
1.0
 10
23.28792779147625
 20
-7.934311404824264
 30
0.0
 10
23.36608799382892
 20
-7.923239435205156
 30
0.0
 10
23.46807133446888
 20
-7.908792742192183
 30
0.0
 10
23.5582173388573
 20
-7.861265069899197
 30
0.0
 10
23.57927529513836
 20
-7.850162684917457
 30
0.0
  0
SPLINE
  5
CA
330
1F
100
AcDbEntity
  8
0
  6
Continuous
 62
     1
370
    15
100
AcDbSpline
210
0.0
220
0.0
230
1.0
 70
     8
 71
     3
 72
    11
 73
     7
 74
     0
 42
0.000000001
 43
0.00000001
 40
0.0
 40
0.0
 40
0.0
 40
0.0
 40
0.2482304298201634
 40
0.5002235200928565
 40
0.7521074579195858
 40
1.0
 40
1.0
 40
1.0
 40
1.0
 10
23.73575145751238
 20
-7.778722792863853
 30
0.0
 10
23.75522094188315
 20
-7.767489581805227
 30
0.0
 10
23.79445502778226
 20
-7.744852887417029
 30
0.0
 10
23.86559349216546
 20
-7.733953760276531
 30
0.0
 10
23.93684495055954
 20
-7.742821304038351
 30
0.0
 10
23.97636777588831
 20
-7.764184931049137
 30
0.0
 10
23.99597136676311
 20
-7.77478143572808
 30
0.0
  0
SPLINE
  5
CB
330
1F
100
AcDbEntity
  8
0
  6
Continuous
 62
     1
370
    15
100
AcDbSpline
210
0.0
220
0.0
230
1.0
 70
     8
 71
     3
 72
    11
 73
     7
 74
     0
 42
0.000000001
 43
0.00000001
 40
0.0
 40
0.0
 40
0.0
 40
0.0
 40
0.247682830912654
 40
0.4998307245482662
 40
0.7520599264365916
 40
1.0
 40
1.0
 40
1.0
 40
1.0
 10
25.25471995025873
 20
7.777743041515345
 30
0.0
 10
25.23499694790192
 20
7.766557198870991
 30
0.0
 10
25.19519538990959
 20
7.74398386258842
 30
0.0
 10
25.12369705830643
 20
7.733594358542495
 30
0.0
 10
25.05231022225379
 20
7.742997810734412
 30
0.0
 10
25.01278478106882
 20
7.764771294025415
 30
0.0
 10
24.99319153279066
 20
7.775564678013319
 30
0.0
  0
LINE
  5
CC
330
1F
100
AcDbEntity
  8
0
  6
Continuous
 62
     1
370
    15
100
AcDbLine
 10
23.97744922339916
 20
-7.756049279123552
 30
0.0
 11
24.12548853456974
 21
-7.825807668268688
 31
0.0
  0
LINE
  5
CD
330
1F
100
AcDbEntity
  8
0
  6
Continuous
 62
     1
370
    15
100
AcDbLine
 10
25.01087548583746
 20
7.757438812404866
 30
0.0
 11
24.91491759568453
 21
7.806778885424132
 31
0.0
  0
SPLINE
  5
CE
330
1F
100
AcDbEntity
  8
0
  6
Continuous
 62
     1
370
    15
100
AcDbSpline
210
0.0
220
0.0
230
1.0
 70
     8
 71
     3
 72
    10
 73
     6
 74
     0
 42
0.000000001
 43
0.00000001
 40
0.0
 40
0.0
 40
0.0
 40
0.0
 40
0.5
 40
0.5
 40
1.0
 40
1.0
 40
1.0
 40
1.0
 10
18.27597690592986
 20
1.151628089519996
 30
0.0
 10
18.10019734753758
 20
1.216160091986965
 30
0.0
 10
17.90672528112488
 20
1.31985597928345
 30
0.0
 10
17.53802336934871
 20
1.531408128270165
 30
0.0
 10
17.36641063945023
 20
1.637860132292832
 30
0.0
 10
17.22200553887443
 20
1.738196009522266
 30
0.0
  0
SPLINE
  5
CF
330
1F
100
AcDbEntity
  8
0
  6
Continuous
 62
     1
370
    15
100
AcDbSpline
210
0.0
220
0.0
230
1.0
 70
     8
 71
     3
 72
    10
 73
     6
 74
     0
 42
0.000000001
 43
0.00000001
 40
0.0
 40
0.0
 40
0.0
 40
0.0
 40
0.5
 40
0.5
 40
1.0
 40
1.0
 40
1.0
 40
1.0
 10
16.97520702154721
 20
-2.991698772162629
 30
0.0
 10
17.15095448057052
 20
-3.080277142188484
 30
0.0
 10
17.3443914092886
 20
-3.189044009957782
 30
0.0
 10
17.71297582948342
 20
-3.38266473601129
 30
0.0
 10
17.88465143784198
 20
-3.466203113575176
 30
0.0
 10
18.02911043743013
 20
-3.533572951656244
 30
0.0
  0
SPLINE
  5
D0
330
1F
100
AcDbEntity
  8
외형선
  6
Continuous
370
    15
100
AcDbSpline
210
0.0
220
0.0
230
1.0
 70
     8
 71
     3
 72
     8
 73
     4
 74
     0
 42
0.000000001
 43
0.00000001
 40
0.0
 40
0.0
 40
0.0
 40
0.0
 40
1.0
 40
1.0
 40
1.0
 40
1.0
 10
11.32167981859297
 20
0.1879781921735755
 30
0.0
 10
11.41624536825927
 20
0.1311556195090944
 30
0.0
 10
11.51081465050541
 20
0.0743974082159623
 30
0.0
 10
11.60538833724013
 20
0.0177046312458266
 30
0.0
  0
SPLINE
  5
D1
330
1F
100
AcDbEntity
  8
외형선
  6
Continuous
370
    15
100
AcDbSpline
210
0.0
220
0.0
230
1.0
 70
     8
 71
     3
 72
    14
 73
    10
 74
     0
 42
0.000000001
 43
0.00000001
 40
0.0
 40
0.0
 40
0.0
 40
0.0
 40
0.25
 40
0.25
 40
0.4999999999999999
 40
0.4999999999999999
 40
0.7499999999999998
 40
0.7499999999999998
 40
1.0
 40
1.0
 40
1.0
 40
1.0
 10
11.32167981859298
 20
0.1879781921735869
 30
0.0
 10
11.33769921249424
 20
0.5921219247245711
 30
0.0
 10
11.35336802345
 20
0.9963555311485941
 30
0.0
 10
11.38486921455429
 20
1.784665295715921
 30
0.0
 10
11.40094542549138
 20
2.171013648232097
 30
0.0
 10
11.43374621417588
 20
2.928133761517046
 30
0.0
 10
11.45059894095219
 20
3.301548524456069
 30
0.0
 10
11.48417441396049
 20
4.014837890985637
 30
0.0
 10
11.50091416477002
 20
4.355386782763944
 30
0.0
 10
11.51759586907153
 20
4.679784958175075
 30
0.0
  0
SPLINE
  5
D2
330
1F
100
AcDbEntity
  8
외형선
  6
Continuous
370
    15
100
AcDbSpline
210
0.0
220
0.0
230
1.0
 70
     8
 71
     3
 72
     8
 73
     4
 74
     0
 42
0.000000001
 43
0.00000001
 40
0.0
 40
0.0
 40
0.0
 40
0.0
 40
1.0
 40
1.0
 40
1.0
 40
1.0
 10
11.90016804849817
 20
4.494648641798479
 30
0.0
 10
11.77260073638053
 20
4.556764299691532
 30
0.0
 10
11.64507641269745
 20
4.618476889711346
 30
0.0
 10
11.51759586907153
 20
4.67978495817508
 30
0.0
  0
SPLINE
  5
D3
330
1F
100
AcDbEntity
  8
외형선
  6
Continuous
370
    15
100
AcDbSpline
210
0.0
220
0.0
230
1.0
 70
     8
 71
     3
 72
    14
 73
    10
 74
     0
 42
0.000000001
 43
0.00000001
 40
0.0
 40
0.0
 40
0.0
 40
0.0
 40
0.25
 40
0.25
 40
0.5
 40
0.5
 40
0.75
 40
0.75
 40
1.0
 40
1.0
 40
1.0
 40
1.0
 10
11.90016804849801
 20
4.494648641798555
 30
0.0
 10
11.87578697329603
 20
4.167101310437124
 30
0.0
 10
11.85100051653752
 20
3.821620985298018
 30
0.0
 10
11.80176115285097
 20
3.111937655338783
 30
0.0
 10
11.77716507680159
 20
2.745856006613894
 30
0.0
 10
11.72799254622902
 20
1.991174021964523
 30
0.0
 10
11.70324406488965
 20
1.599691077272181
 30
0.0
 10
11.6549786505835
 20
0.8129539153254224
 30
0.0
 10
11.63061528161171
 20
0.416739128216877
 30
0.0
 10
11.60538833724013
 20
0.0177046312458031
 30
0.0
  0
SPLINE
  5
D4
330
1F
100
AcDbEntity
  8
0
  6
Continuous
 62
     1
370
    15
100
AcDbSpline
210
0.0
220
0.0
230
1.0
 70
     8
 71
     3
 72
    12
 73
     8
 74
     0
 42
0.000000001
 43
0.00000001
 40
0.0
 40
0.0
 40
0.0
 40
0.0
 40
0.5000000000000001
 40
0.5000000000000001
 40
0.75
 40
0.75
 40
1.0
 40
1.0
 40
1.0
 40
1.0
 10
18.96150852007327
 20
0.7172739430643662
 30
0.0
 10
18.92258924787428
 20
-0.0708122474956593
 30
0.0
 10
18.88126504201152
 20
-0.8858094426328118
 30
0.0
 10
18.81976551574942
 20
-2.066328430193557
 30
0.0
 10
18.79935633365951
 20
-2.452743298295175
 30
0.0
 10
18.759407556829
 20
-3.198632032570494
 30
0.0
 10
18.74021224831201
 20
-3.556071421994566
 30
0.0
 10
18.72095183500937
 20
-3.899529070269966
 30
0.0
  0
SPLINE
  5
D5
330
1F
100
AcDbEntity
  8
0
  6
Continuous
 62
     1
370
    15
100
AcDbSpline
210
0.0
220
0.0
230
1.0
 70
     8
 71
     3
 72
     8
 73
     4
 74
     0
 42
0.000000001
 43
0.00000001
 40
0.0
 40
0.0
 40
0.0
 40
0.0
 40
1.0
 40
1.0
 40
1.0
 40
1.0
 10
18.29821775081896
 20
-3.668606462541813
 30
0.0
 10
18.43123824319693
 20
-3.741888135745678
 30
0.0
 10
18.57712902953371
 20
-3.824374560263858
 30
0.0
 10
18.72095183500933
 20
-3.899529070270036
 30
0.0
  0
SPLINE
  5
D6
330
1F
100
AcDbEntity
  8
0
  6
Continuous
 62
     1
370
    15
100
AcDbSpline
210
0.0
220
0.0
230
1.0
 70
     8
 71
     3
 72
     8
 73
     4
 74
     0
 42
0.000000001
 43
0.00000001
 40
0.0
 40
0.0
 40
0.0
 40
0.0
 40
1.0
 40
1.0
 40
1.0
 40
1.0
 10
18.96150852376025
 20
0.7172739408191457
 30
0.0
 10
18.8085781553763
 20
0.8104013767655791
 30
0.0
 10
18.66619404997272
 20
0.9064957709130625
 30
0.0
 10
18.54503425298861
 20
1.000568604464309
 30
0.0
  0
SPLINE
  5
D7
330
1F
100
AcDbEntity
  8
0
  6
Continuous
 62
     1
370
    15
100
AcDbSpline
210
0.0
220
0.0
230
1.0
 70
     8
 71
     3
 72
    10
 73
     6
 74
     0
 42
0.000000001
 43
0.00000001
 40
0.0
 40
0.0
 40
0.0
 40
0.0
 40
0.5
 40
0.5
 40
1.0
 40
1.0
 40
1.0
 40
1.0
 10
15.84572446480687
 20
2.486490069311675
 30
0.0
 10
15.67012197960863
 20
2.568593890599707
 30
0.0
 10
15.47678776974264
 20
2.676348475612661
 30
0.0
 10
15.10829702756383
 20
2.875772778991134
 30
0.0
 10
14.93683915315347
 20
2.966311123597248
 30
0.0
 10
14.79267581946499
 20
3.043511228342143
 30
0.0
  0
SPLINE
  5
D8
330
1F
100
AcDbEntity
  8
0
  6
Continuous
 62
     1
370
    15
100
AcDbSpline
210
0.0
220
0.0
230
1.0
 70
     8
 71
     3
 72
    10
 73
     6
 74
     0
 42
0.000000001
 43
0.00000001
 40
0.0
 40
0.0
 40
0.0
 40
0.0
 40
0.5000000000000001
 40
0.5000000000000001
 40
1.0
 40
1.0
 40
1.0
 40
1.0
 10
14.54596403561414
 20
-1.683203327366614
 30
0.0
 10
14.72151906570488
 20
-1.755048045782241
 30
0.0
 10
14.91464329186648
 20
-1.860991454520457
 30
0.0
 10
15.28307079495448
 20
-2.068447340238285
 30
0.0
 10
15.45467466060365
 20
-2.168721465441637
 30
0.0
 10
15.59897070518771
 20
-2.26009968975656
 30
0.0
  0
SPLINE
  5
D9
330
1F
100
AcDbEntity
  8
0
  6
Continuous
 62
     1
370
    15
100
AcDbSpline
210
0.0
220
0.0
230
1.0
 70
     8
 71
     3
 72
     8
 73
     4
 74
     0
 42
0.000000001
 43
0.00000001
 40
0.0
 40
0.0
 40
0.0
 40
0.0
 40
1.0
 40
1.0
 40
1.0
 40
1.0
 10
16.29023524594039
 20
-2.622523194078646
 30
0.0
 10
16.44305848557376
 20
-2.70609009247998
 30
0.0
 10
16.58532547008252
 20
-2.783020696344875
 30
0.0
 10
16.70634863770893
 20
-2.850735825283541
 30
0.0
  0
SPLINE
  5
DA
330
1F
100
AcDbEntity
  8
0
  6
Continuous
 62
     1
370
    15
100
AcDbSpline
210
0.0
220
0.0
230
1.0
 70
     8
 71
     3
 72
    12
 73
     8
 74
     0
 42
0.000000001
 43
0.00000001
 40
0.0
 40
0.0
 40
0.0
 40
0.0
 40
0.2500000000000001
 40
0.2500000000000001
 40
0.5000000000000001
 40
0.5000000000000001
 40
1.0
 40
1.0
 40
1.0
 40
1.0
 10
16.53057170119194
 20
2.09680108240848
 30
0.0
 10
16.51057040671664
 20
1.711589415648977
 30
0.0
 10
16.49131447259357
 20
1.323275358046213
 30
0.0
 10
16.45282408094631
 20
0.5400205018500257
 30
0.0
 10
16.43293168609197
 20
0.1405818437850502
 30
0.0
 10
16.37225944000649
 20
-1.061381975551656
 30
0.0
 10
16.33049434896535
 20
-1.866983714704495
 30
0.0
 10
16.29023524594968
 20
-2.622523194082868
 30
0.0
  0
SPLINE
  5
DB
330
1F
100
AcDbEntity
  8
0
  6
Continuous
 62
     1
370
    15
100
AcDbSpline
210
0.0
220
0.0
230
1.0
 70
     8
 71
     3
 72
     8
 73
     4
 74
     0
 42
0.000000001
 43
0.00000001
 40
0.0
 40
0.0
 40
0.0
 40
0.0
 40
1.0
 40
1.0
 40
1.0
 40
1.0
 10
16.95307760833256
 20
1.885945177900285
 30
0.0
 10
16.8201348760375
 20
1.941990207595587
 30
0.0
 10
16.67432526673923
 20
2.018564456481997
 30
0.0
 10
16.53057170119191
 20
2.096801082408518
 30
0.0
  0
SPLINE
  5
DC
330
1F
100
AcDbEntity
  8
0
  6
Continuous
 62
     1
370
    15
100
AcDbSpline
210
0.0
220
0.0
230
1.0
 70
     8
 71
     3
 72
     8
 73
     4
 74
     0
 42
0.000000001
 43
0.00000001
 40
0.0
 40
0.0
 40
0.0
 40
0.0
 40
1.0
 40
1.0
 40
1.0
 40
1.0
 10
15.86779222999854
 20
-2.404867321826933
 30
0.0
 10
16.00071274859177
 20
-2.466065108294376
 30
0.0
 10
16.14650935477648
 20
-2.544721666051435
 30
0.0
 10
16.2902352459496
 20
-2.622523194083691
 30
0.0
  0
SPLINE
  5
DD
330
1F
100
AcDbEntity
  8
0
  6
Continuous
 62
     1
370
    15
100
AcDbSpline
210
0.0
220
0.0
230
1.0
 70
     8
 71
     3
 72
     8
 73
     4
 74
     0
 42
0.000000001
 43
0.00000001
 40
0.0
 40
0.0
 40
0.0
 40
0.0
 40
1.0
 40
1.0
 40
1.0
 40
1.0
 10
16.53057170487686
 20
2.096801080315376
 30
0.0
 10
16.37777575203614
 20
2.183592494369645
 30
0.0
 10
16.23550472554827
 20
2.266410650261253
 30
0.0
 10
16.11449330856696
 20
2.341981334497684
 30
0.0
  0
SPLINE
  5
DE
330
1F
100
AcDbEntity
  8
0
  6
Continuous
 62
     1
370
    15
100
AcDbSpline
210
0.0
220
0.0
230
1.0
 70
     8
 71
     3
 72
     8
 73
     4
 74
     0
 42
0.000000001
 43
0.00000001
 40
0.0
 40
0.0
 40
0.0
 40
0.0
 40
1.0
 40
1.0
 40
1.0
 40
1.0
 10
18.7209518349947
 20
-3.899529070262995
 30
0.0
 10
18.8738611663608
 20
-3.973167134048461
 30
0.0
 10
19.01624292166258
 20
-4.033467132893341
 30
0.0
 10
19.13736788271907
 20
-4.079680253623369
 30
0.0
  0
SPLINE
  5
DF
330
1F
100
AcDbEntity
  8
0
  6
Continuous
 62
     1
370
    15
100
AcDbSpline
210
0.0
220
0.0
230
1.0
 70
     8
 71
     3
 72
     8
 73
     4
 74
     0
 42
0.000000001
 43
0.00000001
 40
0.0
 40
0.0
 40
0.0
 40
0.0
 40
1.0
 40
1.0
 40
1.0
 40
1.0
 10
19.38413208644881
 20
0.5288233571811113
 30
0.0
 10
19.25115135685701
 20
0.5702882842656676
 30
0.0
 10
19.10529463344436
 20
0.6397242083585994
 30
0.0
 10
18.96150852007326
 20
0.717273943064355
 30
0.0
  0
SPLINE
  5
E0
330
1F
100
AcDbEntity
  8
0
  6
Continuous
 62
     1
370
    15
100
AcDbSpline
210
0.0
220
0.0
230
1.0
 70
     8
 71
     3
 72
    10
 73
     6
 74
     0
 42
0.000000001
 43
0.00000001
 40
0.0
 40
0.0
 40
0.0
 40
0.0
 40
0.5
 40
0.5
 40
1.0
 40
1.0
 40
1.0
 40
1.0
 10
20.70650540799839
 20
-0.2191537833386581
 30
0.0
 10
20.5308550042256
 20
-0.174313992016475
 30
0.0
 10
20.33758960785743
 20
-0.0779590715559194
 30
0.0
 10
19.96910904526532
 20
0.1386791293426912
 30
0.0
 10
19.79746587559235
 20
0.2573227752068449
 30
0.0
 10
19.65309228801097
 20
0.3775563928457147
 30
0.0
  0
SPLINE
  5
E1
330
1F
100
AcDbEntity
  8
0
  6
Continuous
 62
     1
370
    15
100
AcDbSpline
210
0.0
220
0.0
230
1.0
 70
     8
 71
     3
 72
    10
 73
     6
 74
     0
 42
0.000000001
 43
0.00000001
 40
0.0
 40
0.0
 40
0.0
 40
0.0
 40
0.5
 40
0.5
 40
1.0
 40
1.0
 40
1.0
 40
1.0
 10
19.40628433788113
 20
-4.208057795806296
 30
0.0
 10
19.58197440486678
 20
-4.310550867024549
 30
0.0
 10
19.77537731337557
 20
-4.418734572269006
 30
0.0
 10
20.14396910171992
 20
-4.591794881073879
 30
0.0
 10
20.31547097899139
 20
-4.655897036559706
 30
0.0
 10
20.45975519311706
 20
-4.697001772139426
 30
0.0
  0
LWPOLYLINE
  5
E2
330
1F
100
AcDbEntity
  8
외형선
  6
Continuous
370
    15
100
AcDbPolyline
 90
       59
 70
   128
 43
0.0
 10
8.950194170698524
 20
0.4887615796178522
 10
8.944184113293886
 20
0.3684857510961534
 10
8.935277642682195
 20
0.1913833257276507
 10
8.925338335335255
 20
-0.0056770554692833
 10
8.913271188735962
 20
-0.2444211859256089
 10
8.899075970053673
 20
-0.5245638894848579
 10
8.882752912119031
 20
-0.8455297211185158
 10
8.864302014932036
 20
-1.206338522024459
 10
8.843723045662045
 20
-1.605476136319345
 10
8.821016237139702
 20
-2.040752442553645
 10
8.785292332991958
 20
-2.715955954045063
 10
8.750021517276764
 20
-3.369563724845654
 10
8.742165811359882
 20
-3.512790193781262
 10
8.734332922846079
 20
-3.654608270153409
 10
8.726522851735353
 20
-3.794960910454398
 10
8.71873583085835
 20
-3.933792002499108
 10
8.71097139455378
 20
-4.071045666933065
 10
8.70322977565229
 20
-4.206667188555008
 10
8.69551120698452
 20
-4.340601619333034
 10
8.694489313289523
 20
-4.357858095318084
 10
8.685774695128202
 20
-4.501477349549537
 10
8.675256803631783
 20
-4.671275615692144
 10
8.660972643643618
 20
-4.896425176411872
 10
8.651119250804186
 20
-5.048051942139869
 10
8.640036046504974
 20
-5.214920267462736
 10
8.627723030745983
 20
-5.395607557147747
 10
8.614180203527212
 20
-5.588456522673374
 10
8.599407564848661
 20
-5.791555624455219
 10
8.583404881879687
 20
-6.002718117088085
 10
8.566172620281577
 20
-6.219462957233196
 10
8.530497843399644
 20
-6.633921526372438
 10
8.495268704369664
 20
-6.995670497417455
 10
8.486115666106343
 20
-7.081335876137024
 10
8.476993361487985
 20
-7.163139525800949
 10
8.467901324853301
 20
-7.241036742925651
 10
8.45884002186358
 20
-7.314985152333982
 10
8.449809219688177
 20
-7.384944241493947
 10
8.440808918327093
 20
-7.450875826179988
 10
8.432677773758769
 20
-7.505977526307113
 10
8.41924530826509
 20
-7.588638458400972
 10
8.410541167482734
 20
-7.637340109795339
 10
8.4005117546767
 20
-7.688870653510101
 10
8.389156837016344
 20
-7.74134090170265
 10
8.376476880162954
 20
-7.792597636580474
 10
8.348823817446828
 20
-7.877616211771972
 10
8.328749392181635
 20
-7.916234433650978
 10
8.316254070028663
 20
-7.930407300591476
 10
8.312848456203938
 20
-7.932955399155624
 10
8.311856132000685
 20
-7.933592423796661
 10
8.311507351696491
 20
-7.933804765343673
 10
8.311400948092341
 20
-7.933868095278747
 10
8.31136322952807
 20
-7.933890447020538
 10
8.311348328366876
 20
-7.933899760246284
 10
8.311342041939497
 20
-7.933903485536582
 10
8.311339480802417
 20
-7.933904416859157
 10
8.311338316649199
 20
-7.933905348181732
 10
8.311337850987911
 20
-7.933905348181732
 10
8.311337385326624
 20
-7.933906279504306
 10
8.299311682581902
 20
-7.930450141429908
  0
SPLINE
  5
E3
330
1F
100
AcDbEntity
  8
외형선
  6
Continuous
370
    15
100
AcDbSpline
210
0.0
220
0.0
230
1.0
 70
     8
 71
     3
 72
     8
 73
     4
 74
     0
 42
0.000000001
 43
0.00000001
 40
0.0
 40
0.0
 40
0.0
 40
0.0
 40
1.0
 40
1.0
 40
1.0
 40
1.0
 10
9.178398491634479
 20
-3.357629581414561
 30
0.0
 10
9.10551774579384
 20
-3.361018269644404
 30
0.0
 10
9.028625155997211
 20
-3.351093409050141
 30
0.0
 10
8.950194146147014
 20
-3.331223459629631
 30
0.0
  0
SPLINE
  5
E4
330
1F
100
AcDbEntity
  8
외형선
  6
Continuous
370
    15
100
AcDbSpline
210
0.0
220
0.0
230
1.0
 70
    24
 71
     3
 72
    12
 73
     8
 74
     0
 42
0.000000001
 43
0.00000001
 40
0.0
 40
0.0
 40
0.0
 40
0.0
 40
0.5
 40
0.5
 40
0.75
 40
0.75
 40
1.0
 40
1.0
 40
1.0
 40
1.0
 10
8.950194146147014
 20
0.488761599662103
 30
0.0
 10
8.950194146147014
 20
-0.1710297129873575
 30
0.0
 10
8.95019414614701
 20
-0.8346239948115568
 30
0.0
 10
8.95019414614701
 20
-1.793231853591231
 30
0.0
 10
8.950194146147014
 20
-2.107980024080462
 30
0.0
 10
8.950194146147014
 20
-2.7278025159859
 30
0.0
 10
8.950194146147014
 20
-3.034106005698693
 30
0.0
 10
8.950194146147014
 20
-3.331235599936719
 30
0.0
  0
SPLINE
  5
E5
330
1F
100
AcDbEntity
  8
0
  6
Continuous
 62
     1
370
    15
100
AcDbSpline
210
0.0
220
0.0
230
1.0
 70
     8
 71
     3
 72
    10
 73
     6
 74
     0
 42
0.000000001
 43
0.00000001
 40
0.0
 40
0.0
 40
0.0
 40
0.0
 40
0.5
 40
0.5
 40
1.0
 40
1.0
 40
1.0
 40
1.0
 10
13.41704439026683
 20
3.743130667601704
 30
0.0
 10
13.24148149163541
 20
3.840340925230365
 30
0.0
 10
13.04816556100353
 20
3.948937425668248
 30
0.0
 10
12.67965644093807
 20
4.130268506427157
 30
0.0
 10
12.50814883012317
 20
4.202072469459308
 30
0.0
 10
12.36397356569114
 20
4.253698872505824
 30
0.0
  0
SPLINE
  5
E6
330
1F
100
AcDbEntity
  8
0
  6
Continuous
 62
     1
370
    15
100
AcDbSpline
210
0.0
220
0.0
230
1.0
 70
     8
 71
     3
 72
    10
 73
     6
 74
     0
 42
0.000000001
 43
0.00000001
 40
0.0
 40
0.0
 40
0.0
 40
0.0
 40
0.5000000000000001
 40
0.5000000000000001
 40
1.0
 40
1.0
 40
1.0
 40
1.0
 10
12.11724299402527
 20
-0.322823629565469
 30
0.0
 10
12.29274185376585
 20
-0.3758386633158239
 30
0.0
 10
12.48589228831909
 20
-0.4753411405662298
 30
0.0
 10
12.85439771478818
 20
-0.6902669836721069
 30
0.0
 10
13.02602332482863
 20
-0.8042569075736687
 30
0.0
 10
13.17030734637348
 20
-0.9168903867308749
 30
0.0
  0
SPLINE
  5
E7
330
1F
100
AcDbEntity
  8
0
  6
Continuous
 62
     1
370
    15
100
AcDbSpline
210
0.0
220
0.0
230
1.0
 70
     8
 71
     3
 72
    10
 73
     6
 74
     0
 42
0.000000001
 43
0.00000001
 40
0.0
 40
0.0
 40
0.0
 40
0.0
 40
0.5
 40
0.5
 40
1.0
 40
1.0
 40
1.0
 40
1.0
 10
18.02911043743013
 20
-3.533572951656244
 30
0.0
 10
18.06591442462541
 20
-3.550736843592039
 30
0.0
 10
18.1091181120463
 20
-3.57169929882728
 30
0.0
 10
18.20295183523304
 20
-3.618343299752504
 30
0.0
 10
18.2536715493991
 20
-3.644065731136022
 30
0.0
 10
18.29821775081861
 20
-3.668606462541697
 30
0.0
  0
SPLINE
  5
E8
330
1F
100
AcDbEntity
  8
0
  6
Continuous
 62
     1
370
    15
100
AcDbSpline
210
0.0
220
0.0
230
1.0
 70
     8
 71
     3
 72
    10
 73
     6
 74
     0
 42
0.000000001
 43
0.00000001
 40
0.0
 40
0.0
 40
0.0
 40
0.0
 40
0.5
 40
0.5
 40
1.0
 40
1.0
 40
1.0
 40
1.0
 10
18.54503425298859
 20
1.000568604464308
 30
0.0
 10
18.50843841836553
 20
1.028982929552816
 30
0.0
 10
18.46536422597545
 20
1.057897110200181
 30
0.0
 10
18.37161347733427
 20
1.111117096445964
 30
0.0
 10
18.32082247067933
 20
1.135164434010139
 30
0.0
 10
18.27597690592986
 20
1.151628089519998
 30
0.0
  0
SPLINE
  5
E9
330
1F
100
AcDbEntity
  8
0
  6
Continuous
 62
     1
370
    15
100
AcDbSpline
210
0.0
220
0.0
230
1.0
 70
     8
 71
     3
 72
     8
 73
     4
 74
     0
 42
0.000000001
 43
0.00000001
 40
0.0
 40
0.0
 40
0.0
 40
0.0
 40
1.0
 40
1.0
 40
1.0
 40
1.0
 10
13.86142175953452
 20
-1.264825966756755
 30
0.0
 10
14.01417623644323
 20
-1.355748248385653
 30
0.0
 10
14.15636025098475
 20
-1.446945094610024
 30
0.0
 10
14.27727994642237
 20
-1.534053148844008
 30
0.0
  0
SPLINE
  5
EA
330
1F
100
AcDbEntity
  8
0
  6
Continuous
 62
     1
370
    15
100
AcDbSpline
210
0.0
220
0.0
230
1.0
 70
     8
 71
     3
 72
    10
 73
     6
 74
     0
 42
0.000000001
 43
0.00000001
 40
0.0
 40
0.0
 40
0.0
 40
0.0
 40
0.5
 40
0.5
 40
1.0
 40
1.0
 40
1.0
 40
1.0
 10
14.10161042095035
 20
3.409826706946044
 30
0.0
 10
14.0605367412499
 20
2.681978281687079
 30
0.0
 10
14.01960003786039
 20
1.901578047856382
 30
0.0
 10
13.9432947030643
 20
0.3442167757948774
 30
0.0
 10
13.90249189303838
 20
-0.4691378194556179
 30
0.0
 10
13.86142175954376
 20
-1.264825966762247
 30
0.0
  0
SPLINE
  5
EB
330
1F
100
AcDbEntity
  8
0
  6
Continuous
 62
     1
370
    15
100
AcDbSpline
210
0.0
220
0.0
230
1.0
 70
     8
 71
     3
 72
     8
 73
     4
 74
     0
 42
0.000000001
 43
0.00000001
 40
0.0
 40
0.0
 40
0.0
 40
0.0
 40
1.0
 40
1.0
 40
1.0
 40
1.0
 10
14.52393470292798
 20
3.18310742919774
 30
0.0
 10
14.39105029726287
 20
3.251981234111472
 30
0.0
 10
14.24530867149817
 20
3.333323022150222
 30
0.0
 10
14.10161042095041
 20
3.409826706947501
 30
0.0
  0
SPLINE
  5
EC
330
1F
100
AcDbEntity
  8
0
  6
Continuous
 62
     1
370
    15
100
AcDbSpline
210
0.0
220
0.0
230
1.0
 70
     8
 71
     3
 72
     8
 73
     4
 74
     0
 42
0.000000001
 43
0.00000001
 40
0.0
 40
0.0
 40
0.0
 40
0.0
 40
1.0
 40
1.0
 40
1.0
 40
1.0
 10
13.43907632644711
 20
-1.067035467194246
 30
0.0
 10
13.57196953649059
 20
-1.114312699730128
 30
0.0
 10
13.71773580834668
 20
-1.186746953540994
 30
0.0
 10
13.86142175954374
 20
-1.264825966762232
 30
0.0
  0
SPLINE
  5
ED
330
1F
100
AcDbEntity
  8
0
  6
Continuous
 62
     1
370
    15
100
AcDbSpline
210
0.0
220
0.0
230
1.0
 70
     8
 71
     3
 72
     8
 73
     4
 74
     0
 42
0.000000001
 43
0.00000001
 40
0.0
 40
0.0
 40
0.0
 40
0.0
 40
1.0
 40
1.0
 40
1.0
 40
1.0
 10
14.10161042463336
 20
3.409826705070702
 30
0.0
 10
13.94889545949822
 20
3.487648855005094
 30
0.0
 10
13.80669574294315
 20
3.554684109591272
 30
0.0
 10
13.68574646066877
 20
3.609481788658206
 30
0.0
  0
SPLINE
  5
EE
330
1F
100
AcDbEntity
  8
0
  6
Continuous
 62
     1
370
    15
100
AcDbSpline
210
0.0
220
0.0
230
1.0
 70
     8
 71
     3
 72
    10
 73
     6
 74
     0
 42
0.000000001
 43
0.00000001
 40
0.0
 40
0.0
 40
0.0
 40
0.0
 40
0.5
 40
0.5
 40
1.0
 40
1.0
 40
1.0
 40
1.0
 10
31.03702993631958
 20
1.996517392398141
 30
0.0
 10
30.99856229405765
 20
1.939686802257218
 30
0.0
 10
30.95918476003644
 20
1.883955023967237
 30
0.0
 10
30.88046660443118
 20
1.776984003071538
 30
0.0
 10
30.84104512304439
 20
1.725566267067427
 30
0.0
 10
30.80286438167538
 20
1.679187379714209
 30
0.0
  0
ELLIPSE
  5
EF
330
1F
100
AcDbEntity
  8
0
  6
Continuous
 62
     1
370
    15
100
AcDbEllipse
 10
24.1524842772923
 20
-9.745997616111506
 30
0.0
 11
10.13079381818826
 21
14.24614743881897
 31
0.0
210
0.0
220
0.0
230
1.0
 40
0.1082739118711055
 41
0.6813214274754287
 42
0.6830314838191053
  0
LINE
  5
F0
330
1F
100
AcDbEntity
  8
0
  6
Continuous
 62
     1
370
    15
100
AcDbLine
 10
31.05000039935112
 20
-0.3774505457840918
 30
0.0
 11
31.05000039935112
 21
2.010421128943557
 31
0.0
  0
LINE
  5
F1
330
1F
100
AcDbEntity
  8
0
  6
Continuous
 62
     1
370
    15
100
AcDbLine
 10
29.26239377260208
 20
-0.9008687338791848
 30
0.0
 11
31.05000039935112
 21
-0.3774505457840918
 31
0.0
  0
SPLINE
  5
F2
330
1F
100
AcDbEntity
  8
0
  6
Continuous
 62
     1
370
    15
100
AcDbSpline
210
0.0
220
0.0
230
1.0
 70
     8
 71
     3
 72
    10
 73
     6
 74
     0
 42
0.000000001
 43
0.00000001
 40
0.0
 40
0.0
 40
0.0
 40
0.0
 40
0.5
 40
0.5
 40
1.0
 40
1.0
 40
1.0
 40
1.0
 10
29.41976631933239
 20
-0.3516157457315208
 30
0.0
 10
29.41258397583412
 20
-0.4192909509117679
 30
0.0
 10
29.39668700090791
 20
-0.4979550239964108
 30
0.0
 10
29.34519937951682
 20
-0.680116251963852
 30
0.0
 10
29.30897256278953
 20
-0.7851331348874999
 30
0.0
 10
29.26239334778821
 20
-0.9008687529960377
 30
0.0
  0
SPLINE
  5
F3
330
1F
100
AcDbEntity
  8
0
  6
Continuous
 62
     1
370
    15
100
AcDbSpline
210
0.0
220
0.0
230
1.0
 70
     8
 71
     3
 72
     8
 73
     4
 74
     0
 42
0.000000001
 43
0.00000001
 40
0.0
 40
0.0
 40
0.0
 40
0.0
 40
1.0
 40
1.0
 40
1.0
 40
1.0
 10
29.63291183072057
 20
-0.0180730978707652
 30
0.0
 10
29.56779131273142
 20
-0.1284037398642254
 30
0.0
 10
29.49506080948854
 20
-0.2423382517703379
 30
0.0
 10
29.41976631933249
 20
-0.3516157457315598
 30
0.0
  0
SPLINE
  5
F4
330
1F
100
AcDbEntity
  8
0
  6
Continuous
 62
     1
370
    15
100
AcDbSpline
210
0.0
220
0.0
230
1.0
 70
     8
 71
     3
 72
    12
 73
     8
 74
     0
 42
0.000000001
 43
0.00000001
 40
0.0
 40
0.0
 40
0.0
 40
0.0
 40
0.25
 40
0.25
 40
0.5
 40
0.5
 40
1.0
 40
1.0
 40
1.0
 40
1.0
 10
30.80286438167533
 20
1.679187379714213
 30
0.0
 10
30.70381598817136
 20
1.558871374311371
 30
0.0
 10
30.60352514303247
 20
1.429544010913979
 30
0.0
 10
30.40103244664863
 20
1.157028977800908
 30
0.0
 10
30.29841973160653
 20
1.013036803614804
 30
0.0
 10
29.99952233036929
 20
0.5779246871382518
 30
0.0
 10
29.80636685587154
 20
0.2758036229054768
 30
0.0
 10
29.63291183072056
 20
-0.0180730978707699
 30
0.0
  0
SPLINE
  5
F5
330
1F
100
AcDbEntity
  8
0
  6
Continuous
 62
     1
370
    15
100
AcDbSpline
210
0.0
220
0.0
230
1.0
 70
     8
 71
     3
 72
    10
 73
     6
 74
     0
 42
0.000000001
 43
0.00000001
 40
0.0
 40
0.0
 40
0.0
 40
0.0
 40
0.5
 40
0.5
 40
1.0
 40
1.0
 40
1.0
 40
1.0
 10
16.70634863770893
 20
-2.850735825283529
 30
0.0
 10
16.74290736943468
 20
-2.8711912412274
 30
0.0
 10
16.78594611890177
 20
-2.894590736721322
 30
0.0
 10
16.87963669124419
 20
-2.943572149177309
 30
0.0
 10
16.93039266711609
 20
-2.969111916618189
 30
0.0
 10
16.97520702154693
 20
-2.991698772162534
 30
0.0
  0
SPLINE
  5
F6
330
1F
100
AcDbEntity
  8
0
  6
Continuous
 62
     1
370
    15
100
AcDbSpline
210
0.0
220
0.0
230
1.0
 70
     8
 71
     3
 72
    10
 73
     6
 74
     0
 42
0.000000001
 43
0.00000001
 40
0.0
 40
0.0
 40
0.0
 40
0.0
 40
0.5
 40
0.5
 40
1.0
 40
1.0
 40
1.0
 40
1.0
 10
17.22200553887443
 20
1.738196009522271
 30
0.0
 10
17.18523415591365
 20
1.763745584652219
 30
0.0
 10
17.14206487390469
 20
1.790697068335216
 30
0.0
 10
17.0482875574243
 20
1.842509611946524
 30
0.0
 10
16.99759693034929
 20
1.867177046078668
 30
0.0
 10
16.95307760833257
 20
1.8859451779003
 30
0.0
  0
SPLINE
  5
F7
330
1F
100
AcDbEntity
  8
0
  6
Continuous
 62
     1
370
    15
100
AcDbSpline
210
0.0
220
0.0
230
1.0
 70
     8
 71
     3
 72
    10
 73
     6
 74
     0
 42
0.000000001
 43
0.00000001
 40
0.0
 40
0.0
 40
0.0
 40
0.0
 40
0.5
 40
0.5
 40
1.0
 40
1.0
 40
1.0
 40
1.0
 10
30.91067460501294
 20
3.635218952602344
 30
0.0
 10
30.73520230303951
 20
3.731484142242566
 30
0.0
 10
30.5420244372301
 20
3.840266016809794
 30
0.0
 10
30.17352671287387
 20
4.023442654250143
 30
0.0
 10
30.00192252738065
 20
4.096869776050545
 30
0.0
 10
29.85764832787134
 20
4.15065202590742
 30
0.0
  0
SPLINE
  5
F8
330
1F
100
AcDbEntity
  8
0
  6
Continuous
 62
     1
370
    15
100
AcDbSpline
210
0.0
220
0.0
230
1.0
 70
     8
 71
     3
 72
    10
 73
     6
 74
     0
 42
0.000000001
 43
0.00000001
 40
0.0
 40
0.0
 40
0.0
 40
0.0
 40
0.5
 40
0.5
 40
1.0
 40
1.0
 40
1.0
 40
1.0
 10
27.18080974055338
 20
0.9268862508835499
 30
0.0
 10
27.35654039701452
 20
0.8929749606977301
 30
0.0
 10
27.55000466881346
 20
0.8020260520280358
 30
0.0
 10
27.91878441808421
 20
0.5857786737246287
 30
0.0
 10
28.09043098578784
 20
0.4620623024470176
 30
0.0
 10
28.23473683278631
 20
0.3327662492079967
 30
0.0
  0
SPLINE
  5
F9
330
1F
100
AcDbEntity
  8
0
  6
Continuous
 62
     1
370
    15
100
AcDbSpline
210
0.0
220
0.0
230
1.0
 70
     8
 71
     3
 72
    10
 73
     6
 74
     0
 42
0.000000001
 43
0.00000001
 40
0.0
 40
0.0
 40
0.0
 40
0.0
 40
0.5
 40
0.5
 40
1.0
 40
1.0
 40
1.0
 40
1.0
 10
28.48151202661387
 20
4.786919773228725
 30
0.0
 10
28.30585617493757
 20
4.895666359419199
 30
0.0
 10
28.11259363493693
 20
5.002533324960039
 30
0.0
 10
27.74387220334065
 20
5.162933362555448
 30
0.0
 10
27.57213758381516
 20
5.215849029989448
 30
0.0
 10
27.42767422224953
 20
5.242722811406406
 30
0.0
  0
SPLINE
  5
FA
330
1F
100
AcDbEntity
  8
외형선
  6
Continuous
370
    15
100
AcDbSpline
210
0.0
220
0.0
230
1.0
 70
     8
 71
     3
 72
    10
 73
     6
 74
     0
 42
0.000000001
 43
0.00000001
 40
0.0
 40
0.0
 40
0.0
 40
0.0
 40
0.5000000000000001
 40
0.5000000000000001
 40
1.0
 40
1.0
 40
1.0
 40
1.0
 10
10.98777414851848
 20
4.883499256941748
 30
0.0
 10
10.81208499806778
 20
4.992914622816912
 30
0.0
 10
10.61863103324043
 20
5.099083609774478
 30
0.0
 10
10.24982606673301
 20
5.256878471100492
 30
0.0
 10
10.07814984953677
 20
5.307854987230296
 30
0.0
 10
9.933758421106656
 20
5.332356516463467
 30
0.0
  0
SPLINE
  5
FB
330
1F
100
AcDbEntity
  8
외형선
  6
Continuous
370
    15
100
AcDbSpline
210
0.0
220
0.0
230
1.0
 70
     8
 71
     3
 72
    10
 73
     6
 74
     0
 42
0.000000001
 43
0.00000001
 40
0.0
 40
0.0
 40
0.0
 40
0.0
 40
0.5
 40
0.5
 40
1.0
 40
1.0
 40
1.0
 40
1.0
 10
9.686895201218066
 20
1.048446856990596
 30
0.0
 10
9.862552838438328
 20
1.016124719963767
 30
0.0
 10
10.05590939701903
 20
0.9260379851861573
 30
0.0
 10
10.42474181084652
 20
0.7100997248324323
 30
0.0
 10
10.59651850996987
 20
0.5858302980413499
 30
0.0
 10
10.74095774743376
 20
0.4553237040140057
 30
0.0
  0
SPLINE
  5
FC
330
1F
100
AcDbEntity
  8
외형선
  6
Continuous
370
    15
100
AcDbSpline
210
0.0
220
0.0
230
1.0
 70
     8
 71
     3
 72
     8
 73
     4
 74
     0
 42
0.000000001
 43
0.00000001
 40
0.0
 40
0.0
 40
0.0
 40
0.0
 40
1.0
 40
1.0
 40
1.0
 40
1.0
 10
9.24175848959429
 20
5.680205953362119
 30
0.0
 10
9.144687448040884
 20
5.719423379468353
 30
0.0
 10
9.047488454946429
 20
5.758231665088275
 30
0.0
 10
8.950194146147014
 20
5.796616722347538
 30
0.0
  0
SPLINE
  5
FD
330
1F
100
AcDbEntity
  8
외형선
  6
Continuous
370
    15
100
AcDbSpline
210
0.0
220
0.0
230
1.0
 70
     8
 71
     3
 72
     8
 73
     4
 74
     0
 42
0.000000001
 43
0.00000001
 40
0.0
 40
0.0
 40
0.0
 40
0.0
 40
1.0
 40
1.0
 40
1.0
 40
1.0
 10
9.4873886333502
 20
7.841011460490067
 30
0.0
 10
9.308661421941455
 20
7.857099906472284
 30
0.0
 10
9.129647546233176
 20
7.87119744138519
 30
0.0
 10
8.95019414614701
 20
7.883289127240108
 30
0.0
  0
SPLINE
  5
FE
330
1F
100
AcDbEntity
  8
외형선
  6
Continuous
370
    15
100
AcDbSpline
210
0.0
220
0.0
230
1.0
 70
     8
 71
     3
 72
     8
 73
     4
 74
     0
 42
0.000000001
 43
0.00000001
 40
0.0
 40
0.0
 40
0.0
 40
0.0
 40
1.0
 40
1.0
 40
1.0
 40
1.0
 10
9.487666980097258
 20
7.84098640302445
 30
0.0
 10
9.640552970679733
 20
7.807426334233742
 30
0.0
 10
9.782981056459839
 20
7.734723559647023
 30
0.0
 10
9.904193165157519
 20
7.632377145323481
 30
0.0
  0
SPLINE
  5
FF
330
1F
100
AcDbEntity
  8
외형선
  6
Continuous
370
    15
100
AcDbSpline
210
0.0
220
0.0
230
1.0
 70
     8
 71
     3
 72
    10
 73
     6
 74
     0
 42
0.000000001
 43
0.00000001
 40
0.0
 40
0.0
 40
0.0
 40
0.0
 40
0.5000000000000004
 40
0.5000000000000004
 40
1.0
 40
1.0
 40
1.0
 40
1.0
 10
9.904193165157551
 20
7.632377145323455
 30
0.0
 10
9.940772005110272
 20
7.601491508983171
 30
0.0
 10
9.983826401349582
 20
7.580617724875612
 30
0.0
 10
10.07755378184852
 20
7.566370228421906
 30
0.0
 10
10.12834302814655
 20
7.573889595512462
 30
0.0
 10
10.17318734543211
 20
7.599926628046836
 30
0.0
  0
SPLINE
  5
100
330
1F
100
AcDbEntity
  8
외형선
  6
Continuous
370
    15
100
AcDbSpline
210
0.0
220
0.0
230
1.0
 70
     8
 71
     3
 72
    10
 73
     6
 74
     0
 42
0.000000001
 43
0.00000001
 40
0.0
 40
0.0
 40
0.0
 40
0.0
 40
0.5
 40
0.5
 40
1.0
 40
1.0
 40
1.0
 40
1.0
 10
10.17318734543211
 20
7.599926628046841
 30
0.0
 10
10.34881744676934
 20
7.701899117301485
 30
0.0
 10
10.54218250510494
 20
7.728528954586306
 30
0.0
 10
10.91094913619289
 20
7.66709654497271
 30
0.0
 10
11.08265403554611
 20
7.580124749778557
 30
0.0
 10
11.22700867999705
 20
7.451153186167732
 30
0.0
  0
SPLINE
  5
101
330
1F
100
AcDbEntity
  8
외형선
  6
Continuous
370
    15
100
AcDbSpline
210
0.0
220
0.0
230
1.0
 70
     8
 71
     3
 72
    10
 73
     6
 74
     0
 42
0.000000001
 43
0.00000001
 40
0.0
 40
0.0
 40
0.0
 40
0.0
 40
0.5
 40
0.5
 40
1.0
 40
1.0
 40
1.0
 40
1.0
 10
11.22700867999704
 20
7.451153186167753
 30
0.0
 10
11.2637811966289
 20
7.418299314468962
 30
0.0
 10
11.30695244718792
 20
7.395348716258255
 30
0.0
 10
11.40072388756672
 20
7.377232010485535
 30
0.0
 10
11.45139756136521
 20
7.38300095054505
 30
0.0
 10
11.49589870464311
 20
7.407707680483991
 30
0.0
  0
SPLINE
  5
102
330
1F
100
AcDbEntity
  8
외형선
  6
Continuous
370
    15
100
AcDbSpline
210
0.0
220
0.0
230
1.0
 70
     8
 71
     3
 72
     8
 73
     4
 74
     0
 42
0.000000001
 43
0.00000001
 40
0.0
 40
0.0
 40
0.0
 40
0.0
 40
1.0
 40
1.0
 40
1.0
 40
1.0
 10
11.49589870464313
 20
7.407707680484014
 30
0.0
 10
11.56809229371666
 20
7.447789066650296
 30
0.0
 10
11.64424021324399
 20
7.474585099063507
 30
0.0
 10
11.72182975819984
 20
7.489342490416039
 30
0.0
  0
SPLINE
  5
103
330
1F
100
AcDbEntity
  8
외형선
  6
Continuous
370
    15
100
AcDbSpline
210
0.0
220
0.0
230
1.0
 70
     8
 71
     3
 72
     8
 73
     4
 74
     0
 42
0.000000001
 43
0.00000001
 40
0.0
 40
0.0
 40
0.0
 40
0.0
 40
1.0
 40
1.0
 40
1.0
 40
1.0
 10
11.72182975819922
 20
7.489342490413073
 30
0.0
 10
11.81454847933519
 20
7.466258666509294
 30
0.0
 10
11.90727169200614
 20
7.442636455254743
 30
0.0
 10
12.00000000000001
 20
7.418475666841966
 30
0.0
  0
SPLINE
  5
104
330
1F
100
AcDbEntity
  8
외형선
  6
Continuous
370
    15
100
AcDbSpline
210
0.0
220
0.0
230
1.0
 70
    24
 71
     3
 72
     9
 73
     5
 74
     0
 42
0.000000001
 43
0.00000001
 40
0.0
 40
0.0
 40
0.0
 40
0.0
 40
0.5
 40
1.0
 40
1.0
 40
1.0
 40
1.0
 10
12.0
 20
7.471529770300846
 30
0.0
 10
12.0
 20
7.462618053470157
 30
0.0
 10
12.0
 20
7.44486390482327
 30
0.0
 10
12.0
 20
7.427248577412078
 30
0.0
 10
12.0
 20
7.418475666842186
 30
0.0
  0
SPLINE
  5
105
330
1F
100
AcDbEntity
  8
0
  6
Continuous
 62
     1
370
    15
100
AcDbSpline
210
0.0
220
0.0
230
1.0
 70
     8
 71
     3
 72
     8
 73
     4
 74
     0
 42
0.000000001
 43
0.00000001
 40
0.0
 40
0.0
 40
0.0
 40
0.0
 40
1.0
 40
1.0
 40
1.0
 40
1.0
 10
11.99999999999999
 20
7.471529770300243
 30
0.0
 10
12.12151780715034
 20
7.420239029502319
 30
0.0
 10
12.23518126169667
 20
7.344033741684223
 30
0.0
 10
12.33429979824592
 20
7.24888384023731
 30
0.0
  0
SPLINE
  5
106
330
1F
100
AcDbEntity
  8
0
  6
Continuous
 62
     1
370
    15
100
AcDbSpline
210
0.0
220
0.0
230
1.0
 70
     8
 71
     3
 72
    10
 73
     6
 74
     0
 42
0.000000001
 43
0.00000001
 40
0.0
 40
0.0
 40
0.0
 40
0.0
 40
0.5
 40
0.5
 40
1.0
 40
1.0
 40
1.0
 40
1.0
 10
12.33429979824595
 20
7.24888384023728
 30
0.0
 10
12.37082405272177
 20
7.213821990710581
 30
0.0
 10
12.41382694033892
 20
7.188413833213252
 30
0.0
 10
12.50746828275321
 20
7.165168191387984
 30
0.0
 10
12.55821288353
 20
7.168249896520276
 30
0.0
 10
12.60301898641636
 20
7.190665079002061
 30
0.0
  0
SPLINE
  5
107
330
1F
100
AcDbEntity
  8
0
  6
Continuous
 62
     1
370
    15
100
AcDbSpline
210
0.0
220
0.0
230
1.0
 70
     8
 71
     3
 72
    10
 73
     6
 74
     0
 42
0.000000001
 43
0.00000001
 40
0.0
 40
0.0
 40
0.0
 40
0.0
 40
0.5
 40
0.5
 40
1.0
 40
1.0
 40
1.0
 40
1.0
 10
12.60301898641636
 20
7.190665079002066
 30
0.0
 10
12.77849799808211
 20
7.278452094940217
 30
0.0
 10
12.9717047806048
 20
7.286178501735135
 30
0.0
 10
13.3402180400778
 20
7.189322618686852
 30
0.0
 10
13.51180998017808
 20
7.086056599409963
 30
0.0
 10
13.65604883721429
 20
6.942983401317488
 30
0.0
  0
SPLINE
  5
108
330
1F
100
AcDbEntity
  8
0
  6
Continuous
 62
     1
370
    15
100
AcDbSpline
210
0.0
220
0.0
230
1.0
 70
     8
 71
     3
 72
    10
 73
     6
 74
     0
 42
0.000000001
 43
0.00000001
 40
0.0
 40
0.0
 40
0.0
 40
0.0
 40
0.5
 40
0.5
 40
1.0
 40
1.0
 40
1.0
 40
1.0
 10
13.65604883721429
 20
6.942983401317489
 30
0.0
 10
13.69279474431403
 20
6.906534454386016
 30
0.0
 10
13.73594237429149
 20
6.879476915511828
 30
0.0
 10
13.82967833710802
 20
6.852765765348702
 30
0.0
 10
13.88033093306391
 20
6.854061427492283
 30
0.0
 10
13.92480913672289
 20
6.874800083308894
 30
0.0
  0
SPLINE
  5
109
330
1F
100
AcDbEntity
  8
0
  6
Continuous
 62
     1
370
    15
100
AcDbSpline
210
0.0
220
0.0
230
1.0
 70
     8
 71
     3
 72
     8
 73
     4
 74
     0
 42
0.000000001
 43
0.00000001
 40
0.0
 40
0.0
 40
0.0
 40
0.0
 40
1.0
 40
1.0
 40
1.0
 40
1.0
 10
13.9248091367229
 20
6.874800083308923
 30
0.0
 10
14.0577171491583
 20
6.936770515979727
 30
0.0
 10
14.20348345251833
 20
6.951113723756722
 30
0.0
 10
14.34714001116159
 20
6.929353732552535
 30
0.0
  0
SPLINE
  5
10A
330
1F
100
AcDbEntity
  8
0
  6
Continuous
 62
     1
370
    15
100
AcDbSpline
210
0.0
220
0.0
230
1.0
 70
     8
 71
     3
 72
     8
 73
     4
 74
     0
 42
0.000000001
 43
0.00000001
 40
0.0
 40
0.0
 40
0.0
 40
0.0
 40
1.0
 40
1.0
 40
1.0
 40
1.0
 10
14.34714001115232
 20
6.929353732556406
 30
0.0
 10
14.499908213001
 20
6.866341301003267
 30
0.0
 10
14.64207752912815
 20
6.76639619303225
 30
0.0
 10
14.76298545997876
 20
6.640096285454105
 30
0.0
  0
SPLINE
  5
10B
330
1F
100
AcDbEntity
  8
0
  6
Continuous
 62
     1
370
    15
100
AcDbSpline
210
0.0
220
0.0
230
1.0
 70
     8
 71
     3
 72
    10
 73
     6
 74
     0
 42
0.000000001
 43
0.00000001
 40
0.0
 40
0.0
 40
0.0
 40
0.0
 40
0.5
 40
0.5
 40
1.0
 40
1.0
 40
1.0
 40
1.0
 10
14.76298545997878
 20
6.64009628545409
 30
0.0
 10
14.79950900894156
 20
6.601943942378066
 30
0.0
 10
14.8425044675994
 20
6.572783836786209
 30
0.0
 10
14.93612359620821
 20
6.541228597088688
 30
0.0
 10
14.98686073178693
 20
6.539747147828225
 30
0.0
 10
15.03166734039462
 20
6.55783993337824
 30
0.0
  0
SPLINE
  5
10C
330
1F
100
AcDbEntity
  8
0
  6
Continuous
 62
     1
370
    15
100
AcDbSpline
210
0.0
220
0.0
230
1.0
 70
     8
 71
     3
 72
    10
 73
     6
 74
     0
 42
0.000000001
 43
0.00000001
 40
0.0
 40
0.0
 40
0.0
 40
0.0
 40
0.5
 40
0.5
 40
1.0
 40
1.0
 40
1.0
 40
1.0
 10
15.03166734039461
 20
6.557839933378261
 30
0.0
 10
15.20716178826643
 20
6.628704109651085
 30
0.0
 10
15.40036771840312
 20
6.617173817306087
 30
0.0
 10
15.76890738007391
 20
6.487779279741424
 30
0.0
 10
15.94052884236815
 20
6.371398708025987
 30
0.0
 10
16.08482908832087
 20
6.218645341017465
 30
0.0
  0
SPLINE
  5
10D
330
1F
100
AcDbEntity
  8
0
  6
Continuous
 62
     1
370
    15
100
AcDbSpline
210
0.0
220
0.0
230
1.0
 70
     8
 71
     3
 72
    10
 73
     6
 74
     0
 42
0.000000001
 43
0.00000001
 40
0.0
 40
0.0
 40
0.0
 40
0.0
 40
0.5
 40
0.5
 40
1.0
 40
1.0
 40
1.0
 40
1.0
 10
16.08482908832086
 20
6.218645341017488
 30
0.0
 10
16.12159266903856
 20
6.179728146519025
 30
0.0
 10
16.16475828774379
 20
6.149395214989854
 30
0.0
 10
16.25852646341395
 20
6.114893442478811
 30
0.0
 10
16.30919865864245
 20
6.111651820816988
 30
0.0
 10
16.35369472007615
 20
6.127782732422238
 30
0.0
  0
SPLINE
  5
10E
330
1F
100
AcDbEntity
  8
0
  6
Continuous
 62
     1
370
    15
100
AcDbSpline
210
0.0
220
0.0
230
1.0
 70
     8
 71
     3
 72
     8
 73
     4
 74
     0
 42
0.000000001
 43
0.00000001
 40
0.0
 40
0.0
 40
0.0
 40
0.0
 40
1.0
 40
1.0
 40
1.0
 40
1.0
 10
16.35369472007616
 20
6.127782732422276
 30
0.0
 10
16.48664448166435
 20
6.175980275823138
 30
0.0
 10
16.63246435105935
 20
6.17562332730412
 30
0.0
 10
16.776186376552
 20
6.140996443983353
 30
0.0
  0
SPLINE
  5
10F
330
1F
100
AcDbEntity
  8
0
  6
Continuous
 62
     1
370
    15
100
AcDbSpline
210
0.0
220
0.0
230
1.0
 70
     8
 71
     3
 72
     8
 73
     4
 74
     0
 42
0.000000001
 43
0.00000001
 40
0.0
 40
0.0
 40
0.0
 40
0.0
 40
1.0
 40
1.0
 40
1.0
 40
1.0
 10
16.7761863765427
 20
6.140996443987962
 30
0.0
 10
16.92905673385355
 20
6.065983509333417
 30
0.0
 10
17.07134332939952
 20
5.956930093882319
 30
0.0
 10
17.19238937704236
 20
5.824386674722989
 30
0.0
  0
SPLINE
  5
110
330
1F
100
AcDbEntity
  8
0
  6
Continuous
 62
     1
370
    15
100
AcDbSpline
210
0.0
220
0.0
230
1.0
 70
     8
 71
     3
 72
    10
 73
     6
 74
     0
 42
0.000000001
 43
0.00000001
 40
0.0
 40
0.0
 40
0.0
 40
0.0
 40
0.5
 40
0.5
 40
1.0
 40
1.0
 40
1.0
 40
1.0
 10
17.19238937704239
 20
5.824386674722946
 30
0.0
 10
17.2289587097734
 20
5.784343860513554
 30
0.0
 10
17.27200600435786
 20
5.752358770320884
 30
0.0
 10
17.36570091527621
 20
5.713519443993871
 30
0.0
 10
17.41646219986441
 20
5.707530617716642
 30
0.0
 10
17.46129259209073
 20
5.720734262312067
 30
0.0
  0
SPLINE
  5
111
330
1F
100
AcDbEntity
  8
0
  6
Continuous
 62
     1
370
    15
100
AcDbSpline
210
0.0
220
0.0
230
1.0
 70
     8
 71
     3
 72
    10
 73
     6
 74
     0
 42
0.000000001
 43
0.00000001
 40
0.0
 40
0.0
 40
0.0
 40
0.0
 40
0.5
 40
0.5
 40
1.0
 40
1.0
 40
1.0
 40
1.0
 10
17.46129259209071
 20
5.720734262312089
 30
0.0
 10
17.63699489298416
 20
5.772482877936142
 30
0.0
 10
17.83032433521959
 20
5.741800860567555
 30
0.0
 10
18.1991573904592
 20
5.583649015662893
 30
0.0
 10
18.37095954735915
 20
5.457702210812883
 30
0.0
 10
18.51546928975943
 20
5.29991165180332
 30
0.0
  0
SPLINE
  5
112
330
1F
100
AcDbEntity
  8
0
  6
Continuous
 62
     1
370
    15
100
AcDbSpline
210
0.0
220
0.0
230
1.0
 70
     8
 71
     3
 72
    10
 73
     6
 74
     0
 42
0.000000001
 43
0.00000001
 40
0.0
 40
0.0
 40
0.0
 40
0.0
 40
0.5
 40
0.5
 40
1.0
 40
1.0
 40
1.0
 40
1.0
 10
18.51546928975943
 20
5.299911651803324
 30
0.0
 10
18.55227212631411
 20
5.259726540013316
 30
0.0
 10
18.59547204591975
 20
5.227043545449606
 30
0.0
 10
18.68929921101531
 20
5.185785028450686
 30
0.0
 10
18.74000916640882
 20
5.178082181539093
 30
0.0
 10
18.78454045601016
 20
5.189092584342326
 30
0.0
  0
SPLINE
  5
113
330
1F
100
AcDbEntity
  8
0
  6
Continuous
 62
     1
370
    15
100
AcDbSpline
210
0.0
220
0.0
230
1.0
 70
     8
 71
     3
 72
     8
 73
     4
 74
     0
 42
0.000000001
 43
0.00000001
 40
0.0
 40
0.0
 40
0.0
 40
0.0
 40
1.0
 40
1.0
 40
1.0
 40
1.0
 10
18.78454045601017
 20
5.189092584342356
 30
0.0
 10
18.91753805079184
 20
5.221976363445034
 30
0.0
 10
19.06340832502452
 20
5.206904070805347
 30
0.0
 10
19.20719187701432
 20
5.160470934975454
 30
0.0
  0
SPLINE
  5
114
330
1F
100
AcDbEntity
  8
0
  6
Continuous
 62
     1
370
    15
100
AcDbSpline
210
0.0
220
0.0
230
1.0
 70
     8
 71
     3
 72
     8
 73
     4
 74
     0
 42
0.000000001
 43
0.00000001
 40
0.0
 40
0.0
 40
0.0
 40
0.0
 40
1.0
 40
1.0
 40
1.0
 40
1.0
 10
19.20719187700504
 20
5.160470934980644
 30
0.0
 10
19.36007666728463
 20
5.075812644747876
 30
0.0
 10
19.50240370373695
 20
4.961087226307727
 30
0.0
 10
19.62346645870238
 20
4.826438274057232
 30
0.0
  0
SPLINE
  5
115
330
1F
100
AcDbEntity
  8
0
  6
Continuous
 62
     1
370
    15
100
AcDbSpline
210
0.0
220
0.0
230
1.0
 70
     8
 71
     3
 72
    10
 73
     6
 74
     0
 42
0.000000001
 43
0.00000001
 40
0.0
 40
0.0
 40
0.0
 40
0.0
 40
0.5
 40
0.5
 40
1.0
 40
1.0
 40
1.0
 40
1.0
 10
19.6234664587024
 20
4.826438274057214
 30
0.0
 10
19.66002546889665
 20
4.78577645020084
 30
0.0
 10
19.70306121978747
 20
4.751977458088693
 30
0.0
 10
19.79674336607824
 20
4.70710664809868
 30
0.0
 10
19.84749632362258
 20
4.696845513511619
 30
0.0
 10
19.89231070704745
 20
4.704789342532769
 30
0.0
  0
SPLINE
  5
116
330
1F
100
AcDbEntity
  8
0
  6
Continuous
 62
     1
370
    15
100
AcDbSpline
210
0.0
220
0.0
230
1.0
 70
     8
 71
     3
 72
    10
 73
     6
 74
     0
 42
0.000000001
 43
0.00000001
 40
0.0
 40
0.0
 40
0.0
 40
0.0
 40
0.5
 40
0.5
 40
1.0
 40
1.0
 40
1.0
 40
1.0
 10
19.89231070704745
 20
4.704789342532774
 30
0.0
 10
20.06792883439205
 20
4.735919534895658
 30
0.0
 10
20.2611126223154
 20
4.687312681977881
 30
0.0
 10
20.62960879005058
 20
4.505544315415375
 30
0.0
 10
20.80125900554906
 20
4.374020179297232
 30
0.0
 10
20.94558671679797
 20
4.216214353807992
 30
0.0
  0
SPLINE
  5
117
330
1F
100
AcDbEntity
  8
0
  6
Continuous
 62
     1
370
    15
100
AcDbSpline
210
0.0
220
0.0
230
1.0
 70
     8
 71
     3
 72
    10
 73
     6
 74
     0
 42
0.000000001
 43
0.00000001
 40
0.0
 40
0.0
 40
0.0
 40
0.0
 40
0.5
 40
0.5
 40
1.0
 40
1.0
 40
1.0
 40
1.0
 10
20.94558671679798
 20
4.216214353808001
 30
0.0
 10
20.98233621878866
 20
4.176032981514515
 30
0.0
 10
21.02548640178867
 20
4.142046570209271
 30
0.0
 10
21.11923221671553
 20
4.095377529213336
 30
0.0
 10
21.16989772808144
 20
4.083499489369579
 30
0.0
 10
21.21438835917048
 20
4.089044400844756
 30
0.0
  0
SPLINE
  5
118
330
1F
100
AcDbEntity
  8
0
  6
Continuous
 62
     1
370
    15
100
AcDbSpline
210
0.0
220
0.0
230
1.0
 70
     8
 71
     3
 72
     8
 73
     4
 74
     0
 42
0.000000001
 43
0.00000001
 40
0.0
 40
0.0
 40
0.0
 40
0.0
 40
1.0
 40
1.0
 40
1.0
 40
1.0
 10
21.21438835917051
 20
4.089044400844772
 30
0.0
 10
21.3472864400172
 20
4.105607620459283
 30
0.0
 10
21.49305856068122
 20
4.076368689978118
 30
0.0
 10
21.6367650357578
 20
4.019630077953436
 30
0.0
  0
SPLINE
  5
119
330
1F
100
AcDbEntity
  8
0
  6
Continuous
 62
     1
370
    15
100
AcDbSpline
210
0.0
220
0.0
230
1.0
 70
     8
 71
     3
 72
     8
 73
     4
 74
     0
 42
0.000000001
 43
0.00000001
 40
0.0
 40
0.0
 40
0.0
 40
0.0
 40
1.0
 40
1.0
 40
1.0
 40
1.0
 10
21.63676503574905
 20
4.019630077958995
 30
0.0
 10
21.78951734190058
 20
3.928018589298907
 30
0.0
 10
21.93171936167369
 20
3.81124298545992
 30
0.0
 10
22.05265664662365
 20
3.678780826822034
 30
0.0
  0
SPLINE
  5
11A
330
1F
100
AcDbEntity
  8
0
  6
Continuous
 62
     1
370
    15
100
AcDbSpline
210
0.0
220
0.0
230
1.0
 70
     8
 71
     3
 72
    10
 73
     6
 74
     0
 42
0.000000001
 43
0.00000001
 40
0.0
 40
0.0
 40
0.0
 40
0.0
 40
0.5
 40
0.5
 40
1.0
 40
1.0
 40
1.0
 40
1.0
 10
22.05265664662366
 20
3.678780826822018
 30
0.0
 10
22.08918486415793
 20
3.638771605945392
 30
0.0
 10
22.13219335263444
 20
3.604223007072504
 30
0.0
 10
22.22583521638704
 20
3.55474124809953
 30
0.0
 10
22.27656351909372
 20
3.540540248409517
 30
0.0
 10
22.32134936207709
 20
3.542984914049097
 30
0.0
  0
SPLINE
  5
11B
330
1F
100
AcDbEntity
  8
0
  6
Continuous
 62
     1
370
    15
100
AcDbSpline
210
0.0
220
0.0
230
1.0
 70
     8
 71
     3
 72
    10
 73
     6
 74
     0
 42
0.000000001
 43
0.00000001
 40
0.0
 40
0.0
 40
0.0
 40
0.0
 40
0.5
 40
0.5
 40
1.0
 40
1.0
 40
1.0
 40
1.0
 10
22.32134936207708
 20
3.54298491404907
 30
0.0
 10
22.4969352484307
 20
3.552569388842222
 30
0.0
 10
22.69021173838241
 20
3.487807890220093
 30
0.0
 10
23.05852863958299
 20
3.288033402691884
 30
0.0
 10
23.23001456676288
 20
3.154909685585454
 30
0.0
 10
23.3742558142818
 20
3.001990924840379
 30
0.0
  0
SPLINE
  5
11C
330
1F
100
AcDbEntity
  8
0
  6
Continuous
 62
     1
370
    15
100
AcDbSpline
210
0.0
220
0.0
230
1.0
 70
     8
 71
     3
 72
    10
 73
     6
 74
     0
 42
0.000000001
 43
0.00000001
 40
0.0
 40
0.0
 40
0.0
 40
0.0
 40
0.5
 40
0.5
 40
1.0
 40
1.0
 40
1.0
 40
1.0
 10
23.3742558142818
 20
3.001990924840383
 30
0.0
 10
23.41099600537341
 20
2.963040454098448
 30
0.0
 10
23.45413781456187
 20
2.928782296458677
 30
0.0
 10
23.54786963401077
 20
2.878100327577531
 30
0.0
 10
23.59853121310153
 20
2.862378931188775
 30
0.0
 10
23.64302184297907
 20
2.862275602163807
 30
0.0
  0
SPLINE
  5
11D
330
1F
100
AcDbEntity
  8
0
  6
Continuous
 62
     1
370
    15
100
AcDbSpline
210
0.0
220
0.0
230
1.0
 70
     8
 71
     3
 72
     8
 73
     4
 74
     0
 42
0.000000001
 43
0.00000001
 40
0.0
 40
0.0
 40
0.0
 40
0.0
 40
1.0
 40
1.0
 40
1.0
 40
1.0
 10
23.64302184297908
 20
2.862275602163824
 30
0.0
 10
23.77591664880097
 20
2.861966955360069
 30
0.0
 10
23.92168258440872
 20
2.819384017059402
 30
0.0
 10
24.06539299539165
 20
2.754044588786127
 30
0.0
  0
SPLINE
  5
11E
330
1F
100
AcDbEntity
  8
0
  6
Continuous
 62
     1
370
    15
100
AcDbSpline
210
0.0
220
0.0
230
1.0
 70
     8
 71
     3
 72
     8
 73
     4
 74
     0
 42
0.000000001
 43
0.00000001
 40
0.0
 40
0.0
 40
0.0
 40
0.0
 40
1.0
 40
1.0
 40
1.0
 40
1.0
 10
24.06539299534998
 20
2.754044588810299
 30
0.0
 10
24.21815888013075
 20
2.658242051652084
 30
0.0
 10
24.36038704370193
 20
2.54296537770412
 30
0.0
 10
24.48136728851378
 20
2.416716692801039
 30
0.0
  0
SPLINE
  5
11F
330
1F
100
AcDbEntity
  8
0
  6
Continuous
 62
     1
370
    15
100
AcDbSpline
210
0.0
220
0.0
230
1.0
 70
     8
 71
     3
 72
    10
 73
     6
 74
     0
 42
0.000000001
 43
0.00000001
 40
0.0
 40
0.0
 40
0.0
 40
0.0
 40
0.5
 40
0.5
 40
1.0
 40
1.0
 40
1.0
 40
1.0
 10
24.4813672885138
 20
2.41671669280101
 30
0.0
 10
24.51790952450037
 20
2.378583117820261
 30
0.0
 10
24.56093288725733
 20
2.34433621453767
 30
0.0
 10
24.65460288281552
 20
2.291733836408422
 30
0.0
 10
24.70534707808457
 20
2.273999587012993
 30
0.0
 10
24.75014559387636
 20
2.270858160191844
 30
0.0
  0
SPLINE
  5
120
330
1F
100
AcDbEntity
  8
0
  6
Continuous
 62
     1
370
    15
100
AcDbSpline
210
0.0
220
0.0
230
1.0
 70
     8
 71
     3
 72
    10
 73
     6
 74
     0
 42
0.000000001
 43
0.00000001
 40
0.0
 40
0.0
 40
0.0
 40
0.0
 40
0.5
 40
0.5
 40
1.0
 40
1.0
 40
1.0
 40
1.0
 10
24.75014559387636
 20
2.270858160191854
 30
0.0
 10
24.92582768580068
 20
2.258538724473681
 30
0.0
 10
25.11924530676799
 20
2.179442556531706
 30
0.0
 10
25.48784632215892
 20
1.968109537384535
 30
0.0
 10
25.65933761054862
 20
1.837509127488706
 30
0.0
 10
25.80363874096821
 20
1.694133990677154
 30
0.0
  0
SPLINE
  5
121
330
1F
100
AcDbEntity
  8
0
  6
Continuous
 62
     1
370
    15
100
AcDbSpline
210
0.0
220
0.0
230
1.0
 70
     8
 71
     3
 72
    10
 73
     6
 74
     0
 42
0.000000001
 43
0.00000001
 40
0.0
 40
0.0
 40
0.0
 40
0.0
 40
0.5
 40
0.5
 40
1.0
 40
1.0
 40
1.0
 40
1.0
 10
25.80363874096821
 20
1.694133990677139
 30
0.0
 10
25.84041388027669
 20
1.657594840815418
 30
0.0
 10
25.88358888218094
 20
1.624096996295409
 30
0.0
 10
25.97737443041578
 20
1.57091139959301
 30
0.0
 10
26.02807277894568
 20
1.551792278452249
 30
0.0
 10
26.07260425897311
 20
1.546016958615694
 30
0.0
  0
SPLINE
  5
122
330
1F
100
AcDbEntity
  8
0
  6
Continuous
 62
     1
370
    15
100
AcDbSpline
210
0.0
220
0.0
230
1.0
 70
     8
 71
     3
 72
     8
 73
     4
 74
     0
 42
0.000000001
 43
0.00000001
 40
0.0
 40
0.0
 40
0.0
 40
0.0
 40
1.0
 40
1.0
 40
1.0
 40
1.0
 10
26.07260425897313
 20
1.546016958615704
 30
0.0
 10
26.20559220777391
 20
1.528769655398777
 30
0.0
 10
26.35144404951096
 20
1.474060525935487
 30
0.0
 10
26.49523957205069
 20
1.402070768528022
 30
0.0
  0
SPLINE
  5
123
330
1F
100
AcDbEntity
  8
0
  6
Continuous
 62
     1
370
    15
100
AcDbSpline
210
0.0
220
0.0
230
1.0
 70
     8
 71
     3
 72
     8
 73
     4
 74
     0
 42
0.000000001
 43
0.00000001
 40
0.0
 40
0.0
 40
0.0
 40
0.0
 40
1.0
 40
1.0
 40
1.0
 40
1.0
 10
26.49523957204139
 20
1.402070768533955
 30
0.0
 10
26.6481645117231
 20
1.304941908981756
 30
0.0
 10
26.79057004812055
 20
1.1946434259686
 30
0.0
 10
26.91176029318736
 20
1.078425725642671
 30
0.0
  0
SPLINE
  5
124
330
1F
100
AcDbEntity
  8
0
  6
Continuous
 62
     1
370
    15
100
AcDbSpline
210
0.0
220
0.0
230
1.0
 70
     8
 71
     3
 72
    10
 73
     6
 74
     0
 42
0.000000001
 43
0.00000001
 40
0.0
 40
0.0
 40
0.0
 40
0.0
 40
0.4999999999999998
 40
0.4999999999999998
 40
1.0
 40
1.0
 40
1.0
 40
1.0
 10
26.91176029318737
 20
1.078425725642655
 30
0.0
 10
26.94835447325844
 20
1.043333037688866
 30
0.0
 10
26.99142437787158
 20
1.010428138808649
 30
0.0
 10
27.08517441731041
 20
0.9562895919582706
 30
0.0
 10
27.13596698215494
 20
0.9355396971484429
 30
0.0
 10
27.18080974055339
 20
0.9268862508835412
 30
0.0
  0
SPLINE
  5
125
330
1F
100
AcDbEntity
  8
0
  6
Continuous
 62
     1
370
    15
100
AcDbSpline
210
0.0
220
0.0
230
1.0
 70
     8
 71
     3
 72
    10
 73
     6
 74
     0
 42
0.000000001
 43
0.00000001
 40
0.0
 40
0.0
 40
0.0
 40
0.0
 40
0.5
 40
0.5
 40
1.0
 40
1.0
 40
1.0
 40
1.0
 10
28.23473683278631
 20
0.3327662492079955
 30
0.0
 10
28.27150910286796
 20
0.2998188012071736
 30
0.0
 10
28.31467352290513
 20
0.2681565171925047
 30
0.0
 10
28.40842234669472
 20
0.2141538132105799
 30
0.0
 10
28.45910591529536
 20
0.1922549003970848
 30
0.0
 10
28.5036296800873
 20
0.1809869050893956
 30
0.0
  0
SPLINE
  5
126
330
1F
100
AcDbEntity
  8
0
  6
Continuous
 62
     1
370
    15
100
AcDbSpline
210
0.0
220
0.0
230
1.0
 70
     8
 71
     3
 72
     8
 73
     4
 74
     0
 42
0.000000001
 43
0.00000001
 40
0.0
 40
0.0
 40
0.0
 40
0.0
 40
1.0
 40
1.0
 40
1.0
 40
1.0
 10
28.50362968008732
 20
0.1809869050894064
 30
0.0
 10
28.63656834100135
 20
0.1473430249191255
 30
0.0
 10
28.78235378266896
 20
0.0822818195491636
 30
0.0
 10
28.92609540097704
 20
0.0059318063447992
 30
0.0
  0
SPLINE
  5
127
330
1F
100
AcDbEntity
  8
0
  6
Continuous
 62
     1
370
    15
100
AcDbSpline
210
0.0
220
0.0
230
1.0
 70
     8
 71
     3
 72
     8
 73
     4
 74
     0
 42
0.000000001
 43
0.00000001
 40
0.0
 40
0.0
 40
0.0
 40
0.0
 40
1.0
 40
1.0
 40
1.0
 40
1.0
 10
28.92609540096777
 20
0.0059318063505855
 30
0.0
 10
29.07885853448893
 20
-0.0893495412750926
 30
0.0
 10
29.2211225314459
 20
-0.1910755706782287
 30
0.0
 10
29.34213709999749
 20
-0.2934628854315888
 30
0.0
  0
SPLINE
  5
128
330
1F
100
AcDbEntity
  8
0
  6
Continuous
 62
     1
370
    15
100
AcDbSpline
210
0.0
220
0.0
230
1.0
 70
     8
 71
     3
 72
     8
 73
     4
 74
     0
 42
0.000000001
 43
0.00000001
 40
0.0
 40
0.0
 40
0.0
 40
0.0
 40
1.0
 40
1.0
 40
1.0
 40
1.0
 10
29.34213709999752
 20
-0.2934628854316048
 30
0.0
 10
29.36567992932112
 20
-0.3133818679557028
 30
0.0
 10
29.39148336488859
 20
-0.3328101623581909
 30
0.0
 10
29.41976631933241
 20
-0.3516157457314668
 30
0.0
  0
SPLINE
  5
129
330
1F
100
AcDbEntity
  8
0
  6
Continuous
 62
     1
370
    15
100
AcDbSpline
210
0.0
220
0.0
230
1.0
 70
     8
 71
     3
 72
     8
 73
     4
 74
     0
 42
0.000000001
 43
0.00000001
 40
0.0
 40
0.0
 40
0.0
 40
0.0
 40
1.0
 40
1.0
 40
1.0
 40
1.0
 10
31.05
 20
-3.138527097185941
 30
0.0
 10
30.45194435186521
 20
-2.359845512623997
 30
0.0
 10
29.85588566856465
 20
-1.611112929441133
 30
0.0
 10
29.26239334778852
 20
-0.9008687529962249
 30
0.0
  0
LINE
  5
12A
330
1F
100
AcDbEntity
  8
0
  6
Continuous
 62
     1
370
    15
100
AcDbLine
 10
31.05000039935112
 20
-5.431152880191808
 30
0.0
 11
31.05000039935112
 21
-3.138527041301137
 31
0.0
  0
SPLINE
  5
12B
330
1F
100
AcDbEntity
  8
0
  6
Continuous
 62
     1
370
    15
100
AcDbSpline
210
0.0
220
0.0
230
1.0
 70
     8
 71
     3
 72
     8
 73
     4
 74
     0
 42
0.000000001
 43
0.00000001
 40
0.0
 40
0.0
 40
0.0
 40
0.0
 40
1.0
 40
1.0
 40
1.0
 40
1.0
 10
30.90071483038215
 20
-5.521015454179874
 30
0.0
 10
30.95032753787872
 20
-5.492620064850472
 30
0.0
 10
31.00008229246592
 20
-5.462707537867896
 30
0.0
 10
31.05000000000007
 20
-5.431153093612146
 30
0.0
  0
SPLINE
  5
12C
330
1F
100
AcDbEntity
  8
0
  6
Continuous
 62
     1
370
    15
100
AcDbSpline
210
0.0
220
0.0
230
1.0
 70
     8
 71
     3
 72
     8
 73
     4
 74
     0
 42
0.000000001
 43
0.00000001
 40
0.0
 40
0.0
 40
0.0
 40
0.0
 40
1.0
 40
1.0
 40
1.0
 40
1.0
 10
30.90071483038197
 20
-5.521015454179613
 30
0.0
 10
30.8268031594277
 20
-5.463867404396769
 30
0.0
 10
30.75736781134858
 20
-5.39943157312336
 30
0.0
 10
30.69365450480197
 20
-5.328755950682771
 30
0.0
  0
SPLINE
  5
12D
330
1F
100
AcDbEntity
  8
0
  6
Continuous
 62
     1
370
    15
100
AcDbSpline
210
0.0
220
0.0
230
1.0
 70
     8
 71
     3
 72
    10
 73
     6
 74
     0
 42
0.000000001
 43
0.00000001
 40
0.0
 40
0.0
 40
0.0
 40
0.0
 40
0.5
 40
0.5
 40
1.0
 40
1.0
 40
1.0
 40
1.0
 10
30.69365450480196
 20
-5.328755950682755
 30
0.0
 10
30.65713453590491
 20
-5.288245236779975
 30
0.0
 10
30.61413400861111
 20
-5.255202281314785
 30
0.0
 10
30.52049602069386
 20
-5.213118322382011
 30
0.0
 10
30.4697574145121
 20
-5.204929452069903
 30
0.0
 10
30.42496004961011
 20
-5.215490672294715
 30
0.0
  0
SPLINE
  5
12E
330
1F
100
AcDbEntity
  8
0
  6
Continuous
 62
     1
370
    15
100
AcDbSpline
210
0.0
220
0.0
230
1.0
 70
     8
 71
     3
 72
    10
 73
     6
 74
     0
 42
0.000000001
 43
0.00000001
 40
0.0
 40
0.0
 40
0.0
 40
0.0
 40
0.5
 40
0.5
 40
1.0
 40
1.0
 40
1.0
 40
1.0
 10
30.42496004961011
 20
-5.215490672294717
 30
0.0
 10
30.24945675038048
 20
-5.25686652101707
 30
0.0
 10
30.05620752667994
 20
-5.217212317636031
 30
0.0
 10
29.68765852532223
 20
-5.046686053482464
 30
0.0
 10
29.51606612841423
 20
-4.91748253492251
 30
0.0
 10
29.37180595851727
 20
-4.759209600517734
 30
0.0
  0
SPLINE
  5
12F
330
1F
100
AcDbEntity
  8
0
  6
Continuous
 62
     1
370
    15
100
AcDbSpline
210
0.0
220
0.0
230
1.0
 70
     8
 71
     3
 72
    10
 73
     6
 74
     0
 42
0.000000001
 43
0.00000001
 40
0.0
 40
0.0
 40
0.0
 40
0.0
 40
0.5
 40
0.5
 40
1.0
 40
1.0
 40
1.0
 40
1.0
 10
29.37180595851726
 20
-4.759209600517725
 30
0.0
 10
29.33504339248153
 20
-4.718876089148086
 30
0.0
 10
29.29187927228373
 20
-4.685401456423929
 30
0.0
 10
29.19811861152327
 20
-4.641193463082489
 30
0.0
 10
29.1474521132679
 20
-4.631300896553974
 30
0.0
 10
29.10295821216864
 20
-4.639508131632752
 30
0.0
  0
SPLINE
  5
130
330
1F
100
AcDbEntity
  8
0
  6
Continuous
 62
     1
370
    15
100
AcDbSpline
210
0.0
220
0.0
230
1.0
 70
     8
 71
     3
 72
     8
 73
     4
 74
     0
 42
0.000000001
 43
0.00000001
 40
0.0
 40
0.0
 40
0.0
 40
0.0
 40
1.0
 40
1.0
 40
1.0
 40
1.0
 10
29.10295821216862
 20
-4.639508131632759
 30
0.0
 10
28.96999692191367
 20
-4.664033842764844
 30
0.0
 10
28.82418526987934
 20
-4.641442691772202
 30
0.0
 10
28.68050069376586
 20
-4.589329082582408
 30
0.0
  0
SPLINE
  5
131
330
1F
100
AcDbEntity
  8
0
  6
Continuous
 62
     1
370
    15
100
AcDbSpline
210
0.0
220
0.0
230
1.0
 70
     8
 71
     3
 72
     8
 73
     4
 74
     0
 42
0.000000001
 43
0.00000001
 40
0.0
 40
0.0
 40
0.0
 40
0.0
 40
1.0
 40
1.0
 40
1.0
 40
1.0
 10
28.6805006974505
 20
-4.589329084723204
 30
0.0
 10
28.52763892901035
 20
-4.500516131805792
 30
0.0
 10
28.38540702095514
 20
-4.383985247275367
 30
0.0
 10
28.26435922759264
 20
-4.249736557998444
 30
0.0
  0
SPLINE
  5
132
330
1F
100
AcDbEntity
  8
0
  6
Continuous
 62
     1
370
    15
100
AcDbSpline
210
0.0
220
0.0
230
1.0
 70
     8
 71
     3
 72
    10
 73
     6
 74
     0
 42
0.000000001
 43
0.00000001
 40
0.0
 40
0.0
 40
0.0
 40
0.0
 40
0.5
 40
0.5
 40
1.0
 40
1.0
 40
1.0
 40
1.0
 10
28.26435922759263
 20
-4.249736557998418
 30
0.0
 10
28.2278062827576
 20
-4.209197323064828
 30
0.0
 10
28.18477448560334
 20
-4.174814401248842
 30
0.0
 10
28.09108640555327
 20
-4.127258844330983
 30
0.0
 10
28.04031346903072
 20
-4.114852664619754
 30
0.0
 10
27.99547665676947
 20
-4.119953893244034
 30
0.0
  0
SPLINE
  5
133
330
1F
100
AcDbEntity
  8
0
  6
Continuous
 62
     1
370
    15
100
AcDbSpline
210
0.0
220
0.0
230
1.0
 70
     8
 71
     3
 72
    10
 73
     6
 74
     0
 42
0.000000001
 43
0.00000001
 40
0.0
 40
0.0
 40
0.0
 40
0.0
 40
0.5
 40
0.5
 40
1.0
 40
1.0
 40
1.0
 40
1.0
 10
27.99547665676947
 20
-4.119953893244046
 30
0.0
 10
27.81981231357564
 20
-4.13993979167377
 30
0.0
 10
27.62641456073575
 20
-4.08291044033693
 30
0.0
 10
27.25756521168951
 20
-3.891458981288233
 30
0.0
 10
27.08579624859835
 20
-3.758731553626981
 30
0.0
 10
26.94131548734327
 20
-3.602915469477258
 30
0.0
  0
SPLINE
  5
134
330
1F
100
AcDbEntity
  8
0
  6
Continuous
 62
     1
370
    15
100
AcDbSpline
210
0.0
220
0.0
230
1.0
 70
     8
 71
     3
 72
    10
 73
     6
 74
     0
 42
0.000000001
 43
0.00000001
 40
0.0
 40
0.0
 40
0.0
 40
0.0
 40
0.5
 40
0.5
 40
1.0
 40
1.0
 40
1.0
 40
1.0
 10
26.94131548734327
 20
-3.60291546947725
 30
0.0
 10
26.90450534291849
 20
-3.563217363574231
 30
0.0
 10
26.86129859066127
 20
-3.528959765751282
 30
0.0
 10
26.76746368740119
 20
-3.480027535090012
 30
0.0
 10
26.71675240614989
 20
-3.466097817602805
 30
0.0
 10
26.67221913894093
 20
-3.468735997641056
 30
0.0
  0
SPLINE
  5
135
330
1F
100
AcDbEntity
  8
0
  6
Continuous
 62
     1
370
    15
100
AcDbSpline
210
0.0
220
0.0
230
1.0
 70
     8
 71
     3
 72
     8
 73
     4
 74
     0
 42
0.000000001
 43
0.00000001
 40
0.0
 40
0.0
 40
0.0
 40
0.0
 40
1.0
 40
1.0
 40
1.0
 40
1.0
 10
26.67221913894091
 20
-3.46873599764106
 30
0.0
 10
26.53919887120732
 20
-3.476616205786822
 30
0.0
 10
26.39331761108909
 20
-3.4402287913399
 30
0.0
 10
26.24954994862498
 20
-3.378663983340428
 30
0.0
  0
SPLINE
  5
136
330
1F
100
AcDbEntity
  8
0
  6
Continuous
 62
     1
370
    15
100
AcDbSpline
210
0.0
220
0.0
230
1.0
 70
     8
 71
     3
 72
     8
 73
     4
 74
     0
 42
0.000000001
 43
0.00000001
 40
0.0
 40
0.0
 40
0.0
 40
0.0
 40
1.0
 40
1.0
 40
1.0
 40
1.0
 10
26.2495499523118
 20
-3.378663985614968
 30
0.0
 10
26.09664200205108
 20
-3.284328857021087
 30
0.0
 10
25.95431668858551
 20
-3.167627441204525
 30
0.0
 10
25.83325527840224
 20
-3.037610685057128
 30
0.0
  0
SPLINE
  5
137
330
1F
100
AcDbEntity
  8
0
  6
Continuous
 62
     1
370
    15
100
AcDbSpline
210
0.0
220
0.0
230
1.0
 70
     8
 71
     3
 72
    10
 73
     6
 74
     0
 42
0.000000001
 43
0.00000001
 40
0.0
 40
0.0
 40
0.0
 40
0.0
 40
0.5
 40
0.5
 40
1.0
 40
1.0
 40
1.0
 40
1.0
 10
25.83325527840223
 20
-3.037610685057111
 30
0.0
 10
25.79669535504633
 20
-2.998346293270049
 30
0.0
 10
25.7536612849053
 20
-2.963732780700731
 30
0.0
 10
25.65999208056095
 20
-2.912232438933615
 30
0.0
 10
25.60923996704653
 20
-2.896004917983056
 30
0.0
 10
25.56441077160198
 20
-2.895474372159052
 30
0.0
  0
SPLINE
  5
138
330
1F
100
AcDbEntity
  8
0
  6
Continuous
 62
     1
370
    15
100
AcDbSpline
210
0.0
220
0.0
230
1.0
 70
     8
 71
     3
 72
    10
 73
     6
 74
     0
 42
0.000000001
 43
0.00000001
 40
0.0
 40
0.0
 40
0.0
 40
0.0
 40
0.5
 40
0.5
 40
1.0
 40
1.0
 40
1.0
 40
1.0
 10
25.56441077160198
 20
-2.895474372159049
 30
0.0
 10
25.38887349180766
 20
-2.893396918619491
 30
0.0
 10
25.19564727714402
 20
-2.820942647138289
 30
0.0
 10
24.82703747850334
 20
-2.614787568744858
 30
0.0
 10
24.65536600246485
 20
-2.482772660269359
 30
0.0
 10
24.51103898499631
 20
-2.334376572496773
 30
0.0
  0
SPLINE
  5
139
330
1F
100
AcDbEntity
  8
0
  6
Continuous
 62
     1
370
    15
100
AcDbSpline
210
0.0
220
0.0
230
1.0
 70
     8
 71
     3
 72
    10
 73
     6
 74
     0
 42
0.000000001
 43
0.00000001
 40
0.0
 40
0.0
 40
0.0
 40
0.0
 40
0.5
 40
0.5
 40
1.0
 40
1.0
 40
1.0
 40
1.0
 10
24.51103898499632
 20
-2.334376572496785
 30
0.0
 10
24.47428386922703
 20
-2.296585204799606
 30
0.0
 10
24.43112799579769
 20
-2.262652766511007
 30
0.0
 10
24.33737482484083
 20
-2.210601344430979
 30
0.0
 10
24.28671009806765
 20
-2.193125148454798
 30
0.0
 10
24.24222216683225
 20
-2.190123540591641
 30
0.0
  0
SPLINE
  5
13A
330
1F
100
AcDbEntity
  8
0
  6
Continuous
 62
     1
370
    15
100
AcDbSpline
210
0.0
220
0.0
230
1.0
 70
     8
 71
     3
 72
     8
 73
     4
 74
     0
 42
0.000000001
 43
0.00000001
 40
0.0
 40
0.0
 40
0.0
 40
0.0
 40
1.0
 40
1.0
 40
1.0
 40
1.0
 10
24.24222216683224
 20
-2.19012354059165
 30
0.0
 10
24.10931140994752
 20
-2.181156030485315
 30
0.0
 10
23.96353036995848
 20
-2.132205912188828
 30
0.0
 10
23.81983755391454
 20
-2.063179784446128
 30
0.0
  0
SPLINE
  5
13B
330
1F
100
AcDbEntity
  8
0
  6
Continuous
 62
     1
370
    15
100
AcDbSpline
210
0.0
220
0.0
230
1.0
 70
     8
 71
     3
 72
     8
 73
     4
 74
     0
 42
0.000000001
 43
0.00000001
 40
0.0
 40
0.0
 40
0.0
 40
0.0
 40
1.0
 40
1.0
 40
1.0
 40
1.0
 10
23.81983755759793
 20
-2.063179786780947
 30
0.0
 10
23.66706817428949
 20
-1.966342468390906
 30
0.0
 10
23.52487429347135
 20
-1.85316182024166
 30
0.0
 10
23.40394825033604
 20
-1.731578859663924
 30
0.0
  0
SPLINE
  5
13C
330
1F
100
AcDbEntity
  8
0
  6
Continuous
 62
     1
370
    15
100
AcDbSpline
210
0.0
220
0.0
230
1.0
 70
     8
 71
     3
 72
    10
 73
     6
 74
     0
 42
0.000000001
 43
0.00000001
 40
0.0
 40
0.0
 40
0.0
 40
0.0
 40
0.5
 40
0.5
 40
1.0
 40
1.0
 40
1.0
 40
1.0
 10
23.40394825033603
 20
-1.731578859663899
 30
0.0
 10
23.36742006751539
 20
-1.694852241503679
 30
0.0
 10
23.32441312817057
 20
-1.661136839309585
 30
0.0
 10
23.23078231338411
 20
-1.607442888112127
 30
0.0
 10
23.18005813776026
 20
-1.588016957192029
 30
0.0
 10
23.13526724500406
 20
-1.581933213412822
 30
0.0
  0
SPLINE
  5
13D
330
1F
100
AcDbEntity
  8
0
  6
Continuous
 62
     1
370
    15
100
AcDbSpline
210
0.0
220
0.0
230
1.0
 70
     8
 71
     3
 72
    10
 73
     6
 74
     0
 42
0.000000001
 43
0.00000001
 40
0.0
 40
0.0
 40
0.0
 40
0.0
 40
0.5
 40
0.5
 40
1.0
 40
1.0
 40
1.0
 40
1.0
 10
23.13526724500406
 20
-1.581933213412846
 30
0.0
 10
22.95975135128308
 20
-1.558093685757329
 30
0.0
 10
22.76665741380475
 20
-1.472250947032204
 30
0.0
 10
22.39822228756837
 20
-1.257634506811856
 30
0.0
 10
22.22662346238947
 20
-1.130376554488663
 30
0.0
 10
22.08235206571928
 20
-0.9939933775560879
 30
0.0
  0
SPLINE
  5
13E
330
1F
100
AcDbEntity
  8
0
  6
Continuous
 62
     1
370
    15
100
AcDbSpline
210
0.0
220
0.0
230
1.0
 70
     8
 71
     3
 72
    10
 73
     6
 74
     0
 42
0.000000001
 43
0.00000001
 40
0.0
 40
0.0
 40
0.0
 40
0.0
 40
0.5
 40
0.5
 40
1.0
 40
1.0
 40
1.0
 40
1.0
 10
22.08235206571929
 20
-0.9939933775560998
 30
0.0
 10
22.04560797025039
 20
-0.9592583116371218
 30
0.0
 10
22.0024616231821
 20
-0.9266787963176808
 30
0.0
 10
21.90872283901202
 20
-0.8730715909931168
 30
0.0
 10
21.85806419548402
 20
-0.8525549038142919
 30
0.0
 10
21.81358099801143
 20
-0.8439940095683209
 30
0.0
  0
SPLINE
  5
13F
330
1F
100
AcDbEntity
  8
0
  6
Continuous
 62
     1
370
    15
100
AcDbSpline
210
0.0
220
0.0
230
1.0
 70
     8
 71
     3
 72
     8
 73
     4
 74
     0
 42
0.000000001
 43
0.00000001
 40
0.0
 40
0.0
 40
0.0
 40
0.0
 40
1.0
 40
1.0
 40
1.0
 40
1.0
 10
21.81358099801141
 20
-0.8439940095683278
 30
0.0
 10
21.68068344809864
 20
-0.8184175686874078
 30
0.0
 10
21.53491060195165
 20
-0.7583384846498298
 30
0.0
 10
21.39121164685186
 20
-0.6839320825599708
 30
0.0
  0
SPLINE
  5
140
330
1F
100
AcDbEntity
  8
0
  6
Continuous
 62
     1
370
    15
100
AcDbSpline
210
0.0
220
0.0
230
1.0
 70
     8
 71
     3
 72
     8
 73
     4
 74
     0
 42
0.000000001
 43
0.00000001
 40
0.0
 40
0.0
 40
0.0
 40
0.0
 40
1.0
 40
1.0
 40
1.0
 40
1.0
 10
21.39121165053533
 20
-0.683932084884805
 30
0.0
 10
21.23843460092069
 20
-0.5875055953870958
 30
0.0
 10
21.09622096242559
 20
-0.4812682888460009
 30
0.0
 10
20.97526186652836
 20
-0.371791388559009
 30
0.0
  0
SPLINE
  5
141
330
1F
100
AcDbEntity
  8
0
  6
Continuous
 62
     1
370
    15
100
AcDbSpline
210
0.0
220
0.0
230
1.0
 70
     8
 71
     3
 72
    10
 73
     6
 74
     0
 42
0.000000001
 43
0.00000001
 40
0.0
 40
0.0
 40
0.0
 40
0.0
 40
0.5
 40
0.5
 40
1.0
 40
1.0
 40
1.0
 40
1.0
 10
20.97526186652833
 20
-0.3717913885589608
 30
0.0
 10
20.93872149081277
 20
-0.338719654358334
 30
0.0
 10
20.89570092256206
 20
-0.3069242574044528
 30
0.0
 10
20.80204237939492
 20
-0.2526512945753869
 30
0.0
 10
20.75130430234522
 20
-0.2305899829193239
 30
0.0
 10
20.70650540799838
 20
-0.2191537833386193
 30
0.0
  0
SPLINE
  5
142
330
1F
100
AcDbEntity
  8
0
  6
Continuous
 62
     1
370
    15
100
AcDbSpline
210
0.0
220
0.0
230
1.0
 70
     8
 71
     3
 72
    10
 73
     6
 74
     0
 42
0.000000001
 43
0.00000001
 40
0.0
 40
0.0
 40
0.0
 40
0.0
 40
0.5
 40
0.5
 40
1.0
 40
1.0
 40
1.0
 40
1.0
 10
19.65309228801099
 20
0.3775563928456904
 30
0.0
 10
19.61631497396147
 20
0.4081843601165194
 30
0.0
 10
19.57313659906324
 20
0.4384286466571167
 30
0.0
 10
19.47934455556646
 20
0.491984417410026
 30
0.0
 10
19.42865132855415
 20
0.514941743405783
 30
0.0
 10
19.38413208644883
 20
0.5288233571811256
 30
0.0
  0
SPLINE
  5
143
330
1F
100
AcDbEntity
  8
0
  6
Continuous
 62
     1
370
    15
100
AcDbSpline
210
0.0
220
0.0
230
1.0
 70
     8
 71
     3
 72
    10
 73
     6
 74
     0
 42
0.000000001
 43
0.00000001
 40
0.0
 40
0.0
 40
0.0
 40
0.0
 40
0.5
 40
0.5
 40
1.0
 40
1.0
 40
1.0
 40
1.0
 10
16.11449330856696
 20
2.341981334497667
 30
0.0
 10
16.07795202728586
 20
2.364801079098414
 30
0.0
 10
16.03493126461461
 20
2.389884371311069
 30
0.0
 10
15.94126415543919
 20
2.440311556999014
 30
0.0
 10
15.89052070307301
 20
2.46554536379214
 30
0.0
 10
15.84572446480685
 20
2.486490069311705
 30
0.0
  0
SPLINE
  5
144
330
1F
100
AcDbEntity
  8
0
  6
Continuous
 62
     1
370
    15
100
AcDbSpline
210
0.0
220
0.0
230
1.0
 70
     8
 71
     3
 72
    10
 73
     6
 74
     0
 42
0.000000001
 43
0.00000001
 40
0.0
 40
0.0
 40
0.0
 40
0.0
 40
0.5
 40
0.5
 40
1.0
 40
1.0
 40
1.0
 40
1.0
 10
14.79267581946499
 20
3.043511228342138
 30
0.0
 10
14.75594245231458
 20
3.06318210941216
 30
0.0
 10
14.71280908200362
 20
3.085996779980888
 30
0.0
 10
14.61909243977827
 20
3.134443470851931
 30
0.0
 10
14.56843143424043
 20
3.160044834483417
 30
0.0
 10
14.523934702928
 20
3.183107429197758
 30
0.0
  0
SPLINE
  5
145
330
1F
100
AcDbEntity
  8
0
  6
Continuous
 62
     1
370
    15
100
AcDbSpline
210
0.0
220
0.0
230
1.0
 70
     8
 71
     3
 72
    10
 73
     6
 74
     0
 42
0.000000001
 43
0.00000001
 40
0.0
 40
0.0
 40
0.0
 40
0.0
 40
0.5
 40
0.5
 40
1.0
 40
1.0
 40
1.0
 40
1.0
 10
13.68574646066877
 20
3.60948178865819
 30
0.0
 10
13.64922009395704
 20
3.626030544325954
 30
0.0
 10
13.60621223253479
 20
3.646535639852433
 30
0.0
 10
13.51256401854543
 20
3.692661297560439
 30
0.0
 10
13.4618304024497
 20
3.718332376981097
 30
0.0
 10
13.41704439026683
 20
3.743130667601696
 30
0.0
  0
SPLINE
  5
146
330
1F
100
AcDbEntity
  8
0
  6
Continuous
 62
     1
370
    15
100
AcDbSpline
210
0.0
220
0.0
230
1.0
 70
     8
 71
     3
 72
    10
 73
     6
 74
     0
 42
0.000000001
 43
0.00000001
 40
0.0
 40
0.0
 40
0.0
 40
0.0
 40
0.5
 40
0.5
 40
1.0
 40
1.0
 40
1.0
 40
1.0
 10
12.36397356569115
 20
4.253698872505803
 30
0.0
 10
12.32721730536342
 20
4.266860585908155
 30
0.0
 10
12.28406231257975
 20
4.284816398038146
 30
0.0
 10
12.19033266286325
 20
4.32838616518476
 30
0.0
 10
12.13967878104287
 20
4.354143891652515
 30
0.0
 10
12.09517502838931
 20
4.380800622096412
 30
0.0
  0
SPLINE
  5
147
330
1F
100
AcDbEntity
  8
외형선
  6
Continuous
370
    15
100
AcDbSpline
210
0.0
220
0.0
230
1.0
 70
     8
 71
     3
 72
     8
 73
     4
 74
     0
 42
0.000000001
 43
0.00000001
 40
0.0
 40
0.0
 40
0.0
 40
0.0
 40
1.0
 40
1.0
 40
1.0
 40
1.0
 10
12.09517502838929
 20
4.38080062209642
 30
0.0
 10
12.03260868839054
 20
4.418276429433195
 30
0.0
 10
11.96696191727842
 20
4.456920645318267
 30
0.0
 10
11.9001680484982
 20
4.494648641798439
 30
0.0
  0
SPLINE
  5
148
330
1F
100
AcDbEntity
  8
외형선
  6
Continuous
370
    15
100
AcDbSpline
210
0.0
220
0.0
230
1.0
 70
     8
 71
     3
 72
     8
 73
     4
 74
     0
 42
0.000000001
 43
0.00000001
 40
0.0
 40
0.0
 40
0.0
 40
0.0
 40
1.0
 40
1.0
 40
1.0
 40
1.0
 10
11.51759586907153
 20
4.679784958175079
 30
0.0
 10
11.42350356795993
 20
4.715456307152721
 30
0.0
 10
11.33554950126327
 20
4.743584909845795
 30
0.0
 10
11.25664632224284
 20
4.764714488013842
 30
0.0
  0
SPLINE
  5
149
330
1F
100
AcDbEntity
  8
외형선
  6
Continuous
370
    15
100
AcDbSpline
210
0.0
220
0.0
230
1.0
 70
     8
 71
     3
 72
    10
 73
     6
 74
     0
 42
0.000000001
 43
0.00000001
 40
0.0
 40
0.0
 40
0.0
 40
0.0
 40
0.4999999999999999
 40
0.4999999999999999
 40
1.0
 40
1.0
 40
1.0
 40
1.0
 10
11.25664632224286
 20
4.764714488013857
 30
0.0
 10
11.22009010912561
 20
4.774503920736066
 30
0.0
 10
11.17705306870536
 20
4.789818822202552
 30
0.0
 10
11.08335541990505
 20
4.830253282969284
 30
0.0
 10
11.03259109890288
 20
4.85558823903801
 30
0.0
 10
10.98777414851848
 20
4.883499256941727
 30
0.0
  0
SPLINE
  5
14A
330
1F
100
AcDbEntity
  8
외형선
  6
Continuous
370
    15
100
AcDbSpline
210
0.0
220
0.0
230
1.0
 70
     8
 71
     3
 72
    10
 73
     6
 74
     0
 42
0.000000001
 43
0.00000001
 40
0.0
 40
0.0
 40
0.0
 40
0.0
 40
0.5
 40
0.5
 40
1.0
 40
1.0
 40
1.0
 40
1.0
 10
9.933758421106642
 20
5.332356516463481
 30
0.0
 10
9.896945407160807
 20
5.338603252486262
 30
0.0
 10
9.853734616792472
 20
5.351129912722621
 30
0.0
 10
9.75990685593947
 20
5.388398680715023
 30
0.0
 10
9.709198528487047
 20
5.413443550490443
 30
0.0
 10
9.664654691136901
 20
5.442827481046089
 30
0.0
  0
SPLINE
  5
14B
330
1F
100
AcDbEntity
  8
외형선
  6
Continuous
370
    15
100
AcDbSpline
210
0.0
220
0.0
230
1.0
 70
     8
 71
     3
 72
     8
 73
     4
 74
     0
 42
0.000000001
 43
0.00000001
 40
0.0
 40
0.0
 40
0.0
 40
0.0
 40
1.0
 40
1.0
 40
1.0
 40
1.0
 10
9.664654691136898
 20
5.442827481046081
 30
0.0
 10
9.531595873320757
 20
5.530601487398343
 30
0.0
 10
9.38576331621677
 20
5.61396835445569
 30
0.0
 10
9.24197500240366
 20
5.680118479805222
 30
0.0
  0
SPLINE
  5
14C
330
1F
100
AcDbEntity
  8
외형선
  6
Continuous
370
    15
100
AcDbSpline
210
0.0
220
0.0
230
1.0
 70
     8
 71
     3
 72
     8
 73
     4
 74
     0
 42
0.000000001
 43
0.00000001
 40
0.0
 40
0.0
 40
0.0
 40
0.0
 40
1.0
 40
1.0
 40
1.0
 40
1.0
 10
9.0013569316431
 20
1.526309619279614
 30
0.0
 10
8.984305716393049
 20
1.535975424618798
 30
0.0
 10
8.967251395764086
 20
1.545638290938706
 30
0.0
 10
8.950194146147014
 20
1.5552981166358
 30
0.0
  0
SPLINE
  5
14D
330
1F
100
AcDbEntity
  8
외형선
  6
Continuous
370
    15
100
AcDbSpline
210
0.0
220
0.0
230
1.0
 70
     8
 71
     3
 72
     8
 73
     4
 74
     0
 42
0.000000001
 43
0.00000001
 40
0.0
 40
0.0
 40
0.0
 40
0.0
 40
1.0
 40
1.0
 40
1.0
 40
1.0
 10
9.001448549609508
 20
1.526257683850026
 30
0.0
 10
9.154398107523663
 20
1.428969311805083
 30
0.0
 10
9.29674642746751
 20
1.317821979418398
 30
0.0
 10
9.417866797721437
 20
1.200286536190511
 30
0.0
  0
SPLINE
  5
14E
330
1F
100
AcDbEntity
  8
외형선
  6
Continuous
370
    15
100
AcDbSpline
210
0.0
220
0.0
230
1.0
 70
     8
 71
     3
 72
    10
 73
     6
 74
     0
 42
0.000000001
 43
0.00000001
 40
0.0
 40
0.0
 40
0.0
 40
0.0
 40
0.5
 40
0.5
 40
1.0
 40
1.0
 40
1.0
 40
1.0
 10
9.41786679772142
 20
1.200286536190536
 30
0.0
 10
9.454450374587584
 20
1.164785761937523
 30
0.0
 10
9.49750475175955
 20
1.131608566359618
 30
0.0
 10
9.591232042625483
 20
1.077324960990305
 30
0.0
 10
9.642030591832444
 20
1.056702234184251
 30
0.0
 10
9.686895201217778
 20
1.04844685699057
 30
0.0
  0
SPLINE
  5
14F
330
1F
100
AcDbEntity
  8
외형선
  6
Continuous
370
    15
100
AcDbSpline
210
0.0
220
0.0
230
1.0
 70
     8
 71
     3
 72
    10
 73
     6
 74
     0
 42
0.000000001
 43
0.00000001
 40
0.0
 40
0.0
 40
0.0
 40
0.0
 40
0.5
 40
0.5
 40
1.0
 40
1.0
 40
1.0
 40
1.0
 10
10.74095774743374
 20
0.4553237040140611
 30
0.0
 10
10.7777395176879
 20
0.4220899121272367
 30
0.0
 10
10.82091996088071
 20
0.3903193941864316
 30
0.0
 10
10.91471257084342
 20
0.3365433543044933
 30
0.0
 10
10.96539957153916
 20
0.3149858848522192
 30
0.0
 10
11.0099090039123
 20
0.3042897310283643
 30
0.0
  0
SPLINE
  5
150
330
1F
100
AcDbEntity
  8
외형선
  6
Continuous
370
    15
100
AcDbSpline
210
0.0
220
0.0
230
1.0
 70
     8
 71
     3
 72
     8
 73
     4
 74
     0
 42
0.000000001
 43
0.00000001
 40
0.0
 40
0.0
 40
0.0
 40
0.0
 40
1.0
 40
1.0
 40
1.0
 40
1.0
 10
11.00990900391265
 20
0.3042897310283507
 30
0.0
 10
11.10866213175976
 20
0.2805581624658309
 30
0.0
 10
11.21525770902619
 20
0.2385918243183405
 30
0.0
 10
11.32167981859298
 20
0.1879781921735811
 30
0.0
  0
SPLINE
  5
151
330
1F
100
AcDbEntity
  8
외형선
  6
Continuous
370
    15
100
AcDbSpline
210
0.0
220
0.0
230
1.0
 70
     8
 71
     3
 72
     8
 73
     4
 74
     0
 42
0.000000001
 43
0.00000001
 40
0.0
 40
0.0
 40
0.0
 40
0.0
 40
1.0
 40
1.0
 40
1.0
 40
1.0
 10
11.60538833724013
 20
0.0177046312458141
 30
0.0
 10
11.69289832070543
 20
-0.0436885062213502
 30
0.0
 10
11.77461992882906
 20
-0.1064818721663737
 30
0.0
 10
11.84849610084136
 20
-0.1699316173978741
 30
0.0
  0
SPLINE
  5
152
330
1F
100
AcDbEntity
  8
외형선
  6
Continuous
370
    15
100
AcDbSpline
210
0.0
220
0.0
230
1.0
 70
     8
 71
     3
 72
    10
 73
     6
 74
     0
 42
0.000000001
 43
0.00000001
 40
0.0
 40
0.0
 40
0.0
 40
0.0
 40
0.5
 40
0.5
 40
1.0
 40
1.0
 40
1.0
 40
1.0
 10
11.84849610084136
 20
-0.1699316173978715
 30
0.0
 10
11.88503789455209
 20
-0.2013161279659301
 30
0.0
 10
11.92805642127649
 20
-0.2321318897319709
 30
0.0
 10
12.021703042845
 20
-0.2862948283390048
 30
0.0
 10
12.07243793064095
 20
-0.3092888296756229
 30
0.0
 10
12.117242994025
 20
-0.3228236295654958
 30
0.0
  0
SPLINE
  5
153
330
1F
100
AcDbEntity
  8
0
  6
Continuous
 62
     1
370
    15
100
AcDbSpline
210
0.0
220
0.0
230
1.0
 70
     8
 71
     3
 72
    10
 73
     6
 74
     0
 42
0.000000001
 43
0.00000001
 40
0.0
 40
0.0
 40
0.0
 40
0.0
 40
0.4999999999999998
 40
0.4999999999999998
 40
1.0
 40
1.0
 40
1.0
 40
1.0
 10
13.17030734637349
 20
-0.9168903867308698
 30
0.0
 10
13.20705238577981
 20
-0.9455749325716989
 30
0.0
 10
13.2501991303341
 20
-0.9745782904926079
 30
0.0
 10
13.34393797453918
 20
-1.027546736674448
 30
0.0
 10
13.39459526333319
 20
-1.051211170651346
 30
0.0
 10
13.43907632644676
 20
-1.067035467194211
 30
0.0
  0
SPLINE
  5
154
330
1F
100
AcDbEntity
  8
0
  6
Continuous
 62
     1
370
    15
100
AcDbSpline
210
0.0
220
0.0
230
1.0
 70
     8
 71
     3
 72
    10
 73
     6
 74
     0
 42
0.000000001
 43
0.00000001
 40
0.0
 40
0.0
 40
0.0
 40
0.0
 40
0.5
 40
0.5
 40
1.0
 40
1.0
 40
1.0
 40
1.0
 10
14.27727994642237
 20
-1.534053148844002
 30
0.0
 10
14.31380779568898
 20
-1.56036705795079
 30
0.0
 10
14.35681536695481
 20
-1.58788686387858
 30
0.0
 10
14.45044977193543
 20
-1.640242760288051
 30
0.0
 10
14.5011749427029
 20
-1.664873691544621
 30
0.0
 10
14.54596403561385
 20
-1.683203327366586
 30
0.0
  0
SPLINE
  5
155
330
1F
100
AcDbEntity
  8
0
  6
Continuous
 62
     1
370
    15
100
AcDbSpline
210
0.0
220
0.0
230
1.0
 70
     8
 71
     3
 72
    10
 73
     6
 74
     0
 42
0.000000001
 43
0.00000001
 40
0.0
 40
0.0
 40
0.0
 40
0.0
 40
0.5
 40
0.5
 40
1.0
 40
1.0
 40
1.0
 40
1.0
 10
15.59897070518773
 20
-2.260099689756574
 30
0.0
 10
15.63572323227095
 20
-2.28337392900292
 30
0.0
 10
15.67887782989326
 20
-2.308739471877679
 30
0.0
 10
15.77263052862923
 20
-2.359311090258841
 30
0.0
 10
15.8232987637154
 20
-2.384382135058225
 30
0.0
 10
15.86779222999821
 20
-2.404867321826894
 30
0.0
  0
SPLINE
  5
156
330
1F
100
AcDbEntity
  8
0
  6
Continuous
 62
     1
370
    15
100
AcDbSpline
210
0.0
220
0.0
230
1.0
 70
     8
 71
     3
 72
    10
 73
     6
 74
     0
 42
0.000000001
 43
0.00000001
 40
0.0
 40
0.0
 40
0.0
 40
0.0
 40
0.5
 40
0.5
 40
1.0
 40
1.0
 40
1.0
 40
1.0
 10
19.13736788271907
 20
-4.079680253623373
 30
0.0
 10
19.17393832812518
 20
-4.093633070565174
 30
0.0
 10
19.21698587927164
 20
-4.112177053954911
 30
0.0
 10
19.31069545244716
 20
-4.156255667137026
 30
0.0
 10
19.36146329656343
 20
-4.181910351851956
 30
0.0
 10
19.40628433788086
 20
-4.208057795806196
 30
0.0
  0
SPLINE
  5
157
330
1F
100
AcDbEntity
  8
0
  6
Continuous
 62
     1
370
    15
100
AcDbSpline
210
0.0
220
0.0
230
1.0
 70
     8
 71
     3
 72
    10
 73
     6
 74
     0
 42
0.000000001
 43
0.00000001
 40
0.0
 40
0.0
 40
0.0
 40
0.0
 40
0.5
 40
0.5
 40
1.0
 40
1.0
 40
1.0
 40
1.0
 10
20.45975519311706
 20
-4.697001772139444
 30
0.0
 10
20.49650516780427
 20
-4.707471372027642
 30
0.0
 10
20.5396542155685
 20
-4.723329856113699
 30
0.0
 10
20.63339761501642
 20
-4.764516703120592
 30
0.0
 10
20.68407095636443
 20
-4.790046681661895
 30
0.0
 10
20.72857611520307
 20
-4.817835168208838
 30
0.0
  0
SPLINE
  5
158
330
1F
100
AcDbEntity
  8
0
  6
Continuous
 62
     1
370
    15
100
AcDbSpline
210
0.0
220
0.0
230
1.0
 70
     8
 71
     3
 72
     8
 73
     4
 74
     0
 42
0.000000001
 43
0.00000001
 40
0.0
 40
0.0
 40
0.0
 40
0.0
 40
1.0
 40
1.0
 40
1.0
 40
1.0
 10
20.72857611520342
 20
-4.817835168208985
 30
0.0
 10
20.86148276463645
 20
-4.900820483532943
 30
0.0
 10
21.00725238156526
 20
-4.984480793321758
 30
0.0
 10
21.15097287836064
 20
-5.054572908510867
 30
0.0
  0
SPLINE
  5
159
330
1F
100
AcDbEntity
  8
0
  6
Continuous
 62
     1
370
    15
100
AcDbSpline
210
0.0
220
0.0
230
1.0
 70
     8
 71
     3
 72
     8
 73
     4
 74
     0
 42
0.000000001
 43
0.00000001
 40
0.0
 40
0.0
 40
0.0
 40
0.0
 40
1.0
 40
1.0
 40
1.0
 40
1.0
 10
21.15097287835146
 20
-5.054572908507188
 30
0.0
 10
21.30371666888004
 20
-5.115894201155367
 30
0.0
 10
21.44593955132102
 20
-5.157586661996998
 30
0.0
 10
21.56690477263239
 20
-5.180775249637481
 30
0.0
  0
SPLINE
  5
15A
330
1F
100
AcDbEntity
  8
0
  6
Continuous
 62
     1
370
    15
100
AcDbSpline
210
0.0
220
0.0
230
1.0
 70
     8
 71
     3
 72
    10
 73
     6
 74
     0
 42
0.000000001
 43
0.00000001
 40
0.0
 40
0.0
 40
0.0
 40
0.0
 40
0.5
 40
0.5
 40
1.0
 40
1.0
 40
1.0
 40
1.0
 10
21.5669047726324
 20
-5.180775249637479
 30
0.0
 10
21.60343431691377
 20
-5.187777828807368
 30
0.0
 10
21.64644451649997
 20
-5.200880391472429
 30
0.0
 10
21.74009543357881
 20
-5.238674829885781
 30
0.0
 10
21.79082990882936
 20
-5.263640899173465
 30
0.0
 10
21.83561688083295
 20
-5.29252134878613
 30
0.0
  0
SPLINE
  5
15B
330
1F
100
AcDbEntity
  8
0
  6
Continuous
 62
     1
370
    15
100
AcDbSpline
210
0.0
220
0.0
230
1.0
 70
     8
 71
     3
 72
    10
 73
     6
 74
     0
 42
0.000000001
 43
0.00000001
 40
0.0
 40
0.0
 40
0.0
 40
0.0
 40
0.5
 40
0.5
 40
1.0
 40
1.0
 40
1.0
 40
1.0
 10
21.83561688083324
 20
-5.292521348786265
 30
0.0
 10
22.01118165904909
 20
-5.405732613227451
 30
0.0
 10
22.20448890774164
 20
-5.510015899493753
 30
0.0
 10
22.57295526587545
 20
-5.6572150444463
 30
0.0
 10
22.74443139286324
 20
-5.699582186844818
 30
0.0
 10
22.88856288290292
 20
-5.713166129597669
 30
0.0
  0
SPLINE
  5
15C
330
1F
100
AcDbEntity
  8
0
  6
Continuous
 62
     1
370
    15
100
AcDbSpline
210
0.0
220
0.0
230
1.0
 70
     8
 71
     3
 72
    10
 73
     6
 74
     0
 42
0.000000001
 43
0.00000001
 40
0.0
 40
0.0
 40
0.0
 40
0.0
 40
0.5
 40
0.5
 40
1.0
 40
1.0
 40
1.0
 40
1.0
 10
22.88856288290292
 20
-5.713166129597669
 30
0.0
 10
22.92530017565072
 20
-5.716628504693103
 30
0.0
 10
22.96842936336696
 20
-5.726916840578491
 30
0.0
 10
23.06213814948917
 20
-5.761401660941178
 30
0.0
 10
23.11279727483258
 20
-5.785961531568768
 30
0.0
 10
23.15729580315331
 20
-5.816149810137661
 30
0.0
  0
SPLINE
  5
15D
330
1F
100
AcDbEntity
  8
0
  6
Continuous
 62
     1
370
    15
100
AcDbSpline
210
0.0
220
0.0
230
1.0
 70
     8
 71
     3
 72
     8
 73
     4
 74
     0
 42
0.000000001
 43
0.00000001
 40
0.0
 40
0.0
 40
0.0
 40
0.0
 40
1.0
 40
1.0
 40
1.0
 40
1.0
 10
23.15729580315366
 20
-5.816149810137848
 30
0.0
 10
23.29018456625371
 20
-5.906302971388987
 30
0.0
 10
23.43592462699504
 20
-5.988587328927801
 30
0.0
 10
23.57962361152081
 20
-6.051492667573726
 30
0.0
  0
SPLINE
  5
15E
330
1F
100
AcDbEntity
  8
0
  6
Continuous
 62
     1
370
    15
100
AcDbSpline
210
0.0
220
0.0
230
1.0
 70
     8
 71
     3
 72
     8
 73
     4
 74
     0
 42
0.000000001
 43
0.00000001
 40
0.0
 40
0.0
 40
0.0
 40
0.0
 40
1.0
 40
1.0
 40
1.0
 40
1.0
 10
23.57962361151165
 20
-6.051492667570896
 30
0.0
 10
23.73234743664653
 20
-6.098684184096426
 30
0.0
 10
23.87456225596365
 20
-6.12057426311266
 30
0.0
 10
23.99553590403691
 20
-6.120123802550053
 30
0.0
  0
SPLINE
  5
15F
330
1F
100
AcDbEntity
  8
0
  6
Continuous
 62
     1
370
    15
100
AcDbSpline
210
0.0
220
0.0
230
1.0
 70
     8
 71
     3
 72
    10
 73
     6
 74
     0
 42
0.000000001
 43
0.00000001
 40
0.0
 40
0.0
 40
0.0
 40
0.0
 40
0.5
 40
0.5
 40
1.0
 40
1.0
 40
1.0
 40
1.0
 10
23.99553590403692
 20
-6.12012380255006
 30
0.0
 10
24.0320692556352
 20
-6.119987766029899
 30
0.0
 10
24.07508414842615
 20
-6.127269262952815
 30
0.0
 10
24.16874469496667
 20
-6.157650682060329
 30
0.0
 10
24.21948630181796
 20
-6.181175863631237
 30
0.0
 10
24.26428034052416
 20
-6.21192016183689
 30
0.0
  0
SPLINE
  5
160
330
1F
100
AcDbEntity
  8
0
  6
Continuous
 62
     1
370
    15
100
AcDbSpline
210
0.0
220
0.0
230
1.0
 70
     8
 71
     3
 72
    10
 73
     6
 74
     0
 42
0.000000001
 43
0.00000001
 40
0.0
 40
0.0
 40
0.0
 40
0.0
 40
0.5
 40
0.5
 40
1.0
 40
1.0
 40
1.0
 40
1.0
 10
24.26428034052444
 20
-6.211920161837035
 30
0.0
 10
24.4398747435574
 20
-6.332439026534491
 30
0.0
 10
24.6332284624726
 20
-6.429679411747268
 30
0.0
 10
25.00182824967827
 20
-6.54664838205314
 30
0.0
 10
25.1733904337396
 20
-6.566128479938131
 30
0.0
 10
25.31763591372766
 20
-6.551727861762537
 30
0.0
  0
SPLINE
  5
161
330
1F
100
AcDbEntity
  8
0
  6
Continuous
 62
     1
370
    15
100
AcDbSpline
210
0.0
220
0.0
230
1.0
 70
     8
 71
     3
 72
    10
 73
     6
 74
     0
 42
0.000000001
 43
0.00000001
 40
0.0
 40
0.0
 40
0.0
 40
0.0
 40
0.5
 40
0.5
 40
1.0
 40
1.0
 40
1.0
 40
1.0
 10
25.31763591372766
 20
-6.551727861762537
 30
0.0
 10
25.35441124023353
 20
-6.548056430010652
 30
0.0
 10
25.39758552981171
 20
-6.552412704567393
 30
0.0
 10
25.49135011409833
 20
-6.579061402059486
 30
0.0
 10
25.54202276315871
 20
-6.601860883955919
 30
0.0
 10
25.58653658000753
 20
-6.63350143649919
 30
0.0
  0
SPLINE
  5
162
330
1F
100
AcDbEntity
  8
0
  6
Continuous
 62
     1
370
    15
100
AcDbSpline
210
0.0
220
0.0
230
1.0
 70
     8
 71
     3
 72
     8
 73
     4
 74
     0
 42
0.000000001
 43
0.00000001
 40
0.0
 40
0.0
 40
0.0
 40
0.0
 40
1.0
 40
1.0
 40
1.0
 40
1.0
 10
25.58653658000787
 20
-6.633501436499396
 30
0.0
 10
25.71951755212487
 20
-6.728024704405367
 30
0.0
 10
25.86530881062782
 20
-6.806399786863206
 30
0.0
 10
26.00906695301388
 20
-6.860179218375976
 30
0.0
  0
SPLINE
  5
163
330
1F
100
AcDbEntity
  8
0
  6
Continuous
 62
     1
370
    15
100
AcDbSpline
210
0.0
220
0.0
230
1.0
 70
     8
 71
     3
 72
     8
 73
     4
 74
     0
 42
0.000000001
 43
0.00000001
 40
0.0
 40
0.0
 40
0.0
 40
0.0
 40
1.0
 40
1.0
 40
1.0
 40
1.0
 10
26.00906695300469
 20
-6.860179218374077
 30
0.0
 10
26.16191664689268
 20
-6.891811054830395
 30
0.0
 10
26.30427461497335
 20
-6.893260191506268
 30
0.0
 10
26.42542498457571
 20
-6.869223897241296
 30
0.0
  0
SPLINE
  5
164
330
1F
100
AcDbEntity
  8
0
  6
Continuous
 62
     1
370
    15
100
AcDbSpline
210
0.0
220
0.0
230
1.0
 70
     8
 71
     3
 72
    10
 73
     6
 74
     0
 42
0.000000001
 43
0.00000001
 40
0.0
 40
0.0
 40
0.0
 40
0.0
 40
0.5
 40
0.5
 40
1.0
 40
1.0
 40
1.0
 40
1.0
 10
26.42542498457571
 20
-6.869223897241296
 30
0.0
 10
26.46200674352746
 20
-6.86196605786548
 30
0.0
 10
26.50506823467716
 20
-6.863210722990617
 30
0.0
 10
26.59880651371372
 20
-6.885247684642371
 30
0.0
 10
26.6495956443158
 20
-6.90660378249777
 30
0.0
 10
26.69443776833072
 20
-6.938280462213209
 30
0.0
  0
SPLINE
  5
165
330
1F
100
AcDbEntity
  8
0
  6
Continuous
 62
     1
370
    15
100
AcDbSpline
210
0.0
220
0.0
230
1.0
 70
     8
 71
     3
 72
    10
 73
     6
 74
     0
 42
0.000000001
 43
0.00000001
 40
0.0
 40
0.0
 40
0.0
 40
0.0
 40
0.5
 40
0.5
 40
1.0
 40
1.0
 40
1.0
 40
1.0
 10
26.694437768331
 20
-6.938280462213372
 30
0.0
 10
26.87015754928609
 20
-7.062409712182088
 30
0.0
 10
27.06362527782472
 20
-7.149590961713539
 30
0.0
 10
27.43251349155427
 20
-7.2327972654357
 30
0.0
 10
27.60425688756024
 20
-7.228852622576007
 30
0.0
 10
27.7486591716922
 20
-7.186889407426079
 30
0.0
  0
SPLINE
  5
166
330
1F
100
AcDbEntity
  8
0
  6
Continuous
 62
     1
370
    15
100
AcDbSpline
210
0.0
220
0.0
230
1.0
 70
     8
 71
     3
 72
    10
 73
     6
 74
     0
 42
0.000000001
 43
0.00000001
 40
0.0
 40
0.0
 40
0.0
 40
0.0
 40
0.5
 40
0.5
 40
1.0
 40
1.0
 40
1.0
 40
1.0
 10
27.7486591716922
 20
-7.186889407426081
 30
0.0
 10
27.78544860745585
 20
-7.176198419970621
 30
0.0
 10
27.82863458257714
 20
-7.17448587755923
 30
0.0
 10
27.92242472378039
 20
-7.192444470775603
 30
0.0
 10
27.97311087756178
 20
-7.212754865331362
 30
0.0
 10
28.01762980562245
 20
-7.244827627585929
 30
0.0
  0
SPLINE
  5
167
330
1F
100
AcDbEntity
  8
0
  6
Continuous
 62
     1
370
    15
100
AcDbSpline
210
0.0
220
0.0
230
1.0
 70
     8
 71
     3
 72
     8
 73
     4
 74
     0
 42
0.000000001
 43
0.00000001
 40
0.0
 40
0.0
 40
0.0
 40
0.0
 40
1.0
 40
1.0
 40
1.0
 40
1.0
 10
28.01762980562279
 20
-7.244827627586151
 30
0.0
 10
28.15063970676076
 20
-7.340651923509945
 30
0.0
 10
28.29643743525284
 20
-7.412546817170474
 30
0.0
 10
28.44014389753761
 20
-7.455467532825457
 30
0.0
  0
SPLINE
  5
168
330
1F
100
AcDbEntity
  8
0
  6
Continuous
 62
     1
370
    15
100
AcDbSpline
210
0.0
220
0.0
230
1.0
 70
     8
 71
     3
 72
     8
 73
     4
 74
     0
 42
0.000000001
 43
0.00000001
 40
0.0
 40
0.0
 40
0.0
 40
0.0
 40
1.0
 40
1.0
 40
1.0
 40
1.0
 10
28.44014389752843
 20
-7.455467532824562
 30
0.0
 10
28.59290305335668
 20
-7.470465008767526
 30
0.0
 10
28.73519444868788
 20
-7.451359722529757
 30
0.0
 10
28.85625370937302
 20
-7.404374478569643
 30
0.0
  0
SPLINE
  5
169
330
1F
100
AcDbEntity
  8
0
  6
Continuous
 62
     1
370
    15
100
AcDbSpline
210
0.0
220
0.0
230
1.0
 70
     8
 71
     3
 72
    10
 73
     6
 74
     0
 42
0.000000001
 43
0.00000001
 40
0.0
 40
0.0
 40
0.0
 40
0.0
 40
0.5
 40
0.5
 40
1.0
 40
1.0
 40
1.0
 40
1.0
 10
28.85625370937303
 20
-7.404374478569643
 30
0.0
 10
28.8927932666544
 20
-7.390192828992868
 30
0.0
 10
28.935811402729
 20
-7.385332971402738
 30
0.0
 10
29.02947894096786
 20
-7.398302021245469
 30
0.0
 10
29.08023237378688
 20
-7.416814416678106
 30
0.0
 10
29.12504128518144
 20
-7.448399556166216
 30
0.0
  0
SPLINE
  5
16A
330
1F
100
AcDbEntity
  8
0
  6
Continuous
 62
     1
370
    15
100
AcDbSpline
210
0.0
220
0.0
230
1.0
 70
     8
 71
     3
 72
     8
 73
     4
 74
     0
 42
0.000000001
 43
0.00000001
 40
0.0
 40
0.0
 40
0.0
 40
0.0
 40
1.0
 40
1.0
 40
1.0
 40
1.0
 10
29.12504128518172
 20
-7.448399556166393
 30
0.0
 10
29.22090437750697
 20
-7.515972033350458
 30
0.0
 10
29.321133018783
 20
-7.568537056148989
 30
0.0
 10
29.42394834779376
 20
-7.606714606226083
 30
0.0
  0
LINE
  5
16B
330
1F
100
AcDbEntity
  8
0
  6
Continuous
 62
     1
370
    15
100
AcDbLine
 10
31.05000039935112
 20
-6.919622421264654
 30
0.0
 11
31.05000039935112
 21
-6.484806537628179
 31
0.0
  0
SPLINE
  5
16C
330
1F
100
AcDbEntity
  8
0
  6
Continuous
 62
     1
370
    15
100
AcDbSpline
210
0.0
220
0.0
230
1.0
 70
     8
 71
     3
 72
     8
 73
     4
 74
     0
 42
0.000000001
 43
0.00000001
 40
0.0
 40
0.0
 40
0.0
 40
0.0
 40
1.0
 40
1.0
 40
1.0
 40
1.0
 10
30.95283948109848
 20
-7.011967486889494
 30
0.0
 10
30.9851612814164
 20
-6.980857248774635
 30
0.0
 10
31.01754619348285
 20
-6.950068686730809
 30
0.0
 10
31.05000000000007
 20
-6.919622243770251
 30
0.0
  0
SPLINE
  5
16D
330
1F
100
AcDbEntity
  8
0
  6
Continuous
 62
     1
370
    15
100
AcDbSpline
210
0.0
220
0.0
230
1.0
 70
     8
 71
     3
 72
     8
 73
     4
 74
     0
 42
0.000000001
 43
0.00000001
 40
0.0
 40
0.0
 40
0.0
 40
0.0
 40
1.0
 40
1.0
 40
1.0
 40
1.0
 10
30.95283948109849
 20
-7.011967486889498
 30
0.0
 10
30.84601437639208
 20
-7.078620974373655
 30
0.0
 10
30.7345739393626
 20
-7.131690053402654
 30
0.0
 10
30.62379688030084
 20
-7.169310493942085
 30
0.0
  0
SPLINE
  5
16E
330
1F
100
AcDbEntity
  8
0
  6
Continuous
 62
     1
370
    15
100
AcDbSpline
210
0.0
220
0.0
230
1.0
 70
     8
 71
     3
 72
     8
 73
     4
 74
     0
 42
0.000000001
 43
0.00000001
 40
0.0
 40
0.0
 40
0.0
 40
0.0
 40
1.0
 40
1.0
 40
1.0
 40
1.0
 10
30.62379688398371
 20
-7.169310493368044
 30
0.0
 10
30.47109227229074
 20
-7.193112151553219
 30
0.0
 10
30.32888438464882
 20
-7.184762623528641
 30
0.0
 10
30.20791359406931
 20
-7.149714222758316
 30
0.0
  0
SPLINE
  5
16F
330
1F
100
AcDbEntity
  8
0
  6
Continuous
 62
     1
370
    15
100
AcDbSpline
210
0.0
220
0.0
230
1.0
 70
     8
 71
     3
 72
     9
 73
     5
 74
     0
 42
0.000000001
 43
0.00000001
 40
0.0
 40
0.0
 40
0.0
 40
0.0
 40
0.2501473837155657
 40
1.0
 40
1.0
 40
1.0
 40
1.0
 10
29.13171058893204
 20
-7.45201529935003
 30
0.0
 10
29.10872257222198
 20
-7.453591850446381
 30
0.0
 10
29.0168246823916
 20
-7.459894339294891
 30
0.0
 10
28.94200699660217
 20
-7.431154468175309
 30
0.0
 10
28.88590475916862
 20
-7.409603800624616
 30
0.0
  0
LINE
  5
170
330
1F
100
AcDbEntity
  8
0
  6
Continuous
 62
     1
370
    15
100
AcDbLine
 10
28.88590475916862
 20
-7.409603800624616
 30
0.0
 11
28.85422675311565
 21
-7.404982112348087
 31
0.0
  0
SPLINE
  5
171
330
1F
100
AcDbEntity
  8
0
  6
Continuous
 62
     1
370
    15
100
AcDbSpline
210
0.0
220
0.0
230
1.0
 70
     8
 71
     3
 72
     8
 73
     4
 74
     0
 42
0.000000001
 43
0.00000001
 40
0.0
 40
0.0
 40
0.0
 40
0.0
 40
1.0
 40
1.0
 40
1.0
 40
1.0
 10
28.6170244250473
 20
-7.455671420764135
 30
0.0
 10
28.4840272363101
 20
-7.551101769743498
 30
0.0
 10
28.3382517004997
 20
-7.619153112875956
 30
0.0
 10
28.19453412079341
 20
-7.656434010536168
 30
0.0
  0
SPLINE
  5
172
330
1F
100
AcDbEntity
  8
0
  6
Continuous
 62
     1
370
    15
100
AcDbSpline
210
0.0
220
0.0
230
1.0
 70
     8
 71
     3
 72
     8
 73
     4
 74
     0
 42
0.000000001
 43
0.00000001
 40
0.0
 40
0.0
 40
0.0
 40
0.0
 40
1.0
 40
1.0
 40
1.0
 40
1.0
 10
28.19453412447881
 20
-7.656434010369091
 30
0.0
 10
28.04172117864668
 20
-7.663361742045938
 30
0.0
 10
27.89938794574356
 20
-7.634694619811128
 30
0.0
 10
27.77825866586161
 20
-7.577381862081706
 30
0.0
  0
SPLINE
  5
173
330
1F
100
AcDbEntity
  8
0
  6
Continuous
 62
     1
370
    15
100
AcDbSpline
210
0.0
220
0.0
230
1.0
 70
     8
 71
     3
 72
    10
 73
     6
 74
     0
 42
0.000000001
 43
0.00000001
 40
0.0
 40
0.0
 40
0.0
 40
0.0
 40
0.5
 40
0.5
 40
1.0
 40
1.0
 40
1.0
 40
1.0
 10
27.77825866586139
 20
-7.5773818620816
 30
0.0
 10
27.74168655440122
 20
-7.560077635012686
 30
0.0
 10
27.69863472665654
 20
-7.552385698095371
 30
0.0
 10
27.60491210500599
 20
-7.560921219549636
 30
0.0
 10
27.55412898716754
 20
-7.577879160372506
 30
0.0
 10
27.50929077257295
 20
-7.609090668193375
 30
0.0
  0
SPLINE
  5
174
330
1F
100
AcDbEntity
  8
0
  6
Continuous
 62
     1
370
    15
100
AcDbSpline
210
0.0
220
0.0
230
1.0
 70
     8
 71
     3
 72
    10
 73
     6
 74
     0
 42
0.000000001
 43
0.00000001
 40
0.0
 40
0.0
 40
0.0
 40
0.0
 40
0.4999999999999999
 40
0.4999999999999999
 40
1.0
 40
1.0
 40
1.0
 40
1.0
 10
27.50929077257295
 20
-7.609090668193383
 30
0.0
 10
27.33358117297501
 20
-7.731400657376462
 30
0.0
 10
27.1401193393592
 20
-7.798934901261719
 30
0.0
 10
26.7712172542713
 20
-7.827969094942862
 30
0.0
 10
26.59944695145198
 20
-7.789951403172456
 30
0.0
 10
26.45501006284577
 20
-7.710093128725569
 30
0.0
  0
SPLINE
  5
175
330
1F
100
AcDbEntity
  8
0
  6
Continuous
 62
     1
370
    15
100
AcDbSpline
210
0.0
220
0.0
230
1.0
 70
     8
 71
     3
 72
    10
 73
     6
 74
     0
 42
0.000000001
 43
0.00000001
 40
0.0
 40
0.0
 40
0.0
 40
0.0
 40
0.5
 40
0.5
 40
1.0
 40
1.0
 40
1.0
 40
1.0
 10
26.45501006284558
 20
-7.710093128725466
 30
0.0
 10
26.41821336893044
 20
-7.689748461170163
 30
0.0
 10
26.37502000757993
 20
-7.67927574191374
 30
0.0
 10
26.28121396974437
 20
-7.683555107252261
 30
0.0
 10
26.23051958548259
 20
-7.699102799879027
 30
0.0
 10
26.18599671990709
 20
-7.730023207179384
 30
0.0
  0
SPLINE
  5
176
330
1F
100
AcDbEntity
  8
0
  6
Continuous
 62
     1
370
    15
100
AcDbSpline
210
0.0
220
0.0
230
1.0
 70
     8
 71
     3
 72
     8
 73
     4
 74
     0
 42
0.000000001
 43
0.00000001
 40
0.0
 40
0.0
 40
0.0
 40
0.0
 40
1.0
 40
1.0
 40
1.0
 40
1.0
 10
26.18599671990709
 20
-7.730023207179389
 30
0.0
 10
26.05298145139293
 20
-7.822400151620458
 30
0.0
 10
25.90713296382596
 20
-7.88074108385783
 30
0.0
 10
25.76343118229926
 20
-7.905279278812824
 30
0.0
  0
SPLINE
  5
177
330
1F
100
AcDbEntity
  8
0
  6
Continuous
 62
     1
370
    15
100
AcDbSpline
210
0.0
220
0.0
230
1.0
 70
     8
 71
     3
 72
     8
 73
     4
 74
     0
 42
0.000000001
 43
0.00000001
 40
0.0
 40
0.0
 40
0.0
 40
0.0
 40
1.0
 40
1.0
 40
1.0
 40
1.0
 10
25.76343118598483
 20
-7.90527927906011
 30
0.0
 10
25.61061225605311
 20
-7.895025708838103
 30
0.0
 10
25.46835423385477
 20
-7.846892704037359
 30
0.0
 10
25.34727554211338
 20
-7.769011528145199
 30
0.0
  0
SPLINE
  5
178
330
1F
100
AcDbEntity
  8
0
  6
Continuous
 62
     1
370
    15
100
AcDbSpline
210
0.0
220
0.0
230
1.0
 70
     8
 71
     3
 72
    10
 73
     6
 74
     0
 42
0.000000001
 43
0.00000001
 40
0.0
 40
0.0
 40
0.0
 40
0.0
 40
0.5
 40
0.5
 40
1.0
 40
1.0
 40
1.0
 40
1.0
 10
25.34727554211315
 20
-7.769011528145043
 30
0.0
 10
25.3107336781345
 20
-7.74550678676554
 30
0.0
 10
25.26771411491512
 20
-7.731997223648509
 30
0.0
 10
25.17404466268896
 20
-7.730966032536021
 30
0.0
 10
25.12328628577693
 20
-7.744263054589521
 30
0.0
 10
25.07846937782708
 20
-7.773945857161047
 30
0.0
  0
SPLINE
  5
179
330
1F
100
AcDbEntity
  8
0
  6
Continuous
 62
     1
370
    15
100
AcDbSpline
210
0.0
220
0.0
230
1.0
 70
     8
 71
     3
 72
    10
 73
     6
 74
     0
 42
0.000000001
 43
0.00000001
 40
0.0
 40
0.0
 40
0.0
 40
0.0
 40
0.5
 40
0.5
 40
1.0
 40
1.0
 40
1.0
 40
1.0
 10
25.07846937782707
 20
-7.77394585716106
 30
0.0
 10
24.90294681822602
 20
-7.890196658963763
 30
0.0
 10
24.70969176172288
 20
-7.941740109200802
 30
0.0
 10
24.34110607911467
 20
-7.932690912337865
 30
0.0
 10
24.16948478685859
 20
-7.872845421961713
 30
0.0
 10
24.02521974967833
 20
-7.770165153404291
 30
0.0
  0
SPLINE
  5
17A
330
1F
100
AcDbEntity
  8
0
  6
Continuous
 62
     1
370
    15
100
AcDbSpline
210
0.0
220
0.0
230
1.0
 70
     8
 71
     3
 72
    10
 73
     6
 74
     0
 42
0.000000001
 43
0.00000001
 40
0.0
 40
0.0
 40
0.0
 40
0.0
 40
0.5
 40
0.5
 40
1.0
 40
1.0
 40
1.0
 40
1.0
 10
24.02521974967815
 20
-7.770165153404166
 30
0.0
 10
23.98846807051996
 20
-7.744007240443
 30
0.0
 10
23.94531561389629
 20
-7.727956888255891
 30
0.0
 10
23.85157317763101
 20
-7.722744488297455
 30
0.0
 10
23.80091679078791
 20
-7.734458186528634
 30
0.0
 10
23.75643391471452
 20
-7.76339050124121
 30
0.0
  0
SPLINE
  5
17B
330
1F
100
AcDbEntity
  8
0
  6
Continuous
 62
     1
370
    15
100
AcDbSpline
210
0.0
220
0.0
230
1.0
 70
     8
 71
     3
 72
     8
 73
     4
 74
     0
 42
0.000000001
 43
0.00000001
 40
0.0
 40
0.0
 40
0.0
 40
0.0
 40
1.0
 40
1.0
 40
1.0
 40
1.0
 10
23.75643391471453
 20
-7.763390501241224
 30
0.0
 10
23.62351420226847
 20
-7.84984343080564
 30
0.0
 10
23.47774302439275
 20
-7.896741614593717
 30
0.0
 10
23.33409065884936
 20
-7.907797755174103
 30
0.0
  0
SPLINE
  5
17C
330
1F
100
AcDbEntity
  8
0
  6
Continuous
 62
     1
370
    15
100
AcDbSpline
210
0.0
220
0.0
230
1.0
 70
     8
 71
     3
 72
     8
 73
     4
 74
     0
 42
0.000000001
 43
0.00000001
 40
0.0
 40
0.0
 40
0.0
 40
0.0
 40
1.0
 40
1.0
 40
1.0
 40
1.0
 10
23.33409066253224
 20
-7.907797755827565
 30
0.0
 10
23.18132237281903
 20
-7.880691749560038
 30
0.0
 10
23.03916965913933
 20
-7.814519185102148
 30
0.0
 10
22.91825718281009
 20
-7.718565765009663
 30
0.0
  0
SPLINE
  5
17D
330
1F
100
AcDbEntity
  8
0
  6
Continuous
 62
     1
370
    15
100
AcDbSpline
210
0.0
220
0.0
230
1.0
 70
     8
 71
     3
 72
    10
 73
     6
 74
     0
 42
0.000000001
 43
0.00000001
 40
0.0
 40
0.0
 40
0.0
 40
0.0
 40
0.5
 40
0.5
 40
1.0
 40
1.0
 40
1.0
 40
1.0
 10
22.91825718280987
 20
-7.71856576500948
 30
0.0
 10
22.88174406488494
 20
-7.689589776348068
 30
0.0
 10
22.83875171118696
 20
-7.670685426172197
 30
0.0
 10
22.74512875544757
 20
-7.66011794300006
 30
0.0
 10
22.69439158248201
 20
-7.669334605707382
 30
0.0
 10
22.64958908999624
 20
-7.696560285991026
 30
0.0
  0
SPLINE
  5
17E
330
1F
100
AcDbEntity
  8
0
  6
Continuous
 62
     1
370
    15
100
AcDbSpline
210
0.0
220
0.0
230
1.0
 70
     8
 71
     3
 72
    10
 73
     6
 74
     0
 42
0.000000001
 43
0.00000001
 40
0.0
 40
0.0
 40
0.0
 40
0.0
 40
0.4999999999999999
 40
0.4999999999999999
 40
1.0
 40
1.0
 40
1.0
 40
1.0
 10
22.64958908999624
 20
-7.69656028599103
 30
0.0
 10
22.47412116124368
 20
-7.80318903504485
 30
0.0
 10
22.28093287381413
 20
-7.837109974291998
 30
0.0
 10
21.91243780439899
 20
-7.790251396377217
 30
0.0
 10
21.74084657378376
 20
-7.710480714403785
 30
0.0
 10
21.59659432995398
 20
-7.588233014915652
 30
0.0
  0
SPLINE
  5
17F
330
1F
100
AcDbEntity
  8
0
  6
Continuous
 62
     1
370
    15
100
AcDbSpline
210
0.0
220
0.0
230
1.0
 70
     8
 71
     3
 72
    10
 73
     6
 74
     0
 42
0.000000001
 43
0.00000001
 40
0.0
 40
0.0
 40
0.0
 40
0.0
 40
0.5
 40
0.5
 40
1.0
 40
1.0
 40
1.0
 40
1.0
 10
21.5965943299538
 20
-7.588233014915497
 30
0.0
 10
21.55984348002452
 20
-7.557088217865468
 30
0.0
 10
21.51669040607493
 20
-7.535969234230187
 30
0.0
 10
21.42294397553379
 20
-7.521436980800484
 30
0.0
 10
21.37228499808723
 20
-7.528950408060471
 30
0.0
 10
21.32780138185307
 20
-7.555017129733226
 30
0.0
  0
SPLINE
  5
180
330
1F
100
AcDbEntity
  8
0
  6
Continuous
 62
     1
370
    15
100
AcDbSpline
210
0.0
220
0.0
230
1.0
 70
     8
 71
     3
 72
     8
 73
     4
 74
     0
 42
0.000000001
 43
0.00000001
 40
0.0
 40
0.0
 40
0.0
 40
0.0
 40
1.0
 40
1.0
 40
1.0
 40
1.0
 10
21.32780138185308
 20
-7.555017129733228
 30
0.0
 10
21.19488044495895
 20
-7.632906774501842
 30
0.0
 10
21.04909419376812
 20
-7.666914079944569
 30
0.0
 10
20.90541006406597
 20
-7.664176848822583
 30
0.0
  0
SPLINE
  5
181
330
1F
100
AcDbEntity
  8
0
  6
Continuous
 62
     1
370
    15
100
AcDbSpline
210
0.0
220
0.0
230
1.0
 70
     8
 71
     3
 72
     8
 73
     4
 74
     0
 42
0.000000001
 43
0.00000001
 40
0.0
 40
0.0
 40
0.0
 40
0.0
 40
1.0
 40
1.0
 40
1.0
 40
1.0
 10
20.90541006774967
 20
-7.66417684986086
 30
0.0
 10
20.75259997041312
 20
-7.6211065689993
 30
0.0
 10
20.61038115367605
 20
-7.539015967417654
 30
0.0
 10
20.48941362880688
 20
-7.427965814669559
 30
0.0
  0
SPLINE
  5
182
330
1F
100
AcDbEntity
  8
0
  6
Continuous
 62
     1
370
    15
100
AcDbSpline
210
0.0
220
0.0
230
1.0
 70
     8
 71
     3
 72
    10
 73
     6
 74
     0
 42
0.000000001
 43
0.00000001
 40
0.0
 40
0.0
 40
0.0
 40
0.0
 40
0.5
 40
0.5
 40
1.0
 40
1.0
 40
1.0
 40
1.0
 10
20.48941362880663
 20
-7.427965814669323
 30
0.0
 10
20.45286711401768
 20
-7.394415520455111
 30
0.0
 10
20.40984254070763
 20
-7.370707737504103
 30
0.0
 10
20.3161880658335
 20
-7.35092663132542
 30
0.0
 10
20.26544963957038
 20
-7.355754328850036
 30
0.0
 10
20.22063464443881
 20
-7.379664779759615
 30
0.0
  0
SPLINE
  5
183
330
1F
100
AcDbEntity
  8
0
  6
Continuous
 62
     1
370
    15
100
AcDbSpline
210
0.0
220
0.0
230
1.0
 70
     8
 71
     3
 72
    10
 73
     6
 74
     0
 42
0.000000001
 43
0.00000001
 40
0.0
 40
0.0
 40
0.0
 40
0.0
 40
0.5
 40
0.5
 40
1.0
 40
1.0
 40
1.0
 40
1.0
 10
20.2206346444388
 20
-7.379664779759626
 30
0.0
 10
20.04505452144719
 20
-7.473343243835409
 30
0.0
 10
19.85177545457141
 20
-7.488467230776683
 30
0.0
 10
19.48309062722299
 20
-7.405117013309681
 30
0.0
 10
19.31138661568307
 20
-7.307865140295963
 30
0.0
 10
19.16696994364228
 20
-7.169820794139985
 30
0.0
  0
SPLINE
  5
184
330
1F
100
AcDbEntity
  8
0
  6
Continuous
 62
     1
370
    15
100
AcDbSpline
210
0.0
220
0.0
230
1.0
 70
     8
 71
     3
 72
    10
 73
     6
 74
     0
 42
0.000000001
 43
0.00000001
 40
0.0
 40
0.0
 40
0.0
 40
0.0
 40
0.5
 40
0.5
 40
1.0
 40
1.0
 40
1.0
 40
1.0
 10
19.1669699436421
 20
-7.169820794139806
 30
0.0
 10
19.13017577491833
 20
-7.134650152883145
 30
0.0
 10
19.08698062694267
 20
-7.109108374532834
 30
0.0
 10
18.99316273481431
 20
-7.085679035488681
 30
0.0
 10
18.94246061658638
 20
-7.088733833016731
 30
0.0
 10
18.89793559656976
 20
-7.111129285764203
 30
0.0
  0
SPLINE
  5
185
330
1F
100
AcDbEntity
  8
0
  6
Continuous
 62
     1
370
    15
100
AcDbSpline
210
0.0
220
0.0
230
1.0
 70
     8
 71
     3
 72
     8
 73
     4
 74
     0
 42
0.000000001
 43
0.00000001
 40
0.0
 40
0.0
 40
0.0
 40
0.0
 40
1.0
 40
1.0
 40
1.0
 40
1.0
 10
18.89793559656977
 20
-7.111129285764232
 30
0.0
 10
18.76491721394442
 20
-7.178035643167771
 30
0.0
 10
18.61902407870749
 20
-7.198044824155282
 30
0.0
 10
18.4752275589673
 20
-7.181578678713835
 30
0.0
  0
SPLINE
  5
186
330
1F
100
AcDbEntity
  8
0
  6
Continuous
 62
     1
370
    15
100
AcDbSpline
210
0.0
220
0.0
230
1.0
 70
     8
 71
     3
 72
     8
 73
     4
 74
     0
 42
0.000000001
 43
0.00000001
 40
0.0
 40
0.0
 40
0.0
 40
0.0
 40
1.0
 40
1.0
 40
1.0
 40
1.0
 10
18.47522756265537
 20
-7.181578680105368
 30
0.0
 10
18.32225272835202
 20
-7.123859912112311
 30
0.0
 10
18.1798381275121
 20
-7.028411437729781
 30
0.0
 10
18.05867975437317
 20
-6.905657996179624
 30
0.0
  0
SPLINE
  5
187
330
1F
100
AcDbEntity
  8
0
  6
Continuous
 62
     1
370
    15
100
AcDbSpline
210
0.0
220
0.0
230
1.0
 70
     8
 71
     3
 72
    10
 73
     6
 74
     0
 42
0.000000001
 43
0.00000001
 40
0.0
 40
0.0
 40
0.0
 40
0.0
 40
0.5
 40
0.5
 40
1.0
 40
1.0
 40
1.0
 40
1.0
 10
18.05867975437294
 20
-6.905657996179388
 30
0.0
 10
18.02209469737161
 20
-6.868591291337822
 30
0.0
 10
17.97903520389228
 20
-6.840815386910622
 30
0.0
 10
17.8853163450083
 20
-6.81244095293428
 30
0.0
 10
17.83454125154248
 20
-6.812750551064262
 30
0.0
 10
17.78970263592103
 20
-6.832619156281138
 30
0.0
  0
SPLINE
  5
188
330
1F
100
AcDbEntity
  8
0
  6
Continuous
 62
     1
370
    15
100
AcDbSpline
210
0.0
220
0.0
230
1.0
 70
     8
 71
     3
 72
    10
 73
     6
 74
     0
 42
0.000000001
 43
0.00000001
 40
0.0
 40
0.0
 40
0.0
 40
0.0
 40
0.5
 40
0.5
 40
1.0
 40
1.0
 40
1.0
 40
1.0
 10
17.78970263592104
 20
-6.83261915628113
 30
0.0
 10
17.61403346286845
 20
-6.91046057488389
 30
0.0
 10
17.42080832615825
 20
-6.9062043095636
 30
0.0
 10
17.05213040977551
 20
-6.78893430648214
 30
0.0
 10
16.88039704008789
 20
-6.677228731473582
 30
0.0
 10
16.73598892353638
 20
-6.527605990556996
 30
0.0
  0
SPLINE
  5
189
330
1F
100
AcDbEntity
  8
0
  6
Continuous
 62
     1
370
    15
100
AcDbSpline
210
0.0
220
0.0
230
1.0
 70
     8
 71
     3
 72
    10
 73
     6
 74
     0
 42
0.000000001
 43
0.00000001
 40
0.0
 40
0.0
 40
0.0
 40
0.0
 40
0.5
 40
0.5
 40
1.0
 40
1.0
 40
1.0
 40
1.0
 10
16.73598892353618
 20
-6.527605990556809
 30
0.0
 10
16.69922232122426
 20
-6.489511734198716
 30
0.0
 10
16.65605621143943
 20
-6.460346335011034
 30
0.0
 10
16.56228435191995
 20
-6.42876673780831
 30
0.0
 10
16.51160518901656
 20
-6.427291348703873
 30
0.0
 10
16.46710257707804
 20
-6.445303379571616
 30
0.0
  0
SPLINE
  5
18A
330
1F
100
AcDbEntity
  8
0
  6
Continuous
 62
     1
370
    15
100
AcDbSpline
210
0.0
220
0.0
230
1.0
 70
     8
 71
     3
 72
     8
 73
     4
 74
     0
 42
0.000000001
 43
0.00000001
 40
0.0
 40
0.0
 40
0.0
 40
0.0
 40
1.0
 40
1.0
 40
1.0
 40
1.0
 10
16.46710257707805
 20
-6.44530337957166
 30
0.0
 10
16.33417431164448
 20
-6.499104896289225
 30
0.0
 10
16.1883720733197
 20
-6.504576744800765
 30
0.0
 10
16.04464346338573
 20
-6.474945420510279
 30
0.0
  0
SPLINE
  5
18B
330
1F
100
AcDbEntity
  8
0
  6
Continuous
 62
     1
370
    15
100
AcDbSpline
210
0.0
220
0.0
230
1.0
 70
     8
 71
     3
 72
     8
 73
     4
 74
     0
 42
0.000000001
 43
0.00000001
 40
0.0
 40
0.0
 40
0.0
 40
0.0
 40
1.0
 40
1.0
 40
1.0
 40
1.0
 10
16.04464346707002
 20
-6.474945422209789
 30
0.0
 10
15.89185308318834
 20
-6.404465415928556
 30
0.0
 10
15.74961731479976
 20
-6.298707479054958
 30
0.0
 10
15.62864828890936
 20
-6.168217823005588
 30
0.0
  0
SPLINE
  5
18C
330
1F
100
AcDbEntity
  8
0
  6
Continuous
 62
     1
370
    15
100
AcDbSpline
210
0.0
220
0.0
230
1.0
 70
     8
 71
     3
 72
    10
 73
     6
 74
     0
 42
0.000000001
 43
0.00000001
 40
0.0
 40
0.0
 40
0.0
 40
0.0
 40
0.5
 40
0.5
 40
1.0
 40
1.0
 40
1.0
 40
1.0
 10
15.62864828890912
 20
-6.168217823005309
 30
0.0
 10
15.59211263513064
 20
-6.128806702183233
 30
0.0
 10
15.54909789257895
 20
-6.097856935766877
 30
0.0
 10
15.45544773322635
 20
-6.061840990396506
 30
0.0
 10
15.40471414196413
 20
-6.057669683487967
 30
0.0
 10
15.35992127828963
 20
-6.072884504968105
 30
0.0
  0
SPLINE
  5
18D
330
1F
100
AcDbEntity
  8
0
  6
Continuous
 62
     1
370
    15
100
AcDbSpline
210
0.0
220
0.0
230
1.0
 70
     8
 71
     3
 72
    10
 73
     6
 74
     0
 42
0.000000001
 43
0.00000001
 40
0.0
 40
0.0
 40
0.0
 40
0.0
 40
0.5000000000000004
 40
0.5000000000000004
 40
1.0
 40
1.0
 40
1.0
 40
1.0
 10
15.35992127828964
 20
-6.072884504968133
 30
0.0
 10
15.18433991746823
 20
-6.132524341339181
 30
0.0
 10
14.99112284853093
 20
-6.109323782689689
 30
0.0
 10
14.62280829597741
 20
-5.961731821593261
 30
0.0
 10
14.45123824021572
 20
-5.839044779162139
 30
0.0
 10
14.30697655836911
 20
-5.682615702400103
 30
0.0
  0
SPLINE
  5
18E
330
1F
100
AcDbEntity
  8
0
  6
Continuous
 62
     1
370
    15
100
AcDbSpline
210
0.0
220
0.0
230
1.0
 70
     8
 71
     3
 72
    10
 73
     6
 74
     0
 42
0.000000001
 43
0.00000001
 40
0.0
 40
0.0
 40
0.0
 40
0.0
 40
0.5
 40
0.5
 40
1.0
 40
1.0
 40
1.0
 40
1.0
 10
14.30697655836892
 20
-5.682615702399877
 30
0.0
 10
14.27023774074576
 20
-5.642778240029019
 30
0.0
 10
14.22709735259512
 20
-5.610897231428805
 30
0.0
 10
14.13336768771184
 20
-5.572147282712779
 30
0.0
 10
14.08270946799185
 20
-5.566182236008764
 30
0.0
 10
14.03822398796889
 20
-5.579247784551043
 30
0.0
  0
SPLINE
  5
18F
330
1F
100
AcDbEntity
  8
0
  6
Continuous
 62
     1
370
    15
100
AcDbSpline
210
0.0
220
0.0
230
1.0
 70
     8
 71
     3
 72
     8
 73
     4
 74
     0
 42
0.000000001
 43
0.00000001
 40
0.0
 40
0.0
 40
0.0
 40
0.0
 40
1.0
 40
1.0
 40
1.0
 40
1.0
 10
14.03822398796888
 20
-5.579247784551043
 30
0.0
 10
13.90533948189703
 20
-5.618276451066578
 30
0.0
 10
13.75958193365775
 20
-5.60900923641325
 30
0.0
 10
13.61588321026788
 20
-5.567122099284164
 30
0.0
  0
SPLINE
  5
190
330
1F
100
AcDbEntity
  8
0
  6
Continuous
 62
     1
370
    15
100
AcDbSpline
210
0.0
220
0.0
230
1.0
 70
     8
 71
     3
 72
     8
 73
     4
 74
     0
 42
0.000000001
 43
0.00000001
 40
0.0
 40
0.0
 40
0.0
 40
0.0
 40
1.0
 40
1.0
 40
1.0
 40
1.0
 10
13.61588321395023
 20
-5.56712210123915
 30
0.0
 10
13.46314038000326
 20
-5.486041900258494
 30
0.0
 10
13.32094175436985
 20
-5.373242926967396
 30
0.0
 10
13.20000032400184
 20
-5.239047704904376
 30
0.0
  0
SPLINE
  5
191
330
1F
100
AcDbEntity
  8
0
  6
Continuous
 62
     1
370
    15
100
AcDbSpline
210
0.0
220
0.0
230
1.0
 70
     8
 71
     3
 72
    10
 73
     6
 74
     0
 42
0.000000001
 43
0.00000001
 40
0.0
 40
0.0
 40
0.0
 40
0.0
 40
0.5
 40
0.5
 40
1.0
 40
1.0
 40
1.0
 40
1.0
 10
13.20000032400161
 20
-5.239047704904083
 30
0.0
 10
13.16346938393978
 20
-5.198513393387733
 30
0.0
 10
13.12045736724397
 20
-5.165345653514855
 30
0.0
 10
13.02680760117744
 20
-5.122788798679418
 30
0.0
 10
12.97607507570729
 20
-5.114246414503079
 30
0.0
 10
12.93128683446859
 20
-5.124343589112582
 30
0.0
  0
SPLINE
  5
192
330
1F
100
AcDbEntity
  8
0
  6
Continuous
 62
     1
370
    15
100
AcDbSpline
210
0.0
220
0.0
230
1.0
 70
     8
 71
     3
 72
    10
 73
     6
 74
     0
 42
0.000000001
 43
0.00000001
 40
0.0
 40
0.0
 40
0.0
 40
0.0
 40
0.5
 40
0.5
 40
0.8657057512605578
 40
0.8657057512605578
 40
0.8657057512605578
 40
0.8657057512605578
 10
12.93128683446859
 20
-5.124343589112618
 30
0.0
 10
12.75565979717992
 20
-5.163937393482001
 30
0.0
 10
12.56231451782928
 20
-5.122500847149951
 30
0.0
 10
12.24334253441121
 20
-4.972602527462239
 30
0.0
 10
12.11543459653628
 20
-4.886042982642214
 30
0.0
 10
12.0
 20
-4.782125156239278
 30
0.0
  0
SPLINE
  5
193
330
1F
100
AcDbEntity
  8
외형선
  6
Continuous
370
    15
100
AcDbSpline
210
0.0
220
0.0
230
1.0
 70
     8
 71
     3
 72
    10
 73
     6
 74
     0
 42
0.000000001
 43
0.00000001
 40
0.0
 40
0.0
 40
0.0
 40
0.0
 40
0.5
 40
0.5
 40
1.0
 40
1.0
 40
1.0
 40
1.0
 10
11.8781557068916
 20
-4.660912043573317
 30
0.0
 10
11.84140039993101
 20
-4.620547875998925
 30
0.0
 10
11.79824413733595
 20
-4.586916629488281
 30
0.0
 10
11.70448894982861
 20
-4.542144073471558
 30
0.0
 10
11.65381094722644
 20
-4.531834685547844
 30
0.0
 10
11.6093017350658
 20
-4.539534389061933
 30
0.0
  0
SPLINE
  5
194
330
1F
100
AcDbEntity
  8
외형선
  6
Continuous
370
    15
100
AcDbSpline
210
0.0
220
0.0
230
1.0
 70
     8
 71
     3
 72
     8
 73
     4
 74
     0
 42
0.000000001
 43
0.00000001
 40
0.0
 40
0.0
 40
0.0
 40
0.0
 40
1.0
 40
1.0
 40
1.0
 40
1.0
 10
11.60930173506578
 20
-4.539534389061869
 30
0.0
 10
11.50790102285448
 20
-4.557075823345791
 30
0.0
 10
11.39826217279652
 20
-4.547099754367926
 30
0.0
 10
11.2889443513412
 20
-4.518187568543199
 30
0.0
  0
SPLINE
  5
195
330
1F
100
AcDbEntity
  8
외형선
  6
Continuous
370
    15
100
AcDbSpline
210
0.0
220
0.0
230
1.0
 70
     8
 71
     3
 72
     8
 73
     4
 74
     0
 42
0.000000001
 43
0.00000001
 40
0.0
 40
0.0
 40
0.0
 40
0.0
 40
1.0
 40
1.0
 40
1.0
 40
1.0
 10
11.28894435134143
 20
-4.518187568542098
 30
0.0
 10
11.23674434310544
 20
-4.496435925069086
 30
0.0
 10
11.18455173942531
 20
-4.474566679418354
 30
0.0
 10
11.13236657401802
 20
-4.452579406619373
 30
0.0
  0
SPLINE
  5
196
330
1F
100
AcDbEntity
  8
외형선
  6
Continuous
370
    15
100
AcDbSpline
210
0.0
220
0.0
230
1.0
 70
     8
 71
     3
 72
     8
 73
     4
 74
     0
 42
0.000000001
 43
0.00000001
 40
0.0
 40
0.0
 40
0.0
 40
0.0
 40
1.0
 40
1.0
 40
1.0
 40
1.0
 10
11.13236657401786
 20
-4.452579406620579
 30
0.0
 10
11.00045186627878
 20
-4.368508241811293
 30
0.0
 10
10.87713735196851
 20
-4.264113668428237
 30
0.0
 10
10.77057283051997
 20
-4.146343689084391
 30
0.0
  0
SPLINE
  5
197
330
1F
100
AcDbEntity
  8
외형선
  6
Continuous
370
    15
100
AcDbSpline
210
0.0
220
0.0
230
1.0
 70
     8
 71
     3
 72
    10
 73
     6
 74
     0
 42
0.000000001
 43
0.00000001
 40
0.0
 40
0.0
 40
0.0
 40
0.0
 40
0.5
 40
0.5
 40
1.0
 40
1.0
 40
1.0
 40
1.0
 10
10.77057283051996
 20
-4.14634368908435
 30
0.0
 10
10.73400189715109
 20
-4.1059272539623
 30
0.0
 10
10.69095059059815
 20
-4.071551000906107
 30
0.0
 10
10.59723301003897
 20
-4.023728961660172
 30
0.0
 10
10.54646109738357
 20
-4.011045937776466
 30
0.0
 10
10.50163637764138
 20
-4.015700278077983
 30
0.0
  0
SPLINE
  5
198
330
1F
100
AcDbEntity
  8
외형선
  6
Continuous
370
    15
100
AcDbSpline
210
0.0
220
0.0
230
1.0
 70
     8
 71
     3
 72
    10
 73
     6
 74
     0
 42
0.000000001
 43
0.00000001
 40
0.0
 40
0.0
 40
0.0
 40
0.0
 40
0.5
 40
0.5
 40
1.0
 40
1.0
 40
1.0
 40
1.0
 10
10.50163637764137
 20
-4.015700278077972
 30
0.0
 10
10.32584949267843
 20
-4.033952974087388
 30
0.0
 10
10.13231492158312
 20
-3.975431592573539
 30
0.0
 10
9.763470844145877
 20
-3.782096827679879
 30
0.0
 10
9.591801825356608
 20
-3.648993323761486
 30
0.0
 10
9.447432331108207
 20
-3.493386872491598
 30
0.0
  0
SPLINE
  5
199
330
1F
100
AcDbEntity
  8
외형선
  6
Continuous
370
    15
100
AcDbSpline
210
0.0
220
0.0
230
1.0
 70
     8
 71
     3
 72
    10
 73
     6
 74
     0
 42
0.000000001
 43
0.00000001
 40
0.0
 40
0.0
 40
0.0
 40
0.0
 40
0.5
 40
0.5
 40
1.0
 40
1.0
 40
1.0
 40
1.0
 10
9.4474323311082
 20
-3.493386872491607
 30
0.0
 10
9.410643073661173
 20
-3.453734134037477
 30
0.0
 10
9.367458544561877
 20
-3.419374548202118
 30
0.0
 10
9.27365743354516
 20
-3.369921336528279
 30
0.0
 10
9.22294522604344
 20
-3.355558321127235
 30
0.0
 10
9.178398491634486
 20
-3.357629581414543
 30
0.0
  0
SPLINE
  5
19A
330
1F
100
AcDbEntity
  8
0
  6
Continuous
 62
     1
370
    15
100
AcDbSpline
210
0.0
220
0.0
230
1.0
 70
     8
 71
     3
 72
    12
 73
     8
 74
     0
 42
0.000000001
 43
0.00000001
 40
0.0
 40
0.0
 40
0.0
 40
0.0
 40
0.4999999999999999
 40
0.4999999999999999
 40
0.7499999999999998
 40
0.7499999999999998
 40
1.0
 40
1.0
 40
1.0
 40
1.0
 10
29.16640707213282
 20
4.513191463407664
 30
0.0
 10
29.12604090385415
 20
3.854103359780426
 30
0.0
 10
29.08427190963709
 20
3.117079468758887
 30
0.0
 10
29.02374979159199
 20
1.969413149971574
 30
0.0
 10
29.00393263925696
 20
1.580106541047359
 30
0.0
 10
28.96563495780682
 20
0.8016047968669793
 30
0.0
 10
28.94615814581029
 20
0.4057403543521125
 30
0.0
 10
28.92609540097698
 20
0.0059318063436129
 30
0.0
  0
SPLINE
  5
19B
330
1F
100
AcDbEntity
  8
0
  6
Continuous
 62
     1
370
    15
100
AcDbSpline
210
0.0
220
0.0
230
1.0
 70
     8
 71
     3
 72
     8
 73
     4
 74
     0
 42
0.000000001
 43
0.00000001
 40
0.0
 40
0.0
 40
0.0
 40
0.0
 40
1.0
 40
1.0
 40
1.0
 40
1.0
 10
29.58883299291588
 20
4.278519419520986
 30
0.0
 10
29.45590709888112
 20
4.357008079154307
 30
0.0
 10
29.31011045790403
 20
4.440368830455514
 30
0.0
 10
29.16640707213281
 20
4.51319146340766
 30
0.0
  0
LINE
  5
19C
330
1F
100
AcDbEntity
  8
외형선
  6
Continuous
370
    15
100
AcDbLine
 10
-44.14999851584435
 20
7.937500253319735
 30
0.0
 11
-44.14999851584435
 21
-7.937500253319747
 31
0.0
  0
SPLINE
  5
19D
330
1F
100
AcDbEntity
  8
외형선
  6
Continuous
370
    15
100
AcDbSpline
210
0.0
220
0.0
230
1.0
 70
     8
 71
     3
 72
    11
 73
     7
 74
     0
 42
0.000000001
 43
0.00000001
 40
0.0
 40
0.0
 40
0.0
 40
0.0
 40
0.0192861109234547
 40
0.370994431911236
 40
0.6978994691550893
 40
1.0
 40
1.0
 40
1.0
 40
1.0
 10
9.547847848385572
 20
7.937018759548659
 30
0.0
 10
9.547454064733037
 20
7.937132051774425
 30
0.0
 10
9.539879103505836
 20
7.939311380987284
 30
0.0
 10
9.525769385069294
 20
7.925946170092953
 30
0.0
 10
9.506067190067633
 20
7.894693861893998
 30
0.0
 10
9.493636968770138
 20
7.858411943517378
 30
0.0
 10
9.487666947767138
 20
7.840986363589758
 30
0.0
  0
LINE
  5
19E
330
1F
100
AcDbEntity
  8
외형선
  6
Continuous
370
    15
100
AcDbLine
 10
8.950194170698524
 20
7.883292622864241
 30
0.0
 11
8.950194170698524
 21
5.79661270603537
 31
0.0
  0
SPLINE
  5
19F
330
1F
100
AcDbEntity
  8
외형선
  6
Continuous
370
    15
100
AcDbSpline
210
0.0
220
0.0
230
1.0
 70
     8
 71
     3
 72
    12
 73
     8
 74
     0
 42
0.000000001
 43
0.00000001
 40
0.0
 40
0.0
 40
0.0
 40
0.0
 40
0.2499999999999999
 40
0.2499999999999999
 40
0.4999999999999998
 40
0.4999999999999998
 40
1.0
 40
1.0
 40
1.0
 40
1.0
 10
9.241980615118948
 20
5.680198634182737
 30
0.0
 10
9.222681135443555
 20
5.404588171495874
 30
0.0
 10
9.203562999506094
 20
5.108944484429061
 30
0.0
 10
9.163670717901548
 20
4.472867700658677
 30
0.0
 10
9.143279492813218
 20
4.134221185252763
 30
0.0
 10
9.081799959124712
 20
3.07247538343821
 30
0.0
 10
9.040442667589076
 20
2.303318746049844
 30
0.0
 10
9.00145093508614
 20
1.526305220664364
 30
0.0
  0
LINE
  5
1A0
330
1F
100
AcDbEntity
  8
외형선
  6
Continuous
370
    15
100
AcDbLine
 10
8.950194170698524
 20
1.555325346998865
 30
0.0
 11
8.950194170698524
 21
0.4887902759946824
 31
0.0
  0
SPLINE
  5
1A1
330
1F
100
AcDbEntity
  8
0
  6
Continuous
 62
     1
370
    15
100
AcDbSpline
210
0.0
220
0.0
230
1.0
 70
     8
 71
     3
 72
     8
 73
     4
 74
     0
 42
0.000000001
 43
0.00000001
 40
0.0
 40
0.0
 40
0.0
 40
0.0
 40
1.0
 40
1.0
 40
1.0
 40
1.0
 10
29.16640707581704
 20
4.513191461778613
 30
0.0
 10
29.01358005323357
 20
4.580766364072979
 30
0.0
 10
28.87133493849689
 20
4.631735009722599
 30
0.0
 10
28.75033756856523
 20
4.666306948745002
 30
0.0
  0
LINE
  5
1A2
330
1F
100
AcDbEntity
  8
외형선
  6
Continuous
370
    15
100
AcDbLine
 10
-45.15000054240227
 20
6.937500089406962
 30
0.0
 11
-45.15000054240227
 21
-6.937500089406972
 31
0.0
  0
SPLINE
  5
1A3
330
1F
100
AcDbEntity
  8
0
  6
Continuous
 62
     1
370
    15
100
AcDbSpline
210
0.0
220
0.0
230
1.0
 70
     8
 71
     3
 72
    12
 73
     8
 74
     0
 42
0.000000001
 43
0.00000001
 40
0.0
 40
0.0
 40
0.0
 40
0.0
 40
0.5000000000000001
 40
0.5000000000000001
 40
0.75
 40
0.75
 40
1.0
 40
1.0
 40
1.0
 40
1.0
 10
21.39121164685188
 20
-0.6839320825600048
 30
0.0
 10
21.35037852800414
 20
-1.485322548911794
 30
0.0
 10
21.30873392913043
 20
-2.280841747787684
 30
0.0
 10
21.24924525437966
 20
-3.386067128119338
 30
0.0
 10
21.23036370430017
 20
-3.737391281079771
 30
0.0
 10
21.19139160183609
 20
-4.416966530030789
 30
0.0
 10
21.17131481931006
 20
-4.744848427936802
 30
0.0
 10
21.15097287836065
 20
-5.054572908511336
 30
0.0
  0
SPLINE
  5
1A4
330
1F
100
AcDbEntity
  8
0
  6
Continuous
 62
     1
370
    15
100
AcDbSpline
210
0.0
220
0.0
230
1.0
 70
     8
 71
     3
 72
    12
 73
     8
 74
     0
 42
0.000000001
 43
0.00000001
 40
0.0
 40
0.0
 40
0.0
 40
0.0
 40
0.2500000000000001
 40
0.2500000000000001
 40
0.5000000000000001
 40
0.5000000000000001
 40
1.0
 40
1.0
 40
1.0
 40
1.0
 10
26.73582358383166
 20
5.591349182689372
 30
0.0
 10
26.71666205846232
 20
5.311952432787132
 30
0.0
 10
26.69725483199269
 20
5.010774708608896
 30
0.0
 10
26.65718304029135
 20
4.366090935364371
 30
0.0
 10
26.6367372441586
 20
4.023644506605605
 30
0.0
 10
26.57520875239235
 20
2.952456202715563
 30
0.0
 10
26.53397596117458
 20
2.179703390444971
 30
0.0
 10
26.49523957205074
 20
1.402070768529218
 30
0.0
  0
SPLINE
  5
1A5
330
1F
100
AcDbEntity
  8
0
  6
Continuous
 62
     1
370
    15
100
AcDbSpline
210
0.0
220
0.0
230
1.0
 70
     8
 71
     3
 72
     8
 73
     4
 74
     0
 42
0.000000001
 43
0.00000001
 40
0.0
 40
0.0
 40
0.0
 40
0.0
 40
1.0
 40
1.0
 40
1.0
 40
1.0
 10
27.15858269686623
 20
5.354540654398928
 30
0.0
 10
27.02555055690695
 20
5.441491868665343
 30
0.0
 10
26.87964245173399
 20
5.524712322643532
 30
0.0
 10
26.73582358383166
 20
5.591349182689365
 30
0.0
  0
SPLINE
  5
1A6
330
1F
100
AcDbEntity
  8
0
  6
Continuous
 62
     1
370
    15
100
AcDbSpline
210
0.0
220
0.0
230
1.0
 70
     8
 71
     3
 72
     8
 73
     4
 74
     0
 42
0.000000001
 43
0.00000001
 40
0.0
 40
0.0
 40
0.0
 40
0.0
 40
1.0
 40
1.0
 40
1.0
 40
1.0
 10
26.73582358751974
 20
5.59134918138067
 30
0.0
 10
26.58288313985739
 20
5.645619309657928
 30
0.0
 10
26.44049527077141
 20
5.67729610841252
 30
0.0
 10
26.31936814622206
 20
5.688422384969241
 30
0.0
  0
SPLINE
  5
1A7
330
1F
100
AcDbEntity
  8
0
  6
Continuous
 62
     1
370
    15
100
AcDbSpline
210
0.0
220
0.0
230
1.0
 70
     8
 71
     3
 72
    10
 73
     6
 74
     0
 42
0.000000001
 43
0.00000001
 40
0.0
 40
0.0
 40
0.0
 40
0.0
 40
0.5
 40
0.5
 40
1.0
 40
1.0
 40
1.0
 40
1.0
 10
26.05044106703434
 20
5.790503178752621
 30
0.0
 10
25.87477140347555
 20
5.908149802237078
 30
0.0
 10
25.68152735924951
 20
6.00947086001857
 30
0.0
 10
25.31297080363513
 20
6.141935035489299
 30
0.0
 10
25.14128459010381
 20
6.172622448661642
 30
0.0
 10
24.99691443746869
 20
6.17160036753943
 30
0.0
  0
SPLINE
  5
1A8
330
1F
100
AcDbEntity
  8
0
  6
Continuous
 62
     1
370
    15
100
AcDbSpline
210
0.0
220
0.0
230
1.0
 70
     8
 71
     3
 72
    10
 73
     6
 74
     0
 42
0.000000001
 43
0.00000001
 40
0.0
 40
0.0
 40
0.0
 40
0.0
 40
0.5
 40
0.5
 40
1.0
 40
1.0
 40
1.0
 40
1.0
 10
29.85764832787134
 20
4.150652025907418
 30
0.0
 10
29.82089425945409
 20
4.164353134612893
 30
0.0
 10
29.77773791467209
 20
4.182692335942919
 30
0.0
 10
29.68398465439196
 20
4.226582408162123
 30
0.0
 10
29.63332080347771
 20
4.25225073314976
 30
0.0
 10
29.58883299291608
 20
4.278519419520913
 30
0.0
  0
SPLINE
  5
1A9
330
1F
100
AcDbEntity
  8
0
  6
Continuous
 62
     1
370
    15
100
AcDbSpline
210
0.0
220
0.0
230
1.0
 70
     8
 71
     3
 72
    10
 73
     6
 74
     0
 42
0.000000001
 43
0.00000001
 40
0.0
 40
0.0
 40
0.0
 40
0.0
 40
0.5
 40
0.5
 40
1.0
 40
1.0
 40
1.0
 40
1.0
 10
28.75033756856523
 20
4.666306948745014
 30
0.0
 10
28.71378289890875
 20
4.676751521309374
 30
0.0
 10
28.67074959747679
 20
4.692598817166881
 30
0.0
 10
28.57707679655971
 20
4.73370851478142
 30
0.0
 10
28.52632851321043
 20
4.759174384299641
 30
0.0
 10
28.48151202661386
 20
4.786919773228723
 30
0.0
  0
SPLINE
  5
1AA
330
1F
100
AcDbEntity
  8
0
  6
Continuous
 62
     1
370
    15
100
AcDbSpline
210
0.0
220
0.0
230
1.0
 70
     8
 71
     3
 72
    12
 73
     8
 74
     0
 42
0.000000001
 43
0.00000001
 40
0.0
 40
0.0
 40
0.0
 40
0.0
 40
0.2500000000000001
 40
0.2500000000000001
 40
0.5000000000000002
 40
0.5000000000000002
 40
1.0
 40
1.0
 40
1.0
 40
1.0
 10
23.81983755391455
 20
-2.063179784446145
 30
0.0
 10
23.79942088299966
 20
-2.451554201966729
 30
0.0
 10
23.77921366412044
 20
-2.830585950679938
 30
0.0
 10
23.73988368123507
 20
-3.557874521665707
 30
0.0
 10
23.72109964874132
 20
-3.904349035113031
 30
0.0
 10
23.66209747397032
 20
-4.91179487900232
 30
0.0
 10
23.62057065135023
 20
-5.530473046098669
 30
0.0
 10
23.57962361152084
 20
-6.051492667573717
 30
0.0
  0
SPLINE
  5
1AB
330
1F
100
AcDbEntity
  8
0
  6
Continuous
 62
     1
370
    15
100
AcDbSpline
210
0.0
220
0.0
230
1.0
 70
     8
 71
     3
 72
    10
 73
     6
 74
     0
 42
0.000000001
 43
0.00000001
 40
0.0
 40
0.0
 40
0.0
 40
0.0
 40
0.5
 40
0.5
 40
1.0
 40
1.0
 40
1.0
 40
1.0
 10
27.42767422224954
 20
5.242722811406408
 30
0.0
 10
27.39087033495624
 20
5.249569250612135
 30
0.0
 10
27.34766594557639
 20
5.262560244715047
 30
0.0
 10
27.25383189880836
 20
5.300348232092519
 30
0.0
 10
27.20311877756425
 20
5.325431400826504
 30
0.0
 10
27.15858269686644
 20
5.354540654398829
 30
0.0
  0
SPLINE
  5
1AC
330
1F
100
AcDbEntity
  8
0
  6
Continuous
 62
     1
370
    15
100
AcDbSpline
210
0.0
220
0.0
230
1.0
 70
     8
 71
     3
 72
    10
 73
     6
 74
     0
 42
0.000000001
 43
0.00000001
 40
0.0
 40
0.0
 40
0.0
 40
0.0
 40
0.5
 40
0.5
 40
1.0
 40
1.0
 40
1.0
 40
1.0
 10
26.31936814622206
 20
5.688422384969245
 30
0.0
 10
26.28279343940257
 20
5.6917819983058
 30
0.0
 10
26.23974298790269
 20
5.701951775031507
 30
0.0
 10
26.14603579657926
 20
5.736122983439671
 30
0.0
 10
26.09526849488091
 20
5.760482084507876
 30
0.0
 10
26.05044106703434
 20
5.790503178752619
 30
0.0
  0
SPLINE
  5
1AD
330
1F
100
AcDbEntity
  8
0
  6
Continuous
 62
     1
370
    15
100
AcDbSpline
210
0.0
220
0.0
230
1.0
 70
     8
 71
     3
 72
     8
 73
     4
 74
     0
 42
0.000000001
 43
0.00000001
 40
0.0
 40
0.0
 40
0.0
 40
0.0
 40
1.0
 40
1.0
 40
1.0
 40
1.0
 10
31.04994631581669
 20
3.563000762098478
 30
0.0
 10
31.04935156394797
 20
3.062726319436625
 30
0.0
 10
31.04422811131412
 20
2.538197106665734
 30
0.0
 10
31.03702993631071
 20
1.996517392397463
 30
0.0
  0
SPLINE
  5
1AE
330
1F
100
AcDbEntity
  8
0
  6
Continuous
 62
     1
370
    15
100
AcDbSpline
210
0.0
220
0.0
230
1.0
 70
     8
 71
     3
 72
     8
 73
     4
 74
     0
 42
0.000000001
 43
0.00000001
 40
0.0
 40
0.0
 40
0.0
 40
0.0
 40
1.0
 40
1.0
 40
1.0
 40
1.0
 10
31.05
 20
3.562987570873046
 30
0.0
 10
31.00352103098831
 20
3.586236613816629
 30
0.0
 10
30.95450400522991
 20
3.611173872688009
 30
0.0
 10
30.91067460501293
 20
3.635218952602347
 30
0.0
  0
SPLINE
  5
1AF
330
1F
100
AcDbEntity
  8
0
  6
Continuous
 62
     1
370
    15
100
AcDbSpline
210
0.0
220
0.0
230
1.0
 70
     8
 71
     3
 72
    12
 73
     8
 74
     0
 42
0.000000001
 43
0.00000001
 40
0.0
 40
0.0
 40
0.0
 40
0.0
 40
0.2500000000000002
 40
0.2500000000000002
 40
0.5000000000000003
 40
0.5000000000000003
 40
1.0
 40
1.0
 40
1.0
 40
1.0
 10
24.30564477573444
 20
6.49505327162708
 30
0.0
 10
24.28534362780107
 20
6.264301084607322
 30
0.0
 10
24.26533327190596
 20
6.009613265392094
 30
0.0
 10
24.22653799818294
 20
5.462989496884719
 30
0.0
 10
24.20754549082986
 20
5.170451213963108
 30
0.0
 10
24.14784727038788
 20
4.224002832554757
 30
0.0
 10
24.10616094239495
 20
3.508046470922835
 30
0.0
 10
24.06539299539169
 20
2.754044588786932
 30
0.0
  0
SPLINE
  5
1B0
330
1F
100
AcDbEntity
  8
0
  6
Continuous
 62
     1
370
    15
100
AcDbSpline
210
0.0
220
0.0
230
1.0
 70
     8
 71
     3
 72
     8
 73
     4
 74
     0
 42
0.000000001
 43
0.00000001
 40
0.0
 40
0.0
 40
0.0
 40
0.0
 40
1.0
 40
1.0
 40
1.0
 40
1.0
 10
24.72806664758068
 20
6.263692177873393
 30
0.0
 10
24.59515325046463
 20
6.356298094872873
 30
0.0
 10
24.44936635304401
 20
6.436732552438167
 30
0.0
 10
24.30564477573441
 20
6.49505327162707
 30
0.0
  0
LINE
  5
1B1
330
1F
100
AcDbEntity
  8
0
  6
Continuous
 62
     1
370
    15
100
AcDbLine
 10
31.05000039935112
 20
2.010421128943557
 30
0.0
 11
31.05000039935112
 21
3.562985453754658
 31
0.0
  0
SPLINE
  5
1B2
330
1F
100
AcDbEntity
  8
0
  6
Continuous
 62
     1
370
    15
100
AcDbSpline
210
0.0
220
0.0
230
1.0
 70
     8
 71
     3
 72
     8
 73
     4
 74
     0
 42
0.000000001
 43
0.00000001
 40
0.0
 40
0.0
 40
0.0
 40
0.0
 40
1.0
 40
1.0
 40
1.0
 40
1.0
 10
24.30564477941831
 20
6.495053270681925
 30
0.0
 10
24.15287576035314
 20
6.534247675001081
 30
0.0
 10
24.01065313763661
 20
6.545557716564895
 30
0.0
 10
23.88969564151544
 20
6.53283568558593
 30
0.0
  0
SPLINE
  5
1B3
330
1F
100
AcDbEntity
  8
0
  6
Continuous
 62
     1
370
    15
100
AcDbSpline
210
0.0
220
0.0
230
1.0
 70
     8
 71
     3
 72
    10
 73
     6
 74
     0
 42
0.000000001
 43
0.00000001
 40
0.0
 40
0.0
 40
0.0
 40
0.0
 40
0.5
 40
0.5
 40
1.0
 40
1.0
 40
1.0
 40
1.0
 10
24.99691443746868
 20
6.171600367539437
 30
0.0
 10
24.96015626881474
 20
6.171340134869578
 30
0.0
 10
24.91699824664518
 20
6.178540525199166
 30
0.0
 10
24.8232393830263
 20
6.208995437027147
 30
0.0
 10
24.77256554702983
 20
6.232688069345823
 30
0.0
 10
24.72806664758089
 20
6.263692177873281
 30
0.0
  0
SPLINE
  5
1B4
330
1F
100
AcDbEntity
  8
0
  6
Continuous
 62
     1
370
    15
100
AcDbSpline
210
0.0
220
0.0
230
1.0
 70
     8
 71
     3
 72
    10
 73
     6
 74
     0
 42
0.000000001
 43
0.00000001
 40
0.0
 40
0.0
 40
0.0
 40
0.0
 40
0.5000000000000002
 40
0.5000000000000002
 40
1.0
 40
1.0
 40
1.0
 40
1.0
 10
23.62098334317079
 20
6.613186194960772
 30
0.0
 10
23.44539279834083
 20
6.73608810942509
 30
0.0
 10
23.25210679638617
 20
6.828587431974816
 30
0.0
 10
22.8837649843277
 20
6.92875322207194
 30
0.0
 10
22.71230160678029
 20
6.93627458577949
 30
0.0
 10
22.56807001805242
 20
6.907453212889402
 30
0.0
  0
SPLINE
  5
1B5
330
1F
100
AcDbEntity
  8
0
  6
Continuous
 62
     1
370
    15
100
AcDbSpline
210
0.0
220
0.0
230
1.0
 70
     8
 71
     3
 72
    12
 73
     8
 74
     0
 42
0.000000001
 43
0.00000001
 40
0.0
 40
0.0
 40
0.0
 40
0.0
 40
0.2500000000000002
 40
0.2500000000000002
 40
0.5000000000000004
 40
0.5000000000000004
 40
1.0
 40
1.0
 40
1.0
 40
1.0
 10
26.24954994862498
 20
-3.378663983340426
 30
0.0
 10
26.23008982109531
 20
-3.736714540466197
 30
0.0
 10
26.21120535092065
 20
-4.078898617610339
 30
0.0
 10
26.17154937694233
 20
-4.740974754970143
 30
0.0
 10
26.1512341078966
 20
-5.057971487375601
 30
0.0
 10
26.08984306547351
 20
-5.948913508986777
 30
0.0
 10
26.0483537711627
 20
-6.460869958699643
 30
0.0
 10
26.00906695301402
 20
-6.860179218374947
 30
0.0
  0
SPLINE
  5
1B6
330
1F
100
AcDbEntity
  8
0
  6
Continuous
 62
     1
370
    15
100
AcDbSpline
210
0.0
220
0.0
230
1.0
 70
     8
 71
     3
 72
    10
 73
     6
 74
     0
 42
0.000000001
 43
0.00000001
 40
0.0
 40
0.0
 40
0.0
 40
0.0
 40
0.5
 40
0.5
 40
1.0
 40
1.0
 40
1.0
 40
1.0
 10
23.88969564151545
 20
6.532835685585932
 30
0.0
 10
23.85316369673598
 20
6.528993339736271
 30
0.0
 10
23.81015188353026
 20
6.533164737764524
 30
0.0
 10
23.71650388065883
 20
6.559337681719505
 30
0.0
 10
23.66577198253538
 20
6.581837072321564
 30
0.0
 10
23.62098334317079
 20
6.61318619496077
 30
0.0
  0
SPLINE
  5
1B7
330
1F
100
AcDbEntity
  8
외형선
  6
Continuous
370
    15
100
AcDbSpline
210
0.0
220
0.0
230
1.0
 70
     8
 71
     3
 72
    10
 73
     6
 74
     0
 42
0.000000001
 43
0.00000001
 40
0.0
 40
0.0
 40
0.0
 40
0.0
 40
0.5
 40
0.5
 40
1.0
 40
1.0
 40
1.0
 40
1.0
 10
9.200595363377502
 20
-6.881548145492076
 30
0.0
 10
9.376344545173868
 20
-7.005684299315346
 30
0.0
 10
9.569659298138042
 20
-7.094099018874674
 30
0.0
 10
9.938478931096768
 20
-7.180700601517271
 30
0.0
 10
10.11029133759719
 20
-7.178908112751415
 30
0.0
 10
10.25479575835147
 20
-7.139312516533151
 30
0.0
  0
SPLINE
  5
1B8
330
1F
100
AcDbEntity
  8
0
  6
Continuous
 62
     1
370
    15
100
AcDbSpline
210
0.0
220
0.0
230
1.0
 70
     8
 71
     3
 72
    11
 73
     7
 74
     0
 42
0.000000001
 43
0.00000001
 40
0.0
 40
0.0
 40
0.0
 40
0.0
 40
0.1984396781569093
 40
0.442073451939871
 40
0.7932657557753989
 40
1.0
 40
1.0
 40
1.0
 40
1.0
 10
20.45099908858538
 20
7.470032200217242
 30
0.0
 10
20.51812819527847
 20
7.510271284715774
 30
0.0
 10
20.66767487967688
 20
7.599913795489753
 30
0.0
 10
20.94764432860526
 20
7.668458248382032
 30
0.0
 10
21.21752052775941
 20
7.667005965874214
 30
0.0
 10
21.37356284530185
 20
7.606832626755422
 30
0.0
 10
21.43138280510902
 20
7.584535982459778
 30
0.0
  0
SPLINE
  5
1B9
330
1F
100
AcDbEntity
  8
0
  6
Continuous
 62
     1
370
    15
100
AcDbSpline
210
0.0
220
0.0
230
1.0
 70
     8
 71
     3
 72
    10
 73
     6
 74
     0
 42
0.000000001
 43
0.00000001
 40
0.0
 40
0.0
 40
0.0
 40
0.0
 40
0.5
 40
0.5
 40
1.0
 40
1.0
 40
1.0
 40
1.0
 10
21.43138319408184
 20
7.584536196835478
 30
0.0
 10
21.46813182485325
 20
7.567441632194958
 30
0.0
 10
21.51128184933804
 20
7.559979615959419
 30
0.0
 10
21.60502502393849
 20
7.56912226594811
 30
0.0
 10
21.6556835096692
 20
7.58647594073768
 30
0.0
 10
21.70016559837714
 20
7.618013697344276
 30
0.0
  0
SPLINE
  5
1BA
330
1F
100
AcDbEntity
  8
0
  6
Continuous
 62
     1
370
    15
100
AcDbSpline
210
0.0
220
0.0
230
1.0
 70
     8
 71
     3
 72
     8
 73
     4
 74
     0
 42
0.000000001
 43
0.00000001
 40
0.0
 40
0.0
 40
0.0
 40
0.0
 40
1.0
 40
1.0
 40
1.0
 40
1.0
 10
21.70016559837714
 20
7.618013697344287
 30
0.0
 10
21.83306659872633
 20
7.712240374272769
 30
0.0
 10
21.97883719840414
 20
7.775808605056833
 30
0.0
 10
22.12251821484588
 20
7.807014820828494
 30
0.0
  0
SPLINE
  5
1BB
330
1F
100
AcDbEntity
  8
0
  6
Continuous
 62
     1
370
    15
100
AcDbSpline
210
0.0
220
0.0
230
1.0
 70
     8
 71
     3
 72
     8
 73
     4
 74
     0
 42
0.000000001
 43
0.00000001
 40
0.0
 40
0.0
 40
0.0
 40
0.0
 40
1.0
 40
1.0
 40
1.0
 40
1.0
 10
22.12251821483663
 20
7.807014820828579
 30
0.0
 10
22.27527812656913
 20
7.80558151557037
 30
0.0
 10
22.41745892744937
 20
7.767318458722265
 30
0.0
 10
22.53837351422276
 20
7.699842385067644
 30
0.0
  0
SPLINE
  5
1BC
330
1F
100
AcDbEntity
  8
0
  6
Continuous
 62
     1
370
    15
100
AcDbSpline
210
0.0
220
0.0
230
1.0
 70
     8
 71
     3
 72
    10
 73
     6
 74
     0
 42
0.000000001
 43
0.00000001
 40
0.0
 40
0.0
 40
0.0
 40
0.0
 40
0.5
 40
0.5
 40
1.0
 40
1.0
 40
1.0
 40
1.0
 10
22.5383735142229
 20
7.699842385067567
 30
0.0
 10
22.57490019939943
 20
7.67945876250306
 30
0.0
 10
22.61790585069968
 20
7.668921529047243
 30
0.0
 10
22.71153361906723
 20
7.672873421268854
 30
0.0
 10
22.76225625843261
 20
7.688135956196934
 30
0.0
 10
22.80704679423945
 20
7.718725318226094
 30
0.0
  0
SPLINE
  5
1BD
330
1F
100
AcDbEntity
  8
0
  6
Continuous
 62
     1
370
    15
100
AcDbSpline
210
0.0
220
0.0
230
1.0
 70
     8
 71
     3
 72
    10
 73
     6
 74
     0
 42
0.000000001
 43
0.00000001
 40
0.0
 40
0.0
 40
0.0
 40
0.0
 40
0.5
 40
0.5
 40
1.0
 40
1.0
 40
1.0
 40
1.0
 10
22.80704679423945
 20
7.718725318226101
 30
0.0
 10
22.9825600508457
 20
7.838590786466947
 30
0.0
 10
23.17566699462036
 20
7.898678603354357
 30
0.0
 10
23.5441222845519
 20
7.90942352923939
 30
0.0
 10
23.71572701647766
 20
7.860666754350961
 30
0.0
 10
23.86000927603832
 20
7.76939816132689
 30
0.0
  0
SPLINE
  5
1BE
330
1F
100
AcDbEntity
  8
0
  6
Continuous
 62
     1
370
    15
100
AcDbSpline
210
0.0
220
0.0
230
1.0
 70
     8
 71
     3
 72
    10
 73
     6
 74
     0
 42
0.000000001
 43
0.00000001
 40
0.0
 40
0.0
 40
0.0
 40
0.0
 40
0.5
 40
0.5
 40
1.0
 40
1.0
 40
1.0
 40
1.0
 10
23.86000927603832
 20
7.769398161326896
 30
0.0
 10
23.89675881471976
 20
7.746151514788703
 30
0.0
 10
23.9399106372955
 20
7.732930364769482
 30
0.0
 10
24.03365823026336
 20
7.732621588839907
 30
0.0
 10
24.0843214531835
 20
7.746373767185094
 30
0.0
 10
24.12880899865151
 20
7.77644143147783
 30
0.0
  0
SPLINE
  5
1BF
330
1F
100
AcDbEntity
  8
0
  6
Continuous
 62
     1
370
    15
100
AcDbSpline
210
0.0
220
0.0
230
1.0
 70
     8
 71
     3
 72
     8
 73
     4
 74
     0
 42
0.000000001
 43
0.00000001
 40
0.0
 40
0.0
 40
0.0
 40
0.0
 40
1.0
 40
1.0
 40
1.0
 40
1.0
 10
24.1288089986515
 20
7.776441431477846
 30
0.0
 10
24.26172122607746
 20
7.866272421086311
 30
0.0
 10
24.40750890230983
 20
7.919305278141191
 30
0.0
 10
24.55121932366905
 20
7.937405000863162
 30
0.0
  0
SPLINE
  5
1C0
330
1F
100
AcDbEntity
  8
0
  6
Continuous
 62
     1
370
    15
100
AcDbSpline
210
0.0
220
0.0
230
1.0
 70
     8
 71
     3
 72
     8
 73
     4
 74
     0
 42
0.000000001
 43
0.00000001
 40
0.0
 40
0.0
 40
0.0
 40
0.0
 40
1.0
 40
1.0
 40
1.0
 40
1.0
 10
24.55121932365979
 20
7.937405000864279
 30
0.0
 10
24.7040262515588
 20
7.918936143899415
 30
0.0
 10
24.84626746275906
 20
7.86185440937448
 30
0.0
 10
24.96725963440906
 20
7.774961315747207
 30
0.0
  0
SPLINE
  5
1C1
330
1F
100
AcDbEntity
  8
0
  6
Continuous
 62
     1
370
    15
100
AcDbSpline
210
0.0
220
0.0
230
1.0
 70
     8
 71
     3
 72
    10
 73
     6
 74
     0
 42
0.000000001
 43
0.00000001
 40
0.0
 40
0.0
 40
0.0
 40
0.0
 40
0.5
 40
0.5
 40
1.0
 40
1.0
 40
1.0
 40
1.0
 10
24.9672596344092
 20
7.774961315747104
 30
0.0
 10
25.00381055424192
 20
7.748711497631792
 30
0.0
 10
25.04684127253928
 20
7.732544468408554
 30
0.0
 10
25.1405157528084
 20
7.726908965380453
 30
0.0
 10
25.19126309762899
 20
7.738287788444655
 30
0.0
 10
25.2360719434258
 20
7.766893780022155
 30
0.0
  0
SPLINE
  5
1C2
330
1F
100
AcDbEntity
  8
0
  6
Continuous
 62
     1
370
    15
100
AcDbSpline
210
0.0
220
0.0
230
1.0
 70
     8
 71
     3
 72
    10
 73
     6
 74
     0
 42
0.000000001
 43
0.00000001
 40
0.0
 40
0.0
 40
0.0
 40
0.0
 40
0.5
 40
0.5
 40
1.0
 40
1.0
 40
1.0
 40
1.0
 10
25.23607194342578
 20
7.766893780022158
 30
0.0
 10
25.41176542917577
 20
7.879056597077897
 30
0.0
 10
25.6050575946687
 20
7.922156353642521
 30
0.0
 10
25.97364680474498
 20
7.894639149366238
 30
0.0
 10
26.1453402159143
 20
7.824882974016001
 30
0.0
 10
26.28977560937459
 20
7.712297907200087
 30
0.0
  0
SPLINE
  5
1C3
330
1F
100
AcDbEntity
  8
0
  6
Continuous
 62
     1
370
    15
100
AcDbSpline
210
0.0
220
0.0
230
1.0
 70
     8
 71
     3
 72
    10
 73
     6
 74
     0
 42
0.000000001
 43
0.00000001
 40
0.0
 40
0.0
 40
0.0
 40
0.0
 40
0.5
 40
0.5
 40
1.0
 40
1.0
 40
1.0
 40
1.0
 10
26.2897756093746
 20
7.712297907200082
 30
0.0
 10
26.32657019061635
 20
7.683617122744677
 30
0.0
 10
26.36976525282912
 20
7.665039177070803
 30
0.0
 10
26.46358475886213
 20
7.655262087490522
 30
0.0
 10
26.51429328056649
 20
7.664962471263603
 30
0.0
 10
26.55882695796787
 20
7.692632159890664
 30
0.0
  0
SPLINE
  5
1C4
330
1F
100
AcDbEntity
  8
0
  6
Continuous
 62
     1
370
    15
100
AcDbSpline
210
0.0
220
0.0
230
1.0
 70
     8
 71
     3
 72
     8
 73
     4
 74
     0
 42
0.000000001
 43
0.00000001
 40
0.0
 40
0.0
 40
0.0
 40
0.0
 40
1.0
 40
1.0
 40
1.0
 40
1.0
 10
26.55882695796787
 20
7.692632159890675
 30
0.0
 10
26.69184649981944
 20
7.775279933870214
 30
0.0
 10
26.83774300655998
 20
7.816082594364618
 30
0.0
 10
26.98156355207861
 20
7.820494542426891
 30
0.0
  0
SPLINE
  5
1C5
330
1F
100
AcDbEntity
  8
0
  6
Continuous
 62
     1
370
    15
100
AcDbSpline
210
0.0
220
0.0
230
1.0
 70
     8
 71
     3
 72
     8
 73
     4
 74
     0
 42
0.000000001
 43
0.00000001
 40
0.0
 40
0.0
 40
0.0
 40
0.0
 40
1.0
 40
1.0
 40
1.0
 40
1.0
 10
26.98156355206939
 20
7.820494542429007
 30
0.0
 10
27.13451582717332
 20
7.785551556598996
 30
0.0
 10
27.27693344491404
 20
7.711438628746063
 30
0.0
 10
27.39809419956104
 20
7.607781765785194
 30
0.0
  0
SPLINE
  5
1C6
330
1F
100
AcDbEntity
  8
0
  6
Continuous
 62
     1
370
    15
100
AcDbSpline
210
0.0
220
0.0
230
1.0
 70
     8
 71
     3
 72
    10
 73
     6
 74
     0
 42
0.000000001
 43
0.00000001
 40
0.0
 40
0.0
 40
0.0
 40
0.0
 40
0.5
 40
0.5
 40
1.0
 40
1.0
 40
1.0
 40
1.0
 10
27.39809419956118
 20
7.607781765785079
 30
0.0
 10
27.43467515450202
 20
7.576485600254186
 30
0.0
 10
27.47773218697228
 20
7.555188528859585
 30
0.0
 10
27.57145511660338
 20
7.54013722242709
 30
0.0
 10
27.62223069124399
 20
7.547278124266676
 30
0.0
 10
27.66706120485438
 20
7.57301933316112
 30
0.0
  0
SPLINE
  5
1C7
330
1F
100
AcDbEntity
  8
0
  6
Continuous
 62
     1
370
    15
100
AcDbSpline
210
0.0
220
0.0
230
1.0
 70
     8
 71
     3
 72
    10
 73
     6
 74
     0
 42
0.000000001
 43
0.00000001
 40
0.0
 40
0.0
 40
0.0
 40
0.0
 40
0.4999999999999999
 40
0.4999999999999999
 40
1.0
 40
1.0
 40
1.0
 40
1.0
 10
27.66706120485438
 20
7.573019333161133
 30
0.0
 10
27.84277999366227
 20
7.67391521155084
 30
0.0
 10
28.03618735641653
 20
7.698781249964597
 30
0.0
 10
28.40476390801301
 20
7.633852835844669
 30
0.0
 10
28.57634054419831
 20
7.545227646232838
 30
0.0
 10
28.72069240246075
 20
7.414743070412543
 30
0.0
  0
SPLINE
  5
1C8
330
1F
100
AcDbEntity
  8
0
  6
Continuous
 62
     1
370
    15
100
AcDbSpline
210
0.0
220
0.0
230
1.0
 70
     8
 71
     3
 72
    10
 73
     6
 74
     0
 42
0.000000001
 43
0.00000001
 40
0.0
 40
0.0
 40
0.0
 40
0.0
 40
0.5
 40
0.5
 40
1.0
 40
1.0
 40
1.0
 40
1.0
 10
28.72069240246075
 20
7.414743070412543
 30
0.0
 10
28.75745106032743
 20
7.381515663871385
 30
0.0
 10
28.80060871545595
 20
7.358151133047446
 30
0.0
 10
28.8943668736872
 20
7.339207880271854
 30
0.0
 10
28.94504540722063
 20
7.34456818463941
 30
0.0
 10
28.98955253891862
 20
7.368950766270586
 30
0.0
  0
SPLINE
  5
1C9
330
1F
100
AcDbEntity
  8
0
  6
Continuous
 62
     1
370
    15
100
AcDbSpline
210
0.0
220
0.0
230
1.0
 70
     8
 71
     3
 72
     8
 73
     4
 74
     0
 42
0.000000001
 43
0.00000001
 40
0.0
 40
0.0
 40
0.0
 40
0.0
 40
1.0
 40
1.0
 40
1.0
 40
1.0
 10
28.98955253891861
 20
7.368950766270606
 30
0.0
 10
29.12247077512686
 20
7.441768079383738
 30
0.0
 10
29.26825722343639
 20
7.469123519005915
 30
0.0
 10
29.41198847989834
 20
7.459733016824071
 30
0.0
  0
SPLINE
  5
1CA
330
1F
100
AcDbEntity
  8
0
  6
Continuous
 62
     1
370
    15
100
AcDbSpline
210
0.0
220
0.0
230
1.0
 70
     8
 71
     3
 72
     8
 73
     4
 74
     0
 42
0.000000001
 43
0.00000001
 40
0.0
 40
0.0
 40
0.0
 40
0.0
 40
1.0
 40
1.0
 40
1.0
 40
1.0
 10
29.41198847988909
 20
7.459733016827117
 30
0.0
 10
29.41604756915884
 20
7.458396444951166
 30
0.0
 10
29.42009781102207
 20
7.457033018079214
 30
0.0
 10
29.42413927697348
 20
7.455642920846
 30
0.0
  0
SPLINE
  5
1CB
330
1F
100
AcDbEntity
  8
0
  6
Continuous
 62
     1
370
    15
100
AcDbSpline
210
0.0
220
0.0
230
1.0
 70
     8
 71
     3
 72
    10
 73
     6
 74
     0
 42
0.000000001
 43
0.00000001
 40
0.0
 40
0.0
 40
0.0
 40
0.0
 40
0.5
 40
0.5
 40
1.0
 40
1.0
 40
1.0
 40
1.0
 10
29.42413927697358
 20
7.455642920846007
 30
0.0
 10
29.42317204441322
 20
7.231602713781902
 30
0.0
 10
29.41028073349258
 20
7.011316334502911
 30
0.0
 10
29.35785069071564
 20
6.579132469919616
 30
0.0
 10
29.31748117288712
 20
6.364218211121965
 30
0.0
 10
29.26239334778829
 20
6.163407259213725
 30
0.0
  0
SPLINE
  5
1CC
330
1F
100
AcDbEntity
  8
0
  6
Continuous
 62
     1
370
    15
100
AcDbSpline
210
0.0
220
0.0
230
1.0
 70
     8
 71
     3
 72
     8
 73
     4
 74
     0
 42
0.000000001
 43
0.00000001
 40
0.0
 40
0.0
 40
0.0
 40
0.0
 40
1.0
 40
1.0
 40
1.0
 40
1.0
 10
31.05
 20
4.300477537618649
 30
0.0
 10
30.45194435186512
 20
4.876916333721965
 30
0.0
 10
29.85588566856446
 20
5.49402727065546
 30
0.0
 10
29.26239334778825
 20
6.163407259213631
 30
0.0
  0
SPLINE
  5
1CD
330
1F
100
AcDbEntity
  8
0
  6
Continuous
 62
     1
370
    15
100
AcDbSpline
210
0.0
220
0.0
230
1.0
 70
     8
 71
     3
 72
    10
 73
     6
 74
     0
 42
0.000000001
 43
0.00000001
 40
0.0
 40
0.0
 40
0.0
 40
0.0
 40
0.5
 40
0.5
 40
1.0
 40
1.0
 40
1.0
 40
1.0
 10
22.56807001805242
 20
6.907453212889397
 30
0.0
 10
22.53133308731547
 20
6.900112180394739
 30
0.0
 10
22.48819476333583
 20
6.901317330739747
 30
0.0
 10
22.39446870857822
 20
6.923519745395856
 30
0.0
 10
22.34380962726208
 20
6.945095812524155
 30
0.0
 10
22.29932092433923
 20
6.977044009509967
 30
0.0
  0
SPLINE
  5
1CE
330
1F
100
AcDbEntity
  8
0
  6
Continuous
 62
     1
370
    15
100
AcDbSpline
210
0.0
220
0.0
230
1.0
 70
     8
 71
     3
 72
     8
 73
     4
 74
     0
 42
0.000000001
 43
0.00000001
 40
0.0
 40
0.0
 40
0.0
 40
0.0
 40
1.0
 40
1.0
 40
1.0
 40
1.0
 10
22.29932092433902
 20
6.977044009510099
 30
0.0
 10
22.16643524230981
 20
7.072471784813464
 30
0.0
 10
22.02067980042093
 20
7.147662284799866
 30
0.0
 10
21.87697755487152
 20
7.195906634467539
 30
0.0
  0
SPLINE
  5
1CF
330
1F
100
AcDbEntity
  8
0
  6
Continuous
 62
     1
370
    15
100
AcDbSpline
210
0.0
220
0.0
230
1.0
 70
     8
 71
     3
 72
     8
 73
     4
 74
     0
 42
0.000000001
 43
0.00000001
 40
0.0
 40
0.0
 40
0.0
 40
0.0
 40
1.0
 40
1.0
 40
1.0
 40
1.0
 10
21.87697755855468
 20
7.195906633913166
 30
0.0
 10
21.72423430850715
 20
7.218896410676534
 30
0.0
 10
21.58202619299841
 20
7.209586600687617
 30
0.0
 10
21.4610702878969
 20
7.173512253728834
 30
0.0
  0
SPLINE
  5
1D0
330
1F
100
AcDbEntity
  8
0
  6
Continuous
 62
     1
370
    15
100
AcDbSpline
210
0.0
220
0.0
230
1.0
 70
     8
 71
     3
 72
    10
 73
     6
 74
     0
 42
0.000000001
 43
0.00000001
 40
0.0
 40
0.0
 40
0.0
 40
0.0
 40
0.5
 40
0.5
 40
1.0
 40
1.0
 40
1.0
 40
1.0
 10
21.46107028789689
 20
7.173512253728825
 30
0.0
 10
21.42453636957895
 20
7.162616239647834
 30
0.0
 10
21.38152112510067
 20
7.160686783727295
 30
0.0
 10
21.28786396977833
 20
7.178092941457688
 30
0.0
 10
21.2371269856018
 20
7.198054914474364
 30
0.0
 10
21.19233597708789
 20
7.229789624772735
 30
0.0
  0
SPLINE
  5
1D1
330
1F
100
AcDbEntity
  8
0
  6
Continuous
 62
     1
370
    15
100
AcDbSpline
210
0.0
220
0.0
230
1.0
 70
     8
 71
     3
 72
    10
 73
     6
 74
     0
 42
0.000000001
 43
0.00000001
 40
0.0
 40
0.0
 40
0.0
 40
0.0
 40
0.5
 40
0.5
 40
1.0
 40
1.0
 40
1.0
 40
1.0
 10
21.19233597708789
 20
7.22978962477274
 30
0.0
 10
21.01669706457517
 20
7.354230895256315
 30
0.0
 10
20.82332062188593
 20
7.435173380298286
 30
0.0
 10
20.45478243840969
 20
7.499881718847332
 30
0.0
 10
20.28331909210078
 20
7.483905020377147
 30
0.0
 10
20.13907971314385
 20
7.428248913800683
 30
0.0
  0
SPLINE
  5
1D2
330
1F
100
AcDbEntity
  8
0
  6
Continuous
 62
     1
370
    15
100
AcDbSpline
210
0.0
220
0.0
230
1.0
 70
     8
 71
     3
 72
    10
 73
     6
 74
     0
 42
0.000000001
 43
0.00000001
 40
0.0
 40
0.0
 40
0.0
 40
0.0
 40
0.5
 40
0.5
 40
1.0
 40
1.0
 40
1.0
 40
1.0
 10
20.13907971314383
 20
7.428248913800685
 30
0.0
 10
20.10231972343682
 20
7.414064729705618
 30
0.0
 10
20.05915948621927
 20
7.409242686610392
 30
0.0
 10
19.96539847194295
 20
7.422501595013156
 30
0.0
 10
19.91471339780072
 20
7.441283893098813
 30
0.0
 10
19.87019398886918
 20
7.473198188304542
 30
0.0
  0
SPLINE
  5
1D3
330
1F
100
AcDbEntity
  8
0
  6
Continuous
 62
     1
370
    15
100
AcDbSpline
210
0.0
220
0.0
230
1.0
 70
     8
 71
     3
 72
     8
 73
     4
 74
     0
 42
0.000000001
 43
0.00000001
 40
0.0
 40
0.0
 40
0.0
 40
0.0
 40
1.0
 40
1.0
 40
1.0
 40
1.0
 10
19.87019398886898
 20
7.47319818830468
 30
0.0
 10
19.73723944126045
 20
7.56850831894554
 30
0.0
 10
19.59142319907987
 20
7.636109033634719
 30
0.0
 10
19.4476589575235
 20
7.672787056929558
 30
0.0
  0
SPLINE
  5
1D4
330
1F
100
AcDbEntity
  8
0
  6
Continuous
 62
     1
370
    15
100
AcDbSpline
210
0.0
220
0.0
230
1.0
 70
     8
 71
     3
 72
     8
 73
     4
 74
     0
 42
0.000000001
 43
0.00000001
 40
0.0
 40
0.0
 40
0.0
 40
0.0
 40
1.0
 40
1.0
 40
1.0
 40
1.0
 10
19.44765896120942
 20
7.672787056782596
 30
0.0
 10
19.29479556494139
 20
7.678881689788922
 30
0.0
 10
19.15245081898938
 20
7.649271970348021
 30
0.0
 10
19.03132829494697
 20
7.590992480225781
 30
0.0
  0
SPLINE
  5
1D5
330
1F
100
AcDbEntity
  8
0
  6
Continuous
 62
     1
370
    15
100
AcDbSpline
210
0.0
220
0.0
230
1.0
 70
     8
 71
     3
 72
    10
 73
     6
 74
     0
 42
0.000000001
 43
0.00000001
 40
0.0
 40
0.0
 40
0.0
 40
0.0
 40
0.5
 40
0.5
 40
1.0
 40
1.0
 40
1.0
 40
1.0
 10
19.03132829494697
 20
7.590992480225777
 30
0.0
 10
18.99474777956882
 20
7.573391346155116
 30
0.0
 10
18.9516871750732
 20
7.565428844681731
 30
0.0
 10
18.85795277668382
 20
7.573535156036423
 30
0.0
 10
18.80717031968184
 20
7.590338134964364
 30
0.0
 10
18.76233591811969
 20
7.621495279479438
 30
0.0
  0
SPLINE
  5
1D6
330
1F
100
AcDbEntity
  8
0
  6
Continuous
 62
     1
370
    15
100
AcDbSpline
210
0.0
220
0.0
230
1.0
 70
     8
 71
     3
 72
    10
 73
     6
 74
     0
 42
0.000000001
 43
0.00000001
 40
0.0
 40
0.0
 40
0.0
 40
0.0
 40
0.5
 40
0.5
 40
1.0
 40
1.0
 40
1.0
 40
1.0
 10
18.76233591811969
 20
7.621495279479452
 30
0.0
 10
18.58656435530655
 20
7.743645677240842
 30
0.0
 10
18.39304715579551
 20
7.810504652974359
 30
0.0
 10
18.02417423063574
 20
7.837866219490012
 30
0.0
 10
17.85247324440751
 20
7.79886472064662
 30
0.0
 10
17.70810292151115
 20
7.717976121087204
 30
0.0
  0
SPLINE
  5
1D7
330
1F
100
AcDbEntity
  8
0
  6
Continuous
 62
     1
370
    15
100
AcDbSpline
210
0.0
220
0.0
230
1.0
 70
     8
 71
     3
 72
    10
 73
     6
 74
     0
 42
0.000000001
 43
0.00000001
 40
0.0
 40
0.0
 40
0.0
 40
0.0
 40
0.5
 40
0.5
 40
1.0
 40
1.0
 40
1.0
 40
1.0
 10
17.70810292151115
 20
7.717976121087204
 30
0.0
 10
17.67131319157246
 20
7.697363368596198
 30
0.0
 10
17.62813002886524
 20
7.686641979410807
 30
0.0
 10
17.53435452111899
 20
7.690508601805512
 30
0.0
 10
17.48366398534204
 20
7.705892981201329
 30
0.0
 10
17.43912833652266
 20
7.736762019208497
 30
0.0
  0
SPLINE
  5
1D8
330
1F
100
AcDbEntity
  8
0
  6
Continuous
 62
     1
370
    15
100
AcDbSpline
210
0.0
220
0.0
230
1.0
 70
     8
 71
     3
 72
     8
 73
     4
 74
     0
 42
0.000000001
 43
0.00000001
 40
0.0
 40
0.0
 40
0.0
 40
0.0
 40
1.0
 40
1.0
 40
1.0
 40
1.0
 10
17.43912833652245
 20
7.736762019208641
 30
0.0
 10
17.30615956426758
 20
7.828926794917757
 30
0.0
 10
17.1603466178334
 20
7.88679617819626
 30
0.0
 10
17.016579330788
 20
7.910732441855382
 30
0.0
  0
SPLINE
  5
1D9
330
1F
100
AcDbEntity
  8
0
  6
Continuous
 62
     1
370
    15
100
AcDbSpline
210
0.0
220
0.0
230
1.0
 70
     8
 71
     3
 72
     8
 73
     4
 74
     0
 42
0.000000001
 43
0.00000001
 40
0.0
 40
0.0
 40
0.0
 40
0.0
 40
1.0
 40
1.0
 40
1.0
 40
1.0
 10
17.01657933447363
 20
7.910732442121706
 30
0.0
 10
16.8637788884667
 20
7.899690740054874
 30
0.0
 10
16.72147284304617
 20
7.850675988908252
 30
0.0
 10
16.6004136322342
 20
7.771934458240523
 30
0.0
  0
SPLINE
  5
1DA
330
1F
100
AcDbEntity
  8
0
  6
Continuous
 62
     1
370
    15
100
AcDbSpline
210
0.0
220
0.0
230
1.0
 70
     8
 71
     3
 72
    10
 73
     6
 74
     0
 42
0.000000001
 43
0.00000001
 40
0.0
 40
0.0
 40
0.0
 40
0.0
 40
0.5
 40
0.5
 40
1.0
 40
1.0
 40
1.0
 40
1.0
 10
16.60041363223421
 20
7.771934458240528
 30
0.0
 10
16.56386695726859
 20
7.748163106120291
 30
0.0
 10
16.5208413218676
 20
7.734400645894203
 30
0.0
 10
16.42716227260238
 20
7.732943543573967
 30
0.0
 10
16.37640840354416
 20
7.746071570617756
 30
0.0
 10
16.33160296732164
 20
7.775655273351003
 30
0.0
  0
SPLINE
  5
1DB
330
1F
100
AcDbEntity
  8
0
  6
Continuous
 62
     1
370
    15
100
AcDbSpline
210
0.0
220
0.0
230
1.0
 70
     8
 71
     3
 72
    10
 73
     6
 74
     0
 42
0.000000001
 43
0.00000001
 40
0.0
 40
0.0
 40
0.0
 40
0.0
 40
0.3850652231168462
 40
0.7337450388387552
 40
1.0
 40
1.0
 40
1.0
 40
1.0
 10
16.33160287886858
 20
7.775655481964344
 30
0.0
 10
16.24087426987052
 20
7.823635979650524
 30
0.0
 10
16.06799013820521
 20
7.915063223724355
 30
0.0
 10
15.8174613521286
 20
7.95391534206939
 30
0.0
 10
15.67863573218314
 20
7.916326862940354
 30
0.0
 10
15.61852690204978
 20
7.900051772594447
 30
0.0
  0
LINE
  5
1DC
330
1F
100
AcDbEntity
  8
0
  6
Continuous
 62
     1
370
    15
100
AcDbLine
 10
31.05000039935112
 20
3.570843487977976
 30
0.0
 11
31.05000039935112
 21
4.300477448850865
 31
0.0
  0
SPLINE
  5
1DD
330
1F
100
AcDbEntity
  8
외형선
  6
Continuous
370
    15
100
AcDbSpline
210
0.0
220
0.0
230
1.0
 70
     8
 71
     3
 72
    10
 73
     6
 74
     0
 42
0.000000001
 43
0.00000001
 40
0.0
 40
0.0
 40
0.0
 40
0.0
 40
0.5
 40
0.5
 40
1.0
 40
1.0
 40
1.0
 40
1.0
 10
8.950194146147098
 20
-6.80764841512026
 30
0.0
 10
8.985843529018432
 20
-6.804178660166558
 30
0.0
 10
9.026260568794019
 20
-6.807854027786544
 30
0.0
 10
9.113481181055953
 20
-6.831928525187127
 30
0.0
 10
9.159425073305623
 20
-6.852468513888262
 30
0.0
 10
9.200595363377467
 20
-6.881548145492051
 30
0.0
  0
SPLINE
  5
1DE
330
1F
100
AcDbEntity
  8
외형선
  6
Continuous
370
    15
100
AcDbSpline
210
0.0
220
0.0
230
1.0
 70
    24
 71
     3
 72
    12
 73
     8
 74
     0
 42
0.000000001
 43
0.00000001
 40
0.0
 40
0.0
 40
0.0
 40
0.0
 40
0.1189913499381657
 40
0.3696713621610339
 40
0.6240299837544543
 40
0.8747129645012989
 40
1.0
 40
1.0
 40
1.0
 40
1.0
 10
8.950194170698524
 20
-6.807649973779922
 30
0.0
 10
8.950194170698524
 20
-6.878554262616237
 30
0.0
 10
8.950194170698524
 20
-7.098833174073253
 30
0.0
 10
8.950194170698524
 20
-7.39437485965122
 30
0.0
 10
8.950194170698524
 20
-7.630689001751277
 30
0.0
 10
8.950194170698524
 20
-7.75229829153637
 30
0.0
 10
8.950194170698524
 20
-7.73542191799574
 30
0.0
 10
8.950194170698524
 20
-7.729798089712865
 30
0.0
  0
SPLINE
  5
1DF
330
1F
100
AcDbEntity
  8
0
  6
Continuous
 62
     1
370
    15
100
AcDbSpline
210
0.0
220
0.0
230
1.0
 70
     8
 71
     3
 72
    12
 73
     8
 74
     0
 42
0.000000001
 43
0.00000001
 40
0.0
 40
0.0
 40
0.0
 40
0.0
 40
0.5000000000000002
 40
0.5000000000000002
 40
0.7500000000000001
 40
0.7500000000000001
 40
1.0
 40
1.0
 40
1.0
 40
1.0
 10
21.87697755487153
 20
7.195906634467534
 30
0.0
 10
21.83598857068797
 20
6.855967947071969
 30
0.0
 10
21.79452769103232
 20
6.401303516195625
 30
0.0
 10
21.73576516158232
 20
5.599655829281541
 30
0.0
 10
21.7169602098646
 20
5.314354645825784
 30
0.0
 10
21.6774735668765
 20
4.696965436410319
 30
0.0
 10
21.65721100117784
 20
4.366618420038418
 30
0.0
 10
21.6367650357578
 20
4.01963007795341
 30
0.0
  0
LINE
  5
1E0
330
1F
100
AcDbEntity
  8
0
  6
Continuous
 62
     1
370
    15
100
AcDbLine
 10
31.05000039935112
 20
-0.3774505457840918
 30
0.0
 11
31.05000039935112
 21
-3.138527041301137
 31
0.0
  0
SPLINE
  5
1E1
330
1F
100
AcDbEntity
  8
외형선
  6
Continuous
370
    15
100
AcDbSpline
210
0.0
220
0.0
230
1.0
 70
     8
 71
     3
 72
     8
 73
     4
 74
     0
 42
0.000000001
 43
0.00000001
 40
0.0
 40
0.0
 40
0.0
 40
0.0
 40
1.0
 40
1.0
 40
1.0
 40
1.0
 10
11.00000000000003
 20
-6.950760030936642
 30
0.0
 10
10.98202793760781
 20
-7.127163730189608
 30
0.0
 10
10.96462498013148
 20
-7.279989532271983
 30
0.0
 10
10.94639939226558
 20
-7.411382256102906
 30
0.0
  0
SPLINE
  5
1E2
330
1F
100
AcDbEntity
  8
외형선
  6
Continuous
370
    15
100
AcDbSpline
210
0.0
220
0.0
230
1.0
 70
     8
 71
     3
 72
     8
 73
     4
 74
     0
 42
0.000000001
 43
0.00000001
 40
0.0
 40
0.0
 40
0.0
 40
0.0
 40
1.0
 40
1.0
 40
1.0
 40
1.0
 10
10.52380821540112
 20
-7.19935981559399
 30
0.0
 10
10.65678176355186
 20
-7.295078758889021
 30
0.0
 10
10.8026290325441
 20
-7.367530909061093
 30
0.0
 10
10.9463993922655
 20
-7.41138225610268
 30
0.0
  0
SPLINE
  5
1E3
330
1F
100
AcDbEntity
  8
외형선
  6
Continuous
370
    15
100
AcDbSpline
210
0.0
220
0.0
230
1.0
 70
     8
 71
     3
 72
    10
 73
     6
 74
     0
 42
0.000000001
 43
0.00000001
 40
0.0
 40
0.0
 40
0.0
 40
0.0
 40
0.5
 40
0.5
 40
1.0
 40
1.0
 40
1.0
 40
1.0
 10
11.00000000000001
 20
-6.950760030936737
 30
0.0
 10
11.02023565431226
 20
-6.646453909290319
 30
0.0
 10
11.04208254640783
 20
-6.276046584949247
 30
0.0
 10
11.08653539003412
 20
-5.439379346663726
 30
0.0
 10
11.10928693833729
 20
-4.971608502802928
 30
0.0
 10
11.13236657401197
 20
-4.452579406619664
 30
0.0
  0
SPLINE
  5
1E4
330
1F
100
AcDbEntity
  8
외형선
  6
Continuous
370
    15
100
AcDbSpline
210
0.0
220
0.0
230
1.0
 70
     8
 71
     3
 72
    10
 73
     6
 74
     0
 42
0.000000001
 43
0.00000001
 40
0.0
 40
0.0
 40
0.0
 40
0.0
 40
0.5
 40
0.5
 40
1.0
 40
1.0
 40
1.0
 40
1.0
 10
10.25479575835147
 20
-7.139312516533156
 30
0.0
 10
10.2915863989335
 20
-7.12923152841187
 30
0.0
 10
10.33477476467575
 20
-7.128046632980359
 30
0.0
 10
10.42858350140849
 20
-7.146770789753665
 30
0.0
 10
10.47928458190711
 20
-7.167310169563093
 30
0.0
 10
10.52380821540112
 20
-7.199359815593972
 30
0.0
  0
SPLINE
  5
1E5
330
1F
100
AcDbEntity
  8
0
  6
Continuous
 62
     1
370
    15
100
AcDbSpline
210
0.0
220
0.0
230
1.0
 70
     8
 71
     3
 72
    12
 73
     8
 74
     0
 42
0.000000001
 43
0.00000001
 40
0.0
 40
0.0
 40
0.0
 40
0.0
 40
0.5000000000000002
 40
0.5000000000000002
 40
0.7500000000000001
 40
0.7500000000000001
 40
1.0
 40
1.0
 40
1.0
 40
1.0
 10
28.68050069376587
 20
-4.589329082582401
 30
0.0
 10
28.64050455469124
 20
-5.240956789588612
 30
0.0
 10
28.59878323835071
 20
-5.830409642520745
 30
0.0
 10
28.53783405332788
 20
-6.559685855594307
 30
0.0
 10
28.51779395628549
 20
-6.777295390906019
 30
0.0
 10
28.47891358251182
 20
-7.156436385759946
 30
0.0
 10
28.4599962451187
 20
-7.318759889087634
 30
0.0
 10
28.44014389753764
 20
-7.455467532825468
 30
0.0
  0
SPLINE
  5
1E6
330
1F
100
AcDbEntity
  8
외형선
  6
Continuous
370
    15
100
AcDbSpline
210
0.0
220
0.0
230
1.0
 70
     8
 71
     3
 72
    12
 73
     8
 74
     0
 42
0.000000001
 43
0.00000001
 40
0.0
 40
0.0
 40
0.0
 40
0.0
 40
0.5000000000000002
 40
0.5000000000000002
 40
0.7500000000000001
 40
0.7500000000000001
 40
1.0
 40
1.0
 40
1.0
 40
1.0
 10
11.28894435134367
 20
-4.518187568542228
 30
0.0
 10
11.24686921492064
 20
-5.019607106795664
 30
0.0
 10
11.20279192091338
 20
-5.480195396677521
 30
0.0
 10
11.13252019925555
 20
-6.093653088556769
 30
0.0
 10
11.1083627032294
 20
-6.285582712367615
 30
0.0
 10
11.05759940650994
 20
-6.639555567541212
 30
0.0
 10
11.03156019352824
 20
-6.802315788799044
 30
0.0
 10
10.99999999999998
 20
-6.950760030937213
 30
0.0
  0
SPLINE
  5
1E7
330
1F
100
AcDbEntity
  8
외형선
  6
Continuous
370
    15
100
AcDbSpline
210
0.0
220
0.0
230
1.0
 70
     8
 71
     3
 72
     8
 73
     4
 74
     0
 42
0.000000001
 43
0.00000001
 40
0.0
 40
0.0
 40
0.0
 40
0.0
 40
1.0
 40
1.0
 40
1.0
 40
1.0
 10
10.94639939225684
 20
-7.411382256101682
 30
0.0
 10
11.09925018242947
 20
-7.427783630602462
 30
0.0
 10
11.24155097456936
 20
-7.410438933284766
 30
0.0
 10
11.36258718203056
 20
-7.365464333922413
 30
0.0
  0
SPLINE
  5
1E8
330
1F
100
AcDbEntity
  8
외형선
  6
Continuous
370
    15
100
AcDbSpline
210
0.0
220
0.0
230
1.0
 70
    24
 71
     3
 72
    12
 73
     8
 74
     0
 42
0.000000001
 43
0.00000001
 40
0.0
 40
0.0
 40
0.0
 40
0.0
 40
0.5
 40
0.5
 40
0.75
 40
0.75
 40
1.0
 40
1.0
 40
1.0
 40
1.0
 10
12.0
 20
-7.595397270522472
 30
0.0
 10
12.0
 20
-7.414564208798057
 30
0.0
 10
12.0
 20
-7.167186827027937
 30
0.0
 10
12.0
 20
-6.695704318700928
 30
0.0
 10
12.0000000000002
 20
-6.52303619464386
 30
0.0
 10
12.0000000000002
 20
-6.151539068637216
 30
0.0
 10
12.00000000000001
 20
-5.952137306933048
 30
0.0
 10
12.00000000000001
 20
-5.739077443912265
 30
0.0
  0
SPLINE
  5
1E9
330
1F
100
AcDbEntity
  8
외형선
  6
Continuous
370
    15
100
AcDbSpline
210
0.0
220
0.0
230
1.0
 70
     8
 71
     3
 72
    10
 73
     6
 74
     0
 42
0.000000001
 43
0.00000001
 40
0.0
 40
0.0
 40
0.0
 40
0.0
 40
0.5
 40
0.5
 40
1.0
 40
1.0
 40
1.0
 40
1.0
 10
11.84656404100347
 20
-7.536281732440996
 30
0.0
 10
11.87223807233009
 20
-7.358309276041755
 30
0.0
 10
11.89661628225469
 20
-7.117899714249456
 30
0.0
 10
11.9475151238235
 20
-6.511838244094914
 30
0.0
 10
11.97356204755267
 20
-6.152354021114991
 30
0.0
 10
12.0
 20
-5.739077443921941
 30
0.0
  0
SPLINE
  5
1EA
330
1F
100
AcDbEntity
  8
외형선
  6
Continuous
370
    15
100
AcDbSpline
210
0.0
220
0.0
230
1.0
 70
     8
 71
     3
 72
     8
 73
     4
 74
     0
 42
0.000000001
 43
0.00000001
 40
0.0
 40
0.0
 40
0.0
 40
0.0
 40
1.0
 40
1.0
 40
1.0
 40
1.0
 10
11.63139603688165
 20
-7.41181128154127
 30
0.0
 10
11.70114413614737
 20
-7.461061591945672
 30
0.0
 10
11.77280646297338
 20
-7.502265922003941
 30
0.0
 10
11.84656404100347
 20
-7.536281732441001
 30
0.0
  0
SPLINE
  5
1EB
330
1F
100
AcDbEntity
  8
0
  6
Continuous
 62
     1
370
    15
100
AcDbSpline
210
0.0
220
0.0
230
1.0
 70
     8
 71
     3
 72
    10
 73
     6
 74
     0
 42
0.000000001
 43
0.00000001
 40
0.0
 40
0.0
 40
0.0
 40
0.0
 40
0.5
 40
0.5
 40
1.0
 40
1.0
 40
1.0
 40
1.0
 10
12.0000000000001
 20
-7.59539727052249
 30
0.0
 10
12.12453786072331
 20
-7.634142800560181
 30
0.0
 10
12.24865337492444
 20
-7.650310940038189
 30
0.0
 10
12.47930619295989
 20
-7.64058716763083
 30
0.0
 10
12.58857694692167
 20
-7.614629583470133
 30
0.0
 10
12.68455011075707
 20
-7.570756226217195
 30
0.0
  0
SPLINE
  5
1EC
330
1F
100
AcDbEntity
  8
0
  6
Continuous
 62
     1
370
    15
100
AcDbSpline
210
0.0
220
0.0
230
1.0
 70
     8
 71
     3
 72
    10
 73
     6
 74
     0
 42
0.000000001
 43
0.00000001
 40
0.0
 40
0.0
 40
0.0
 40
0.0
 40
0.5
 40
0.5
 40
1.0
 40
1.0
 40
1.0
 40
1.0
 10
30.26399096236727
 20
-7.064312007000281
 30
0.0
 10
30.12136691277829
 20
-7.222035291308075
 30
0.0
 10
29.97771693690351
 20
-7.340427663211461
 30
0.0
 10
29.69206228977893
 20
-7.52010328342827
 30
0.0
 10
29.55537198474807
 20
-7.577380411777629
 30
0.0
 10
29.42394834779378
 20
-7.606714606226085
 30
0.0
  0
SPLINE
  5
1ED
330
1F
100
AcDbEntity
  8
외형선
  6
Continuous
370
    15
100
AcDbSpline
210
0.0
220
0.0
230
1.0
 70
     8
 71
     3
 72
    10
 73
     6
 74
     0
 42
0.000000001
 43
0.00000001
 40
0.0
 40
0.0
 40
0.0
 40
0.0
 40
0.5
 40
0.5
 40
1.0
 40
1.0
 40
1.0
 40
1.0
 10
11.36258718203059
 20
-7.365464333922402
 30
0.0
 10
11.39913859240433
 20
-7.351882571306326
 30
0.0
 10
11.44216782461192
 20
-7.347566557334611
 30
0.0
 10
11.53584221221016
 20
-7.361376003368058
 30
0.0
 10
11.58658990721798
 20
-7.380172916952311
 30
0.0
 10
11.63139603688165
 20
-7.41181128154127
 30
0.0
  0
SPLINE
  5
1EE
330
1F
100
AcDbEntity
  8
0
  6
Continuous
 62
     1
370
    15
100
AcDbSpline
210
0.0
220
0.0
230
1.0
 70
     8
 71
     3
 72
    12
 73
     8
 74
     0
 42
0.000000001
 43
0.00000001
 40
0.0
 40
0.0
 40
0.0
 40
0.0
 40
0.5000000000000001
 40
0.5000000000000001
 40
0.75
 40
0.75
 40
1.0
 40
1.0
 40
1.0
 40
1.0
 10
19.4476589575235
 20
7.672787056929554
 30
0.0
 10
19.40821096642077
 20
7.469200017079734
 30
0.0
 10
19.36665567222516
 20
7.143927950041412
 30
0.0
 10
19.3053293236594
 20
6.500527799806386
 30
0.0
 10
19.28506214802918
 20
6.260679294324351
 30
0.0
 10
19.24555003350723
 20
5.739999517063474
 30
0.0
 10
19.22674037459134
 20
5.461590045665151
 30
0.0
 10
19.2071918770143
 20
5.16047093497497
 30
0.0
  0
SPLINE
  5
1EF
330
1F
100
AcDbEntity
  8
0
  6
Continuous
 62
     1
370
    15
100
AcDbSpline
210
0.0
220
0.0
230
1.0
 70
     8
 71
     3
 72
    12
 73
     8
 74
     0
 42
0.000000001
 43
0.00000001
 40
0.0
 40
0.0
 40
0.0
 40
0.0
 40
0.5000000000000001
 40
0.5000000000000001
 40
0.75
 40
0.75
 40
1.0
 40
1.0
 40
1.0
 40
1.0
 10
13.61588321026788
 20
-5.56712209928415
 30
0.0
 10
13.57482660108888
 20
-6.141565198632879
 30
0.0
 10
13.53356418486075
 20
-6.62863074020437
 30
0.0
 10
13.47543531954072
 20
-7.187428216853057
 30
0.0
 10
13.45640444085129
 20
-7.346884000046446
 30
0.0
 10
13.41656506602079
 20
-7.613759945678792
 30
0.0
 10
13.39618389087447
 20
-7.71971597644581
 30
0.0
 10
13.37568369117401
 20
-7.795547071700259
 30
0.0
  0
SPLINE
  5
1F0
330
1F
100
AcDbEntity
  8
0
  6
Continuous
 62
     1
370
    15
100
AcDbSpline
210
0.0
220
0.0
230
1.0
 70
     8
 71
     3
 72
     8
 73
     4
 74
     0
 42
0.000000001
 43
0.00000001
 40
0.0
 40
0.0
 40
0.0
 40
0.0
 40
1.0
 40
1.0
 40
1.0
 40
1.0
 10
12.95332774509902
 20
-7.60543034339951
 30
0.0
 10
13.08621770923654
 20
-7.699790363861419
 30
0.0
 10
13.23197995572272
 20
-7.763785262657182
 30
0.0
 10
13.37568369117389
 20
-7.79554707170024
 30
0.0
  0
SPLINE
  5
1F1
330
1F
100
AcDbEntity
  8
0
  6
Continuous
 62
     1
370
    15
100
AcDbSpline
210
0.0
220
0.0
230
1.0
 70
     8
 71
     3
 72
    10
 73
     6
 74
     0
 42
0.000000001
 43
0.00000001
 40
0.0
 40
0.0
 40
0.0
 40
0.0
 40
0.5
 40
0.5
 40
1.0
 40
1.0
 40
1.0
 40
1.0
 10
12.68455011075708
 20
-7.570756226217192
 30
0.0
 10
12.72129389110619
 20
-7.553959103587738
 30
0.0
 10
12.76443847459633
 20
-7.546767057975863
 30
0.0
 10
12.85817514754134
 20
-7.55633495530493
 30
0.0
 10
12.90883790463213
 20
-7.573839829517977
 30
0.0
 10
12.95332774509901
 20
-7.605430343399499
 30
0.0
  0
SPLINE
  5
1F2
330
1F
100
AcDbEntity
  8
0
  6
Continuous
 62
     1
370
    15
100
AcDbSpline
210
0.0
220
0.0
230
1.0
 70
     8
 71
     3
 72
    10
 73
     6
 74
     0
 42
0.000000001
 43
0.00000001
 40
0.0
 40
0.0
 40
0.0
 40
0.0
 40
0.5
 40
0.5
 40
1.0
 40
1.0
 40
1.0
 40
1.0
 10
30.5620850850959
 20
-6.873970291184294
 30
0.0
 10
30.51572661757989
 20
-6.882197246765298
 30
0.0
 10
30.46682867951048
 20
-6.90401972988405
 30
0.0
 10
30.36579688271797
 20
-6.967543214100591
 30
0.0
 10
30.3142964371811
 20
-7.008680823275197
 30
0.0
 10
30.26399096236727
 20
-7.064312007000284
 30
0.0
  0
SPLINE
  5
1F3
330
1F
100
AcDbEntity
  8
0
  6
Continuous
 62
     1
370
    15
100
AcDbSpline
210
0.0
220
0.0
230
1.0
 70
     8
 71
     3
 72
     8
 73
     4
 74
     0
 42
0.000000001
 43
0.00000001
 40
0.0
 40
0.0
 40
0.0
 40
0.0
 40
1.0
 40
1.0
 40
1.0
 40
1.0
 10
30.90071483038224
 20
-5.521015454179853
 30
0.0
 10
30.89189941705098
 20
-5.995078679915526
 30
0.0
 10
30.88392467915107
 20
-6.410431408016757
 30
0.0
 10
30.877011494089
 20
-6.756972794365387
 30
0.0
  0
SPLINE
  5
1F4
330
1F
100
AcDbEntity
  8
0
  6
Continuous
 62
     1
370
    15
100
AcDbSpline
210
0.0
220
0.0
230
1.0
 70
     8
 71
     3
 72
     8
 73
     4
 74
     0
 42
0.000000001
 43
0.00000001
 40
0.0
 40
0.0
 40
0.0
 40
0.0
 40
1.0
 40
1.0
 40
1.0
 40
1.0
 10
30.877011494089
 20
-6.756972794365387
 30
0.0
 10
30.76842439577808
 20
-6.815947973761256
 30
0.0
 10
30.66259507382494
 20
-6.856133394129063
 30
0.0
 10
30.56208508509593
 20
-6.873970291184287
 30
0.0
  0
SPLINE
  5
1F5
330
1F
100
AcDbEntity
  8
0
  6
Continuous
 62
     1
370
    15
100
AcDbSpline
210
0.0
220
0.0
230
1.0
 70
     8
 71
     3
 72
     8
 73
     4
 74
     0
 42
0.000000001
 43
0.00000001
 40
0.0
 40
0.0
 40
0.0
 40
0.0
 40
1.0
 40
1.0
 40
1.0
 40
1.0
 10
13.37568369116535
 20
-7.795547071700243
 30
0.0
 10
13.52842369109709
 20
-7.794863502554852
 30
0.0
 10
13.67062197649548
 20
-7.757454205440018
 30
0.0
 10
13.79155858992233
 20
-7.690868549381895
 30
0.0
  0
ELLIPSE
  5
1F6
330
1F
100
AcDbEntity
  8
0
  6
Continuous
 62
     1
370
    15
100
AcDbEllipse
 10
24.1524842772923
 20
-6.02335778103231
 30
0.0
 11
9.150278138289504
 21
11.48676995354971
 31
0.0
210
0.0
220
0.0
230
1.0
 40
0.4016385608855292
 41
4.961173465751711
 42
4.983768720501405
  0
LINE
  5
1F7
330
1F
100
AcDbEntity
  8
0
  6
Continuous
 62
     1
370
    15
100
AcDbLine
 10
31.05000039935112
 20
-6.484806537628179
 30
0.0
 11
31.05000039935112
 21
-5.431152880191808
 31
0.0
  0
SPLINE
  5
1F8
330
1F
100
AcDbEntity
  8
0
  6
Continuous
 62
     1
370
    15
100
AcDbSpline
210
0.0
220
0.0
230
1.0
 70
     8
 71
     3
 72
    10
 73
     6
 74
     0
 42
0.000000001
 43
0.00000001
 40
0.0
 40
0.0
 40
0.0
 40
0.0
 40
0.5
 40
0.5
 40
1.0
 40
1.0
 40
1.0
 40
1.0
 10
14.06025140171199
 20
-7.710895915458041
 30
0.0
 10
14.23584712405612
 20
-7.831032664002208
 30
0.0
 10
14.42916016952552
 20
-7.891813220574825
 30
0.0
 10
14.79756312843325
 20
-7.904210828517611
 30
0.0
 10
14.96897807697351
 20
-7.85648194093104
 30
0.0
 10
15.11319253888943
 20
-7.766282563574679
 30
0.0
  0
SPLINE
  5
1F9
330
1F
100
AcDbEntity
  8
0
  6
Continuous
 62
     1
370
    15
100
AcDbSpline
210
0.0
220
0.0
230
1.0
 70
     8
 71
     3
 72
    10
 73
     6
 74
     0
 42
0.000000001
 43
0.00000001
 40
0.0
 40
0.0
 40
0.0
 40
0.0
 40
0.5
 40
0.5
 40
1.0
 40
1.0
 40
1.0
 40
1.0
 10
13.79155858992237
 20
-7.69086854938188
 30
0.0
 10
13.82808588349784
 20
-7.670757238689175
 30
0.0
 10
13.87109400024713
 20
-7.660471037293702
 30
0.0
 10
13.96473764911013
 20
-7.664834067270014
 30
0.0
 10
14.01546682483962
 20
-7.680255798611514
 30
0.0
 10
14.060251401712
 20
-7.710895915458037
 30
0.0
  0
SPLINE
  5
1FA
330
1F
100
AcDbEntity
  8
외형선
  6
Continuous
370
    15
100
AcDbSpline
210
0.0
220
0.0
230
1.0
 70
     8
 71
     3
 72
     8
 73
     4
 74
     0
 42
0.000000001
 43
0.00000001
 40
0.0
 40
0.0
 40
0.0
 40
0.0
 40
1.0
 40
1.0
 40
1.0
 40
1.0
 10
11.84656404100346
 20
-7.536281732441001
 30
0.0
 10
11.89770787788373
 20
-7.542191815798196
 30
0.0
 10
11.94885316401917
 20
-7.547926094034985
 30
0.0
 10
12.00000000000001
 20
-7.553484399732394
 30
0.0
  0
SPLINE
  5
1FB
330
1F
100
AcDbEntity
  8
0
  6
Continuous
 62
     1
370
    15
100
AcDbSpline
210
0.0
220
0.0
230
1.0
 70
     8
 71
     3
 72
    12
 73
     8
 74
     0
 42
0.000000001
 43
0.00000001
 40
0.0
 40
0.0
 40
0.0
 40
0.0
 40
0.25
 40
0.25
 40
0.5000000000000001
 40
0.5000000000000001
 40
1.0
 40
1.0
 40
1.0
 40
1.0
 10
17.016579330788
 20
7.910732441855377
 30
0.0
 10
16.99679898441664
 20
7.878083424684378
 30
0.0
 10
16.97796921938841
 20
7.816632783821333
 30
0.0
 10
16.93891568152609
 20
7.634815852130791
 30
0.0
 10
16.91881121130874
 20
7.513982139633999
 30
0.0
 10
16.85774614995339
 20
7.064279472689318
 30
0.0
 10
16.81605370586753
 20
6.646479890455058
 30
0.0
 10
16.776186376552
 20
6.140996443983367
 30
0.0
  0
SPLINE
  5
1FC
330
1F
100
AcDbEntity
  8
0
  6
Continuous
 62
     1
370
    15
100
AcDbSpline
210
0.0
220
0.0
230
1.0
 70
     8
 71
     3
 72
    10
 73
     6
 74
     0
 42
0.000000001
 43
0.00000001
 40
0.0
 40
0.0
 40
0.0
 40
0.0
 40
0.5
 40
0.5
 40
1.0
 40
1.0
 40
1.0
 40
1.0
 10
15.11319253888943
 20
-7.766282563574672
 30
0.0
 10
15.1499335799882
 20
-7.743302766774088
 30
0.0
 10
15.19307583503622
 20
-7.730333907820484
 30
0.0
 10
15.28680793743941
 20
-7.730448288272537
 30
0.0
 10
15.33747297431903
 20
-7.744367298182175
 30
0.0
 10
15.38196977812637
 20
-7.774530358829558
 30
0.0
  0
SPLINE
  5
1FD
330
1F
100
AcDbEntity
  8
0
  6
Continuous
 62
     1
370
    15
100
AcDbSpline
210
0.0
220
0.0
230
1.0
 70
     8
 71
     3
 72
    12
 73
     8
 74
     0
 42
0.000000001
 43
0.00000001
 40
0.0
 40
0.0
 40
0.0
 40
0.0
 40
0.2500000000000001
 40
0.2500000000000001
 40
0.5000000000000001
 40
0.5000000000000001
 40
1.0
 40
1.0
 40
1.0
 40
1.0
 10
16.04464346338573
 20
-6.47494542051027
 30
0.0
 10
16.02445900986911
 20
-6.70668215861914
 30
0.0
 10
16.00462748200044
 20
-6.91217898212653
 30
0.0
 10
15.96629465433991
 20
-7.266467446130804
 30
0.0
 10
15.94685371539597
 20
-7.418328867389876
 30
0.0
 10
15.88668755901884
 20
-7.791816936055632
 30
0.0
 10
15.84493476376893
 20
-7.926645068730355
 30
0.0
 10
15.80436012883253
 20
-7.936857471036209
 30
0.0
  0
SPLINE
  5
1FE
330
1F
100
AcDbEntity
  8
0
  6
Continuous
 62
     1
370
    15
100
AcDbSpline
210
0.0
220
0.0
230
1.0
 70
     8
 71
     3
 72
     8
 73
     4
 74
     0
 42
0.000000001
 43
0.00000001
 40
0.0
 40
0.0
 40
0.0
 40
0.0
 40
1.0
 40
1.0
 40
1.0
 40
1.0
 10
15.38196977812637
 20
-7.774530358829571
 30
0.0
 10
15.5148725447479
 20
-7.864621193829034
 30
0.0
 10
15.66064186492446
 20
-7.918160129405253
 30
0.0
 10
15.80436012883221
 20
-7.936857471036243
 30
0.0
  0
LINE
  5
1FF
330
1F
100
AcDbEntity
  8
0
  6
Continuous
 62
     1
370
    15
100
AcDbLine
 10
15.24632197245956
 20
7.764331530779595
 30
0.0
 11
15.2406995780766
 21
7.763830013573164
 31
0.0
  0
LINE
  5
200
330
1F
100
AcDbEntity
  8
0
  6
Continuous
 62
     1
370
    15
100
AcDbLine
 10
15.23109158873558
 20
7.759308442473406
 30
0.0
 11
15.2294729501009
 21
7.755516562610859
 31
0.0
  0
LINE
  5
201
330
1F
100
AcDbEntity
  8
0
  6
Continuous
 62
     1
370
    15
100
AcDbLine
 10
16.26249967515469
 20
-7.734325714409358
 30
0.0
 11
16.24372141808271
 21
-7.753252983093269
 31
0.0
  0
SPLINE
  5
202
330
1F
100
AcDbEntity
  8
0
  6
Continuous
 62
     1
370
    15
100
AcDbSpline
210
0.0
220
0.0
230
1.0
 70
     8
 71
     3
 72
     8
 73
     4
 74
     0
 42
0.000000001
 43
0.00000001
 40
0.0
 40
0.0
 40
0.0
 40
0.0
 40
1.0
 40
1.0
 40
1.0
 40
1.0
 10
15.8043601288231
 20
-7.93685747103733
 30
0.0
 10
15.9571354632734
 20
-7.919138431766431
 30
0.0
 10
16.09938252874719
 20
-7.862864742432569
 30
0.0
 10
16.22038809445882
 20
-7.776771128251569
 30
0.0
  0
LINE
  5
203
330
1F
100
AcDbEntity
  8
0
  6
Continuous
 62
     1
370
    15
100
AcDbLine
 10
17.6065383143723
 20
-7.769193965941675
 30
0.0
 11
17.60459324717522
 21
-7.773337420076139
 31
0.0
  0
LINE
  5
204
330
1F
100
AcDbEntity
  8
0
  6
Continuous
 62
     1
370
    15
100
AcDbLine
 10
16.4892017506063
 20
-7.769912015646703
 30
0.0
 11
16.52725838497281
 21
-7.786396890878684
 31
0.0
  0
SPLINE
  5
205
330
1F
100
AcDbEntity
  8
0
  6
Continuous
 62
     1
370
    15
100
AcDbSpline
210
0.0
220
0.0
230
1.0
 70
     8
 71
     3
 72
    12
 73
     8
 74
     0
 42
0.000000001
 43
0.00000001
 40
0.0
 40
0.0
 40
0.0
 40
0.0
 40
0.0340911807983956
 40
0.3096124204147796
 40
0.5376021602071476
 40
0.7682046744694415
 40
1.0
 40
1.0
 40
1.0
 40
1.0
 10
14.53960506618023
 20
7.927364669740195
 30
0.0
 10
14.53738709662263
 20
7.92883133757201
 30
0.0
 10
14.51724373675498
 20
7.942151456345208
 30
0.0
 10
14.48357852653265
 20
7.839839177565858
 30
0.0
 10
14.4373842374196
 20
7.632544118203995
 30
0.0
 10
14.39255867029526
 20
7.338258632846925
 30
0.0
 10
14.36230559617948
 20
7.065889621138703
 30
0.0
 10
14.34714003838599
 20
6.9293538108468
 30
0.0
  0
SPLINE
  5
206
330
1F
100
AcDbEntity
  8
외형선
  6
Continuous
370
    15
100
AcDbSpline
210
0.0
220
0.0
230
1.0
 70
     8
 71
     3
 72
    10
 73
     6
 74
     0
 42
0.000000001
 43
0.00000001
 40
0.0
 40
0.0
 40
0.0
 40
0.0
 40
0.4999999999999999
 40
0.4999999999999999
 40
1.0
 40
1.0
 40
1.0
 40
1.0
 10
11.39223023429649
 20
-7.446309101816174
 30
0.0
 10
11.35545972433868
 20
-7.431805509920524
 30
0.0
 10
11.31228763775089
 20
-7.426695817450902
 30
0.0
 10
11.21850621547739
 20
-7.43950923994584
 30
0.0
 10
11.16782159458725
 20
-7.458138414045241
 30
0.0
 10
11.12331226284203
 20
-7.490002222340868
 30
0.0
  0
SPLINE
  5
207
330
1F
100
AcDbEntity
  8
외형선
  6
Continuous
370
    15
100
AcDbSpline
210
0.0
220
0.0
230
1.0
 70
     8
 71
     3
 72
     8
 73
     4
 74
     0
 42
0.000000001
 43
0.00000001
 40
0.0
 40
0.0
 40
0.0
 40
0.0
 40
1.0
 40
1.0
 40
1.0
 40
1.0
 10
11.12331226284199
 20
-7.490002222340905
 30
0.0
 10
10.99034903696243
 20
-7.585189334204232
 30
0.0
 10
10.84450892738189
 20
-7.652372293738781
 30
0.0
 10
10.70074446726373
 20
-7.688489813047452
 30
0.0
  0
SPLINE
  5
208
330
1F
100
AcDbEntity
  8
외형선
  6
Continuous
370
    15
100
AcDbSpline
210
0.0
220
0.0
230
1.0
 70
     8
 71
     3
 72
     8
 73
     4
 74
     0
 42
0.000000001
 43
0.00000001
 40
0.0
 40
0.0
 40
0.0
 40
0.0
 40
1.0
 40
1.0
 40
1.0
 40
1.0
 10
10.70074447094968
 20
-7.688489812919242
 30
0.0
 10
10.54784291405115
 20
-7.693810309682492
 30
0.0
 10
10.40549756810174
 20
-7.663311258210864
 30
0.0
 10
10.2843836120035
 20
-7.604101528052722
 30
0.0
  0
SPLINE
  5
209
330
1F
100
AcDbEntity
  8
외형선
  6
Continuous
370
    15
100
AcDbSpline
210
0.0
220
0.0
230
1.0
 70
     8
 71
     3
 72
    10
 73
     6
 74
     0
 42
0.000000001
 43
0.00000001
 40
0.0
 40
0.0
 40
0.0
 40
0.0
 40
0.5
 40
0.5
 40
1.0
 40
1.0
 40
1.0
 40
1.0
 10
10.28438361200349
 20
-7.604101528052706
 30
0.0
 10
10.24779816947513
 20
-7.586215776074932
 30
0.0
 10
10.20473372143298
 20
-7.577995116832371
 30
0.0
 10
10.11100115350678
 20
-7.585691970762021
 30
0.0
 10
10.06022107541369
 20
-7.602346053127722
 30
0.0
 10
10.01538271153962
 20
-7.633464785069172
 30
0.0
  0
SPLINE
  5
20A
330
1F
100
AcDbEntity
  8
외형선
  6
Continuous
370
    15
100
AcDbSpline
210
0.0
220
0.0
230
1.0
 70
     8
 71
     3
 72
    10
 73
     6
 74
     0
 42
0.000000001
 43
0.00000001
 40
0.0
 40
0.0
 40
0.0
 40
0.0
 40
0.5
 40
0.5
 40
1.0
 40
1.0
 40
1.0
 40
1.0
 10
10.01538271153965
 20
-7.633464785069167
 30
0.0
 10
9.83958723235171
 20
-7.7554704052727
 30
0.0
 10
9.646120891228676
 20
-7.82166431399355
 30
0.0
 10
9.27745370129058
 20
-7.847457376785005
 30
0.0
 10
9.10569977715529
 20
-7.807487061985618
 30
0.0
 10
8.961227803696936
 20
-7.725432479301613
 30
0.0
  0
LINE
  5
20B
330
1F
100
AcDbEntity
  8
외형선
  6
Continuous
370
    15
100
AcDbLine
 10
11.74499764014036
 20
-7.477527484297759
 30
0.0
 11
11.64230465795845
 21
-7.501947693526752
 31
0.0
  0
SPLINE
  5
20C
330
1F
100
AcDbEntity
  8
외형선
  6
Continuous
370
    15
100
AcDbSpline
210
0.0
220
0.0
230
1.0
 70
     8
 71
     3
 72
     8
 73
     4
 74
     0
 42
0.000000001
 43
0.00000001
 40
0.0
 40
0.0
 40
0.0
 40
0.0
 40
1.0
 40
1.0
 40
1.0
 40
1.0
 10
11.64230468598254
 20
-7.50194749563545
 30
0.0
 10
11.55300003340946
 20
-7.495472335922059
 30
0.0
 10
11.46841405281065
 20
-7.476358699008321
 30
0.0
 10
11.39223023429648
 20
-7.446309101816178
 30
0.0
  0
LINE
  5
20D
330
1F
100
AcDbEntity
  8
0
  6
Continuous
 62
     1
370
    15
100
AcDbLine
 10
17.85893418267369
 20
-7.760865613818176
 30
0.0
 11
17.85354974120855
 21
-7.754075340926654
 31
0.0
  0
SPLINE
  5
20E
330
1F
100
AcDbEntity
  8
0
  6
Continuous
 62
     1
370
    15
100
AcDbSpline
210
0.0
220
0.0
230
1.0
 70
     8
 71
     3
 72
    10
 73
     6
 74
     0
 42
0.000000001
 43
0.00000001
 40
0.0
 40
0.0
 40
0.0
 40
0.0
 40
0.3366272216740139
 40
0.6771055716782035
 40
1.0
 40
1.0
 40
1.0
 40
1.0
 10
18.47522758319974
 20
-7.181578781455761
 30
0.0
 10
18.4556303627536
 20
-7.334413232828583
 30
0.0
 10
18.41621172308594
 20
-7.641830612962893
 30
0.0
 10
18.3558253876532
 20
-7.895314767580809
 30
0.0
 10
18.31614417754599
 20
-7.920584609577388
 30
0.0
 10
18.29682948440313
 20
-7.932884618639953
 30
0.0
  0
SPLINE
  5
214
330
1F
100
AcDbEntity
  8
외형선
  6
Continuous
370
    15
100
AcDbSpline
210
0.0
220
0.0
230
1.0
 70
    24
 71
     3
 72
     8
 73
     4
 74
     0
 42
0.000000001
 43
0.00000001
 40
0.0
 40
0.0
 40
0.0
 40
0.0
 40
1.0
 40
1.0
 40
1.0
 40
1.0
 10
12.0
 20
7.471529770300247
 30
0.0
 10
12.0
 20
7.666657587478905
 30
0.0
 10
12.0
 20
7.802225420201712
 30
0.0
 10
12.0
 20
7.87618352335952
 30
0.0
  0
LINE
  5
215
330
1F
100
AcDbEntity
  8
0
  6
Continuous
 62
     1
370
    15
100
AcDbLine
 10
12.04494695551694
 20
7.929089479148383
 30
0.0
 11
12.00000004749745
 21
7.876183837652199
 31
0.0
  0
SPLINE
  5
217
330
1F
100
AcDbEntity
  8
외형선
  6
Continuous
370
    15
100
AcDbSpline
210
0.0
220
0.0
230
1.0
 70
     8
 71
     3
 72
    10
 73
     6
 74
     0
 42
0.000000001
 43
0.00000001
 40
0.0
 40
0.0
 40
0.0
 40
0.0
 40
0.3156511023803222
 40
0.8659173005035444
 40
1.0
 40
1.0
 40
1.0
 40
1.0
 10
11.72182976873592
 20
7.489342708140606
 30
0.0
 10
11.73246014659802
 20
7.560341892757789
 30
0.0
 10
11.7616221803507
 20
7.755112073561994
 30
0.0
 10
11.79424479949161
 20
7.874326914818988
 30
0.0
 10
11.81774101052536
 20
7.876478475102092
 30
0.0
 10
11.82234456203878
 20
7.87690002471208
 30
0.0
  0
SPLINE
  5
218
330
1F
100
AcDbEntity
  8
0
  6
Continuous
 62
     1
370
    15
100
AcDbSpline
210
0.0
220
0.0
230
1.0
 70
     8
 71
     3
 72
     9
 73
     5
 74
     0
 42
0.000000001
 43
0.00000001
 40
0.0
 40
0.0
 40
0.0
 40
0.0
 40
0.5707414539061937
 40
1.0
 40
1.0
 40
1.0
 40
1.0
 10
20.90540999919176
 20
-7.664176635444171
 30
0.0
 10
20.88565722035035
 20
-7.753434339352154
 30
0.0
 10
20.85104824161537
 20
-7.909823372069324
 30
0.0
 10
20.81661410603229
 20
-7.918030316038518
 30
0.0
 10
20.8018329590559
 20
-7.921553216874607
 30
0.0
  0
LINE
  5
219
330
1F
100
AcDbEntity
  8
0
  6
Continuous
 62
     1
370
    15
100
AcDbLine
 10
21.24647522717714
 20
-7.754862774163492
 30
0.0
 11
21.24391502141953
 21
-7.756450679153211
 31
0.0
  0
SPLINE
  5
21B
330
1F
100
AcDbEntity
  8
0
  6
Continuous
 62
     1
370
    15
100
AcDbSpline
210
0.0
220
0.0
230
1.0
 70
     8
 71
     3
 72
     9
 73
     5
 74
     0
 42
0.000000001
 43
0.00000001
 40
0.0
 40
0.0
 40
0.0
 40
0.0
 40
0.0812865852012905
 40
1.0
 40
1.0
 40
1.0
 40
1.0
 10
27.0458292812109
 20
7.929913699626917
 30
0.0
 10
27.0440468496346
 20
7.932021027364137
 30
0.0
 10
27.02211910384625
 20
7.957945695401333
 30
0.0
 10
27.00098264581071
 20
7.886308513235043
 30
0.0
 10
26.98156429827214
 20
7.820494472980496
 30
0.0
  0
LINE
  5
21C
330
1F
100
AcDbEntity
  8
외형선
  6
Continuous
370
    15
100
AcDbLine
 10
9.993876040913165
 20
7.754278834909195
 30
0.0
 11
9.99114586878568
 21
7.756898645311589
 31
0.0
  0
LINE
  5
21D
330
1F
100
AcDbEntity
  8
0
  6
Continuous
 62
     1
370
    15
100
AcDbLine
 10
26.60766156762838
 20
7.761953398585314
 30
0.0
 11
26.60470834374428
 21
7.757760584354395
 31
0.0
  0
LINE
  5
21E
330
1F
100
AcDbEntity
  8
0
  6
Continuous
 62
     1
370
    15
100
AcDbLine
 10
23.33409065753222
 20
-7.907797582447536
 30
0.0
 11
23.29256950318813
 21
-7.924926467239864
 31
0.0
  0
LINE
  5
21F
330
1F
100
AcDbEntity
  8
0
  6
Continuous
 62
     1
370
    15
100
AcDbLine
 10
23.75643426924944
 20
-7.763390429317958
 30
0.0
 11
23.73552048951387
 21
-7.765039801597602
 31
0.0
  0
LINE
  5
221
330
1F
100
AcDbEntity
  8
중심선
 62
     1
100
AcDbLine
 10
-48.14999999999996
 20
-0.0000000000000059
 30
0.0
 11
34.05000000000002
 21
0.0000000000000042
 31
0.0
  0
LINE
  5
222
330
1F
100
AcDbEntity
  8
참조1
100
AcDbLine
 10
-9.049999999999981
 20
0.0010749287238892
 30
0.0
 11
-9.049999999999974
 21
-39.99892507127611
 31
0.0
  0
LINE
  5
223
330
1F
100
AcDbEntity
  8
참조1
100
AcDbLine
 10
-9.049999999999974
 20
-39.99892507127611
 30
0.0
 11
13.92939446285957
 21
-39.9989250712761
 31
0.0
  0
CIRCLE
  5
224
330
1F
100
AcDbEntity
  8
해칭선
100
AcDbCircle
 10
0.0
 20
0.0
 30
0.0
 40
3.000000000000001
  0
INSERT
  5
225
330
1F
100
AcDbEntity
  8
0
  6
Continuous
 62
     7
100
AcDbBlockReference
 66
     1
  2
블럭10
 10
-18.42793429794592
 20
-36.5437732794618
 30
0.0
  0
ATTRIB
  5
226
330
225
100
AcDbEntity
  8
FORMAT
 62
     2
100
AcDbText
 10
-27.6092295866872
 20
-34.46840636662962
 30
0.0
 40
4.233333333333333
  1
E5056040 [ 5 FLUTE ]
 41
0.75
  7
SLDTEXTSTYLE0
 11
-27.6092295866872
 21
-36.58507303329628
 31
0.0
100
AcDbAttribute
  2
AUTOATTR0
 70
     0
 74
     1
  0
SEQEND
  5
227
330
225
100
AcDbEntity
  8
0
  6
Continuous
 62
     7
  0
HATCH
  5
228
330
1F
100
AcDbEntity
  8
중심선
100
AcDbHatch
 10
0.0
 20
0.0
 30
0.0
210
0.0
220
0.0
230
1.0
  2
SOLID
 70
     1
 71
     0
 91
        1
 92
        0
 93
        4
 72
     1
 10
-12.71302499356508
 20
-20.29659897781787
 11
-16.15930023740236
 21
-20.29659897781787
 72
     1
 10
-16.15930023740236
 20
-20.29659897781787
 11
-18.28753009660639
 21
-22.83292455839047
 72
     1
 10
-18.28753009660639
 20
-22.83292455839047
 11
-14.84122176765596
 21
-22.83288512908798
 72
     1
 10
-14.84122176765596
 20
-22.83288512908798
 11
-12.71302499356508
 21
-20.29659897781787
 97
        0
 75
     0
 76
     1
 98
        1
 10
4.562338634179262
 20
15.50232609345824
  0
HATCH
  5
229
330
1F
100
AcDbEntity
  8
중심선
100
AcDbHatch
 10
0.0
 20
0.0
 30
0.0
210
0.0
220
0.0
230
1.0
  2
SOLID
 70
     1
 71
     0
 91
        1
 92
        0
 93
        4
 72
     1
 10
-7.700261002529103
 20
-20.29659897781787
 11
-11.14653624636641
 21
-20.29659897781787
 72
     1
 10
-11.14653624636641
 20
-20.29659897781787
 11
-15.6776742547238
 21
-25.69659897781789
 72
     1
 10
-15.6776742547238
 20
-25.69659897781789
 11
-12.23139901088652
 21
-25.69659897781789
 72
     1
 10
-12.23139901088652
 20
-25.69659897781789
 11
-7.700261002529103
 21
-20.29659897781787
 97
        0
 75
     0
 76
     1
 98
        1
 10
4.562338634179262
 20
15.50232609345824
  0
HATCH
  5
22A
330
1F
100
AcDbEntity
  8
중심선
100
AcDbHatch
 10
0.0
 20
0.0
 30
0.0
210
0.0
220
0.0
230
1.0
  2
SOLID
 70
     1
 71
     0
 91
        1
 92
        0
 93
        4
 72
     1
 10
-2.687497011493235
 20
-20.29659897781787
 11
-6.133772255330323
 21
-20.29659897781787
 72
     1
 10
-6.133772255330323
 20
-20.29659897781787
 11
-13.1822091572196
 21
-28.69659897781789
 72
     1
 10
-13.1822091572196
 20
-28.69659897781789
 11
-9.735933913382318
 21
-28.69659897781789
 72
     1
 10
-9.735933913382318
 20
-28.69659897781789
 11
-2.687497011493235
 21
-20.29659897781787
 97
        0
 75
     0
 76
     1
 98
        1
 10
4.562338634179262
 20
15.50232609345824
  0
HATCH
  5
22B
330
1F
100
AcDbEntity
  8
중심선
100
AcDbHatch
 10
0.0
 20
0.0
 30
0.0
210
0.0
220
0.0
230
1.0
  2
SOLID
 70
     1
 71
     0
 91
        1
 92
        0
 93
        6
 72
     3
 10
2.112393419518964
 20
-24.49659897786914
 11
3.960054785062284
 21
1.540882976769353E-10
 40
0.3939339440162627
 50
17.0953918060844
 51
320.0019657685086
 73
     0
 72
     1
 10
3.795393075219559
 20
-23.0844929824562
 11
6.100694948920625
 21
-21.15016627240825
 72
     3
 10
2.112393419466117
 20
-24.49659897781802
 11
6.600054785286829
 21
-1.278976924368180E-13
 40
0.6363583540795982
 50
39.99873849337382
 51
368.4976242363724
 73
     1
 72
     1
 10
8.537725911366728
 20
-23.53659897774789
 11
0.7924607263020409
 21
-23.53659897774789
 72
     1
 10
0.79246072630204
 20
-23.53659897774789
 11
0.792435681856106
 21
-25.45659897774778
 72
     1
 10
0.792435681856106
 20
-25.45659897774778
 11
5.233815451328143
 21
-25.45659897774775
 97
        0
 75
     0
 76
     1
 98
        1
 10
4.562338634179262
 20
15.50232609345824
  0
DIMENSION
  5
22C
330
1F
100
AcDbEntity
  8
치수문자_일반주서
100
AcDbDimension
  2
_D
 10
-58.14999999999992
 20
-7.937500000000071
 30
0.0
 11
-58.15000000000005
 21
28.76024999999994
 31
0.0
 70
   160
  1
%%c<>
 71
     2
 42
15.875
 52
-270.0
  3
SLDDIMSTYLE0
100
AcDbAlignedDimension
 13
-44.14999999999998
 23
7.93749999999998
 33
0.0
 14
-44.14999999999998
 24
-7.93750000000002
 34
0.0
 50
90.0000000000002
100
AcDbRotatedDimension
1001
ACAD
1000
DSTYLE
1002
{
1070
   171
1070
     6
1070
   273
1070
     5
1002
}
  0
DIMENSION
  5
241
330
1F
100
AcDbEntity
  8
치수문자_일반주서
100
AcDbDimension
  2
_D_1
 10
12.0
 20
18.46987061926136
 30
0.0
 11
22.06156083771382
 21
18.46987061926136
 31
0.0
 70
   160
  1
<>
 71
     2
 42
19.05
  3
SLDDIMSTYLE0
100
AcDbAlignedDimension
 13
31.05
 23
7.937500253319735
 33
0.0
 14
12.0
 24
-5.739077443912263
 34
0.0
100
AcDbRotatedDimension
1001
ACAD
1000
DSTYLE
1002
{
1070
   171
1070
     6
1070
   273
1070
     5
1002
}
  0
DIMENSION
  5
256
330
1F
100
AcDbEntity
  8
치수문자_일반주서
100
AcDbDimension
  2
_D_2
 10
31.05
 20
39.00049028620469
 30
0.0
 11
-7.049999999999985
 21
39.00049028620469
 31
0.0
 70
   160
  1
<>
 71
     2
 42
76.19999999999997
  3
SLDDIMSTYLE0
100
AcDbAlignedDimension
 13
-45.14999999999998
 23
6.937499999999986
 33
0.0
 14
31.05
 24
7.937500253319735
 34
0.0
 50
-0.0000000000000053
100
AcDbRotatedDimension
1001
ACAD
1000
DSTYLE
1002
{
1070
   171
1070
     6
1070
   273
1070
     5
1002
}
  0
DIMENSION
  5
26A
330
1F
100
AcDbEntity
  8
치수문자_일반주서
100
AcDbDimension
  2
_D_3
 10
62.08325005267002
 20
-7.937499999999808
 30
0.0
 11
62.0832500526699
 21
28.76025025331982
 31
0.0
 70
   160
  1
%%c<>
 71
     2
 42
15.87500025331966
 52
-270.0
  3
SLDDIMSTYLE0
100
AcDbAlignedDimension
 13
31.05
 23
7.937500253319735
 33
0.0
 14
31.05
 24
-7.937499999999924
 34
0.0
 50
90.0000000000002
100
AcDbRotatedDimension
1001
ACAD
1000
DSTYLE
1002
{
1070
   171
1070
     6
1070
   273
1070
     5
1002
}
  0
LINE
  5
27E
330
1F
100
AcDbEntity
  8
참조1
100
AcDbLine
 10
111.9017350925138
 20
7.441074928723896
 30
0.0
 11
111.9017350925138
 21
-7.438925071276109
 31
0.0
  0
LINE
  5
27F
330
1F
100
AcDbEntity
  8
참조1
100
AcDbLine
 10
124.6017350925138
 20
5.441074928723896
 30
0.0
 11
111.9017350925138
 21
5.441074928723896
 31
0.0
  0
SOLID
  5
280
330
1F
100
AcDbEntity
  8
참조1
100
AcDbTrace
 10
111.9017350925138
 20
5.441074928723896
 30
0.0
 11
118.2517350925138
 21
4.425074928723896
 31
0.0
 12
118.2517350925138
 22
6.457074928723896
 32
0.0
 13
118.2517350925138
 23
6.457074928723896
 33
0.0
  0
LINE
  5
281
330
1F
100
AcDbEntity
  8
참조1
100
AcDbLine
 10
124.6017350925138
 20
-5.438925071276109
 30
0.0
 11
111.9017350925138
 21
-5.438925071276109
 31
0.0
  0
SOLID
  5
282
330
1F
100
AcDbEntity
  8
참조1
100
AcDbTrace
 10
111.9017350925138
 20
-5.438925071276109
 30
0.0
 11
118.2517350925138
 21
-6.454925071276109
 31
0.0
 12
118.2517350925138
 22
-4.422925071276109
 32
0.0
 13
118.2517350925138
 23
-4.422925071276109
 33
0.0
  0
MTEXT
  5
283
330
1F
100
AcDbEntity
  8
참조1
100
AcDbMText
 10
121.5018499030764
 20
11.06679249473997
 30
0.0
 40
3.5
 41
0.0
 71
     1
 72
     1
  1
A
  7
SLDTEXTSTYLE0
 73
     1
 44
1.0
  0
MTEXT
  5
284
330
1F
100
AcDbEntity
  8
참조1
100
AcDbMText
 10
121.5018499030764
 20
0.1867924947399667
 30
0.0
 40
3.5
 41
0.0
 71
     1
 72
     1
  1
A
  7
SLDTEXTSTYLE0
 73
     1
 44
1.0
  0
INSERT
  5
28B
330
1F
100
AcDbEntity
  8
해칭선
100
AcDbBlockReference
  2
SW_DOWELSYMBOL_0
 10
0.0
 20
0.0
 30
0.0
  0
ARC
  5
425
330
1F
100
AcDbEntity
  8
0
  6
Continuous
 62
     1
370
    15
100
AcDbCircle
 10
29.526
 20
6.413500253319734
 30
0.0
 40
1.524
100
AcDbArc
 50
0.0
 51
90.0330354030449
  0
LINE
  5
428
330
1F
100
AcDbEntity
  8
0
  6
Continuous
 62
     1
370
    15
100
AcDbLine
 10
31.05
 20
6.413500253319734
 30
0.0
 11
31.05
 21
4.300477537618649
 31
0.0
  0
LINE
  5
42A
330
1F
100
AcDbEntity
  8
외형선
  6
Continuous
370
    15
100
AcDbLine
 10
11.8781557068916
 20
-4.660912043573317
 30
0.0
 11
12.0
 21
-4.782125156239278
 31
0.0
  0
DIMENSION
  5
42C
330
1F
100
AcDbEntity
  8
치수문자_일반주서
100
AcDbDimension
  2
*D17
 10
29.526
 20
6.413500253319734
 30
0.0
 11
44.35882900520759
 21
22.83408391232141
 31
0.0
 70
   164
  1
<>
 71
     5
 42
1.524
  3
SLDDIMSTYLE0
100
AcDbRadialDimension
 15
30.54756685664933
 25
7.544418976038395
 35
0.0
 40
0.0
1001
ACAD_DSTYLE_DIMRADIAL_EXTENSION
1070
   387
1070
     1
1070
   388
1040
0.0
1070
   390
1040
1.571372903347754
  0
LINE
  5
4A9
330
1F
100
AcDbEntity
  8
외형선
  6
Continuous
370
    15
100
AcDbLine
 10
-26.03332554240228
 20
6.286499999999956
 30
0.0
 11
-15.84792554240227
 21
6.286499999999956
 31
0.0
  0
LINE
  5
4AA
330
1F
100
AcDbEntity
  8
외형선
  6
Continuous
370
    15
100
AcDbLine
 10
-26.03332554240218
 20
6.286499999999958
 30
0.0
 11
-27.684325795722
 21
7.937500253319735
 31
0.0
  0
LINE
  5
4AC
330
1F
100
AcDbEntity
  8
외형선
  6
Continuous
370
    15
100
AcDbLine
 10
-15.84792554240248
 20
6.286499999999956
 30
0.0
 11
-14.1969252890826
 21
7.937500253319733
 31
0.0
  0
LINE
  5
4AD
330
1F
100
AcDbEntity
  8
외형선
  6
Continuous
370
    15
100
AcDbLine
 10
-27.68432579572201
 20
7.937500253319735
 30
0.0
 11
-44.14999851584435
 21
7.937500253319735
 31
0.0
  0
ENDSEC
  0
SECTION
  2
OBJECTS
  0
DICTIONARY
  5
C
330
0
100
AcDbDictionary
281
     1
  3
ACAD_GROUP
350
D
  3
ACAD_IMAGE_VARS
350
2AF
  3
ACAD_LAYOUT
350
1A
  3
ACAD_MLINESTYLE
350
17
  3
ACAD_PLOTSETTINGS
350
19
  3
ACAD_PLOTSTYLENAME
350
E
  3
ACAD_SCALELIST
350
47
  3
APPDATA
350
2AD
  3
DWGPROPS
350
4D2
  0
DICTIONARY
  5
369
330
2
100
AcDbDictionary
280
     1
281
     1
  3
ACAD_LAYERSTATES
360
36A
  0
DICTIONARY
  5
4D0
330
1F
100
AcDbDictionary
280
     1
281
     1
  3
DIM_BOUNDING_BOXES_V1
360
4D1
  0
DICTIONARY
  5
D
102
{ACAD_REACTORS
330
C
102
}
330
C
100
AcDbDictionary
281
     1
  0
RASTERVARIABLES
  5
2AF
102
{ACAD_REACTORS
330
C
102
}
330
C
100
AcDbRasterVariables
 90
        0
 70
     1
 71
     1
 72
     1
  0
DICTIONARY
  5
1A
102
{ACAD_REACTORS
330
C
102
}
330
C
100
AcDbDictionary
281
     1
  3
Layout1
350
1E
  3
Layout2
350
26
  3
Model
350
22
  0
DICTIONARY
  5
17
102
{ACAD_REACTORS
330
C
102
}
330
C
100
AcDbDictionary
281
     1
  3
Standard
350
18
  0
DICTIONARY
  5
19
102
{ACAD_REACTORS
330
C
102
}
330
C
100
AcDbDictionary
281
     1
  0
ACDBDICTIONARYWDFLT
  5
E
102
{ACAD_REACTORS
330
C
102
}
330
C
100
AcDbDictionary
281
     1
  3
Normal
350
F
100
AcDbDictionaryWithDefault
340
F
  0
DICTIONARY
  5
47
102
{ACAD_REACTORS
330
C
102
}
330
C
100
AcDbDictionary
281
     1
  3
A0
350
48
  3
A1
350
49
  3
A2
350
4A
  3
A3
350
4B
  3
A4
350
4C
  3
A5
350
4D
  3
A6
350
4E
  3
A7
350
4F
  3
A8
350
50
  3
A9
350
51
  3
B0
350
52
  3
B1
350
53
  3
B2
350
54
  3
B3
350
55
  3
B4
350
56
  3
B5
350
57
  3
B6
350
58
  3
B7
350
59
  3
B8
350
5A
  3
B9
350
5B
  3
C0
350
5C
  3
C1
350
5D
  3
C2
350
5E
  3
C3
350
5F
  3
C4
350
60
  3
C5
350
61
  3
C6
350
62
  3
C7
350
63
  3
C8
350
64
  3
C9
350
65
  3
D0
350
66
  3
D1
350
67
  3
D2
350
68
  0
DICTIONARY
  5
2AD
102
{ACAD_REACTORS
330
C
102
}
330
C
100
AcDbDictionary
281
     1
  0
XRECORD
  5
4D2
102
{ACAD_REACTORS
330
C
102
}
330
C
100
AcDbXrecord
280
     1
  1
DWGPROPS COOKIE
  2

  3

  4

  6

  7

  8
12011056
  9

300
=
301
=
302
=
303
=
304
=
305
=
306
=
307
=
308
=
309
=
 40
0.0
 41
2458319.182055301
 42
2459720.015876319
  1

 90
        0
  0
DICTIONARY
  5
36A
102
{ACAD_REACTORS
330
369
102
}
330
369
100
AcDbDictionary
281
     1
  0
DICTIONARY
  5
4D1
102
{ACAD_REACTORS
330
4D0
102
}
330
4D0
100
AcDbDictionary
281
     1
  0
LAYOUT
  5
1E
102
{ACAD_REACTORS
330
1A
102
}
330
1A
100
AcDbPlotSettings
  1

  2
none_device
  4

  6

 40
0.0
 41
0.0
 42
0.0
 43
0.0
 44
0.0
 45
0.0
 46
0.0
 47
0.0
 48
0.0
 49
0.0
140
0.0
141
0.0
142
1.0
143
1.0
 70
   688
 72
     1
 73
     0
 74
     5
  7

 75
    16
147
1.0
148
0.0
149
0.0
100
AcDbLayout
  1
Layout1
 70
     1
 71
     1
 10
0.0
 20
0.0
 11
420.0
 21
297.0
 12
0.0
 22
0.0
 32
0.0
 14
1.000000000000000E+20
 24
1.000000000000000E+20
 34
1.000000000000000E+20
 15
-1.000000000000000E+20
 25
-1.000000000000000E+20
 35
-1.000000000000000E+20
146
0.0
 13
0.0
 23
0.0
 33
0.0
 16
1.0
 26
0.0
 36
0.0
 17
0.0
 27
1.0
 37
0.0
 76
     0
330
1B
  0
LAYOUT
  5
26
102
{ACAD_REACTORS
330
1A
102
}
330
1A
100
AcDbPlotSettings
  1

  2
none_device
  4

  6

 40
0.0
 41
0.0
 42
0.0
 43
0.0
 44
0.0
 45
0.0
 46
0.0
 47
0.0
 48
0.0
 49
0.0
140
0.0
141
0.0
142
1.0
143
1.0
 70
   688
 72
     1
 73
     0
 74
     5
  7

 75
    16
147
1.0
148
0.0
149
0.0
100
AcDbLayout
  1
Layout2
 70
     1
 71
     2
 10
0.0
 20
0.0
 11
0.0
 21
0.0
 12
0.0
 22
0.0
 32
0.0
 14
0.0
 24
0.0
 34
0.0
 15
0.0
 25
0.0
 35
0.0
146
0.0
 13
0.0
 23
0.0
 33
0.0
 16
1.0
 26
0.0
 36
0.0
 17
0.0
 27
1.0
 37
0.0
 76
     0
330
23
  0
LAYOUT
  5
22
102
{ACAD_REACTORS
330
1A
102
}
330
1A
100
AcDbPlotSettings
  1

  2
none_device
  4
ANSI_A_(11.00_x_8.50_Inches)
  6

 40
6.35
 41
19.05
 42
6.35000508
 43
19.05000254
 44
279.4
 45
215.9
 46
95.39865663740083
 47
90.09543149444
 48
0.0
 49
0.0
140
0.0
141
0.0
142
0.0556906151533775
143
1.0
 70
  1696
 72
     0
 73
     0
 74
     0
  7

 75
     0
147
0.0235690232323232
148
0.0
149
0.0
100
AcDbLayout
  1
Model
 70
     1
 71
     0
 10
0.0
 20
0.0
 11
420.0
 21
297.0
 12
0.0
 22
0.0
 32
0.0
 14
-62.52500000000009
 24
-39.99892507127611
 34
0.0
 15
124.6017350925138
 25
43.37549028620469
 35
0.0
146
0.0
 13
0.0
 23
0.0
 33
0.0
 16
1.0
 26
0.0
 36
0.0
 17
0.0
 27
1.0
 37
0.0
 76
     0
330
1F
331
29
  0
MLINESTYLE
  5
18
102
{ACAD_REACTORS
330
17
102
}
330
17
100
AcDbMlineStyle
  2
Standard
 70
     0
  3

 62
   256
 51
90.0
 52
90.0
 71
     2
 49
0.5
 62
   256
  6
BYLAYER
 49
-0.5
 62
   256
  6
BYLAYER
  0
ACDBPLACEHOLDER
  5
F
102
{ACAD_REACTORS
330
E
102
}
330
E
  0
SCALE
  5
48
102
{ACAD_REACTORS
330
47
102
}
330
47
100
AcDbScale
 70
     0
300
1:1
140
1.0
141
1.0
290
     1
  0
SCALE
  5
49
102
{ACAD_REACTORS
330
47
102
}
330
47
100
AcDbScale
 70
     0
300
1:2
140
1.0
141
2.0
290
     0
  0
SCALE
  5
4A
102
{ACAD_REACTORS
330
47
102
}
330
47
100
AcDbScale
 70
     0
300
1:4
140
1.0
141
4.0
290
     0
  0
SCALE
  5
4B
102
{ACAD_REACTORS
330
47
102
}
330
47
100
AcDbScale
 70
     0
300
1:5
140
1.0
141
5.0
290
     0
  0
SCALE
  5
4C
102
{ACAD_REACTORS
330
47
102
}
330
47
100
AcDbScale
 70
     0
300
1:8
140
1.0
141
8.0
290
     0
  0
SCALE
  5
4D
102
{ACAD_REACTORS
330
47
102
}
330
47
100
AcDbScale
 70
     0
300
1:10
140
1.0
141
10.0
290
     0
  0
SCALE
  5
4E
102
{ACAD_REACTORS
330
47
102
}
330
47
100
AcDbScale
 70
     0
300
1:16
140
1.0
141
16.0
290
     0
  0
SCALE
  5
4F
102
{ACAD_REACTORS
330
47
102
}
330
47
100
AcDbScale
 70
     0
300
1:20
140
1.0
141
20.0
290
     0
  0
SCALE
  5
50
102
{ACAD_REACTORS
330
47
102
}
330
47
100
AcDbScale
 70
     0
300
1:30
140
1.0
141
30.0
290
     0
  0
SCALE
  5
51
102
{ACAD_REACTORS
330
47
102
}
330
47
100
AcDbScale
 70
     0
300
1:40
140
1.0
141
40.0
290
     0
  0
SCALE
  5
52
102
{ACAD_REACTORS
330
47
102
}
330
47
100
AcDbScale
 70
     0
300
1:50
140
1.0
141
50.0
290
     0
  0
SCALE
  5
53
102
{ACAD_REACTORS
330
47
102
}
330
47
100
AcDbScale
 70
     0
300
1:100
140
1.0
141
100.0
290
     0
  0
SCALE
  5
54
102
{ACAD_REACTORS
330
47
102
}
330
47
100
AcDbScale
 70
     0
300
2:1
140
2.0
141
1.0
290
     0
  0
SCALE
  5
55
102
{ACAD_REACTORS
330
47
102
}
330
47
100
AcDbScale
 70
     0
300
4:1
140
4.0
141
1.0
290
     0
  0
SCALE
  5
56
102
{ACAD_REACTORS
330
47
102
}
330
47
100
AcDbScale
 70
     0
300
8:1
140
8.0
141
1.0
290
     0
  0
SCALE
  5
57
102
{ACAD_REACTORS
330
47
102
}
330
47
100
AcDbScale
 70
     0
300
10:1
140
10.0
141
1.0
290
     0
  0
SCALE
  5
58
102
{ACAD_REACTORS
330
47
102
}
330
47
100
AcDbScale
 70
     0
300
100:1
140
100.0
141
1.0
290
     0
  0
SCALE
  5
59
102
{ACAD_REACTORS
330
47
102
}
330
47
100
AcDbScale
 70
     0
300
1/128" = 1'-0"
140
0.0078125
141
12.0
290
     0
  0
SCALE
  5
5A
102
{ACAD_REACTORS
330
47
102
}
330
47
100
AcDbScale
 70
     0
300
1/64" = 1'-0"
140
0.015625
141
12.0
290
     0
  0
SCALE
  5
5B
102
{ACAD_REACTORS
330
47
102
}
330
47
100
AcDbScale
 70
     0
300
1/32" = 1'-0"
140
0.03125
141
12.0
290
     0
  0
SCALE
  5
5C
102
{ACAD_REACTORS
330
47
102
}
330
47
100
AcDbScale
 70
     0
300
1/16" = 1'-0"
140
0.0625
141
12.0
290
     0
  0
SCALE
  5
5D
102
{ACAD_REACTORS
330
47
102
}
330
47
100
AcDbScale
 70
     0
300
3/32" = 1'-0"
140
0.09375
141
12.0
290
     0
  0
SCALE
  5
5E
102
{ACAD_REACTORS
330
47
102
}
330
47
100
AcDbScale
 70
     0
300
1/8" = 1'-0"
140
0.125
141
12.0
290
     0
  0
SCALE
  5
5F
102
{ACAD_REACTORS
330
47
102
}
330
47
100
AcDbScale
 70
     0
300
3/16" = 1'-0"
140
0.1875
141
12.0
290
     0
  0
SCALE
  5
60
102
{ACAD_REACTORS
330
47
102
}
330
47
100
AcDbScale
 70
     0
300
1/4" = 1'-0"
140
0.25
141
12.0
290
     0
  0
SCALE
  5
61
102
{ACAD_REACTORS
330
47
102
}
330
47
100
AcDbScale
 70
     0
300
3/8" = 1'-0"
140
0.375
141
12.0
290
     0
  0
SCALE
  5
62
102
{ACAD_REACTORS
330
47
102
}
330
47
100
AcDbScale
 70
     0
300
1/2" = 1'-0"
140
0.5
141
12.0
290
     0
  0
SCALE
  5
63
102
{ACAD_REACTORS
330
47
102
}
330
47
100
AcDbScale
 70
     0
300
3/4" = 1'-0"
140
0.75
141
12.0
290
     0
  0
SCALE
  5
64
102
{ACAD_REACTORS
330
47
102
}
330
47
100
AcDbScale
 70
     0
300
1" = 1'-0"
140
1.0
141
12.0
290
     0
  0
SCALE
  5
65
102
{ACAD_REACTORS
330
47
102
}
330
47
100
AcDbScale
 70
     0
300
1-1/2" = 1'-0"
140
1.5
141
12.0
290
     0
  0
SCALE
  5
66
102
{ACAD_REACTORS
330
47
102
}
330
47
100
AcDbScale
 70
     0
300
3" = 1'-0"
140
3.0
141
12.0
290
     0
  0
SCALE
  5
67
102
{ACAD_REACTORS
330
47
102
}
330
47
100
AcDbScale
 70
     0
300
6" = 1'-0"
140
6.0
141
12.0
290
     0
  0
SCALE
  5
68
102
{ACAD_REACTORS
330
47
102
}
330
47
100
AcDbScale
 70
     0
300
1'-0" = 1'-0"
140
12.0
141
12.0
290
     0
  0
ENDSEC
  0
EOF
