  0
SECTION
  2
HEADER
  9
$ACADVER
  1
AC1015
  9
$ACADMAINTVER
 70
     6
  9
$DWGCODEPAGE
  3
ANSI_949
  9
$INSBASE
 10
0.0
 20
0.0
 30
0.0
  9
$EXTMIN
 10
-56.17500000000005
 20
-39.99892507127611
 30
0.0
  9
$EXTMAX
 10
124.6017350925138
 20
50.991419584289
 30
0.0
  9
$LIMMIN
 10
0.0
 20
0.0
  9
$LIMMAX
 10
420.0
 20
297.0
  9
$ORTHOMODE
 70
     0
  9
$REGENMODE
 70
     1
  9
$FILLMODE
 70
     1
  9
$QTEXTMODE
 70
     0
  9
$MIRRTEXT
 70
     1
  9
$LTSCALE
 40
1.0
  9
$ATTMODE
 70
     1
  9
$TEXTSIZE
 40
3.5
  9
$TRACEWID
 40
1.0
  9
$TEXTSTYLE
  7
Standard
  9
$CLAYER
  8
0
  9
$CELTYPE
  6
ByLayer
  9
$CECOLOR
 62
   256
  9
$CELTSCALE
 40
1.0
  9
$DISPSILH
 70
     0
  9
$DIMSCALE
 40
1.0
  9
$DIMASZ
 40
3.302
  9
$DIMEXO
 40
1.0
  9
$DIMDLI
 40
3.75
  9
$DIMRND
 40
0.0
  9
$DIMDLE
 40
0.0
  9
$DIMEXE
 40
1.0
  9
$DIMTP
 40
0.0
  9
$DIMTM
 40
0.0
  9
$DIMTXT
 40
3.5
  9
$DIMCEN
 40
2.5
  9
$DIMTSZ
 40
0.0
  9
$DIMTOL
 70
     0
  9
$DIMLIM
 70
     0
  9
$DIMTIH
 70
     1
  9
$DIMTOH
 70
     1
  9
$DIMSE1
 70
     0
  9
$DIMSE2
 70
     0
  9
$DIMTAD
 70
     1
  9
$DIMZIN
 70
     0
  9
$DIMBLK
  1

  9
$DIMASO
 70
     1
  9
$DIMSHO
 70
     1
  9
$DIMPOST
  1

  9
$DIMAPOST
  1

  9
$DIMALT
 70
     0
  9
$DIMALTD
 70
     3
  9
$DIMALTF
 40
0.0393700787401575
  9
$DIMLFAC
 40
1.0
  9
$DIMTOFL
 70
     1
  9
$DIMTVP
 40
0.0
  9
$DIMTIX
 70
     0
  9
$DIMSOXD
 70
     0
  9
$DIMSAH
 70
     0
  9
$DIMBLK1
  1

  9
$DIMBLK2
  1

  9
$DIMSTYLE
  2
ISO-25
  9
$DIMCLRD
 70
     0
  9
$DIMCLRE
 70
     0
  9
$DIMCLRT
 70
     0
  9
$DIMTFAC
 40
1.0
  9
$DIMGAP
 40
1.524
  9
$DIMJUST
 70
     0
  9
$DIMSD1
 70
     0
  9
$DIMSD2
 70
     0
  9
$DIMTOLJ
 70
     0
  9
$DIMTZIN
 70
     0
  9
$DIMALTZ
 70
     0
  9
$DIMALTTZ
 70
     0
  9
$DIMUPT
 70
     0
  9
$DIMDEC
 70
     2
  9
$DIMTDEC
 70
     2
  9
$DIMALTU
 70
     2
  9
$DIMALTTD
 70
     3
  9
$DIMTXSTY
  7
Standard
  9
$DIMAUNIT
 70
     0
  9
$DIMADEC
 70
     2
  9
$DIMALTRND
 40
0.0
  9
$DIMAZIN
 70
     0
  9
$DIMDSEP
 70
    44
  9
$DIMATFIT
 70
     3
  9
$DIMFRAC
 70
     0
  9
$DIMLDRBLK
  1

  9
$DIMLUNIT
 70
     2
  9
$DIMLWD
 70
    -2
  9
$DIMLWE
 70
    -2
  9
$DIMTMOVE
 70
     0
  9
$LUNITS
 70
     2
  9
$LUPREC
 70
     2
  9
$SKETCHINC
 40
1.0
  9
$FILLETRAD
 40
10.0
  9
$AUNITS
 70
     0
  9
$AUPREC
 70
     2
  9
$MENU
  1
.
  9
$ELEVATION
 40
0.0
  9
$PELEVATION
 40
0.0
  9
$THICKNESS
 40
0.0
  9
$LIMCHECK
 70
     0
  9
$CHAMFERA
 40
0.0
  9
$CHAMFERB
 40
0.0
  9
$CHAMFERC
 40
0.0
  9
$CHAMFERD
 40
0.0
  9
$SKPOLY
 70
     0
  9
$TDCREATE
 40
2458319.557220857
  9
$TDUCREATE
 40
2458319.182220857
  9
$TDUPDATE
 40
2459720.391292257
  9
$TDUUPDATE
 40
2459720.016292257
  9
$TDINDWG
 40
0.001095
  9
$TDUSRTIMER
 40
0.0003544097
  9
$USRTIMER
 70
     1
  9
$ANGBASE
 50
0.0
  9
$ANGDIR
 70
     0
  9
$PDMODE
 70
     0
  9
$PDSIZE
 40
-1.0
  9
$PLINEWID
 40
0.0
  9
$SPLFRAME
 70
     0
  9
$SPLINETYPE
 70
     6
  9
$SPLINESEGS
 70
     8
  9
$HANDSEED
  5
523
  9
$SURFTAB1
 70
     6
  9
$SURFTAB2
 70
     6
  9
$SURFTYPE
 70
     6
  9
$SURFU
 70
     6
  9
$SURFV
 70
     6
  9
$UCSBASE
  2

  9
$UCSNAME
  2

  9
$UCSORG
 10
0.0
 20
0.0
 30
0.0
  9
$UCSXDIR
 10
1.0
 20
0.0
 30
0.0
  9
$UCSYDIR
 10
0.0
 20
1.0
 30
0.0
  9
$UCSORTHOREF
  2

  9
$UCSORTHOVIEW
 70
     0
  9
$UCSORGTOP
 10
0.0
 20
0.0
 30
0.0
  9
$UCSORGBOTTOM
 10
0.0
 20
0.0
 30
0.0
  9
$UCSORGLEFT
 10
0.0
 20
0.0
 30
0.0
  9
$UCSORGRIGHT
 10
0.0
 20
0.0
 30
0.0
  9
$UCSORGFRONT
 10
0.0
 20
0.0
 30
0.0
  9
$UCSORGBACK
 10
0.0
 20
0.0
 30
0.0
  9
$PUCSBASE
  2

  9
$PUCSNAME
  2

  9
$PUCSORG
 10
0.0
 20
0.0
 30
0.0
  9
$PUCSXDIR
 10
1.0
 20
0.0
 30
0.0
  9
$PUCSYDIR
 10
0.0
 20
1.0
 30
0.0
  9
$PUCSORTHOREF
  2

  9
$PUCSORTHOVIEW
 70
     0
  9
$PUCSORGTOP
 10
0.0
 20
0.0
 30
0.0
  9
$PUCSORGBOTTOM
 10
0.0
 20
0.0
 30
0.0
  9
$PUCSORGLEFT
 10
0.0
 20
0.0
 30
0.0
  9
$PUCSORGRIGHT
 10
0.0
 20
0.0
 30
0.0
  9
$PUCSORGFRONT
 10
0.0
 20
0.0
 30
0.0
  9
$PUCSORGBACK
 10
0.0
 20
0.0
 30
0.0
  9
$USERI1
 70
     0
  9
$USERI2
 70
     0
  9
$USERI3
 70
     0
  9
$USERI4
 70
     0
  9
$USERI5
 70
     0
  9
$USERR1
 40
0.0
  9
$USERR2
 40
0.0
  9
$USERR3
 40
0.0
  9
$USERR4
 40
0.0
  9
$USERR5
 40
0.0
  9
$WORLDVIEW
 70
     1
  9
$SHADEDGE
 70
     3
  9
$SHADEDIF
 70
    70
  9
$TILEMODE
 70
     1
  9
$MAXACTVP
 70
    64
  9
$PINSBASE
 10
0.0
 20
0.0
 30
0.0
  9
$PLIMCHECK
 70
     0
  9
$PEXTMIN
 10
1.000000000000000E+20
 20
1.000000000000000E+20
 30
1.000000000000000E+20
  9
$PEXTMAX
 10
-1.000000000000000E+20
 20
-1.000000000000000E+20
 30
-1.000000000000000E+20
  9
$PLIMMIN
 10
0.0
 20
0.0
  9
$PLIMMAX
 10
0.0
 20
0.0
  9
$UNITMODE
 70
     0
  9
$VISRETAIN
 70
     1
  9
$PLINEGEN
 70
     0
  9
$PSLTSCALE
 70
     1
  9
$TREEDEPTH
 70
  3020
  9
$CMLSTYLE
  2
Standard
  9
$CMLJUST
 70
     0
  9
$CMLSCALE
 40
20.0
  9
$PROXYGRAPHICS
 70
     1
  9
$MEASUREMENT
 70
     1
  9
$CELWEIGHT
370
    -1
  9
$ENDCAPS
280
     0
  9
$JOINSTYLE
280
     0
  9
$LWDISPLAY
290
     1
  9
$INSUNITS
 70
     4
  9
$HYPERLINKBASE
  1

  9
$STYLESHEET
  1

  9
$XEDIT
290
     1
  9
$CEPSNTYPE
380
     0
  9
$PSTYLEMODE
290
     1
  9
$FINGERPRINTGUID
  2
{4EED861B-36E6-4B85-9FCE-F4F6C56B1785}
  9
$VERSIONGUID
  2
{FAEB1C32-E019-11D5-929B-00C0DF256EC4}
  9
$EXTNAMES
290
     1
  9
$PSVPSCALE
 40
0.0
  9
$OLESTARTUP
290
     0
  0
ENDSEC
  0
SECTION
  2
CLASSES
  0
CLASS
  1
ACDBDICTIONARYWDFLT
  2
AcDbDictionaryWithDefault
  3
ObjectDBX Classes
 90
        0
280
     0
281
     0
  0
CLASS
  1
VISUALSTYLE
  2
AcDbVisualStyle
  3
ObjectDBX Classes
 90
     4095
280
     0
281
     0
  0
CLASS
  1
MATERIAL
  2
AcDbMaterial
  3
ObjectDBX Classes
 90
     1153
280
     0
281
     0
  0
CLASS
  1
SCALE
  2
AcDbScale
  3
ObjectDBX Classes
 90
     1153
280
     0
281
     0
  0
CLASS
  1
SUN
  2
AcDbSun
  3
SCENEOE
 90
     1153
280
     0
281
     0
  0
CLASS
  1
ACDBPLACEHOLDER
  2
AcDbPlaceHolder
  3
ObjectDBX Classes
 90
        0
280
     0
281
     0
  0
CLASS
  1
LAYOUT
  2
AcDbLayout
  3
ObjectDBX Classes
 90
        0
280
     0
281
     0
  0
CLASS
  1
TABLESTYLE
  2
AcDbTableStyle
  3
ObjectDBX Classes
 90
     4095
280
     0
281
     0
  0
CLASS
  1
MLEADERSTYLE
  2
AcDbMLeaderStyle
  3
ACDB_MLEADERSTYLE_CLASS
 90
     4095
280
     0
281
     0
  0
CLASS
  1
RASTERVARIABLES
  2
AcDbRasterVariables
  3
ISM
 90
        0
280
     0
281
     0
  0
CLASS
  1
DIMASSOC
  2
AcDbDimAssoc
  3
"AcDbDimAssoc|Product Desc:     AcDim ARX App For Dimension|Company:          Autodesk, Inc.|WEB Address:      www.autodesk.com"
 90
        0
280
     0
281
     0
  0
ENDSEC
  0
SECTION
  2
TABLES
  0
TABLE
  2
VPORT
  5
8
330
0
100
AcDbSymbolTable
 70
     1
  0
VPORT
  5
29
330
8
100
AcDbSymbolTableRecord
100
AcDbViewportTableRecord
  2
*Active
 70
     0
 10
0.0
 20
0.0
 11
1.0
 21
1.0
 12
14.97657323926277
 22
9.271631235666316
 13
0.0
 23
0.0
 14
10.0
 24
10.0
 15
10.0
 25
10.0
 16
0.0
 26
0.0
 36
1.0
 17
0.0
 27
0.0
 37
0.0
 40
135.7836505370962
 41
1.519944979367263
 42
50.0
 43
0.0
 44
0.0
 50
0.0
 51
0.0
 71
    16
 72
  2000
 73
     1
 74
     3
 75
     0
 76
     0
 77
     0
 78
     0
281
     0
 65
     1
110
0.0
120
0.0
130
0.0
111
1.0
121
0.0
131
0.0
112
0.0
122
1.0
132
0.0
 79
     0
146
0.0
  0
ENDTAB
  0
TABLE
  2
LTYPE
  5
5
330
0
100
AcDbSymbolTable
 70
     6
  0
LTYPE
  5
14
330
5
100
AcDbSymbolTableRecord
100
AcDbLinetypeTableRecord
  2
ByBlock
 70
     0
  3

 72
    65
 73
     0
 40
0.0
  0
LTYPE
  5
15
330
5
100
AcDbSymbolTableRecord
100
AcDbLinetypeTableRecord
  2
ByLayer
 70
     0
  3

 72
    65
 73
     0
 40
0.0
  0
LTYPE
  5
16
330
5
100
AcDbSymbolTableRecord
100
AcDbLinetypeTableRecord
  2
Continuous
 70
     0
  3
Solid line
 72
    65
 73
     0
 40
0.0
  0
LTYPE
  5
6A
330
5
100
AcDbSymbolTableRecord
100
AcDbLinetypeTableRecord
  2
HIDDEN
 70
     0
  3
Hidden __ __ __ __ __ __ __ __ __ __ __ __ __ __
 72
    65
 73
     2
 40
1.905
 49
1.27
 74
     0
 49
-0.635
 74
     0
  0
LTYPE
  5
6B
330
5
100
AcDbSymbolTableRecord
100
AcDbLinetypeTableRecord
  2
PHANTOM
 70
     0
  3
Phantom ______  __  __  ______  __  __  ______
 72
    65
 73
     6
 40
12.7
 49
6.35
 74
     0
 49
-1.27
 74
     0
 49
1.27
 74
     0
 49
-1.27
 74
     0
 49
1.27
 74
     0
 49
-1.27
 74
     0
  0
LTYPE
  5
6C
330
5
100
AcDbSymbolTableRecord
100
AcDbLinetypeTableRecord
  2
CENTER
 70
     0
  3
Center ____ _ ____ _ ____ _ ____ _ ____ _ ____
 72
    65
 73
     4
 40
10.16
 49
6.35
 74
     0
 49
-1.27
 74
     0
 49
1.27
 74
     0
 49
-1.27
 74
     0
  0
LTYPE
  5
6D
330
5
100
AcDbSymbolTableRecord
100
AcDbLinetypeTableRecord
  2
CENTERX2
 70
     0
  3
Center (2x) ________  __  ________  __  _____
 72
    65
 73
     4
 40
20.32
 49
12.7
 74
     0
 49
-2.54
 74
     0
 49
2.54
 74
     0
 49
-2.54
 74
     0
  0
LTYPE
  5
6E
330
5
100
AcDbSymbolTableRecord
100
AcDbLinetypeTableRecord
  2
DOT2
 70
     0
  3
Dot (.5x) ........................................
 72
    65
 73
     2
 40
0.635
 49
0.0
 74
     0
 49
-0.635
 74
     0
  0
ENDTAB
  0
TABLE
  2
LAYER
  5
2
102
{ACAD_XDICTIONARY
360
3E2
102
}
330
0
100
AcDbSymbolTable
 70
    18
  0
LAYER
  5
10
330
2
100
AcDbSymbolTableRecord
100
AcDbLayerTableRecord
  2
0
 70
     0
 62
     7
  6
Continuous
370
    -3
390
F
  0
LAYER
  5
6F
330
2
100
AcDbSymbolTableRecord
100
AcDbLayerTableRecord
  2
FORMAT
 70
     0
 62
     2
  6
Continuous
370
    -3
390
F
  0
LAYER
  5
70
330
2
100
AcDbSymbolTableRecord
100
AcDbLayerTableRecord
  2
외형선
 70
     0
 62
     4
  6
Continuous
370
    30
390
F
  0
LAYER
  5
71
330
2
100
AcDbSymbolTableRecord
100
AcDbLayerTableRecord
  2
숨은선
 70
     0
 62
     2
  6
HIDDEN
370
    15
390
F
  0
LAYER
  5
72
330
2
100
AcDbSymbolTableRecord
100
AcDbLayerTableRecord
  2
중심선
 70
     0
 62
     1
  6
CENTERX2
370
    -3
390
F
  0
LAYER
  5
73
330
2
100
AcDbSymbolTableRecord
100
AcDbLayerTableRecord
  2
파단선
 70
     0
 62
     4
  6
Continuous
370
    -3
390
F
  0
LAYER
  5
74
330
2
100
AcDbSymbolTableRecord
100
AcDbLayerTableRecord
  2
해칭선
 70
     0
 62
   100
  6
Continuous
370
    -3
390
F
  0
LAYER
  5
75
330
2
100
AcDbSymbolTableRecord
100
AcDbLayerTableRecord
  2
가는실선
 70
     0
 62
     4
  6
Continuous
370
    -3
390
F
  0
LAYER
  5
76
330
2
100
AcDbSymbolTableRecord
100
AcDbLayerTableRecord
  2
치수_보조선
 70
     0
 62
     4
  6
Continuous
370
    -3
390
F
  0
LAYER
  5
77
330
2
100
AcDbSymbolTableRecord
100
AcDbLayerTableRecord
  2
치수문자_일반주서
 70
     0
 62
     7
  6
Continuous
370
    15
390
F
  0
LAYER
  5
78
330
2
100
AcDbSymbolTableRecord
100
AcDbLayerTableRecord
  2
개별주서
 70
     0
 62
   100
  6
Continuous
370
    30
390
F
  0
LAYER
  5
79
330
2
100
AcDbSymbolTableRecord
100
AcDbLayerTableRecord
  2
중간선
 70
     0
 62
     2
  6
Continuous
370
    15
390
F
  0
LAYER
  5
7A
330
2
100
AcDbSymbolTableRecord
100
AcDbLayerTableRecord
  2
윤곽선
 70
     0
 62
     3
  6
Continuous
370
    40
390
F
  0
LAYER
  5
7B
330
2
100
AcDbSymbolTableRecord
100
AcDbLayerTableRecord
  2
중심마크
 70
     0
 62
   100
  6
Continuous
370
    30
390
F
  0
LAYER
  5
7C
330
2
100
AcDbSymbolTableRecord
100
AcDbLayerTableRecord
  2
가상선
 70
     0
 62
     4
  6
PHANTOM
370
    -3
390
F
  0
LAYER
  5
7D
330
2
100
AcDbSymbolTableRecord
100
AcDbLayerTableRecord
  2
특수지정선
 70
     0
 62
     5
  6
CENTERX2
370
    60
390
F
  0
LAYER
  5
7E
330
2
100
AcDbSymbolTableRecord
100
AcDbLayerTableRecord
  2
참조1
 70
     0
 62
    -4
  6
Continuous
370
    -3
390
F
  0
LAYER
  5
319
330
2
100
AcDbSymbolTableRecord
100
AcDbLayerTableRecord
  2
Defpoints
 70
     0
 62
     7
  6
Continuous
290
     0
370
    -3
390
F
  0
ENDTAB
  0
TABLE
  2
STYLE
  5
3
330
0
100
AcDbSymbolTable
 70
     2
  0
STYLE
  5
11
330
3
100
AcDbSymbolTableRecord
100
AcDbTextStyleTableRecord
  2
Standard
 70
     0
 40
0.0
 41
1.0
 50
0.0
 71
     0
 42
3.5
  3
txt
  4

  0
STYLE
  5
94
330
3
100
AcDbSymbolTableRecord
100
AcDbTextStyleTableRecord
  2
SLDTEXTSTYLE0
 70
     0
 40
0.0
 41
0.75
 50
0.0
 71
     0
 42
3.5
  3
TXT
  4

  0
ENDTAB
  0
TABLE
  2
VIEW
  5
6
330
0
100
AcDbSymbolTable
 70
     0
  0
ENDTAB
  0
TABLE
  2
UCS
  5
7
330
0
100
AcDbSymbolTable
 70
     0
  0
ENDTAB
  0
TABLE
  2
APPID
  5
9
330
0
100
AcDbSymbolTable
 70
     3
  0
APPID
  5
12
330
9
100
AcDbSymbolTableRecord
100
AcDbRegAppTableRecord
  2
ACAD
 70
     0
  0
APPID
  5
31C
330
9
100
AcDbSymbolTableRecord
100
AcDbRegAppTableRecord
  2
ACAD_DSTYLE_DIMRADIAL_EXTENSION
 70
     0
  0
APPID
  5
336
330
9
100
AcDbSymbolTableRecord
100
AcDbRegAppTableRecord
  2
PE_URL
 70
     0
  0
ENDTAB
  0
TABLE
  2
DIMSTYLE
  5
A
330
0
100
AcDbSymbolTable
 70
     5
100
AcDbDimStyleTable
  0
DIMSTYLE
105
27
330
A
100
AcDbSymbolTableRecord
100
AcDbDimStyleTableRecord
  2
ISO-25
 70
     0
 41
2.5
 42
0.625
 43
3.75
 44
1.25
 73
     0
 74
     0
 77
     1
 78
     8
140
2.5
141
2.5
143
0.03937007874016
147
0.625
171
     3
172
     1
178
     0
271
     2
272
     2
274
     3
278
    44
283
     0
284
     8
340
11
  0
DIMSTYLE
105
292
102
{ACAD_REACTORS
330
291
330
2BC
330
2D0
330
2A6
330
31D
102
}
330
A
100
AcDbSymbolTableRecord
100
AcDbDimStyleTableRecord
  2
SLDDIMSTYLE0
 70
     0
 41
3.302
 44
0.0
 45
0.000000001
 73
     0
 74
     0
 77
     1
 78
    12
 79
     3
140
3.5
143
0.0393700787401575
147
0.875
148
0.000000001
170
     1
172
     1
173
     1
178
     0
271
     2
272
     2
276
     2
284
    12
289
     0
340
94
  0
DIMSTYLE
105
2A7
330
A
100
AcDbSymbolTableRecord
100
AcDbDimStyleTableRecord
  2
SLDDIMSTYLE1
 70
     0
 41
3.302
 44
0.0
 45
0.000000001
 73
     0
 74
     0
 77
     1
 78
     4
 79
     1
140
3.5
143
0.0393700787401575
147
0.875
148
0.000000001
170
     1
172
     1
173
     1
178
     0
271
     2
272
     2
276
     2
284
    12
289
     0
340
94
  0
DIMSTYLE
105
2BD
330
A
100
AcDbSymbolTableRecord
100
AcDbDimStyleTableRecord
  2
SLDDIMSTYLE2
 70
     0
 41
3.302
 44
0.0
 45
0.000000001
 73
     0
 74
     0
 77
     1
 78
     4
 79
     1
140
3.5
143
0.0393700787401575
147
0.875
148
0.000000001
170
     1
173
     1
178
     0
271
     2
272
     2
276
     2
284
    12
340
94
  0
DIMSTYLE
105
2D1
330
A
100
AcDbSymbolTableRecord
100
AcDbDimStyleTableRecord
  2
SLDDIMSTYLE3
 70
     0
 41
3.302
 44
0.0
 45
0.000000001
 73
     0
 74
     0
 77
     1
 78
    12
 79
     3
140
3.5
143
0.0393700787401575
147
0.875
148
0.000000001
170
     1
173
     1
178
     0
271
     2
272
     2
276
     2
284
    12
340
94
  0
ENDTAB
  0
TABLE
  2
BLOCK_RECORD
  5
1
330
0
100
AcDbSymbolTable
 70
    18
  0
BLOCK_RECORD
  5
1F
102
{ACAD_XDICTIONARY
360
520
102
}
330
1
100
AcDbSymbolTableRecord
100
AcDbBlockTableRecord
  2
*Model_Space
340
22
  0
BLOCK_RECORD
  5
1B
330
1
100
AcDbSymbolTableRecord
100
AcDbBlockTableRecord
  2
*Paper_Space
340
1E
  0
BLOCK_RECORD
  5
23
330
1
100
AcDbSymbolTableRecord
100
AcDbBlockTableRecord
  2
*Paper_Space0
340
26
  0
BLOCK_RECORD
  5
7F
330
1
100
AcDbSymbolTableRecord
100
AcDbBlockTableRecord
  2
블럭10
340
0
102
{BLKREFS
331
28A
102
}
  0
BLOCK_RECORD
  5
293
330
1
100
AcDbSymbolTableRecord
100
AcDbBlockTableRecord
  2
_D
340
0
  0
BLOCK_RECORD
  5
2A8
330
1
100
AcDbSymbolTableRecord
100
AcDbBlockTableRecord
  2
_D_1
340
0
  0
BLOCK_RECORD
  5
2BE
330
1
100
AcDbSymbolTableRecord
100
AcDbBlockTableRecord
  2
_D_2
340
0
  0
BLOCK_RECORD
  5
2D2
330
1
100
AcDbSymbolTableRecord
100
AcDbBlockTableRecord
  2
_D_3
340
0
  0
BLOCK_RECORD
  5
2EB
330
1
100
AcDbSymbolTableRecord
100
AcDbBlockTableRecord
  2
SW_DOWELSYMBOL_0
340
0
102
{BLKREFS
331
2F1
102
}
  0
BLOCK_RECORD
  5
320
330
1
100
AcDbSymbolTableRecord
100
AcDbBlockTableRecord
  2
*D7
340
0
  0
BLOCK_RECORD
  5
3C0
330
1
100
AcDbSymbolTableRecord
100
AcDbBlockTableRecord
  2
_D_4
340
0
  0
BLOCK_RECORD
  5
3DA
330
1
100
AcDbSymbolTableRecord
100
AcDbBlockTableRecord
  2
*D9
340
0
  0
BLOCK_RECORD
  5
3E6
330
1
100
AcDbSymbolTableRecord
100
AcDbBlockTableRecord
  2
*D10
340
0
  0
BLOCK_RECORD
  5
3F2
330
1
100
AcDbSymbolTableRecord
100
AcDbBlockTableRecord
  2
*D11
340
0
  0
BLOCK_RECORD
  5
3FE
330
1
100
AcDbSymbolTableRecord
100
AcDbBlockTableRecord
  2
*D12
340
0
  0
BLOCK_RECORD
  5
458
330
1
100
AcDbSymbolTableRecord
100
AcDbBlockTableRecord
  2
*D13
340
0
  0
BLOCK_RECORD
  5
464
330
1
100
AcDbSymbolTableRecord
100
AcDbBlockTableRecord
  2
*D14
340
0
  0
BLOCK_RECORD
  5
470
330
1
100
AcDbSymbolTableRecord
100
AcDbBlockTableRecord
  2
*D15
340
0
  0
BLOCK_RECORD
  5
47E
330
1
100
AcDbSymbolTableRecord
100
AcDbBlockTableRecord
  2
*D16
340
0
  0
BLOCK_RECORD
  5
48C
330
1
100
AcDbSymbolTableRecord
100
AcDbBlockTableRecord
  2
*D17
340
0
  0
ENDTAB
  0
ENDSEC
  0
SECTION
  2
BLOCKS
  0
BLOCK
  5
20
330
1F
100
AcDbEntity
  8
0
100
AcDbBlockBegin
  2
*Model_Space
 70
     0
 10
0.0
 20
0.0
 30
0.0
  3
*Model_Space
  1
*Model_Space
  0
ENDBLK
  5
21
330
1F
100
AcDbEntity
  8
0
100
AcDbBlockEnd
  0
BLOCK
  5
1C
330
1B
100
AcDbEntity
 67
     1
  8
0
100
AcDbBlockBegin
  2
*Paper_Space
 70
     0
 10
0.0
 20
0.0
 30
0.0
  3
*Paper_Space
  1
*Paper_Space
  0
ENDBLK
  5
1D
330
1B
100
AcDbEntity
 67
     1
  8
0
100
AcDbBlockEnd
  0
BLOCK
  5
24
330
23
100
AcDbEntity
  8
0
100
AcDbBlockBegin
  2
*Paper_Space0
 70
     0
 10
0.0
 20
0.0
 30
0.0
  3
*Paper_Space0
  1
*Paper_Space0
  0
ENDBLK
  5
25
330
23
100
AcDbEntity
  8
0
100
AcDbBlockEnd
  0
BLOCK
  5
80
330
7F
100
AcDbEntity
  8
0
100
AcDbBlockBegin
  2
블럭10
 70
     2
 10
0.0
 20
0.0
 30
0.0
  3
블럭10
  1
블럭10
  0
ELLIPSE
  5
82
330
7F
100
AcDbEntity
  8
중심선
100
AcDbEllipse
 10
20.54032771741204
 20
12.0471743016438
 30
0.0
 11
6.600054785286829
 21
-1.261213355974178E-13
 31
0.0
210
0.0
220
0.0
230
1.0
 40
0.636358354079598
 41
0.9219305317359503
 42
6.513795318482858
  0
ELLIPSE
  5
83
330
7F
100
AcDbEntity
  8
중심선
100
AcDbEllipse
 10
20.54032771746488
 20
12.04717430159265
 30
0.0
 11
3.960054785062283
 21
1.540847449632565E-10
 31
0.0
210
0.0
220
0.0
230
1.0
 40
0.3939339440162632
 41
1.131841032648279
 42
5.62031148352944
  0
LINE
  5
84
330
7F
100
AcDbEntity
  8
중심선
100
AcDbLine
 10
2.268634060543552
 20
16.24717430164393
 30
0.0
 11
5.714909304380834
 21
16.24717430164393
 31
0.0
  0
LINE
  5
85
330
7F
100
AcDbEntity
  8
중심선
100
AcDbLine
 10
5.245725140726316
 20
7.84717430164391
 30
0.0
 11
8.692000384563599
 21
7.84717430164391
 31
0.0
  0
LINE
  5
86
330
7F
100
AcDbEntity
  8
중심선
100
AcDbLine
 10
15.74043728645272
 20
16.24717430164393
 30
0.0
 11
8.692000384563599
 21
7.84717430164391
 31
0.0
  0
LINE
  5
87
330
7F
100
AcDbEntity
  8
중심선
100
AcDbLine
 10
0.1404042013395286
 20
13.71084872107135
 30
0.0
 11
3.58671253028996
 21
13.71088815037384
 31
0.0
  0
LINE
  5
88
330
7F
100
AcDbEntity
  8
중심선
100
AcDbLine
 10
2.750260043222114
 20
10.84717430164391
 30
0.0
 11
6.196535287059397
 21
10.84717430164391
 31
0.0
  0
LINE
  5
89
330
7F
100
AcDbEntity
  8
중심선
100
AcDbLine
 10
12.29416204261559
 20
16.24717430164393
 30
0.0
 11
5.245725140726316
 21
7.84717430164391
 31
0.0
  0
LINE
  5
8A
330
7F
100
AcDbEntity
  8
중심선
100
AcDbLine
 10
10.72767329541681
 20
16.24717430164393
 30
0.0
 11
6.196535287059397
 21
10.84717430164391
 31
0.0
  0
LINE
  5
8B
330
7F
100
AcDbEntity
  8
중심선
100
AcDbLine
 10
7.28139805157953
 20
16.24717430164393
 30
0.0
 11
2.750260043222114
 21
10.84717430164391
 31
0.0
  0
LINE
  5
8C
330
7F
100
AcDbEntity
  8
중심선
100
AcDbLine
 10
5.714909304380834
 20
16.24717430164393
 30
0.0
 11
3.58671253028996
 21
13.71088815037384
 31
0.0
  0
LINE
  5
8D
330
7F
100
AcDbEntity
  8
중심선
100
AcDbLine
 10
2.268634060543552
 20
16.24717430164393
 30
0.0
 11
0.1404042013395286
 21
13.71084872107135
 31
0.0
  0
LINE
  5
8E
330
7F
100
AcDbEntity
  8
중심선
100
AcDbLine
 10
7.28139805157953
 20
16.24717430164393
 30
0.0
 11
10.72767329541681
 21
16.24717430164393
 31
0.0
  0
LINE
  5
8F
330
7F
100
AcDbEntity
  8
중심선
100
AcDbLine
 10
12.29416204261559
 20
16.24717430164393
 30
0.0
 11
15.74043728645272
 21
16.24717430164393
 31
0.0
  0
LINE
  5
90
330
7F
100
AcDbEntity
  8
중심선
100
AcDbLine
 10
19.22036997980202
 20
11.08717430171403
 30
0.0
 11
23.66174974927406
 21
11.08717430171406
 31
0.0
  0
LINE
  5
91
330
7F
100
AcDbEntity
  8
중심선
100
AcDbLine
 10
19.22039502424796
 20
13.00717430171391
 30
0.0
 11
19.22036997980202
 21
11.08717430171403
 31
0.0
  0
LINE
  5
92
330
7F
100
AcDbEntity
  8
중심선
100
AcDbLine
 10
19.22039502424796
 20
13.00717430171391
 30
0.0
 11
26.96566020931264
 21
13.00717430171391
 31
0.0
  0
LINE
  5
93
330
7F
100
AcDbEntity
  8
중심선
100
AcDbLine
 10
22.22332737316547
 20
13.45928029700563
 30
0.0
 11
24.52862924686651
 21
15.39360700705356
 31
0.0
  0
ATTDEF
  5
95
330
7F
100
AcDbEntity
  8
FORMAT
 62
     2
100
AcDbText
 10
-9.18129528874128
 20
2.075366912832191
 30
0.0
 40
4.233333333333333
  1
E5056048 [ 5 FLUTE ]
 41
0.75
  7
SLDTEXTSTYLE0
 11
-9.18129528874128
 21
-0.0412997538344756
 31
0.0
100
AcDbAttributeDefinition
  3

  2
AUTOATTR0
 70
     0
 74
     1
  0
ENDBLK
  5
81
330
7F
100
AcDbEntity
  8
0
100
AcDbBlockEnd
  0
BLOCK
  5
294
330
293
100
AcDbEntity
  8
0
100
AcDbBlockBegin
  2
_D
 70
     0
 10
0.0
 20
0.0
 30
0.0
  3
_D
  1
_D
  0
LINE
  5
296
330
293
100
AcDbEntity
  8
치수문자_일반주서
 62
     0
370
    -2
100
AcDbLine
 10
-37.8625
 20
9.525
 30
0.0
 11
-51.79999999999994
 21
9.524999999999949
 31
0.0
  0
LINE
  5
297
330
293
100
AcDbEntity
  8
치수문자_일반주서
 62
     0
370
    -2
100
AcDbLine
 10
-37.8625
 20
-9.525000000000006
 30
0.0
 11
-51.79999999999988
 21
-9.525000000000066
 31
0.0
  0
LINE
  5
298
330
293
100
AcDbEntity
  8
치수문자_일반주서
 62
     0
370
    -2
100
AcDbLine
 10
-51.79999999999994
 20
9.524999999999949
 30
0.0
 11
-51.80000000000006
 21
43.91024999999995
 31
0.0
  0
LINE
  5
299
330
293
100
AcDbEntity
  8
치수문자_일반주서
 62
     0
370
    -2
100
AcDbLine
 10
-51.79999999999994
 20
9.524999999999949
 30
0.0
 11
-51.79999999999988
 21
-9.525000000000066
 31
0.0
  0
LINE
  5
29A
330
293
100
AcDbEntity
  8
치수문자_일반주서
 62
     0
370
    -2
100
AcDbLine
 10
-51.79999999999995
 20
12.82699999999995
 30
0.0
 11
-51.79999999999997
 21
16.12899999999995
 31
0.0
  0
LINE
  5
29B
330
293
100
AcDbEntity
  8
치수문자_일반주서
 62
     0
370
    -2
100
AcDbLine
 10
-51.79999999999986
 20
-12.82700000000007
 30
0.0
 11
-51.79999999999985
 21
-16.12900000000007
 31
0.0
  0
SOLID
  5
29C
330
293
100
AcDbEntity
  8
치수문자_일반주서
 62
     0
100
AcDbTrace
 10
-52.35033333333329
 20
12.82699999999995
 30
0.0
 11
-51.24966666666662
 21
12.82699999999995
 31
0.0
 12
-51.79999999999994
 22
9.524999999999949
 32
0.0
 13
-51.79999999999994
 23
9.524999999999949
 33
0.0
  0
SOLID
  5
29D
330
293
100
AcDbEntity
  8
치수문자_일반주서
 62
     0
100
AcDbTrace
 10
-51.24966666666653
 20
-12.82700000000006
 30
0.0
 11
-52.3503333333332
 21
-12.82700000000007
 31
0.0
 12
-51.79999999999988
 22
-9.525000000000066
 32
0.0
 13
-51.79999999999988
 23
-9.525000000000066
 33
0.0
  0
MTEXT
  5
29E
330
293
100
AcDbEntity
  8
치수문자_일반주서
 62
     0
100
AcDbMText
 10
-56.17500000000001
 20
30.12899999999993
 30
0.0
 40
3.5
 41
0.0
 71
     2
 72
     1
  1
\A1;%%c19.05 [3/4]
  7
SLDTEXTSTYLE0
 11
-3.356894814614646E-15
 21
1.0
 31
0.0
 73
     1
 44
1.0
  0
POINT
  5
497
330
293
100
AcDbEntity
  8
Defpoints
 62
     0
100
AcDbPoint
 10
-37.8
 20
9.525
 30
0.0
  0
POINT
  5
498
330
293
100
AcDbEntity
  8
Defpoints
 62
     0
100
AcDbPoint
 10
-37.8
 20
-9.525000000000006
 30
0.0
  0
POINT
  5
499
330
293
100
AcDbEntity
  8
Defpoints
 62
     0
100
AcDbPoint
 10
-51.79999999999988
 20
-9.525000000000057
 30
0.0
  0
ENDBLK
  5
295
330
293
100
AcDbEntity
  8
0
100
AcDbBlockEnd
  0
BLOCK
  5
2A9
330
2A8
100
AcDbEntity
  8
0
100
AcDbBlockBegin
  2
_D_1
 70
     0
 10
0.0
 20
0.0
 30
0.0
  3
_D_1
  1
_D_1
  0
LINE
  5
2AB
330
2A8
100
AcDbEntity
  8
치수문자_일반주서
 62
     0
370
    -2
100
AcDbLine
 10
37.40000000000002
 20
9.587499999999999
 30
0.0
 11
37.40000000000002
 21
24.44255565969262
 31
0.0
  0
LINE
  5
2AC
330
2A8
100
AcDbEntity
  8
치수문자_일반주서
 62
     0
370
    -2
100
AcDbLine
 10
12.00000000000001
 20
1.264141191873643
 30
0.0
 11
12.00000000000001
 21
24.44255565969262
 31
0.0
  0
LINE
  5
2AD
330
2A8
100
AcDbEntity
  8
치수문자_일반주서
 62
     0
370
    -2
100
AcDbLine
 10
34.09800000000002
 20
24.44255565969262
 30
0.0
 11
15.30200000000001
 21
24.44255565969262
 31
0.0
  0
SOLID
  5
2AE
330
2A8
100
AcDbEntity
  8
치수문자_일반주서
 62
     0
100
AcDbTrace
 10
34.09800000000002
 20
23.89222232635929
 30
0.0
 11
34.09800000000002
 21
24.99288899302596
 31
0.0
 12
37.40000000000002
 22
24.44255565969262
 32
0.0
 13
37.40000000000002
 23
24.44255565969262
 33
0.0
  0
SOLID
  5
2AF
330
2A8
100
AcDbEntity
  8
치수문자_일반주서
 62
     0
100
AcDbTrace
 10
15.30200000000001
 20
24.99288899302596
 30
0.0
 11
15.30200000000001
 21
23.89222232635929
 31
0.0
 12
12.00000000000001
 22
24.44255565969262
 32
0.0
 13
12.00000000000001
 23
24.44255565969262
 33
0.0
  0
MTEXT
  5
2B0
330
2A8
100
AcDbEntity
  8
치수문자_일반주서
 62
     0
100
AcDbMText
 10
25.4154144502851
 20
28.81755565969262
 30
0.0
 40
3.5
 41
0.0
 71
     2
 72
     1
  1
\A1;25.4 [1]
  7
SLDTEXTSTYLE0
 73
     1
 44
1.0
  0
POINT
  5
2B1
330
2A8
100
AcDbEntity
  8
Defpoints
 62
     0
100
AcDbPoint
 10
37.40000000000002
 20
9.524999999999999
 30
0.0
  0
POINT
  5
2B2
330
2A8
100
AcDbEntity
  8
Defpoints
 62
     0
100
AcDbPoint
 10
12.00000000000001
 20
1.201641191873643
 30
0.0
  0
POINT
  5
2B3
330
2A8
100
AcDbEntity
  8
Defpoints
 62
     0
100
AcDbPoint
 10
12.00000000000001
 20
24.44255565969262
 30
0.0
  0
ENDBLK
  5
2AA
330
2A8
100
AcDbEntity
  8
0
100
AcDbBlockEnd
  0
BLOCK
  5
2BF
330
2BE
100
AcDbEntity
  8
0
100
AcDbBlockBegin
  2
_D_2
 70
     0
 10
0.0
 20
0.0
 30
0.0
  3
_D_2
  1
_D_2
  0
LINE
  5
2C1
330
2BE
100
AcDbEntity
  8
치수문자_일반주서
 62
     0
370
    -2
100
AcDbLine
 10
-38.79999999999999
 20
8.58749999999999
 30
0.0
 11
-38.8
 21
40.58799028620471
 31
0.0
  0
LINE
  5
2C2
330
2BE
100
AcDbEntity
  8
치수문자_일반주서
 62
     0
370
    -2
100
AcDbLine
 10
37.40000000000002
 20
9.587499999999999
 30
0.0
 11
37.40000000000001
 21
40.58799028620471
 31
0.0
  0
LINE
  5
2C3
330
2BE
100
AcDbEntity
  8
치수문자_일반주서
 62
     0
370
    -2
100
AcDbLine
 10
-35.498
 20
40.58799028620471
 30
0.0
 11
34.09800000000001
 21
40.58799028620471
 31
0.0
  0
SOLID
  5
2C4
330
2BE
100
AcDbEntity
  8
치수문자_일반주서
 62
     0
100
AcDbTrace
 10
-35.498
 20
41.13832361953804
 30
0.0
 11
-35.498
 21
40.03765695287137
 31
0.0
 12
-38.8
 22
40.58799028620471
 32
0.0
 13
-38.8
 23
40.58799028620471
 33
0.0
  0
SOLID
  5
2C5
330
2BE
100
AcDbEntity
  8
치수문자_일반주서
 62
     0
100
AcDbTrace
 10
34.09800000000001
 20
40.03765695287137
 30
0.0
 11
34.09800000000001
 21
41.13832361953804
 31
0.0
 12
37.40000000000001
 22
40.58799028620471
 32
0.0
 13
37.40000000000001
 23
40.58799028620471
 33
0.0
  0
MTEXT
  5
2C6
330
2BE
100
AcDbEntity
  8
치수문자_일반주서
 62
     0
100
AcDbMText
 10
-0.699999999999994
 20
44.96299028620471
 30
0.0
 40
3.5
 41
0.0
 71
     2
 72
     1
  1
\A1;76.2 [3]
  7
SLDTEXTSTYLE0
 73
     1
 44
1.0
  0
POINT
  5
2C7
330
2BE
100
AcDbEntity
  8
Defpoints
 62
     0
100
AcDbPoint
 10
-38.79999999999999
 20
8.52499999999999
 30
0.0
  0
POINT
  5
2C8
330
2BE
100
AcDbEntity
  8
Defpoints
 62
     0
100
AcDbPoint
 10
37.40000000000002
 20
9.524999999999999
 30
0.0
  0
POINT
  5
2C9
330
2BE
100
AcDbEntity
  8
Defpoints
 62
     0
100
AcDbPoint
 10
37.40000000000002
 20
40.58799028620471
 30
0.0
  0
ENDBLK
  5
2C0
330
2BE
100
AcDbEntity
  8
0
100
AcDbBlockEnd
  0
BLOCK
  5
2D3
330
2D2
100
AcDbEntity
  8
0
100
AcDbBlockBegin
  2
_D_3
 70
     0
 10
0.0
 20
0.0
 30
0.0
  3
_D_3
  1
_D_3
  0
LINE
  5
2D5
330
2D2
100
AcDbEntity
  8
치수문자_일반주서
 62
     0
370
    -2
100
AcDbLine
 10
37.46250000000002
 20
9.524999999999999
 30
0.0
 11
69.99242180844699
 21
9.52500000000012
 31
0.0
  0
LINE
  5
2D6
330
2D2
100
AcDbEntity
  8
치수문자_일반주서
 62
     0
370
    -2
100
AcDbLine
 10
37.46250000000002
 20
-9.524999999999906
 30
0.0
 11
69.99242180844706
 21
-9.524999999999785
 31
0.0
  0
LINE
  5
2D7
330
2D2
100
AcDbEntity
  8
치수문자_일반주서
 62
     0
370
    -2
100
AcDbLine
 10
69.99242180844699
 20
9.52500000000012
 30
0.0
 11
69.99242180844684
 21
50.99141958428901
 31
0.0
  0
LINE
  5
2D8
330
2D2
100
AcDbEntity
  8
치수문자_일반주서
 62
     0
370
    -2
100
AcDbLine
 10
69.99242180844699
 20
9.52500000000012
 30
0.0
 11
69.99242180844706
 21
-9.524999999999785
 31
0.0
  0
LINE
  5
2D9
330
2D2
100
AcDbEntity
  8
치수문자_일반주서
 62
     0
370
    -2
100
AcDbLine
 10
69.99242180844698
 20
12.82700000000012
 30
0.0
 11
69.99242180844696
 21
16.12900000000012
 31
0.0
  0
LINE
  5
2DA
330
2D2
100
AcDbEntity
  8
치수문자_일반주서
 62
     0
370
    -2
100
AcDbLine
 10
69.99242180844708
 20
-12.82699999999979
 30
0.0
 11
69.99242180844709
 21
-16.12899999999978
 31
0.0
  0
SOLID
  5
2DB
330
2D2
100
AcDbEntity
  8
치수문자_일반주서
 62
     0
100
AcDbTrace
 10
69.44208847511365
 20
12.82700000000012
 30
0.0
 11
70.5427551417803
 21
12.82700000000012
 31
0.0
 12
69.99242180844699
 22
9.52500000000012
 32
0.0
 13
69.99242180844699
 23
9.52500000000012
 33
0.0
  0
SOLID
  5
2DC
330
2D2
100
AcDbEntity
  8
치수문자_일반주서
 62
     0
100
AcDbTrace
 10
70.5427551417804
 20
-12.82699999999978
 30
0.0
 11
69.44208847511375
 21
-12.82699999999979
 31
0.0
 12
69.99242180844706
 22
-9.524999999999785
 32
0.0
 13
69.99242180844706
 23
-9.524999999999785
 33
0.0
  0
MTEXT
  5
2DD
330
2D2
100
AcDbEntity
  8
치수문자_일반주서
 62
     0
100
AcDbMText
 10
65.61742180844689
 20
37.210169584289
 30
0.0
 40
3.5
 41
0.0
 71
     2
 72
     1
  1
\A1;%%c19.05 [3/4]
  7
SLDTEXTSTYLE0
 11
-3.729883127349626E-15
 21
1.0
 31
0.0
 73
     1
 44
1.0
  0
POINT
  5
2DE
330
2D2
100
AcDbEntity
  8
Defpoints
 62
     0
100
AcDbPoint
 10
37.40000000000002
 20
9.524999999999999
 30
0.0
  0
POINT
  5
495
330
2D2
100
AcDbEntity
  8
Defpoints
 62
     0
100
AcDbPoint
 10
37.40000000000002
 20
-9.524999999999906
 30
0.0
  0
POINT
  5
496
330
2D2
100
AcDbEntity
  8
Defpoints
 62
     0
100
AcDbPoint
 10
69.99242180844706
 20
-9.524999999999784
 30
0.0
  0
ENDBLK
  5
2D4
330
2D2
100
AcDbEntity
  8
0
100
AcDbBlockEnd
  0
BLOCK
  5
2EC
330
2EB
100
AcDbEntity
  8
0
100
AcDbBlockBegin
  2
SW_DOWELSYMBOL_0
 70
     0
 10
0.0
 20
0.0
 30
0.0
  3
SW_DOWELSYMBOL_0
  1
SW_DOWELSYMBOL_0
  0
CIRCLE
  5
2EE
330
2EB
100
AcDbEntity
  8
해칭선
 62
     0
100
AcDbCircle
 10
0.0
 20
0.0
 30
0.0
 40
3.000000000000001
  0
HATCH
  5
2EF
330
2EB
100
AcDbEntity
  8
0
  6
Continuous
 62
     0
370
     0
100
AcDbHatch
 10
0.0
 20
0.0
 30
0.0
210
0.0
220
0.0
230
1.0
  2
SOLID
 70
     1
 71
     0
 91
        1
 92
        0
 93
        3
 72
     2
 10
0.0000000000000069
 20
0.0
 40
3.000000000000001
 50
0.0
 51
90.0
 73
     1
 72
     1
 10
0.0000000000000069
 20
3.000000000000001
 11
0.0000000000000069
 21
0.0
 72
     1
 10
0.0000000000000069
 20
0.0
 11
3.000000000000008
 21
0.0
 97
        0
 75
     0
 76
     1
 98
        1
 10
0.0
 20
0.0
  0
HATCH
  5
2F0
330
2EB
100
AcDbEntity
  8
0
  6
Continuous
 62
     0
370
     0
100
AcDbHatch
 10
0.0
 20
0.0
 30
0.0
210
0.0
220
0.0
230
1.0
  2
SOLID
 70
     1
 71
     0
 91
        1
 92
        0
 93
        3
 72
     2
 10
0.0000000000000069
 20
0.0
 40
3.000000000000001
 50
180.0
 51
270.0000000000007
 73
     1
 72
     1
 10
0.0000000000000069
 20
-3.000000000000001
 11
0.0000000000000069
 21
0.0
 72
     1
 10
0.0000000000000069
 20
0.0
 11
-2.999999999999994
 21
0.0
 97
        0
 75
     0
 76
     1
 98
        1
 10
0.0
 20
0.0
  0
ENDBLK
  5
2ED
330
2EB
100
AcDbEntity
  8
0
100
AcDbBlockEnd
  0
BLOCK
  5
321
330
320
100
AcDbEntity
  8
0
100
AcDbBlockBegin
  2
*D7
 70
     1
 10
0.0
 20
0.0
 30
0.0
  3
*D7
  1
*D7
  0
LINE
  5
323
330
320
100
AcDbEntity
  8
치수문자_일반주서
 62
     0
370
    -2
100
AcDbLine
 10
39.71362847948241
 20
10.92724065012003
 30
0.0
 11
64.60493528941981
 21
29.90717872413818
 31
0.0
  0
MTEXT
  5
324
330
320
100
AcDbEntity
  8
치수문자_일반주서
 62
     0
100
AcDbMText
 10
51.88048851977502
 20
23.50568831904686
 30
0.0
 40
3.5
 41
0.0
 71
     5
 72
     1
  1
\A1;R1.52 [R0.06]
  7
SLDTEXTSTYLE0
 11
0.7951986074352249
 21
0.6063490535434842
 31
0.0
 73
     1
 44
1.0
  0
LINE
  5
325
330
320
100
AcDbEntity
  8
치수문자_일반주서
 62
     0
370
    -2
100
AcDbLine
 10
35.876
 20
8.001000117719169
 30
0.0
 11
37.08788267773129
 21
8.925076075319444
 31
0.0
  0
SOLID
  5
326
330
320
100
AcDbEntity
  8
치수문자_일반주서
 62
     0
100
AcDbTrace
 10
39.37993438368231
 20
11.36486495041188
 30
0.0
 11
40.04732257528251
 21
10.48961634982818
 31
0.0
 12
37.08788267773129
 22
8.925076075319444
 32
0.0
 13
37.08788267773129
 23
8.925076075319444
 33
0.0
  0
POINT
  5
327
330
320
100
AcDbEntity
  8
Defpoints
 62
     0
100
AcDbPoint
 10
37.08788267773129
 20
8.925076075319444
 30
0.0
  0
POINT
  5
328
330
320
100
AcDbEntity
  8
Defpoints
 62
     0
100
AcDbPoint
 10
35.876
 20
8.001000117719169
 30
0.0
  0
ENDBLK
  5
322
330
320
100
AcDbEntity
  8
0
100
AcDbBlockEnd
  0
BLOCK
  5
3C1
330
3C0
100
AcDbEntity
  8
0
100
AcDbBlockBegin
  2
_D_4
 70
     0
 10
0.0
 20
0.0
 30
0.0
  3
_D_4
  1
_D_4
  0
LINE
  5
3C2
330
3C0
100
AcDbEntity
  8
치수문자_일반주서
 62
     0
370
    -2
100
AcDbLine
 10
102.4375000000001
 20
36.22143424691529
 30
0.0
 11
117.3750000000001
 21
36.22143424691535
 31
0.0
  0
LINE
  5
3C3
330
3C0
100
AcDbEntity
  8
치수문자_일반주서
 62
     0
370
    -2
100
AcDbLine
 10
102.4375000000001
 20
22.22143424691529
 30
0.0
 11
117.3750000000001
 21
22.22143424691535
 31
0.0
  0
LINE
  5
3C4
330
3C0
100
AcDbEntity
  8
치수문자_일반주서
 62
     0
370
    -2
100
AcDbLine
 10
117.3750000000001
 20
36.22143424691535
 30
0.0
 11
117.3750000000001
 21
22.22143424691535
 31
0.0
  0
LINE
  5
3C5
330
3C0
100
AcDbEntity
  8
치수문자_일반주서
 62
     0
370
    -2
100
AcDbLine
 10
117.3750000000001
 20
39.52343424691535
 30
0.0
 11
117.375
 21
42.82543424691535
 31
0.0
  0
LINE
  5
3C6
330
3C0
100
AcDbEntity
  8
치수문자_일반주서
 62
     0
370
    -2
100
AcDbLine
 10
117.3750000000001
 20
18.91943424691535
 30
0.0
 11
117.3750000000001
 21
15.61743424691535
 31
0.0
  0
SOLID
  5
3C7
330
3C0
100
AcDbEntity
  8
치수문자_일반주서
 62
     0
100
AcDbTrace
 10
116.8246666666667
 20
39.52343424691535
 30
0.0
 11
117.9253333333334
 21
39.52343424691535
 31
0.0
 12
117.3750000000001
 22
36.22143424691535
 32
0.0
 13
117.3750000000001
 23
36.22143424691535
 33
0.0
  0
SOLID
  5
3C8
330
3C0
100
AcDbEntity
  8
치수문자_일반주서
 62
     0
100
AcDbTrace
 10
117.9253333333335
 20
18.91943424691535
 30
0.0
 11
116.8246666666668
 21
18.91943424691535
 31
0.0
 12
117.3750000000001
 22
22.22143424691535
 32
0.0
 13
117.3750000000001
 23
22.22143424691535
 33
0.0
  0
MTEXT
  5
3C9
330
3C0
100
AcDbEntity
  8
치수문자_일반주서
 62
     0
100
AcDbMText
 10
113.0000000000001
 20
29.28713862862833
 30
0.0
 40
3.5
 41
0.0
 71
     2
 72
     1
  1
\A1;%%c14.00 [0.55]
  7
SLDTEXTSTYLE0
 11
-3.045183153257572E-15
 21
1.0
 31
0.0
 73
     1
 44
1.0
  0
POINT
  5
3CA
330
3C0
100
AcDbEntity
  8
Defpoints
 62
     0
100
AcDbPoint
 10
102.3750000000001
 20
36.22143424691529
 30
0.0
  0
POINT
  5
3CB
330
3C0
100
AcDbEntity
  8
Defpoints
 62
     0
100
AcDbPoint
 10
102.3750000000001
 20
22.22143424691529
 30
0.0
  0
POINT
  5
3CC
330
3C0
100
AcDbEntity
  8
Defpoints
 62
     0
100
AcDbPoint
 10
117.3750000000001
 20
22.22143424691535
 30
0.0
  0
ENDBLK
  5
3CD
330
3C0
100
AcDbEntity
  8
0
100
AcDbBlockEnd
  0
BLOCK
  5
3DB
330
3DA
100
AcDbEntity
  8
0
100
AcDbBlockBegin
  2
*D9
 70
     1
 10
0.0
 20
0.0
 30
0.0
  3
*D9
  1
*D8
  0
LINE
  5
3DC
330
3DA
100
AcDbEntity
  8
치수문자_일반주서
 62
     0
370
    -2
100
AcDbLine
 10
103.8657751816695
 20
19.48229575403651
 30
0.0
 11
120.1921280501954
 21
-7.081888143622854
 31
0.0
  0
MTEXT
  5
3DD
330
3DA
100
AcDbEntity
  8
치수문자_일반주서
 62
     0
100
AcDbMText
 10
115.6706384014277
 20
5.288158154535728
 30
0.0
 40
3.5
 41
0.0
 71
     5
 72
     1
  1
\A1;R.50 [R0.02]
  7
SLDTEXTSTYLE0
 11
0.5236126201129557
 21
-0.8519564684057781
 31
0.0
 73
     1
 44
1.0
  0
LINE
  5
3DE
330
3DA
100
AcDbEntity
  8
치수문자_일반주서
 62
     0
370
    -2
100
AcDbLine
 10
101.875
 20
22.72143424691529
 30
0.0
 11
102.1368063100565
 21
22.29545601271239
 31
0.0
  0
SOLID
  5
3DF
330
3DA
100
AcDbEntity
  8
치수문자_일반주서
 62
     0
100
AcDbTrace
 10
104.3346352247821
 20
19.77045723263868
 30
0.0
 11
103.3969151385569
 21
19.19413427543435
 31
0.0
 12
102.1368063100565
 22
22.29545601271239
 32
0.0
 13
102.1368063100565
 23
22.29545601271239
 33
0.0
  0
POINT
  5
3E0
330
3DA
100
AcDbEntity
  8
Defpoints
 62
     0
100
AcDbPoint
 10
102.1368063100565
 20
22.29545601271239
 30
0.0
  0
POINT
  5
40C
330
3DA
100
AcDbEntity
  8
Defpoints
 62
     0
100
AcDbPoint
 10
101.875
 20
22.72143424691529
 30
0.0
  0
ENDBLK
  5
3E1
330
3DA
100
AcDbEntity
  8
0
100
AcDbBlockEnd
  0
BLOCK
  5
3E7
330
3E6
100
AcDbEntity
  8
0
100
AcDbBlockBegin
  2
*D10
 70
     1
 10
0.0
 20
0.0
 30
0.0
  3
*D10
  1
*D11
  0
LINE
  5
3E9
330
3E6
100
AcDbEntity
  8
치수문자_일반주서
 62
     0
370
    -2
100
AcDbLine
 10
19.37500000000004
 20
35.78393424691529
 30
0.0
 11
19.37500000000004
 21
70.88391841499404
 31
0.0
  0
LINE
  5
3EA
330
3E6
100
AcDbEntity
  8
치수문자_일반주서
 62
     0
370
    -2
100
AcDbLine
 10
102.3750000000001
 20
36.34643424691529
 30
0.0
 11
102.3750000000001
 21
70.88391841499404
 31
0.0
  0
LINE
  5
3EB
330
3E6
100
AcDbEntity
  8
치수문자_일반주서
 62
     0
370
    -2
100
AcDbLine
 10
22.67700000000004
 20
70.88391841499404
 30
0.0
 11
99.07300000000006
 21
70.88391841499404
 31
0.0
  0
SOLID
  5
3EC
330
3E6
100
AcDbEntity
  8
치수문자_일반주서
 62
     0
100
AcDbTrace
 10
22.67700000000004
 20
71.43425174832737
 30
0.0
 11
22.67700000000004
 21
70.33358508166071
 31
0.0
 12
19.37500000000004
 22
70.88391841499404
 32
0.0
 13
19.37500000000004
 23
70.88391841499404
 33
0.0
  0
SOLID
  5
3ED
330
3E6
100
AcDbEntity
  8
치수문자_일반주서
 62
     0
100
AcDbTrace
 10
99.07300000000006
 20
70.33358508166071
 30
0.0
 11
99.07300000000006
 21
71.43425174832737
 31
0.0
 12
102.3750000000001
 22
70.88391841499404
 32
0.0
 13
102.3750000000001
 23
70.88391841499404
 33
0.0
  0
MTEXT
  5
3EE
330
3E6
100
AcDbEntity
  8
치수문자_일반주서
 62
     0
100
AcDbMText
 10
60.87500000000005
 20
75.25891841499404
 30
0.0
 40
3.5
 41
0.0
 71
     2
 72
     1
  1
\A1;83 [3.27]
  7
SLDTEXTSTYLE0
 73
     1
 44
1.0
  0
POINT
  5
3EF
330
3E6
100
AcDbEntity
  8
Defpoints
 62
     0
100
AcDbPoint
 10
19.37500000000004
 20
35.72143424691529
 30
0.0
  0
POINT
  5
3F0
330
3E6
100
AcDbEntity
  8
Defpoints
 62
     0
100
AcDbPoint
 10
102.3750000000001
 20
36.28393424691529
 30
0.0
  0
POINT
  5
3F1
330
3E6
100
AcDbEntity
  8
Defpoints
 62
     0
100
AcDbPoint
 10
102.3750000000001
 20
70.88391841499404
 30
0.0
  0
ENDBLK
  5
3E8
330
3E6
100
AcDbEntity
  8
0
100
AcDbBlockEnd
  0
BLOCK
  5
3F3
330
3F2
100
AcDbEntity
  8
0
100
AcDbBlockBegin
  2
*D11
 70
     1
 10
0.0
 20
0.0
 30
0.0
  3
*D11
  1
*D12
  0
LINE
  5
3F5
330
3F2
100
AcDbEntity
  8
치수문자_일반주서
 62
     0
370
    -2
100
AcDbLine
 10
76.37504186422882
 20
28.62038676313042
 30
0.0
 11
76.37504186422882
 21
61.90091383617725
 31
0.0
  0
LINE
  5
3F6
330
3F2
100
AcDbEntity
  8
치수문자_일반주서
 62
     0
370
    -2
100
AcDbLine
 10
102.3750000000001
 20
36.28393424691529
 30
0.0
 11
102.3750000000001
 21
61.90091383617725
 31
0.0
  0
LINE
  5
3F7
330
3F2
100
AcDbEntity
  8
치수문자_일반주서
 62
     0
370
    -2
100
AcDbLine
 10
79.67704186422881
 20
61.90091383617725
 30
0.0
 11
99.07300000000006
 21
61.90091383617725
 31
0.0
  0
SOLID
  5
3F8
330
3F2
100
AcDbEntity
  8
치수문자_일반주서
 62
     0
100
AcDbTrace
 10
79.67704186422881
 20
62.45124716951059
 30
0.0
 11
79.67704186422881
 21
61.35058050284392
 31
0.0
 12
76.37504186422882
 22
61.90091383617725
 32
0.0
 13
76.37504186422882
 23
61.90091383617725
 33
0.0
  0
SOLID
  5
3F9
330
3F2
100
AcDbEntity
  8
치수문자_일반주서
 62
     0
100
AcDbTrace
 10
99.07300000000006
 20
61.35058050284392
 30
0.0
 11
99.07300000000006
 21
62.45124716951059
 31
0.0
 12
102.3750000000001
 22
61.90091383617725
 32
0.0
 13
102.3750000000001
 23
61.90091383617725
 33
0.0
  0
MTEXT
  5
3FA
330
3F2
100
AcDbEntity
  8
치수문자_일반주서
 62
     0
100
AcDbMText
 10
89.42159572693208
 20
66.27591383617725
 30
0.0
 40
3.5
 41
0.0
 71
     2
 72
     1
  1
\A1;26 [1.02]
  7
SLDTEXTSTYLE0
 73
     1
 44
1.0
  0
POINT
  5
3FB
330
3F2
100
AcDbEntity
  8
Defpoints
 62
     0
100
AcDbPoint
 10
76.37504186422882
 20
28.55788676313042
 30
0.0
  0
POINT
  5
3FC
330
3F2
100
AcDbEntity
  8
Defpoints
 62
     0
100
AcDbPoint
 10
102.3750000000001
 20
36.22143424691529
 30
0.0
  0
POINT
  5
3FD
330
3F2
100
AcDbEntity
  8
Defpoints
 62
     0
100
AcDbPoint
 10
102.3750000000001
 20
61.90091383617725
 30
0.0
  0
ENDBLK
  5
3F4
330
3F2
100
AcDbEntity
  8
0
100
AcDbBlockEnd
  0
BLOCK
  5
3FF
330
3FE
100
AcDbEntity
  8
0
100
AcDbBlockBegin
  2
*D12
 70
     1
 10
0.0
 20
0.0
 30
0.0
  3
*D12
  1
*D13
  0
LINE
  5
401
330
3FE
100
AcDbEntity
  8
치수문자_일반주서
 62
     0
370
    -2
100
AcDbLine
 10
19.81250000000005
 20
36.22143424691529
 30
0.0
 11
4.374999999999983
 21
36.22143424691524
 31
0.0
  0
LINE
  5
402
330
3FE
100
AcDbEntity
  8
치수문자_일반주서
 62
     0
370
    -2
100
AcDbLine
 10
19.81250000000005
 20
22.22143424691529
 30
0.0
 11
4.375000000000032
 21
22.22143424691524
 31
0.0
  0
LINE
  5
403
330
3FE
100
AcDbEntity
  8
치수문자_일반주서
 62
     0
370
    -2
100
AcDbLine
 10
4.374999999999983
 20
36.22143424691524
 30
0.0
 11
4.375000000000032
 21
22.22143424691524
 31
0.0
  0
LINE
  5
404
330
3FE
100
AcDbEntity
  8
치수문자_일반주서
 62
     0
370
    -2
100
AcDbLine
 10
4.374999999999972
 20
39.52343424691524
 30
0.0
 11
4.37499999999996
 21
42.82543424691524
 31
0.0
  0
LINE
  5
405
330
3FE
100
AcDbEntity
  8
치수문자_일반주서
 62
     0
370
    -2
100
AcDbLine
 10
4.375000000000044
 20
18.91943424691524
 30
0.0
 11
4.375000000000055
 21
15.61743424691524
 31
0.0
  0
SOLID
  5
406
330
3FE
100
AcDbEntity
  8
치수문자_일반주서
 62
     0
100
AcDbTrace
 10
3.824666666666638
 20
39.52343424691524
 30
0.0
 11
4.925333333333305
 21
39.52343424691524
 31
0.0
 12
4.374999999999983
 22
36.22143424691524
 32
0.0
 13
4.374999999999983
 23
36.22143424691524
 33
0.0
  0
SOLID
  5
407
330
3FE
100
AcDbEntity
  8
치수문자_일반주서
 62
     0
100
AcDbTrace
 10
4.925333333333377
 20
18.91943424691524
 30
0.0
 11
3.82466666666671
 21
18.91943424691523
 31
0.0
 12
4.375000000000032
 22
22.22143424691524
 32
0.0
 13
4.375000000000032
 23
22.22143424691524
 33
0.0
  0
MTEXT
  5
408
330
3FE
100
AcDbEntity
  8
치수문자_일반주서
 62
     0
100
AcDbMText
 10
0.0000000000000071
 20
29.22143424691528
 30
0.0
 40
3.5
 41
0.0
 71
     2
 72
     1
  1
\A1;%%c14.00 [0.55]
  7
SLDTEXTSTYLE0
 11
-3.489272363107635E-15
 21
1.0
 31
0.0
 73
     1
 44
1.0
  0
POINT
  5
409
330
3FE
100
AcDbEntity
  8
Defpoints
 62
     0
100
AcDbPoint
 10
19.87500000000005
 20
36.22143424691529
 30
0.0
  0
POINT
  5
40A
330
3FE
100
AcDbEntity
  8
Defpoints
 62
     0
100
AcDbPoint
 10
19.87500000000005
 20
22.22143424691529
 30
0.0
  0
POINT
  5
40B
330
3FE
100
AcDbEntity
  8
Defpoints
 62
     0
100
AcDbPoint
 10
4.375000000000043
 20
22.22143424691524
 30
0.0
  0
ENDBLK
  5
400
330
3FE
100
AcDbEntity
  8
0
100
AcDbBlockEnd
  0
BLOCK
  5
459
330
458
100
AcDbEntity
  8
0
100
AcDbBlockBegin
  2
*D13
 70
     1
 10
0.0
 20
0.0
 30
0.0
  3
*D13
  1
*D14
  0
LINE
  5
45B
330
458
100
AcDbEntity
  8
치수문자_일반주서
 62
     0
370
    -2
100
AcDbLine
 10
-45.96073721961643
 20
131.1512757930552
 30
0.0
 11
-45.96073721961643
 21
166.251259961134
 31
0.0
  0
LINE
  5
45C
330
458
100
AcDbEntity
  8
치수문자_일반주서
 62
     0
370
    -2
100
AcDbLine
 10
37.03926278038358
 20
131.7137757930553
 30
0.0
 11
37.03926278038358
 21
166.251259961134
 31
0.0
  0
LINE
  5
45D
330
458
100
AcDbEntity
  8
치수문자_일반주서
 62
     0
370
    -2
100
AcDbLine
 10
-42.65873721961643
 20
166.251259961134
 30
0.0
 11
33.73726278038358
 21
166.251259961134
 31
0.0
  0
SOLID
  5
45E
330
458
100
AcDbEntity
  8
치수문자_일반주서
 62
     0
100
AcDbTrace
 10
-42.65873721961643
 20
166.8015932944673
 30
0.0
 11
-42.65873721961643
 21
165.7009266278007
 31
0.0
 12
-45.96073721961643
 22
166.251259961134
 32
0.0
 13
-45.96073721961643
 23
166.251259961134
 33
0.0
  0
SOLID
  5
45F
330
458
100
AcDbEntity
  8
치수문자_일반주서
 62
     0
100
AcDbTrace
 10
33.73726278038358
 20
165.7009266278007
 30
0.0
 11
33.73726278038358
 21
166.8015932944673
 31
0.0
 12
37.03926278038358
 22
166.251259961134
 32
0.0
 13
37.03926278038358
 23
166.251259961134
 33
0.0
  0
MTEXT
  5
460
330
458
100
AcDbEntity
  8
치수문자_일반주서
 62
     0
100
AcDbMText
 10
-4.460737219616426
 20
170.626259961134
 30
0.0
 40
3.5
 41
0.0
 71
     2
 72
     1
  1
\A1;83 [3.27]
  7
SLDTEXTSTYLE0
 73
     1
 44
1.0
  0
POINT
  5
461
330
458
100
AcDbEntity
  8
Defpoints
 62
     0
100
AcDbPoint
 10
-45.96073721961643
 20
131.0887757930552
 30
0.0
  0
POINT
  5
462
330
458
100
AcDbEntity
  8
Defpoints
 62
     0
100
AcDbPoint
 10
37.03926278038358
 20
131.6512757930553
 30
0.0
  0
POINT
  5
463
330
458
100
AcDbEntity
  8
Defpoints
 62
     0
100
AcDbPoint
 10
37.03926278038358
 20
166.251259961134
 30
0.0
  0
ENDBLK
  5
45A
330
458
100
AcDbEntity
  8
0
100
AcDbBlockEnd
  0
BLOCK
  5
465
330
464
100
AcDbEntity
  8
0
100
AcDbBlockBegin
  2
*D14
 70
     1
 10
0.0
 20
0.0
 30
0.0
  3
*D14
  1
*D15
  0
LINE
  5
467
330
464
100
AcDbEntity
  8
치수문자_일반주서
 62
     0
370
    -2
100
AcDbLine
 10
11.03930464461234
 20
123.9877283092704
 30
0.0
 11
11.03930464461234
 21
157.2682553823172
 31
0.0
  0
LINE
  5
468
330
464
100
AcDbEntity
  8
치수문자_일반주서
 62
     0
370
    -2
100
AcDbLine
 10
37.03926278038358
 20
131.6512757930553
 30
0.0
 11
37.03926278038358
 21
157.2682553823172
 31
0.0
  0
LINE
  5
469
330
464
100
AcDbEntity
  8
치수문자_일반주서
 62
     0
370
    -2
100
AcDbLine
 10
14.34130464461234
 20
157.2682553823172
 30
0.0
 11
33.73726278038358
 21
157.2682553823172
 31
0.0
  0
SOLID
  5
46A
330
464
100
AcDbEntity
  8
치수문자_일반주서
 62
     0
100
AcDbTrace
 10
14.34130464461234
 20
157.8185887156505
 30
0.0
 11
14.34130464461234
 21
156.7179220489839
 31
0.0
 12
11.03930464461234
 22
157.2682553823172
 32
0.0
 13
11.03930464461234
 23
157.2682553823172
 33
0.0
  0
SOLID
  5
46B
330
464
100
AcDbEntity
  8
치수문자_일반주서
 62
     0
100
AcDbTrace
 10
33.73726278038358
 20
156.7179220489839
 30
0.0
 11
33.73726278038358
 21
157.8185887156505
 31
0.0
 12
37.03926278038358
 22
157.2682553823172
 32
0.0
 13
37.03926278038358
 23
157.2682553823172
 33
0.0
  0
MTEXT
  5
46C
330
464
100
AcDbEntity
  8
치수문자_일반주서
 62
     0
100
AcDbMText
 10
24.08585850731561
 20
161.6432553823172
 30
0.0
 40
3.5
 41
0.0
 71
     2
 72
     1
  1
\A1;26 [1.02]
  7
SLDTEXTSTYLE0
 73
     1
 44
1.0
  0
POINT
  5
46D
330
464
100
AcDbEntity
  8
Defpoints
 62
     0
100
AcDbPoint
 10
11.03930464461234
 20
123.9252283092704
 30
0.0
  0
POINT
  5
46E
330
464
100
AcDbEntity
  8
Defpoints
 62
     0
100
AcDbPoint
 10
37.03926278038358
 20
131.5887757930553
 30
0.0
  0
POINT
  5
46F
330
464
100
AcDbEntity
  8
Defpoints
 62
     0
100
AcDbPoint
 10
37.03926278038358
 20
157.2682553823172
 30
0.0
  0
ENDBLK
  5
466
330
464
100
AcDbEntity
  8
0
100
AcDbBlockEnd
  0
BLOCK
  5
471
330
470
100
AcDbEntity
  8
0
100
AcDbBlockBegin
  2
*D15
 70
     1
 10
0.0
 20
0.0
 30
0.0
  3
*D15
  1
*D16
  0
LINE
  5
473
330
470
100
AcDbEntity
  8
치수문자_일반주서
 62
     0
370
    -2
100
AcDbLine
 10
-45.52323721961643
 20
131.5887757930553
 30
0.0
 11
-60.96073721961649
 21
131.5887757930552
 31
0.0
  0
LINE
  5
474
330
470
100
AcDbEntity
  8
치수문자_일반주서
 62
     0
370
    -2
100
AcDbLine
 10
-45.52323721961643
 20
117.5887757930553
 30
0.0
 11
-60.96073721961644
 21
117.5887757930552
 31
0.0
  0
LINE
  5
475
330
470
100
AcDbEntity
  8
치수문자_일반주서
 62
     0
370
    -2
100
AcDbLine
 10
-60.96073721961649
 20
131.5887757930552
 30
0.0
 11
-60.96073721961644
 21
117.5887757930552
 31
0.0
  0
LINE
  5
476
330
470
100
AcDbEntity
  8
치수문자_일반주서
 62
     0
370
    -2
100
AcDbLine
 10
-60.9607372196165
 20
134.8907757930552
 30
0.0
 11
-60.96073721961652
 21
138.1927757930552
 31
0.0
  0
LINE
  5
477
330
470
100
AcDbEntity
  8
치수문자_일반주서
 62
     0
370
    -2
100
AcDbLine
 10
-60.96073721961643
 20
114.2867757930552
 30
0.0
 11
-60.96073721961641
 21
110.9847757930552
 31
0.0
  0
SOLID
  5
478
330
470
100
AcDbEntity
  8
치수문자_일반주서
 62
     0
100
AcDbTrace
 10
-61.51107055294984
 20
134.8907757930552
 30
0.0
 11
-60.41040388628317
 21
134.8907757930552
 31
0.0
 12
-60.96073721961649
 22
131.5887757930552
 32
0.0
 13
-60.96073721961649
 23
131.5887757930552
 33
0.0
  0
SOLID
  5
479
330
470
100
AcDbEntity
  8
치수문자_일반주서
 62
     0
100
AcDbTrace
 10
-60.41040388628309
 20
114.2867757930552
 30
0.0
 11
-61.51107055294976
 21
114.2867757930552
 31
0.0
 12
-60.96073721961644
 22
117.5887757930552
 32
0.0
 13
-60.96073721961644
 23
117.5887757930552
 33
0.0
  0
MTEXT
  5
47A
330
470
100
AcDbEntity
  8
치수문자_일반주서
 62
     0
100
AcDbMText
 10
-65.33573721961648
 20
124.5887757930552
 30
0.0
 40
3.5
 41
0.0
 71
     2
 72
     1
  1
\A1;%%c14.00 [0.55]
  7
SLDTEXTSTYLE0
 11
-3.552713678800497E-15
 21
1.0
 31
0.0
 73
     1
 44
1.0
  0
POINT
  5
47B
330
470
100
AcDbEntity
  8
Defpoints
 62
     0
100
AcDbPoint
 10
-45.46073721961643
 20
131.5887757930553
 30
0.0
  0
POINT
  5
47C
330
470
100
AcDbEntity
  8
Defpoints
 62
     0
100
AcDbPoint
 10
-45.46073721961643
 20
117.5887757930553
 30
0.0
  0
POINT
  5
47D
330
470
100
AcDbEntity
  8
Defpoints
 62
     0
100
AcDbPoint
 10
-60.96073721961645
 20
117.5887757930552
 30
0.0
  0
ENDBLK
  5
472
330
470
100
AcDbEntity
  8
0
100
AcDbBlockEnd
  0
BLOCK
  5
47F
330
47E
100
AcDbEntity
  8
0
100
AcDbBlockBegin
  2
*D16
 70
     1
 10
0.0
 20
0.0
 30
0.0
  3
*D16
  1
*D17
  0
LINE
  5
481
330
47E
100
AcDbEntity
  8
치수문자_일반주서
 62
     0
370
    -2
100
AcDbLine
 10
37.10176278038359
 20
131.5887757930553
 30
0.0
 11
52.03926278038359
 21
131.5887757930553
 31
0.0
  0
LINE
  5
482
330
47E
100
AcDbEntity
  8
치수문자_일반주서
 62
     0
370
    -2
100
AcDbLine
 10
37.10176278038358
 20
117.5887757930553
 30
0.0
 11
52.03926278038364
 21
117.5887757930553
 31
0.0
  0
LINE
  5
483
330
47E
100
AcDbEntity
  8
치수문자_일반주서
 62
     0
370
    -2
100
AcDbLine
 10
52.03926278038359
 20
131.5887757930553
 30
0.0
 11
52.03926278038364
 21
117.5887757930553
 31
0.0
  0
LINE
  5
484
330
47E
100
AcDbEntity
  8
치수문자_일반주서
 62
     0
370
    -2
100
AcDbLine
 10
52.03926278038357
 20
134.8907757930553
 30
0.0
 11
52.03926278038356
 21
138.1927757930553
 31
0.0
  0
LINE
  5
485
330
47E
100
AcDbEntity
  8
치수문자_일반주서
 62
     0
370
    -2
100
AcDbLine
 10
52.03926278038365
 20
114.2867757930553
 30
0.0
 11
52.03926278038367
 21
110.9847757930553
 31
0.0
  0
SOLID
  5
486
330
47E
100
AcDbEntity
  8
치수문자_일반주서
 62
     0
100
AcDbTrace
 10
51.48892944705024
 20
134.8907757930553
 30
0.0
 11
52.58959611371691
 21
134.8907757930553
 31
0.0
 12
52.03926278038359
 22
131.5887757930553
 32
0.0
 13
52.03926278038359
 23
131.5887757930553
 33
0.0
  0
SOLID
  5
487
330
47E
100
AcDbEntity
  8
치수문자_일반주서
 62
     0
100
AcDbTrace
 10
52.58959611371699
 20
114.2867757930553
 30
0.0
 11
51.48892944705032
 21
114.2867757930553
 31
0.0
 12
52.03926278038364
 22
117.5887757930553
 32
0.0
 13
52.03926278038364
 23
117.5887757930553
 33
0.0
  0
MTEXT
  5
488
330
47E
100
AcDbEntity
  8
치수문자_일반주서
 62
     0
100
AcDbMText
 10
47.66426278038361
 20
124.6544801747683
 30
0.0
 40
3.5
 41
0.0
 71
     2
 72
     1
  1
\A1;%%c14.00 [0.55]
  7
SLDTEXTSTYLE0
 11
-3.552713678800497E-15
 21
1.0
 31
0.0
 73
     1
 44
1.0
  0
POINT
  5
489
330
47E
100
AcDbEntity
  8
Defpoints
 62
     0
100
AcDbPoint
 10
37.03926278038359
 20
131.5887757930553
 30
0.0
  0
POINT
  5
48A
330
47E
100
AcDbEntity
  8
Defpoints
 62
     0
100
AcDbPoint
 10
37.03926278038358
 20
117.5887757930553
 30
0.0
  0
POINT
  5
48B
330
47E
100
AcDbEntity
  8
Defpoints
 62
     0
100
AcDbPoint
 10
52.03926278038364
 20
117.5887757930553
 30
0.0
  0
ENDBLK
  5
480
330
47E
100
AcDbEntity
  8
0
100
AcDbBlockEnd
  0
BLOCK
  5
48D
330
48C
100
AcDbEntity
  8
0
100
AcDbBlockBegin
  2
*D17
 70
     1
 10
0.0
 20
0.0
 30
0.0
  3
*D17
  1
*D18
  0
LINE
  5
48F
330
48C
100
AcDbEntity
  8
치수문자_일반주서
 62
     0
370
    -2
100
AcDbLine
 10
38.53003796205303
 20
114.8496373001765
 30
0.0
 11
54.85639083057887
 21
88.2854534025171
 31
0.0
  0
MTEXT
  5
490
330
48C
100
AcDbEntity
  8
치수문자_일반주서
 62
     0
100
AcDbMText
 10
50.3349011818112
 20
100.6554997006757
 30
0.0
 40
3.5
 41
0.0
 71
     5
 72
     1
  1
\A1;R.50 [R0.02]
  7
SLDTEXTSTYLE0
 11
0.5236126201129557
 21
-0.8519564684057781
 31
0.0
 73
     1
 44
1.0
  0
LINE
  5
491
330
48C
100
AcDbEntity
  8
치수문자_일반주서
 62
     0
370
    -2
100
AcDbLine
 10
36.53926278038357
 20
118.0887757930553
 30
0.0
 11
36.80106909044005
 21
117.6627975588524
 31
0.0
  0
SOLID
  5
492
330
48C
100
AcDbEntity
  8
치수문자_일반주서
 62
     0
100
AcDbTrace
 10
38.99889800516568
 20
115.1377987787786
 30
0.0
 11
38.06117791894038
 21
114.5614758215743
 31
0.0
 12
36.80106909044005
 22
117.6627975588524
 32
0.0
 13
36.80106909044005
 23
117.6627975588524
 33
0.0
  0
POINT
  5
493
330
48C
100
AcDbEntity
  8
Defpoints
 62
     0
100
AcDbPoint
 10
36.80106909044005
 20
117.6627975588524
 30
0.0
  0
POINT
  5
494
330
48C
100
AcDbEntity
  8
Defpoints
 62
     0
100
AcDbPoint
 10
36.53926278038357
 20
118.0887757930553
 30
0.0
  0
ENDBLK
  5
48E
330
48C
100
AcDbEntity
  8
0
100
AcDbBlockEnd
  0
ENDSEC
  0
SECTION
  2
ENTITIES
  0
LINE
  5
96
330
1F
100
AcDbEntity
  8
외형선
  6
Continuous
370
    15
100
AcDbLine
 10
8.399265877902515
 20
9.525000117719168
 30
0.0
 11
-5.306925967085364
 21
9.525000117719168
 31
0.0
  0
LINE
  5
97
330
1F
100
AcDbEntity
  8
외형선
  6
Continuous
370
    15
100
AcDbLine
 10
-37.79999905824661
 20
-9.525000117719177
 30
0.0
 11
8.95015202835203
 21
-9.525000117719177
 31
0.0
  0
LINE
  5
98
330
1F
100
AcDbEntity
  8
외형선
  6
Continuous
370
    15
100
AcDbLine
 10
-37.79999905824661
 20
9.525000117719168
 30
0.0
 11
-38.80000108480452
 21
8.524999953806395
 31
0.0
  0
LINE
  5
99
330
1F
100
AcDbEntity
  8
외형선
  6
Continuous
370
    15
100
AcDbLine
 10
-38.80000108480452
 20
-8.524999953806406
 30
0.0
 11
-37.79999905824661
 21
-9.525000117719177
 31
0.0
  0
SPLINE
  5
9A
330
1F
100
AcDbEntity
  8
외형선
  6
Continuous
370
    15
100
AcDbSpline
210
0.0
220
0.0
230
1.0
 70
     8
 71
     3
 72
     9
 73
     5
 74
     0
 42
0.000000001
 43
0.00000001
 40
0.0
 40
0.0
 40
0.0
 40
0.0
 40
0.4993499551146678
 40
1.0
 40
1.0
 40
1.0
 40
1.0
 10
8.842035023495562
 20
9.36309434473514
 30
0.0
 10
8.77313044746415
 20
9.402929709127118
 30
0.0
 10
8.635141897899576
 20
9.48270415184801
 30
0.0
 10
8.479322200682248
 20
9.510806085933105
 30
0.0
 10
8.40131106227637
 20
9.52487532049417
 30
0.0
  0
LINE
  5
9B
330
1F
100
AcDbEntity
  8
외형선
  6
Continuous
370
    15
100
AcDbLine
 10
8.951361117884524
 20
9.325744584202761
 30
0.0
 11
8.841994510963566
 21
9.363121353089804
 31
0.0
  0
LINE
  5
9C
330
1F
100
AcDbEntity
  8
외형선
  6
Continuous
370
    15
100
AcDbLine
 10
9.027802212163813
 20
9.34479851275682
 30
0.0
 11
8.992325806990273
 21
9.335955604910845
 31
0.0
  0
LINE
  5
9D
330
1F
100
AcDbEntity
  8
0
  6
Continuous
 62
     1
370
    15
100
AcDbLine
 10
18.86589924246074
 20
-9.408679790794857
 30
0.0
 11
18.9523241147399
 21
-9.361818432807926
 31
0.0
  0
SPLINE
  5
9E
330
1F
100
AcDbEntity
  8
0
  6
Continuous
 62
     1
370
    15
100
AcDbSpline
210
0.0
220
0.0
230
1.0
 70
     8
 71
     3
 72
     9
 73
     5
 74
     0
 42
0.000000001
 43
0.00000001
 40
0.0
 40
0.0
 40
0.0
 40
0.0
 40
0.322751056588117
 40
0.9999999999999999
 40
0.9999999999999999
 40
0.9999999999999999
 40
0.9999999999999999
 10
19.41322541236878
 20
9.48988646268844
 30
0.0
 10
19.37663088590782
 20
9.482871594147799
 30
0.0
 10
19.2632477514022
 20
9.461136983532432
 30
0.0
 10
19.16372446071918
 20
9.401954592580562
 30
0.0
 10
19.09632241725923
 20
9.36187338083982
 30
0.0
  0
SPLINE
  5
9F
330
1F
100
AcDbEntity
  8
0
  6
Continuous
 62
     1
370
    15
100
AcDbSpline
210
0.0
220
0.0
230
1.0
 70
     8
 71
     3
 72
     9
 73
     5
 74
     0
 42
0.000000001
 43
0.00000001
 40
0.0
 40
0.0
 40
0.0
 40
0.0
 40
0.8963214925418451
 40
0.9999999999999999
 40
0.9999999999999999
 40
0.9999999999999999
 40
0.9999999999999999
 10
18.9523241147399
 20
-9.361818432807926
 30
0.0
 10
18.97316027461892
 20
-9.348142836547686
 30
0.0
 10
18.99640657636712
 20
-9.332885368804217
 30
0.0
 10
19.02933370844004
 20
-9.331210897119377
 30
0.0
 10
19.03274754434825
 20
-9.331037290394317
 30
0.0
  0
LINE
  5
A0
330
1F
100
AcDbEntity
  8
0
  6
Continuous
 62
     1
370
    15
100
AcDbLine
 10
19.49223043769599
 20
-9.490779601037506
 30
0.0
 11
19.64723697304727
 21
-9.524879045784477
 31
0.0
  0
SPLINE
  5
A1
330
1F
100
AcDbEntity
  8
0
  6
Continuous
 62
     1
370
    15
100
AcDbSpline
210
0.0
220
0.0
230
1.0
 70
     8
 71
     3
 72
    11
 73
     7
 74
     0
 42
0.000000001
 43
0.00000001
 40
0.0
 40
0.0
 40
0.0
 40
0.0
 40
0.247116161308624
 40
0.4998772647343534
 40
0.7526988008392823
 40
1.0
 40
1.0
 40
1.0
 40
1.0
 10
19.09304881840945
 20
9.359446354210373
 30
0.0
 10
19.0729062161785
 20
9.348861482055002
 30
0.0
 10
19.03216088874009
 20
9.327449944612166
 30
0.0
 10
18.95969205980997
 20
9.319282767846492
 30
0.0
 10
18.88733016282225
 20
9.330954006728737
 30
0.0
 10
18.84685106336692
 20
9.354682266830434
 30
0.0
 10
18.82683491706849
 20
9.366415441036219
 30
0.0
  0
SPLINE
  5
A2
330
1F
100
AcDbEntity
  8
0
  6
Continuous
 62
     1
370
    15
100
AcDbSpline
210
0.0
220
0.0
230
1.0
 70
     8
 71
     3
 72
     9
 73
     5
 74
     0
 42
0.000000001
 43
0.00000001
 40
0.0
 40
0.0
 40
0.0
 40
0.0
 40
0.5084352387062667
 40
1.0
 40
1.0
 40
1.0
 40
1.0
 10
18.84203596413137
 20
9.36309434473514
 30
0.0
 10
18.77365057344332
 20
9.402922183536447
 30
0.0
 10
18.6391488995191
 20
9.481256326745424
 30
0.0
 10
18.47967601308143
 20
9.510501981274455
 30
0.0
 10
18.40128476172687
 20
9.524878114461893
 30
0.0
  0
SPLINE
  5
A3
330
1F
100
AcDbEntity
  8
0
  6
Continuous
 62
     1
370
    15
100
AcDbSpline
210
0.0
220
0.0
230
1.0
 70
     8
 71
     3
 72
     9
 73
     5
 74
     0
 42
0.000000001
 43
0.00000001
 40
0.0
 40
0.0
 40
0.0
 40
0.0
 40
0.5002728973392392
 40
1.0
 40
1.0
 40
1.0
 40
1.0
 10
19.66986345499755
 20
-9.512481279671196
 30
0.0
 10
19.74708933517241
 20
-9.497792163417447
 30
0.0
 10
19.90145684255809
 20
-9.468429956646137
 30
0.0
 10
20.03764997961688
 20
-9.388592859148796
 30
0.0
 10
20.10570938140155
 20
-9.348696097731596
 30
0.0
  0
SPLINE
  5
A4
330
1F
100
AcDbEntity
  8
0
  6
Continuous
 62
     1
370
    15
100
AcDbSpline
210
0.0
220
0.0
230
1.0
 70
     8
 71
     3
 72
     9
 73
     5
 74
     0
 42
0.000000001
 43
0.00000001
 40
0.0
 40
0.0
 40
0.0
 40
0.0
 40
0.5003101117613782
 40
1.0
 40
1.0
 40
1.0
 40
1.0
 10
18.38455913960935
 20
9.518550708889956
 30
0.0
 10
18.30729275664916
 20
9.504057450016006
 30
0.0
 10
18.15285577617685
 20
9.475088899244712
 30
0.0
 10
18.01656616122082
 20
9.395549156689166
 30
0.0
 10
17.94846361875535
 20
9.355803951621052
 30
0.0
  0
SPLINE
  5
A5
330
1F
100
AcDbEntity
  8
0
  6
Continuous
 62
     1
370
    15
100
AcDbSpline
210
0.0
220
0.0
230
1.0
 70
     8
 71
     3
 72
    11
 73
     7
 74
     0
 42
0.000000001
 43
0.00000001
 40
0.0
 40
0.0
 40
0.0
 40
0.0
 40
0.2482510278473478
 40
0.5001877477094199
 40
0.7520315382937518
 40
0.9999999999999999
 40
0.9999999999999999
 40
0.9999999999999999
 40
0.9999999999999999
 10
20.09014884382487
 20
-9.364235214889057
 30
0.0
 10
20.1097938144651
 20
-9.353333375157897
 30
0.0
 10
20.14937541742381
 20
-9.331367840077126
 30
0.0
 10
20.22105166782778
 20
-9.321525420254487
 30
0.0
 10
20.29283797926714
 20
-9.331522547469797
 30
0.0
 10
20.33269741790856
 20
-9.353713687949707
 30
0.0
 10
20.35247261077167
 20
-9.364723227918157
 30
0.0
  0
SPLINE
  5
A6
330
1F
100
AcDbEntity
  8
0
  6
Continuous
 62
     1
370
    15
100
AcDbSpline
210
0.0
220
0.0
230
1.0
 70
     8
 71
     3
 72
    11
 73
     7
 74
     0
 42
0.000000001
 43
0.00000001
 40
0.0
 40
0.0
 40
0.0
 40
0.0
 40
0.2449952792028235
 40
0.4999773644216384
 40
0.754970979113194
 40
1.0
 40
1.0
 40
1.0
 40
1.0
 10
20.35690104961396
 20
-9.365399368107326
 30
0.0
 10
20.4406492866014
 20
-9.409658925374126
 30
0.0
 10
20.61155961165005
 20
-9.499982203703107
 30
0.0
 10
20.90521669591562
 20
-9.536734201497586
 30
0.0
 10
21.19887793127654
 20
-9.497784198162146
 30
0.0
 10
21.36978726653701
 20
-9.405980422778706
 30
0.0
 10
21.45353896915914
 20
-9.360993281006817
 30
0.0
  0
SPLINE
  5
A7
330
1F
100
AcDbEntity
  8
0
  6
Continuous
 62
     1
370
    15
100
AcDbSpline
210
0.0
220
0.0
230
1.0
 70
     8
 71
     3
 72
     9
 73
     5
 74
     0
 42
0.000000001
 43
0.00000001
 40
0.0
 40
0.0
 40
0.0
 40
0.0
 40
0.4861115134456701
 40
1.0
 40
1.0
 40
1.0
 40
1.0
 10
17.95660756900908
 20
9.363147430121893
 30
0.0
 10
17.92279434176762
 20
9.3448462916309
 30
0.0
 10
17.85323576044175
 20
9.307198266466319
 30
0.0
 10
17.75271326646036
 20
9.343787025760902
 30
0.0
 10
17.7010559141636
 20
9.362589567899699
 30
0.0
  0
SPLINE
  5
A8
330
1F
100
AcDbEntity
  8
0
  6
Continuous
 62
     1
370
    15
100
AcDbSpline
210
0.0
220
0.0
230
1.0
 70
     8
 71
     3
 72
    11
 73
     7
 74
     0
 42
0.000000001
 43
0.00000001
 40
0.0
 40
0.0
 40
0.0
 40
0.0
 40
0.2450926402247165
 40
0.5000348334024133
 40
0.7549599185030069
 40
1.0
 40
1.0
 40
1.0
 40
1.0
 10
17.6965064033866
 20
9.364590048789973
 30
0.0
 10
17.61264123174377
 20
9.409175252898981
 30
0.0
 10
17.4415405936657
 20
9.500137409446884
 30
0.0
 10
17.14745047414016
 20
9.537718297632102
 30
0.0
 10
16.85336687896354
 20
9.49939554044243
 30
0.0
 10
16.68226334021005
 20
9.407920870169349
 30
0.0
 10
16.59840304777027
 20
9.36308782547712
 30
0.0
  0
SPLINE
  5
A9
330
1F
100
AcDbEntity
  8
0
  6
Continuous
 62
     1
370
    15
100
AcDbSpline
210
0.0
220
0.0
230
1.0
 70
     8
 71
     3
 72
     9
 73
     5
 74
     0
 42
0.000000001
 43
0.00000001
 40
0.0
 40
0.0
 40
0.0
 40
0.0
 40
0.5003331841077584
 40
1.0
 40
1.0
 40
1.0
 40
1.0
 10
21.45232359319926
 20
-9.361819364130506
 30
0.0
 10
21.49477912337868
 20
-9.343292775383807
 30
0.0
 10
21.5796336393851
 20
-9.306264272507786
 30
0.0
 10
21.66429531116652
 20
-9.344190455679517
 30
0.0
 10
21.70659793913365
 20
-9.363140910863887
 30
0.0
  0
SPLINE
  5
AA
330
1F
100
AcDbEntity
  8
0
  6
Continuous
 62
     1
370
    15
100
AcDbSpline
210
0.0
220
0.0
230
1.0
 70
     8
 71
     3
 72
     9
 73
     5
 74
     0
 42
0.000000001
 43
0.00000001
 40
0.0
 40
0.0
 40
0.0
 40
0.0
 40
0.499577124729068
 40
1.0
 40
1.0
 40
1.0
 40
1.0
 10
21.70910133421422
 20
-9.364609606564047
 30
0.0
 10
21.77743324595162
 20
-9.403993230368377
 30
0.0
 10
21.91421275076673
 20
-9.482827151808817
 30
0.0
 10
22.06904015721739
 20
-9.510786189561726
 30
0.0
 10
22.14651933312417
 20
-9.524777531623846
 30
0.0
  0
SPLINE
  5
AB
330
1F
100
AcDbEntity
  8
0
  6
Continuous
 62
     1
370
    15
100
AcDbSpline
210
0.0
220
0.0
230
1.0
 70
     8
 71
     3
 72
     9
 73
     5
 74
     0
 42
0.000000001
 43
0.00000001
 40
0.0
 40
0.0
 40
0.0
 40
0.0
 40
0.4400604047340191
 40
1.0
 40
1.0
 40
1.0
 40
1.0
 10
16.59631176292897
 20
9.361866861581797
 30
0.0
 10
16.55993819853467
 20
9.344940539450219
 30
0.0
 10
16.47728235401195
 20
9.306476905936522
 30
0.0
 10
16.39058412152575
 20
9.342770347250072
 30
0.0
 10
16.34203834831716
 20
9.363092482089991
 30
0.0
  0
SPLINE
  5
AC
330
1F
100
AcDbEntity
  8
0
  6
Continuous
 62
     1
370
    15
100
AcDbSpline
210
0.0
220
0.0
230
1.0
 70
     8
 71
     3
 72
     9
 73
     5
 74
     0
 42
0.000000001
 43
0.00000001
 40
0.0
 40
0.0
 40
0.0
 40
0.0
 40
0.4995198987545005
 40
1.0
 40
1.0
 40
1.0
 40
1.0
 10
16.34307304769755
 20
9.362379088997836
 30
0.0
 10
16.27455027720613
 20
9.402080716675098
 30
0.0
 10
16.13737301827756
 20
9.481560288512474
 30
0.0
 10
15.98220829030308
 20
9.509957879894953
 30
0.0
 10
15.90455143153668
 20
9.524170309305186
 30
0.0
  0
SPLINE
  5
AD
330
1F
100
AcDbEntity
  8
0
  6
Continuous
 62
     1
370
    15
100
AcDbSpline
210
0.0
220
0.0
230
1.0
 70
     8
 71
     3
 72
     9
 73
     5
 74
     0
 42
0.000000001
 43
0.00000001
 40
0.0
 40
0.0
 40
0.0
 40
0.0
 40
0.5007533505572433
 40
0.9999999999999999
 40
0.9999999999999999
 40
0.9999999999999999
 40
0.9999999999999999
 10
22.147347278893
 20
-9.524891152977947
 30
0.0
 10
22.22559382700748
 20
-9.511181649125067
 30
0.0
 10
22.38185148964198
 20
-9.483803891517207
 30
0.0
 10
22.52037521320517
 20
-9.404270667411867
 30
0.0
 10
22.58953271806241
 20
-9.364563971757896
 30
0.0
  0
SPLINE
  5
AE
330
1F
100
AcDbEntity
  8
0
  6
Continuous
 62
     1
370
    15
100
AcDbSpline
210
0.0
220
0.0
230
1.0
 70
     8
 71
     3
 72
     9
 73
     5
 74
     0
 42
0.000000001
 43
0.00000001
 40
0.0
 40
0.0
 40
0.0
 40
0.0
 40
0.5599821526249549
 40
1.0
 40
1.0
 40
1.0
 40
1.0
 10
22.59203797578813
 20
-9.363092482090007
 30
0.0
 10
22.64058119487399
 20
-9.342768787565227
 30
0.0
 10
22.7272682774146
 20
-9.306475319229657
 30
0.0
 10
22.80993802152233
 20
-9.344942484826436
 30
0.0
 10
22.84631418436767
 20
-9.361868724226957
 30
0.0
  0
SPLINE
  5
AF
330
1F
100
AcDbEntity
  8
0
  6
Continuous
 62
     1
370
    15
100
AcDbSpline
210
0.0
220
0.0
230
1.0
 70
     8
 71
     3
 72
     9
 73
     5
 74
     0
 42
0.000000001
 43
0.00000001
 40
0.0
 40
0.0
 40
0.0
 40
0.0
 40
0.4494284864610517
 40
1.0
 40
1.0
 40
1.0
 40
1.0
 10
15.89924289286138
 20
9.525000117719168
 30
0.0
 10
15.83109765460698
 20
9.513675921836084
 30
0.0
 10
15.6794712216877
 20
9.488479041299525
 30
0.0
 10
15.53574395474015
 20
9.407651542460814
 30
0.0
 10
15.45661181584002
 20
9.363150224089617
 30
0.0
  0
SPLINE
  5
B0
330
1F
100
AcDbEntity
  8
0
  6
Continuous
 62
     1
370
    15
100
AcDbSpline
210
0.0
220
0.0
230
1.0
 70
     8
 71
     3
 72
    11
 73
     7
 74
     0
 42
0.000000001
 43
0.00000001
 40
0.0
 40
0.0
 40
0.0
 40
0.0
 40
0.2048523548152911
 40
0.4442465484668713
 40
0.7132744274194055
 40
1.0
 40
1.0
 40
1.0
 40
1.0
 10
22.84592302888633
 20
-9.361611679196367
 30
0.0
 10
22.91361021145501
 20
-9.399353692785786
 30
0.0
 10
23.06039786863716
 20
-9.481201711005596
 30
0.0
 10
23.33580542082857
 20
-9.536163276662826
 30
0.0
 10
23.65486540614402
 20
-9.515683407344806
 30
0.0
 10
23.85260819168688
 20
-9.413103495556147
 30
0.0
 10
23.95462809503079
 20
-9.360180236399176
 30
0.0
  0
SPLINE
  5
B1
330
1F
100
AcDbEntity
  8
0
  6
Continuous
 62
     1
370
    15
100
AcDbSpline
210
0.0
220
0.0
230
1.0
 70
     8
 71
     3
 72
     9
 73
     5
 74
     0
 42
0.000000001
 43
0.00000001
 40
0.0
 40
0.0
 40
0.0
 40
0.0
 40
0.4996666379044666
 40
1.0
 40
1.0
 40
1.0
 40
1.0
 10
15.45659924298526
 20
9.363141842186446
 30
0.0
 10
15.4142962191126
 20
9.344190925949567
 30
0.0
 10
15.32963372483427
 20
9.306263806547806
 30
0.0
 10
15.24477754800709
 20
9.343293236345772
 30
0.0
 10
15.20232117176057
 20
9.361820295453066
 30
0.0
  0
SPLINE
  5
B2
330
1F
100
AcDbEntity
  8
0
  6
Continuous
 62
     1
370
    15
100
AcDbSpline
210
0.0
220
0.0
230
1.0
 70
     8
 71
     3
 72
    11
 73
     7
 74
     0
 42
0.000000001
 43
0.00000001
 40
0.0
 40
0.0
 40
0.0
 40
0.0
 40
0.2453954025802755
 40
0.5000861510745723
 40
0.7547336508398774
 40
1.0
 40
1.0
 40
1.0
 40
1.0
 10
15.19981032609941
 20
9.363256394863123
 30
0.0
 10
15.11547824724683
 20
9.408243664635432
 30
0.0
 10
14.9436196701013
 20
9.499922279439255
 30
0.0
 10
14.64768595122724
 20
9.537895042060455
 30
0.0
 10
14.35176692115787
 20
9.498997072911143
 30
0.0
 10
14.17989482805976
 20
9.40667034457834
 30
0.0
 10
14.09557141736151
 20
9.36137326061725
 30
0.0
  0
SPLINE
  5
B3
330
1F
100
AcDbEntity
  8
0
  6
Continuous
 62
     1
370
    15
100
AcDbSpline
210
0.0
220
0.0
230
1.0
 70
     8
 71
     3
 72
     9
 73
     5
 74
     0
 42
0.000000001
 43
0.00000001
 40
0.0
 40
0.0
 40
0.0
 40
0.0
 40
0.5007323376818561
 40
1.0
 40
1.0
 40
1.0
 40
1.0
 10
35.876
 20
9.525000117719168
 30
0.0
 10
35.81926069040298
 20
9.51082205938601
 30
0.0
 10
35.66350392269499
 20
9.48274548436652
 30
0.0
 10
35.52552899014444
 20
9.402989410445771
 30
0.0
 10
35.45664256811143
 20
9.363169781863686
 30
0.0
  0
SPLINE
  5
B4
330
1F
100
AcDbEntity
  8
0
  6
Continuous
 62
     1
370
    15
100
AcDbSpline
210
0.0
220
0.0
230
1.0
 70
     8
 71
     3
 72
     9
 73
     5
 74
     0
 42
0.000000001
 43
0.00000001
 40
0.0
 40
0.0
 40
0.0
 40
0.0
 40
0.5577758433275275
 40
1.0
 40
1.0
 40
1.0
 40
1.0
 10
35.45661835372449
 20
9.363153949379917
 30
0.0
 10
35.4078959182519
 20
9.342877405167314
 30
0.0
 10
35.32054463537466
 20
9.306524908989571
 30
0.0
 10
35.23856356053772
 20
9.344870430237593
 30
0.0
 10
35.20230954885483
 20
9.361827746033663
 30
0.0
  0
SPLINE
  5
B5
330
1F
100
AcDbEntity
  8
0
  6
Continuous
 62
     1
370
    15
100
AcDbSpline
210
0.0
220
0.0
230
1.0
 70
     8
 71
     3
 72
    11
 73
     7
 74
     0
 42
0.000000001
 43
0.00000001
 40
0.0
 40
0.0
 40
0.0
 40
0.0
 40
0.245360887750578
 40
0.5000760977539056
 40
0.7547541042953728
 40
1.0
 40
1.0
 40
1.0
 40
1.0
 10
35.20235425233842
 20
9.361799806356425
 30
0.0
 10
35.11806485894612
 20
9.407013088138369
 30
0.0
 10
34.94627256019751
 20
9.49916339672034
 30
0.0
 10
34.65051535138361
 20
9.537907196395388
 30
0.0
 10
34.35477098699639
 20
9.499889948125679
 30
0.0
 10
34.1829676592019
 20
9.408208180207202
 30
0.0
 10
34.09868671000005
 20
9.363232180476183
 30
0.0
  0
SPLINE
  5
B6
330
1F
100
AcDbEntity
  8
0
  6
Continuous
 62
     1
370
    15
100
AcDbSpline
210
0.0
220
0.0
230
1.0
 70
     8
 71
     3
 72
     9
 73
     5
 74
     0
 42
0.000000001
 43
0.00000001
 40
0.0
 40
0.0
 40
0.0
 40
0.0
 40
0.558728565456247
 40
1.0
 40
1.0
 40
1.0
 40
1.0
 10
23.95232586562635
 20
-9.361817501485357
 30
0.0
 10
24.00118390002941
 20
-9.342023925060266
 30
0.0
 10
24.08862892687023
 20
-9.306597820778457
 30
0.0
 10
24.17048697509487
 20
-9.345833739834436
 30
0.0
 10
24.20660859346391
 20
-9.363147430121906
 30
0.0
  0
SPLINE
  5
B7
330
1F
100
AcDbEntity
  8
0
  6
Continuous
 62
     1
370
    15
100
AcDbSpline
210
0.0
220
0.0
230
1.0
 70
     8
 71
     3
 72
     9
 73
     5
 74
     0
 42
0.000000001
 43
0.00000001
 40
0.0
 40
0.0
 40
0.0
 40
0.0
 40
0.499262068726511
 40
1.0
 40
1.0
 40
1.0
 40
1.0
 10
24.2065610960126
 20
-9.363116696476947
 30
0.0
 10
24.27545728073631
 20
-9.402948101061316
 30
0.0
 10
24.4134533133599
 20
-9.482728655362127
 30
0.0
 10
24.5692261700535
 20
-9.510813857247726
 30
0.0
 10
24.64722754806281
 20
-9.524877183139326
 30
0.0
  0
SPLINE
  5
B8
330
1F
100
AcDbEntity
  8
0
  6
Continuous
 62
     1
370
    15
100
AcDbSpline
210
0.0
220
0.0
230
1.0
 70
     8
 71
     3
 72
     9
 73
     5
 74
     0
 42
0.000000001
 43
0.00000001
 40
0.0
 40
0.0
 40
0.0
 40
0.0
 40
0.4996099268249946
 40
0.9999999999999999
 40
0.9999999999999999
 40
0.9999999999999999
 40
0.9999999999999999
 10
14.09630576521159
 20
9.361863136291499
 30
0.0
 10
14.05378686649595
 20
9.343340256078429
 30
0.0
 10
13.96868267534057
 20
9.306265571972807
 30
0.0
 10
13.88427138700706
 20
9.344142812314198
 30
0.0
 10
13.84203281626106
 20
9.36309620738029
 30
0.0
  0
SPLINE
  5
BA
330
1F
100
AcDbEntity
  8
0
  6
Continuous
 62
     1
370
    15
100
AcDbSpline
210
0.0
220
0.0
230
1.0
 70
     8
 71
     3
 72
     9
 73
     5
 74
     0
 42
0.000000001
 43
0.00000001
 40
0.0
 40
0.0
 40
0.0
 40
0.0
 40
0.4993455524588462
 40
1.0
 40
1.0
 40
1.0
 40
1.0
 10
13.84204585477711
 20
9.36308782547712
 30
0.0
 10
13.77313032956676
 20
9.402929671745042
 30
0.0
 10
13.63511863631946
 20
9.482717798567707
 30
0.0
 10
13.47928022367322
 20
9.510814280026846
 30
0.0
 10
13.40125902928413
 20
9.524880908429617
 30
0.0
  0
SPLINE
  5
BB
330
1F
100
AcDbEntity
  8
0
  6
Continuous
 62
     1
370
    15
100
AcDbSpline
210
0.0
220
0.0
230
1.0
 70
     8
 71
     3
 72
     9
 73
     5
 74
     0
 42
0.000000001
 43
0.00000001
 40
0.0
 40
0.0
 40
0.0
 40
0.0
 40
0.5006497249256607
 40
1.0
 40
1.0
 40
1.0
 40
1.0
 10
24.65130115300418
 20
-9.524876251816757
 30
0.0
 10
24.72931128566659
 20
-9.510808476360486
 30
0.0
 10
24.88512907359005
 20
-9.482709438738226
 30
0.0
 10
25.02311472398993
 20
-9.402938940729516
 30
0.0
 10
25.09201789647342
 20
-9.363105520606046
 30
0.0
  0
SPLINE
  5
BC
330
1F
100
AcDbEntity
  8
0
  6
Continuous
 62
     1
370
    15
100
AcDbSpline
210
0.0
220
0.0
230
1.0
 70
     8
 71
     3
 72
     9
 73
     5
 74
     0
 42
0.000000001
 43
0.00000001
 40
0.0
 40
0.0
 40
0.0
 40
0.0
 40
0.5601799952580151
 40
1.0
 40
1.0
 40
1.0
 40
1.0
 10
25.09203372895719
 20
-9.363095276057726
 30
0.0
 10
25.1405664696688
 20
-9.342763388256866
 30
0.0
 10
25.22720423096419
 20
-9.306468111786847
 30
0.0
 10
25.30993656974184
 20
-9.344950096698605
 30
0.0
 10
25.34632390737535
 20
-9.361875243484976
 30
0.0
  0
SPLINE
  5
BD
330
1F
100
AcDbEntity
  8
0
  6
Continuous
 62
     1
370
    15
100
AcDbSpline
210
0.0
220
0.0
230
1.0
 70
     8
 71
     3
 72
     9
 73
     5
 74
     0
 42
0.000000001
 43
0.00000001
 40
0.0
 40
0.0
 40
0.0
 40
0.0
 40
0.5564924061652918
 40
1.0
 40
1.0
 40
1.0
 40
1.0
 10
34.09632487595082
 20
9.36187524348497
 30
0.0
 10
34.04729067723557
 20
9.342132493570913
 30
0.0
 10
33.9591777071896
 20
9.306655369902506
 30
0.0
 10
33.87801832428908
 20
9.345759671796651
 30
0.0
 10
33.84202352166177
 20
9.363102726638312
 30
0.0
  0
SPLINE
  5
BE
330
1F
100
AcDbEntity
  8
0
  6
Continuous
 62
     1
370
    15
100
AcDbSpline
210
0.0
220
0.0
230
1.0
 70
     8
 71
     3
 72
     9
 73
     5
 74
     0
 42
0.000000001
 43
0.00000001
 40
0.0
 40
0.0
 40
0.0
 40
0.0
 40
0.5560617798806256
 40
1.0
 40
1.0
 40
1.0
 40
1.0
 10
13.39715282805265
 20
9.524867869913573
 30
0.0
 10
13.30891755952829
 20
9.508020266126746
 30
0.0
 10
13.15023866499377
 20
9.477722187034802
 30
0.0
 10
13.01572633362895
 20
9.398093467946818
 30
0.0
 10
12.95601116865874
 20
9.36274323612451
 30
0.0
  0
SPLINE
  5
BF
330
1F
100
AcDbEntity
  8
0
  6
Continuous
 62
     1
370
    15
100
AcDbSpline
210
0.0
220
0.0
230
1.0
 70
     8
 71
     3
 72
    11
 73
     7
 74
     0
 42
0.000000001
 43
0.00000001
 40
0.0
 40
0.0
 40
0.0
 40
0.0
 40
0.2345026181653303
 40
0.4847718147173812
 40
0.7429415396331248
 40
1.0
 40
1.0
 40
1.0
 40
1.0
 10
25.34379909187556
 20
-9.360059164464476
 30
0.0
 10
25.42569495256979
 20
-9.404512696773375
 30
0.0
 10
25.59499287050854
 20
-9.496408555747506
 30
0.0
 10
25.88924351481038
 20
-9.538201065401877
 30
0.0
 10
26.19204774489272
 20
-9.501432671000176
 30
0.0
 10
26.36848696244188
 20
-9.406148449550157
 30
0.0
 10
26.45651629567147
 20
-9.358609095215806
 30
0.0
  0
SPLINE
  5
C0
330
1F
100
AcDbEntity
  8
0
  6
Continuous
 62
     1
370
    15
100
AcDbSpline
210
0.0
220
0.0
230
1.0
 70
     8
 71
     3
 72
     9
 73
     5
 74
     0
 42
0.000000001
 43
0.00000001
 40
0.0
 40
0.0
 40
0.0
 40
0.0
 40
0.4993449949442902
 40
1.0
 40
1.0
 40
1.0
 40
1.0
 10
33.84196019172668
 20
9.36314277350902
 30
0.0
 10
33.773048989634
 20
9.40297554063877
 30
0.0
 10
33.63504579987463
 20
9.482745574449154
 30
0.0
 10
33.47921332698564
 20
9.510828501183868
 30
0.0
 10
33.40119501948358
 20
9.524888359010214
 30
0.0
  0
SPLINE
  5
C1
330
1F
100
AcDbEntity
  8
0
  6
Continuous
 62
     1
370
    15
100
AcDbSpline
210
0.0
220
0.0
230
1.0
 70
     8
 71
     3
 72
     9
 73
     5
 74
     0
 42
0.000000001
 43
0.00000001
 40
0.0
 40
0.0
 40
0.0
 40
0.0
 40
0.4996671663179231
 40
1.0
 40
1.0
 40
1.0
 40
1.0
 10
12.9566051196307
 20
9.363145567476744
 30
0.0
 10
12.91429844012769
 20
9.344192234164346
 30
0.0
 10
12.82962871925174
 20
9.30626031750057
 30
0.0
 10
12.74476494548514
 20
9.34329891403947
 30
0.0
 10
12.70230481307955
 20
9.361830540001387
 30
0.0
  0
LINE
  5
C2
330
1F
100
AcDbEntity
  8
외형선
  6
Continuous
370
    15
100
AcDbLine
 10
11.84452034207062
 20
9.468488395214075
 30
0.0
 11
11.59293868253009
 21
9.359354153275484
 31
0.0
  0
SPLINE
  5
C3
330
1F
100
AcDbEntity
  8
0
  6
Continuous
 62
     1
370
    15
100
AcDbSpline
210
0.0
220
0.0
230
1.0
 70
     8
 71
     3
 72
    10
 73
     6
 74
     0
 42
0.000000001
 43
0.00000001
 40
0.0
 40
0.0
 40
0.0
 40
0.0
 40
0.3280366213738897
 40
0.7055624153941261
 40
1.0
 40
1.0
 40
1.0
 40
1.0
 10
12.70238653663547
 20
9.361778385937209
 30
0.0
 10
12.63481183579995
 20
9.398980048754176
 30
0.0
 10
12.48946779176804
 20
9.478995795056774
 30
0.0
 10
12.24278959122116
 20
9.537237243214259
 30
0.0
 10
12.07389942751675
 20
9.513496256203842
 30
0.0
 10
11.99989597219975
 20
9.503093548119063
 30
0.0
  0
SPLINE
  5
C5
330
1F
100
AcDbEntity
  8
0
  6
Continuous
 62
     1
370
    15
100
AcDbSpline
210
0.0
220
0.0
230
1.0
 70
     8
 71
     3
 72
     9
 73
     5
 74
     0
 42
0.000000001
 43
0.00000001
 40
0.0
 40
0.0
 40
0.0
 40
0.0
 40
0.5007092405841247
 40
1.0
 40
1.0
 40
1.0
 40
1.0
 10
33.39349298179151
 20
9.524011053144926
 30
0.0
 10
33.31554425985732
 20
9.509629752661224
 30
0.0
 10
33.15986764034206
 20
9.480907893110707
 30
0.0
 10
33.02199359305918
 20
9.40060833825213
 30
0.0
 10
32.95315435528756
 20
9.36051551252603
 30
0.0
  0
SPLINE
  5
C6
330
1F
100
AcDbEntity
  8
0
  6
Continuous
 62
     1
370
    15
100
AcDbSpline
210
0.0
220
0.0
230
1.0
 70
     8
 71
     3
 72
     9
 73
     5
 74
     0
 42
0.000000001
 43
0.00000001
 40
0.0
 40
0.0
 40
0.0
 40
0.0
 40
0.4564813425269848
 40
1.0
 40
1.0
 40
1.0
 40
1.0
 10
32.95661887526513
 20
9.36315488070249
 30
0.0
 10
32.91889482543377
 20
9.345382213462836
 30
0.0
 10
32.83625387975454
 20
9.306448163844792
 30
0.0
 10
32.74948168851159
 20
9.34232273048042
 30
0.0
 10
32.70231938362123
 20
9.36182122677564
 30
0.0
  0
SPLINE
  5
C7
330
1F
100
AcDbEntity
  8
0
  6
Continuous
 62
     1
370
    15
100
AcDbSpline
210
0.0
220
0.0
230
1.0
 70
     8
 71
     3
 72
     9
 73
     5
 74
     0
 42
0.000000001
 43
0.00000001
 40
0.0
 40
0.0
 40
0.0
 40
0.0
 40
0.5589271253983182
 40
1.0
 40
1.0
 40
1.0
 40
1.0
 10
26.45232068747283
 20
-9.361820295453077
 30
0.0
 10
26.5011678919398
 20
-9.342018442292176
 30
0.0
 10
26.58856247747214
 20
-9.306590114946657
 30
0.0
 10
26.67048401645712
 20
-9.345841311350517
 30
0.0
 10
26.70661738514901
 20
-9.363153949379926
 30
0.0
  0
SPLINE
  5
C8
330
1F
100
AcDbEntity
  8
0
  6
Continuous
 62
     1
370
    15
100
AcDbSpline
210
0.0
220
0.0
230
1.0
 70
     8
 71
     3
 72
    11
 73
     7
 74
     0
 42
0.000000001
 43
0.00000001
 40
0.0
 40
0.0
 40
0.0
 40
0.0
 40
0.2452008398773947
 40
0.5000508621115747
 40
0.7548763920328933
 40
1.0
 40
1.0
 40
1.0
 40
1.0
 10
32.69828116893769
 20
9.363952092826361
 30
0.0
 10
32.61423325040059
 20
9.40871335421645
 30
0.0
 10
32.44282994630025
 20
9.499997329257107
 30
0.0
 10
32.14803353628169
 20
9.537823838585245
 30
0.0
 10
31.85324614199989
 20
9.499411535309841
 30
0.0
 10
31.68183661632605
 20
9.407716753427401
 30
0.0
 10
31.59779502451421
 20
9.362759068608279
 30
0.0
  0
LINE
  5
CA
330
1F
100
AcDbEntity
  8
외형선
  6
Continuous
370
    15
100
AcDbLine
 10
12.00000004749746
 20
9.472360834479327
 30
0.0
 11
11.85343274986372
 21
9.480075910687441
 31
0.0
  0
SPLINE
  5
CB
330
1F
100
AcDbEntity
  8
0
  6
Continuous
 62
     1
370
    15
100
AcDbSpline
210
0.0
220
0.0
230
1.0
 70
     8
 71
     3
 72
     9
 73
     5
 74
     0
 42
0.000000001
 43
0.00000001
 40
0.0
 40
0.0
 40
0.0
 40
0.0
 40
0.4994102396152919
 40
0.9999999999999999
 40
0.9999999999999999
 40
0.9999999999999999
 40
0.9999999999999999
 10
26.71047119796277
 20
-9.365256875753406
 30
0.0
 10
26.77911460392625
 20
-9.404662959421666
 30
0.0
 10
26.91656353972771
 20
-9.483568197124866
 30
0.0
 10
27.07191414115978
 20
-9.511174898005086
 30
0.0
 10
27.14968106150628
 20
-9.524994529783726
 30
0.0
  0
SPLINE
  5
CC
330
1F
100
AcDbEntity
  8
외형선
  6
Continuous
370
    15
100
AcDbSpline
210
0.0
220
0.0
230
1.0
 70
     8
 71
     3
 72
     9
 73
     5
 74
     0
 42
0.000000001
 43
0.00000001
 40
0.0
 40
0.0
 40
0.0
 40
0.0
 40
0.4996102823594596
 40
1.0
 40
1.0
 40
1.0
 40
1.0
 10
11.59631135081873
 20
9.361866861581797
 30
0.0
 10
11.55378908476173
 20
9.343341568746439
 30
0.0
 10
11.46867821423243
 20
9.30626208201556
 30
0.0
 10
11.38425967455217
 20
9.34414848529113
 30
0.0
 10
11.34201750531794
 20
9.36310645192861
 30
0.0
  0
SPLINE
  5
CD
330
1F
100
AcDbEntity
  8
외형선
  6
Continuous
370
    15
100
AcDbSpline
210
0.0
220
0.0
230
1.0
 70
     8
 71
     3
 72
     9
 73
     5
 74
     0
 42
0.000000001
 43
0.00000001
 40
0.0
 40
0.0
 40
0.0
 40
0.0
 40
0.4995633549569339
 40
1.0
 40
1.0
 40
1.0
 40
1.0
 10
11.3398169646971
 20
9.364414960145945
 30
0.0
 10
11.27138727025403
 20
9.403860419441397
 30
0.0
 10
11.13440825895531
 20
9.482820292906995
 30
0.0
 10
10.97940290104112
 20
9.51080102497431
 30
0.0
 10
10.90183253976285
 20
9.524803608655924
 30
0.0
  0
SPLINE
  5
CE
330
1F
100
AcDbEntity
  8
0
  6
Continuous
 62
     1
370
    15
100
AcDbSpline
210
0.0
220
0.0
230
1.0
 70
     8
 71
     3
 72
     9
 73
     5
 74
     0
 42
0.000000001
 43
0.00000001
 40
0.0
 40
0.0
 40
0.0
 40
0.0
 40
0.5003408365656803
 40
1.0
 40
1.0
 40
1.0
 40
1.0
 10
27.14825986325742
 20
-9.524970315396786
 30
0.0
 10
27.22563312218154
 20
-9.511200516056677
 30
0.0
 10
27.38027422534475
 20
-9.483679677592596
 30
0.0
 10
27.516802663324
 20
-9.405406261400417
 30
0.0
 10
27.58502034842969
 20
-9.366296231746677
 30
0.0
  0
SPLINE
  5
CF
330
1F
100
AcDbEntity
  8
0
  6
Continuous
 62
     1
370
    15
100
AcDbSpline
210
0.0
220
0.0
230
1.0
 70
     8
 71
     3
 72
     9
 73
     5
 74
     0
 42
0.000000001
 43
0.00000001
 40
0.0
 40
0.0
 40
0.0
 40
0.0
 40
0.4625270542405568
 40
1.0
 40
1.0
 40
1.0
 40
1.0
 10
27.59387908875943
 20
-9.361780248582367
 30
0.0
 10
27.62860174033051
 20
-9.344572277997916
 30
0.0
 10
27.70367335236429
 20
-9.307368031399397
 30
0.0
 10
27.79645670605452
 20
-9.342820500488966
 30
0.0
 10
27.84632524847985
 20
-9.361875243484976
 30
0.0
  0
SPLINE
  5
D0
330
1F
100
AcDbEntity
  8
0
  6
Continuous
 62
     1
370
    15
100
AcDbSpline
210
0.0
220
0.0
230
1.0
 70
     8
 71
     3
 72
     9
 73
     5
 74
     0
 42
0.000000001
 43
0.00000001
 40
0.0
 40
0.0
 40
0.0
 40
0.0
 40
0.476804176595847
 40
0.9999999999999999
 40
0.9999999999999999
 40
0.9999999999999999
 40
0.9999999999999999
 10
31.59461362659932
 20
9.360685944557185
 30
0.0
 10
31.55724380444516
 20
9.343292204734068
 30
0.0
 10
31.47886818613374
 20
9.306812365259296
 30
0.0
 10
31.38903292644604
 20
9.343764129818219
 30
0.0
 10
31.34203149378301
 20
9.363097138702864
 30
0.0
  0
SPLINE
  5
D1
330
1F
100
AcDbEntity
  8
외형선
  6
Continuous
370
    15
100
AcDbSpline
210
0.0
220
0.0
230
1.0
 70
     8
 71
     3
 72
     9
 73
     5
 74
     0
 42
0.000000001
 43
0.00000001
 40
0.0
 40
0.0
 40
0.0
 40
0.0
 40
0.5003167024877045
 40
0.9999999999999999
 40
0.9999999999999999
 40
0.9999999999999999
 40
0.9999999999999999
 10
10.9048449099064
 20
9.524075314402575
 30
0.0
 10
10.8275568792192
 20
9.510525340828442
 30
0.0
 10
10.67307866511422
 20
9.483442548055868
 30
0.0
 10
10.53674087748462
 20
9.405683730584233
 30
0.0
 10
10.46861516218633
 20
9.366828948259348
 30
0.0
  0
SPLINE
  5
D2
330
1F
100
AcDbEntity
  8
0
  6
Continuous
 62
     1
370
    15
100
AcDbSpline
210
0.0
220
0.0
230
1.0
 70
     8
 71
     3
 72
    11
 73
     7
 74
     0
 42
0.000000001
 43
0.00000001
 40
0.0
 40
0.0
 40
0.0
 40
0.0
 40
0.2593216735388822
 40
0.5293024768316977
 40
0.799294660768001
 40
1.0
 40
1.0
 40
1.0
 40
1.0
 10
27.8411210179329
 20
-9.357719682157047
 30
0.0
 10
27.92478659693844
 20
-9.402901463922676
 30
0.0
 10
28.09555673577355
 20
-9.495122174478267
 30
0.0
 10
28.38857997594922
 20
-9.533877954580637
 30
0.0
 10
28.66131471390186
 20
-9.503175744305937
 30
0.0
 10
28.81354635813659
 20
-9.424537440778646
 30
0.0
 10
28.87845790386201
 20
-9.391006082296377
 30
0.0
  0
SPLINE
  5
D3
330
1F
100
AcDbEntity
  8
0
  6
Continuous
 62
     1
370
    15
100
AcDbSpline
210
0.0
220
0.0
230
1.0
 70
     8
 71
     3
 72
     9
 73
     5
 74
     0
 42
0.000000001
 43
0.00000001
 40
0.0
 40
0.0
 40
0.0
 40
0.0
 40
0.4996635583816583
 40
1.0
 40
1.0
 40
1.0
 40
1.0
 10
31.34583128988744
 20
9.36017464846372
 30
0.0
 10
31.27762513039939
 20
9.39981280858294
 30
0.0
 10
31.14112096005533
 20
9.47914250844659
 30
0.0
 10
30.98650024054221
 20
9.507783090718203
 30
0.0
 10
30.90913785994054
 20
9.52211301773786
 30
0.0
  0
SPLINE
  5
D4
330
1F
100
AcDbEntity
  8
외형선
  6
Continuous
370
    15
100
AcDbSpline
210
0.0
220
0.0
230
1.0
 70
     8
 71
     3
 72
     9
 73
     5
 74
     0
 42
0.000000001
 43
0.00000001
 40
0.0
 40
0.0
 40
0.0
 40
0.0
 40
0.5145015467877037
 40
1.0
 40
1.0
 40
1.0
 40
1.0
 10
10.45778970140965
 20
9.363885968923563
 30
0.0
 10
10.40636686417988
 20
9.344547012428809
 30
0.0
 10
10.30641995915924
 20
9.30695926052505
 30
0.0
 10
10.23632933485908
 20
9.343899099355173
 30
0.0
 10
10.20230044517667
 20
9.36183333396911
 30
0.0
  0
SPLINE
  5
D6
330
1F
100
AcDbEntity
  8
0
  6
Continuous
 62
     1
370
    15
100
AcDbSpline
210
0.0
220
0.0
230
1.0
 70
     8
 71
     3
 72
     9
 73
     5
 74
     0
 42
0.000000001
 43
0.00000001
 40
0.0
 40
0.0
 40
0.0
 40
0.0
 40
0.9529406645921381
 40
1.0
 40
1.0
 40
1.0
 40
1.0
 10
30.9135970324278
 20
9.5189269632101
 30
0.0
 10
30.83503019622767
 20
9.509537637917763
 30
0.0
 10
30.75258347197779
 20
9.499684636948013
 30
0.0
 10
30.67968025139669
 20
9.46328265298031
 30
0.0
 10
30.67624947428704
 20
9.461569599807259
 30
0.0
  0
SPLINE
  5
D7
330
1F
100
AcDbEntity
  8
0
  6
Continuous
 62
     1
370
    15
100
AcDbSpline
210
0.0
220
0.0
230
1.0
 70
     8
 71
     3
 72
    11
 73
     7
 74
     0
 42
0.000000001
 43
0.00000001
 40
0.0
 40
0.0
 40
0.0
 40
0.0
 40
0.2476213716916981
 40
0.4999145282254103
 40
0.752246029810676
 40
1.0
 40
1.0
 40
1.0
 40
1.0
 10
30.4661095738411
 20
9.366759099066252
 30
0.0
 10
30.44627121603051
 20
9.355313620049847
 30
0.0
 10
30.40622021712888
 20
9.332206724212421
 30
0.0
 10
30.33418601149004
 20
9.321103659788516
 30
0.0
 10
30.26204969201896
 20
9.32986126088648
 30
0.0
 10
30.22178038198096
 20
9.351439254702235
 30
0.0
 10
30.20183002948762
 20
9.36212949454784
 30
0.0
  0
SPLINE
  5
D8
330
1F
100
AcDbEntity
  8
0
  6
Continuous
 62
     1
370
    15
100
AcDbSpline
210
0.0
220
0.0
230
1.0
 70
     8
 71
     3
 72
    11
 73
     7
 74
     0
 42
0.000000001
 43
0.00000001
 40
0.0
 40
0.0
 40
0.0
 40
0.0
 40
0.2475587073236691
 40
0.500091833065166
 40
0.7525839102576705
 40
1.0
 40
1.0
 40
1.0
 40
1.0
 10
28.94075779616834
 20
-9.365398436784746
 30
0.0
 10
28.96079010898083
 20
-9.354046809922217
 30
0.0
 10
29.00125726177555
 20
-9.331115457810526
 30
0.0
 10
29.0735455131982
 20
-9.320548413029396
 30
0.0
 10
29.14573150169035
 20
-9.329839070811186
 30
0.0
 10
29.18598113525479
 20
-9.351798593210296
 30
0.0
 10
29.20590160787107
 20
-9.362666867673406
 30
0.0
  0
LINE
  5
D9
330
1F
100
AcDbEntity
  8
0
  6
Continuous
 62
     1
370
    15
100
AcDbLine
 10
29.20661500096322
 20
-9.363153018057357
 30
0.0
 11
29.34380999207498
 21
-9.432375431060796
 31
0.0
  0
SPLINE
  5
DA
330
1F
100
AcDbEntity
  8
0
  6
Continuous
 62
     1
370
    15
100
AcDbSpline
210
0.0
220
0.0
230
1.0
 70
     8
 71
     3
 72
    10
 73
     6
 74
     0
 42
0.000000001
 43
0.00000001
 40
0.0
 40
0.0
 40
0.0
 40
0.0
 40
0.5
 40
0.5
 40
1.0
 40
1.0
 40
1.0
 40
1.0
 10
22.12418256128139
 20
1.343557719952954
 30
0.0
 10
21.94813625907668
 20
1.409856201976408
 30
0.0
 10
21.7549928297327
 20
1.512638340413212
 30
0.0
 10
21.38394526246357
 20
1.725523374325132
 30
0.0
 10
21.21097010165222
 20
1.833483123832728
 30
0.0
 10
21.06523879668088
 20
1.935567841475403
 30
0.0
  0
SPLINE
  5
DB
330
1F
100
AcDbEntity
  8
0
  6
Continuous
 62
     1
370
    15
100
AcDbSpline
210
0.0
220
0.0
230
1.0
 70
     8
 71
     3
 72
    10
 73
     6
 74
     0
 42
0.000000001
 43
0.00000001
 40
0.0
 40
0.0
 40
0.0
 40
0.0
 40
0.5
 40
0.5
 40
1.0
 40
1.0
 40
1.0
 40
1.0
 10
20.81842279091008
 20
-3.750647151481621
 30
0.0
 10
20.99451726462289
 20
-3.842430998778914
 30
0.0
 10
21.18775601309659
 20
-3.950341530568677
 30
0.0
 10
21.55884751003392
 20
-4.143434312792286
 30
0.0
 10
21.73167767445867
 20
-4.226657934396453
 30
0.0
 10
21.87732942354197
 20
-4.293186711217071
 30
0.0
  0
SPLINE
  5
DC
330
1F
100
AcDbEntity
  8
외형선
  6
Continuous
370
    15
100
AcDbSpline
210
0.0
220
0.0
230
1.0
 70
     8
 71
     3
 72
     8
 73
     4
 74
     0
 42
0.000000001
 43
0.00000001
 40
0.0
 40
0.0
 40
0.0
 40
0.0
 40
1.0
 40
1.0
 40
1.0
 40
1.0
 10
11.38917195744403
 20
1.565725706933277
 30
0.0
 10
11.55254897668239
 20
1.468369588272958
 30
0.0
 10
11.71596300191052
 20
1.370969294564383
 30
0.0
 10
11.8794161857928
 20
1.273528725751232
 30
0.0
  0
SPLINE
  5
DD
330
1F
100
AcDbEntity
  8
외형선
  6
Continuous
370
    15
100
AcDbSpline
210
0.0
220
0.0
230
1.0
 70
     8
 71
     3
 72
    14
 73
    10
 74
     0
 42
0.000000001
 43
0.00000001
 40
0.0
 40
0.0
 40
0.0
 40
0.0
 40
0.25
 40
0.25
 40
0.5
 40
0.5
 40
0.75
 40
0.75
 40
1.0
 40
1.0
 40
1.0
 40
1.0
 10
11.38917195744395
 20
1.565725706933293
 30
0.0
 10
11.40494970452114
 20
2.044639620291888
 30
0.0
 10
11.42111011763715
 20
2.515060102138337
 30
0.0
 10
11.45419440558566
 20
3.438813201343365
 30
0.0
 10
11.4709033770791
 20
3.886003602890857
 30
0.0
 10
11.50424237909936
 20
4.74179968002797
 30
0.0
 10
11.52093409718854
 20
5.152129152346451
 30
0.0
 10
11.55433784825147
 20
5.936937127709585
 30
0.0
 10
11.57095137939423
 20
6.310885607208781
 30
0.0
 10
11.58733292153366
 20
6.657099180331786
 30
0.0
  0
SPLINE
  5
DE
330
1F
100
AcDbEntity
  8
외형선
  6
Continuous
370
    15
100
AcDbSpline
210
0.0
220
0.0
230
1.0
 70
     8
 71
     3
 72
     8
 73
     4
 74
     0
 42
0.000000001
 43
0.00000001
 40
0.0
 40
0.0
 40
0.0
 40
0.0
 40
1.0
 40
1.0
 40
1.0
 40
1.0
 10
12.00000000000001
 20
6.477249129525787
 30
0.0
 10
11.86239464535985
 20
6.537719778377833
 30
0.0
 10
11.72483875725855
 20
6.597670678594901
 30
0.0
 10
11.58733292153365
 20
6.657099180331778
 30
0.0
  0
SPLINE
  5
DF
330
1F
100
AcDbEntity
  8
외형선
  6
Continuous
370
    15
100
AcDbSpline
210
0.0
220
0.0
230
1.0
 70
     8
 71
     3
 72
    10
 73
     6
 74
     0
 42
0.000000001
 43
0.00000001
 40
0.0
 40
0.0
 40
0.0
 40
0.0
 40
0.5
 40
0.5
 40
1.0
 40
1.0
 40
1.0
 40
1.0
 10
12.00000000000001
 20
3.602621796693489
 30
0.0
 10
11.97957629454861
 20
3.22884728293088
 30
0.0
 10
11.95931487029039
 20
2.847721278924743
 30
0.0
 10
11.91910309768447
 20
2.07100127028867
 30
0.0
 10
11.89915516469587
 20
1.674240911531587
 30
0.0
 10
11.87941618577175
 20
1.273528725751039
 30
0.0
  0
SPLINE
  5
E0
330
1F
100
AcDbEntity
  8
0
  6
Continuous
 62
     1
370
    15
100
AcDbSpline
210
0.0
220
0.0
230
1.0
 70
     8
 71
     3
 72
    12
 73
     8
 74
     0
 42
0.000000001
 43
0.00000001
 40
0.0
 40
0.0
 40
0.0
 40
0.0
 40
0.5
 40
0.5
 40
0.75
 40
0.75
 40
1.0
 40
1.0
 40
1.0
 40
1.0
 10
22.81338784397193
 20
0.9064149469117095
 30
0.0
 10
22.77436261265054
 20
-0.042690180279921
 30
0.0
 10
22.73286941363563
 20
-1.025419709537442
 30
0.0
 10
22.67106929790787
 20
-2.449845127780072
 30
0.0
 10
22.65055253062918
 20
-2.916251906745314
 30
0.0
 10
22.61038476707147
 20
-3.816689896019921
 30
0.0
 10
22.59106108398886
 20
-4.248392752331563
 30
0.0
 10
22.57172741280476
 20
-4.662823650839981
 30
0.0
  0
SPLINE
  5
E1
330
1F
100
AcDbEntity
  8
0
  6
Continuous
 62
     1
370
    15
100
AcDbSpline
210
0.0
220
0.0
230
1.0
 70
     8
 71
     3
 72
     8
 73
     4
 74
     0
 42
0.000000001
 43
0.00000001
 40
0.0
 40
0.0
 40
0.0
 40
0.0
 40
1.0
 40
1.0
 40
1.0
 40
1.0
 10
22.14765075364145
 20
-4.429400190673205
 30
0.0
 10
22.2809662230462
 20
-4.504366202129379
 30
0.0
 10
22.42739757286715
 20
-4.587201242201136
 30
0.0
 10
22.57172741280469
 20
-4.662823650839983
 30
0.0
  0
SPLINE
  5
E2
330
1F
100
AcDbEntity
  8
0
  6
Continuous
 62
     1
370
    15
100
AcDbSpline
210
0.0
220
0.0
230
1.0
 70
     8
 71
     3
 72
     8
 73
     4
 74
     0
 42
0.000000001
 43
0.00000001
 40
0.0
 40
0.0
 40
0.0
 40
0.0
 40
1.0
 40
1.0
 40
1.0
 40
1.0
 10
22.81338784397191
 20
0.9064149469116924
 30
0.0
 10
22.65976786187756
 20
0.9999392909412587
 30
0.0
 10
22.51672508910142
 20
1.096484722298841
 30
0.0
 10
22.39445276854118
 20
1.190760567182642
 30
0.0
  0
SPLINE
  5
E3
330
1F
100
AcDbEntity
  8
0
  6
Continuous
 62
     1
370
    15
100
AcDbSpline
210
0.0
220
0.0
230
1.0
 70
     8
 71
     3
 72
    10
 73
     6
 74
     0
 42
0.000000001
 43
0.00000001
 40
0.0
 40
0.0
 40
0.0
 40
0.0
 40
0.5
 40
0.5
 40
1.0
 40
1.0
 40
1.0
 40
1.0
 10
19.68232203753321
 20
2.695214525610842
 30
0.0
 10
19.50631045966283
 20
2.776226325793009
 30
0.0
 10
19.31322019364485
 20
2.882853034544839
 30
0.0
 10
18.9425028727632
 20
3.087022678312396
 30
0.0
 10
18.76974270657693
 20
3.182253936353023
 30
0.0
 10
18.62416373217787
 20
3.265419271275672
 30
0.0
  0
SPLINE
  5
E4
330
1F
100
AcDbEntity
  8
0
  6
Continuous
 62
     1
370
    15
100
AcDbSpline
210
0.0
220
0.0
230
1.0
 70
     8
 71
     3
 72
    10
 73
     6
 74
     0
 42
0.000000001
 43
0.00000001
 40
0.0
 40
0.0
 40
0.0
 40
0.0
 40
0.4999999999999991
 40
0.4999999999999991
 40
1.0
 40
1.0
 40
1.0
 40
1.0
 10
18.37743471199872
 20
-2.444269959873909
 30
0.0
 10
18.55344694030129
 20
-2.522537022505356
 30
0.0
 10
18.74656150964202
 20
-2.628552123773553
 30
0.0
 10
19.11734399209141
 20
-2.834651944965804
 30
0.0
 10
19.29000745050213
 20
-2.932573481491275
 30
0.0
 10
19.43557050075042
 20
-3.019501989138959
 30
0.0
  0
SPLINE
  5
E5
330
1F
100
AcDbEntity
  8
0
  6
Continuous
 62
     1
370
    15
100
AcDbSpline
210
0.0
220
0.0
230
1.0
 70
     8
 71
     3
 72
     8
 73
     4
 74
     0
 42
0.000000001
 43
0.00000001
 40
0.0
 40
0.0
 40
0.0
 40
0.0
 40
1.0
 40
1.0
 40
1.0
 40
1.0
 10
20.12956277959528
 20
-3.386773336769699
 30
0.0
 10
20.28307127926728
 20
-3.469409982658661
 30
0.0
 10
20.42605632120539
 20
-3.54463917952899
 30
0.0
 10
20.54826752603925
 20
-3.609802687979773
 30
0.0
  0
SPLINE
  5
E6
330
1F
100
AcDbEntity
  8
0
  6
Continuous
 62
     1
370
    15
100
AcDbSpline
210
0.0
220
0.0
230
1.0
 70
     8
 71
     3
 72
    14
 73
    10
 74
     0
 42
0.000000001
 43
0.00000001
 40
0.0
 40
0.0
 40
0.0
 40
0.0
 40
0.125
 40
0.125
 40
0.25
 40
0.25
 40
0.5
 40
0.5
 40
1.0
 40
1.0
 40
1.0
 40
1.0
 10
20.3710688886122
 20
2.295320051127248
 30
0.0
 10
20.36109431430211
 20
2.062228574934841
 30
0.0
 10
20.35124046290337
 20
1.827880983085272
 30
0.0
 10
20.33185132431786
 20
1.358736589711105
 30
0.0
 10
20.32234584998523
 20
1.12419068351952
 30
0.0
 10
20.29304022353799
 20
0.4117371601774905
 30
0.0
 10
20.27289835992816
 20
-0.0714448797174585
 30
0.0
 10
20.2116440901609
 20
-1.52114467354221
 30
0.0
 10
20.16972056675447
 20
-2.486946816805611
 30
0.0
 10
20.12956277959478
 20
-3.386773336768092
 30
0.0
  0
SPLINE
  5
E7
330
1F
100
AcDbEntity
  8
0
  6
Continuous
 62
     1
370
    15
100
AcDbSpline
210
0.0
220
0.0
230
1.0
 70
     8
 71
     3
 72
     8
 73
     4
 74
     0
 42
0.000000001
 43
0.00000001
 40
0.0
 40
0.0
 40
0.0
 40
0.0
 40
1.0
 40
1.0
 40
1.0
 40
1.0
 10
20.79502096396471
 20
2.084910452690743
 30
0.0
 10
20.66174377586214
 20
2.140782269613709
 30
0.0
 10
20.51536767795634
 20
2.2167243872169
 30
0.0
 10
20.37106888861257
 20
2.295320051127665
 30
0.0
  0
SPLINE
  5
E8
330
1F
100
AcDbEntity
  8
0
  6
Continuous
 62
     1
370
    15
100
AcDbSpline
210
0.0
220
0.0
230
1.0
 70
     8
 71
     3
 72
     8
 73
     4
 74
     0
 42
0.000000001
 43
0.00000001
 40
0.0
 40
0.0
 40
0.0
 40
0.0
 40
1.0
 40
1.0
 40
1.0
 40
1.0
 10
19.70567976053821
 20
-3.164230287015197
 30
0.0
 10
19.83893086235601
 20
-3.229200038469793
 30
0.0
 10
19.98527465531465
 20
-3.308874728925144
 30
0.0
 10
20.12956277959465
 20
-3.386773336769679
 30
0.0
  0
SPLINE
  5
E9
330
1F
100
AcDbEntity
  8
0
  6
Continuous
 62
     1
370
    15
100
AcDbSpline
210
0.0
220
0.0
230
1.0
 70
     8
 71
     3
 72
     8
 73
     4
 74
     0
 42
0.000000001
 43
0.00000001
 40
0.0
 40
0.0
 40
0.0
 40
0.0
 40
1.0
 40
1.0
 40
1.0
 40
1.0
 10
20.3710688886122
 20
2.29532005112788
 30
0.0
 10
20.21754518875563
 20
2.383534776820309
 30
0.0
 10
20.07457011740532
 20
2.469005504517578
 30
0.0
 10
19.9523934343376
 20
2.547851796149931
 30
0.0
  0
SPLINE
  5
EA
330
1F
100
AcDbEntity
  8
0
  6
Continuous
 62
     1
370
    15
100
AcDbSpline
210
0.0
220
0.0
230
1.0
 70
     8
 71
     3
 72
     8
 73
     4
 74
     0
 42
0.000000001
 43
0.00000001
 40
0.0
 40
0.0
 40
0.0
 40
0.0
 40
1.0
 40
1.0
 40
1.0
 40
1.0
 10
22.5717274128053
 20
-4.662823650839973
 30
0.0
 10
22.72527900647853
 20
-4.73709510084523
 30
0.0
 10
22.86834202117538
 20
-4.79838696678751
 30
0.0
 10
22.99063105452891
 20
-4.845546023662989
 30
0.0
  0
SPLINE
  5
EB
330
1F
100
AcDbEntity
  8
0
  6
Continuous
 62
     1
370
    15
100
AcDbSpline
210
0.0
220
0.0
230
1.0
 70
     8
 71
     3
 72
     8
 73
     4
 74
     0
 42
0.000000001
 43
0.00000001
 40
0.0
 40
0.0
 40
0.0
 40
0.0
 40
1.0
 40
1.0
 40
1.0
 40
1.0
 10
23.23740422408332
 20
0.7146712812742044
 30
0.0
 10
23.10408988837584
 20
0.7583877874631161
 30
0.0
 10
22.95768602701117
 20
0.8283884033550222
 30
0.0
 10
22.81338784397228
 20
0.9064149469114965
 30
0.0
  0
SPLINE
  5
EC
330
1F
100
AcDbEntity
  8
0
  6
Continuous
 62
     1
370
    15
100
AcDbSpline
210
0.0
220
0.0
230
1.0
 70
     8
 71
     3
 72
    10
 73
     6
 74
     0
 42
0.000000001
 43
0.00000001
 40
0.0
 40
0.0
 40
0.0
 40
0.0
 40
0.5
 40
0.5
 40
1.0
 40
1.0
 40
1.0
 40
1.0
 10
24.5661571023835
 20
-0.0376177316425719
 30
0.0
 10
24.39019140955326
 20
0.0119556593652009
 30
0.0
 10
24.19707982294127
 20
0.1083427091531918
 30
0.0
 10
23.82612658916521
 20
0.3252895354046939
 30
0.0
 10
23.65326986103663
 20
0.4435970574346143
 30
0.0
 10
23.50763009241519
 20
0.5623325258760471
 30
0.0
  0
SPLINE
  5
ED
330
1F
100
AcDbEntity
  8
0
  6
Continuous
 62
     1
370
    15
100
AcDbSpline
210
0.0
220
0.0
230
1.0
 70
     8
 71
     3
 72
    10
 73
     6
 74
     0
 42
0.000000001
 43
0.00000001
 40
0.0
 40
0.0
 40
0.0
 40
0.0
 40
0.5
 40
0.5
 40
1.0
 40
1.0
 40
1.0
 40
1.0
 10
23.26081620178814
 20
-4.975824830371148
 30
0.0
 10
23.43681465461162
 20
-5.079154554102479
 30
0.0
 10
23.62996064305764
 20
-5.186636922560071
 30
0.0
 10
24.00094298583851
 20
-5.362588517643013
 30
0.0
 10
24.17379020914727
 20
-5.429310066369443
 30
0.0
 10
24.31939056450232
 20
-5.473733476020426
 30
0.0
  0
SPLINE
  5
EE
330
1F
100
AcDbEntity
  8
0
  6
Continuous
 62
     1
370
    15
100
AcDbSpline
210
0.0
220
0.0
230
1.0
 70
     8
 71
     3
 72
    10
 73
     6
 74
     0
 42
0.000000001
 43
0.00000001
 40
0.0
 40
0.0
 40
0.0
 40
0.0
 40
0.5
 40
0.5
 40
1.0
 40
1.0
 40
1.0
 40
1.0
 10
17.24188266997669
 20
3.987907130009731
 30
0.0
 10
17.06592592756349
 20
4.081969163918749
 30
0.0
 10
16.87283299705277
 20
4.18994724606677
 30
0.0
 10
16.50203129973285
 20
4.380115704063065
 30
0.0
 10
16.32935297450705
 20
4.460371168055037
 30
0.0
 10
16.18389812819411
 20
4.522833291224656
 30
0.0
  0
SPLINE
  5
EF
330
1F
100
AcDbEntity
  8
0
  6
Continuous
 62
     1
370
    15
100
AcDbSpline
210
0.0
220
0.0
230
1.0
 70
     8
 71
     3
 72
    10
 73
     6
 74
     0
 42
0.000000001
 43
0.00000001
 40
0.0
 40
0.0
 40
0.0
 40
0.0
 40
0.5
 40
0.5
 40
1.0
 40
1.0
 40
1.0
 40
1.0
 10
15.93719247380936
 20
-1.085486103792351
 30
0.0
 10
16.11310263174074
 20
-1.148684734450536
 30
0.0
 10
16.30604722788388
 20
-1.250532390448686
 30
0.0
 10
16.67679196667673
 20
-1.464550475586821
 30
0.0
 10
16.84959497111617
 20
-1.574608177148802
 30
0.0
 10
16.99516073196844
 20
-1.679950763198594
 30
0.0
  0
SPLINE
  5
F0
330
1F
100
AcDbEntity
  8
0
  6
Continuous
 62
     1
370
    15
100
AcDbSpline
210
0.0
220
0.0
230
1.0
 70
     8
 71
     3
 72
    10
 73
     6
 74
     0
 42
0.000000001
 43
0.00000001
 40
0.0
 40
0.0
 40
0.0
 40
0.0
 40
0.5
 40
0.5
 40
1.0
 40
1.0
 40
1.0
 40
1.0
 10
21.87732942354196
 20
-4.293186711217082
 30
0.0
 10
21.91449581245788
 20
-4.310163056568086
 30
0.0
 10
21.95802930319677
 20
-4.33110703347355
 30
0.0
 10
22.05219533195191
 20
-4.378119676080558
 30
0.0
 10
22.10296342401576
 20
-4.404271592472067
 30
0.0
 10
22.14765075364144
 20
-4.429400190673172
 30
0.0
  0
SPLINE
  5
F1
330
1F
100
AcDbEntity
  8
0
  6
Continuous
 62
     1
370
    15
100
AcDbSpline
210
0.0
220
0.0
230
1.0
 70
     8
 71
     3
 72
    10
 73
     6
 74
     0
 42
0.000000001
 43
0.00000001
 40
0.0
 40
0.0
 40
0.0
 40
0.0
 40
0.5
 40
0.5
 40
1.0
 40
1.0
 40
1.0
 40
1.0
 10
22.39445276854112
 20
1.190760567182687
 30
0.0
 10
22.357502582002
 20
1.219250335256348
 30
0.0
 10
22.31410340423011
 20
1.248313231931348
 30
0.0
 10
22.22002027243158
 20
1.302086597927024
 30
0.0
 10
22.16917724890634
 20
1.326612862541639
 30
0.0
 10
22.12418256128139
 20
1.343557719952986
 30
0.0
  0
SPLINE
  5
F2
330
1F
100
AcDbEntity
  8
0
  6
Continuous
 62
     1
370
    15
100
AcDbSpline
210
0.0
220
0.0
230
1.0
 70
     8
 71
     3
 72
     8
 73
     4
 74
     0
 42
0.000000001
 43
0.00000001
 40
0.0
 40
0.0
 40
0.0
 40
0.0
 40
1.0
 40
1.0
 40
1.0
 40
1.0
 10
17.68897319245228
 20
-2.037143027369156
 30
0.0
 10
17.8424235684974
 20
-2.126425695553678
 30
0.0
 10
17.98532538007727
 20
-2.214033449661683
 30
0.0
 10
18.10743282294979
 20
-2.295825978490217
 30
0.0
  0
SPLINE
  5
F3
330
1F
100
AcDbEntity
  8
0
  6
Continuous
 62
     1
370
    15
100
AcDbSpline
210
0.0
220
0.0
230
1.0
 70
     8
 71
     3
 72
    12
 73
     8
 74
     0
 42
0.000000001
 43
0.00000001
 40
0.0
 40
0.0
 40
0.0
 40
0.0
 40
0.25
 40
0.25
 40
0.5
 40
0.5
 40
1.0
 40
1.0
 40
1.0
 40
1.0
 10
17.93032348586316
 20
3.633342747288403
 30
0.0
 10
17.9097500436658
 20
3.18465399846008
 30
0.0
 10
17.8893267508483
 20
2.722851794320096
 30
0.0
 10
17.84946893837674
 20
1.789612254662501
 30
0.0
 10
17.830495474903
 20
1.321967420201118
 30
0.0
 10
17.77176264250911
 20
-0.1047987752867164
 30
0.0
 10
17.73018852125021
 20
-1.088300215367886
 30
0.0
 10
17.68897319245173
 20
-2.037143027369233
 30
0.0
  0
SPLINE
  5
F4
330
1F
100
AcDbEntity
  8
0
  6
Continuous
 62
     1
370
    15
100
AcDbSpline
210
0.0
220
0.0
230
1.0
 70
     8
 71
     3
 72
     8
 73
     4
 74
     0
 42
0.000000001
 43
0.00000001
 40
0.0
 40
0.0
 40
0.0
 40
0.0
 40
1.0
 40
1.0
 40
1.0
 40
1.0
 10
18.35410933972663
 20
3.408614139216002
 30
0.0
 10
18.22089238508332
 20
3.475490424719568
 30
0.0
 10
18.07458031107664
 20
3.555806801379008
 30
0.0
 10
17.93032348586349
 20
3.633342747288221
 30
0.0
  0
SPLINE
  5
F5
330
1F
100
AcDbEntity
  8
0
  6
Continuous
 62
     1
370
    15
100
AcDbSpline
210
0.0
220
0.0
230
1.0
 70
     8
 71
     3
 72
     8
 73
     4
 74
     0
 42
0.000000001
 43
0.00000001
 40
0.0
 40
0.0
 40
0.0
 40
0.0
 40
1.0
 40
1.0
 40
1.0
 40
1.0
 10
17.26519730287242
 20
-1.830038463205653
 30
0.0
 10
17.39841130994429
 20
-1.883683336814803
 30
0.0
 10
17.54472585440286
 20
-1.958580455689494
 30
0.0
 10
17.68897319245166
 20
-2.037143027369178
 30
0.0
  0
SPLINE
  5
F6
330
1F
100
AcDbEntity
  8
0
  6
Continuous
 62
     1
370
    15
100
AcDbSpline
210
0.0
220
0.0
230
1.0
 70
     8
 71
     3
 72
     8
 73
     4
 74
     0
 42
0.000000001
 43
0.00000001
 40
0.0
 40
0.0
 40
0.0
 40
0.0
 40
1.0
 40
1.0
 40
1.0
 40
1.0
 10
17.93032348586316
 20
3.633342747288383
 30
0.0
 10
17.77688824530074
 20
3.714449633243525
 30
0.0
 10
17.63398171792442
 20
3.787102085455988
 30
0.0
 10
17.51186937292691
 20
3.848911900233385
 30
0.0
  0
SPLINE
  5
F7
330
1F
100
AcDbEntity
  8
0
  6
Continuous
 62
     1
370
    15
100
AcDbSpline
210
0.0
220
0.0
230
1.0
 70
     8
 71
     3
 72
    10
 73
     6
 74
     0
 42
0.000000001
 43
0.00000001
 40
0.0
 40
0.0
 40
0.0
 40
0.0
 40
0.5
 40
0.5
 40
1.0
 40
1.0
 40
1.0
 40
1.0
 10
20.54826752603934
 20
-3.609802687979804
 30
0.0
 10
20.58519164638008
 20
-3.629490778209607
 30
0.0
 10
20.62856871831263
 20
-3.652420150384366
 30
0.0
 10
20.72263237449578
 20
-3.701272711456003
 30
0.0
 10
20.77346203022507
 20
-3.727212732978483
 30
0.0
 10
20.81842279091008
 20
-3.75064715148166
 30
0.0
  0
SPLINE
  5
F8
330
1F
100
AcDbEntity
  8
0
  6
Continuous
 62
     1
370
    15
100
AcDbSpline
210
0.0
220
0.0
230
1.0
 70
     8
 71
     3
 72
    10
 73
     6
 74
     0
 42
0.000000001
 43
0.00000001
 40
0.0
 40
0.0
 40
0.0
 40
0.0
 40
0.5
 40
0.5
 40
1.0
 40
1.0
 40
1.0
 40
1.0
 10
21.06523879668088
 20
1.9355678414754
 30
0.0
 10
21.02809599957392
 20
1.961586355176824
 30
0.0
 10
20.98458448718188
 20
1.988919353676054
 30
0.0
 10
20.89043682428558
 20
2.041296727529244
 30
0.0
 10
20.83967988788172
 20
2.066188755027481
 30
0.0
 10
20.79502096396476
 20
2.084910452690734
 30
0.0
  0
SPLINE
  5
F9
330
1F
100
AcDbEntity
  8
0
  6
Continuous
 62
     1
370
    15
100
AcDbSpline
210
0.0
220
0.0
230
1.0
 70
     8
 71
     3
 72
    10
 73
     6
 74
     0
 42
0.000000001
 43
0.00000001
 40
0.0
 40
0.0
 40
0.0
 40
0.0
 40
0.5
 40
0.5
 40
1.0
 40
1.0
 40
1.0
 40
1.0
 10
37.04135927060058
 20
-6.454832092163452
 30
0.0
 10
37.00447194055289
 20
-6.414311776878963
 30
0.0
 10
36.96113185554024
 20
-6.381339023284847
 30
0.0
 10
36.86712779346335
 20
-6.339274291995791
 30
0.0
 10
36.81632173779474
 20
-6.330934228088465
 30
0.0
 10
36.77137787194927
 20
-6.341396255000569
 30
0.0
  0
SPLINE
  5
FA
330
1F
100
AcDbEntity
  8
0
  6
Continuous
 62
     1
370
    15
100
AcDbSpline
210
0.0
220
0.0
230
1.0
 70
     8
 71
     3
 72
    10
 73
     6
 74
     0
 42
0.000000001
 43
0.00000001
 40
0.0
 40
0.0
 40
0.0
 40
0.0
 40
0.5
 40
0.5
 40
1.0
 40
1.0
 40
1.0
 40
1.0
 10
36.77137787194927
 20
-6.341396255000565
 30
0.0
 10
36.59548137422766
 20
-6.382341417555887
 30
0.0
 10
36.40243972274742
 20
-6.344077155760054
 30
0.0
 10
36.03161598761846
 20
-6.174627911283948
 30
0.0
 10
35.8588200642458
 20
-6.045312844632992
 30
0.0
 10
35.71326376796418
 20
-5.887110231440753
 30
0.0
  0
SPLINE
  5
FB
330
1F
100
AcDbEntity
  8
0
  6
Continuous
 62
     1
370
    15
100
AcDbSpline
210
0.0
220
0.0
230
1.0
 70
     8
 71
     3
 72
    10
 73
     6
 74
     0
 42
0.000000001
 43
0.00000001
 40
0.0
 40
0.0
 40
0.0
 40
0.0
 40
0.5
 40
0.5
 40
1.0
 40
1.0
 40
1.0
 40
1.0
 10
35.71326376796418
 20
-5.887110231440746
 30
0.0
 10
35.67614329619948
 20
-5.846764634677685
 30
0.0
 10
35.63265143820896
 20
-5.81346244094757
 30
0.0
 10
35.53854027704349
 20
-5.769719384140766
 30
0.0
 10
35.48780791254935
 20
-5.760028764260803
 30
0.0
 10
35.44317115335176
 20
-5.768613462313755
 30
0.0
  0
SPLINE
  5
FC
330
1F
100
AcDbEntity
  8
0
  6
Continuous
 62
     1
370
    15
100
AcDbSpline
210
0.0
220
0.0
230
1.0
 70
     8
 71
     3
 72
     8
 73
     4
 74
     0
 42
0.000000001
 43
0.00000001
 40
0.0
 40
0.0
 40
0.0
 40
0.0
 40
1.0
 40
1.0
 40
1.0
 40
1.0
 10
35.4431711533517
 20
-5.768613462313767
 30
0.0
 10
35.30991500467892
 20
-5.794241752104921
 30
0.0
 10
35.16356960505366
 20
-5.773599520085737
 30
0.0
 10
35.01932387615979
 20
-5.722967603360813
 30
0.0
  0
SPLINE
  5
FD
330
1F
100
AcDbEntity
  8
0
  6
Continuous
 62
     1
370
    15
100
AcDbSpline
210
0.0
220
0.0
230
1.0
 70
     8
 71
     3
 72
     8
 73
     4
 74
     0
 42
0.000000001
 43
0.00000001
 40
0.0
 40
0.0
 40
0.0
 40
0.0
 40
1.0
 40
1.0
 40
1.0
 40
1.0
 10
35.0193238761594
 20
-5.722967603360675
 30
0.0
 10
34.86580566125775
 20
-5.635098695188529
 30
0.0
 10
34.7228659829961
 20
-5.51890554790055
 30
0.0
 10
34.60071144877093
 20
-5.384400877154725
 30
0.0
  0
SPLINE
  5
FE
330
1F
100
AcDbEntity
  8
0
  6
Continuous
 62
     1
370
    15
100
AcDbSpline
210
0.0
220
0.0
230
1.0
 70
     8
 71
     3
 72
    10
 73
     6
 74
     0
 42
0.000000001
 43
0.00000001
 40
0.0
 40
0.0
 40
0.0
 40
0.0
 40
0.5
 40
0.5
 40
1.0
 40
1.0
 40
1.0
 40
1.0
 10
34.60071144877087
 20
-5.384400877154655
 30
0.0
 10
34.56379495986778
 20
-5.343752036597923
 30
0.0
 10
34.52042796014917
 20
-5.309554235950297
 30
0.0
 10
34.4263978854777
 20
-5.262720912888177
 30
0.0
 10
34.37558525148751
 20
-5.250761961290434
 30
0.0
 10
34.33062143944728
 20
-5.256594423391772
 30
0.0
  0
SPLINE
  5
FF
330
1F
100
AcDbEntity
  8
0
  6
Continuous
 62
     1
370
    15
100
AcDbSpline
210
0.0
220
0.0
230
1.0
 70
     8
 71
     3
 72
    10
 73
     6
 74
     0
 42
0.000000001
 43
0.00000001
 40
0.0
 40
0.0
 40
0.0
 40
0.0
 40
0.5
 40
0.5
 40
1.0
 40
1.0
 40
1.0
 40
1.0
 10
34.33062143944728
 20
-5.256594423391774
 30
0.0
 10
34.15462688233503
 20
-5.279423483870026
 30
0.0
 10
33.96152477332676
 20
-5.226428614576981
 30
0.0
 10
33.59055565922818
 20
-5.038433829599087
 30
0.0
 10
33.41763955914602
 20
-4.905436881556494
 30
0.0
 10
33.27192947078073
 20
-4.748461261307284
 30
0.0
  0
SPLINE
  5
100
330
1F
100
AcDbEntity
  8
0
  6
Continuous
 62
     1
370
    15
100
AcDbSpline
210
0.0
220
0.0
230
1.0
 70
     8
 71
     3
 72
    10
 73
     6
 74
     0
 42
0.000000001
 43
0.00000001
 40
0.0
 40
0.0
 40
0.0
 40
0.0
 40
0.5
 40
0.5
 40
1.0
 40
1.0
 40
1.0
 40
1.0
 10
33.27192947078073
 20
-4.748461261307294
 30
0.0
 10
33.23477536800156
 20
-4.708434600188649
 30
0.0
 10
33.19125101045255
 20
-4.67427841607951
 30
0.0
 10
33.0970823907145
 20
-4.626272323069077
 30
0.0
 10
33.04631402697006
 20
-4.613097643036767
 30
0.0
 10
33.00164294602315
 20
-4.616999078033796
 30
0.0
  0
SPLINE
  5
101
330
1F
100
AcDbEntity
  8
0
  6
Continuous
 62
     1
370
    15
100
AcDbSpline
210
0.0
220
0.0
230
1.0
 70
     8
 71
     3
 72
     8
 73
     4
 74
     0
 42
0.000000001
 43
0.00000001
 40
0.0
 40
0.0
 40
0.0
 40
0.0
 40
1.0
 40
1.0
 40
1.0
 40
1.0
 10
33.0016429460231
 20
-4.616999078033824
 30
0.0
 10
32.86833630169718
 20
-4.628641670881006
 30
0.0
 10
32.72187395010711
 20
-4.596250872953585
 30
0.0
 10
32.57754381414777
 20
-4.537335351930517
 30
0.0
  0
SPLINE
  5
102
330
1F
100
AcDbEntity
  8
0
  6
Continuous
 62
     1
370
    15
100
AcDbSpline
210
0.0
220
0.0
230
1.0
 70
     8
 71
     3
 72
     8
 73
     4
 74
     0
 42
0.000000001
 43
0.00000001
 40
0.0
 40
0.0
 40
0.0
 40
0.0
 40
1.0
 40
1.0
 40
1.0
 40
1.0
 10
32.5775438141474
 20
-4.537335351930366
 30
0.0
 10
32.42391246414414
 20
-4.444219123581168
 30
0.0
 10
32.280823471076
 20
-4.327034423932249
 30
0.0
 10
32.15852541094047
 20
-4.195166573993076
 30
0.0
  0
SPLINE
  5
103
330
1F
100
AcDbEntity
  8
0
  6
Continuous
 62
     1
370
    15
100
AcDbSpline
210
0.0
220
0.0
230
1.0
 70
     8
 71
     3
 72
    10
 73
     6
 74
     0
 42
0.000000001
 43
0.00000001
 40
0.0
 40
0.0
 40
0.0
 40
0.0
 40
0.5
 40
0.5
 40
1.0
 40
1.0
 40
1.0
 40
1.0
 10
32.15852541094042
 20
-4.195166573993028
 30
0.0
 10
32.12158220079773
 20
-4.155332567746562
 30
0.0
 10
32.07819011784104
 20
-4.120715793836047
 30
0.0
 10
31.98410837147412
 20
-4.070293202454592
 30
0.0
 10
31.93326810025929
 20
-4.055095990310821
 30
0.0
 10
31.88829166751314
 20
-4.056272541235447
 30
0.0
  0
SPLINE
  5
104
330
1F
100
AcDbEntity
  8
0
  6
Continuous
 62
     1
370
    15
100
AcDbSpline
210
0.0
220
0.0
230
1.0
 70
     8
 71
     3
 72
    10
 73
     6
 74
     0
 42
0.000000001
 43
0.00000001
 40
0.0
 40
0.0
 40
0.0
 40
0.0
 40
0.5
 40
0.5
 40
1.0
 40
1.0
 40
1.0
 40
1.0
 10
31.88829166751315
 20
-4.056272541235451
 30
0.0
 10
31.71218763596387
 20
-4.060879295228569
 30
0.0
 10
31.51900810127251
 20
-3.994500985995206
 30
0.0
 10
31.14812246385322
 20
-3.791927606270841
 30
0.0
 10
30.97528270697834
 20
-3.658105656717312
 30
0.0
 10
30.82961154681966
 20
-3.505750685408454
 30
0.0
  0
SPLINE
  5
105
330
1F
100
AcDbEntity
  8
0
  6
Continuous
 62
     1
370
    15
100
AcDbSpline
210
0.0
220
0.0
230
1.0
 70
     8
 71
     3
 72
    10
 73
     6
 74
     0
 42
0.000000001
 43
0.00000001
 40
0.0
 40
0.0
 40
0.0
 40
0.0
 40
0.5
 40
0.5
 40
1.0
 40
1.0
 40
1.0
 40
1.0
 10
30.82961154681967
 20
-3.505750685408479
 30
0.0
 10
30.79248293913555
 20
-3.46691851058205
 30
0.0
 10
30.74898562111995
 20
-3.4326507291595
 30
0.0
 10
30.65486110288524
 20
-3.381417571939019
 30
0.0
 10
30.60411083992332
 20
-3.365046153244883
 30
0.0
 10
30.55945349973982
 20
-3.364158168325906
 30
0.0
  0
SPLINE
  5
106
330
1F
100
AcDbEntity
  8
0
  6
Continuous
 62
     1
370
    15
100
AcDbSpline
210
0.0
220
0.0
230
1.0
 70
     8
 71
     3
 72
     8
 73
     4
 74
     0
 42
0.000000001
 43
0.00000001
 40
0.0
 40
0.0
 40
0.0
 40
0.0
 40
1.0
 40
1.0
 40
1.0
 40
1.0
 10
30.55945349973978
 20
-3.364158168325937
 30
0.0
 10
30.42619985228955
 20
-3.36150849799517
 30
0.0
 10
30.27985183714425
 20
-3.318092291658779
 30
0.0
 10
30.13556189391381
 20
-3.252158113570562
 30
0.0
  0
SPLINE
  5
107
330
1F
100
AcDbEntity
  8
0
  6
Continuous
 62
     1
370
    15
100
AcDbSpline
210
0.0
220
0.0
230
1.0
 70
     8
 71
     3
 72
     8
 73
     4
 74
     0
 42
0.000000001
 43
0.00000001
 40
0.0
 40
0.0
 40
0.0
 40
0.0
 40
1.0
 40
1.0
 40
1.0
 40
1.0
 10
30.13556189391346
 20
-3.252158113570398
 30
0.0
 10
29.98208121511184
 20
-3.155866839525106
 30
0.0
 10
29.83912559380507
 20
-3.040293039523881
 30
0.0
 10
29.71696390469114
 20
-2.914036439206438
 30
0.0
  0
SPLINE
  5
108
330
1F
100
AcDbEntity
  8
0
  6
Continuous
 62
     1
370
    15
100
AcDbSpline
210
0.0
220
0.0
230
1.0
 70
     8
 71
     3
 72
    10
 73
     6
 74
     0
 42
0.000000001
 43
0.00000001
 40
0.0
 40
0.0
 40
0.0
 40
0.0
 40
0.5
 40
0.5
 40
1.0
 40
1.0
 40
1.0
 40
1.0
 10
29.71696390469109
 20
-2.91403643920639
 30
0.0
 10
29.68005926710402
 20
-2.875894742644335
 30
0.0
 10
29.6367022722336
 20
-2.841623378783627
 30
0.0
 10
29.54267264226324
 20
-2.788722141999339
 30
0.0
 10
29.49186242499275
 20
-2.770623251641969
 30
0.0
 10
29.44692098161831
 20
-2.767112713890266
 30
0.0
  0
SPLINE
  5
109
330
1F
100
AcDbEntity
  8
0
  6
Continuous
 62
     1
370
    15
100
AcDbSpline
210
0.0
220
0.0
230
1.0
 70
     8
 71
     3
 72
    10
 73
     6
 74
     0
 42
0.000000001
 43
0.00000001
 40
0.0
 40
0.0
 40
0.0
 40
0.0
 40
0.5
 40
0.5
 40
1.0
 40
1.0
 40
1.0
 40
1.0
 10
29.44692098161829
 20
-2.767112713890238
 30
0.0
 10
29.27094509048068
 20
-2.753366604223018
 30
0.0
 10
29.07783517913242
 20
-2.675400061527865
 30
0.0
 10
28.70700021700872
 20
-2.463660686273379
 30
0.0
 10
28.53429967964024
 20
-2.332174897220813
 30
0.0
 10
28.3888296067365
 20
-2.187917357749156
 30
0.0
  0
SPLINE
  5
10A
330
1F
100
AcDbEntity
  8
0
  6
Continuous
 62
     1
370
    15
100
AcDbSpline
210
0.0
220
0.0
230
1.0
 70
     8
 71
     3
 72
    10
 73
     6
 74
     0
 42
0.000000001
 43
0.00000001
 40
0.0
 40
0.0
 40
0.0
 40
0.0
 40
0.5
 40
0.5
 40
1.0
 40
1.0
 40
1.0
 40
1.0
 10
28.3888296067365
 20
-2.187917357749153
 30
0.0
 10
28.35172069191514
 20
-2.151117756032212
 30
0.0
 10
28.30824474746108
 20
-2.117475255482856
 30
0.0
 10
28.2141769278345
 20
-2.064077353060455
 30
0.0
 10
28.1634526345029
 20
-2.044829344534801
 30
0.0
 10
28.11880733066264
 20
-2.039139947767833
 30
0.0
  0
SPLINE
  5
10B
330
1F
100
AcDbEntity
  8
0
  6
Continuous
 62
     1
370
    15
100
AcDbSpline
210
0.0
220
0.0
230
1.0
 70
     8
 71
     3
 72
     8
 73
     4
 74
     0
 42
0.000000001
 43
0.00000001
 40
0.0
 40
0.0
 40
0.0
 40
0.0
 40
1.0
 40
1.0
 40
1.0
 40
1.0
 10
28.1188073306626
 20
-2.039139947767851
 30
0.0
 10
27.98559120938365
 20
-2.022163484298699
 30
0.0
 10
27.83930115906222
 20
-1.96853609202726
 30
0.0
 10
27.69505607929725
 20
-1.896917859977022
 30
0.0
  0
SPLINE
  5
10C
330
1F
100
AcDbEntity
  8
0
  6
Continuous
 62
     1
370
    15
100
AcDbSpline
210
0.0
220
0.0
230
1.0
 70
     8
 71
     3
 72
     8
 73
     4
 74
     0
 42
0.000000001
 43
0.00000001
 40
0.0
 40
0.0
 40
0.0
 40
0.0
 40
1.0
 40
1.0
 40
1.0
 40
1.0
 10
27.69505607929689
 20
-1.896917859976888
 30
0.0
 10
27.54164921670549
 20
-1.799403567258774
 30
0.0
 10
27.39874618234311
 20
-1.687824321362718
 30
0.0
 10
27.27662511703163
 20
-1.569801555100338
 30
0.0
  0
SPLINE
  5
10D
330
1F
100
AcDbEntity
  8
0
  6
Continuous
 62
     1
370
    15
100
AcDbSpline
210
0.0
220
0.0
230
1.0
 70
     8
 71
     3
 72
    10
 73
     6
 74
     0
 42
0.000000001
 43
0.00000001
 40
0.0
 40
0.0
 40
0.0
 40
0.0
 40
0.5
 40
0.5
 40
1.0
 40
1.0
 40
1.0
 40
1.0
 10
27.27662511703157
 20
-1.569801555100267
 30
0.0
 10
27.23973440485696
 20
-1.534148869880631
 30
0.0
 10
27.19639011515076
 20
-1.500931439546843
 30
0.0
 10
27.10237871344357
 20
-1.446622068777186
 30
0.0
 10
27.05157564217228
 20
-1.42596333429001
 30
0.0
 10
27.00664084215879
 20
-1.417808609253667
 30
0.0
  0
SPLINE
  5
10E
330
1F
100
AcDbEntity
  8
0
  6
Continuous
 62
     1
370
    15
100
AcDbSpline
210
0.0
220
0.0
230
1.0
 70
     8
 71
     3
 72
    10
 73
     6
 74
     0
 42
0.000000001
 43
0.00000001
 40
0.0
 40
0.0
 40
0.0
 40
0.0
 40
0.4999999999999982
 40
0.4999999999999982
 40
1.0
 40
1.0
 40
1.0
 40
1.0
 10
27.00664084215881
 20
-1.417808609253699
 30
0.0
 10
26.83072830498341
 20
-1.385884168270763
 30
0.0
 10
26.63766084157767
 20
-1.297857331737541
 30
0.0
 10
26.26683896270562
 20
-1.081338008745666
 30
0.0
 10
26.09409628617727
 20
-0.9551460891384066
 30
0.0
 10
25.94859056215172
 20
-0.8222725320391936
 30
0.0
  0
SPLINE
  5
10F
330
1F
100
AcDbEntity
  8
0
  6
Continuous
 62
     1
370
    15
100
AcDbSpline
210
0.0
220
0.0
230
1.0
 70
     8
 71
     3
 72
    10
 73
     6
 74
     0
 42
0.000000001
 43
0.00000001
 40
0.0
 40
0.0
 40
0.0
 40
0.0
 40
0.5
 40
0.5
 40
1.0
 40
1.0
 40
1.0
 40
1.0
 10
25.94859056215173
 20
-0.8222725320392427
 30
0.0
 10
25.91147457600627
 20
-0.7883787925494766
 30
0.0
 10
25.86798814856519
 20
-0.7561825881667347
 30
0.0
 10
25.77389283073477
 20
-0.7020162858961095
 30
0.0
 10
25.72316872070507
 20
-0.6804378158745047
 30
0.0
 10
25.67853324043886
 20
-0.6701639269102017
 30
0.0
  0
SPLINE
  5
110
330
1F
100
AcDbEntity
  8
0
  6
Continuous
 62
     1
370
    15
100
AcDbSpline
210
0.0
220
0.0
230
1.0
 70
     8
 71
     3
 72
     8
 73
     4
 74
     0
 42
0.000000001
 43
0.00000001
 40
0.0
 40
0.0
 40
0.0
 40
0.0
 40
1.0
 40
1.0
 40
1.0
 40
1.0
 10
25.67853324043883
 20
-0.6701639269102165
 30
0.0
 10
25.54526598190879
 20
-0.6394893826116127
 30
0.0
 10
25.39893847205182
 20
-0.5769029989894797
 30
0.0
 10
25.25474328370105
 20
-0.5010931515943756
 30
0.0
  0
SPLINE
  5
111
330
1F
100
AcDbEntity
  8
0
  6
Continuous
 62
     1
370
    15
100
AcDbSpline
210
0.0
220
0.0
230
1.0
 70
     8
 71
     3
 72
     8
 73
     4
 74
     0
 42
0.000000001
 43
0.00000001
 40
0.0
 40
0.0
 40
0.0
 40
0.0
 40
1.0
 40
1.0
 40
1.0
 40
1.0
 10
25.25474328370067
 20
-0.5010931515941955
 30
0.0
 10
25.10130830606982
 20
-0.4043480109979277
 30
0.0
 10
24.95839396721766
 20
-0.2990062755967496
 30
0.0
 10
24.83621568851825
 20
-0.1916421931775087
 30
0.0
  0
SPLINE
  5
112
330
1F
100
AcDbEntity
  8
0
  6
Continuous
 62
     1
370
    15
100
AcDbSpline
210
0.0
220
0.0
230
1.0
 70
     8
 71
     3
 72
    10
 73
     6
 74
     0
 42
0.000000001
 43
0.00000001
 40
0.0
 40
0.0
 40
0.0
 40
0.0
 40
0.5
 40
0.5
 40
1.0
 40
1.0
 40
1.0
 40
1.0
 10
24.8362156885182
 20
-0.1916421931774744
 30
0.0
 10
24.79931412214742
 20
-0.1592149658879338
 30
0.0
 10
24.7559600380119
 20
-0.127731258038348
 30
0.0
 10
24.66193279415183
 20
-0.0731063292642199
 30
0.0
 10
24.61111378041435
 20
-0.0502830128265824
 30
0.0
 10
24.56615710238351
 20
-0.0376177316425762
 30
0.0
  0
SPLINE
  5
113
330
1F
100
AcDbEntity
  8
0
  6
Continuous
 62
     1
370
    15
100
AcDbSpline
210
0.0
220
0.0
230
1.0
 70
     8
 71
     3
 72
    10
 73
     6
 74
     0
 42
0.000000001
 43
0.00000001
 40
0.0
 40
0.0
 40
0.0
 40
0.0
 40
0.5
 40
0.5
 40
1.0
 40
1.0
 40
1.0
 40
1.0
 10
23.50763009241519
 20
0.5623325258760795
 30
0.0
 10
23.47048486122921
 20
0.5926158507328831
 30
0.0
 10
23.42696910944633
 20
0.6227031363243067
 30
0.0
 10
23.33281841229153
 20
0.676545374771594
 30
0.0
 10
23.28206332878299
 20
0.7000266444717596
 30
0.0
 10
23.23740422408337
 20
0.7146712812741787
 30
0.0
  0
SPLINE
  5
114
330
1F
100
AcDbEntity
  8
0
  6
Continuous
 62
     1
370
    15
100
AcDbSpline
210
0.0
220
0.0
230
1.0
 70
     8
 71
     3
 72
    10
 73
     6
 74
     0
 42
0.000000001
 43
0.00000001
 40
0.0
 40
0.0
 40
0.0
 40
0.0
 40
0.5
 40
0.5
 40
1.0
 40
1.0
 40
1.0
 40
1.0
 10
19.95239343433756
 20
2.547851796149943
 30
0.0
 10
19.91548112256104
 20
2.571673026405008
 30
0.0
 10
19.87211786208931
 20
2.59755670220212
 30
0.0
 10
19.77808420571641
 20
2.649024117562337
 30
0.0
 10
19.72727162752021
 20
2.674525845659494
 30
0.0
 10
19.68232203753322
 20
2.695214525610869
 30
0.0
  0
SPLINE
  5
115
330
1F
100
AcDbEntity
  8
0
  6
Continuous
 62
     1
370
    15
100
AcDbSpline
210
0.0
220
0.0
230
1.0
 70
     8
 71
     3
 72
    10
 73
     6
 74
     0
 42
0.000000001
 43
0.00000001
 40
0.0
 40
0.0
 40
0.0
 40
0.0
 40
0.5
 40
0.5
 40
1.0
 40
1.0
 40
1.0
 40
1.0
 10
18.62416373217787
 20
3.265419271275675
 30
0.0
 10
18.5870548959263
 20
3.286618546845456
 30
0.0
 10
18.54357580844961
 20
3.310617138110387
 30
0.0
 10
18.44948168618245
 20
3.360424598342848
 30
0.0
 10
18.39874935739308
 20
3.38620438983885
 30
0.0
 10
18.35410933972669
 20
3.408614139215981
 30
0.0
  0
SPLINE
  5
116
330
1F
100
AcDbEntity
  8
0
  6
Continuous
 62
     1
370
    15
100
AcDbSpline
210
0.0
220
0.0
230
1.0
 70
     8
 71
     3
 72
    10
 73
     6
 74
     0
 42
0.000000001
 43
0.00000001
 40
0.0
 40
0.0
 40
0.0
 40
0.0
 40
0.5
 40
0.5
 40
1.0
 40
1.0
 40
1.0
 40
1.0
 10
17.51186937292686
 20
3.848911900233382
 30
0.0
 10
17.47497564504356
 20
3.867586461654355
 30
0.0
 10
17.43162851208439
 20
3.889771521657686
 30
0.0
 10
17.33761540766819
 20
3.93790415047615
 30
0.0
 10
17.28681487435142
 20
3.963887507496053
 30
0.0
 10
17.24188266997668
 20
3.987907130009743
 30
0.0
  0
SPLINE
  5
117
330
1F
100
AcDbEntity
  8
0
  6
Continuous
 62
     1
370
    15
100
AcDbSpline
210
0.0
220
0.0
230
1.0
 70
     8
 71
     3
 72
    10
 73
     6
 74
     0
 42
0.000000001
 43
0.00000001
 40
0.0
 40
0.0
 40
0.0
 40
0.0
 40
0.5
 40
0.5
 40
1.0
 40
1.0
 40
1.0
 40
1.0
 10
16.18389812819411
 20
4.522833291224649
 30
0.0
 10
16.14678957525531
 20
4.538768676418503
 30
0.0
 10
16.10331396975393
 20
4.558936124924925
 30
0.0
 10
16.00924614003842
 20
4.605161430730265
 30
0.0
 10
15.95851998516911
 20
4.631306176219748
 30
0.0
 10
15.91387393904264
 20
4.656952705141419
 30
0.0
  0
SPLINE
  5
118
330
1F
100
AcDbEntity
  8
0
  6
Continuous
 62
     1
370
    15
100
AcDbSpline
210
0.0
220
0.0
230
1.0
 70
     8
 71
     3
 72
     8
 73
     4
 74
     0
 42
0.000000001
 43
0.00000001
 40
0.0
 40
0.0
 40
0.0
 40
0.0
 40
1.0
 40
1.0
 40
1.0
 40
1.0
 10
15.91387393904258
 20
4.656952705141458
 30
0.0
 10
15.78065245154168
 20
4.733480618106052
 30
0.0
 10
15.63435598112924
 20
4.816538447313729
 30
0.0
 10
15.49010532751846
 20
4.891437802171275
 30
0.0
  0
SPLINE
  5
119
330
1F
100
AcDbEntity
  8
0
  6
Continuous
 62
     1
370
    15
100
AcDbSpline
210
0.0
220
0.0
230
1.0
 70
     8
 71
     3
 72
     8
 73
     4
 74
     0
 42
0.000000001
 43
0.00000001
 40
0.0
 40
0.0
 40
0.0
 40
0.0
 40
1.0
 40
1.0
 40
1.0
 40
1.0
 10
15.49010532751811
 20
4.891437802171455
 30
0.0
 10
15.3366779774817
 20
4.963815857468374
 30
0.0
 10
15.19375585561844
 20
5.022211562568656
 30
0.0
 10
15.0716093775112
 20
5.065771785672203
 30
0.0
  0
SPLINE
  5
11A
330
1F
100
AcDbEntity
  8
0
  6
Continuous
 62
     1
370
    15
100
AcDbSpline
210
0.0
220
0.0
230
1.0
 70
     8
 71
     3
 72
    10
 73
     6
 74
     0
 42
0.000000001
 43
0.00000001
 40
0.0
 40
0.0
 40
0.0
 40
0.0
 40
0.5
 40
0.5
 40
1.0
 40
1.0
 40
1.0
 40
1.0
 10
15.07160937751116
 20
5.065771785672204
 30
0.0
 10
15.03470942568807
 20
5.078931151040991
 30
0.0
 10
14.99135588749962
 20
5.09697515503831
 30
0.0
 10
14.89732925467045
 20
5.140806180544783
 30
0.0
 10
14.84651771779699
 20
5.166752234638385
 30
0.0
 10
14.80157442541614
 20
5.193626264111998
 30
0.0
  0
SPLINE
  5
11B
330
1F
100
AcDbEntity
  8
0
  6
Continuous
 62
     1
370
    15
100
AcDbSpline
210
0.0
220
0.0
230
1.0
 70
     8
 71
     3
 72
    10
 73
     6
 74
     0
 42
0.000000001
 43
0.00000001
 40
0.0
 40
0.0
 40
0.0
 40
0.0
 40
0.4999999999999997
 40
0.4999999999999997
 40
1.0
 40
1.0
 40
1.0
 40
1.0
 10
14.80157442541614
 20
5.193626264112007
 30
0.0
 10
14.62560987191437
 20
5.298845004142104
 30
0.0
 10
14.43248963498293
 20
5.405986858200665
 30
0.0
 10
14.06157060884371
 20
5.578320981155623
 30
0.0
 10
13.88878367161392
 20
5.641800795768804
 30
0.0
 10
13.74321397714285
 20
5.682021778459372
 30
0.0
  0
SPLINE
  5
11C
330
1F
100
AcDbEntity
  8
0
  6
Continuous
 62
     1
370
    15
100
AcDbSpline
210
0.0
220
0.0
230
1.0
 70
     8
 71
     3
 72
    10
 73
     6
 74
     0
 42
0.000000001
 43
0.00000001
 40
0.0
 40
0.0
 40
0.0
 40
0.0
 40
0.5
 40
0.5
 40
1.0
 40
1.0
 40
1.0
 40
1.0
 10
13.7432139771429
 20
5.682021778459312
 30
0.0
 10
13.7060781012759
 20
5.692282440377117
 30
0.0
 10
13.66257240116828
 20
5.708094210881623
 30
0.0
 10
13.56844527931206
 20
5.749518617729227
 30
0.0
 10
13.51770287686121
 20
5.775354076830075
 30
0.0
 10
13.47304923803569
 20
5.803591518253305
 30
0.0
  0
SPLINE
  5
11D
330
1F
100
AcDbEntity
  8
0
  6
Continuous
 62
     1
370
    15
100
AcDbSpline
210
0.0
220
0.0
230
1.0
 70
     8
 71
     3
 72
     8
 73
     4
 74
     0
 42
0.000000001
 43
0.00000001
 40
0.0
 40
0.0
 40
0.0
 40
0.0
 40
1.0
 40
1.0
 40
1.0
 40
1.0
 10
13.47304923803565
 20
5.80359151825335
 30
0.0
 10
13.33975321447152
 20
5.887883386874597
 30
0.0
 10
13.19334301031547
 20
5.971791770297395
 30
0.0
 10
13.04911992621736
 20
6.042447863389528
 30
0.0
  0
SPLINE
  5
11E
330
1F
100
AcDbEntity
  8
0
  6
Continuous
 62
     1
370
    15
100
AcDbSpline
210
0.0
220
0.0
230
1.0
 70
     8
 71
     3
 72
     8
 73
     4
 74
     0
 42
0.000000001
 43
0.00000001
 40
0.0
 40
0.0
 40
0.0
 40
0.0
 40
1.0
 40
1.0
 40
1.0
 40
1.0
 10
13.04911992621702
 20
6.042447863389638
 30
0.0
 10
12.8956030095327
 20
6.104606455705972
 30
0.0
 10
12.75259765842865
 20
6.147602554772588
 30
0.0
 10
12.63031914480699
 20
6.172060119084385
 30
0.0
  0
SPLINE
  5
11F
330
1F
100
AcDbEntity
  8
0
  6
Continuous
 62
     1
370
    15
100
AcDbSpline
210
0.0
220
0.0
230
1.0
 70
     8
 71
     3
 72
    10
 73
     6
 74
     0
 42
0.000000001
 43
0.00000001
 40
0.0
 40
0.0
 40
0.0
 40
0.0
 40
0.5
 40
0.5
 40
1.0
 40
1.0
 40
1.0
 40
1.0
 10
12.63031914480689
 20
6.172060119084405
 30
0.0
 10
12.59338830429441
 20
6.179446849427868
 30
0.0
 10
12.55000598441104
 20
6.192987144526223
 30
0.0
 10
12.45593189636785
 20
6.231619615985652
 30
0.0
 10
12.40508637723934
 20
6.256993800557925
 30
0.0
 10
12.36010358343596
 20
6.286177861472161
 30
0.0
  0
SPLINE
  5
120
330
1F
100
AcDbEntity
  8
0
  6
Continuous
 62
     1
370
    15
100
AcDbSpline
210
0.0
220
0.0
230
1.0
 70
     8
 71
     3
 72
     8
 73
     4
 74
     0
 42
0.000000001
 43
0.00000001
 40
0.0
 40
0.0
 40
0.0
 40
0.0
 40
1.0
 40
1.0
 40
1.0
 40
1.0
 10
12.36010358343597
 20
6.286177861472166
 30
0.0
 10
12.24524353407783
 20
6.360697080792607
 30
0.0
 10
12.12268513684181
 20
6.431430322117694
 30
0.0
 10
12.00000000000177
 20
6.492122345663511
 30
0.0
  0
SPLINE
  5
121
330
1F
100
AcDbEntity
  8
외형선
  6
Continuous
370
    15
100
AcDbSpline
210
0.0
220
0.0
230
1.0
 70
     8
 71
     3
 72
     8
 73
     4
 74
     0
 42
0.000000001
 43
0.00000001
 40
0.0
 40
0.0
 40
0.0
 40
0.0
 40
1.0
 40
1.0
 40
1.0
 40
1.0
 10
11.58733292153301
 20
6.657099180332218
 30
0.0
 10
11.48464882360522
 20
6.687709705366422
 30
0.0
 10
11.38764689230872
 20
6.707947947253666
 30
0.0
 10
11.30097989337742
 20
6.718167529657851
 30
0.0
  0
SPLINE
  5
122
330
1F
100
AcDbEntity
  8
외형선
  6
Continuous
370
    15
100
AcDbSpline
210
0.0
220
0.0
230
1.0
 70
     8
 71
     3
 72
    10
 73
     6
 74
     0
 42
0.000000001
 43
0.00000001
 40
0.0
 40
0.0
 40
0.0
 40
0.0
 40
0.5
 40
0.5
 40
1.0
 40
1.0
 40
1.0
 40
1.0
 10
11.30097989337742
 20
6.718167529657848
 30
0.0
 10
11.26382342008113
 20
6.722548939483764
 30
0.0
 10
11.22029918902531
 20
6.733681372172625
 30
0.0
 10
11.126134040559
 20
6.769452565240918
 30
0.0
 10
11.07536979654132
 20
6.794433739111131
 30
0.0
 10
11.03070274811051
 20
6.824653283681931
 30
0.0
  0
SPLINE
  5
123
330
1F
100
AcDbEntity
  8
외형선
  6
Continuous
370
    15
100
AcDbSpline
210
0.0
220
0.0
230
1.0
 70
     8
 71
     3
 72
     8
 73
     4
 74
     0
 42
0.000000001
 43
0.00000001
 40
0.0
 40
0.0
 40
0.0
 40
0.0
 40
1.0
 40
1.0
 40
1.0
 40
1.0
 10
11.03070274811047
 20
6.824653283681924
 30
0.0
 10
10.89738927733956
 20
6.914846670381492
 30
0.0
 10
10.75098931410521
 20
6.997564177643591
 30
0.0
 10
10.60669430231717
 20
7.062158745499318
 30
0.0
  0
SPLINE
  5
124
330
1F
100
AcDbEntity
  8
외형선
  6
Continuous
370
    15
100
AcDbSpline
210
0.0
220
0.0
230
1.0
 70
     8
 71
     3
 72
     8
 73
     4
 74
     0
 42
0.000000001
 43
0.00000001
 40
0.0
 40
0.0
 40
0.0
 40
0.0
 40
1.0
 40
1.0
 40
1.0
 40
1.0
 10
10.6066943023168
 20
7.062158745499481
 30
0.0
 10
10.45312896098088
 20
7.112366769401241
 30
0.0
 10
10.31013538447241
 20
7.138716598162858
 30
0.0
 10
10.18793853811311
 20
7.14337639165787
 30
0.0
  0
SPLINE
  5
125
330
1F
100
AcDbEntity
  8
외형선
  6
Continuous
370
    15
100
AcDbSpline
210
0.0
220
0.0
230
1.0
 70
     8
 71
     3
 72
    10
 73
     6
 74
     0
 42
0.000000001
 43
0.00000001
 40
0.0
 40
0.0
 40
0.0
 40
0.0
 40
0.5000000000000004
 40
0.5000000000000004
 40
1.0
 40
1.0
 40
1.0
 40
1.0
 10
10.18793853811312
 20
7.143376391657835
 30
0.0
 10
10.15101907524207
 20
7.144784260011657
 30
0.0
 10
10.10765117773117
 20
7.153488491229895
 30
0.0
 10
10.01361977561037
 20
7.186036080478907
 30
0.0
 10
9.962805548242086
 20
7.210274746015593
 30
0.0
 10
9.91783884791567
 20
7.241117711022826
 30
0.0
  0
SPLINE
  5
126
330
1F
100
AcDbEntity
  8
외형선
  6
Continuous
370
    15
100
AcDbSpline
210
0.0
220
0.0
230
1.0
 70
     8
 71
     3
 72
    10
 73
     6
 74
     0
 42
0.000000001
 43
0.00000001
 40
0.0
 40
0.0
 40
0.0
 40
0.0
 40
0.5
 40
0.5
 40
1.0
 40
1.0
 40
1.0
 40
1.0
 10
9.917838847915647
 20
7.241117711022871
 30
0.0
 10
9.75956366329344
 20
7.34967973459542
 30
0.0
 10
9.586741532607183
 20
7.440936057021172
 30
0.0
 10
9.25199951598313
 20
7.566528551034401
 30
0.0
 10
9.091152217152999
 20
7.600718409229104
 30
0.0
 10
8.950152089901968
 20
7.606953803625863
 30
0.0
  0
SPLINE
  5
127
330
1F
100
AcDbEntity
  8
외형선
  6
Continuous
370
    15
100
AcDbSpline
210
0.0
220
0.0
230
1.0
 70
     8
 71
     3
 72
     8
 73
     4
 74
     0
 42
0.000000001
 43
0.00000001
 40
0.0
 40
0.0
 40
0.0
 40
0.0
 40
1.0
 40
1.0
 40
1.0
 40
1.0
 10
8.950152089901968
 20
9.325185230385157
 30
0.0
 10
9.000067930731555
 20
9.321590971467312
 30
0.0
 10
9.053399987827664
 20
9.333414462902406
 30
0.0
 10
9.100928472200728
 20
9.364217227838896
 30
0.0
  0
SPLINE
  5
128
330
1F
100
AcDbEntity
  8
외형선
  6
Continuous
370
    15
100
AcDbSpline
210
0.0
220
0.0
230
1.0
 70
     8
 71
     3
 72
    10
 73
     6
 74
     0
 42
0.000000001
 43
0.00000001
 40
0.0
 40
0.0
 40
0.0
 40
0.0
 40
0.5
 40
0.5
 40
1.0
 40
1.0
 40
1.0
 40
1.0
 10
9.10092847220072
 20
9.364217227838887
 30
0.0
 10
9.27698375515008
 20
9.478317005436457
 30
0.0
 10
9.470154391258614
 20
9.5251240418138
 30
0.0
 10
9.841058488881297
 20
9.506928794310067
 30
0.0
 10
10.01373813540373
 20
9.442323695151316
 30
0.0
 10
10.15932815999655
 20
9.335338584097611
 30
0.0
  0
SPLINE
  5
129
330
1F
100
AcDbEntity
  8
외형선
  6
Continuous
370
    15
100
AcDbSpline
210
0.0
220
0.0
230
1.0
 70
     8
 71
     3
 72
    10
 73
     6
 74
     0
 42
0.000000001
 43
0.00000001
 40
0.0
 40
0.0
 40
0.0
 40
0.0
 40
0.5
 40
0.5
 40
1.0
 40
1.0
 40
1.0
 40
1.0
 10
10.15932815999655
 20
9.335338584097617
 30
0.0
 10
10.19645974664763
 20
9.308052875941598
 30
0.0
 10
10.23996095601433
 20
9.290995550309413
 30
0.0
 10
10.3340907721501
 20
9.283967920117046
 30
0.0
 10
10.38484771513927
 20
9.294808385128004
 30
0.0
 10
10.4295164629007
 20
9.323285165188096
 30
0.0
  0
SPLINE
  5
12A
330
1F
100
AcDbEntity
  8
외형선
  6
Continuous
370
    15
100
AcDbSpline
210
0.0
220
0.0
230
1.0
 70
     8
 71
     3
 72
     8
 73
     4
 74
     0
 42
0.000000001
 43
0.00000001
 40
0.0
 40
0.0
 40
0.0
 40
0.0
 40
1.0
 40
1.0
 40
1.0
 40
1.0
 10
10.42951646290079
 20
9.323285165188166
 30
0.0
 10
10.56278437236803
 20
9.408244810066368
 30
0.0
 10
10.70919544527236
 20
9.452849849852162
 30
0.0
 10
10.85350002867062
 20
9.461619910605663
 30
0.0
  0
SPLINE
  5
12B
330
1F
100
AcDbEntity
  8
외형선
  6
Continuous
370
    15
100
AcDbSpline
210
0.0
220
0.0
230
1.0
 70
     8
 71
     3
 72
     8
 73
     4
 74
     0
 42
0.000000001
 43
0.00000001
 40
0.0
 40
0.0
 40
0.0
 40
0.0
 40
1.0
 40
1.0
 40
1.0
 40
1.0
 10
10.85350002867106
 20
9.461619910605606
 30
0.0
 10
11.00706583229284
 20
9.43180687138513
 30
0.0
 10
11.1501146869125
 20
9.36325331769246
 30
0.0
 10
11.27240075239921
 20
9.26508049672208
 30
0.0
  0
SPLINE
  5
12C
330
1F
100
AcDbEntity
  8
외형선
  6
Continuous
370
    15
100
AcDbSpline
210
0.0
220
0.0
230
1.0
 70
     8
 71
     3
 72
    10
 73
     6
 74
     0
 42
0.000000001
 43
0.00000001
 40
0.0
 40
0.0
 40
0.0
 40
0.0
 40
0.5
 40
0.5
 40
1.0
 40
1.0
 40
1.0
 40
1.0
 10
11.27240075239924
 20
9.26508049672206
 30
0.0
 10
11.30934511282123
 20
9.235421090581728
 30
0.0
 10
11.35274163525864
 20
9.21594212535215
 30
0.0
 10
11.44683827719561
 20
9.204290757887437
 30
0.0
 10
11.49768736933489
 20
9.212921076879729
 30
0.0
 10
11.54266717698648
 20
9.239790574530968
 30
0.0
  0
SPLINE
  5
12D
330
1F
100
AcDbEntity
  8
외형선
  6
Continuous
370
    15
100
AcDbSpline
210
0.0
220
0.0
230
1.0
 70
     8
 71
     3
 72
     8
 73
     4
 74
     0
 42
0.000000001
 43
0.00000001
 40
0.0
 40
0.0
 40
0.0
 40
0.0
 40
1.0
 40
1.0
 40
1.0
 40
1.0
 10
11.54266717698647
 20
9.239790574530993
 30
0.0
 10
11.62388072097983
 20
9.288304946723994
 30
0.0
 10
11.70778677260569
 20
9.320714909250016
 30
0.0
 10
11.79455169231653
 20
9.339860647823029
 30
0.0
  0
SPLINE
  5
12E
330
1F
100
AcDbEntity
  8
외형선
  6
Continuous
370
    15
100
AcDbSpline
210
0.0
220
0.0
230
1.0
 70
     8
 71
     3
 72
     8
 73
     4
 74
     0
 42
0.000000001
 43
0.00000001
 40
0.0
 40
0.0
 40
0.0
 40
0.0
 40
1.0
 40
1.0
 40
1.0
 40
1.0
 10
11.79455169231651
 20
9.339860647822995
 30
0.0
 10
11.86302760111108
 20
9.329259124908713
 30
0.0
 10
11.93151031817642
 20
9.31840417954365
 30
0.0
 10
12.00000000000001
 20
9.307296037675341
 30
0.0
  0
SPLINE
  5
12F
330
1F
100
AcDbEntity
  8
외형선
  6
Continuous
370
    15
100
AcDbSpline
210
0.0
220
0.0
230
1.0
 70
    24
 71
     3
 72
     9
 73
     5
 74
     0
 42
0.000000001
 43
0.00000001
 40
0.0
 40
0.0
 40
0.0
 40
0.0
 40
0.5
 40
1.0
 40
1.0
 40
1.0
 40
1.0
 10
12.00000000000001
 20
9.359671817730133
 30
0.0
 10
12.00000000000001
 20
9.35087631489361
 30
0.0
 10
12.00000000000001
 20
9.333351572872111
 30
0.0
 10
12.00000000000001
 20
9.315959189506373
 30
0.0
 10
12.00000000000001
 20
9.307296037675384
 30
0.0
  0
SPLINE
  5
130
330
1F
100
AcDbEntity
  8
0
  6
Continuous
 62
     1
370
    15
100
AcDbSpline
210
0.0
220
0.0
230
1.0
 70
     8
 71
     3
 72
    10
 73
     6
 74
     0
 42
0.000000001
 43
0.00000001
 40
0.0
 40
0.0
 40
0.0
 40
0.0
 40
0.4999999999999998
 40
0.4999999999999998
 40
1.0
 40
1.0
 40
1.0
 40
1.0
 10
11.99999999997768
 20
9.359671817724756
 30
0.0
 10
12.10967301046449
 20
9.35709419094208
 30
0.0
 10
12.21799318618221
 20
9.33381613683927
 30
0.0
 10
12.42052599857729
 20
9.25304677863962
 30
0.0
 10
12.51616708764297
 20
9.195052075044313
 30
0.0
 10
12.60172989809049
 20
9.122773892769988
 30
0.0
  0
SPLINE
  5
131
330
1F
100
AcDbEntity
  8
0
  6
Continuous
 62
     1
370
    15
100
AcDbSpline
210
0.0
220
0.0
230
1.0
 70
     8
 71
     3
 72
    10
 73
     6
 74
     0
 42
0.000000001
 43
0.00000001
 40
0.0
 40
0.0
 40
0.0
 40
0.0
 40
0.5
 40
0.5
 40
1.0
 40
1.0
 40
1.0
 40
1.0
 10
12.60172989809045
 20
9.122773892770017
 30
0.0
 10
12.63887925707666
 20
9.091392406746643
 30
0.0
 10
12.68239484794702
 20
9.070128016219167
 30
0.0
 10
12.77653385883112
 20
9.055239722862067
 30
0.0
 10
12.82728589110389
 20
9.062451171025582
 30
0.0
 10
12.87195403344544
 20
9.088356929258904
 30
0.0
  0
SPLINE
  5
132
330
1F
100
AcDbEntity
  8
0
  6
Continuous
 62
     1
370
    15
100
AcDbSpline
210
0.0
220
0.0
230
1.0
 70
     8
 71
     3
 72
     8
 73
     4
 74
     0
 42
0.000000001
 43
0.00000001
 40
0.0
 40
0.0
 40
0.0
 40
0.0
 40
1.0
 40
1.0
 40
1.0
 40
1.0
 10
12.87195403344554
 20
9.088356929258993
 30
0.0
 10
13.00524525566008
 20
9.165660573339593
 30
0.0
 10
13.15161435293757
 20
9.199232800900589
 30
0.0
 10
13.29589546442852
 20
9.196336596400418
 30
0.0
  0
SPLINE
  5
133
330
1F
100
AcDbEntity
  8
0
  6
Continuous
 62
     1
370
    15
100
AcDbSpline
210
0.0
220
0.0
230
1.0
 70
     8
 71
     3
 72
     8
 73
     4
 74
     0
 42
0.000000001
 43
0.00000001
 40
0.0
 40
0.0
 40
0.0
 40
0.0
 40
1.0
 40
1.0
 40
1.0
 40
1.0
 10
13.29589546442898
 20
9.196336596400366
 30
0.0
 10
13.44937708854978
 20
9.153125053325985
 30
0.0
 10
13.59237248662672
 20
9.071300065104936
 30
0.0
 10
13.71459345098659
 20
8.96056914491103
 30
0.0
  0
SPLINE
  5
134
330
1F
100
AcDbEntity
  8
0
  6
Continuous
 62
     1
370
    15
100
AcDbSpline
210
0.0
220
0.0
230
1.0
 70
     8
 71
     3
 72
    10
 73
     6
 74
     0
 42
0.000000001
 43
0.00000001
 40
0.0
 40
0.0
 40
0.0
 40
0.0
 40
0.5
 40
0.5
 40
1.0
 40
1.0
 40
1.0
 40
1.0
 10
13.71459345098664
 20
8.960569144911005
 30
0.0
 10
13.75150366358547
 20
8.92712887689292
 30
0.0
 10
13.79486518537681
 20
8.90364017316316
 30
0.0
 10
13.88890561749969
 20
8.88423912144798
 30
0.0
 10
13.93972838990063
 20
8.88915209861773
 30
0.0
 10
13.98468405953018
 20
8.91315867517196
 30
0.0
  0
SPLINE
  5
135
330
1F
100
AcDbEntity
  8
0
  6
Continuous
 62
     1
370
    15
100
AcDbSpline
210
0.0
220
0.0
230
1.0
 70
     8
 71
     3
 72
    10
 73
     6
 74
     0
 42
0.000000001
 43
0.00000001
 40
0.0
 40
0.0
 40
0.0
 40
0.0
 40
0.5
 40
0.5
 40
1.0
 40
1.0
 40
1.0
 40
1.0
 10
13.98468405953016
 20
8.913158675171964
 30
0.0
 10
14.16062427678804
 20
9.00711172557418
 30
0.0
 10
14.35371347284093
 20
9.023547869446809
 30
0.0
 10
14.72460074615717
 20
8.943074881076974
 30
0.0
 10
14.8974083274914
 20
8.84715417353342
 30
0.0
 10
15.04296362934549
 20
8.710798869544583
 30
0.0
  0
SPLINE
  5
136
330
1F
100
AcDbEntity
  8
0
  6
Continuous
 62
     1
370
    15
100
AcDbSpline
210
0.0
220
0.0
230
1.0
 70
     8
 71
     3
 72
    10
 73
     6
 74
     0
 42
0.000000001
 43
0.00000001
 40
0.0
 40
0.0
 40
0.0
 40
0.0
 40
0.5
 40
0.5
 40
1.0
 40
1.0
 40
1.0
 40
1.0
 10
15.04296362934551
 20
8.710798869544556
 30
0.0
 10
15.08008147610504
 20
8.67602710091891
 30
0.0
 10
15.12356940337984
 20
8.651041027241348
 30
0.0
 10
15.21767080621939
 20
8.628673787639887
 30
0.0
 10
15.26839789759585
 20
8.63214647906896
 30
0.0
 10
15.31303214650135
 20
8.65493354894283
 30
0.0
  0
SPLINE
  5
137
330
1F
100
AcDbEntity
  8
0
  6
Continuous
 62
     1
370
    15
100
AcDbSpline
210
0.0
220
0.0
230
1.0
 70
     8
 71
     3
 72
     8
 73
     4
 74
     0
 42
0.000000001
 43
0.00000001
 40
0.0
 40
0.0
 40
0.0
 40
0.0
 40
1.0
 40
1.0
 40
1.0
 40
1.0
 10
15.31303214650145
 20
8.654933548942921
 30
0.0
 10
15.44628203130079
 20
8.722961453748377
 30
0.0
 10
15.59260593060102
 20
8.744932198722523
 30
0.0
 10
15.73681444247079
 20
8.730484683485523
 30
0.0
  0
SPLINE
  5
138
330
1F
100
AcDbEntity
  8
0
  6
Continuous
 62
     1
370
    15
100
AcDbSpline
210
0.0
220
0.0
230
1.0
 70
     8
 71
     3
 72
     8
 73
     4
 74
     0
 42
0.000000001
 43
0.00000001
 40
0.0
 40
0.0
 40
0.0
 40
0.0
 40
1.0
 40
1.0
 40
1.0
 40
1.0
 10
15.73681444247121
 20
8.730484683485482
 30
0.0
 10
15.89027879739336
 20
8.674842283313943
 30
0.0
 10
16.03313593194963
 20
8.581471105164953
 30
0.0
 10
16.15524366085969
 20
8.460621551058322
 30
0.0
  0
SPLINE
  5
139
330
1F
100
AcDbEntity
  8
0
  6
Continuous
 62
     1
370
    15
100
AcDbSpline
210
0.0
220
0.0
230
1.0
 70
     8
 71
     3
 72
    10
 73
     6
 74
     0
 42
0.000000001
 43
0.00000001
 40
0.0
 40
0.0
 40
0.0
 40
0.0
 40
0.5
 40
0.5
 40
1.0
 40
1.0
 40
1.0
 40
1.0
 10
16.1552436608597
 20
8.460621551058328
 30
0.0
 10
16.1921279185729
 20
8.424117341718087
 30
0.0
 10
16.23546390777564
 20
8.39712029718135
 30
0.0
 10
16.32946008629654
 20
8.370361987669678
 30
0.0
 10
16.38026595961948
 20
8.371426110788667
 30
0.0
 10
16.42521387384863
 20
8.39203489733126
 30
0.0
  0
SPLINE
  5
13A
330
1F
100
AcDbEntity
  8
0
  6
Continuous
 62
     1
370
    15
100
AcDbSpline
210
0.0
220
0.0
230
1.0
 70
     8
 71
     3
 72
    10
 73
     6
 74
     0
 42
0.000000001
 43
0.00000001
 40
0.0
 40
0.0
 40
0.0
 40
0.0
 40
0.5
 40
0.5
 40
1.0
 40
1.0
 40
1.0
 40
1.0
 10
16.42521387384863
 20
8.392034897331282
 30
0.0
 10
16.60108911785114
 20
8.472674353553789
 30
0.0
 10
16.79409538528271
 20
8.473165384008084
 30
0.0
 10
17.16486947454947
 20
8.363798896091962
 30
0.0
 10
17.33766590791507
 20
8.255207626021942
 30
0.0
 10
17.48321120973232
 20
8.108508151126417
 30
0.0
  0
SPLINE
  5
13B
330
1F
100
AcDbEntity
  8
0
  6
Continuous
 62
     1
370
    15
100
AcDbSpline
210
0.0
220
0.0
230
1.0
 70
     8
 71
     3
 72
    10
 73
     6
 74
     0
 42
0.000000001
 43
0.00000001
 40
0.0
 40
0.0
 40
0.0
 40
0.0
 40
0.5
 40
0.5
 40
1.0
 40
1.0
 40
1.0
 40
1.0
 10
17.48321120973231
 20
8.108508151126417
 30
0.0
 10
17.52032190791766
 20
8.071103165401539
 30
0.0
 10
17.56380428209621
 20
8.042936615173138
 30
0.0
 10
17.65790167245077
 20
8.01356300728118
 30
0.0
 10
17.70862699406393
 20
8.013205367598713
 30
0.0
 10
17.7532556462475
 20
8.032384654913258
 30
0.0
  0
SPLINE
  5
13C
330
1F
100
AcDbEntity
  8
0
  6
Continuous
 62
     1
370
    15
100
AcDbSpline
210
0.0
220
0.0
230
1.0
 70
     8
 71
     3
 72
     8
 73
     4
 74
     0
 42
0.000000001
 43
0.00000001
 40
0.0
 40
0.0
 40
0.0
 40
0.0
 40
1.0
 40
1.0
 40
1.0
 40
1.0
 10
17.75325564624761
 20
8.0323846549133
 30
0.0
 10
17.88648151537305
 20
8.089638842451283
 30
0.0
 10
18.03280316816857
 20
8.099529465694026
 30
0.0
 10
18.17703924660861
 20
8.073912927842207
 30
0.0
  0
SPLINE
  5
13D
330
1F
100
AcDbEntity
  8
0
  6
Continuous
 62
     1
370
    15
100
AcDbSpline
210
0.0
220
0.0
230
1.0
 70
     8
 71
     3
 72
     8
 73
     4
 74
     0
 42
0.000000001
 43
0.00000001
 40
0.0
 40
0.0
 40
0.0
 40
0.0
 40
1.0
 40
1.0
 40
1.0
 40
1.0
 10
18.17703924660905
 20
8.073912927842127
 30
0.0
 10
18.33050822870358
 20
8.007148289932328
 30
0.0
 10
18.47340893381883
 20
7.904427955784882
 30
0.0
 10
18.59551576816166
 20
7.77620333746926
 30
0.0
  0
SPLINE
  5
13E
330
1F
100
AcDbEntity
  8
0
  6
Continuous
 62
     1
370
    15
100
AcDbSpline
210
0.0
220
0.0
230
1.0
 70
     8
 71
     3
 72
    10
 73
     6
 74
     0
 42
0.000000001
 43
0.00000001
 40
0.0
 40
0.0
 40
0.0
 40
0.0
 40
0.5
 40
0.5
 40
1.0
 40
1.0
 40
1.0
 40
1.0
 10
18.59551576816167
 20
7.776203337469267
 30
0.0
 10
18.63241669433581
 20
7.737453604912227
 30
0.0
 10
18.67576950361052
 20
7.707568379774389
 30
0.0
 10
18.7697806922971
 20
7.674093759668151
 30
0.0
 10
18.82058142874083
 20
7.67130864705524
 30
0.0
 10
18.86552565378415
 20
7.688072092994966
 30
0.0
  0
SPLINE
  5
13F
330
1F
100
AcDbEntity
  8
0
  6
Continuous
 62
     1
370
    15
100
AcDbSpline
210
0.0
220
0.0
230
1.0
 70
     8
 71
     3
 72
    10
 73
     6
 74
     0
 42
0.000000001
 43
0.00000001
 40
0.0
 40
0.0
 40
0.0
 40
0.0
 40
0.5
 40
0.5
 40
1.0
 40
1.0
 40
1.0
 40
1.0
 10
18.86552565378413
 20
7.68807209299499
 30
0.0
 10
19.04150281570697
 20
7.753708637794167
 30
0.0
 10
19.23448566806345
 20
7.73800453852293
 30
0.0
 10
19.60531124182739
 20
7.601856954709763
 30
0.0
 10
19.77813809395425
 20
7.482882247689271
 30
0.0
 10
19.92376720216578
 20
7.328964207825701
 30
0.0
  0
SPLINE
  5
140
330
1F
100
AcDbEntity
  8
0
  6
Continuous
 62
     1
370
    15
100
AcDbSpline
210
0.0
220
0.0
230
1.0
 70
     8
 71
     3
 72
    10
 73
     6
 74
     0
 42
0.000000001
 43
0.00000001
 40
0.0
 40
0.0
 40
0.0
 40
0.0
 40
0.5
 40
0.5
 40
1.0
 40
1.0
 40
1.0
 40
1.0
 10
19.92376720216578
 20
7.328964207825707
 30
0.0
 10
19.96089513053578
 20
7.289723028441398
 30
0.0
 10
20.00439407804415
 20
7.258967750120481
 30
0.0
 10
20.09852108754716
 20
7.22317558202497
 30
0.0
 10
20.1492679133184
 20
7.218958245162603
 30
0.0
 10
20.19391928385869
 20
7.234098079722387
 30
0.0
  0
SPLINE
  5
141
330
1F
100
AcDbEntity
  8
0
  6
Continuous
 62
     1
370
    15
100
AcDbSpline
210
0.0
220
0.0
230
1.0
 70
     8
 71
     3
 72
     8
 73
     4
 74
     0
 42
0.000000001
 43
0.00000001
 40
0.0
 40
0.0
 40
0.0
 40
0.0
 40
1.0
 40
1.0
 40
1.0
 40
1.0
 10
20.19391928385877
 20
7.23409807972242
 30
0.0
 10
20.32718618372315
 20
7.279284572137461
 30
0.0
 10
20.47355418483509
 20
7.276793110435121
 30
0.0
 10
20.61785334496861
 20
7.24050805548082
 30
0.0
  0
SPLINE
  5
142
330
1F
100
AcDbEntity
  8
0
  6
Continuous
 62
     1
370
    15
100
AcDbSpline
210
0.0
220
0.0
230
1.0
 70
     8
 71
     3
 72
     8
 73
     4
 74
     0
 42
0.000000001
 43
0.00000001
 40
0.0
 40
0.0
 40
0.0
 40
0.0
 40
1.0
 40
1.0
 40
1.0
 40
1.0
 10
20.61785334496904
 20
7.240508055480866
 30
0.0
 10
20.77140305084906
 20
7.164011462239697
 30
0.0
 10
20.91440986169301
 20
7.054128740222844
 30
0.0
 10
21.03664068381088
 20
6.921273248718967
 30
0.0
  0
SPLINE
  5
143
330
1F
100
AcDbEntity
  8
0
  6
Continuous
 62
     1
370
    15
100
AcDbSpline
210
0.0
220
0.0
230
1.0
 70
     8
 71
     3
 72
    10
 73
     6
 74
     0
 42
0.000000001
 43
0.00000001
 40
0.0
 40
0.0
 40
0.0
 40
0.0
 40
0.5
 40
0.5
 40
1.0
 40
1.0
 40
1.0
 40
1.0
 10
21.03664068381093
 20
6.921273248718889
 30
0.0
 10
21.07357462095971
 20
6.881128903061589
 30
0.0
 10
21.11696071959685
 20
6.849007434206094
 30
0.0
 10
21.21103520207241
 20
6.809560565361847
 30
0.0
 10
21.2618700366964
 20
6.803003583386674
 30
0.0
 10
21.3068389977528
 20
6.815596006401958
 30
0.0
  0
SPLINE
  5
144
330
1F
100
AcDbEntity
  8
0
  6
Continuous
 62
     1
370
    15
100
AcDbSpline
210
0.0
220
0.0
230
1.0
 70
     8
 71
     3
 72
    10
 73
     6
 74
     0
 42
0.000000001
 43
0.00000001
 40
0.0
 40
0.0
 40
0.0
 40
0.0
 40
0.5
 40
0.5
 40
1.0
 40
1.0
 40
1.0
 40
1.0
 10
21.30683899775279
 20
6.815596006401966
 30
0.0
 10
21.48300480441608
 20
6.864926796044871
 30
0.0
 10
21.67628335056017
 20
6.833693622209526
 30
0.0
 10
22.04738739008771
 20
6.67373697259651
 30
0.0
 10
22.22017812029297
 20
6.546831256010408
 30
0.0
 10
22.3658841213935
 20
6.388990758197648
 30
0.0
  0
SPLINE
  5
145
330
1F
100
AcDbEntity
  8
0
  6
Continuous
 62
     1
370
    15
100
AcDbSpline
210
0.0
220
0.0
230
1.0
 70
     8
 71
     3
 72
    10
 73
     6
 74
     0
 42
0.000000001
 43
0.00000001
 40
0.0
 40
0.0
 40
0.0
 40
0.0
 40
0.5
 40
0.5
 40
1.0
 40
1.0
 40
1.0
 40
1.0
 10
22.36588412139351
 20
6.388990758197655
 30
0.0
 10
22.40303624891204
 20
6.348744575761549
 30
0.0
 10
22.44655477460238
 20
6.316038835094775
 30
0.0
 10
22.54071391407299
 20
6.274537865355224
 30
0.0
 10
22.591488455159
 20
6.266510174777583
 30
0.0
 10
22.63617307697902
 20
6.27725002325199
 30
0.0
  0
SPLINE
  5
146
330
1F
100
AcDbEntity
  8
0
  6
Continuous
 62
     1
370
    15
100
AcDbSpline
210
0.0
220
0.0
230
1.0
 70
     8
 71
     3
 72
     8
 73
     4
 74
     0
 42
0.000000001
 43
0.00000001
 40
0.0
 40
0.0
 40
0.0
 40
0.0
 40
1.0
 40
1.0
 40
1.0
 40
1.0
 10
22.63617307697912
 20
6.277250023252022
 30
0.0
 10
22.76945914723512
 20
6.309285030822692
 30
0.0
 10
22.91588611247279
 20
6.29437921122536
 30
0.0
 10
23.06020592365907
 20
6.2481502915301
 30
0.0
  0
SPLINE
  5
147
330
1F
100
AcDbEntity
  8
0
  6
Continuous
 62
     1
370
    15
100
AcDbSpline
210
0.0
220
0.0
230
1.0
 70
     8
 71
     3
 72
     8
 73
     4
 74
     0
 42
0.000000001
 43
0.00000001
 40
0.0
 40
0.0
 40
0.0
 40
0.0
 40
1.0
 40
1.0
 40
1.0
 40
1.0
 10
23.06020592365951
 20
6.24815029153008
 30
0.0
 10
23.21374779316964
 20
6.163544802486684
 30
0.0
 10
23.3567791202075
 20
6.048875148260016
 30
0.0
 10
23.47902421828781
 20
5.914255656618509
 30
0.0
  0
SPLINE
  5
148
330
1F
100
AcDbEntity
  8
0
  6
Continuous
 62
     1
370
    15
100
AcDbSpline
210
0.0
220
0.0
230
1.0
 70
     8
 71
     3
 72
    10
 73
     6
 74
     0
 42
0.000000001
 43
0.00000001
 40
0.0
 40
0.0
 40
0.0
 40
0.0
 40
0.5
 40
0.5
 40
1.0
 40
1.0
 40
1.0
 40
1.0
 10
23.47902421828783
 20
5.914255656618464
 30
0.0
 10
23.51594712451844
 20
5.873595188879892
 30
0.0
 10
23.55932110780822
 20
5.8399359054153
 30
0.0
 10
23.65338068517787
 20
5.795369443254392
 30
0.0
 10
23.70420930693571
 20
5.785183569457129
 30
0.0
 10
23.74916797076733
 20
5.793315822987389
 30
0.0
  0
SPLINE
  5
149
330
1F
100
AcDbEntity
  8
0
  6
Continuous
 62
     1
370
    15
100
AcDbSpline
210
0.0
220
0.0
230
1.0
 70
     8
 71
     3
 72
    10
 73
     6
 74
     0
 42
0.000000001
 43
0.00000001
 40
0.0
 40
0.0
 40
0.0
 40
0.0
 40
0.5
 40
0.5
 40
1.0
 40
1.0
 40
1.0
 40
1.0
 10
23.74916797076732
 20
5.793315822987387
 30
0.0
 10
23.92517394601591
 20
5.825152294349674
 30
0.0
 10
24.11832186280138
 20
5.77922100371327
 30
0.0
 10
24.48925887553054
 20
5.599656089461336
 30
0.0
 10
24.66203857186179
 20
5.468008602197921
 30
0.0
 10
24.80758085396626
 20
5.309929623059368
 30
0.0
  0
SPLINE
  5
14A
330
1F
100
AcDbEntity
  8
0
  6
Continuous
 62
     1
370
    15
100
AcDbSpline
210
0.0
220
0.0
230
1.0
 70
     8
 71
     3
 72
    10
 73
     6
 74
     0
 42
0.000000001
 43
0.00000001
 40
0.0
 40
0.0
 40
0.0
 40
0.0
 40
0.5
 40
0.5
 40
1.0
 40
1.0
 40
1.0
 40
1.0
 10
24.80758085396626
 20
5.30992962305937
 30
0.0
 10
24.8447034364758
 20
5.269609381674933
 30
0.0
 10
24.88819410266525
 20
5.235732789755201
 30
0.0
 10
24.98229137427215
 20
5.189549911951179
 30
0.0
 10
25.03301915832642
 20
5.17795233557205
 30
0.0
 10
25.07766417404009
 20
5.184054188663414
 30
0.0
  0
SPLINE
  5
14B
330
1F
100
AcDbEntity
  8
0
  6
Continuous
 62
     1
370
    15
100
AcDbSpline
210
0.0
220
0.0
230
1.0
 70
     8
 71
     3
 72
     8
 73
     4
 74
     0
 42
0.000000001
 43
0.00000001
 40
0.0
 40
0.0
 40
0.0
 40
0.0
 40
1.0
 40
1.0
 40
1.0
 40
1.0
 10
25.07766417404018
 20
5.184054188663458
 30
0.0
 10
25.21090234602586
 20
5.202264502594821
 30
0.0
 10
25.35722130210514
 20
5.175181300358656
 30
0.0
 10
25.50145691303487
 20
5.119971157493719
 30
0.0
  0
SPLINE
  5
14C
330
1F
100
AcDbEntity
  8
0
  6
Continuous
 62
     1
370
    15
100
AcDbSpline
210
0.0
220
0.0
230
1.0
 70
     8
 71
     3
 72
     8
 73
     4
 74
     0
 42
0.000000001
 43
0.00000001
 40
0.0
 40
0.0
 40
0.0
 40
0.0
 40
1.0
 40
1.0
 40
1.0
 40
1.0
 10
25.50145691303531
 20
5.119971157493699
 30
0.0
 10
25.65487051278245
 20
5.029054210759946
 30
0.0
 10
25.79779338976277
 20
4.912056789055031
 30
0.0
 10
25.91993913494011
 20
4.7786163701677
 30
0.0
  0
SPLINE
  5
14D
330
1F
100
AcDbEntity
  8
0
  6
Continuous
 62
     1
370
    15
100
AcDbSpline
210
0.0
220
0.0
230
1.0
 70
     8
 71
     3
 72
    10
 73
     6
 74
     0
 42
0.000000001
 43
0.00000001
 40
0.0
 40
0.0
 40
0.0
 40
0.0
 40
0.5
 40
0.5
 40
1.0
 40
1.0
 40
1.0
 40
1.0
 10
25.91993913494015
 20
4.778616370167664
 30
0.0
 10
25.95683153319171
 20
4.738312575145572
 30
0.0
 10
26.00017667408703
 20
4.703836928912448
 30
0.0
 10
26.09418982971569
 20
4.655092078512745
 30
0.0
 10
26.14499666980231
 20
4.641480242827287
 30
0.0
 10
26.18993682040222
 20
4.644955096837174
 30
0.0
  0
SPLINE
  5
14E
330
1F
100
AcDbEntity
  8
0
  6
Continuous
 62
     1
370
    15
100
AcDbSpline
210
0.0
220
0.0
230
1.0
 70
     8
 71
     3
 72
    10
 73
     6
 74
     0
 42
0.000000001
 43
0.00000001
 40
0.0
 40
0.0
 40
0.0
 40
0.0
 40
0.5
 40
0.5
 40
1.0
 40
1.0
 40
1.0
 40
1.0
 10
26.18993682040221
 20
4.644955096837206
 30
0.0
 10
26.36583265993734
 20
4.658555682397605
 30
0.0
 10
26.55888092735184
 20
4.598797372146715
 30
0.0
 10
26.92969062089103
 20
4.403326356479375
 30
0.0
 10
27.10245345815888
 20
4.269738753026686
 30
0.0
 10
27.24796624206306
 20
4.114898006080124
 30
0.0
  0
SPLINE
  5
14F
330
1F
100
AcDbEntity
  8
0
  6
Continuous
 62
     1
370
    15
100
AcDbSpline
210
0.0
220
0.0
230
1.0
 70
     8
 71
     3
 72
    10
 73
     6
 74
     0
 42
0.000000001
 43
0.00000001
 40
0.0
 40
0.0
 40
0.0
 40
0.0
 40
0.5
 40
0.5
 40
1.0
 40
1.0
 40
1.0
 40
1.0
 10
27.24796624206307
 20
4.114898006080107
 30
0.0
 10
27.2850771908856
 20
4.075408094050385
 30
0.0
 10
27.32855903690138
 20
4.04112650171008
 30
0.0
 10
27.4226501247903
 20
3.991352390850802
 30
0.0
 10
27.47337108137563
 20
3.976500203985629
 30
0.0
 10
27.51799971138744
 20
3.977916407001636
 30
0.0
  0
SPLINE
  5
150
330
1F
100
AcDbEntity
  8
0
  6
Continuous
 62
     1
370
    15
100
AcDbSpline
210
0.0
220
0.0
230
1.0
 70
     8
 71
     3
 72
     8
 73
     4
 74
     0
 42
0.000000001
 43
0.00000001
 40
0.0
 40
0.0
 40
0.0
 40
0.0
 40
1.0
 40
1.0
 40
1.0
 40
1.0
 10
27.51799971138752
 20
3.977916407001672
 30
0.0
 10
27.65124076664903
 20
3.982144553468771
 30
0.0
 10
27.79755592896022
 20
3.943859769475033
 30
0.0
 10
27.94175573670335
 20
3.880995396777384
 30
0.0
  0
SPLINE
  5
151
330
1F
100
AcDbEntity
  8
0
  6
Continuous
 62
     1
370
    15
100
AcDbSpline
210
0.0
220
0.0
230
1.0
 70
     8
 71
     3
 72
     8
 73
     4
 74
     0
 42
0.000000001
 43
0.00000001
 40
0.0
 40
0.0
 40
0.0
 40
0.0
 40
1.0
 40
1.0
 40
1.0
 40
1.0
 10
27.9417557367038
 20
3.880995396777336
 30
0.0
 10
28.0952163397808
 20
3.785811802775186
 30
0.0
 10
28.23806740136094
 20
3.668905854264059
 30
0.0
 10
28.36017688247817
 20
3.539449789103884
 30
0.0
  0
SPLINE
  5
152
330
1F
100
AcDbEntity
  8
0
  6
Continuous
 62
     1
370
    15
100
AcDbSpline
210
0.0
220
0.0
230
1.0
 70
     8
 71
     3
 72
    10
 73
     6
 74
     0
 42
0.000000001
 43
0.00000001
 40
0.0
 40
0.0
 40
0.0
 40
0.0
 40
0.5
 40
0.5
 40
1.0
 40
1.0
 40
1.0
 40
1.0
 10
28.3601768824782
 20
3.539449789103846
 30
0.0
 10
28.39706345167319
 20
3.5003439796159
 30
0.0
 10
28.44040215037453
 20
3.465762113851148
 30
0.0
 10
28.53440279064286
 20
3.41381341400693
 30
0.0
 10
28.58521086905521
 20
3.397017282324102
 30
0.0
 10
28.63016099345889
 20
3.395723361030902
 30
0.0
  0
SPLINE
  5
153
330
1F
100
AcDbEntity
  8
0
  6
Continuous
 62
     1
370
    15
100
AcDbSpline
210
0.0
220
0.0
230
1.0
 70
     8
 71
     3
 72
    10
 73
     6
 74
     0
 42
0.000000001
 43
0.00000001
 40
0.0
 40
0.0
 40
0.0
 40
0.0
 40
0.5
 40
0.5
 40
1.0
 40
1.0
 40
1.0
 40
1.0
 10
28.63016099345889
 20
3.395723361030918
 30
0.0
 10
28.8060630108481
 20
3.390659896383461
 30
0.0
 10
28.99909808813199
 20
3.318167922960406
 30
0.0
 10
29.36992504770459
 20
3.110721331140812
 30
0.0
 10
29.5427432403213
 20
2.977968613384914
 30
0.0
 10
29.6883253396325
 20
2.829620275843985
 30
0.0
  0
SPLINE
  5
154
330
1F
100
AcDbEntity
  8
0
  6
Continuous
 62
     1
370
    15
100
AcDbSpline
210
0.0
220
0.0
230
1.0
 70
     8
 71
     3
 72
    10
 73
     6
 74
     0
 42
0.000000001
 43
0.00000001
 40
0.0
 40
0.0
 40
0.0
 40
0.0
 40
0.5
 40
0.5
 40
1.0
 40
1.0
 40
1.0
 40
1.0
 10
29.68832533963249
 20
2.829620275843977
 30
0.0
 10
29.72544908532197
 20
2.791791133508597
 30
0.0
 10
29.7689442788609
 20
2.757817166823724
 30
0.0
 10
29.86306281283183
 20
2.705460280802679
 30
0.0
 10
29.91380017225832
 20
2.687626838324225
 30
0.0
 10
29.95844075399656
 20
2.684295095434766
 30
0.0
  0
SPLINE
  5
155
330
1F
100
AcDbEntity
  8
0
  6
Continuous
 62
     1
370
    15
100
AcDbSpline
210
0.0
220
0.0
230
1.0
 70
     8
 71
     3
 72
     8
 73
     4
 74
     0
 42
0.000000001
 43
0.00000001
 40
0.0
 40
0.0
 40
0.0
 40
0.0
 40
1.0
 40
1.0
 40
1.0
 40
1.0
 10
29.95844075399664
 20
2.684295095434804
 30
0.0
 10
30.0916998696867
 20
2.674349322018128
 30
0.0
 10
30.23805516806774
 20
2.625597731697447
 30
0.0
 10
30.38232122127458
 20
2.556553695321763
 30
0.0
  0
SPLINE
  5
156
330
1F
100
AcDbEntity
  8
0
  6
Continuous
 62
     1
370
    15
100
AcDbSpline
210
0.0
220
0.0
230
1.0
 70
     8
 71
     3
 72
     8
 73
     4
 74
     0
 42
0.000000001
 43
0.00000001
 40
0.0
 40
0.0
 40
0.0
 40
0.0
 40
1.0
 40
1.0
 40
1.0
 40
1.0
 10
30.38232122127504
 20
2.556553695321724
 30
0.0
 10
30.53585331429361
 20
2.459338175346756
 30
0.0
 10
30.67881717803112
 20
2.345423957131036
 30
0.0
 10
30.80099800279865
 20
2.222987045075514
 30
0.0
  0
SPLINE
  5
157
330
1F
100
AcDbEntity
  8
0
  6
Continuous
 62
     1
370
    15
100
AcDbSpline
210
0.0
220
0.0
230
1.0
 70
     8
 71
     3
 72
    10
 73
     6
 74
     0
 42
0.000000001
 43
0.00000001
 40
0.0
 40
0.0
 40
0.0
 40
0.0
 40
0.5
 40
0.5
 40
1.0
 40
1.0
 40
1.0
 40
1.0
 10
30.80099800279868
 20
2.222987045075482
 30
0.0
 10
30.83792119589826
 20
2.185986462087564
 30
0.0
 10
30.88129555152362
 20
2.152113868133096
 30
0.0
 10
30.97534225353645
 20
2.098204305329693
 30
0.0
 10
31.02616320834845
 20
2.078637267396247
 30
0.0
 10
31.07112774910663
 20
2.0726209475312
 30
0.0
  0
SPLINE
  5
158
330
1F
100
AcDbEntity
  8
0
  6
Continuous
 62
     1
370
    15
100
AcDbSpline
210
0.0
220
0.0
230
1.0
 70
     8
 71
     3
 72
    10
 73
     6
 74
     0
 42
0.000000001
 43
0.00000001
 40
0.0
 40
0.0
 40
0.0
 40
0.0
 40
0.5
 40
0.5
 40
1.0
 40
1.0
 40
1.0
 40
1.0
 10
31.07112774910663
 20
2.072620947531209
 30
0.0
 10
31.24720137644404
 20
2.049062044359975
 30
0.0
 10
31.4402813235529
 20
1.965100038846169
 30
0.0
 10
31.81128944958595
 20
1.74979717500904
 30
0.0
 10
31.98420599814773
 20
1.620624591220907
 30
0.0
 10
32.12995115836875
 20
1.481861086300323
 30
0.0
  0
SPLINE
  5
159
330
1F
100
AcDbEntity
  8
0
  6
Continuous
 62
     1
370
    15
100
AcDbSpline
210
0.0
220
0.0
230
1.0
 70
     8
 71
     3
 72
    10
 73
     6
 74
     0
 42
0.000000001
 43
0.00000001
 40
0.0
 40
0.0
 40
0.0
 40
0.0
 40
0.5
 40
0.5
 40
1.0
 40
1.0
 40
1.0
 40
1.0
 10
32.12995115836875
 20
1.481861086300326
 30
0.0
 10
32.16711187535743
 20
1.44648048548385
 30
0.0
 10
32.2106423310931
 20
1.413513448527521
 30
0.0
 10
32.30482164642959
 20
1.359626962371142
 30
0.0
 10
32.35559849008618
 20
1.339145774922308
 30
0.0
 10
32.40027914695618
 20
1.331094091156233
 30
0.0
  0
SPLINE
  5
15A
330
1F
100
AcDbEntity
  8
0
  6
Continuous
 62
     1
370
    15
100
AcDbSpline
210
0.0
220
0.0
230
1.0
 70
     8
 71
     3
 72
     8
 73
     4
 74
     0
 42
0.000000001
 43
0.00000001
 40
0.0
 40
0.0
 40
0.0
 40
0.0
 40
1.0
 40
1.0
 40
1.0
 40
1.0
 10
32.40027914695628
 20
1.331094091156249
 30
0.0
 10
32.53359182096424
 20
1.307070462850017
 30
0.0
 10
32.6800581828109
 20
1.248762966256869
 30
0.0
 10
32.8244004137258
 20
1.174934049646389
 30
0.0
  0
SPLINE
  5
15B
330
1F
100
AcDbEntity
  8
0
  6
Continuous
 62
     1
370
    15
100
AcDbSpline
210
0.0
220
0.0
230
1.0
 70
     8
 71
     3
 72
     8
 73
     4
 74
     0
 42
0.000000001
 43
0.00000001
 40
0.0
 40
0.0
 40
0.0
 40
0.0
 40
1.0
 40
1.0
 40
1.0
 40
1.0
 10
32.82440041372626
 20
1.174934049646366
 30
0.0
 10
32.97800074873378
 20
1.077706831224995
 30
0.0
 10
33.12106715930947
 20
0.9691634057723252
 30
0.0
 10
33.2433417835777
 20
0.8563861886327273
 30
0.0
  0
SPLINE
  5
15C
330
1F
100
AcDbEntity
  8
0
  6
Continuous
 62
     1
370
    15
100
AcDbSpline
210
0.0
220
0.0
230
1.0
 70
     8
 71
     3
 72
    10
 73
     6
 74
     0
 42
0.000000001
 43
0.00000001
 40
0.0
 40
0.0
 40
0.0
 40
0.0
 40
0.5
 40
0.5
 40
1.0
 40
1.0
 40
1.0
 40
1.0
 10
33.24334178357774
 20
0.8563861886326976
 30
0.0
 10
33.28027704257845
 20
0.8223197930141557
 30
0.0
 10
33.32366215476182
 20
0.7899187958261121
 30
0.0
 10
33.41773529537456
 20
0.7352982029264046
 30
0.0
 10
33.46857020055467
 20
0.7134474175538474
 30
0.0
 10
33.51353830801196
 20
0.7029112952457783
 30
0.0
  0
SPLINE
  5
15D
330
1F
100
AcDbEntity
  8
0
  6
Continuous
 62
     1
370
    15
100
AcDbSpline
210
0.0
220
0.0
230
1.0
 70
     8
 71
     3
 72
    10
 73
     6
 74
     0
 42
0.000000001
 43
0.00000001
 40
0.0
 40
0.0
 40
0.0
 40
0.0
 40
0.5000000000000001
 40
0.5000000000000001
 40
1.0
 40
1.0
 40
1.0
 40
1.0
 10
33.51353830801194
 20
0.7029112952457951
 30
0.0
 10
33.68962722937048
 20
0.6616532900186177
 30
0.0
 10
33.88282075318974
 20
0.5688004188193598
 30
0.0
 10
34.25376591725511
 20
0.3508489733281521
 30
0.0
 10
34.4264860016727
 20
0.2280261616290215
 30
0.0
 10
34.57208927128215
 20
0.1019303876513936
 30
0.0
  0
SPLINE
  5
15E
330
1F
100
AcDbEntity
  8
0
  6
Continuous
 62
     1
370
    15
100
AcDbSpline
210
0.0
220
0.0
230
1.0
 70
     8
 71
     3
 72
    10
 73
     6
 74
     0
 42
0.000000001
 43
0.00000001
 40
0.0
 40
0.0
 40
0.0
 40
0.0
 40
0.5
 40
0.5
 40
1.0
 40
1.0
 40
1.0
 40
1.0
 10
34.57208927128216
 20
0.1019303876513962
 30
0.0
 10
34.60920996456252
 20
0.0697830151210437
 30
0.0
 10
34.65269922836881
 20
0.0385505624483347
 30
0.0
 10
34.74680961012351
 20
-0.0156829141053066
 30
0.0
 10
34.79755555281787
 20
-0.0383546307766496
 30
0.0
 10
34.84221242446581
 20
-0.0509601755180054
 30
0.0
  0
SPLINE
  5
15F
330
1F
100
AcDbEntity
  8
0
  6
Continuous
 62
     1
370
    15
100
AcDbSpline
210
0.0
220
0.0
230
1.0
 70
     8
 71
     3
 72
     8
 73
     4
 74
     0
 42
0.000000001
 43
0.00000001
 40
0.0
 40
0.0
 40
0.0
 40
0.0
 40
1.0
 40
1.0
 40
1.0
 40
1.0
 10
34.8422124244659
 20
-0.0509601755179896
 30
0.0
 10
34.97545633828306
 20
-0.0885716797536148
 30
0.0
 10
35.12178795458313
 20
-0.1551320785292885
 30
0.0
 10
35.26606730759648
 20
-0.2321585846225577
 30
0.0
  0
SPLINE
  5
160
330
1F
100
AcDbEntity
  8
0
  6
Continuous
 62
     1
370
    15
100
AcDbSpline
210
0.0
220
0.0
230
1.0
 70
     8
 71
     3
 72
     8
 73
     4
 74
     0
 42
0.000000001
 43
0.00000001
 40
0.0
 40
0.0
 40
0.0
 40
0.0
 40
1.0
 40
1.0
 40
1.0
 40
1.0
 10
35.26606730759693
 20
-0.2321585846225646
 30
0.0
 10
35.3289689953087
 20
-0.2711445644860856
 30
0.0
 10
35.38987665417311
 20
-0.3110199590996635
 30
0.0
 10
35.44865457309011
 20
-0.3516085966984747
 30
0.0
  0
SPLINE
  5
161
330
1F
100
AcDbEntity
  8
0
  6
Continuous
 62
     1
370
    15
100
AcDbSpline
210
0.0
220
0.0
230
1.0
 70
     8
 71
     3
 72
    10
 73
     6
 74
     0
 42
0.000000001
 43
0.00000001
 40
0.0
 40
0.0
 40
0.0
 40
0.0
 40
0.5
 40
0.5
 40
1.0
 40
1.0
 40
1.0
 40
1.0
 10
35.44865457309019
 20
-0.3516085966985066
 30
0.0
 10
35.44605663772948
 20
-0.4358240689467637
 30
0.0
 10
35.42987686672775
 20
-0.5372252170159447
 30
0.0
 10
35.36694708651968
 20
-0.7787093391935577
 30
0.0
 10
35.31920989451471
 20
-0.9211812048625075
 30
0.0
 10
35.25487383898373
 20
-1.081041970212424
 30
0.0
  0
SPLINE
  5
162
330
1F
100
AcDbEntity
  8
0
  6
Continuous
 62
     1
370
    15
100
AcDbSpline
210
0.0
220
0.0
230
1.0
 70
     8
 71
     3
 72
    10
 73
     6
 74
     0
 42
0.000000001
 43
0.00000001
 40
0.0
 40
0.0
 40
0.0
 40
0.0
 40
0.5
 40
0.5
 40
1.0
 40
1.0
 40
1.0
 40
1.0
 10
37.40000000000002
 20
-3.766232516623127
 30
0.0
 10
37.04116736529894
 20
-3.299020846874637
 30
0.0
 10
36.68296671673297
 20
-2.841291760955904
 30
0.0
 10
35.96787031145112
 20
-1.945412731239506
 30
0.0
 10
35.61097115000515
 20
-1.507211701450449
 30
0.0
 10
35.25487383898397
 20
-1.081041970212846
 30
0.0
  0
LINE
  5
163
330
1F
100
AcDbEntity
  8
0
  6
Continuous
 62
     1
370
    15
100
AcDbLine
 10
37.39999985694886
 20
-6.558536551892762
 30
0.0
 11
37.39999985694886
 21
-3.766232402995234
 31
0.0
  0
SPLINE
  5
164
330
1F
100
AcDbEntity
  8
0
  6
Continuous
 62
     1
370
    15
100
AcDbSpline
210
0.0
220
0.0
230
1.0
 70
     8
 71
     3
 72
     8
 73
     4
 74
     0
 42
0.000000001
 43
0.00000001
 40
0.0000720350012734
 40
0.0000720350012734
 40
0.0000720350012734
 40
0.0000720350012734
 40
0.0002846736620256
 40
0.0002846736620256
 40
0.0002846736620256
 40
0.0002846736620256
 10
37.25047789699143
 20
-6.647587835493392
 30
0.0
 10
37.30018343732904
 20
-6.619202821988475
 30
0.0
 10
37.35004840419009
 20
-6.589529157280785
 30
0.0
 10
37.40000000000006
 20
-6.558536403554761
 30
0.0
  0
SPLINE
  5
165
330
1F
100
AcDbEntity
  8
0
  6
Continuous
 62
     1
370
    15
100
AcDbSpline
210
0.0
220
0.0
230
1.0
 70
     8
 71
     3
 72
     8
 73
     4
 74
     0
 42
0.000000001
 43
0.00000001
 40
0.0
 40
0.0
 40
0.0
 40
0.0
 40
1.0
 40
1.0
 40
1.0
 40
1.0
 10
37.25047789699143
 20
-6.647587835493396
 30
0.0
 10
37.17594348595242
 20
-6.590269506872755
 30
0.0
 10
37.10583815704616
 20
-6.525661420406768
 30
0.0
 10
37.04135927060064
 20
-6.454832092163515
 30
0.0
  0
SPLINE
  5
166
330
1F
100
AcDbEntity
  8
0
  6
Continuous
 62
     1
370
    15
100
AcDbSpline
210
0.0
220
0.0
230
1.0
 70
     8
 71
     3
 72
    10
 73
     6
 74
     0
 42
0.000000001
 43
0.00000001
 40
0.0
 40
0.0
 40
0.0
 40
0.0
 40
0.5
 40
0.5
 40
1.0
 40
1.0
 40
1.0
 40
1.0
 10
13.49643357119916
 20
0.2969562993331355
 30
0.0
 10
13.67237926344024
 20
0.2505359846668221
 30
0.0
 10
13.86545726608316
 20
0.1555154267148162
 30
0.0
 10
14.23635885148025
 20
-0.0617347106419757
 30
0.0
 10
14.40921694353349
 20
-0.181719111179915
 30
0.0
 10
14.55482008772441
 20
-0.3032949157559856
 30
0.0
  0
SPLINE
  5
167
330
1F
100
AcDbEntity
  8
0
  6
Continuous
 62
     1
370
    15
100
AcDbSpline
210
0.0
220
0.0
230
1.0
 70
     8
 71
     3
 72
    10
 73
     6
 74
     0
 42
0.000000001
 43
0.00000001
 40
0.0
 40
0.0
 40
0.0
 40
0.0
 40
0.5
 40
0.5
 40
1.0
 40
1.0
 40
1.0
 40
1.0
 10
19.43557050075039
 20
-3.019501989138928
 30
0.0
 10
19.47268810617628
 20
-3.041668177890983
 30
0.0
 10
19.516176173393
 20
-3.066359714536224
 30
0.0
 10
19.61028464057518
 20
-3.116780225492486
 30
0.0
 10
19.66102719291791
 20
-3.142458863135615
 30
0.0
 10
19.70567976053821
 20
-3.164230287015223
 30
0.0
  0
SPLINE
  5
168
330
1F
100
AcDbEntity
  8
외형선
  6
Continuous
370
    15
100
AcDbSpline
210
0.0
220
0.0
230
1.0
 70
     8
 71
     3
 72
     8
 73
     4
 74
     0
 42
0.000000001
 43
0.00000001
 40
0.0
 40
0.0
 40
0.0
 40
0.0
 40
1.0
 40
1.0
 40
1.0
 40
1.0
 10
10.11910501077039
 20
-3.637586220421629
 30
0.0
 10
9.730111008984657
 20
-3.429605966257318
 30
0.0
 10
9.34086923036822
 20
-3.218536373276215
 30
0.0
 10
8.950152089901971
 20
-3.004674593451468
 30
0.0
  0
SPLINE
  5
169
330
1F
100
AcDbEntity
  8
외형선
  6
Continuous
370
    15
100
AcDbSpline
210
0.0
220
0.0
230
1.0
 70
     8
 71
     3
 72
     8
 73
     4
 74
     0
 42
0.000000001
 43
0.00000001
 40
0.0
 40
0.0
 40
0.0
 40
0.0
 40
1.0
 40
1.0
 40
1.0
 40
1.0
 10
10.36585818108924
 20
2.15565019943381
 30
0.0
 10
9.893886137824854
 20
2.421306372928315
 30
0.0
 10
9.423412354396449
 20
2.684035021434542
 30
0.0
 10
8.950152089901968
 20
2.943652184972115
 30
0.0
  0
SPLINE
  5
16A
330
1F
100
AcDbEntity
  8
외형선
  6
Continuous
370
    15
100
AcDbSpline
210
0.0
220
0.0
230
1.0
 70
     8
 71
     3
 72
     8
 73
     4
 74
     0
 42
0.000000001
 43
0.00000001
 40
0.0
 40
0.0
 40
0.0
 40
0.0
 40
1.0
 40
1.0
 40
1.0
 40
1.0
 10
10.36513025093776
 20
2.156059923779571
 30
0.0
 10
10.51864511372741
 20
2.05848498639118
 30
0.0
 10
10.66166290153515
 20
1.945854869199692
 30
0.0
 10
10.78392415472586
 20
1.825978669967802
 30
0.0
  0
SPLINE
  5
16B
330
1F
100
AcDbEntity
  8
외형선
  6
Continuous
370
    15
100
AcDbSpline
210
0.0
220
0.0
230
1.0
 70
     8
 71
     3
 72
    10
 73
     6
 74
     0
 42
0.000000001
 43
0.00000001
 40
0.0
 40
0.0
 40
0.0
 40
0.0
 40
0.5
 40
0.5
 40
1.0
 40
1.0
 40
1.0
 40
1.0
 10
10.78392415472595
 20
1.825978669967734
 30
0.0
 10
10.8208558978964
 20
1.789767385634038
 30
0.0
 10
10.86423994868295
 20
1.75626598652622
 30
0.0
 10
10.95831738064951
 20
1.702075763712375
 30
0.0
 10
11.00915935530179
 20
1.681830816548415
 30
0.0
 10
11.0541338202768
 20
1.674519326777757
 30
0.0
  0
SPLINE
  5
16C
330
1F
100
AcDbEntity
  8
외형선
  6
Continuous
370
    15
100
AcDbSpline
210
0.0
220
0.0
230
1.0
 70
     8
 71
     3
 72
     8
 73
     4
 74
     0
 42
0.000000001
 43
0.00000001
 40
0.0
 40
0.0
 40
0.0
 40
0.0
 40
1.0
 40
1.0
 40
1.0
 40
1.0
 10
11.05413382027678
 20
1.674519326777786
 30
0.0
 10
11.1611781615294
 20
1.657117149642156
 30
0.0
 10
11.27458688430705
 20
1.617752121113229
 30
0.0
 10
11.38917195744407
 20
1.56572570693335
 30
0.0
  0
SPLINE
  5
16D
330
1F
100
AcDbEntity
  8
0
  6
Continuous
 62
     1
370
    15
100
AcDbSpline
210
0.0
220
0.0
230
1.0
 70
     8
 71
     3
 72
     8
 73
     4
 74
     0
 42
0.000000001
 43
0.00000001
 40
0.4969598059473134
 40
0.4969598059473134
 40
0.4969598059473134
 40
0.4969598059473134
 40
1.0
 40
1.0
 40
1.0
 40
1.0
 10
12.00000000000001
 20
1.179584178200685
 30
0.0
 10
12.03931823509209
 20
1.147201141979444
 30
0.0
 10
12.07716132583157
 20
1.114175737017656
 30
0.0
 10
12.11325521800673
 20
1.080663009622227
 30
0.0
  0
SPLINE
  5
16E
330
1F
100
AcDbEntity
  8
0
  6
Continuous
 62
     1
370
    15
100
AcDbSpline
210
0.0
220
0.0
230
1.0
 70
     8
 71
     3
 72
    10
 73
     6
 74
     0
 42
0.000000001
 43
0.00000001
 40
0.0
 40
0.0
 40
0.0
 40
0.0
 40
0.5000000000000002
 40
0.5000000000000002
 40
1.0
 40
1.0
 40
1.0
 40
1.0
 10
12.11325521800673
 20
1.080663009622237
 30
0.0
 10
12.1504148481753
 20
1.046160757830969
 30
0.0
 10
12.19394136965077
 20
1.013636292040223
 30
0.0
 10
12.28810568550333
 20
0.9595299583326533
 30
0.0
 10
12.33886977588606
 20
0.9383539769863002
 30
0.0
 10
12.38354110711519
 20
0.9289328812611912
 30
0.0
  0
SPLINE
  5
16F
330
1F
100
AcDbEntity
  8
0
  6
Continuous
 62
     1
370
    15
100
AcDbSpline
210
0.0
220
0.0
230
1.0
 70
     8
 71
     3
 72
     8
 73
     4
 74
     0
 42
0.000000001
 43
0.00000001
 40
0.0
 40
0.0
 40
0.0
 40
0.0
 40
1.0
 40
1.0
 40
1.0
 40
1.0
 10
12.38354110711519
 20
0.9289328812611831
 30
0.0
 10
12.51685652237157
 20
0.9008169229003127
 30
0.0
 10
12.66329298638036
 20
0.8397977189570056
 30
0.0
 10
12.80755079497801
 20
0.7646477484677203
 30
0.0
  0
SPLINE
  5
170
330
1F
100
AcDbEntity
  8
0
  6
Continuous
 62
     1
370
    15
100
AcDbSpline
210
0.0
220
0.0
230
1.0
 70
     8
 71
     3
 72
     8
 73
     4
 74
     0
 42
0.000000001
 43
0.00000001
 40
0.0
 40
0.0
 40
0.0
 40
0.0
 40
1.0
 40
1.0
 40
1.0
 40
1.0
 10
12.80755079497863
 20
0.7646477484677119
 30
0.0
 10
12.96110460398746
 20
0.6675559164432913
 30
0.0
 10
13.10407022211152
 20
0.5607052468502891
 30
0.0
 10
13.22631539301512
 20
0.451037317546762
 30
0.0
  0
SPLINE
  5
171
330
1F
100
AcDbEntity
  8
0
  6
Continuous
 62
     1
370
    15
100
AcDbSpline
210
0.0
220
0.0
230
1.0
 70
     8
 71
     3
 72
    10
 73
     6
 74
     0
 42
0.000000001
 43
0.00000001
 40
0.0
 40
0.0
 40
0.0
 40
0.0
 40
0.5
 40
0.5
 40
1.0
 40
1.0
 40
1.0
 40
1.0
 10
13.22631539301521
 20
0.451037317546698
 30
0.0
 10
13.26322865683712
 20
0.4179218891231369
 30
0.0
 10
13.30659175243149
 20
0.3860290742644406
 30
0.0
 10
13.40063369561356
 20
0.3313106719792934
 30
0.0
 10
13.45146407967173
 20
0.3088207440972779
 30
0.0
 10
13.49643357119916
 20
0.2969562993331093
 30
0.0
  0
SPLINE
  5
172
330
1F
100
AcDbEntity
  8
0
  6
Continuous
 62
     1
370
    15
100
AcDbSpline
210
0.0
220
0.0
230
1.0
 70
     8
 71
     3
 72
    10
 73
     6
 74
     0
 42
0.000000001
 43
0.00000001
 40
0.0
 40
0.0
 40
0.0
 40
0.0
 40
0.5
 40
0.5
 40
1.0
 40
1.0
 40
1.0
 40
1.0
 10
14.5548200877244
 20
-0.3032949157560086
 30
0.0
 10
14.59194142822064
 20
-0.3342905159049606
 30
0.0
 10
14.63543309327159
 20
-0.3648068075397016
 30
0.0
 10
14.72954526960734
 20
-0.4187634704088526
 30
0.0
 10
14.78027898627095
 20
-0.4419029840232206
 30
0.0
 10
14.82491580369034
 20
-0.4557299516420067
 30
0.0
  0
SPLINE
  5
173
330
1F
100
AcDbEntity
  8
0
  6
Continuous
 62
     1
370
    15
100
AcDbSpline
210
0.0
220
0.0
230
1.0
 70
     8
 71
     3
 72
     8
 73
     4
 74
     0
 42
0.000000001
 43
0.00000001
 40
0.0
 40
0.0
 40
0.0
 40
0.0
 40
1.0
 40
1.0
 40
1.0
 40
1.0
 10
14.82491580369033
 20
-0.4557299516420147
 30
0.0
 10
14.95815770972873
 20
-0.4970037616215347
 30
0.0
 10
15.10449165918404
 20
-0.5656280723606056
 30
0.0
 10
15.24873402923778
 20
-0.6432678070714456
 30
0.0
  0
SPLINE
  5
174
330
1F
100
AcDbEntity
  8
0
  6
Continuous
 62
     1
370
    15
100
AcDbSpline
210
0.0
220
0.0
230
1.0
 70
     8
 71
     3
 72
     8
 73
     4
 74
     0
 42
0.000000001
 43
0.00000001
 40
0.0
 40
0.0
 40
0.0
 40
0.0
 40
1.0
 40
1.0
 40
1.0
 40
1.0
 10
15.24873402923841
 20
-0.6432678070714947
 30
0.0
 10
15.40220699737968
 20
-0.7374061060142957
 30
0.0
 10
15.54510962927429
 20
-0.8356310028853967
 30
0.0
 10
15.66721154316954
 20
-0.9324042982665056
 30
0.0
  0
SPLINE
  5
175
330
1F
100
AcDbEntity
  8
0
  6
Continuous
 62
     1
370
    15
100
AcDbSpline
210
0.0
220
0.0
230
1.0
 70
     8
 71
     3
 72
    10
 73
     6
 74
     0
 42
0.000000001
 43
0.00000001
 40
0.0
 40
0.0
 40
0.0
 40
0.0
 40
0.5
 40
0.5
 40
1.0
 40
1.0
 40
1.0
 40
1.0
 10
15.6672115431696
 20
-0.9324042982665207
 30
0.0
 10
15.70410795812776
 20
-0.9616469820979415
 30
0.0
 10
15.7474553279785
 20
-0.9911780944784166
 30
0.0
 10
15.84145561028881
 20
-1.045136239777142
 30
0.0
 10
15.89225118546844
 20
-1.069340203427287
 30
0.0
 10
15.93719247380936
 20
-1.085486103792342
 30
0.0
  0
SPLINE
  5
176
330
1F
100
AcDbEntity
  8
0
  6
Continuous
 62
     1
370
    15
100
AcDbSpline
210
0.0
220
0.0
230
1.0
 70
     8
 71
     3
 72
    10
 73
     6
 74
     0
 42
0.000000001
 43
0.00000001
 40
0.0
 40
0.0
 40
0.0
 40
0.0
 40
0.5
 40
0.5
 40
1.0
 40
1.0
 40
1.0
 40
1.0
 10
16.99516073196844
 20
-1.679950763198585
 30
0.0
 10
17.03226801942188
 20
-1.706804451859649
 30
0.0
 10
17.07574682701385
 20
-1.734691173281584
 30
0.0
 10
17.16984032490582
 20
-1.787412357117664
 30
0.0
 10
17.22056680087696
 20
-1.812065896421679
 30
0.0
 10
17.26519730287242
 20
-1.830038463205652
 30
0.0
  0
SPLINE
  5
177
330
1F
100
AcDbEntity
  8
0
  6
Continuous
 62
     1
370
    15
100
AcDbSpline
210
0.0
220
0.0
230
1.0
 70
     8
 71
     3
 72
    10
 73
     6
 74
     0
 42
0.000000001
 43
0.00000001
 40
0.0
 40
0.0
 40
0.0
 40
0.0
 40
0.5
 40
0.5
 40
1.0
 40
1.0
 40
1.0
 40
1.0
 10
18.10743282294984
 20
-2.29582597849024
 30
0.0
 10
18.14433071521911
 20
-2.320541686608846
 30
0.0
 10
18.18768170801882
 20
-2.347039652104009
 30
0.0
 10
18.28169673007924
 20
-2.398966711428369
 30
0.0
 10
18.3324978840608
 20
-2.424287975891336
 30
0.0
 10
18.37743471199872
 20
-2.44426995987389
 30
0.0
  0
SPLINE
  5
178
330
1F
100
AcDbEntity
  8
0
  6
Continuous
 62
     1
370
    15
100
AcDbSpline
210
0.0
220
0.0
230
1.0
 70
     8
 71
     3
 72
    10
 73
     6
 74
     0
 42
0.000000001
 43
0.00000001
 40
0.0
 40
0.0
 40
0.0
 40
0.0
 40
0.5
 40
0.5
 40
1.0
 40
1.0
 40
1.0
 40
1.0
 10
22.990631054529
 20
-4.845546023663017
 30
0.0
 10
23.02755984666269
 20
-4.859787096315385
 30
0.0
 10
23.07093889694972
 20
-4.878660407975074
 30
0.0
 10
23.16500843383038
 20
-4.92340815140779
 30
0.0
 10
23.21584660142141
 20
-4.949422914288041
 30
0.0
 10
23.26081620178816
 20
-4.975824830371162
 30
0.0
  0
SPLINE
  5
179
330
1F
100
AcDbEntity
  8
0
  6
Continuous
 62
     1
370
    15
100
AcDbSpline
210
0.0
220
0.0
230
1.0
 70
     8
 71
     3
 72
    10
 73
     6
 74
     0
 42
0.000000001
 43
0.00000001
 40
0.0
 40
0.0
 40
0.0
 40
0.0
 40
0.5
 40
0.5
 40
1.0
 40
1.0
 40
1.0
 40
1.0
 10
24.31939056450231
 20
-5.473733476020413
 30
0.0
 10
24.35651956910661
 20
-5.485061724344039
 30
0.0
 10
24.40001753427963
 20
-5.501698227488314
 30
0.0
 10
24.49413412399
 20
-5.544050714110842
 30
0.0
 10
24.54487043460643
 20
-5.569965630270988
 30
0.0
 10
24.58951514602251
 20
-5.597741870506767
 30
0.0
  0
SPLINE
  5
17A
330
1F
100
AcDbEntity
  8
0
  6
Continuous
 62
     1
370
    15
100
AcDbSpline
210
0.0
220
0.0
230
1.0
 70
     8
 71
     3
 72
     8
 73
     4
 74
     0
 42
0.000000001
 43
0.00000001
 40
0.0
 40
0.0
 40
0.0
 40
0.0
 40
1.0
 40
1.0
 40
1.0
 40
1.0
 10
24.58951514602251
 20
-5.597741870506766
 30
0.0
 10
24.72279072411704
 20
-5.680660862640336
 30
0.0
 10
24.86913332662756
 20
-5.764487726150255
 30
0.0
 10
25.01335141685444
 20
-5.83603626787421
 30
0.0
  0
SPLINE
  5
17B
330
1F
100
AcDbEntity
  8
0
  6
Continuous
 62
     1
370
    15
100
AcDbSpline
210
0.0
220
0.0
230
1.0
 70
     8
 71
     3
 72
     8
 73
     4
 74
     0
 42
0.000000001
 43
0.00000001
 40
0.0
 40
0.0
 40
0.0
 40
0.0
 40
1.0
 40
1.0
 40
1.0
 40
1.0
 10
25.01335141685505
 20
-5.836036267874192
 30
0.0
 10
25.16682123350448
 20
-5.900185518764879
 30
0.0
 10
25.3097016087686
 20
-5.946219203752112
 30
0.0
 10
25.43185813438462
 20
-5.974323736224146
 30
0.0
  0
SPLINE
  5
17C
330
1F
100
AcDbEntity
  8
0
  6
Continuous
 62
     1
370
    15
100
AcDbSpline
210
0.0
220
0.0
230
1.0
 70
     8
 71
     3
 72
    10
 73
     6
 74
     0
 42
0.000000001
 43
0.00000001
 40
0.0
 40
0.0
 40
0.0
 40
0.0
 40
0.5
 40
0.5
 40
1.0
 40
1.0
 40
1.0
 40
1.0
 10
25.4318581343847
 20
-5.974323736224168
 30
0.0
 10
25.46874958865071
 20
-5.98281134725543
 30
0.0
 10
25.51209253310077
 20
-5.997225486909787
 30
0.0
 10
25.6061009635462
 20
-6.036914760745975
 30
0.0
 10
25.6569117973509
 20
-6.062447796272195
 30
0.0
 10
25.70186212247185
 20
-6.09124906312929
 30
0.0
  0
SPLINE
  5
17D
330
1F
100
AcDbEntity
  8
0
  6
Continuous
 62
     1
370
    15
100
AcDbSpline
210
0.0
220
0.0
230
1.0
 70
     8
 71
     3
 72
    10
 73
     6
 74
     0
 42
0.000000001
 43
0.00000001
 40
0.0
 40
0.0
 40
0.0
 40
0.0
 40
0.5
 40
0.5
 40
1.0
 40
1.0
 40
1.0
 40
1.0
 10
25.70186212247184
 20
-6.091249063129274
 30
0.0
 10
25.87774889701879
 20
-6.203945955014452
 30
0.0
 10
26.07077219398392
 20
-6.308774775966222
 30
0.0
 10
26.44157064902935
 20
-6.463977509281751
 30
0.0
 10
26.61437097059448
 20
-6.51284181469624
 30
0.0
 10
26.75991585330696
 20
-6.53430715510219
 30
0.0
  0
SPLINE
  5
17E
330
1F
100
AcDbEntity
  8
0
  6
Continuous
 62
     1
370
    15
100
AcDbSpline
210
0.0
220
0.0
230
1.0
 70
     8
 71
     3
 72
    10
 73
     6
 74
     0
 42
0.000000001
 43
0.00000001
 40
0.0
 40
0.0
 40
0.0
 40
0.0
 40
0.5
 40
0.5
 40
1.0
 40
1.0
 40
1.0
 40
1.0
 10
26.75991585330695
 20
-6.534307155102182
 30
0.0
 10
26.79702635377088
 20
-6.539780308882976
 30
0.0
 10
26.84050821609842
 20
-6.551791176830917
 30
0.0
 10
26.93460393542645
 20
-6.588649471894755
 30
0.0
 10
26.98532790657029
 20
-6.613813576378858
 30
0.0
 10
27.02995552738061
 20
-6.643679905566853
 30
0.0
  0
SPLINE
  5
17F
330
1F
100
AcDbEntity
  8
0
  6
Continuous
 62
     1
370
    15
100
AcDbSpline
210
0.0
220
0.0
230
1.0
 70
     8
 71
     3
 72
     8
 73
     4
 74
     0
 42
0.000000001
 43
0.00000001
 40
0.0
 40
0.0
 40
0.0
 40
0.0
 40
1.0
 40
1.0
 40
1.0
 40
1.0
 10
27.0299555273806
 20
-6.643679905566861
 30
0.0
 10
27.16318006175474
 20
-6.732838317494007
 30
0.0
 10
27.30949693101199
 20
-6.81584620360997
 30
0.0
 10
27.45372312170037
 20
-6.881614812532383
 30
0.0
  0
SPLINE
  5
180
330
1F
100
AcDbEntity
  8
0
  6
Continuous
 62
     1
370
    15
100
AcDbSpline
210
0.0
220
0.0
230
1.0
 70
     8
 71
     3
 72
     8
 73
     4
 74
     0
 42
0.000000001
 43
0.00000001
 40
0.0
 40
0.0
 40
0.0
 40
0.0
 40
1.0
 40
1.0
 40
1.0
 40
1.0
 10
27.453723121701
 20
-6.881614812532366
 30
0.0
 10
27.60718019176715
 20
-6.934059610610172
 30
0.0
 10
27.75006430721709
 20
-6.96350018434106
 30
0.0
 10
27.87215064433357
 20
-6.97183944931809
 30
0.0
  0
SPLINE
  5
181
330
1F
100
AcDbEntity
  8
0
  6
Continuous
 62
     1
370
    15
100
AcDbSpline
210
0.0
220
0.0
230
1.0
 70
     8
 71
     3
 72
    10
 73
     6
 74
     0
 42
0.000000001
 43
0.00000001
 40
0.0
 40
0.0
 40
0.0
 40
0.0
 40
0.5
 40
0.5
 40
1.0
 40
1.0
 40
1.0
 40
1.0
 10
27.87215064433367
 20
-6.971839449318106
 30
0.0
 10
27.90904519921352
 20
-6.974359579552324
 30
0.0
 10
27.95239125807876
 20
-6.983975038778127
 30
0.0
 10
28.04638910270296
 20
-7.017700735223224
 30
0.0
 10
28.09718316958937
 20
-7.042180361465503
 30
0.0
 10
28.14212341638623
 20
-7.072748298226577
 30
0.0
  0
SPLINE
  5
182
330
1F
100
AcDbEntity
  8
0
  6
Continuous
 62
     1
370
    15
100
AcDbSpline
210
0.0
220
0.0
230
1.0
 70
     8
 71
     3
 72
    10
 73
     6
 74
     0
 42
0.000000001
 43
0.00000001
 40
0.0
 40
0.0
 40
0.0
 40
0.0
 40
0.5
 40
0.5
 40
1.0
 40
1.0
 40
1.0
 40
1.0
 10
28.14212341638623
 20
-7.072748298226584
 30
0.0
 10
28.31804368055411
 20
-7.192407621291347
 30
0.0
 10
28.51100440105348
 20
-7.292448694985824
 30
0.0
 10
28.8817755562773
 20
-7.423762821621981
 30
0.0
 10
29.05458852456536
 20
-7.453828319175276
 30
0.0
 10
29.20017556579904
 20
-7.451988949483468
 30
0.0
  0
SPLINE
  5
183
330
1F
100
AcDbEntity
  8
0
  6
Continuous
 62
     1
370
    15
100
AcDbSpline
210
0.0
220
0.0
230
1.0
 70
     8
 71
     3
 72
    10
 73
     6
 74
     0
 42
0.000000001
 43
0.00000001
 40
0.0
 40
0.0
 40
0.0
 40
0.0
 40
0.5
 40
0.5
 40
1.0
 40
1.0
 40
1.0
 40
1.0
 10
29.20017556579904
 20
-7.451988949483475
 30
0.0
 10
29.23729196059088
 20
-7.451520015084707
 30
0.0
 10
29.28077987037309
 20
-7.458676923635343
 30
0.0
 10
29.37488837768216
 20
-7.489301687892844
 30
0.0
 10
29.42562328672099
 20
-7.513200997261762
 30
0.0
 10
29.47026214483084
 20
-7.544548455434635
 30
0.0
  0
SPLINE
  5
184
330
1F
100
AcDbEntity
  8
0
  6
Continuous
 62
     1
370
    15
100
AcDbSpline
210
0.0
220
0.0
230
1.0
 70
     8
 71
     3
 72
     8
 73
     4
 74
     0
 42
0.000000001
 43
0.00000001
 40
0.0
 40
0.0
 40
0.0
 40
0.0
 40
1.0
 40
1.0
 40
1.0
 40
1.0
 10
29.47026214483084
 20
-7.544548455434638
 30
0.0
 10
29.60350085986155
 20
-7.638114805993011
 30
0.0
 10
29.74984072105644
 20
-7.718604095089631
 30
0.0
 10
29.89411058190926
 20
-7.777269994212862
 30
0.0
  0
SPLINE
  5
185
330
1F
100
AcDbEntity
  8
0
  6
Continuous
 62
     1
370
    15
100
AcDbSpline
210
0.0
220
0.0
230
1.0
 70
     8
 71
     3
 72
     8
 73
     4
 74
     0
 42
0.000000001
 43
0.00000001
 40
0.0
 40
0.0
 40
0.0
 40
0.0
 40
1.0
 40
1.0
 40
1.0
 40
1.0
 10
29.89411058190989
 20
-7.777269994212835
 30
0.0
 10
30.04761100234675
 20
-7.81699472190218
 30
0.0
 10
30.19056247690077
 20
-7.829343299759799
 30
0.0
 10
30.31272903649174
 20
-7.817733261433849
 30
0.0
  0
SPLINE
  5
186
330
1F
100
AcDbEntity
  8
0
  6
Continuous
 62
     1
370
    15
100
AcDbSpline
210
0.0
220
0.0
230
1.0
 70
     8
 71
     3
 72
    10
 73
     6
 74
     0
 42
0.000000001
 43
0.00000001
 40
0.0
 40
0.0
 40
0.0
 40
0.0
 40
0.5
 40
0.5
 40
1.0
 40
1.0
 40
1.0
 40
1.0
 10
30.31272903649183
 20
-7.817733261433851
 30
0.0
 10
30.34964519697339
 20
-7.814224952454101
 30
0.0
 10
30.39301396222553
 20
-7.81881158597513
 30
0.0
 10
30.48705826521279
 20
-7.845769051839467
 30
0.0
 10
30.53787603291482
 20
-7.868614086193517
 30
0.0
 10
30.58282953464951
 20
-7.900224302348237
 30
0.0
  0
SPLINE
  5
187
330
1F
100
AcDbEntity
  8
0
  6
Continuous
 62
     1
370
    15
100
AcDbSpline
210
0.0
220
0.0
230
1.0
 70
     8
 71
     3
 72
    10
 73
     6
 74
     0
 42
0.000000001
 43
0.00000001
 40
0.0
 40
0.0
 40
0.0
 40
0.0
 40
0.5
 40
0.5
 40
1.0
 40
1.0
 40
1.0
 40
1.0
 10
30.58282953464949
 20
-7.90022430234824
 30
0.0
 10
30.75892526184072
 20
-8.02405056249789
 30
0.0
 10
30.95212212844774
 20
-8.116815166955007
 30
0.0
 10
31.32305636602065
 20
-8.221231344514342
 30
0.0
 10
31.49579864586966
 20
-8.231924289902102
 30
0.0
 10
31.64146396416666
 20
-8.20689556735298
 30
0.0
  0
SPLINE
  5
188
330
1F
100
AcDbEntity
  8
0
  6
Continuous
 62
     1
370
    15
100
AcDbSpline
210
0.0
220
0.0
230
1.0
 70
     8
 71
     3
 72
    10
 73
     6
 74
     0
 42
0.000000001
 43
0.00000001
 40
0.0
 40
0.0
 40
0.0
 40
0.0
 40
0.5
 40
0.5
 40
1.0
 40
1.0
 40
1.0
 40
1.0
 10
31.64146396416666
 20
-8.206895567352987
 30
0.0
 10
31.6786105148755
 20
-8.200512917575963
 30
0.0
 10
31.72212647148592
 20
-8.202677407814248
 30
0.0
 10
31.81628128099189
 20
-8.22643062647967
 30
0.0
 10
31.86705033748764
 20
-8.248556561226149
 30
0.0
 10
31.91172871089814
 20
-8.280731755717493
 30
0.0
  0
SPLINE
  5
189
330
1F
100
AcDbEntity
  8
0
  6
Continuous
 62
     1
370
    15
100
AcDbSpline
210
0.0
220
0.0
230
1.0
 70
     8
 71
     3
 72
     8
 73
     4
 74
     0
 42
0.000000001
 43
0.00000001
 40
0.0
 40
0.0
 40
0.0
 40
0.0
 40
1.0
 40
1.0
 40
1.0
 40
1.0
 10
31.91172871089815
 20
-8.280731755717506
 30
0.0
 10
32.04502680259116
 20
-8.376726567035766
 30
0.0
 10
32.19147255679319
 20
-8.453013106269115
 30
0.0
 10
32.33580646071896
 20
-8.50335397828716
 30
0.0
  0
SPLINE
  5
18A
330
1F
100
AcDbEntity
  8
0
  6
Continuous
 62
     1
370
    15
100
AcDbSpline
210
0.0
220
0.0
230
1.0
 70
     8
 71
     3
 72
     8
 73
     4
 74
     0
 42
0.000000001
 43
0.00000001
 40
0.0
 40
0.0
 40
0.0
 40
0.0
 40
1.0
 40
1.0
 40
1.0
 40
1.0
 10
32.33580646071961
 20
-8.503353978287128
 30
0.0
 10
32.48941794856871
 20
-8.529569200612132
 30
0.0
 10
32.63251651168799
 20
-8.524646302323868
 30
0.0
 10
32.75483436908024
 20
-8.493384956737382
 30
0.0
  0
SPLINE
  5
18B
330
1F
100
AcDbEntity
  8
0
  6
Continuous
 62
     1
370
    15
100
AcDbSpline
210
0.0
220
0.0
230
1.0
 70
     8
 71
     3
 72
    10
 73
     6
 74
     0
 42
0.000000001
 43
0.00000001
 40
0.0
 40
0.0
 40
0.0
 40
0.0
 40
0.5
 40
0.5
 40
1.0
 40
1.0
 40
1.0
 40
1.0
 10
32.75483436908031
 20
-8.493384956737364
 30
0.0
 10
32.79177831289512
 20
-8.483943020624807
 30
0.0
 10
32.83517194152959
 20
-8.483418054157701
 30
0.0
 10
32.92926343453038
 20
-8.503058717529582
 30
0.0
 10
32.98010982745239
 20
-8.52379453471021
 30
0.0
 10
33.02508602127002
 20
-8.555792459132883
 30
0.0
  0
SPLINE
  5
18C
330
1F
100
AcDbEntity
  8
0
  6
Continuous
 62
     1
370
    15
100
AcDbSpline
210
0.0
220
0.0
230
1.0
 70
     8
 71
     3
 72
    10
 73
     6
 74
     0
 42
0.000000001
 43
0.00000001
 40
0.0
 40
0.0
 40
0.0
 40
0.0
 40
0.5
 40
0.5
 40
1.0
 40
1.0
 40
1.0
 40
1.0
 10
33.02508602127003
 20
-8.555792459132899
 30
0.0
 10
33.20116532535938
 20
-8.681062558410147
 30
0.0
 10
33.39437890797151
 20
-8.764537805005457
 30
0.0
 10
33.76542379810459
 20
-8.839436802624354
 30
0.0
 10
33.93824924432101
 20
-8.830225928838706
 30
0.0
 10
34.08384662059522
 20
-8.782405840480957
 30
0.0
  0
SPLINE
  5
18D
330
1F
100
AcDbEntity
  8
0
  6
Continuous
 62
     1
370
    15
100
AcDbSpline
210
0.0
220
0.0
230
1.0
 70
     8
 71
     3
 72
    10
 73
     6
 74
     0
 42
0.000000001
 43
0.00000001
 40
0.0
 40
0.0
 40
0.0
 40
0.0
 40
0.5
 40
0.5
 40
1.0
 40
1.0
 40
1.0
 40
1.0
 10
34.08384662059522
 20
-8.782405840480957
 30
0.0
 10
34.12098283314884
 20
-8.77020880087056
 30
0.0
 10
34.16448566336643
 20
-8.767301479483473
 30
0.0
 10
34.2586009643415
 20
-8.783623554281107
 30
0.0
 10
34.30934028479814
 20
-8.803479209422852
 30
0.0
 10
34.35399958049145
 20
-8.835751908549527
 30
0.0
  0
SPLINE
  5
18E
330
1F
100
AcDbEntity
  8
0
  6
Continuous
 62
     1
370
    15
100
AcDbSpline
210
0.0
220
0.0
230
1.0
 70
     8
 71
     3
 72
     8
 73
     4
 74
     0
 42
0.000000001
 43
0.00000001
 40
0.0
 40
0.0
 40
0.0
 40
0.0
 40
1.0
 40
1.0
 40
1.0
 40
1.0
 10
34.35399958049144
 20
-8.835751908549534
 30
0.0
 10
34.48724312777693
 20
-8.932039340882667
 30
0.0
 10
34.63360713691403
 20
-9.002429118296003
 30
0.0
 10
34.7778738050764
 20
-9.043343545122173
 30
0.0
  0
SPLINE
  5
18F
330
1F
100
AcDbEntity
  8
0
  6
Continuous
 62
     1
370
    15
100
AcDbSpline
210
0.0
220
0.0
230
1.0
 70
     8
 71
     3
 72
     8
 73
     4
 74
     0
 42
0.000000001
 43
0.00000001
 40
0.0
 40
0.0
 40
0.0
 40
0.0
 40
1.0
 40
1.0
 40
1.0
 40
1.0
 10
34.77787380507703
 20
-9.043343545122124
 30
0.0
 10
34.93132836694676
 20
-9.055442276677503
 30
0.0
 10
35.07428885371197
 20
-9.033313115906095
 30
0.0
 10
35.19646969337474
 20
-8.983063062918909
 30
0.0
  0
SPLINE
  5
190
330
1F
100
AcDbEntity
  8
0
  6
Continuous
 62
     1
370
    15
100
AcDbSpline
210
0.0
220
0.0
230
1.0
 70
     8
 71
     3
 72
    10
 73
     6
 74
     0
 42
0.000000001
 43
0.00000001
 40
0.0
 40
0.0
 40
0.0
 40
0.0
 40
0.5
 40
0.5
 40
1.0
 40
1.0
 40
1.0
 40
1.0
 10
35.19646969337484
 20
-8.983063062918871
 30
0.0
 10
35.23060996798114
 20
-8.969021985670594
 30
0.0
 10
35.27005802422521
 20
-8.963180587870081
 30
0.0
 10
35.35639061775863
 20
-8.97097233590732
 30
0.0
 10
35.40279104313379
 20
-8.984986031381595
 30
0.0
 10
35.44590894999639
 20
-9.010669971912572
 30
0.0
  0
LINE
  5
191
330
1F
100
AcDbEntity
  8
0
  6
Continuous
 62
     1
370
    15
100
AcDbLine
 10
37.39999985694886
 20
-8.33107996731997
 30
0.0
 11
37.39999985694886
 21
-7.814170792698865
 31
0.0
  0
SPLINE
  5
192
330
1F
100
AcDbEntity
  8
0
  6
Continuous
 62
     1
370
    15
100
AcDbSpline
210
0.0
220
0.0
230
1.0
 70
     8
 71
     3
 72
     8
 73
     4
 74
     0
 42
0.000000001
 43
0.00000001
 40
0.0001479082382277
 40
0.0001479082382277
 40
0.0001479082382277
 40
0.0001479082382277
 40
0.0002846736620256
 40
0.0002846736620256
 40
0.0002846736620256
 40
0.0002846736620256
 10
37.30373892862865
 20
-8.423088931242114
 30
0.0
 10
37.33577487621463
 20
-8.392150743231191
 30
0.0
 10
37.36786861728717
 20
-8.361468943464041
 30
0.0
 10
37.40000000000006
 20
-8.33107955786747
 30
0.0
  0
SPLINE
  5
193
330
1F
100
AcDbEntity
  8
0
  6
Continuous
 62
     1
370
    15
100
AcDbSpline
210
0.0
220
0.0
230
1.0
 70
     8
 71
     3
 72
     8
 73
     4
 74
     0
 42
0.000000001
 43
0.00000001
 40
0.0
 40
0.0
 40
0.0
 40
0.0
 40
1.0
 40
1.0
 40
1.0
 40
1.0
 10
37.30373892862865
 20
-8.423088931242107
 30
0.0
 10
37.19608967915056
 20
-8.490598313819293
 30
0.0
 10
37.08356639933843
 20
-8.544227350139895
 30
0.0
 10
36.9717540744224
 20
-8.582399524888157
 30
0.0
  0
SPLINE
  5
194
330
1F
100
AcDbEntity
  8
0
  6
Continuous
 62
     1
370
    15
100
AcDbSpline
210
0.0
220
0.0
230
1.0
 70
     8
 71
     3
 72
     8
 73
     4
 74
     0
 42
0.000000001
 43
0.00000001
 40
0.0
 40
0.0
 40
0.0
 40
0.0
 40
1.0
 40
1.0
 40
1.0
 40
1.0
 10
36.97175407442182
 20
-8.582399524888306
 30
0.0
 10
36.81834734247155
 20
-8.606865957620741
 30
0.0
 10
36.67543972665685
 20
-8.599737572148456
 30
0.0
 10
36.55330771432493
 20
-8.566005567644678
 30
0.0
  0
LINE
  5
195
330
1F
100
AcDbEntity
  8
0
  6
Continuous
 62
     1
370
    15
100
AcDbLine
 10
36.55330842733384
 20
-8.56600515544415
 30
0.0
 11
36.46473965048791
 21
-8.560161106288438
 31
0.0
  0
SPLINE
  5
196
330
1F
100
AcDbEntity
  8
0
  6
Continuous
 62
     1
370
    15
100
AcDbSpline
210
0.0
220
0.0
230
1.0
 70
     8
 71
     3
 72
     9
 73
     5
 74
     0
 42
0.000000001
 43
0.00000001
 40
0.0
 40
0.0
 40
0.0
 40
0.0
 40
0.043438171935727
 40
1.0
 40
1.0
 40
1.0
 40
1.0
 10
34.72715249657632
 20
-9.024889208376413
 30
0.0
 10
34.72436525190753
 20
-9.026361060738
 30
0.0
 10
34.66019946074768
 20
-9.060244907502204
 30
0.0
 10
34.59422890816136
 20
-9.07923829304904
 30
0.0
 10
34.53112399578094
 20
-9.097406640648847
 30
0.0
  0
SPLINE
  5
197
330
1F
100
AcDbEntity
  8
0
  6
Continuous
 62
     1
370
    15
100
AcDbSpline
210
0.0
220
0.0
230
1.0
 70
     8
 71
     3
 72
     8
 73
     4
 74
     0
 42
0.000000001
 43
0.00000001
 40
0.0
 40
0.0
 40
0.0
 40
0.0
 40
1.0
 40
1.0
 40
1.0
 40
1.0
 10
34.53112454002799
 20
-9.097406303517202
 30
0.0
 10
34.37760764764486
 20
-9.107735343289365
 30
0.0
 10
34.23467967442379
 20
-9.083542020678411
 30
0.0
 10
34.11245698491864
 20
-9.031022450357595
 30
0.0
  0
SPLINE
  5
198
330
1F
100
AcDbEntity
  8
0
  6
Continuous
 62
     1
370
    15
100
AcDbSpline
210
0.0
220
0.0
230
1.0
 70
     8
 71
     3
 72
    10
 73
     6
 74
     0
 42
0.000000001
 43
0.00000001
 40
0.0
 40
0.0
 40
0.0
 40
0.0
 40
0.5
 40
0.5
 40
1.0
 40
1.0
 40
1.0
 40
1.0
 10
34.11245698491863
 20
-9.031022450357591
 30
0.0
 10
34.07554116954883
 20
-9.015159579321834
 30
0.0
 10
34.03217367387284
 20
-9.008915758042724
 30
0.0
 10
33.93812468685912
 20
-9.019852828455008
 30
0.0
 10
33.88729134168058
 20
-9.037694707161279
 30
0.0
 10
33.84231841589385
 20
-9.069309073301724
 30
0.0
  0
SPLINE
  5
199
330
1F
100
AcDbEntity
  8
0
  6
Continuous
 62
     1
370
    15
100
AcDbSpline
210
0.0
220
0.0
230
1.0
 70
     8
 71
     3
 72
    10
 73
     6
 74
     0
 42
0.000000001
 43
0.00000001
 40
0.0
 40
0.0
 40
0.0
 40
0.0
 40
0.5
 40
0.5
 40
1.0
 40
1.0
 40
1.0
 40
1.0
 10
33.84231841589385
 20
-9.069309073301724
 30
0.0
 10
33.66628970193878
 20
-9.193050993954104
 30
0.0
 10
33.47312121889109
 20
-9.263998751001067
 30
0.0
 10
33.10205352929213
 20
-9.303928264330576
 30
0.0
 10
32.92912986602008
 20
-9.272646328985456
 30
0.0
 10
32.78340581082833
 20
-9.200396627243826
 30
0.0
  0
SPLINE
  5
19A
330
1F
100
AcDbEntity
  8
0
  6
Continuous
 62
     1
370
    15
100
AcDbSpline
210
0.0
220
0.0
230
1.0
 70
     8
 71
     3
 72
    10
 73
     6
 74
     0
 42
0.000000001
 43
0.00000001
 40
0.0
 40
0.0
 40
0.0
 40
0.0
 40
0.5
 40
0.5
 40
1.0
 40
1.0
 40
1.0
 40
1.0
 10
32.78340581082833
 20
-9.200396627243828
 30
0.0
 10
32.74623944553203
 20
-9.181969615972797
 30
0.0
 10
32.70270338432748
 20
-9.173412208573438
 30
0.0
 10
32.60851797798588
 20
-9.180883458971456
 30
0.0
 10
32.55774242287327
 20
-9.1976252937729
 30
0.0
 10
32.51306433212264
 20
-9.229119924199269
 30
0.0
  0
SPLINE
  5
19B
330
1F
100
AcDbEntity
  8
0
  6
Continuous
 62
     1
370
    15
100
AcDbSpline
210
0.0
220
0.0
230
1.0
 70
     8
 71
     3
 72
     8
 73
     4
 74
     0
 42
0.000000001
 43
0.00000001
 40
0.0
 40
0.0
 40
0.0
 40
0.0
 40
1.0
 40
1.0
 40
1.0
 40
1.0
 10
32.51306433212253
 20
-9.229119924199347
 30
0.0
 10
32.37974203861064
 20
-9.323101925023556
 30
0.0
 10
32.23327514492688
 20
-9.384901657823416
 30
0.0
 10
32.0889591168341
 20
-9.414073819561386
 30
0.0
  0
SPLINE
  5
19C
330
1F
100
AcDbEntity
  8
0
  6
Continuous
 62
     1
370
    15
100
AcDbSpline
210
0.0
220
0.0
230
1.0
 70
     8
 71
     3
 72
     8
 73
     4
 74
     0
 42
0.000000001
 43
0.00000001
 40
0.0
 40
0.0
 40
0.0
 40
0.0
 40
1.0
 40
1.0
 40
1.0
 40
1.0
 10
32.08895911683356
 20
-9.414073819561466
 30
0.0
 10
31.93534974584797
 20
-9.409938368119136
 30
0.0
 10
31.79230430594415
 20
-9.369033939601847
 30
0.0
 10
31.67005326883797
 20
-9.298795533932346
 30
0.0
  0
SPLINE
  5
19D
330
1F
100
AcDbEntity
  8
0
  6
Continuous
 62
     1
370
    15
100
AcDbSpline
210
0.0
220
0.0
230
1.0
 70
     8
 71
     3
 72
    10
 73
     6
 74
     0
 42
0.000000001
 43
0.00000001
 40
0.0
 40
0.0
 40
0.0
 40
0.0
 40
0.5
 40
0.5
 40
1.0
 40
1.0
 40
1.0
 40
1.0
 10
31.67005326883799
 20
-9.298795533932346
 30
0.0
 10
31.63312035451311
 20
-9.277576008271767
 30
0.0
 10
31.58973928041517
 20
-9.266377229872136
 30
0.0
 10
31.49568329184718
 20
-9.269295315402607
 30
0.0
 10
31.44485535244906
 20
-9.284135239053967
 30
0.0
 10
31.39988208073118
 20
-9.314661563682495
 30
0.0
  0
SPLINE
  5
19E
330
1F
100
AcDbEntity
  8
0
  6
Continuous
 62
     1
370
    15
100
AcDbSpline
210
0.0
220
0.0
230
1.0
 70
     8
 71
     3
 72
    10
 73
     6
 74
     0
 42
0.000000001
 43
0.00000001
 40
0.0
 40
0.0
 40
0.0
 40
0.0
 40
0.5
 40
0.5
 40
1.0
 40
1.0
 40
1.0
 40
1.0
 10
31.39988208073118
 20
-9.314661563682506
 30
0.0
 10
31.22387876682304
 20
-9.434126616831467
 30
0.0
 10
31.03083666189626
 20
-9.492287938436556
 30
0.0
 10
30.65991790200003
 20
-9.500322913129986
 30
0.0
 10
30.48701685856268
 20
-9.450235647292466
 30
0.0
 10
30.34135504407662
 20
-9.357940948918197
 30
0.0
  0
SPLINE
  5
19F
330
1F
100
AcDbEntity
  8
0
  6
Continuous
 62
     1
370
    15
100
AcDbSpline
210
0.0
220
0.0
230
1.0
 70
     8
 71
     3
 72
    10
 73
     6
 74
     0
 42
0.000000001
 43
0.00000001
 40
0.0
 40
0.0
 40
0.0
 40
0.0
 40
0.5
 40
0.5
 40
1.0
 40
1.0
 40
1.0
 40
1.0
 10
30.34135504407662
 20
-9.357940948918186
 30
0.0
 10
30.30422943458934
 20
-9.334417303124816
 30
0.0
 10
30.26073402976873
 20
-9.321050874175727
 30
0.0
 10
30.16661283849836
 20
-9.320524851721746
 30
0.0
 10
30.11587024526234
 20
-9.334142412389957
 30
0.0
 10
30.07122459559212
 20
-9.364230195079177
 30
0.0
  0
SPLINE
  5
1A0
330
1F
100
AcDbEntity
  8
0
  6
Continuous
 62
     1
370
    15
100
AcDbSpline
210
0.0
220
0.0
230
1.0
 70
     8
 71
     3
 72
     8
 73
     4
 74
     0
 42
0.000000001
 43
0.00000001
 40
0.0
 40
0.0
 40
0.0
 40
0.0
 40
1.0
 40
1.0
 40
1.0
 40
1.0
 10
30.07122459559201
 20
-9.364230195079257
 30
0.0
 10
29.93798080831013
 20
-9.454026404699626
 30
0.0
 10
29.79163739669477
 20
-9.506812676102287
 30
0.0
 10
29.64736421903026
 20
-9.524893385346695
 30
0.0
  0
SPLINE
  5
1A1
330
1F
100
AcDbEntity
  8
0
  6
Continuous
 62
     1
370
    15
100
AcDbSpline
210
0.0
220
0.0
230
1.0
 70
     8
 71
     3
 72
     8
 73
     4
 74
     0
 42
0.000000001
 43
0.00000001
 40
0.0
 40
0.0
 40
0.0
 40
0.0
 40
1.0
 40
1.0
 40
1.0
 40
1.0
 10
29.64736421902969
 20
-9.524893385346747
 30
0.0
 10
29.49388625303643
 20
-9.506425322896407
 30
0.0
 10
29.350954130075
 20
-9.449759528533257
 30
0.0
 10
29.22882133362041
 20
-9.363340758754767
 30
0.0
  0
SPLINE
  5
1A2
330
1F
100
AcDbEntity
  8
0
  6
Continuous
 62
     1
370
    15
100
AcDbSpline
210
0.0
220
0.0
230
1.0
 70
     8
 71
     3
 72
    10
 73
     6
 74
     0
 42
0.000000001
 43
0.00000001
 40
0.0
 40
0.0
 40
0.0
 40
0.0
 40
0.5
 40
0.5
 40
1.0
 40
1.0
 40
1.0
 40
1.0
 10
29.22882133362041
 20
-9.363340758754756
 30
0.0
 10
29.19192027094728
 20
-9.337230291031897
 30
0.0
 10
29.1485671224825
 20
-9.321320085050996
 30
0.0
 10
29.05454866629669
 20
-9.316156853674887
 30
0.0
 10
29.00374520299657
 20
-9.327681216180757
 30
0.0
 10
28.95880618187522
 20
-9.356428467147826
 30
0.0
  0
SPLINE
  5
1A3
330
1F
100
AcDbEntity
  8
0
  6
Continuous
 62
     1
370
    15
100
AcDbSpline
210
0.0
220
0.0
230
1.0
 70
     8
 71
     3
 72
    10
 73
     6
 74
     0
 42
0.000000001
 43
0.00000001
 40
0.0
 40
0.0
 40
0.0
 40
0.0
 40
0.5
 40
0.5
 40
1.0
 40
1.0
 40
1.0
 40
1.0
 10
28.95880618187522
 20
-9.356428467147847
 30
0.0
 10
28.78281491157817
 20
-9.469009139556846
 30
0.0
 10
28.58972709281551
 20
-9.513092230892216
 30
0.0
 10
28.21899717423137
 20
-9.488894237643326
 30
0.0
 10
28.04633911591375
 20
-9.421064385580387
 30
0.0
 10
27.900807046055
 20
-9.310831993065426
 30
0.0
  0
SPLINE
  5
1A4
330
1F
100
AcDbEntity
  8
0
  6
Continuous
 62
     1
370
    15
100
AcDbSpline
210
0.0
220
0.0
230
1.0
 70
     8
 71
     3
 72
    10
 73
     6
 74
     0
 42
0.000000001
 43
0.00000001
 40
0.0
 40
0.0
 40
0.0
 40
0.0
 40
0.5
 40
0.5
 40
1.0
 40
1.0
 40
1.0
 40
1.0
 10
27.900807046055
 20
-9.310831993065417
 30
0.0
 10
27.86370413710071
 20
-9.282728617450246
 30
0.0
 10
27.82023070023357
 20
-9.264850118266336
 30
0.0
 10
27.72614632941807
 20
-9.256338425595976
 30
0.0
 10
27.67541783047345
 20
-9.266526569642707
 30
0.0
 10
27.63077964407358
 20
-9.294559713668006
 30
0.0
  0
SPLINE
  5
1A5
330
1F
100
AcDbEntity
  8
0
  6
Continuous
 62
     1
370
    15
100
AcDbSpline
210
0.0
220
0.0
230
1.0
 70
     8
 71
     3
 72
     8
 73
     4
 74
     0
 42
0.000000001
 43
0.00000001
 40
0.0
 40
0.0
 40
0.0
 40
0.0
 40
1.0
 40
1.0
 40
1.0
 40
1.0
 10
27.63077964407347
 20
-9.294559713668077
 30
0.0
 10
27.49756930867833
 20
-9.378216887468446
 30
0.0
 10
27.35126660888659
 20
-9.420848690860897
 30
0.0
 10
27.20701597030158
 20
-9.427455935142635
 30
0.0
  0
SPLINE
  5
1A6
330
1F
100
AcDbEntity
  8
0
  6
Continuous
 62
     1
370
    15
100
AcDbSpline
210
0.0
220
0.0
230
1.0
 70
     8
 71
     3
 72
     8
 73
     4
 74
     0
 42
0.000000001
 43
0.00000001
 40
0.0
 40
0.0
 40
0.0
 40
0.0
 40
1.0
 40
1.0
 40
1.0
 40
1.0
 10
27.20701597030103
 20
-9.427455935142657
 30
0.0
 10
27.0535889740377
 20
-9.395089241451316
 30
0.0
 10
26.91068648665285
 20
-9.323939551658606
 30
0.0
 10
26.78857400177229
 20
-9.223259609794903
 30
0.0
  0
SPLINE
  5
1A7
330
1F
100
AcDbEntity
  8
0
  6
Continuous
 62
     1
370
    15
100
AcDbSpline
210
0.0
220
0.0
230
1.0
 70
     8
 71
     3
 72
    10
 73
     6
 74
     0
 42
0.000000001
 43
0.00000001
 40
0.0
 40
0.0
 40
0.0
 40
0.0
 40
0.4999999999999931
 40
0.4999999999999931
 40
1.0
 40
1.0
 40
1.0
 40
1.0
 10
26.78857400177229
 20
-9.2232596097949
 30
0.0
 10
26.75168001616665
 20
-9.19284106307931
 30
0.0
 10
26.70833229904782
 20
-9.172579083387923
 30
0.0
 10
26.61431735543882
 20
-9.159466112403015
 30
0.0
 10
26.56351542559759
 20
-9.16742827503683
 30
0.0
 10
26.51858220938067
 20
-9.193793976778837
 30
0.0
  0
SPLINE
  5
1A8
330
1F
100
AcDbEntity
  8
0
  6
Continuous
 62
     1
370
    15
100
AcDbSpline
210
0.0
220
0.0
230
1.0
 70
     8
 71
     3
 72
    10
 73
     6
 74
     0
 42
0.000000001
 43
0.00000001
 40
0.0
 40
0.0
 40
0.0
 40
0.0
 40
0.5
 40
0.5
 40
1.0
 40
1.0
 40
1.0
 40
1.0
 10
26.51858220938067
 20
-9.193793976778846
 30
0.0
 10
26.34262421665876
 20
-9.297041781984527
 30
0.0
 10
26.1495229057713
 20
-9.326149862925407
 30
0.0
 10
25.7786899884943
 20
-9.270385632662165
 30
0.0
 10
25.60598647676234
 20
-9.186279845088356
 30
0.0
 10
25.46050248110928
 20
-9.060550902487485
 30
0.0
  0
SPLINE
  5
1A9
330
1F
100
AcDbEntity
  8
0
  6
Continuous
 62
     1
370
    15
100
AcDbSpline
210
0.0
220
0.0
230
1.0
 70
     8
 71
     3
 72
    10
 73
     6
 74
     0
 42
0.000000001
 43
0.00000001
 40
0.0
 40
0.0
 40
0.0
 40
0.0
 40
0.5
 40
0.5
 40
1.0
 40
1.0
 40
1.0
 40
1.0
 10
25.46050248110927
 20
-9.060550902487485
 30
0.0
 10
25.42338385277062
 20
-9.028472556887587
 30
0.0
 10
25.37989633701923
 20
-9.006469426606573
 30
0.0
 10
25.28580702553139
 20
-8.990142079363814
 30
0.0
 10
25.23508351028201
 20
-8.996656488770798
 30
0.0
 10
25.19043766432759
 20
-9.022007531682014
 30
0.0
  0
SPLINE
  5
1AA
330
1F
100
AcDbEntity
  8
0
  6
Continuous
 62
     1
370
    15
100
AcDbSpline
210
0.0
220
0.0
230
1.0
 70
     8
 71
     3
 72
     8
 73
     4
 74
     0
 42
0.000000001
 43
0.00000001
 40
0.0
 40
0.0
 40
0.0
 40
0.0
 40
1.0
 40
1.0
 40
1.0
 40
1.0
 10
25.19043766432749
 20
-9.02200753168209
 30
0.0
 10
25.0572152888397
 20
-9.097654573092635
 30
0.0
 10
24.91087008920398
 20
-9.129139580553817
 30
0.0
 10
24.76662120993033
 20
-9.124084599243178
 30
0.0
  0
SPLINE
  5
1AB
330
1F
100
AcDbEntity
  8
0
  6
Continuous
 62
     1
370
    15
100
AcDbSpline
210
0.0
220
0.0
230
1.0
 70
     8
 71
     3
 72
     8
 73
     4
 74
     0
 42
0.000000001
 43
0.00000001
 40
0.0
 40
0.0
 40
0.0
 40
0.0
 40
1.0
 40
1.0
 40
1.0
 40
1.0
 10
24.76662120992981
 20
-9.124084599243185
 30
0.0
 10
24.61316460096174
 20
-9.078480621645518
 30
0.0
 10
24.47020749273881
 20
-8.994367671184108
 30
0.0
 10
24.34801674679792
 20
-8.881588181300485
 30
0.0
  0
SPLINE
  5
1AC
330
1F
100
AcDbEntity
  8
0
  6
Continuous
 62
     1
370
    15
100
AcDbSpline
210
0.0
220
0.0
230
1.0
 70
     8
 71
     3
 72
    10
 73
     6
 74
     0
 42
0.000000001
 43
0.00000001
 40
0.0
 40
0.0
 40
0.0
 40
0.0
 40
0.5
 40
0.5
 40
1.0
 40
1.0
 40
1.0
 40
1.0
 10
24.34801674679793
 20
-8.881588181300483
 30
0.0
 10
24.31110505228839
 20
-8.847519463203458
 30
0.0
 10
24.26774025975213
 20
-8.823339656920469
 30
0.0
 10
24.17369477925035
 20
-8.802539695963084
 30
0.0
 10
24.1228713391844
 20
-8.806745804548587
 30
0.0
 10
24.07791546997793
 20
-8.830158153051975
 30
0.0
  0
SPLINE
  5
1AD
330
1F
100
AcDbEntity
  8
0
  6
Continuous
 62
     1
370
    15
100
AcDbSpline
210
0.0
220
0.0
230
1.0
 70
     8
 71
     3
 72
    10
 73
     6
 74
     0
 42
0.000000001
 43
0.00000001
 40
0.0
 40
0.0
 40
0.0
 40
0.0
 40
0.5
 40
0.5
 40
1.0
 40
1.0
 40
1.0
 40
1.0
 10
24.07791546997794
 20
-8.830158153051961
 30
0.0
 10
23.90190284249057
 20
-8.921822913370706
 30
0.0
 10
23.70873441207295
 20
-8.935265583266474
 30
0.0
 10
23.33771362439183
 20
-8.84915427665908
 30
0.0
 10
23.16486596530051
 20
-8.750659499426444
 30
0.0
 10
23.01922203356044
 20
-8.612143849418684
 30
0.0
  0
SPLINE
  5
1AE
330
1F
100
AcDbEntity
  8
0
  6
Continuous
 62
     1
370
    15
100
AcDbSpline
210
0.0
220
0.0
230
1.0
 70
     8
 71
     3
 72
    10
 73
     6
 74
     0
 42
0.000000001
 43
0.00000001
 40
0.0
 40
0.0
 40
0.0
 40
0.0
 40
0.5
 40
0.5
 40
1.0
 40
1.0
 40
1.0
 40
1.0
 10
23.01922203356044
 20
-8.612143849418677
 30
0.0
 10
22.98206729516488
 20
-8.576807583236885
 30
0.0
 10
22.93854316588883
 20
-8.551170757693162
 30
0.0
 10
22.84438372851973
 20
-8.527418340236302
 30
0.0
 10
22.79362322562009
 20
-8.53014978137961
 30
0.0
 10
22.74895381808104
 20
-8.552293802976308
 30
0.0
  0
SPLINE
  5
1AF
330
1F
100
AcDbEntity
  8
0
  6
Continuous
 62
     1
370
    15
100
AcDbSpline
210
0.0
220
0.0
230
1.0
 70
     8
 71
     3
 72
     8
 73
     4
 74
     0
 42
0.000000001
 43
0.00000001
 40
0.0
 40
0.0
 40
0.0
 40
0.0
 40
1.0
 40
1.0
 40
1.0
 40
1.0
 10
22.74895381808093
 20
-8.552293802976394
 30
0.0
 10
22.61562046342527
 20
-8.618391314622864
 30
0.0
 10
22.46916505276427
 20
-8.638044444363668
 30
0.0
 10
22.32489295025146
 20
-8.621403464108093
 30
0.0
  0
SPLINE
  5
1B0
330
1F
100
AcDbEntity
  8
0
  6
Continuous
 62
     1
370
    15
100
AcDbSpline
210
0.0
220
0.0
230
1.0
 70
     8
 71
     3
 72
     8
 73
     4
 74
     0
 42
0.000000001
 43
0.00000001
 40
0.0
 40
0.0
 40
0.0
 40
0.0
 40
1.0
 40
1.0
 40
1.0
 40
1.0
 10
22.3248929502509
 20
-8.621403464108035
 30
0.0
 10
22.17127487602631
 20
-8.563491679338785
 30
0.0
 10
22.02823088982747
 20
-8.46814673219145
 30
0.0
 10
21.90589839065113
 20
-8.345628369208722
 30
0.0
  0
SPLINE
  5
1B1
330
1F
100
AcDbEntity
  8
0
  6
Continuous
 62
     1
370
    15
100
AcDbSpline
210
0.0
220
0.0
230
1.0
 70
     8
 71
     3
 72
    10
 73
     6
 74
     0
 42
0.000000001
 43
0.00000001
 40
0.0
 40
0.0
 40
0.0
 40
0.0
 40
0.5
 40
0.5
 40
1.0
 40
1.0
 40
1.0
 40
1.0
 10
21.90589839065113
 20
-8.345628369208715
 30
0.0
 10
21.86896204272928
 20
-8.308635902673531
 30
0.0
 10
21.8255772917881
 20
-8.281041256085476
 30
0.0
 10
21.73149915953753
 20
-8.252953934017269
 30
0.0
 10
21.68064846208866
 20
-8.25327894812093
 30
0.0
 10
21.63565971238269
 20
-8.273208836585646
 30
0.0
  0
SPLINE
  5
1B2
330
1F
100
AcDbEntity
  8
0
  6
Continuous
 62
     1
370
    15
100
AcDbSpline
210
0.0
220
0.0
230
1.0
 70
     8
 71
     3
 72
    10
 73
     6
 74
     0
 42
0.000000001
 43
0.00000001
 40
0.0
 40
0.0
 40
0.0
 40
0.0
 40
0.5
 40
0.5
 40
1.0
 40
1.0
 40
1.0
 40
1.0
 10
21.63565971238268
 20
-8.273208836585637
 30
0.0
 10
21.45964482510618
 20
-8.351182932209058
 30
0.0
 10
21.26649919546824
 20
-8.348620818754075
 30
0.0
 10
20.89547319056431
 20
-8.234022672693877
 30
0.0
 10
20.72255175178196
 20
-8.12328662251363
 30
0.0
 10
20.57687945098299
 20
-7.974950528306101
 30
0.0
  0
SPLINE
  5
1B3
330
1F
100
AcDbEntity
  8
0
  6
Continuous
 62
     1
370
    15
100
AcDbSpline
210
0.0
220
0.0
230
1.0
 70
     8
 71
     3
 72
    10
 73
     6
 74
     0
 42
0.000000001
 43
0.00000001
 40
0.0
 40
0.0
 40
0.0
 40
0.0
 40
0.5
 40
0.5
 40
1.0
 40
1.0
 40
1.0
 40
1.0
 10
20.576879450983
 20
-7.974950528306096
 30
0.0
 10
20.53974258309789
 20
-7.937134568079179
 30
0.0
 10
20.49623654207837
 20
-7.908428043907064
 30
0.0
 10
20.40210065728435
 20
-7.877782120526428
 30
0.0
 10
20.35135318783557
 20
-7.87668492114263
 30
0.0
 10
20.30670301898904
 20
-7.895134534610886
 30
0.0
  0
SPLINE
  5
1B4
330
1F
100
AcDbEntity
  8
0
  6
Continuous
 62
     1
370
    15
100
AcDbSpline
210
0.0
220
0.0
230
1.0
 70
     8
 71
     3
 72
     8
 73
     4
 74
     0
 42
0.000000001
 43
0.00000001
 40
0.0
 40
0.0
 40
0.0
 40
0.0
 40
1.0
 40
1.0
 40
1.0
 40
1.0
 10
20.30670301898892
 20
-7.895134534610939
 30
0.0
 10
20.17343103905365
 20
-7.950203005335045
 30
0.0
 10
20.02706828585619
 20
-7.957740118941198
 30
0.0
 10
19.88280113059861
 20
-7.930034554134402
 30
0.0
  0
SPLINE
  5
1B5
330
1F
100
AcDbEntity
  8
0
  6
Continuous
 62
     1
370
    15
100
AcDbSpline
210
0.0
220
0.0
230
1.0
 70
     8
 71
     3
 72
     8
 73
     4
 74
     0
 42
0.000000001
 43
0.00000001
 40
0.0
 40
0.0
 40
0.0
 40
0.0
 40
1.0
 40
1.0
 40
1.0
 40
1.0
 10
19.88280113059808
 20
-7.930034554134322
 30
0.0
 10
19.72928971360309
 20
-7.861287443003356
 30
0.0
 10
19.58634761445253
 20
-7.757005116041956
 30
0.0
 10
19.46420531736424
 20
-7.627640369463007
 30
0.0
  0
SPLINE
  5
1B6
330
1F
100
AcDbEntity
  8
0
  6
Continuous
 62
     1
370
    15
100
AcDbSpline
210
0.0
220
0.0
230
1.0
 70
     8
 71
     3
 72
    10
 73
     6
 74
     0
 42
0.000000001
 43
0.00000001
 40
0.0
 40
0.0
 40
0.0
 40
0.0
 40
0.5
 40
0.5
 40
1.0
 40
1.0
 40
1.0
 40
1.0
 10
19.46420531736423
 20
-7.627640369463009
 30
0.0
 10
19.42729941056971
 20
-7.588552163382452
 30
0.0
 10
19.3839434853844
 20
-7.558180630588952
 30
0.0
 10
19.28992954327343
 20
-7.523488105434744
 30
0.0
 10
19.23912577430944
 20
-7.519964097835432
 30
0.0
 10
19.1941758190287
 20
-7.53595063821987
 30
0.0
  0
SPLINE
  5
1B7
330
1F
100
AcDbEntity
  8
0
  6
Continuous
 62
     1
370
    15
100
AcDbSpline
210
0.0
220
0.0
230
1.0
 70
     8
 71
     3
 72
    10
 73
     6
 74
     0
 42
0.000000001
 43
0.00000001
 40
0.0
 40
0.0
 40
0.0
 40
0.0
 40
0.4999999999999991
 40
0.4999999999999991
 40
1.0
 40
1.0
 40
1.0
 40
1.0
 10
19.19417581902872
 20
-7.535950638219875
 30
0.0
 10
19.01825236392881
 20
-7.598518162524611
 30
0.0
 10
18.8252806879524
 20
-7.579919307662298
 30
0.0
 10
18.45449852421447
 20
-7.439214938617866
 30
0.0
 10
18.28167051926585
 20
-7.318615659790579
 30
0.0
 10
18.13608675610093
 20
-7.163738303829349
 30
0.0
  0
SPLINE
  5
1B8
330
1F
100
AcDbEntity
  8
0
  6
Continuous
 62
     1
370
    15
100
AcDbSpline
210
0.0
220
0.0
230
1.0
 70
     8
 71
     3
 72
    10
 73
     6
 74
     0
 42
0.000000001
 43
0.00000001
 40
0.0
 40
0.0
 40
0.0
 40
0.0
 40
0.5
 40
0.5
 40
1.0
 40
1.0
 40
1.0
 40
1.0
 10
18.13608675610095
 20
-7.163738303829384
 30
0.0
 10
18.09897697308301
 20
-7.124259553251949
 30
0.0
 10
18.05549607766636
 20
-7.093104306191582
 30
0.0
 10
17.9613991224142
 20
-7.056217299611191
 30
0.0
 10
17.91067084454234
 20
-7.05130235990455
 30
0.0
 10
17.86603891859787
 20
-7.065646299236984
 30
0.0
  0
SPLINE
  5
1B9
330
1F
100
AcDbEntity
  8
0
  6
Continuous
 62
     1
370
    15
100
AcDbSpline
210
0.0
220
0.0
230
1.0
 70
     8
 71
     3
 72
     8
 73
     4
 74
     0
 42
0.000000001
 43
0.00000001
 40
0.0
 40
0.0
 40
0.0
 40
0.0
 40
1.0
 40
1.0
 40
1.0
 40
1.0
 10
17.86603891859775
 20
-7.065646299237054
 30
0.0
 10
17.7328232810257
 20
-7.108459531761227
 30
0.0
 10
17.58650748629292
 20
-7.103678705056128
 30
0.0
 10
17.44225994778839
 20
-7.065488292356186
 30
0.0
  0
SPLINE
  5
1BA
330
1F
100
AcDbEntity
  8
0
  6
Continuous
 62
     1
370
    15
100
AcDbSpline
210
0.0
220
0.0
230
1.0
 70
     8
 71
     3
 72
     8
 73
     4
 74
     0
 42
0.000000001
 43
0.00000001
 40
0.0
 40
0.0
 40
0.0
 40
0.0
 40
1.0
 40
1.0
 40
1.0
 40
1.0
 10
17.44225994778783
 20
-7.065488292356059
 30
0.0
 10
17.28881440462923
 20
-6.987380902130035
 30
0.0
 10
17.14591789513321
 20
-6.876448658363879
 30
0.0
 10
17.02381955303629
 20
-6.743075296726052
 30
0.0
  0
SPLINE
  5
1BB
330
1F
100
AcDbEntity
  8
0
  6
Continuous
 62
     1
370
    15
100
AcDbSpline
210
0.0
220
0.0
230
1.0
 70
     8
 71
     3
 72
    10
 73
     6
 74
     0
 42
0.000000001
 43
0.00000001
 40
0.0
 40
0.0
 40
0.0
 40
0.0
 40
0.5
 40
0.5
 40
1.0
 40
1.0
 40
1.0
 40
1.0
 10
17.02381955303629
 20
-6.743075296726052
 30
0.0
 10
16.98692541540578
 20
-6.702774215843215
 30
0.0
 10
16.94357836454348
 20
-6.670316388550487
 30
0.0
 10
16.84957023332118
 20
-6.629851950241451
 30
0.0
 10
16.79877285201793
 20
-6.62261190254734
 30
0.0
 10
16.75383945799204
 20
-6.634377403327744
 30
0.0
  0
SPLINE
  5
1BC
330
1F
100
AcDbEntity
  8
0
  6
Continuous
 62
     1
370
    15
100
AcDbSpline
210
0.0
220
0.0
230
1.0
 70
     8
 71
     3
 72
    10
 73
     6
 74
     0
 42
0.000000001
 43
0.00000001
 40
0.0
 40
0.0
 40
0.0
 40
0.0
 40
0.5
 40
0.5
 40
1.0
 40
1.0
 40
1.0
 40
1.0
 10
16.75383945799203
 20
-6.634377403327719
 30
0.0
 10
16.57785436770712
 20
-6.680457891169219
 30
0.0
 10
16.38477151405068
 20
-6.646437189709999
 30
0.0
 10
16.01405253271097
 20
-6.482527357624825
 30
0.0
 10
15.84139828158127
 20
-6.354559231987603
 30
0.0
 10
15.69586319356898
 20
-6.19647469261445
 30
0.0
  0
SPLINE
  5
1BD
330
1F
100
AcDbEntity
  8
0
  6
Continuous
 62
     1
370
    15
100
AcDbSpline
210
0.0
220
0.0
230
1.0
 70
     8
 71
     3
 72
    10
 73
     6
 74
     0
 42
0.000000001
 43
0.00000001
 40
0.0
 40
0.0
 40
0.0
 40
0.0
 40
0.5
 40
0.5
 40
1.0
 40
1.0
 40
1.0
 40
1.0
 10
15.69586319356898
 20
-6.196474692614453
 30
0.0
 10
15.6587561780636
 20
-6.156167949176849
 30
0.0
 10
15.61527835747413
 20
-6.123212797670798
 30
0.0
 10
15.52118676751431
 20
-6.080819990342127
 30
0.0
 10
15.47045441236165
 20
-6.07214852573729
 30
0.0
 10
15.42581239853413
 20
-6.082051490225393
 30
0.0
  0
SPLINE
  5
1BE
330
1F
100
AcDbEntity
  8
0
  6
Continuous
 62
     1
370
    15
100
AcDbSpline
210
0.0
220
0.0
230
1.0
 70
     8
 71
     3
 72
     8
 73
     4
 74
     0
 42
0.000000001
 43
0.00000001
 40
0.0
 40
0.0
 40
0.0
 40
0.0
 40
1.0
 40
1.0
 40
1.0
 40
1.0
 10
15.425812398534
 20
-6.082051490225438
 30
0.0
 10
15.29258814002999
 20
-6.111604706754036
 30
0.0
 10
15.14627066845796
 20
-6.094497574436702
 30
0.0
 10
15.0020069621748
 20
-6.046570994114774
 30
0.0
  0
SPLINE
  5
1BF
330
1F
100
AcDbEntity
  8
0
  6
Continuous
 62
     1
370
    15
100
AcDbSpline
210
0.0
220
0.0
230
1.0
 70
     8
 71
     3
 72
     8
 73
     4
 74
     0
 42
0.000000001
 43
0.00000001
 40
0.0
 40
0.0
 40
0.0
 40
0.0
 40
1.0
 40
1.0
 40
1.0
 40
1.0
 10
15.00200696217425
 20
-6.046570994114611
 30
0.0
 10
14.84854643178176
 20
-5.960709263058262
 30
0.0
 10
14.70561135249918
 20
-5.845461583709536
 30
0.0
 10
14.58345856520308
 20
-5.710903865986827
 30
0.0
  0
SPLINE
  5
1C0
330
1F
100
AcDbEntity
  8
0
  6
Continuous
 62
     1
370
    15
100
AcDbSpline
210
0.0
220
0.0
230
1.0
 70
     8
 71
     3
 72
    10
 73
     6
 74
     0
 42
0.000000001
 43
0.00000001
 40
0.0
 40
0.0
 40
0.0
 40
0.0
 40
0.5
 40
0.5
 40
1.0
 40
1.0
 40
1.0
 40
1.0
 10
14.58345856520308
 20
-5.710903865986828
 30
0.0
 10
14.54655135693248
 20
-5.670248635579601
 30
0.0
 10
14.50319063110815
 20
-5.636388939232163
 30
0.0
 10
14.40915426287759
 20
-5.59098093865413
 30
0.0
 10
14.35834027118446
 20
-5.580144506825198
 30
0.0
 10
14.3133949543945
 20
-5.587416588530871
 30
0.0
  0
SPLINE
  5
1C1
330
1F
100
AcDbEntity
  8
0
  6
Continuous
 62
     1
370
    15
100
AcDbSpline
210
0.0
220
0.0
230
1.0
 70
     8
 71
     3
 72
    10
 73
     6
 74
     0
 42
0.000000001
 43
0.00000001
 40
0.0
 40
0.0
 40
0.0
 40
0.0
 40
0.5000000000000002
 40
0.5000000000000002
 40
1.0
 40
1.0
 40
1.0
 40
1.0
 10
14.31339495439449
 20
-5.587416588530839
 30
0.0
 10
14.13737033926817
 20
-5.615897094951358
 30
0.0
 10
13.94420239339502
 20
-5.567238903878367
 30
0.0
 10
13.57324674230372
 20
-5.384234495730218
 30
0.0
 10
13.40048599274986
 20
-5.251925923593722
 30
0.0
 10
13.25492235755875
 20
-5.094141489075655
 30
0.0
  0
SPLINE
  5
1C2
330
1F
100
AcDbEntity
  8
0
  6
Continuous
 62
     1
370
    15
100
AcDbSpline
210
0.0
220
0.0
230
1.0
 70
     8
 71
     3
 72
    10
 73
     6
 74
     0
 42
0.000000001
 43
0.00000001
 40
0.0
 40
0.0
 40
0.0
 40
0.0
 40
0.5
 40
0.5
 40
1.0
 40
1.0
 40
1.0
 40
1.0
 10
13.25492235755877
 20
-5.094141489075691
 30
0.0
 10
13.2177799286921
 20
-5.053880766487523
 30
0.0
 10
13.17426947898426
 20
-5.019840276997955
 30
0.0
 10
13.08014232337939
 20
-4.97283457788823
 30
0.0
 10
13.02939722229197
 20
-4.960553694890813
 30
0.0
 10
12.98472891564323
 20
-4.96575809003855
 30
0.0
  0
SPLINE
  5
1C3
330
1F
100
AcDbEntity
  8
0
  6
Continuous
 62
     1
370
    15
100
AcDbSpline
210
0.0
220
0.0
230
1.0
 70
     8
 71
     3
 72
     8
 73
     4
 74
     0
 42
0.000000001
 43
0.00000001
 40
0.0
 40
0.0
 40
0.0
 40
0.0
 40
1.0
 40
1.0
 40
1.0
 40
1.0
 10
12.98472891564309
 20
-4.965758090038594
 30
0.0
 10
12.85145058194072
 20
-4.981286619442494
 30
0.0
 10
12.70504833170349
 20
-4.952069618363565
 30
0.0
 10
12.56074767033819
 20
-4.895333831330873
 30
0.0
  0
SPLINE
  5
1C4
330
1F
100
AcDbEntity
  8
0
  6
Continuous
 62
     1
370
    15
100
AcDbSpline
210
0.0
220
0.0
230
1.0
 70
     8
 71
     3
 72
     8
 73
     4
 74
     0
 42
0.000000001
 43
0.00000001
 40
0.0
 40
0.0
 40
0.0
 40
0.0
 40
1.0
 40
1.0
 40
1.0
 40
1.0
 10
12.56074767033765
 20
-4.895333831330666
 30
0.0
 10
12.40719201385218
 20
-4.803442791526974
 30
0.0
 10
12.26413454877743
 20
-4.686261287733493
 30
0.0
 10
12.14182934693279
 20
-4.553329684684629
 30
0.0
  0
SPLINE
  5
1C5
330
1F
100
AcDbEntity
  8
0
  6
Continuous
 62
     1
370
    15
100
AcDbSpline
210
0.0
220
0.0
230
1.0
 70
     8
 71
     3
 72
    10
 73
     6
 74
     0
 42
0.000000001
 43
0.00000001
 40
0.0
 40
0.0
 40
0.0
 40
0.0
 40
0.5
 40
0.5
 40
0.550766385672813
 40
0.550766385672813
 40
0.550766385672813
 40
0.550766385672813
 10
12.14182934693281
 20
-4.55332968468467
 30
0.0
 10
12.10488449229646
 20
-4.513174902409299
 30
0.0
 10
12.06148780255436
 20
-4.478615530299546
 30
0.0
 10
12.00966159592794
 20
-4.451385420314745
 30
0.0
 10
12.00484534500914
 20
-4.448983466859667
 30
0.0
 10
12.00000000000001
 20
-4.44669612880057
 30
0.0
  0
SPLINE
  5
1C6
330
1F
100
AcDbEntity
  8
외형선
  6
Continuous
370
    15
100
AcDbSpline
210
0.0
220
0.0
230
1.0
 70
     8
 71
     3
 72
     8
 73
     4
 74
     0
 42
0.000000001
 43
0.00000001
 40
0.0
 40
0.0
 40
0.0
 40
0.0
 40
1.0
 40
1.0
 40
1.0
 40
1.0
 10
11.87155050374893
 20
-4.417512787688542
 30
0.0
 10
11.77780656469621
 20
-4.422900955584096
 30
0.0
 10
11.68007145618069
 20
-4.407436929994185
 30
0.0
 10
11.57931663685768
 20
-4.376886520119854
 30
0.0
  0
SPLINE
  5
1C7
330
1F
100
AcDbEntity
  8
외형선
  6
Continuous
370
    15
100
AcDbSpline
210
0.0
220
0.0
230
1.0
 70
     8
 71
     3
 72
     8
 73
     4
 74
     0
 42
0.000000001
 43
0.00000001
 40
0.0
 40
0.0
 40
0.0
 40
0.0
 40
1.0
 40
1.0
 40
1.0
 40
1.0
 10
11.57931663685768
 20
-4.376886520119865
 30
0.0
 10
11.45237807826161
 20
-4.317511860427233
 30
0.0
 10
11.32548218316992
 20
-4.257644473096227
 30
0.0
 10
11.19862932534098
 20
-4.197280758392762
 30
0.0
  0
SPLINE
  5
1C8
330
1F
100
AcDbEntity
  8
외형선
  6
Continuous
370
    15
100
AcDbSpline
210
0.0
220
0.0
230
1.0
 70
     8
 71
     3
 72
     8
 73
     4
 74
     0
 42
0.000000001
 43
0.00000001
 40
0.0
 40
0.0
 40
0.0
 40
0.0
 40
1.0
 40
1.0
 40
1.0
 40
1.0
 10
11.19862932533921
 20
-4.197280758394804
 30
0.0
 10
11.05849865781824
 20
-4.108506180926724
 30
0.0
 10
10.92675389600392
 20
-4.000083929232217
 30
0.0
 10
10.81251846945213
 20
-3.879334753725131
 30
0.0
  0
SPLINE
  5
1C9
330
1F
100
AcDbEntity
  8
외형선
  6
Continuous
370
    15
100
AcDbSpline
210
0.0
220
0.0
230
1.0
 70
     8
 71
     3
 72
    10
 73
     6
 74
     0
 42
0.000000001
 43
0.00000001
 40
0.0
 40
0.0
 40
0.0
 40
0.0
 40
0.5
 40
0.5
 40
1.0
 40
1.0
 40
1.0
 40
1.0
 10
10.81251846945215
 20
-3.879334753725174
 30
0.0
 10
10.77537082378458
 20
-3.840068934689994
 30
0.0
 10
10.73185558873528
 20
-3.805761484318501
 30
0.0
 10
10.637710646075
 20
-3.755359138196575
 30
0.0
 10
10.58695768910301
 20
-3.739880666915544
 30
0.0
 10
10.54229648019043
 20
-3.740380419903896
 30
0.0
  0
SPLINE
  5
1CA
330
1F
100
AcDbEntity
  8
외형선
  6
Continuous
370
    15
100
AcDbSpline
210
0.0
220
0.0
230
1.0
 70
     8
 71
     3
 72
     8
 73
     4
 74
     0
 42
0.000000001
 43
0.00000001
 40
0.0
 40
0.0
 40
0.0
 40
0.0
 40
1.0
 40
1.0
 40
1.0
 40
1.0
 10
10.54229648019029
 20
-3.740380419903941
 30
0.0
 10
10.40900282652236
 20
-3.741871958162065
 30
0.0
 10
10.26259038842202
 20
-3.701425782427219
 30
0.0
 10
10.11835719513413
 20
-3.637186387421658
 30
0.0
  0
SPLINE
  5
1CB
330
1F
100
AcDbEntity
  8
0
  6
Continuous
 62
     1
370
    15
100
AcDbSpline
210
0.0
220
0.0
230
1.0
 70
     8
 71
     3
 72
    12
 73
     8
 74
     0
 42
0.000000001
 43
0.00000001
 40
0.0
 40
0.0
 40
0.0
 40
0.0
 40
0.5000000000000001
 40
0.5000000000000001
 40
0.75
 40
0.75
 40
1.0
 40
1.0
 40
1.0
 40
1.0
 10
15.49010532751812
 20
4.891437802171485
 30
0.0
 10
15.44906752916111
 20
4.059227986242845
 30
0.0
 10
15.40723752475412
 20
3.14429253851058
 30
0.0
 10
15.34755325007548
 20
1.743642831593672
 30
0.0
 10
15.32861826904552
 20
1.275965208775471
 30
0.0
 10
15.28939003709265
 20
0.323855671298305
 30
0.0
 10
15.26918940241646
 20
-0.1599414232794056
 30
0.0
 10
15.24873402923783
 20
-0.6432678070715206
 30
0.0
  0
SPLINE
  5
1CC
330
1F
100
AcDbEntity
  8
0
  6
Continuous
 62
     1
370
    15
100
AcDbSpline
210
0.0
220
0.0
230
1.0
 70
     8
 71
     3
 72
    10
 73
     6
 74
     0
 42
0.000000001
 43
0.00000001
 40
0.0
 40
0.0
 40
0.0
 40
0.0
 40
0.5
 40
0.5
 40
1.0
 40
1.0
 40
1.0
 40
1.0
 10
34.81885097802478
 20
5.525623512648216
 30
0.0
 10
34.64279595202252
 20
5.633888178054151
 30
0.0
 10
34.44970440253529
 20
5.740683381471502
 30
0.0
 10
34.07885134172768
 20
5.907705682347214
 30
0.0
 10
33.90602248545919
 20
5.966178461670652
 30
0.0
 10
33.76035154582853
 20
5.999779735393722
 30
0.0
  0
SPLINE
  5
1CD
330
1F
100
AcDbEntity
  8
0
  6
Continuous
 62
     1
370
    15
100
AcDbSpline
210
0.0
220
0.0
230
1.0
 70
     8
 71
     3
 72
    12
 73
     8
 74
     0
 42
0.000000001
 43
0.00000001
 40
0.0
 40
0.0
 40
0.0
 40
0.0
 40
0.2499999999999999
 40
0.2499999999999999
 40
0.4999999999999999
 40
0.4999999999999999
 40
1.0
 40
1.0
 40
1.0
 40
1.0
 10
37.15617369230002
 20
2.098715254300756
 30
0.0
 10
37.05930137128616
 20
1.981614739994221
 30
0.0
 10
36.96111189182109
 20
1.855761879613326
 30
0.0
 10
36.76272497838796
 20
1.590713562890184
 30
0.0
 10
36.66192903665361
 20
1.450484721338339
 30
0.0
 10
36.3674253630127
 20
1.025918979500511
 30
0.0
 10
36.17585737708477
 20
0.7300693539243854
 30
0.0
 10
36.00248914914702
 20
0.4403170413113796
 30
0.0
  0
SPLINE
  5
1CE
330
1F
100
AcDbEntity
  8
0
  6
Continuous
 62
     1
370
    15
100
AcDbSpline
210
0.0
220
0.0
230
1.0
 70
     8
 71
     3
 72
    10
 73
     6
 74
     0
 42
0.000000001
 43
0.00000001
 40
0.0
 40
0.0
 40
0.0
 40
0.0
 40
0.5
 40
0.5
 40
1.0
 40
1.0
 40
1.0
 40
1.0
 10
37.25941196831552
 20
4.351303133469211
 30
0.0
 10
37.08353052851299
 20
4.449110404476159
 30
0.0
 10
36.89053232952558
 20
4.557214820640072
 30
0.0
 10
36.51976196529237
 20
4.74257604033946
 30
0.0
 10
36.34695050038513
 20
4.817990918411745
 30
0.0
 10
36.20138253148236
 20
4.873894990967456
 30
0.0
  0
SPLINE
  5
1CF
330
1F
100
AcDbEntity
  8
0
  6
Continuous
 62
     1
370
    15
100
AcDbSpline
210
0.0
220
0.0
230
1.0
 70
     8
 71
     3
 72
    10
 73
     6
 74
     0
 42
0.000000001
 43
0.00000001
 40
0.0
 40
0.0
 40
0.0
 40
0.0
 40
0.5
 40
0.5
 40
1.0
 40
1.0
 40
1.0
 40
1.0
 10
37.38709150665805
 20
2.411046831254491
 30
0.0
 10
37.34907354689766
 20
2.35485127145725
 30
0.0
 10
37.31059610111559
 20
2.300426600679605
 30
0.0
 10
37.23278521370442
 20
2.194876322805873
 30
0.0
 10
37.19389024207324
 20
2.144307507387557
 30
0.0
 10
37.15617369230247
 20
2.098715254308456
 30
0.0
  0
ELLIPSE
  5
1D0
330
1F
100
AcDbEntity
  8
0
  6
Continuous
 62
     1
370
    15
100
AcDbEllipse
 10
29.08450504474675
 20
-11.74745726539777
 30
0.0
 11
12.2112760675189
 21
17.171767819583
 31
0.0
210
0.0
220
0.0
230
1.0
 40
0.1082739118711025
 41
0.6811582931790875
 42
0.6825706662076116
  0
LINE
  5
1D1
330
1F
100
AcDbEntity
  8
0
  6
Continuous
 62
     1
370
    15
100
AcDbLine
 10
37.39999985694886
 20
-0.4529406724032067
 30
0.0
 11
37.39999985694886
 21
2.42488225921988
 31
0.0
  0
LINE
  5
1D2
330
1F
100
AcDbEntity
  8
0
  6
Continuous
 62
     1
370
    15
100
AcDbLine
 10
35.25487339496614
 20
-1.081041991710668
 30
0.0
 11
37.39999985694886
 21
-0.4529406724032067
 31
0.0
  0
SPLINE
  5
1D3
330
1F
100
AcDbEntity
  8
0
  6
Continuous
 62
     1
370
    15
100
AcDbSpline
210
0.0
220
0.0
230
1.0
 70
     8
 71
     3
 72
     8
 73
     4
 74
     0
 42
0.000000001
 43
0.00000001
 40
0.0
 40
0.0
 40
0.0
 40
0.0
 40
1.0
 40
1.0
 40
1.0
 40
1.0
 10
35.70724892477719
 20
0.0008050608063772
 30
0.0
 10
35.62126321133805
 20
-0.1108978782955006
 30
0.0
 10
35.53451601026899
 20
-0.2296729905504581
 30
0.0
 10
35.44865457309011
 20
-0.3516085966984736
 30
0.0
  0
SPLINE
  5
1D4
330
1F
100
AcDbEntity
  8
0
  6
Continuous
 62
     1
370
    15
100
AcDbSpline
210
0.0
220
0.0
230
1.0
 70
     8
 71
     3
 72
    10
 73
     6
 74
     0
 42
0.000000001
 43
0.00000001
 40
0.0
 40
0.0
 40
0.0
 40
0.0
 40
0.5
 40
0.5
 40
1.0
 40
1.0
 40
1.0
 40
1.0
 10
36.00248914914704
 20
0.4403170413114033
 30
0.0
 10
35.95788496879906
 20
0.3657695618696939
 30
0.0
 10
35.9096460435781
 20
0.2900172720448608
 30
0.0
 10
35.80997876996688
 20
0.140993378263331
 30
0.0
 10
35.75876748128598
 20
0.0677321577606291
 30
0.0
 10
35.70724892477938
 20
0.000805060805674
 30
0.0
  0
SPLINE
  5
1D5
330
1F
100
AcDbEntity
  8
0
  6
Continuous
 62
     1
370
    15
100
AcDbSpline
210
0.0
220
0.0
230
1.0
 70
     8
 71
     3
 72
    12
 73
     8
 74
     0
 42
0.000000001
 43
0.00000001
 40
0.0
 40
0.0
 40
0.0
 40
0.0
 40
0.5
 40
0.5
 40
0.75
 40
0.75
 40
1.0
 40
1.0
 40
1.0
 40
1.0
 10
35.50748641665984
 20
5.239997291571696
 30
0.0
 10
35.46673650472552
 20
4.432018399842256
 30
0.0
 10
35.42478020087723
 20
3.533446068231968
 30
0.0
 10
35.3643261563921
 20
2.142613487847238
 30
0.0
 10
35.34479729193536
 20
1.673820902845057
 30
0.0
 10
35.30628013508368
 20
0.7317163158737497
 30
0.0
 10
35.28635072545433
 20
0.2507489888905106
 30
0.0
 10
35.26606730759646
 20
-0.2321585846233006
 30
0.0
  0
SPLINE
  5
1D6
330
1F
100
AcDbEntity
  8
0
  6
Continuous
 62
     1
370
    15
100
AcDbSpline
210
0.0
220
0.0
230
1.0
 70
     8
 71
     3
 72
     8
 73
     4
 74
     0
 42
0.000000001
 43
0.00000001
 40
0.0
 40
0.0
 40
0.0
 40
0.0
 40
1.0
 40
1.0
 40
1.0
 40
1.0
 10
35.93131138226673
 20
5.00421958796841
 30
0.0
 10
35.79807687004331
 20
5.082996459527667
 30
0.0
 10
35.65174267067245
 20
5.166309436658535
 30
0.0
 10
35.50748641665987
 20
5.23999729157167
 30
0.0
  0
SPLINE
  5
1D7
330
1F
100
AcDbEntity
  8
0
  6
Continuous
 62
     1
370
    15
100
AcDbSpline
210
0.0
220
0.0
230
1.0
 70
     8
 71
     3
 72
     8
 73
     4
 74
     0
 42
0.000000001
 43
0.00000001
 40
0.0
 40
0.0
 40
0.0
 40
0.0
 40
1.0
 40
1.0
 40
1.0
 40
1.0
 10
35.50748641665984
 20
5.239997291571675
 30
0.0
 10
35.35399497538117
 20
5.309407669934568
 30
0.0
 10
35.21106274320397
 20
5.363352513572416
 30
0.0
 10
35.08891906285135
 20
5.401407238406787
 30
0.0
  0
LINE
  5
1D8
330
1F
100
AcDbEntity
  8
외형선
  6
Continuous
370
    15
100
AcDbLine
 10
-37.79999905824661
 20
9.525000117719168
 30
0.0
 11
-37.79999905824661
 21
-9.525000117719177
 31
0.0
  0
SPLINE
  5
1D9
330
1F
100
AcDbEntity
  8
외형선
  6
Continuous
370
    15
100
AcDbSpline
210
0.0
220
0.0
230
1.0
 70
     8
 71
     3
 72
     8
 73
     4
 74
     0
 42
0.000000001
 43
0.00000001
 40
0.0
 40
0.0
 40
0.0
 40
0.0
 40
1.0
 40
1.0
 40
1.0
 40
1.0
 10
9.877636574826127
 20
-8.008279281533932
 30
0.0
 10
9.569369557236357
 20
-7.911690627188445
 30
0.0
 10
9.259964645390987
 20
-7.810765714441972
 30
0.0
 10
8.950152089901968
 20
-7.705722894544145
 30
0.0
  0
LINE
  5
1DA
330
1F
100
AcDbEntity
  8
외형선
  6
Continuous
370
    15
100
AcDbLine
 10
8.95015202835203
 20
-7.705703377723699
 30
0.0
 11
8.95015202835203
 21
-9.525000117719177
 31
0.0
  0
SPLINE
  5
1DB
330
1F
100
AcDbEntity
  8
외형선
  6
Continuous
370
    15
100
AcDbSpline
210
0.0
220
0.0
230
1.0
 70
     8
 71
     3
 72
     8
 73
     4
 74
     0
 42
0.000000001
 43
0.00000001
 40
0.0
 40
0.0
 40
0.0
 40
0.0
 40
1.0
 40
1.0
 40
1.0
 40
1.0
 10
9.630887162620203
 20
-9.514013457474457
 30
0.0
 10
9.404387002481744
 20
-9.520300049094017
 30
0.0
 10
9.177379057741984
 20
-9.523893815100397
 30
0.0
 10
8.950152089901971
 20
-9.524781525583576
 30
0.0
  0
SPLINE
  5
1DC
330
1F
100
AcDbEntity
  8
외형선
  6
Continuous
370
    15
100
AcDbSpline
210
0.0
220
0.0
230
1.0
 70
     8
 71
     3
 72
    28
 73
    24
 74
     0
 42
0.000000001
 43
0.00000001
 40
0.0
 40
0.0
 40
0.0
 40
0.0
 40
0.0317360547967185
 40
0.121512901235705
 40
0.2112875195466584
 40
0.2465694664908871
 40
0.2649168442533919
 40
0.2961320584116964
 40
0.3415287586044678
 40
0.418861002322384
 40
0.4747279562546349
 40
0.4990618883342118
 40
0.5388238616109482
 40
0.5846911206565454
 40
0.63055773365954
 40
0.6764236461563227
 40
0.7222889534618148
 40
0.754332452990652
 40
0.7769626350663078
 40
0.8128470915827761
 40
0.8619835713030178
 40
0.9243691629464558
 40
1.0
 40
1.0
 40
1.0
 40
1.0
 10
8.399265877902515
 20
9.524006396532053
 30
0.0
 10
8.39427199258592
 20
9.52301086483359
 30
0.0
 10
8.37515110635276
 20
9.519199113633661
 30
0.0
 10
8.342311446107988
 20
9.443885860021103
 30
0.0
 10
8.309233677894543
 20
9.28769693297191
 30
0.0
 10
8.287633090455115
 20
9.144205955338665
 30
0.0
 10
8.274526210925742
 20
9.04976103776346
 30
0.0
 10
8.259515291261145
 20
8.93414715364172
 30
0.0
 10
8.235148798640566
 20
8.722247940300099
 30
0.0
 10
8.206732508687743
 20
8.43171125409368
 30
0.0
 10
8.18171836172359
 20
8.134668214103057
 30
0.0
 10
8.162644359905682
 20
7.8905026538749
 30
0.0
 10
8.145315293909512
 20
7.653712617631387
 30
0.0
 10
8.124730752639199
 20
7.350525982631105
 30
0.0
 10
8.103370646439942
 20
7.01174375194604
 30
0.0
 10
8.08220754705102
 20
6.652438530914523
 30
0.0
 10
8.063261681630744
 20
6.311697710368834
 30
0.0
 10
8.048162662748753
 20
6.023545987427458
 30
0.0
 10
8.033973847534256
 20
5.757135684564846
 30
0.0
 10
8.01703226436694
 20
5.432002112791696
 30
0.0
 10
7.993724414445188
 20
4.970578652405742
 30
0.0
 10
7.964072730957075
 20
4.361982459480845
 30
0.0
 10
7.942163014962491
 20
3.88893122184903
 30
0.0
 10
7.930156834423548
 20
3.629706567153329
 30
0.0
  0
LINE
  5
1DD
330
1F
100
AcDbEntity
  8
외형선
  6
Continuous
370
    15
100
AcDbLine
 10
7.930344495922333
 20
3.629690967500205
 30
0.0
 11
9.180156806483872
 21
3.629690967500205
 31
0.0
  0
LINE
  5
1DE
330
1F
100
AcDbEntity
  8
외형선
  6
Continuous
370
    15
100
AcDbLine
 10
9.181112925522037
 20
3.629690967500205
 30
0.0
 11
10.43027470726521
 21
3.629690967500205
 31
0.0
  0
SPLINE
  5
1DF
330
1F
100
AcDbEntity
  8
외형선
  6
Continuous
370
    15
100
AcDbSpline
210
0.0
220
0.0
230
1.0
 70
     8
 71
     3
 72
     8
 73
     4
 74
     0
 42
0.000000001
 43
0.00000001
 40
0.0
 40
0.0
 40
0.0
 40
0.0
 40
1.0
 40
1.0
 40
1.0
 40
1.0
 10
10.43015674442664
 20
3.629705905820661
 30
0.0
 10
10.40816298658945
 20
3.14994718241057
 30
0.0
 10
10.38634252428461
 20
2.655223765162442
 30
0.0
 10
10.36511409178161
 20
2.155679672702568
 30
0.0
  0
SPLINE
  5
1E0
330
1F
100
AcDbEntity
  8
외형선
  6
Continuous
370
    15
100
AcDbSpline
210
0.0
220
0.0
230
1.0
 70
     8
 71
     3
 72
    12
 73
     8
 74
     0
 42
0.000000001
 43
0.00000001
 40
0.0
 40
0.0
 40
0.0
 40
0.0
 40
0.25
 40
0.25
 40
0.5
 40
0.5
 40
1.0
 40
1.0
 40
1.0
 40
1.0
 10
10.11834055129209
 20
-3.63755732233802
 30
0.0
 10
10.09843821324195
 20
-4.081111289333387
 30
0.0
 10
10.07949403746349
 20
-4.50393019586495
 30
0.0
 10
10.04031606847191
 20
-5.321957792007592
 30
0.0
 10
10.02013630360419
 20
-5.716429113481981
 30
0.0
 10
9.958816682390445
 20
-6.833466804845785
 30
0.0
 10
9.916916020118876
 20
-7.487430856813978
 30
0.0
 10
9.87684268455181
 20
-8.008261439425466
 30
0.0
  0
LINE
  5
1E1
330
1F
100
AcDbEntity
  8
외형선
  6
Continuous
370
    15
100
AcDbLine
 10
8.95015202835203
 20
2.943684114143247
 30
0.0
 11
8.95015202835203
 21
-3.004719037562614
 31
0.0
  0
LINE
  5
1E2
330
1F
100
AcDbEntity
  8
외형선
  6
Continuous
370
    15
100
AcDbLine
 10
-38.80000108480452
 20
8.524999953806395
 30
0.0
 11
-38.80000108480452
 21
-8.524999953806406
 31
0.0
  0
SPLINE
  5
1E3
330
1F
100
AcDbEntity
  8
0
  6
Continuous
 62
     1
370
    15
100
AcDbSpline
210
0.0
220
0.0
230
1.0
 70
     8
 71
     3
 72
    12
 73
     8
 74
     0
 42
0.000000001
 43
0.00000001
 40
0.0
 40
0.0
 40
0.0
 40
0.0
 40
0.5
 40
0.5
 40
0.75
 40
0.75
 40
1.0
 40
1.0
 40
1.0
 40
1.0
 10
25.25474328370068
 20
-0.5010931515941935
 30
0.0
 10
25.21394332172225
 20
-1.467655947799641
 30
0.0
 10
25.17200204885607
 20
-2.434850534011724
 30
0.0
 10
25.11166338277368
 20
-3.788298101169499
 30
0.0
 10
25.09227070385759
 20
-4.221296915573577
 30
0.0
 10
25.05363815888035
 20
-5.051674564795718
 30
0.0
 10
25.03366406010247
 20
-5.454109503305037
 30
0.0
 10
25.01335141685448
 20
-5.83603626787434
 30
0.0
  0
SPLINE
  5
1E4
330
1F
100
AcDbEntity
  8
0
  6
Continuous
 62
     1
370
    15
100
AcDbSpline
210
0.0
220
0.0
230
1.0
 70
     8
 71
     3
 72
    12
 73
     8
 74
     0
 42
0.000000001
 43
0.00000001
 40
0.0
 40
0.0
 40
0.0
 40
0.0
 40
0.4999999999999999
 40
0.4999999999999999
 40
0.7499999999999999
 40
0.7499999999999999
 40
1.0
 40
1.0
 40
1.0
 40
1.0
 10
13.049119926217
 20
6.042447863389627
 30
0.0
 10
13.00954042804169
 20
5.301921987212319
 30
0.0
 10
12.96780155563914
 20
4.454346305618753
 30
0.0
 10
12.90617452548804
 20
3.104604678007391
 30
0.0
 10
12.8858032539734
 20
2.642070136187412
 30
0.0
 10
12.84608563567558
 20
1.708349688134664
 30
0.0
 10
12.82718311727518
 20
1.240825652164639
 30
0.0
 10
12.80755079497801
 20
0.7646477484662144
 30
0.0
  0
SPLINE
  5
1E5
330
1F
100
AcDbEntity
  8
0
  6
Continuous
 62
     1
370
    15
100
AcDbSpline
210
0.0
220
0.0
230
1.0
 70
     8
 71
     3
 72
    12
 73
     8
 74
     0
 42
0.000000001
 43
0.00000001
 40
0.0
 40
0.0
 40
0.0
 40
0.0
 40
0.5
 40
0.5
 40
0.75
 40
0.75
 40
1.0
 40
1.0
 40
1.0
 40
1.0
 10
33.0660870795088
 20
6.355868208337878
 30
0.0
 10
33.02717448834009
 20
5.64642058139231
 30
0.0
 10
32.98573669214543
 20
4.824292362511741
 30
0.0
 10
32.92391609840234
 20
3.498511013026895
 30
0.0
 10
32.90337569762668
 20
3.041644267935284
 30
0.0
 10
32.86312972990666
 20
2.114408120786309
 30
0.0
 10
32.8436739223786
 20
1.646097254707176
 30
0.0
 10
32.8244004137258
 20
1.174934049646074
 30
0.0
  0
SPLINE
  5
1E6
330
1F
100
AcDbEntity
  8
0
  6
Continuous
 62
     1
370
    15
100
AcDbSpline
210
0.0
220
0.0
230
1.0
 70
     8
 71
     3
 72
     8
 73
     4
 74
     0
 42
0.000000001
 43
0.00000001
 40
0.0
 40
0.0
 40
0.0
 40
0.0
 40
1.0
 40
1.0
 40
1.0
 40
1.0
 10
33.49012103914824
 20
6.117200045817968
 30
0.0
 10
33.3568203162426
 20
6.203370877004884
 30
0.0
 10
33.21042066124433
 20
6.286993400325851
 30
0.0
 10
33.06608707950883
 20
6.355868208337779
 30
0.0
  0
SPLINE
  5
1E7
330
1F
100
AcDbEntity
  8
0
  6
Continuous
 62
     1
370
    15
100
AcDbSpline
210
0.0
220
0.0
230
1.0
 70
     8
 71
     3
 72
    10
 73
     6
 74
     0
 42
0.000000001
 43
0.00000001
 40
0.0
 40
0.0
 40
0.0
 40
0.0
 40
0.5
 40
0.5
 40
1.0
 40
1.0
 40
1.0
 40
1.0
 10
32.376813842187
 20
6.580485104460985
 30
0.0
 10
32.20068302166302
 20
6.696800805239778
 30
0.0
 10
32.00743199019708
 20
6.799579967294175
 30
0.0
 10
31.63634830993402
 20
6.943886796588426
 30
0.0
 10
31.46352524277632
 20
6.984018814026396
 30
0.0
 10
31.31791840783141
 20
6.994564472125418
 30
0.0
  0
SPLINE
  5
1E8
330
1F
100
AcDbEntity
  8
0
  6
Continuous
 62
     1
370
    15
100
AcDbSpline
210
0.0
220
0.0
230
1.0
 70
     8
 71
     3
 72
     8
 73
     4
 74
     0
 42
0.000000001
 43
0.00000001
 40
0.0
 40
0.0
 40
0.0
 40
0.0
 40
1.0
 40
1.0
 40
1.0
 40
1.0
 10
33.0660870795088
 20
6.355868208337799
 30
0.0
 10
32.91248343597672
 20
6.414471945861162
 30
0.0
 10
32.76941233525077
 20
6.452505474179268
 30
0.0
 10
32.64710653494006
 20
6.471108241160024
 30
0.0
  0
SPLINE
  5
1E9
330
1F
100
AcDbEntity
  8
외형선
  6
Continuous
370
    15
100
AcDbSpline
210
0.0
220
0.0
230
1.0
 70
    24
 71
     3
 72
    10
 73
     6
 74
     0
 42
0.000000001
 43
0.00000001
 40
0.0
 40
0.0
 40
0.0
 40
0.0
 40
0.4999999999999998
 40
0.4999999999999998
 40
1.0
 40
1.0
 40
1.0
 40
1.0
 10
12.00000000000001
 20
3.60262179669347
 30
0.0
 10
12.00000000000001
 20
4.134743244791308
 30
0.0
 10
11.99999999999995
 20
4.642024256359665
 30
0.0
 10
11.99999999999995
 20
5.607614144340733
 30
0.0
 10
12.00000000000001
 20
6.068182668093221
 30
0.0
 10
12.00000000000001
 20
6.49212234566114
 30
0.0
  0
SPLINE
  5
1EA
330
1F
100
AcDbEntity
  8
0
  6
Continuous
 62
     1
370
    15
100
AcDbSpline
210
0.0
220
0.0
230
1.0
 70
     8
 71
     3
 72
    12
 73
     8
 74
     0
 42
0.000000001
 43
0.00000001
 40
0.0
 40
0.0
 40
0.0
 40
0.0
 40
0.2500000000000001
 40
0.2500000000000001
 40
0.5000000000000002
 40
0.5000000000000002
 40
1.0
 40
1.0
 40
1.0
 40
1.0
 10
27.69505607929689
 20
-1.896917859976829
 30
0.0
 10
27.67443295493789
 20
-2.37296542575439
 30
0.0
 10
27.65387324996761
 20
-2.841056901864071
 30
0.0
 10
27.61358459395945
 20
-3.745601190253186
 30
0.0
 10
27.59409201618202
 20
-4.180349945271594
 30
0.0
 10
27.53625726971371
 20
-5.428614075620369
 30
0.0
 10
27.49498958767094
 20
-6.20977799338575
 30
0.0
 10
27.45372312170046
 20
-6.881614812532084
 30
0.0
  0
SPLINE
  5
1EB
330
1F
100
AcDbEntity
  8
0
  6
Continuous
 62
     1
370
    15
100
AcDbSpline
210
0.0
220
0.0
230
1.0
 70
     8
 71
     3
 72
    10
 73
     6
 74
     0
 42
0.000000001
 43
0.00000001
 40
0.0
 40
0.0
 40
0.0
 40
0.0
 40
0.5
 40
0.5
 40
1.0
 40
1.0
 40
1.0
 40
1.0
 10
35.08891906285135
 20
5.401407238406777
 30
0.0
 10
35.05200808674011
 20
5.412907113269119
 30
0.0
 10
35.00864487469633
 20
5.429680939824678
 30
0.0
 10
34.91461303894121
 20
5.47211996228585
 30
0.0
 10
34.86380169129396
 20
5.497981166716075
 30
0.0
 10
34.8188509780248
 20
5.525623512648204
 30
0.0
  0
SPLINE
  5
1EC
330
1F
100
AcDbEntity
  8
0
  6
Continuous
 62
     1
370
    15
100
AcDbSpline
210
0.0
220
0.0
230
1.0
 70
     8
 71
     3
 72
    10
 73
     6
 74
     0
 42
0.000000001
 43
0.00000001
 40
0.0
 40
0.0
 40
0.0
 40
0.0
 40
0.5
 40
0.5
 40
1.0
 40
1.0
 40
1.0
 40
1.0
 10
36.20138253148236
 20
4.873894990967459
 30
0.0
 10
36.16426789133984
 20
4.888148535555914
 30
0.0
 10
36.12078156237705
 20
4.907018891391793
 30
0.0
 10
36.02667647040514
 20
4.951793156782165
 30
0.0
 10
35.97594552100789
 20
4.977828994749789
 30
0.0
 10
35.93131138226678
 20
5.00421958796839
 30
0.0
  0
SPLINE
  5
1ED
330
1F
100
AcDbEntity
  8
외형선
  6
Continuous
370
    15
100
AcDbSpline
210
0.0
220
0.0
230
1.0
 70
     8
 71
     3
 72
    12
 73
     8
 74
     0
 42
0.000000001
 43
0.00000001
 40
0.0
 40
0.0
 40
0.0
 40
0.0
 40
0.25
 40
0.25
 40
0.5
 40
0.5
 40
1.0
 40
1.0
 40
1.0
 40
1.0
 10
10.60669430231682
 20
7.062158745499481
 30
0.0
 10
10.59226530201531
 20
6.827040356206153
 30
0.0
 10
10.57837714343414
 20
6.58069818976916
 30
0.0
 10
10.54980020018966
 20
6.058054655480218
 30
0.0
 10
10.53518406135237
 20
5.781972391889115
 30
0.0
 10
10.49073064432023
 20
4.915642581873577
 30
0.0
 10
10.46028596672501
 20
4.286926858611791
 30
0.0
 10
10.43015667070606
 20
3.629704297723561
 30
0.0
  0
SPLINE
  5
1EE
330
1F
100
AcDbEntity
  8
0
  6
Continuous
 62
     1
370
    15
100
AcDbSpline
210
0.0
220
0.0
230
1.0
 70
     8
 71
     3
 72
    10
 73
     6
 74
     0
 42
0.000000001
 43
0.00000001
 40
0.0
 40
0.0
 40
0.0
 40
0.0
 40
0.5
 40
0.5
 40
1.0
 40
1.0
 40
1.0
 40
1.0
 10
33.76035154582853
 20
5.999779735393724
 30
0.0
 10
33.72321010660749
 20
6.008346987509341
 30
0.0
 10
33.67969850637207
 20
6.022826885961145
 30
0.0
 10
33.58555046849339
 20
6.062686178964722
 30
0.0
 10
33.5347888876449
 20
6.08832499136675
 30
0.0
 10
33.49012103914831
 20
6.117200045817941
 30
0.0
  0
SPLINE
  5
1EF
330
1F
100
AcDbEntity
  8
0
  6
Continuous
 62
     1
370
    15
100
AcDbSpline
210
0.0
220
0.0
230
1.0
 70
     8
 71
     3
 72
    10
 73
     6
 74
     0
 42
0.000000001
 43
0.00000001
 40
0.0
 40
0.0
 40
0.0
 40
0.0
 40
0.5
 40
0.5
 40
1.0
 40
1.0
 40
1.0
 40
1.0
 10
32.64710653494006
 20
6.471108241160023
 30
0.0
 10
32.61015484168293
 20
6.476728610246858
 30
0.0
 10
32.56675243768289
 20
6.488848122838393
 30
0.0
 10
32.47264922941326
 20
6.525715437076255
 30
0.0
 10
32.42179702970907
 20
6.55077848659406
 30
0.0
 10
32.37681384218699
 20
6.580485104460991
 30
0.0
  0
SPLINE
  5
1F0
330
1F
100
AcDbEntity
  8
0
  6
Continuous
 62
     1
370
    15
100
AcDbSpline
210
0.0
220
0.0
230
1.0
 70
     8
 71
     3
 72
    14
 73
    10
 74
     0
 42
0.000000001
 43
0.00000001
 40
0.0
 40
0.0
 40
0.0
 40
0.0
 40
0.125
 40
0.125
 40
0.25
 40
0.25
 40
0.4999999999999999
 40
0.4999999999999999
 40
1.0
 40
1.0
 40
1.0
 40
1.0
 10
30.62381193530325
 20
7.33291488126157
 30
0.0
 10
30.61381556113415
 20
7.179524118867294
 30
0.0
 10
30.60393619145063
 20
7.019716484492691
 30
0.0
 10
30.58448928172394
 20
6.688974892362412
 30
0.0
 10
30.57499727219297
 20
6.518539164426776
 30
0.0
 10
30.54577477089907
 20
5.985064330650547
 30
0.0
 10
30.52567450885447
 20
5.601737546282568
 30
0.0
 10
30.46449668503387
 20
4.385194463872945
 30
0.0
 10
30.4225576517261
 20
3.484574913661882
 30
0.0
 10
30.38232122127462
 20
2.556553695322196
 30
0.0
  0
SPLINE
  5
1F1
330
1F
100
AcDbEntity
  8
0
  6
Continuous
 62
     1
370
    15
100
AcDbSpline
210
0.0
220
0.0
230
1.0
 70
     8
 71
     3
 72
     8
 73
     4
 74
     0
 42
0.000000001
 43
0.00000001
 40
0.0
 40
0.0
 40
0.0
 40
0.0
 40
1.0
 40
1.0
 40
1.0
 40
1.0
 10
31.0477326076709
 20
7.096522933754598
 30
0.0
 10
30.91448052188434
 20
7.188197376998449
 30
0.0
 10
30.76809581647191
 20
7.270341549006139
 30
0.0
 10
30.62381193530327
 20
7.332914881261567
 30
0.0
  0
SPLINE
  5
1F2
330
1F
100
AcDbEntity
  8
0
  6
Continuous
 62
     1
370
    15
100
AcDbSpline
210
0.0
220
0.0
230
1.0
 70
     8
 71
     3
 72
     8
 73
     4
 74
     0
 42
0.000000001
 43
0.00000001
 40
0.0
 40
0.0
 40
0.0
 40
0.0
 40
1.0
 40
1.0
 40
1.0
 40
1.0
 10
30.62381193530325
 20
7.332914881261586
 30
0.0
 10
30.4703293942456
 20
7.379410381255866
 30
0.0
 10
30.32735061193804
 20
7.400686823708411
 30
0.0
 10
30.20515648547842
 20
7.399374714266174
 30
0.0
  0
SPLINE
  5
1F3
330
1F
100
AcDbEntity
  8
0
  6
Continuous
 62
     1
370
    15
100
AcDbSpline
210
0.0
220
0.0
230
1.0
 70
     8
 71
     3
 72
    10
 73
     6
 74
     0
 42
0.000000001
 43
0.00000001
 40
0.0
 40
0.0
 40
0.0
 40
0.0
 40
0.5
 40
0.5
 40
1.0
 40
1.0
 40
1.0
 40
1.0
 10
29.93508578887614
 20
7.491506211896708
 30
0.0
 10
29.75913609860517
 20
7.613308515841029
 30
0.0
 10
29.56603698053104
 20
7.709928101458073
 30
0.0
 10
29.19516725116281
 20
7.828358659573452
 30
0.0
 10
29.02240390753368
 20
7.849061393326643
 30
0.0
 10
28.87688581976064
 20
7.836024371041472
 30
0.0
  0
SPLINE
  5
1F4
330
1F
100
AcDbEntity
  8
0
  6
Continuous
 62
     1
370
    15
100
AcDbSpline
210
0.0
220
0.0
230
1.0
 70
     8
 71
     3
 72
    10
 73
     6
 74
     0
 42
0.000000001
 43
0.00000001
 40
0.0
 40
0.0
 40
0.0
 40
0.0
 40
0.5
 40
0.5
 40
1.0
 40
1.0
 40
1.0
 40
1.0
 10
31.31791840783141
 20
6.994564472125418
 30
0.0
 10
31.28078562246889
 20
6.997253835291959
 30
0.0
 10
31.23728844455826
 20
7.007026697924327
 30
0.0
 10
31.14316414243474
 20
7.041104117430696
 30
0.0
 10
31.09240580294346
 20
7.065788778410171
 30
0.0
 10
31.04773260767096
 20
7.096522933754574
 30
0.0
  0
SPLINE
  5
1F5
330
1F
100
AcDbEntity
  8
0
  6
Continuous
 62
     1
370
    15
100
AcDbSpline
210
0.0
220
0.0
230
1.0
 70
     8
 71
     3
 72
     8
 73
     4
 74
     0
 42
0.000000001
 43
0.00000001
 40
0.0
 40
0.0
 40
0.0
 40
0.0
 40
1.0
 40
1.0
 40
1.0
 40
1.0
 10
37.39992905637018
 20
4.277702859189025
 30
0.0
 10
37.39925538774332
 20
3.681277264642219
 30
0.0
 10
37.39419590064395
 20
3.056603269802103
 30
0.0
 10
37.38709150664743
 20
2.411046831253655
 30
0.0
  0
SPLINE
  5
1F6
330
1F
100
AcDbEntity
  8
0
  6
Continuous
 62
     1
370
    15
100
AcDbSpline
210
0.0
220
0.0
230
1.0
 70
     8
 71
     3
 72
     8
 73
     4
 74
     0
 42
0.000000001
 43
0.00000001
 40
0.0
 40
0.0
 40
0.0
 40
0.0
 40
1.0
 40
1.0
 40
1.0
 40
1.0
 10
37.40000000000002
 20
4.277685405417047
 30
0.0
 10
37.35308571608564
 20
4.301247856561344
 30
0.0
 10
37.30365699554847
 20
4.326698573862788
 30
0.0
 10
37.25941196831552
 20
4.351303133469202
 30
0.0
  0
SPLINE
  5
1F7
330
1F
100
AcDbEntity
  8
0
  6
Continuous
 62
     1
370
    15
100
AcDbSpline
210
0.0
220
0.0
230
1.0
 70
     8
 71
     3
 72
    12
 73
     8
 74
     0
 42
0.000000001
 43
0.00000001
 40
0.0
 40
0.0
 40
0.0
 40
0.0
 40
0.25
 40
0.25
 40
0.5
 40
0.5
 40
1.0
 40
1.0
 40
1.0
 40
1.0
 10
30.13556189391345
 20
-3.252158113570796
 30
0.0
 10
30.1153971856273
 20
-3.705279355550059
 30
0.0
 10
30.09581082562169
 20
-4.141546187030865
 30
0.0
 10
30.05734401496425
 20
-4.975049430112845
 30
0.0
 10
30.03743469389591
 20
-5.379552180960435
 30
0.0
 10
29.976626182058
 20
-6.532936396235995
 30
0.0
 10
29.93465344606991
 20
-7.219642012172785
 30
0.0
 10
29.89411058190933
 20
-7.777269994212908
 30
0.0
  0
LINE
  5
1F8
330
1F
100
AcDbEntity
  8
0
  6
Continuous
 62
     1
370
    15
100
AcDbLine
 10
37.39999985694886
 20
2.42488225921988
 30
0.0
 11
37.39999985694886
 21
4.277682863175865
 31
0.0
  0
SPLINE
  5
1F9
330
1F
100
AcDbEntity
  8
0
  6
Continuous
 62
     1
370
    15
100
AcDbSpline
210
0.0
220
0.0
230
1.0
 70
     8
 71
     3
 72
    10
 73
     6
 74
     0
 42
0.000000001
 43
0.00000001
 40
0.0
 40
0.0
 40
0.0
 40
0.0
 40
0.5
 40
0.5
 40
1.0
 40
1.0
 40
1.0
 40
1.0
 10
30.20515648547841
 20
7.399374714266187
 30
0.0
 10
30.16824843127669
 20
7.398978398929145
 30
0.0
 10
30.1248883691309
 20
7.406170163217149
 30
0.0
 10
30.03085098182752
 20
7.436665587652667
 30
0.0
 10
29.98003370515138
 20
7.460390727968384
 30
0.0
 10
29.93508578887614
 20
7.491506211896708
 30
0.0
  0
SPLINE
  5
1FA
330
1F
100
AcDbEntity
  8
외형선
  6
Continuous
370
    15
100
AcDbSpline
210
0.0
220
0.0
230
1.0
 70
    24
 71
     3
 72
     8
 73
     4
 74
     0
 42
0.000000001
 43
0.00000001
 40
0.0
 40
0.0
 40
0.0
 40
0.0
 40
1.0
 40
1.0
 40
1.0
 40
1.0
 10
8.950152089901964
 20
8.632674179030632
 30
0.0
 10
8.950152089901964
 20
8.36804469375028
 30
0.0
 10
8.950152089901964
 20
8.02521317721757
 30
0.0
 10
8.950152089901964
 20
7.606936662575694
 30
0.0
  0
SPLINE
  5
1FB
330
1F
100
AcDbEntity
  8
0
  6
Continuous
 62
     1
370
    15
100
AcDbSpline
210
0.0
220
0.0
230
1.0
 70
     8
 71
     3
 72
    14
 73
    10
 74
     0
 42
0.000000001
 43
0.00000001
 40
0.0
 40
0.0
 40
0.0
 40
0.0
 40
0.2499999999999998
 40
0.2499999999999998
 40
0.3749999999999998
 40
0.3749999999999998
 40
0.4999999999999998
 40
0.4999999999999998
 40
1.0
 40
1.0
 40
1.0
 40
1.0
 10
28.18308492175754
 20
8.148683702695811
 30
0.0
 10
28.16250041361675
 20
7.897317653485365
 30
0.0
 10
28.14204982252559
 20
7.614582702098854
 30
0.0
 10
28.11209349032125
 20
7.152069202675507
 30
0.0
 10
28.1022274684526
 20
6.99152510312654
 30
0.0
 10
28.08281171116645
 20
6.659408149833155
 30
0.0
 10
28.07331047652137
 20
6.488180022971036
 30
0.0
 10
28.02450413329747
 20
5.594809999101526
 30
0.0
 10
27.98298425683803
 20
4.76808231233764
 30
0.0
 10
27.94175573670337
 20
3.880995396777889
 30
0.0
  0
SPLINE
  5
1FC
330
1F
100
AcDbEntity
  8
0
  6
Continuous
 62
     1
370
    15
100
AcDbSpline
210
0.0
220
0.0
230
1.0
 70
     8
 71
     3
 72
     8
 73
     4
 74
     0
 42
0.000000001
 43
0.00000001
 40
0.0
 40
0.0
 40
0.0
 40
0.0
 40
1.0
 40
1.0
 40
1.0
 40
1.0
 10
28.60683816121199
 20
7.919858576381715
 30
0.0
 10
28.47357744360685
 20
8.014934299355781
 30
0.0
 10
28.3272846890555
 20
8.093741139060388
 30
0.0
 10
28.18308492175756
 20
8.148683702695635
 30
0.0
  0
SPLINE
  5
1FD
330
1F
100
AcDbEntity
  8
외형선
  6
Continuous
370
    15
100
AcDbSpline
210
0.0
220
0.0
230
1.0
 70
     8
 71
     3
 72
     8
 73
     4
 74
     0
 42
0.000000001
 43
0.00000001
 40
0.0
 40
0.0
 40
0.0
 40
0.0
 40
1.0
 40
1.0
 40
1.0
 40
1.0
 10
9.876860032636811
 20
-8.008035960796512
 30
0.0
 10
10.03035776014164
 20
-8.044054980187122
 30
0.0
 10
10.17331250737227
 20
-8.051526272064752
 30
0.0
 10
10.29554993401702
 20
-8.03418882639621
 30
0.0
  0
SPLINE
  5
1FE
330
1F
100
AcDbEntity
  8
0
  6
Continuous
 62
     1
370
    15
100
AcDbSpline
210
0.0
220
0.0
230
1.0
 70
     8
 71
     3
 72
    10
 73
     6
 74
     0
 42
0.000000001
 43
0.00000001
 40
0.0
 40
0.0
 40
0.0
 40
0.0
 40
0.5
 40
0.5
 40
1.0
 40
1.0
 40
1.0
 40
1.0
 10
28.87688581976064
 20
7.836024371041471
 30
0.0
 10
28.83977075260048
 20
7.832699217687086
 30
0.0
 10
28.79628625995953
 20
7.837471572256976
 30
0.0
 10
28.7021957267402
 20
7.864887413857807
 30
0.0
 10
28.65147348863762
 20
7.888013212635808
 30
0.0
 10
28.60683816121206
 20
7.919858576381671
 30
0.0
  0
SPLINE
  5
1FF
330
1F
100
AcDbEntity
  8
0
  6
Continuous
 62
     1
370
    15
100
AcDbSpline
210
0.0
220
0.0
230
1.0
 70
     8
 71
     3
 72
     8
 73
     4
 74
     0
 42
0.000000001
 43
0.00000001
 40
0.0
 40
0.0
 40
0.0
 40
0.0
 40
1.0
 40
1.0
 40
1.0
 40
1.0
 10
28.18308492175753
 20
8.148683702695662
 30
0.0
 10
28.02969924907451
 20
8.182128751962987
 30
0.0
 10
27.88679597998786
 20
8.186256898657827
 30
0.0
 10
27.76466267509206
 20
8.165150962861082
 30
0.0
  0
SPLINE
  5
200
330
1F
100
AcDbEntity
  8
외형선
  6
Continuous
370
    15
100
AcDbSpline
210
0.0
220
0.0
230
1.0
 70
     8
 71
     3
 72
    14
 73
    10
 74
     0
 42
0.000000001
 43
0.00000001
 40
0.0
 40
0.0
 40
0.0
 40
0.0
 40
0.2499999999999999
 40
0.2499999999999999
 40
0.4999999999999999
 40
0.4999999999999999
 40
0.7499999999999998
 40
0.7499999999999998
 40
1.0
 40
1.0
 40
1.0
 40
1.0
 10
11.03686343159128
 20
-8.349439335707972
 30
0.0
 10
11.04767967579259
 20
-8.11490499121467
 30
0.0
 10
11.05976479531515
 20
-7.848051035263197
 30
0.0
 10
11.08553165279404
 20
-7.251906977334595
 30
0.0
 10
11.09899741135493
 20
-6.927961049442002
 30
0.0
 10
11.12663577977659
 20
-6.230335876585212
 30
0.0
 10
11.14081488636179
 20
-5.85665373364508
 30
0.0
 10
11.16964518712244
 20
-5.05800765016463
 30
0.0
 10
11.18397981847011
 20
-4.635887880319493
 30
0.0
 10
11.19862932534105
 20
-4.197280758392633
 30
0.0
  0
SPLINE
  5
201
330
1F
100
AcDbEntity
  8
외형선
  6
Continuous
370
    15
100
AcDbSpline
210
0.0
220
0.0
230
1.0
 70
     8
 71
     3
 72
     8
 73
     4
 74
     0
 42
0.000000001
 43
0.00000001
 40
0.0
 40
0.0
 40
0.0
 40
0.0
 40
1.0
 40
1.0
 40
1.0
 40
1.0
 10
10.56570272588862
 20
-8.11107553009563
 30
0.0
 10
10.71536696386316
 20
-8.216944649717329
 30
0.0
 10
10.87830914000462
 20
-8.298421862079445
 30
0.0
 10
11.03686343159994
 20
-8.349439335709025
 30
0.0
  0
SPLINE
  5
202
330
1F
100
AcDbEntity
  8
외형선
  6
Continuous
370
    15
100
AcDbSpline
210
0.0
220
0.0
230
1.0
 70
    24
 71
     3
 72
    10
 73
     6
 74
     0
 42
0.000000001
 43
0.00000001
 40
0.0
 40
0.0
 40
0.0
 40
0.0
 40
0.5
 40
0.5
 40
1.0
 40
1.0
 40
1.0
 40
1.0
 10
8.950152089901968
 20
9.325185781724745
 30
0.0
 10
8.950152089901968
 20
9.318219255145552
 30
0.0
 10
8.950152089901533
 20
9.255817107906184
 30
0.0
 10
8.950152089901533
 20
9.023346056834182
 30
0.0
 10
8.95015208990196
 20
8.852630470406249
 30
0.0
 10
8.95015208990196
 20
8.632674179030595
 30
0.0
  0
SPLINE
  5
203
330
1F
100
AcDbEntity
  8
0
  6
Continuous
 62
     1
370
    15
100
AcDbSpline
210
0.0
220
0.0
230
1.0
 70
     8
 71
     3
 72
    10
 73
     6
 74
     0
 42
0.000000001
 43
0.00000001
 40
0.0
 40
0.0
 40
0.0
 40
0.0
 40
0.5
 40
0.5
 40
1.0
 40
1.0
 40
1.0
 40
1.0
 10
27.49468591070339
 20
8.23820158917552
 30
0.0
 10
27.31880107190009
 20
8.362965259767988
 30
0.0
 10
27.12576745318413
 20
8.451445509995423
 30
0.0
 10
26.75496763579039
 20
8.54169043797838
 30
0.0
 10
26.582192529119
 20
8.542655888800303
 30
0.0
 10
26.43666503666192
 20
8.50645567491322
 30
0.0
  0
SPLINE
  5
204
330
1F
100
AcDbEntity
  8
외형선
  6
Continuous
370
    15
100
AcDbSpline
210
0.0
220
0.0
230
1.0
 70
     8
 71
     3
 72
    10
 73
     6
 74
     0
 42
0.000000001
 43
0.00000001
 40
0.0
 40
0.0
 40
0.0
 40
0.0
 40
0.5
 40
0.5
 40
1.0
 40
1.0
 40
1.0
 40
1.0
 10
10.29554993401721
 20
-8.034188826396182
 30
0.0
 10
10.33246885725217
 20
-8.028952461043138
 30
0.0
 10
10.37583960829701
 20
-8.032068981623883
 30
0.0
 10
10.4698943626452
 20
-8.056971511926266
 30
0.0
 10
10.52072952421112
 20
-8.079262497586303
 30
0.0
 10
10.56570272588863
 20
-8.11107553009562
 30
0.0
  0
SPLINE
  5
205
330
1F
100
AcDbEntity
  8
0
  6
Continuous
 62
     1
370
    15
100
AcDbSpline
210
0.0
220
0.0
230
1.0
 70
     8
 71
     3
 72
    10
 73
     6
 74
     0
 42
0.000000001
 43
0.00000001
 40
0.0
 40
0.0
 40
0.0
 40
0.0
 40
0.5
 40
0.5
 40
1.0
 40
1.0
 40
1.0
 40
1.0
 10
27.76466267509207
 20
8.165150962861073
 30
0.0
 10
27.7277754101338
 20
8.158776450629617
 30
0.0
 10
27.68443534440717
 20
8.160914914904115
 30
0.0
 10
27.59043091030248
 20
8.184427130286922
 30
0.0
 10
27.53962637032361
 20
8.206323135418616
 30
0.0
 10
27.49468591070339
 20
8.23820158917552
 30
0.0
  0
SPLINE
  5
206
330
1F
100
AcDbEntity
  8
0
  6
Continuous
 62
     1
370
    15
100
AcDbSpline
210
0.0
220
0.0
230
1.0
 70
     8
 71
     3
 72
    10
 73
     6
 74
     0
 42
0.000000001
 43
0.00000001
 40
0.0
 40
0.0
 40
0.0
 40
0.0
 40
0.5
 40
0.5
 40
1.0
 40
1.0
 40
1.0
 40
1.0
 10
26.43666503666193
 20
8.506455674913227
 30
0.0
 10
26.39955194162652
 20
8.497223728731717
 30
0.0
 10
26.35606748026764
 20
8.496920887887832
 30
0.0
 10
26.26196972136768
 20
8.517109064239328
 30
0.0
 10
26.21124515936438
 20
8.538180908390013
 30
0.0
 10
26.16661516745785
 20
8.570447592981916
 30
0.0
  0
SPLINE
  5
207
330
1F
100
AcDbEntity
  8
0
  6
Continuous
 62
     1
370
    15
100
AcDbSpline
210
0.0
220
0.0
230
1.0
 70
     8
 71
     3
 72
     8
 73
     4
 74
     0
 42
0.000000001
 43
0.00000001
 40
0.0
 40
0.0
 40
0.0
 40
0.0
 40
1.0
 40
1.0
 40
1.0
 40
1.0
 10
26.16661516745779
 20
8.570447592981955
 30
0.0
 10
26.03337433902883
 20
8.666778324896141
 30
0.0
 10
25.88704924627079
 20
8.740388353861821
 30
0.0
 10
25.7428283252688
 20
8.786336219244513
 30
0.0
  0
SPLINE
  5
208
330
1F
100
AcDbEntity
  8
0
  6
Continuous
 62
     1
370
    15
100
AcDbSpline
210
0.0
220
0.0
230
1.0
 70
     8
 71
     3
 72
     8
 73
     4
 74
     0
 42
0.000000001
 43
0.00000001
 40
0.0
 40
0.0
 40
0.0
 40
0.0
 40
1.0
 40
1.0
 40
1.0
 40
1.0
 10
25.74282832526878
 20
8.78633621924452
 30
0.0
 10
25.58934572077264
 20
8.805836701043127
 30
0.0
 10
25.44644710562259
 20
8.792645640926107
 30
0.0
 10
25.3243393445175
 20
8.752237916972003
 30
0.0
  0
SPLINE
  5
209
330
1F
100
AcDbEntity
  8
0
  6
Continuous
 62
     1
370
    15
100
AcDbSpline
210
0.0
220
0.0
230
1.0
 70
     8
 71
     3
 72
    10
 73
     6
 74
     0
 42
0.000000001
 43
0.00000001
 40
0.0
 40
0.0
 40
0.0
 40
0.0
 40
0.5
 40
0.5
 40
1.0
 40
1.0
 40
1.0
 40
1.0
 10
25.32433934451751
 20
8.752237916972003
 30
0.0
 10
25.28743910054066
 20
8.740026941527358
 30
0.0
 10
25.24409060505729
 20
8.737076149644693
 30
0.0
 10
25.15009072371209
 20
8.753111826256971
 30
0.0
 10
25.09928017916972
 20
8.772704188297048
 30
0.0
 10
25.05432172589959
 20
8.804668108792463
 30
0.0
  0
SPLINE
  5
20A
330
1F
100
AcDbEntity
  8
0
  6
Continuous
 62
     1
370
    15
100
AcDbSpline
210
0.0
220
0.0
230
1.0
 70
     8
 71
     3
 72
    10
 73
     6
 74
     0
 42
0.000000001
 43
0.00000001
 40
0.0
 40
0.0
 40
0.0
 40
0.0
 40
0.5
 40
0.5
 40
1.0
 40
1.0
 40
1.0
 40
1.0
 10
25.05432172589959
 20
8.80466810879246
 30
0.0
 10
24.87838553725789
 20
8.929752713287638
 30
0.0
 10
24.685331135903
 20
9.008200365635522
 30
0.0
 10
24.3144566424812
 20
9.06841403356591
 30
0.0
 10
24.14159726752055
 20
9.049697690856556
 30
0.0
 10
23.99596138325466
 20
8.991195779731317
 30
0.0
  0
SPLINE
  5
20B
330
1F
100
AcDbEntity
  8
0
  6
Continuous
 62
     1
370
    15
100
AcDbSpline
210
0.0
220
0.0
230
1.0
 70
     8
 71
     3
 72
    10
 73
     6
 74
     0
 42
0.000000001
 43
0.00000001
 40
0.0
 40
0.0
 40
0.0
 40
0.0
 40
0.5
 40
0.5
 40
1.0
 40
1.0
 40
1.0
 40
1.0
 10
23.99596138325466
 20
8.991195779731312
 30
0.0
 10
23.95882589449671
 20
8.97627845991099
 30
0.0
 10
23.91531935838361
 20
8.970927592434302
 30
0.0
 10
23.82118081871524
 20
8.983485783248787
 30
0.0
 10
23.77043072496533
 20
9.00206203696857
 30
0.0
 10
23.72577779427016
 20
9.034081743467242
 30
0.0
  0
SPLINE
  5
20C
330
1F
100
AcDbEntity
  8
0
  6
Continuous
 62
     1
370
    15
100
AcDbSpline
210
0.0
220
0.0
230
1.0
 70
     8
 71
     3
 72
     8
 73
     4
 74
     0
 42
0.000000001
 43
0.00000001
 40
0.0
 40
0.0
 40
0.0
 40
0.0
 40
1.0
 40
1.0
 40
1.0
 40
1.0
 10
23.72577779427009
 20
9.03408174346729
 30
0.0
 10
23.59249361712547
 20
9.129657110338977
 30
0.0
 10
23.44610924152138
 20
9.196553456623471
 30
0.0
 10
23.30180793045239
 20
9.23255909321053
 30
0.0
  0
SPLINE
  5
20D
330
1F
100
AcDbEntity
  8
0
  6
Continuous
 62
     1
370
    15
100
AcDbSpline
210
0.0
220
0.0
230
1.0
 70
     8
 71
     3
 72
     8
 73
     4
 74
     0
 42
0.000000001
 43
0.00000001
 40
0.0
 40
0.0
 40
0.0
 40
0.0
 40
1.0
 40
1.0
 40
1.0
 40
1.0
 10
23.30180793045237
 20
9.23255909321054
 30
0.0
 10
23.14822772829747
 20
9.237732321541415
 30
0.0
 10
23.00520581671983
 20
9.207481190740237
 30
0.0
 10
22.8829591212573
 20
9.148546695749426
 30
0.0
  0
SPLINE
  5
20E
330
1F
100
AcDbEntity
  8
0
  6
Continuous
 62
     1
370
    15
100
AcDbSpline
210
0.0
220
0.0
230
1.0
 70
     8
 71
     3
 72
    10
 73
     6
 74
     0
 42
0.000000001
 43
0.00000001
 40
0.0
 40
0.0
 40
0.0
 40
0.0
 40
0.5
 40
0.5
 40
1.0
 40
1.0
 40
1.0
 40
1.0
 10
22.88295912125732
 20
9.148546695749426
 30
0.0
 10
22.84601807473833
 20
9.130737609681363
 30
0.0
 10
22.80262592706095
 20
9.122718766819425
 30
0.0
 10
22.70854628736283
 20
9.130837675272772
 30
0.0
 10
22.65770769742778
 20
9.147658535827246
 30
0.0
 10
22.61272980018191
 20
9.178964965572519
 30
0.0
  0
SPLINE
  5
20F
330
1F
100
AcDbEntity
  8
0
  6
Continuous
 62
     1
370
    15
100
AcDbSpline
210
0.0
220
0.0
230
1.0
 70
     8
 71
     3
 72
    10
 73
     6
 74
     0
 42
0.000000001
 43
0.00000001
 40
0.0
 40
0.0
 40
0.0
 40
0.0
 40
0.5
 40
0.5
 40
1.0
 40
1.0
 40
1.0
 40
1.0
 10
22.61272980018193
 20
9.178964965572511
 30
0.0
 10
22.43657758661159
 20
9.301574007708666
 30
0.0
 10
22.24339836803255
 20
9.368173212621336
 30
0.0
 10
21.87236420973776
 20
9.396987830181503
 30
0.0
 10
21.69943017708796
 20
9.359019278634136
 30
0.0
 10
21.55367337694711
 20
9.279462927550366
 30
0.0
  0
SPLINE
  5
210
330
1F
100
AcDbEntity
  8
0
  6
Continuous
 62
     1
370
    15
100
AcDbSpline
210
0.0
220
0.0
230
1.0
 70
     8
 71
     3
 72
    10
 73
     6
 74
     0
 42
0.000000001
 43
0.00000001
 40
0.0
 40
0.0
 40
0.0
 40
0.0
 40
0.5
 40
0.5
 40
1.0
 40
1.0
 40
1.0
 40
1.0
 10
21.55367337694711
 20
9.279462927550364
 30
0.0
 10
21.51652490793137
 20
9.259186709628555
 30
0.0
 10
21.47300878683961
 20
9.248901582163048
 30
0.0
 10
21.37885276924114
 20
9.253551865487257
 30
0.0
 10
21.3280859063674
 20
9.269225767501112
 30
0.0
 10
21.28341408014891
 20
9.300305947743357
 30
0.0
  0
SPLINE
  5
211
330
1F
100
AcDbEntity
  8
0
  6
Continuous
 62
     1
370
    15
100
AcDbSpline
210
0.0
220
0.0
230
1.0
 70
     8
 71
     3
 72
     8
 73
     4
 74
     0
 42
0.000000001
 43
0.00000001
 40
0.0
 40
0.0
 40
0.0
 40
0.0
 40
1.0
 40
1.0
 40
1.0
 40
1.0
 10
21.28341408014883
 20
9.30030594774341
 30
0.0
 10
21.15012363602437
 20
9.393042049636673
 30
0.0
 10
21.00373673254503
 20
9.451784573316965
 30
0.0
 10
20.8594140861171
 20
9.477086055774132
 30
0.0
  0
SPLINE
  5
212
330
1F
100
AcDbEntity
  8
0
  6
Continuous
 62
     1
370
    15
100
AcDbSpline
210
0.0
220
0.0
230
1.0
 70
     8
 71
     3
 72
     8
 73
     4
 74
     0
 42
0.000000001
 43
0.00000001
 40
0.0
 40
0.0
 40
0.0
 40
0.0
 40
1.0
 40
1.0
 40
1.0
 40
1.0
 10
20.85941408611708
 20
9.477086055774137
 30
0.0
 10
20.70587886604936
 20
9.46783900522002
 30
0.0
 10
20.56287128814666
 20
9.421223418332538
 30
0.0
 10
20.440656842578
 20
9.345042003563437
 30
0.0
  0
SPLINE
  5
213
330
1F
100
AcDbEntity
  8
0
  6
Continuous
 62
     1
370
    15
100
AcDbSpline
210
0.0
220
0.0
230
1.0
 70
     8
 71
     3
 72
    10
 73
     6
 74
     0
 42
0.000000001
 43
0.00000001
 40
0.0
 40
0.0
 40
0.0
 40
0.0
 40
0.5
 40
0.5
 40
1.0
 40
1.0
 40
1.0
 40
1.0
 10
20.44065684257803
 20
9.345042003563451
 30
0.0
 10
20.40373828223266
 20
9.322029108931707
 30
0.0
 10
20.3603684729913
 20
9.309123266842837
 30
0.0
 10
20.26631858638451
 20
9.30917019905687
 30
0.0
 10
20.21549695288771
 20
9.32286986282571
 30
0.0
 10
20.17054368813142
 20
9.352829577942682
 30
0.0
  0
SPLINE
  5
214
330
1F
100
AcDbEntity
  8
0
  6
Continuous
 62
     1
370
    15
100
AcDbSpline
210
0.0
220
0.0
230
1.0
 70
     8
 71
     3
 72
    10
 73
     6
 74
     0
 42
0.000000001
 43
0.00000001
 40
0.0
 40
0.0
 40
0.0
 40
0.0
 40
0.3686568338789288
 40
0.7351231785522158
 40
1.0
 40
1.0
 40
1.0
 40
1.0
 10
20.17054340243341
 20
9.35282930731773
 30
0.0
 10
20.07832959264273
 20
9.402336759943955
 30
0.0
 10
19.89444989008447
 20
9.501057501273188
 30
0.0
 10
19.62840424178322
 20
9.538595206109786
 30
0.0
 10
19.47761184211906
 20
9.500600405980471
 30
0.0
 10
19.4143476560712
 20
9.4846598803997
 30
0.0
  0
SPLINE
  5
215
330
1F
100
AcDbEntity
  8
0
  6
Continuous
 62
     1
370
    15
100
AcDbSpline
210
0.0
220
0.0
230
1.0
 70
     8
 71
     3
 72
    11
 73
     7
 74
     0
 42
0.000000001
 43
0.00000001
 40
0.0
 40
0.0
 40
0.0
 40
0.0
 40
0.0020443428824256
 40
0.3403242418341005
 40
0.7280213991046728
 40
1.0
 40
1.0
 40
1.0
 40
1.0
 10
24.51532712578774
 20
9.032763540744776
 30
0.0
 10
24.51588679608181
 20
9.033070984479975
 30
0.0
 10
24.60905578947476
 20
9.084251516369724
 30
0.0
 10
24.81806862898058
 20
9.119444755011001
 30
0.0
 10
25.08489423071481
 20
9.126853546291299
 30
0.0
 10
25.23415732951863
 20
9.074548431087234
 30
0.0
 10
25.29569721221925
 20
9.052983485162253
 30
0.0
  0
SPLINE
  5
216
330
1F
100
AcDbEntity
  8
0
  6
Continuous
 62
     1
370
    15
100
AcDbSpline
210
0.0
220
0.0
230
1.0
 70
     8
 71
     3
 72
    10
 73
     6
 74
     0
 42
0.000000001
 43
0.00000001
 40
0.0
 40
0.0
 40
0.0
 40
0.0
 40
0.5
 40
0.5
 40
1.0
 40
1.0
 40
1.0
 40
1.0
 10
25.29569737521086
 20
9.0529838859307
 30
0.0
 10
25.33280496654543
 20
9.037166916190367
 30
0.0
 10
25.37628169495857
 20
9.030999431182437
 30
0.0
 10
25.47037058387779
 20
9.042284857288374
 30
0.0
 10
25.52110624903424
 20
9.060418830584153
 30
0.0
 10
25.56575556000612
 20
9.09234800525039
 30
0.0
  0
SPLINE
  5
217
330
1F
100
AcDbEntity
  8
0
  6
Continuous
 62
     1
370
    15
100
AcDbSpline
210
0.0
220
0.0
230
1.0
 70
     8
 71
     3
 72
     8
 73
     4
 74
     0
 42
0.000000001
 43
0.00000001
 40
0.0
 40
0.0
 40
0.0
 40
0.0
 40
1.0
 40
1.0
 40
1.0
 40
1.0
 10
25.56575556000612
 20
9.0923480052504
 30
0.0
 10
25.69897884786957
 20
9.187617328230129
 30
0.0
 10
25.84528555983786
 20
9.253282952430412
 30
0.0
 10
25.98954383088172
 20
9.287564763506815
 30
0.0
  0
SPLINE
  5
218
330
1F
100
AcDbEntity
  8
0
  6
Continuous
 62
     1
370
    15
100
AcDbSpline
210
0.0
220
0.0
230
1.0
 70
     8
 71
     3
 72
     8
 73
     4
 74
     0
 42
0.000000001
 43
0.00000001
 40
0.0
 40
0.0
 40
0.0
 40
0.0
 40
1.0
 40
1.0
 40
1.0
 40
1.0
 10
25.98954383088173
 20
9.287564763506802
 30
0.0
 10
26.14296960806836
 20
9.290333526248025
 30
0.0
 10
26.28588330801841
 20
9.25729302867251
 30
0.0
 10
26.40800886600072
 20
9.195343480551614
 30
0.0
  0
SPLINE
  5
219
330
1F
100
AcDbEntity
  8
0
  6
Continuous
 62
     1
370
    15
100
AcDbSpline
210
0.0
220
0.0
230
1.0
 70
     8
 71
     3
 72
    10
 73
     6
 74
     0
 42
0.000000001
 43
0.00000001
 40
0.0
 40
0.0
 40
0.0
 40
0.0
 40
0.5
 40
0.5
 40
1.0
 40
1.0
 40
1.0
 40
1.0
 10
26.40800886600077
 20
9.195343480551596
 30
0.0
 10
26.44490203488827
 20
9.176629010140253
 30
0.0
 10
26.48824856982128
 20
9.167769273716388
 30
0.0
 10
26.5822630234709
 20
9.174535309981977
 30
0.0
 10
26.63306620865252
 20
9.190859854651688
 30
0.0
 10
26.67800029490884
 20
9.221963256635128
 30
0.0
  0
SPLINE
  5
21A
330
1F
100
AcDbEntity
  8
0
  6
Continuous
 62
     1
370
    15
100
AcDbSpline
210
0.0
220
0.0
230
1.0
 70
     8
 71
     3
 72
    10
 73
     6
 74
     0
 42
0.000000001
 43
0.00000001
 40
0.0
 40
0.0
 40
0.0
 40
0.0
 40
0.5
 40
0.5
 40
1.0
 40
1.0
 40
1.0
 40
1.0
 10
26.67800029490883
 20
9.221963256635139
 30
0.0
 10
26.85392279350947
 20
9.343736917741639
 30
0.0
 10
27.04699588955074
 20
9.40822055201881
 30
0.0
 10
27.41780576902468
 20
9.431607096954966
 30
0.0
 10
27.59052455869896
 20
9.39043553830503
 30
0.0
 10
27.73600541042042
 20
9.307593745996481
 30
0.0
  0
SPLINE
  5
21B
330
1F
100
AcDbEntity
  8
0
  6
Continuous
 62
     1
370
    15
100
AcDbSpline
210
0.0
220
0.0
230
1.0
 70
     8
 71
     3
 72
    10
 73
     6
 74
     0
 42
0.000000001
 43
0.00000001
 40
0.0
 40
0.0
 40
0.0
 40
0.0
 40
0.5
 40
0.5
 40
1.0
 40
1.0
 40
1.0
 40
1.0
 10
27.73600541042044
 20
9.307593745996474
 30
0.0
 10
27.77311657201281
 20
9.286461376309424
 30
0.0
 10
27.81659755952919
 20
9.275382004782113
 30
0.0
 10
27.91068054671262
 20
9.278725456879892
 30
0.0
 10
27.9613988880655
 20
9.293894916243774
 30
0.0
 10
28.00603263049294
 20
9.32474265427144
 30
0.0
  0
SPLINE
  5
21C
330
1F
100
AcDbEntity
  8
0
  6
Continuous
 62
     1
370
    15
100
AcDbSpline
210
0.0
220
0.0
230
1.0
 70
     8
 71
     3
 72
     8
 73
     4
 74
     0
 42
0.000000001
 43
0.00000001
 40
0.0
 40
0.0
 40
0.0
 40
0.0
 40
1.0
 40
1.0
 40
1.0
 40
1.0
 10
28.00603263049293
 20
9.32474265427144
 30
0.0
 10
28.13928671066273
 20
9.416838605286038
 30
0.0
 10
28.28555795797167
 20
9.474119561578942
 30
0.0
 10
28.42977887617832
 20
9.49760643077031
 30
0.0
  0
SPLINE
  5
21D
330
1F
100
AcDbEntity
  8
0
  6
Continuous
 62
     1
370
    15
100
AcDbSpline
210
0.0
220
0.0
230
1.0
 70
     8
 71
     3
 72
     8
 73
     4
 74
     0
 42
0.000000001
 43
0.00000001
 40
0.0
 40
0.0
 40
0.0
 40
0.0
 40
1.0
 40
1.0
 40
1.0
 40
1.0
 10
28.42977887617834
 20
9.497606430770306
 30
0.0
 10
28.58317941600943
 20
9.486005070489732
 30
0.0
 10
28.72609149190517
 20
9.436780790781478
 30
0.0
 10
28.84823628656946
 20
9.357896588399475
 30
0.0
  0
SPLINE
  5
21E
330
1F
100
AcDbEntity
  8
0
  6
Continuous
 62
     1
370
    15
100
AcDbSpline
210
0.0
220
0.0
230
1.0
 70
     8
 71
     3
 72
    10
 73
     6
 74
     0
 42
0.000000001
 43
0.00000001
 40
0.0
 40
0.0
 40
0.0
 40
0.0
 40
0.5
 40
0.5
 40
1.0
 40
1.0
 40
1.0
 40
1.0
 10
28.8482362865695
 20
9.35789658839945
 30
0.0
 10
28.88513052772111
 20
9.33406935291444
 30
0.0
 10
28.92847795556954
 20
9.320380895071557
 30
0.0
 10
29.02249468393636
 20
9.31908932358546
 30
0.0
 10
29.07330471011685
 20
9.332242768250095
 30
0.0
 10
29.11824955598334
 20
9.361917354530698
 30
0.0
  0
SPLINE
  5
21F
330
1F
100
AcDbEntity
  8
0
  6
Continuous
 62
     1
370
    15
100
AcDbSpline
210
0.0
220
0.0
230
1.0
 70
     8
 71
     3
 72
    10
 73
     6
 74
     0
 42
0.000000001
 43
0.00000001
 40
0.0
 40
0.0
 40
0.0
 40
0.0
 40
0.5
 40
0.5
 40
1.0
 40
1.0
 40
1.0
 40
1.0
 10
29.11824955598334
 20
9.36191735453071
 30
0.0
 10
29.29418000383899
 20
9.47807446117171
 30
0.0
 10
29.48726318268534
 20
9.529087656974617
 30
0.0
 10
29.85814713734802
 20
9.520369745729699
 30
0.0
 10
30.0309513334724
 20
9.460894194258675
 30
0.0
 10
30.17652743569758
 20
9.359070510535407
 30
0.0
  0
SPLINE
  5
220
330
1F
100
AcDbEntity
  8
0
  6
Continuous
 62
     1
370
    15
100
AcDbSpline
210
0.0
220
0.0
230
1.0
 70
     8
 71
     3
 72
    10
 73
     6
 74
     0
 42
0.000000001
 43
0.00000001
 40
0.0
 40
0.0
 40
0.0
 40
0.0
 40
0.5
 40
0.5
 40
1.0
 40
1.0
 40
1.0
 40
1.0
 10
30.1765274356976
 20
9.359070510535407
 30
0.0
 10
30.21365827754966
 20
9.333099221022012
 30
0.0
 10
30.25715989997535
 20
9.317354153621686
 30
0.0
 10
30.35128501971181
 20
9.312682571212164
 30
0.0
 10
30.402025263569
 20
9.32455579370109
 30
0.0
 10
30.44667167893907
 20
9.353657685129606
 30
0.0
  0
SPLINE
  5
221
330
1F
100
AcDbEntity
  8
0
  6
Continuous
 62
     1
370
    15
100
AcDbSpline
210
0.0
220
0.0
230
1.0
 70
     8
 71
     3
 72
     8
 73
     4
 74
     0
 42
0.000000001
 43
0.00000001
 40
0.0
 40
0.0
 40
0.0
 40
0.0
 40
1.0
 40
1.0
 40
1.0
 40
1.0
 10
30.44667167893906
 20
9.353657685129624
 30
0.0
 10
30.57995934020492
 20
9.440538636596141
 30
0.0
 10
30.72632758749569
 20
9.488165072612928
 30
0.0
 10
30.8705819737319
 20
9.500310642329568
 30
0.0
  0
SPLINE
  5
222
330
1F
100
AcDbEntity
  8
0
  6
Continuous
 62
     1
370
    15
100
AcDbSpline
210
0.0
220
0.0
230
1.0
 70
     8
 71
     3
 72
     8
 73
     4
 74
     0
 42
0.000000001
 43
0.00000001
 40
0.0
 40
0.0
 40
0.0
 40
0.0
 40
1.0
 40
1.0
 40
1.0
 40
1.0
 10
30.87058197373191
 20
9.500310642329557
 30
0.0
 10
31.02414519261083
 20
9.47454051028323
 30
0.0
 10
31.16712105782299
 20
9.41014260246598
 30
0.0
 10
31.28931960731004
 20
9.316047834456567
 30
0.0
  0
SPLINE
  5
223
330
1F
100
AcDbEntity
  8
0
  6
Continuous
 62
     1
370
    15
100
AcDbSpline
210
0.0
220
0.0
230
1.0
 70
     8
 71
     3
 72
    10
 73
     6
 74
     0
 42
0.000000001
 43
0.00000001
 40
0.0
 40
0.0
 40
0.0
 40
0.0
 40
0.5
 40
0.5
 40
1.0
 40
1.0
 40
1.0
 40
1.0
 10
31.2893196073101
 20
9.316047834456539
 30
0.0
 10
31.32624084251271
 20
9.28761791384297
 30
0.0
 10
31.36961055450406
 20
9.269387387128164
 30
0.0
 10
31.46366348962273
 20
9.26003269415129
 30
0.0
 10
31.51450334955418
 20
9.269701696561262
 30
0.0
 10
31.55948745629075
 20
9.297298232462458
 30
0.0
  0
SPLINE
  5
224
330
1F
100
AcDbEntity
  8
0
  6
Continuous
 62
     1
370
    15
100
AcDbSpline
210
0.0
220
0.0
230
1.0
 70
     8
 71
     3
 72
    10
 73
     6
 74
     0
 42
0.000000001
 43
0.00000001
 40
0.0
 40
0.0
 40
0.0
 40
0.0
 40
0.5
 40
0.5
 40
1.0
 40
1.0
 40
1.0
 40
1.0
 10
31.55948745629073
 20
9.297298232462465
 30
0.0
 10
31.73553972472668
 20
9.405301549608039
 30
0.0
 10
31.92871666109048
 20
9.441650445299821
 30
0.0
 10
32.29981455330752
 20
9.400944773569284
 30
0.0
 10
32.47278222932961
 20
9.324463751844762
 30
0.0
 10
32.61853998652401
 20
9.205853931883055
 30
0.0
  0
SPLINE
  5
225
330
1F
100
AcDbEntity
  8
0
  6
Continuous
 62
     1
370
    15
100
AcDbSpline
210
0.0
220
0.0
230
1.0
 70
     8
 71
     3
 72
    10
 73
     6
 74
     0
 42
0.000000001
 43
0.00000001
 40
0.0
 40
0.0
 40
0.0
 40
0.0
 40
0.5
 40
0.5
 40
1.0
 40
1.0
 40
1.0
 40
1.0
 10
32.618539986524
 20
9.205853931883059
 30
0.0
 10
32.65570263084228
 20
9.175612971561385
 30
0.0
 10
32.69923277771242
 20
9.155543004632163
 30
0.0
 10
32.79341050938245
 20
9.142951167359728
 30
0.0
 10
32.8441834562829
 20
9.151262953417412
 30
0.0
 10
32.88885752849738
 20
9.17799612273946
 30
0.0
  0
SPLINE
  5
226
330
1F
100
AcDbEntity
  8
0
  6
Continuous
 62
     1
370
    15
100
AcDbSpline
210
0.0
220
0.0
230
1.0
 70
     8
 71
     3
 72
     8
 73
     4
 74
     0
 42
0.000000001
 43
0.00000001
 40
0.0
 40
0.0
 40
0.0
 40
0.0
 40
1.0
 40
1.0
 40
1.0
 40
1.0
 10
32.88885752849738
 20
9.17799612273947
 30
0.0
 10
33.02217572861647
 20
9.25777434399461
 30
0.0
 10
33.16859008901579
 20
9.294727236985462
 30
0.0
 10
33.31291550141848
 20
9.295288678081103
 30
0.0
  0
SPLINE
  5
227
330
1F
100
AcDbEntity
  8
0
  6
Continuous
 62
     1
370
    15
100
AcDbSpline
210
0.0
220
0.0
230
1.0
 70
     8
 71
     3
 72
     8
 73
     4
 74
     0
 42
0.000000001
 43
0.00000001
 40
0.0
 40
0.0
 40
0.0
 40
0.0
 40
1.0
 40
1.0
 40
1.0
 40
1.0
 10
33.31291550141849
 20
9.295288678081102
 30
0.0
 10
33.46649570283969
 20
9.255944293672059
 30
0.0
 10
33.60952085384043
 20
9.177834704808012
 30
0.0
 10
33.73174987623248
 20
9.070554360744998
 30
0.0
  0
SPLINE
  5
228
330
1F
100
AcDbEntity
  8
0
  6
Continuous
 62
     1
370
    15
100
AcDbSpline
210
0.0
220
0.0
230
1.0
 70
     8
 71
     3
 72
    10
 73
     6
 74
     0
 42
0.000000001
 43
0.00000001
 40
0.0
 40
0.0
 40
0.0
 40
0.0
 40
0.5
 40
0.5
 40
1.0
 40
1.0
 40
1.0
 40
1.0
 10
33.73174987623253
 20
9.07055436074497
 30
0.0
 10
33.76867628375446
 20
9.03814407367536
 30
0.0
 10
33.81205208685709
 20
9.015776932859291
 30
0.0
 10
33.90610341736128
 20
8.998595717573627
 30
0.0
 10
33.95692710228143
 20
9.004597760235646
 30
0.0
 10
34.00189116562477
 20
9.029488735473782
 30
0.0
  0
SPLINE
  5
229
330
1F
100
AcDbEntity
  8
0
  6
Continuous
 62
     1
370
    15
100
AcDbSpline
210
0.0
220
0.0
230
1.0
 70
     8
 71
     3
 72
    10
 73
     6
 74
     0
 42
0.000000001
 43
0.00000001
 40
0.0
 40
0.0
 40
0.0
 40
0.0
 40
0.5
 40
0.5
 40
1.0
 40
1.0
 40
1.0
 40
1.0
 10
34.00189116562477
 20
9.029488735473793
 30
0.0
 10
34.17791852012868
 20
9.126933054256437
 30
0.0
 10
34.37094420177042
 20
9.147784315428487
 30
0.0
 10
34.7417988088432
 20
9.075941771333682
 30
0.0
 10
34.91464708822635
 20
8.98410427991785
 30
0.0
 10
35.06028547981446
 20
8.851270915420178
 30
0.0
  0
SPLINE
  5
22A
330
1F
100
AcDbEntity
  8
0
  6
Continuous
 62
     1
370
    15
100
AcDbSpline
210
0.0
220
0.0
230
1.0
 70
     8
 71
     3
 72
    10
 73
     6
 74
     0
 42
0.000000001
 43
0.00000001
 40
0.0
 40
0.0
 40
0.0
 40
0.0
 40
0.5
 40
0.5
 40
1.0
 40
1.0
 40
1.0
 40
1.0
 10
35.06028547981446
 20
8.851270915420185
 30
0.0
 10
35.09740469743636
 20
8.817415346771895
 30
0.0
 10
35.14089381320465
 20
8.793461368082069
 30
0.0
 10
35.2350048369027
 20
8.773236794461107
 30
0.0
 10
35.28574413274768
 20
8.777819876266733
 30
0.0
 10
35.3303883843915
 20
8.801581302635105
 30
0.0
  0
SPLINE
  5
22B
330
1F
100
AcDbEntity
  8
0
  6
Continuous
 62
     1
370
    15
100
AcDbSpline
210
0.0
220
0.0
230
1.0
 70
     8
 71
     3
 72
     8
 73
     4
 74
     0
 42
0.000000001
 43
0.00000001
 40
0.0
 40
0.0
 40
0.0
 40
0.0
 40
1.0
 40
1.0
 40
1.0
 40
1.0
 10
35.3303883843915
 20
8.801581302635114
 30
0.0
 10
35.36854779262396
 20
8.821891240322289
 30
0.0
 10
35.40785939888396
 20
8.83850304222834
 30
0.0
 10
35.44793303798543
 20
8.851597559674264
 30
0.0
  0
SPLINE
  5
22C
330
1F
100
AcDbEntity
  8
0
  6
Continuous
 62
     1
370
    15
100
AcDbSpline
210
0.0
220
0.0
230
1.0
 70
     8
 71
     3
 72
    10
 73
     6
 74
     0
 42
0.000000001
 43
0.00000001
 40
0.0
 40
0.0
 40
0.0
 40
0.0
 40
0.5
 40
0.5
 40
1.0
 40
1.0
 40
1.0
 40
1.0
 10
35.44793303798534
 20
8.851597559674678
 30
0.0
 10
35.44361217317811
 20
8.599916894238092
 30
0.0
 10
35.42656178069826
 20
8.352063396913872
 30
0.0
 10
35.36373191603414
 20
7.864993880463373
 30
0.0
 10
35.31702120091073
 20
7.622641905466705
 30
0.0
 10
35.25487383898373
 20
7.396082430315029
 30
0.0
  0
SPLINE
  5
22D
330
1F
100
AcDbEntity
  8
0
  6
Continuous
 62
     1
370
    15
100
AcDbSpline
210
0.0
220
0.0
230
1.0
 70
     8
 71
     3
 72
    10
 73
     6
 74
     0
 42
0.000000001
 43
0.00000001
 40
0.0
 40
0.0
 40
0.0
 40
0.0
 40
0.5
 40
0.5
 40
1.0
 40
1.0
 40
1.0
 40
1.0
 10
37.40000000000002
 20
5.160573045142381
 30
0.0
 10
37.04116736529889
 20
5.506429831488652
 30
0.0
 10
36.68296671673286
 20
5.865165311333474
 30
0.0
 10
35.96787031145089
 20
6.609227522402332
 30
0.0
 10
35.61097115000486
 20
6.994484871605661
 30
0.0
 10
35.25487383898363
 20
7.396082430314959
 30
0.0
  0
LINE
  5
22E
330
1F
100
AcDbEntity
  8
0
  6
Continuous
 62
     1
370
    15
100
AcDbLine
 10
37.39999985694886
 20
4.283129237592216
 30
0.0
 11
37.39999985694886
 21
5.16057293862104
 31
0.0
  0
SPLINE
  5
22F
330
1F
100
AcDbEntity
  8
외형선
  6
Continuous
370
    15
100
AcDbSpline
210
0.0
220
0.0
230
1.0
 70
     8
 71
     3
 72
     8
 73
     4
 74
     0
 42
0.000000001
 43
0.00000001
 40
0.0
 40
0.0
 40
0.0
 40
0.0
 40
1.0
 40
1.0
 40
1.0
 40
1.0
 10
11.03686343159995
 20
-8.349439335709073
 30
0.0
 10
11.11056058100975
 20
-8.367173780754912
 30
0.0
 10
11.18426494262475
 20
-8.384618083342264
 30
0.0
 10
11.25797671920583
 20
-8.40177281427335
 30
0.0
  0
SPLINE
  5
230
330
1F
100
AcDbEntity
  8
외형선
  6
Continuous
370
    15
100
AcDbSpline
210
0.0
220
0.0
230
1.0
 70
     8
 71
     3
 72
    10
 73
     6
 74
     0
 42
0.000000001
 43
0.00000001
 40
0.0
 40
0.0
 40
0.0
 40
0.0
 40
0.5
 40
0.5
 40
1.0
 40
1.0
 40
1.0
 40
1.0
 10
11.57931663685769
 20
-4.376886520119846
 30
0.0
 10
11.53019435845477
 20
-5.227261747207803
 30
0.0
 10
11.47844461585618
 20
-6.009952439758811
 30
0.0
 10
11.37056584411334
 20
-7.373159482276217
 30
0.0
 10
11.31506742641338
 20
-7.951362951330529
 30
0.0
 10
11.25797671920832
 20
-8.40177281427292
 30
0.0
  0
SPLINE
  5
231
330
1F
100
AcDbEntity
  8
0
  6
Continuous
 62
     1
370
    15
100
AcDbSpline
210
0.0
220
0.0
230
1.0
 70
     8
 71
     3
 72
    10
 73
     6
 74
     0
 42
0.000000001
 43
0.00000001
 40
0.0
 40
0.0
 40
0.0
 40
0.0
 40
0.5
 40
0.5
 40
1.0
 40
1.0
 40
1.0
 40
1.0
 10
32.5775438141474
 20
-4.537335351930359
 30
0.0
 10
32.53914687243995
 20
-5.371115253863791
 30
0.0
 10
32.49798756902247
 20
-6.155540211156992
 30
0.0
 10
32.41552478088354
 20
-7.508545223362335
 30
0.0
 10
32.37430735156072
 20
-8.075704870737507
 30
0.0
 10
32.33580646071903
 20
-8.503353978287183
 30
0.0
  0
SPLINE
  5
232
330
1F
100
AcDbEntity
  8
외형선
  6
Continuous
370
    15
100
AcDbSpline
210
0.0
220
0.0
230
1.0
 70
     8
 71
     3
 72
     8
 73
     4
 74
     0
 42
0.000000001
 43
0.00000001
 40
0.0
 40
0.0
 40
0.0
 40
0.0
 40
1.0
 40
1.0
 40
1.0
 40
1.0
 10
11.25797671920583
 20
-8.401772814273341
 30
0.0
 10
11.39071362143697
 20
-8.421587561082363
 30
0.0
 10
11.51570645701257
 20
-8.418251191444687
 30
0.0
 10
11.624672714261
 20
-8.394438221152132
 30
0.0
  0
SPLINE
  5
233
330
1F
100
AcDbEntity
  8
0
  6
Continuous
 62
     1
370
    15
100
AcDbSpline
210
0.0
220
0.0
230
1.0
 70
     8
 71
     3
 72
    14
 73
    10
 74
     0
 42
0.000000001
 43
0.00000001
 40
0.0
 40
0.0
 40
0.0
 40
0.0
 40
0.4999999999999996
 40
0.4999999999999996
 40
0.7499999999999997
 40
0.7499999999999997
 40
0.8749999999999998
 40
0.8749999999999998
 40
1.0
 40
1.0
 40
1.0
 40
1.0
 10
12.56074767033773
 20
-4.895333831330965
 30
0.0
 10
12.52161334417568
 20
-5.713982565748815
 30
0.0
 10
12.48006723298286
 20
-6.473726484056384
 30
0.0
 10
12.41828891711091
 20
-7.441075561540023
 30
0.0
 10
12.39779582920412
 20
-7.735109434411889
 30
0.0
 10
12.36772812704229
 20
-8.12710799805762
 30
0.0
 10
12.35781710465829
 20
-8.249634425798492
 30
0.0
 10
12.33829685961061
 20
-8.477785041723076
 30
0.0
 10
12.3287983853816
 20
-8.583069320868184
 30
0.0
 10
12.31910227625505
 20
-8.680968229869492
 30
0.0
  0
SPLINE
  5
234
330
1F
100
AcDbEntity
  8
0
  6
Continuous
 62
     1
370
    15
100
AcDbSpline
210
0.0
220
0.0
230
1.0
 70
     8
 71
     3
 72
     8
 73
     4
 74
     0
 42
0.000000001
 43
0.00000001
 40
0.2566413186712314
 40
0.2566413186712314
 40
0.2566413186712314
 40
0.2566413186712314
 40
1.0
 40
1.0
 40
1.0
 40
1.0
 10
12.00000000000001
 20
-8.53206424803405
 30
0.0
 10
12.10336923338574
 20
-8.595126419388444
 30
0.0
 10
12.21183110072773
 20
-8.645508669421144
 30
0.0
 10
12.31910227625505
 20
-8.680968229869508
 30
0.0
  0
SPLINE
  5
235
330
1F
100
AcDbEntity
  8
외형선
  6
Continuous
370
    15
100
AcDbSpline
210
0.0
220
0.0
230
1.0
 70
     8
 71
     3
 72
    10
 73
     6
 74
     0
 42
0.000000001
 43
0.00000001
 40
0.0
 40
0.0
 40
0.0
 40
0.0
 40
0.5
 40
0.5
 40
1.0
 40
1.0
 40
1.0
 40
1.0
 10
11.62467271426104
 20
-8.394438221152129
 30
0.0
 10
11.66184060555959
 20
-8.386315726045119
 30
0.0
 10
11.70537721468016
 20
-8.386976213589309
 30
0.0
 10
11.7995623954125
 20
-8.408560683741024
 30
0.0
 10
11.85033818193017
 20
-8.43005025606901
 30
0.0
 10
11.8950162889107
 20
-8.462306596560609
 30
0.0
  0
SPLINE
  5
236
330
1F
100
AcDbEntity
  8
0
  6
Continuous
 62
     1
370
    15
100
AcDbSpline
210
0.0
220
0.0
230
1.0
 70
     8
 71
     3
 72
    12
 73
     8
 74
     0
 42
0.000000001
 43
0.00000001
 40
0.0
 40
0.0
 40
0.0
 40
0.0
 40
0.4999999999999998
 40
0.4999999999999998
 40
0.7499999999999999
 40
0.7499999999999999
 40
1.0
 40
1.0
 40
1.0
 40
1.0
 10
25.74282832526876
 20
8.786336219244399
 30
0.0
 10
25.70182900595866
 20
8.411980927870383
 30
0.0
 10
25.65997222503339
 20
7.895533455485999
 30
0.0
 10
25.60015860033257
 20
6.965519397373117
 30
0.0
 10
25.58117214992328
 20
6.633108400785268
 30
0.0
 10
25.54204980328788
 20
5.914840414648414
 30
0.0
 10
25.52188858379451
 20
5.528299134519632
 30
0.0
 10
25.50145691303487
 20
5.119971157493704
 30
0.0
  0
SPLINE
  5
237
330
1F
100
AcDbEntity
  8
0
  6
Continuous
 62
     1
370
    15
100
AcDbSpline
210
0.0
220
0.0
230
1.0
 70
     8
 71
     3
 72
     8
 73
     4
 74
     0
 42
0.000000001
 43
0.00000001
 40
0.0
 40
0.0
 40
0.0
 40
0.0
 40
1.0
 40
1.0
 40
1.0
 40
1.0
 10
12.31910227625507
 20
-8.68096822986949
 30
0.0
 10
12.47270445700748
 20
-8.70312445503342
 30
0.0
 10
12.61573847360949
 20
-8.693188947513283
 30
0.0
 10
12.73797784189492
 20
-8.656357177313568
 30
0.0
  0
LINE
  5
238
330
1F
100
AcDbEntity
  8
0
  6
Continuous
 62
     1
370
    15
100
AcDbLine
 10
37.39999985694886
 20
-0.4529406724032067
 30
0.0
 11
37.39999985694886
 21
-3.766232402995234
 31
0.0
  0
SPLINE
  5
239
330
1F
100
AcDbEntity
  8
0
  6
Continuous
 62
     1
370
    15
100
AcDbSpline
210
0.0
220
0.0
230
1.0
 70
     8
 71
     3
 72
    10
 73
     6
 74
     0
 42
0.000000001
 43
0.00000001
 40
0.0
 40
0.0
 40
0.0
 40
0.0
 40
0.5
 40
0.5
 40
1.0
 40
1.0
 40
1.0
 40
1.0
 10
13.00813347088309
 20
-8.712799701453962
 30
0.0
 10
13.18410261084434
 20
-8.838095509140278
 30
0.0
 10
13.37716849853957
 20
-8.918596778637532
 30
0.0
 10
13.74807355108589
 20
-8.98464163577249
 30
0.0
 10
13.9209757982946
 20
-8.969631187139282
 30
0.0
 10
14.06662726034699
 20
-8.915203825305932
 30
0.0
  0
SPLINE
  5
23A
330
1F
100
AcDbEntity
  8
0
  6
Continuous
 62
     1
370
    15
100
AcDbSpline
210
0.0
220
0.0
230
1.0
 70
     8
 71
     3
 72
    10
 73
     6
 74
     0
 42
0.000000001
 43
0.00000001
 40
0.0
 40
0.0
 40
0.0
 40
0.0
 40
0.5
 40
0.5
 40
1.0
 40
1.0
 40
1.0
 40
1.0
 10
12.73797784189511
 20
-8.656357177313511
 30
0.0
 10
12.77490809801924
 20
-8.645229774365832
 30
0.0
 10
12.81828633988424
 20
-8.643234936118773
 30
0.0
 10
12.91233589532539
 20
-8.660712181025106
 30
0.0
 10
12.96316088453101
 20
-8.680777742762979
 30
0.0
 10
13.00813347088309
 20
-8.712799701453957
 30
0.0
  0
SPLINE
  5
23B
330
1F
100
AcDbEntity
  8
0
  6
Continuous
 62
     1
370
    15
100
AcDbSpline
210
0.0
220
0.0
230
1.0
 70
     8
 71
     3
 72
    12
 73
     8
 74
     0
 42
0.000000001
 43
0.00000001
 40
0.0
 40
0.0
 40
0.0
 40
0.0
 40
0.4999999999999994
 40
0.4999999999999994
 40
0.7499999999999996
 40
0.7499999999999996
 40
1.0
 40
1.0
 40
1.0
 40
1.0
 10
35.01932387615942
 20
-5.722967603360687
 30
0.0
 10
34.9788385548533
 20
-6.494667622270531
 30
0.0
 10
34.93686932027568
 20
-7.185250575110787
 30
0.0
 10
34.87598393578214
 20
-8.028388821414833
 30
0.0
 10
34.85603572569619
 20
-8.277760304666602
 30
0.0
 10
34.81746888158491
 20
-8.70789277485025
 30
0.0
 10
34.7980059211936
 20
-8.892067209170667
 30
0.0
 10
34.77787380507647
 20
-9.043343545122193
 30
0.0
  0
SPLINE
  5
23C
330
1F
100
AcDbEntity
  8
0
  6
Continuous
 62
     1
370
    15
100
AcDbSpline
210
0.0
220
0.0
230
1.0
 70
     8
 71
     3
 72
    12
 73
     8
 74
     0
 42
0.000000001
 43
0.00000001
 40
0.0
 40
0.0
 40
0.0
 40
0.0
 40
0.5000000000000002
 40
0.5000000000000002
 40
0.7500000000000002
 40
0.7500000000000002
 40
1.0
 40
1.0
 40
1.0
 40
1.0
 10
15.00200696217433
 20
-6.046570994114644
 30
0.0
 10
14.96115327134511
 20
-6.794816309244552
 30
0.0
 10
14.919223011482
 20
-7.4533745593709
 30
0.0
 10
14.8589942810313
 20
-8.242107255970751
 30
0.0
 10
14.83971996689879
 20
-8.471176554521197
 30
0.0
 10
14.80096719360872
 20
-8.865593152651606
 30
0.0
 10
14.78094600798557
 20
-9.032335205717512
 30
0.0
 10
14.76060187833689
 20
-9.164166569717544
 30
0.0
  0
SPLINE
  5
23D
330
1F
100
AcDbEntity
  8
0
  6
Continuous
 62
     1
370
    15
100
AcDbSpline
210
0.0
220
0.0
230
1.0
 70
     8
 71
     3
 72
     8
 73
     4
 74
     0
 42
0.000000001
 43
0.00000001
 40
0.0
 40
0.0
 40
0.0
 40
0.0
 40
1.0
 40
1.0
 40
1.0
 40
1.0
 10
14.33675013773782
 20
-8.962122307564643
 30
0.0
 10
14.46999215425975
 20
-9.057980206035094
 30
0.0
 10
14.61633359702371
 20
-9.126245580743127
 30
0.0
 10
14.76060187833689
 20
-9.164166569717558
 30
0.0
  0
SPLINE
  5
23E
330
1F
100
AcDbEntity
  8
0
  6
Continuous
 62
     1
370
    15
100
AcDbSpline
210
0.0
220
0.0
230
1.0
 70
     8
 71
     3
 72
    10
 73
     6
 74
     0
 42
0.000000001
 43
0.00000001
 40
0.0
 40
0.0
 40
0.0
 40
0.0
 40
0.5
 40
0.5
 40
1.0
 40
1.0
 40
1.0
 40
1.0
 10
14.06662726034703
 20
-8.915203825305914
 30
0.0
 10
14.10375183795391
 20
-8.90133103069165
 30
0.0
 10
14.14724638293619
 20
-8.896918023073257
 30
0.0
 10
14.24136588087965
 20
-8.91092825739775
 30
0.0
 10
14.29210665124344
 20
-8.93000457993297
 30
0.0
 10
14.33675013773781
 20
-8.962122307564627
 30
0.0
  0
SPLINE
  5
23F
330
1F
100
AcDbEntity
  8
0
  6
Continuous
 62
     1
370
    15
100
AcDbSpline
210
0.0
220
0.0
230
1.0
 70
     8
 71
     3
 72
    12
 73
     8
 74
     0
 42
0.000000001
 43
0.00000001
 40
0.0
 40
0.0
 40
0.0
 40
0.0
 40
0.2499999999999988
 40
0.2499999999999988
 40
0.499999999999998
 40
0.499999999999998
 40
1.0
 40
1.0
 40
1.0
 40
1.0
 10
36.62427585153673
 20
-8.398710541605407
 30
0.0
 10
36.52434895654336
 20
-8.51274987470354
 30
0.0
 10
36.42384199373448
 20
-8.60734051086739
 30
0.0
 10
36.22198079387542
 20
-8.768114104474899
 30
0.0
 10
36.12035987251327
 20
-8.833802874297813
 30
0.0
 10
35.82646966659367
 20
-8.984580834245572
 30
0.0
 10
35.63786421222936
 20
-9.028822706565634
 30
0.0
 10
35.46845119453432
 20
-9.011830364851072
 30
0.0
  0
SPLINE
  5
240
330
1F
100
AcDbEntity
  8
0
  6
Continuous
 62
     1
370
    15
100
AcDbSpline
210
0.0
220
0.0
230
1.0
 70
     8
 71
     3
 72
    12
 73
     8
 74
     0
 42
0.000000001
 43
0.00000001
 40
0.0
 40
0.0
 40
0.0
 40
0.0
 40
0.4999999999999998
 40
0.4999999999999998
 40
0.7499999999999999
 40
0.7499999999999999
 40
1.0
 40
1.0
 40
1.0
 40
1.0
 10
23.30180793045237
 20
9.232559093210542
 30
0.0
 10
23.26232392645653
 20
8.99718567449278
 30
0.0
 10
23.22062124841438
 20
8.614329556060923
 30
0.0
 10
23.15894784249457
 20
7.849802294306855
 30
0.0
 10
23.13854480739784
 20
7.563908075114019
 30
0.0
 10
23.09873461118294
 20
6.941722047417011
 30
0.0
 10
23.07978672618569
 20
6.608424739459356
 30
0.0
 10
23.06020592365907
 20
6.248150291530222
 30
0.0
  0
SPLINE
  5
241
330
1F
100
AcDbEntity
  8
0
  6
Continuous
 62
     1
370
    15
100
AcDbSpline
210
0.0
220
0.0
230
1.0
 70
     8
 71
     3
 72
     8
 73
     4
 74
     0
 42
0.000000001
 43
0.00000001
 40
0.0
 40
0.0
 40
0.0
 40
0.0
 40
1.0
 40
1.0
 40
1.0
 40
1.0
 10
35.46845119453432
 20
-9.01183036485107
 30
0.0
 10
35.46104147724207
 20
-9.0110871607576
 30
0.0
 10
35.45352448020181
 20
-9.010710319711654
 30
0.0
 10
35.44590894999636
 20
-9.010669971912554
 30
0.0
  0
SPLINE
  5
242
330
1F
100
AcDbEntity
  8
0
  6
Continuous
 62
     1
370
    15
100
AcDbSpline
210
0.0
220
0.0
230
1.0
 70
     8
 71
     3
 72
     8
 73
     4
 74
     0
 42
0.000000001
 43
0.00000001
 40
0.0
 40
0.0
 40
0.0
 40
0.0
 40
1.0
 40
1.0
 40
1.0
 40
1.0
 10
14.76060187833693
 20
-9.164166569717548
 30
0.0
 10
14.91407821883938
 20
-9.172016044304062
 30
0.0
 10
15.05700461723421
 20
-9.144899819278297
 30
0.0
 10
15.17913106463756
 20
-9.089309757333444
 30
0.0
  0
SPLINE
  5
243
330
1F
100
AcDbEntity
  8
0
  6
Continuous
 62
     1
370
    15
100
AcDbSpline
210
0.0
220
0.0
230
1.0
 70
     8
 71
     3
 72
    10
 73
     6
 74
     0
 42
0.000000001
 43
0.00000001
 40
0.0
 40
0.0
 40
0.0
 40
0.0
 40
0.5
 40
0.5
 40
1.0
 40
1.0
 40
1.0
 40
1.0
 10
15.44913946831835
 20
-9.123857738721128
 30
0.0
 10
15.62512295208604
 20
-9.247063910999467
 30
0.0
 10
15.81819180197289
 20
-9.316013090242405
 30
0.0
 10
16.18887353704119
 20
-9.350798076289607
 30
0.0
 10
16.36157950811663
 20
-9.316401677562807
 30
0.0
 10
16.50712454582573
 20
-9.240681705943377
 30
0.0
  0
SPLINE
  5
244
330
1F
100
AcDbEntity
  8
0
  6
Continuous
 62
     1
370
    15
100
AcDbSpline
210
0.0
220
0.0
230
1.0
 70
     8
 71
     3
 72
    10
 73
     6
 74
     0
 42
0.000000001
 43
0.00000001
 40
0.0
 40
0.0
 40
0.0
 40
0.0
 40
0.5
 40
0.5
 40
1.0
 40
1.0
 40
1.0
 40
1.0
 10
15.17913106463775
 20
-9.08930975733336
 30
0.0
 10
15.21603115787046
 20
-9.072513408039711
 30
0.0
 10
15.25938323236039
 20
-9.065421907462262
 30
0.0
 10
15.35339871184897
 20
-9.075026941572142
 30
0.0
 10
15.40420066133291
 20
-9.092396045402568
 30
0.0
 10
15.44913946831834
 20
-9.123857738721117
 30
0.0
  0
SPLINE
  5
245
330
1F
100
AcDbEntity
  8
0
  6
Continuous
 62
     1
370
    15
100
AcDbSpline
210
0.0
220
0.0
230
1.0
 70
     8
 71
     3
 72
    10
 73
     6
 74
     0
 42
0.000000001
 43
0.00000001
 40
0.0
 40
0.0
 40
0.0
 40
0.0
 40
0.5
 40
0.5
 40
1.0
 40
1.0
 40
1.0
 40
1.0
 10
36.91850428390614
 20
-8.203330962611146
 30
0.0
 10
36.87262415966396
 20
-8.212087361311786
 30
0.0
 10
36.82431831445976
 20
-8.234669479896963
 30
0.0
 10
36.72442893419786
 20
-8.300115401811007
 30
0.0
 10
36.67362556355226
 20
-8.342391286942219
 30
0.0
 10
36.62427585153674
 20
-8.398710541605412
 30
0.0
  0
SPLINE
  5
246
330
1F
100
AcDbEntity
  8
0
  6
Continuous
 62
     1
370
    15
100
AcDbSpline
210
0.0
220
0.0
230
1.0
 70
     8
 71
     3
 72
     8
 73
     4
 74
     0
 42
0.000000001
 43
0.00000001
 40
0.0
 40
0.0
 40
0.0
 40
0.0
 40
1.0
 40
1.0
 40
1.0
 40
1.0
 10
37.25047789699143
 20
-6.647587835493394
 30
0.0
 10
37.24194623360569
 20
-7.197241639741615
 30
0.0
 10
37.23420688336451
 20
-7.680303772433142
 30
0.0
 10
37.22745778622219
 20
-8.086170176342195
 30
0.0
  0
SPLINE
  5
247
330
1F
100
AcDbEntity
  8
0
  6
Continuous
 62
     1
370
    15
100
AcDbSpline
210
0.0
220
0.0
230
1.0
 70
     8
 71
     3
 72
     8
 73
     4
 74
     0
 42
0.000000001
 43
0.00000001
 40
0.0
 40
0.0
 40
0.0
 40
0.0
 40
1.0
 40
1.0
 40
1.0
 40
1.0
 10
37.22745778622217
 20
-8.086170176342188
 30
0.0
 10
37.1210914795724
 20
-8.144177548477844
 30
0.0
 10
37.01728456704752
 20
-8.184478364514568
 30
0.0
 10
36.91850428390632
 20
-8.203330962610885
 30
0.0
  0
ELLIPSE
  5
248
330
1F
100
AcDbEntity
  8
0
  6
Continuous
 62
     1
370
    15
100
AcDbEllipse
 10
29.08450504474675
 20
-7.26032787140265
 30
0.0
 11
11.02939951661354
 21
13.84571846433647
 31
0.0
210
0.0
220
0.0
230
1.0
 40
0.401638560885522
 41
4.96519977639144
 42
4.983931854797767
  0
LINE
  5
249
330
1F
100
AcDbEntity
  8
0
  6
Continuous
 62
     1
370
    15
100
AcDbLine
 10
37.39999985694886
 20
-7.814170792698865
 30
0.0
 11
37.39999985694886
 21
-6.558536551892762
 31
0.0
  0
SPLINE
  5
24A
330
1F
100
AcDbEntity
  8
0
  6
Continuous
 62
     1
370
    15
100
AcDbSpline
210
0.0
220
0.0
230
1.0
 70
     8
 71
     3
 72
    12
 73
     8
 74
     0
 42
0.000000001
 43
0.00000001
 40
0.0
 40
0.0
 40
0.0
 40
0.0
 40
0.2500000000000002
 40
0.2500000000000002
 40
0.5000000000000001
 40
0.5000000000000001
 40
1.0
 40
1.0
 40
1.0
 40
1.0
 10
17.44225994778792
 20
-7.065488292356053
 30
0.0
 10
17.42164259612552
 20
-7.391245455176197
 30
0.0
 10
17.40110516481916
 20
-7.688845074679659
 30
0.0
 10
17.36089152247888
 20
-8.218891451196537
 30
0.0
 10
17.34153073064235
 20
-8.450292266984135
 30
0.0
 10
17.28351642937368
 20
-9.047776659264128
 30
0.0
 10
17.24218313360615
 20
-9.322680136946206
 30
0.0
 10
17.20091905652318
 20
-9.446878116490806
 30
0.0
  0
SPLINE
  5
24B
330
1F
100
AcDbEntity
  8
0
  6
Continuous
 62
     1
370
    15
100
AcDbSpline
210
0.0
220
0.0
230
1.0
 70
     8
 71
     3
 72
     8
 73
     4
 74
     0
 42
0.000000001
 43
0.00000001
 40
0.0
 40
0.0
 40
0.0
 40
0.0
 40
1.0
 40
1.0
 40
1.0
 40
1.0
 10
16.77715320957235
 20
-9.265716136856966
 30
0.0
 10
16.91036334159683
 20
-9.359126551431157
 30
0.0
 10
17.05666822211458
 20
-9.419517199891256
 30
0.0
 10
17.20091905652321
 20
-9.446878116490817
 30
0.0
  0
SPLINE
  5
24C
330
1F
100
AcDbEntity
  8
0
  6
Continuous
 62
     1
370
    15
100
AcDbSpline
210
0.0
220
0.0
230
1.0
 70
     8
 71
     3
 72
    10
 73
     6
 74
     0
 42
0.000000001
 43
0.00000001
 40
0.0
 40
0.0
 40
0.0
 40
0.0
 40
0.5
 40
0.5
 40
1.0
 40
1.0
 40
1.0
 40
1.0
 10
16.50712454582575
 20
-9.240681705943377
 30
0.0
 10
16.54422814903217
 20
-9.221378514120484
 30
0.0
 10
16.58770251288704
 20
-9.21200630531767
 30
0.0
 10
16.68178865242877
 20
-9.218161200480099
 30
0.0
 10
16.73251673115939
 20
-9.234415875455527
 30
0.0
 10
16.77715320957234
 20
-9.265716136856957
 30
0.0
  0
SPLINE
  5
24D
330
1F
100
AcDbEntity
  8
0
  6
Continuous
 62
     1
370
    15
100
AcDbSpline
210
0.0
220
0.0
230
1.0
 70
     8
 71
     3
 72
    12
 73
     8
 74
     0
 42
0.000000001
 43
0.00000001
 40
0.0
 40
0.0
 40
0.0
 40
0.0
 40
0.25
 40
0.25
 40
0.5
 40
0.5
 40
1.0
 40
1.0
 40
1.0
 40
1.0
 10
20.85941408611708
 20
9.477086055774135
 30
0.0
 10
20.83966791129773
 20
9.429133312004788
 30
0.0
 10
20.82080470517058
 20
9.34663022234909
 30
0.0
 10
20.78128857601505
 20
9.10937901443643
 30
0.0
 10
20.76098638051092
 20
8.954497329129435
 30
0.0
 10
20.69945989337468
 20
8.385189583740338
 30
0.0
 10
20.65764166316569
 20
7.864079592981986
 30
0.0
 10
20.61785334496862
 20
7.240508055480812
 30
0.0
  0
SPLINE
  5
24E
330
1F
100
AcDbEntity
  8
0
  6
Continuous
 62
     1
370
    15
100
AcDbSpline
210
0.0
220
0.0
230
1.0
 70
     8
 71
     3
 72
     8
 73
     4
 74
     0
 42
0.000000001
 43
0.00000001
 40
0.0
 40
0.0
 40
0.0
 40
0.0
 40
1.0
 40
1.0
 40
1.0
 40
1.0
 10
17.2009190565232
 20
-9.446878116490806
 30
0.0
 10
17.35435010463575
 20
-9.440326125151806
 30
0.0
 10
17.49725263175111
 20
-9.396704745569096
 30
0.0
 10
17.61936414363874
 20
-9.323643287717957
 30
0.0
  0
SPLINE
  5
24F
330
1F
100
AcDbEntity
  8
0
  6
Continuous
 62
     1
370
    15
100
AcDbSpline
210
0.0
220
0.0
230
1.0
 70
     8
 71
     3
 72
    11
 73
     7
 74
     0
 42
0.000000001
 43
0.00000001
 40
0.0
 40
0.0
 40
0.0
 40
0.0
 40
0.2792341793703012
 40
0.5568124175661051
 40
0.8748392112223253
 40
1.0
 40
1.0
 40
1.0
 40
1.0
 10
17.88935816287995
 20
-9.335695765912536
 30
0.0
 10
17.98186083659253
 20
-9.386821684622776
 30
0.0
 10
18.16631761583562
 20
-9.488770330241776
 30
0.0
 10
18.46855909926551
 20
-9.524247954867697
 30
0.0
 10
18.70648458642011
 20
-9.491183253648817
 30
0.0
 10
18.82955425114342
 20
-9.424483975319797
 30
0.0
 10
18.86431040614844
 20
-9.405647404491907
 30
0.0
  0
SPLINE
  5
250
330
1F
100
AcDbEntity
  8
0
  6
Continuous
 62
     1
370
    15
100
AcDbSpline
210
0.0
220
0.0
230
1.0
 70
     8
 71
     3
 72
    10
 73
     6
 74
     0
 42
0.000000001
 43
0.00000001
 40
0.0
 40
0.0
 40
0.0
 40
0.0
 40
0.5
 40
0.5
 40
1.0
 40
1.0
 40
1.0
 40
1.0
 10
17.61936414363891
 20
-9.323643287717855
 30
0.0
 10
17.65625887317832
 20
-9.301568524368315
 30
0.0
 10
17.69960729437409
 20
-9.289559827749686
 30
0.0
 10
17.79362273538964
 20
-9.291128451092916
 30
0.0
 10
17.84442459147825
 20
-9.305443621906106
 30
0.0
 10
17.88935808792165
 20
-9.335695768064236
 30
0.0
  0
SPLINE
  5
251
330
1F
100
AcDbEntity
  8
0
  6
Continuous
 62
     1
370
    15
100
AcDbSpline
210
0.0
220
0.0
230
1.0
 70
     8
 71
     3
 72
    11
 73
     7
 74
     0
 42
0.000000001
 43
0.00000001
 40
0.0
 40
0.0
 40
0.0
 40
0.0
 40
0.0784710105155321
 40
0.5301721219516489
 40
0.9142691544250187
 40
1.0
 40
1.0
 40
1.0
 40
1.0
 10
19.03334452211858
 20
-9.332030080258857
 30
0.0
 10
19.03759203009421
 20
-9.330299240860416
 30
0.0
 10
19.06628938344354
 20
-9.318605205182806
 30
0.0
 10
19.12690738318387
 20
-9.326475225709917
 30
0.0
 10
19.18508455368601
 20
-9.346173393472126
 30
0.0
 10
19.21251322858395
 20
-9.363654095409807
 30
0.0
 10
19.21751821786166
 20
-9.366843849420556
 30
0.0
  0
SPLINE
  5
252
330
1F
100
AcDbEntity
  8
0
  6
Continuous
 62
     1
370
    15
100
AcDbSpline
210
0.0
220
0.0
230
1.0
 70
     8
 71
     3
 72
    10
 73
     6
 74
     0
 42
0.000000001
 43
0.00000001
 40
0.0
 40
0.0
 40
0.0
 40
0.0
 40
0.4567963986564227
 40
0.9132732416495903
 40
1.0
 40
1.0
 40
1.0
 40
1.0
 10
19.21751821786166
 20
-9.366843849420556
 30
0.0
 10
19.25804743132582
 20
-9.391049026872137
 30
0.0
 10
19.33907750571078
 20
-9.439442448845096
 30
0.0
 10
19.43256040972811
 20
-9.479932441356326
 30
0.0
 10
19.48384179292796
 20
-9.490090103674106
 30
0.0
 10
19.49202927201987
 20
-9.491711854934696
 30
0.0
  0
SPLINE
  5
253
330
1F
100
AcDbEntity
  8
0
  6
Continuous
 62
     1
370
    15
100
AcDbSpline
210
0.0
220
0.0
230
1.0
 70
     8
 71
     3
 72
    10
 73
     6
 74
     0
 42
0.000000001
 43
0.00000001
 40
0.0
 40
0.0
 40
0.0
 40
0.0
 40
0.0211082338219515
 40
0.5066896053814429
 40
1.0
 40
1.0
 40
1.0
 40
1.0
 10
14.34675773046912
 20
-8.968677371740347
 30
0.0
 10
14.34478803151491
 20
-8.968705163614496
 30
0.0
 10
14.29750667229539
 20
-8.969372289716333
 30
0.0
 10
14.21170617350263
 20
-8.952129313054726
 30
0.0
 10
14.13427662078689
 20
-8.927269038104761
 30
0.0
 10
14.09525616467
 20
-8.914740756154066
 30
0.0
  0
SPLINE
  5
254
330
1F
100
AcDbEntity
  8
0
  6
Continuous
 62
     1
370
    15
100
AcDbSpline
210
0.0
220
0.0
230
1.0
 70
     8
 71
     3
 72
    10
 73
     6
 74
     0
 42
0.000000001
 43
0.00000001
 40
0.0
 40
0.0
 40
0.0
 40
0.0
 40
0.5
 40
0.5
 40
1.0
 40
1.0
 40
1.0
 40
1.0
 10
13.8251638400637
 20
-8.959377179228106
 30
0.0
 10
13.64907472133938
 20
-9.083887456058228
 30
0.0
 10
13.45587453607777
 20
-9.15831778828813
 30
0.0
 10
13.08492135603304
 20
-9.207558575195552
 30
0.0
 10
12.91220923556416
 20
-9.182050472216476
 30
0.0
 10
12.7665708675898
 20
-9.116017297512453
 30
0.0
  0
SPLINE
  5
255
330
1F
100
AcDbEntity
  8
0
  6
Continuous
 62
     1
370
    15
100
AcDbSpline
210
0.0
220
0.0
230
1.0
 70
     8
 71
     3
 72
    10
 73
     6
 74
     0
 42
0.000000001
 43
0.00000001
 40
0.0
 40
0.0
 40
0.0
 40
0.0
 40
0.5
 40
0.5
 40
1.0
 40
1.0
 40
1.0
 40
1.0
 10
12.76657086758983
 20
-9.116017297512466
 30
0.0
 10
12.72942778598264
 20
-9.099176435925463
 30
0.0
 10
12.68591540947503
 20
-9.092076035860126
 30
0.0
 10
12.59176686513316
 20
-9.10188178005039
 30
0.0
 10
12.54099988574684
 20
-9.119481541065626
 30
0.0
 10
12.4963220576564
 20
-9.151268605979187
 30
0.0
  0
SPLINE
  5
256
330
1F
100
AcDbEntity
  8
0
  6
Continuous
 62
     1
370
    15
100
AcDbSpline
210
0.0
220
0.0
230
1.0
 70
     8
 71
     3
 72
     8
 73
     4
 74
     0
 42
0.000000001
 43
0.00000001
 40
0.0
 40
0.0
 40
0.0
 40
0.0
 40
1.0
 40
1.0
 40
1.0
 40
1.0
 10
12.49632205765612
 20
-9.151268605979373
 30
0.0
 10
12.3630292386858
 20
-9.246102837413796
 30
0.0
 10
12.21659161567479
 20
-9.310302639507785
 30
0.0
 10
12.07226355514664
 20
-9.342603750717906
 30
0.0
  0
SPLINE
  5
257
330
1F
100
AcDbEntity
  8
0
  6
Continuous
 62
     1
370
    15
100
AcDbSpline
210
0.0
220
0.0
230
1.0
 70
     8
 71
     3
 72
     8
 73
     4
 74
     0
 42
0.000000001
 43
0.00000001
 40
0.0
 40
0.0
 40
0.0
 40
0.0
 40
1.0
 40
1.0
 40
1.0
 40
1.0
 10
12.07226355514663
 20
-9.342603750717906
 30
0.0
 10
12.04786544080433
 20
-9.342615981434147
 30
0.0
 10
12.0237814321
 20
-9.341719240971766
 30
0.0
 10
11.99999999999993
 20
-9.339943192961156
 30
0.0
  0
SPLINE
  5
258
330
1F
100
AcDbEntity
  8
외형선
  6
Continuous
370
    15
100
AcDbSpline
210
0.0
220
0.0
230
1.0
 70
    24
 71
     3
 72
     9
 73
     5
 74
     0
 42
0.000000001
 43
0.00000001
 40
0.0
 40
0.0
 40
0.0
 40
0.0
 40
0.5
 40
1.0
 40
1.0
 40
1.0
 40
1.0
 10
12.00000000000001
 20
-9.302768987946216
 30
0.0
 10
12.00000000000001
 20
-9.308944129888935
 30
0.0
 10
12.00000000000001
 20
-9.321315189664716
 30
0.0
 10
12.00000000000001
 20
-9.333727150644057
 30
0.0
 10
12.00000000000001
 20
-9.339943192961066
 30
0.0
  0
SPLINE
  5
259
330
1F
100
AcDbEntity
  8
외형선
  6
Continuous
370
    15
100
AcDbSpline
210
0.0
220
0.0
230
1.0
 70
     8
 71
     3
 72
     8
 73
     4
 74
     0
 42
0.000000001
 43
0.00000001
 40
0.0
 40
0.0
 40
0.0
 40
0.0
 40
1.0
 40
1.0
 40
1.0
 40
1.0
 10
12.00000000000001
 20
-9.302768987945937
 30
0.0
 10
11.9583446649111
 20
-9.309261310118437
 30
0.0
 10
11.91669386198464
 20
-9.315673469797606
 30
0.0
 10
11.87504760858855
 20
-9.322005344613347
 30
0.0
  0
SPLINE
  5
25A
330
1F
100
AcDbEntity
  8
외형선
  6
Continuous
370
    15
100
AcDbSpline
210
0.0
220
0.0
230
1.0
 70
     8
 71
     3
 72
     8
 73
     4
 74
     0
 42
0.000000001
 43
0.00000001
 40
0.0
 40
0.0
 40
0.0
 40
0.0
 40
1.0
 40
1.0
 40
1.0
 40
1.0
 10
11.87504760858855
 20
-9.322005344613336
 30
0.0
 10
11.7957791195115
 20
-9.304947463312006
 30
0.0
 10
11.72130382353976
 20
-9.277622536998077
 30
0.0
 10
11.65323947493367
 20
-9.241329169215586
 30
0.0
  0
SPLINE
  5
25B
330
1F
100
AcDbEntity
  8
외형선
  6
Continuous
370
    15
100
AcDbSpline
210
0.0
220
0.0
230
1.0
 70
     8
 71
     3
 72
    10
 73
     6
 74
     0
 42
0.000000001
 43
0.00000001
 40
0.0
 40
0.0
 40
0.0
 40
0.0
 40
0.5
 40
0.5
 40
1.0
 40
1.0
 40
1.0
 40
1.0
 10
11.65323947493367
 20
-9.241329169215586
 30
0.0
 10
11.6162931112075
 20
-9.221628577137642
 30
0.0
 10
11.5728972162401
 20
-9.211848455814746
 30
0.0
 10
11.4788013787562
 20
-9.217107219167936
 30
0.0
 10
11.42795203722908
 20
-9.232855118632557
 30
0.0
 10
11.3829731368156
 20
-9.263757938869956
 30
0.0
  0
SPLINE
  5
25C
330
1F
100
AcDbEntity
  8
외형선
  6
Continuous
370
    15
100
AcDbSpline
210
0.0
220
0.0
230
1.0
 70
     8
 71
     3
 72
    10
 73
     6
 74
     0
 42
0.000000001
 43
0.00000001
 40
0.0
 40
0.0
 40
0.0
 40
0.0
 40
0.5
 40
0.5
 40
1.0
 40
1.0
 40
1.0
 40
1.0
 10
11.38297313681556
 20
-9.263757938869997
 30
0.0
 10
11.20689356409077
 20
-9.384733670454626
 30
0.0
 10
11.01367641750201
 20
-9.446763580367957
 30
0.0
 10
10.64261379088853
 20
-9.464144843814626
 30
0.0
 10
10.46977034714981
 20
-9.419473730169827
 30
0.0
 10
10.32415715018959
 20
-9.332914865279927
 30
0.0
  0
SPLINE
  5
25D
330
1F
100
AcDbEntity
  8
외형선
  6
Continuous
370
    15
100
AcDbSpline
210
0.0
220
0.0
230
1.0
 70
     8
 71
     3
 72
    10
 73
     6
 74
     0
 42
0.000000001
 43
0.00000001
 40
0.0
 40
0.0
 40
0.0
 40
0.0
 40
0.5
 40
0.5
 40
1.0
 40
1.0
 40
1.0
 40
1.0
 10
10.3241571501896
 20
-9.332914865279927
 30
0.0
 10
10.28701859724759
 20
-9.310838082038966
 30
0.0
 10
10.24351323486836
 20
-9.298860864879886
 30
0.0
 10
10.1493920322948
 20
-9.300693717860796
 30
0.0
 10
10.09865000273344
 20
-9.315259678730266
 30
0.0
 10
10.05399054634464
 20
-9.345840986119207
 30
0.0
  0
SPLINE
  5
25E
330
1F
100
AcDbEntity
  8
외형선
  6
Continuous
370
    15
100
AcDbSpline
210
0.0
220
0.0
230
1.0
 70
     8
 71
     3
 72
     8
 73
     4
 74
     0
 42
0.000000001
 43
0.00000001
 40
0.0
 40
0.0
 40
0.0
 40
0.0
 40
1.0
 40
1.0
 40
1.0
 40
1.0
 10
10.05399054634436
 20
-9.345840986119386
 30
0.0
 10
9.920726277283933
 20
-9.437095916332007
 30
0.0
 10
9.774374434593295
 20
-9.492656714090247
 30
0.0
 10
9.630108628009653
 20
-9.514035055320607
 30
0.0
  0
SPLINE
  5
25F
330
1F
100
AcDbEntity
  8
0
  6
Continuous
 62
     1
370
    15
100
AcDbSpline
210
0.0
220
0.0
230
1.0
 70
     8
 71
     3
 72
    12
 73
     8
 74
     0
 42
0.000000001
 43
0.00000001
 40
0.0
 40
0.0
 40
0.0
 40
0.0
 40
0.2035953283362076
 40
0.4065669443490014
 40
0.6120591884851294
 40
0.8186213912294577
 40
1.0
 40
1.0
 40
1.0
 40
1.0
 10
19.88280104845763
 20
-7.930034771561628
 30
0.0
 10
19.86697178336485
 20
-8.130954019640221
 30
0.0
 10
19.83536174598013
 20
-8.532177001620035
 30
0.0
 10
19.78868982796611
 20
-8.98219700418977
 30
0.0
 10
19.73987085606499
 20
-9.307394002478866
 30
0.0
 10
19.69238799485753
 20
-9.499081395065875
 30
0.0
 10
19.66162029923054
 20
-9.511558550060837
 30
0.0
 10
19.64723511040212
 20
-9.517392143607147
 30
0.0
  0
SPLINE
  5
260
330
1F
100
AcDbEntity
  8
0
  6
Continuous
 62
     1
370
    15
100
AcDbSpline
210
0.0
220
0.0
230
1.0
 70
     8
 71
     3
 72
    12
 73
     8
 74
     0
 42
0.000000001
 43
0.00000001
 40
0.0
 40
0.0
 40
0.0
 40
0.0
 40
0.1227925150671594
 40
0.3184953644654671
 40
0.5435648469796798
 40
0.7713518402829398
 40
1.0
 40
1.0
 40
1.0
 40
1.0
 10
18.40144029259683
 20
9.5108738169074
 30
0.0
 10
18.39216033365688
 20
9.51309664933559
 30
0.0
 10
18.36809026795957
 20
9.51886216219258
 30
0.0
 10
18.32845261535042
 20
9.389911303759375
 30
0.0
 10
18.28088348133072
 20
9.117880015238715
 30
0.0
 10
18.229172308125
 20
8.686274101184802
 30
0.0
 10
18.19443864667755
 20
8.27828990700944
 30
0.0
 10
18.1770390495658
 20
8.073912933468815
 30
0.0
  0
LINE
  5
261
330
1F
100
AcDbEntity
  8
0
  6
Continuous
 62
     1
370
    15
100
AcDbLine
 10
20.10554174333812
 20
-9.343230165541176
 30
0.0
 11
20.08988621085883
 21
-9.347010403871547
 31
0.0
  0
SPLINE
  5
262
330
1F
100
AcDbEntity
  8
0
  6
Continuous
 62
     1
370
    15
100
AcDbSpline
210
0.0
220
0.0
230
1.0
 70
     8
 71
     3
 72
     9
 73
     5
 74
     0
 42
0.000000001
 43
0.00000001
 40
0.0
 40
0.0
 40
0.0
 40
0.0
 40
0.9902075569754547
 40
1.0
 40
1.0
 40
1.0
 40
1.0
 10
17.95688650012017
 20
9.352943859994406
 30
0.0
 10
17.95409841817486
 20
9.358005205743172
 30
0.0
 10
17.95128276409741
 20
9.363116604573758
 30
0.0
 10
17.94857258012534
 20
9.355848119492421
 30
0.0
 10
17.9485460408032
 20
9.355776943266386
 30
0.0
  0
LINE
  5
263
330
1F
100
AcDbEntity
  8
0
  6
Continuous
 62
     1
370
    15
100
AcDbLine
 10
21.45326795428992
 20
-9.345660917460926
 30
0.0
 11
21.45199111104013
 21
-9.347250685095796
 31
0.0
  0
LINE
  5
264
330
1F
100
AcDbEntity
  8
0
  6
Continuous
 62
     1
370
    15
100
AcDbLine
 10
17.70079095289112
 20
9.341199882328505
 30
0.0
 11
17.69627450406552
 21
9.344154037535185
 31
0.0
  0
LINE
  5
265
330
1F
100
AcDbEntity
  8
0
  6
Continuous
 62
     1
370
    15
100
AcDbLine
 10
16.59884030371905
 20
9.349461644887919
 30
0.0
 11
16.59668708592654
 21
9.349054656922812
 31
0.0
  0
SPLINE
  5
266
330
1F
100
AcDbEntity
  8
0
  6
Continuous
 62
     1
370
    15
100
AcDbSpline
210
0.0
220
0.0
230
1.0
 70
     8
 71
     3
 72
    11
 73
     7
 74
     0
 42
0.000000001
 43
0.00000001
 40
0.0
 40
0.0
 40
0.0
 40
0.0
 40
0.2701807088743053
 40
0.5433177597453451
 40
0.8174097460281348
 40
1.0
 40
1.0
 40
1.0
 40
1.0
 10
22.32489275187255
 20
-8.621403016150003
 30
0.0
 10
22.3091958381962
 20
-8.77229182424875
 30
0.0
 10
22.27763025378018
 20
-9.07572047956773
 30
0.0
 10
22.22864068865874
 20
-9.359803219234527
 30
0.0
 10
22.1846035775697
 20
-9.515995736967636
 30
0.0
 10
22.15741898458485
 20
-9.511089281417906
 30
0.0
 10
22.14655006676913
 20
-9.509127587080007
 30
0.0
  0
SPLINE
  5
267
330
1F
100
AcDbEntity
  8
0
  6
Continuous
 62
     1
370
    15
100
AcDbSpline
210
0.0
220
0.0
230
1.0
 70
     8
 71
     3
 72
    11
 73
     7
 74
     0
 42
0.000000001
 43
0.00000001
 40
0.0
 40
0.0
 40
0.0
 40
0.0
 40
0.1265133116241205
 40
0.4238373841055477
 40
0.7102362247879247
 40
1.0
 40
1.0
 40
1.0
 40
1.0
 10
15.89922845736147
 20
9.507258422672743
 30
0.0
 10
15.89225575991988
 20
9.511501949948496
 30
0.0
 10
15.86889624299739
 20
9.525718363042465
 30
0.0
 10
15.83116435240526
 20
9.398601359402022
 30
0.0
 10
15.78459575176558
 20
9.147947369553014
 30
0.0
 10
15.75280357396759
 20
8.87017993641493
 30
0.0
 10
15.73681464791299
 20
8.730485104024405
 30
0.0
  0
LINE
  5
268
330
1F
100
AcDbEntity
  8
0
  6
Continuous
 62
     1
370
    15
100
AcDbLine
 10
22.59156672656537
 20
-9.339394979178905
 30
0.0
 11
22.58927846699954
 21
-9.341932833194736
 31
0.0
  0
LINE
  5
269
330
1F
100
AcDbEntity
  8
0
  6
Continuous
 62
     1
370
    15
100
AcDbLine
 10
23.95421738177539
 20
-9.342183358967306
 30
0.0
 11
23.95205950737001
 21
-9.343049488961706
 31
0.0
  0
LINE
  5
26F
330
1F
100
AcDbEntity
  8
0
  6
Continuous
 62
     1
370
    15
100
AcDbLine
 10
37.39999985694886
 20
5.16057293862104
 30
0.0
 11
37.39999985694886
 21
8.001660435741684
 31
0.0
  0
LINE
  5
270
330
1F
100
AcDbEntity
  8
0
  6
Continuous
 62
     1
370
    15
100
AcDbLine
 10
15.2018834501505
 20
9.339497424662108
 30
0.0
 11
15.19946759939195
 21
9.341396391391749
 31
0.0
  0
LINE
  5
272
330
1F
100
AcDbEntity
  8
0
  6
Continuous
 62
     1
370
    15
100
AcDbLine
 10
34.09921570122243
 20
9.351392276585097
 30
0.0
 11
34.0964943766594
 21
9.35276690870523
 31
0.0
  0
SPLINE
  5
273
330
1F
100
AcDbEntity
  8
0
  6
Continuous
 62
     1
370
    15
100
AcDbSpline
210
0.0
220
0.0
230
1.0
 70
     8
 71
     3
 72
    10
 73
     6
 74
     0
 42
0.000000001
 43
0.00000001
 40
0.0
 40
0.0
 40
0.0
 40
0.0
 40
0.408817232355059
 40
0.818465670313931
 40
1.0
 40
1.0
 40
1.0
 40
1.0
 10
24.76662123948337
 20
-9.124084375798708
 30
0.0
 10
24.75097244640199
 20
-9.21719411610549
 30
0.0
 10
24.71964304317414
 20
-9.403602907080236
 30
0.0
 10
24.68090095399648
 20
-9.519979689111796
 30
0.0
 10
24.65839254822417
 20
-9.511498225737016
 30
0.0
 10
24.65148089826108
 20
-9.508893825113777
 30
0.0
  0
SPLINE
  5
274
330
1F
100
AcDbEntity
  8
0
  6
Continuous
 62
     1
370
    15
100
AcDbSpline
210
0.0
220
0.0
230
1.0
 70
     8
 71
     3
 72
    10
 73
     6
 74
     0
 42
0.000000001
 43
0.00000001
 40
0.0
 40
0.0
 40
0.0
 40
0.0
 40
0.1580915382488665
 40
0.6551819349737801
 40
1.0
 40
1.0
 40
1.0
 40
1.0
 10
13.39714793860913
 20
9.507575072348112
 30
0.0
 10
13.39167617575007
 20
9.511690462557025
 30
0.0
 10
13.36899943911109
 20
9.528745956798616
 30
0.0
 10
13.33569502629141
 20
9.420410952835944
 30
0.0
 10
13.3074597299861
 20
9.261444018399425
 30
0.0
 10
13.29589547961951
 20
9.196336381137366
 30
0.0
  0
LINE
  5
275
330
1F
100
AcDbEntity
  8
0
  6
Continuous
 62
     1
370
    15
100
AcDbLine
 10
26.45589696615935
 20
-9.345552884042267
 30
0.0
 11
26.45212417840959
 21
-9.346224367618566
 31
0.0
  0
SPLINE
  5
276
330
1F
100
AcDbEntity
  8
0
  6
Continuous
 62
     1
370
    15
100
AcDbSpline
210
0.0
220
0.0
230
1.0
 70
     8
 71
     3
 72
    10
 73
     6
 74
     0
 42
0.000000001
 43
0.00000001
 40
0.0
 40
0.0
 40
0.0
 40
0.0
 40
0.1012294781496943
 40
0.778294675714341
 40
1.0
 40
1.0
 40
1.0
 40
1.0
 10
33.39348366856576
 20
9.512099437415596
 30
0.0
 10
33.39069227540484
 20
9.514952770314109
 30
0.0
 10
33.36923087429243
 20
9.536890390101773
 30
0.0
 10
33.34262550793382
 20
9.441771075234913
 30
0.0
 10
33.31879369452903
 20
9.32427256335158
 30
0.0
 10
33.31291495263578
 20
9.295288473367687
 30
0.0
  0
SPLINE
  5
277
330
1F
100
AcDbEntity
  8
외형선
  6
Continuous
370
    15
100
AcDbSpline
210
0.0
220
0.0
230
1.0
 70
    24
 71
     3
 72
     9
 73
     5
 74
     0
 42
0.000000001
 43
0.00000001
 40
0.0
 40
0.0
 40
0.0
 40
0.0
 40
0.6041304914677667
 40
0.9999999999999999
 40
0.9999999999999999
 40
0.9999999999999999
 40
0.9999999999999999
 10
12.00000004749746
 20
9.35967173427343
 30
0.0
 10
12.00000004749746
 20
9.412095342666106
 30
0.0
 10
12.00000004749746
 20
9.498870648883985
 30
0.0
 10
12.00000004749746
 20
9.500896467200826
 30
0.0
 10
12.00000004749746
 20
9.501698426902289
 30
0.0
  0
SPLINE
  5
278
330
1F
100
AcDbEntity
  8
외형선
  6
Continuous
370
    15
100
AcDbSpline
210
0.0
220
0.0
230
1.0
 70
     8
 71
     3
 72
     9
 73
     5
 74
     0
 42
0.000000001
 43
0.00000001
 40
0.0
 40
0.0
 40
0.0
 40
0.0
 40
0.6415935995257723
 40
1.0
 40
1.0
 40
1.0
 40
1.0
 10
11.79455168452115
 20
9.339860640466208
 30
0.0
 10
11.80521083418962
 20
9.387248866063347
 30
0.0
 10
11.82182438781039
 20
9.46110905673883
 30
0.0
 10
11.8390668488625
 20
9.465294301088413
 30
0.0
 10
11.8452466572635
 20
9.46679431945085
 30
0.0
  0
LINE
  5
279
330
1F
100
AcDbEntity
  8
외형선
  6
Continuous
370
    15
100
AcDbLine
 10
11.59646158479155
 20
9.35488566756248
 30
0.0
 11
11.59254467487336
 21
9.356849826872343
 31
0.0
  0
LINE
  5
27A
330
1F
100
AcDbEntity
  8
0
  6
Continuous
 62
     1
370
    15
100
AcDbLine
 10
32.95664122700692
 20
9.362649172544474
 30
0.0
 11
32.95365354418756
 21
9.355473332107062
 31
0.0
  0
LINE
  5
27B
330
1F
100
AcDbEntity
  8
0
  6
Continuous
 62
     1
370
    15
100
AcDbLine
 10
32.70211263000966
 20
9.346241131424899
 30
0.0
 11
32.69799059629441
 21
9.346970357000822
 31
0.0
  0
LINE
  5
27C
330
1F
100
AcDbEntity
  8
0
  6
Continuous
 62
     1
370
    15
100
AcDbLine
 10
31.59833146631719
 20
9.35118924826383
 30
0.0
 11
31.59517614543439
 21
9.346810169517989
 31
0.0
  0
SPLINE
  5
27E
330
1F
100
AcDbEntity
  8
0
  6
Continuous
 62
     1
370
    15
100
AcDbSpline
210
0.0
220
0.0
230
1.0
 70
     8
 71
     3
 72
     9
 73
     5
 74
     0
 42
0.000000001
 43
0.00000001
 40
0.0
 40
0.0
 40
0.0
 40
0.0
 40
0.7498531322979569
 40
0.9999999999999999
 40
0.9999999999999999
 40
0.9999999999999999
 40
0.9999999999999999
 10
27.20701514184476
 20
-9.427456185221676
 30
0.0
 10
27.1925944941296
 20
-9.471346256548726
 30
0.0
 10
27.17336319790103
 20
-9.529877813511817
 30
0.0
 10
27.15444355359088
 20
-9.516412183640266
 30
0.0
 10
27.14971086382867
 20
-9.513043798506267
 30
0.0
  0
LINE
  5
27F
330
1F
100
AcDbEntity
  8
외형선
  6
Continuous
370
    15
100
AcDbLine
 10
11.34165408578702
 20
9.345782920718188
 30
0.0
 11
11.33963497844526
 21
9.347576647996897
 31
0.0
  0
SPLINE
  5
280
330
1F
100
AcDbEntity
  8
외형선
  6
Continuous
370
    15
100
AcDbSpline
210
0.0
220
0.0
230
1.0
 70
     8
 71
     3
 72
     9
 73
     5
 74
     0
 42
0.000000001
 43
0.00000001
 40
0.0
 40
0.0
 40
0.0
 40
0.0
 40
0.0067681399219864
 40
0.9999999999999999
 40
0.9999999999999999
 40
0.9999999999999999
 40
0.9999999999999999
 10
10.90183571935632
 20
9.524327702820296
 30
0.0
 10
10.90172488103868
 20
9.524502935530986
 30
0.0
 10
10.88534839962424
 20
9.550393758225127
 30
0.0
 10
10.86937014532072
 20
9.505856106195342
 30
0.0
 10
10.85350003407803
 20
9.461619891226286
 30
0.0
  0
LINE
  5
281
330
1F
100
AcDbEntity
  8
0
  6
Continuous
 62
     1
370
    15
100
AcDbLine
 10
27.59314334392549
 20
-9.337544441223146
 30
0.0
 11
27.58488810062409
 21
-9.346974082291137
 31
0.0
  0
LINE
  5
282
330
1F
100
AcDbEntity
  8
외형선
  6
Continuous
370
    15
100
AcDbLine
 10
10.46892925072462
 20
9.355207905173296
 30
0.0
 11
10.45822561858223
 21
9.346539154648775
 31
0.0
  0
LINE
  5
283
330
1F
100
AcDbEntity
  8
0
  6
Continuous
 62
     1
370
    15
100
AcDbLine
 10
30.90924775600434
 20
9.510626085102553
 30
0.0
 11
30.87058110535146
 21
9.500310756266112
 31
0.0
  0
LINE
  5
285
330
1F
100
AcDbEntity
  8
0
  6
Continuous
 62
     1
370
    15
100
AcDbLine
 10
30.46650631725789
 20
9.349413216114039
 30
0.0
 11
30.44667100906373
 21
9.353657253086562
 31
0.0
  0
LINE
  5
286
330
1F
100
AcDbEntity
  8
중심선
 62
     1
100
AcDbLine
 10
-41.79999999999998
 20
-0.0000000000000051
 30
0.0
 11
40.40000000000003
 21
0.000000000000005
 31
0.0
  0
LINE
  5
287
330
1F
100
AcDbEntity
  8
참조1
100
AcDbLine
 10
-2.699999999999987
 20
0.0010749287238892
 30
0.0
 11
-2.69999999999998
 21
-39.99892507127611
 31
0.0
  0
LINE
  5
288
330
1F
100
AcDbEntity
  8
참조1
100
AcDbLine
 10
-2.69999999999998
 20
-39.99892507127611
 30
0.0
 11
13.92939446285957
 21
-39.9989250712761
 31
0.0
  0
CIRCLE
  5
289
330
1F
100
AcDbEntity
  8
해칭선
100
AcDbCircle
 10
0.0
 20
0.0
 30
0.0
 40
3.000000000000001
  0
INSERT
  5
28A
330
1F
100
AcDbEntity
  8
0
  6
Continuous
 62
     7
100
AcDbBlockReference
 66
     1
  2
블럭10
 10
-6.669907060603338
 20
-36.47511237888057
 30
0.0
  0
ATTRIB
  5
28B
330
28A
100
AcDbEntity
  8
FORMAT
 62
     2
100
AcDbText
 10
-15.85120234934462
 20
-34.39974546604838
 30
0.0
 40
4.233333333333333
  1
E5056048 [ 5 FLUTE ]
 41
0.75
  7
SLDTEXTSTYLE0
 11
-15.85120234934462
 21
-36.51641213271505
 31
0.0
100
AcDbAttribute
  2
AUTOATTR0
 70
     0
 74
     1
  0
SEQEND
  5
28C
330
28A
100
AcDbEntity
  8
0
  6
Continuous
 62
     7
  0
HATCH
  5
28D
330
1F
100
AcDbEntity
  8
중심선
100
AcDbHatch
 10
0.0
 20
0.0
 30
0.0
210
0.0
220
0.0
230
1.0
  2
SOLID
 70
     1
 71
     0
 91
        1
 92
        0
 93
        4
 72
     1
 10
-0.954997756222502
 20
-20.22793807723663
 11
-4.401273000059785
 21
-20.22793807723663
 72
     1
 10
-4.401273000059785
 20
-20.22793807723663
 11
-6.529502859263806
 21
-22.76426365780923
 72
     1
 10
-6.529502859263806
 20
-22.76426365780922
 11
-3.083194530313348
 21
-22.76422422850673
 72
     1
 10
-3.083194530313348
 20
-22.76422422850673
 11
-0.954997756222502
 21
-20.22793807723662
 97
        0
 75
     0
 76
     1
 98
        1
 10
9.970365871521848
 20
15.57098699403948
  0
HATCH
  5
28E
330
1F
100
AcDbEntity
  8
중심선
100
AcDbHatch
 10
0.0
 20
0.0
 30
0.0
210
0.0
220
0.0
230
1.0
  2
SOLID
 70
     1
 71
     0
 91
        1
 92
        0
 93
        4
 72
     1
 10
4.057766234813506
 20
-20.22793807723663
 11
0.6114909909762218
 21
-20.22793807723663
 72
     1
 10
0.6114909909762218
 20
-20.22793807723663
 11
-3.919647017381221
 21
-25.62793807723665
 72
     1
 10
-3.919647017381221
 20
-25.62793807723665
 11
-0.4733717735439402
 21
-25.62793807723665
 72
     1
 10
-0.4733717735439402
 20
-25.62793807723665
 11
4.057766234813506
 21
-20.22793807723663
 97
        0
 75
     0
 76
     1
 98
        1
 10
9.970365871521848
 20
15.57098699403948
  0
HATCH
  5
28F
330
1F
100
AcDbEntity
  8
중심선
100
AcDbHatch
 10
0.0
 20
0.0
 30
0.0
210
0.0
220
0.0
230
1.0
  2
SOLID
 70
     1
 71
     0
 91
        1
 92
        0
 93
        4
 72
     1
 10
9.070530225849344
 20
-20.22793807723663
 11
5.624254982012284
 21
-20.22793807723663
 72
     1
 10
5.624254982012284
 20
-20.22793807723663
 11
-1.42418191987702
 21
-28.62793807723665
 72
     1
 10
-1.42418191987702
 20
-28.62793807723665
 11
2.022093323960262
 21
-28.62793807723665
 72
     1
 10
2.022093323960262
 20
-28.62793807723665
 11
9.070530225849344
 21
-20.22793807723663
 97
        0
 75
     0
 76
     1
 98
        1
 10
9.970365871521848
 20
15.57098699403948
  0
HATCH
  5
290
330
1F
100
AcDbEntity
  8
중심선
100
AcDbHatch
 10
0.0
 20
0.0
 30
0.0
210
0.0
220
0.0
230
1.0
  2
SOLID
 70
     1
 71
     0
 91
        1
 92
        0
 93
        6
 72
     3
 10
13.87042065686155
 20
-24.4279380772879
 11
3.960054785062283
 21
1.540882976769353E-10
 40
0.3939339440162628
 50
17.09539180608441
 51
320.0019657685078
 73
     0
 72
     1
 10
15.55342031256214
 20
-23.01583208187493
 11
17.85872218626318
 21
-21.08150537182698
 72
     3
 10
13.8704206568087
 20
-24.42793807723677
 11
6.600054785286829
 21
-1.278976924368180E-13
 40
0.636358354079598
 50
39.99873849337429
 51
368.4976242363724
 73
     1
 72
     1
 10
20.29575314870931
 20
-23.46793807716665
 11
12.55048796364465
 21
-23.46793807716665
 72
     1
 10
12.55048796364465
 20
-23.46793807716665
 11
12.55046291919869
 21
-25.38793807716653
 72
     1
 10
12.55046291919869
 20
-25.38793807716653
 11
16.99184268867073
 21
-25.38793807716651
 97
        0
 75
     0
 76
     1
 98
        1
 10
9.970365871521848
 20
15.57098699403948
  0
DIMENSION
  5
291
330
1F
100
AcDbEntity
  8
치수문자_일반주서
100
AcDbDimension
  2
_D
 10
-51.79999999999988
 20
-9.525000000000066
 30
0.0
 11
-51.80000000000001
 21
30.12899999999994
 31
0.0
 70
   160
  1
%%c<>
 71
     2
 42
19.05
 52
-270.0
  3
SLDDIMSTYLE0
100
AcDbAlignedDimension
 13
-37.8
 23
9.525
 33
0.0
 14
-37.8
 24
-9.525000000000006
 34
0.0
 50
90.0000000000002
100
AcDbRotatedDimension
1001
ACAD
1000
DSTYLE
1002
{
1070
   171
1070
     6
1070
   273
1070
     5
1002
}
  0
DIMENSION
  5
2A6
330
1F
100
AcDbEntity
  8
치수문자_일반주서
100
AcDbDimension
  2
_D_1
 10
12.00000000000001
 20
24.44255565969262
 30
0.0
 11
25.4154144502851
 21
24.44255565969262
 31
0.0
 70
   160
  1
<>
 71
     2
 42
25.40000000000002
  3
SLDDIMSTYLE0
100
AcDbAlignedDimension
 13
37.40000000000002
 23
9.524999999999999
 33
0.0
 14
12.00000000000001
 24
1.201641191873643
 34
0.0
 50
0.000000000000016
100
AcDbRotatedDimension
1001
ACAD
1000
DSTYLE
1002
{
1070
   171
1070
     6
1070
   273
1070
     5
1002
}
  0
DIMENSION
  5
2BC
330
1F
100
AcDbEntity
  8
치수문자_일반주서
100
AcDbDimension
  2
_D_2
 10
37.40000000000001
 20
40.58799028620471
 30
0.0
 11
-0.699999999999994
 21
40.58799028620471
 31
0.0
 70
   160
  1
<>
 71
     2
 42
76.20000000000002
  3
SLDDIMSTYLE0
100
AcDbAlignedDimension
 13
-38.79999999999999
 23
8.52499999999999
 33
0.0
 14
37.40000000000002
 24
9.524999999999999
 34
0.0
 50
0.0000000000000107
100
AcDbRotatedDimension
1001
ACAD
1000
DSTYLE
1002
{
1070
   171
1070
     6
1070
   273
1070
     5
1002
}
  0
DIMENSION
  5
2D0
330
1F
100
AcDbEntity
  8
치수문자_일반주서
100
AcDbDimension
  2
_D_3
 10
69.99242180844706
 20
-9.524999999999785
 30
0.0
 11
69.99242180844689
 21
37.21016958428901
 31
0.0
 70
   160
  1
%%c<>
 71
     2
 42
19.0499999999999
 52
-270.0
  3
SLDDIMSTYLE0
100
AcDbAlignedDimension
 13
37.40000000000002
 23
9.524999999999999
 33
0.0
 14
37.40000000000002
 24
-9.524999999999906
 34
0.0
 50
90.0000000000002
100
AcDbRotatedDimension
1001
ACAD
1000
DSTYLE
1002
{
1070
   171
1070
     6
1070
   273
1070
     5
1002
}
  0
LINE
  5
2E4
330
1F
100
AcDbEntity
  8
참조1
100
AcDbLine
 10
111.9017350925138
 20
7.441074928723896
 30
0.0
 11
111.9017350925138
 21
-7.438925071276109
 31
0.0
  0
LINE
  5
2E5
330
1F
100
AcDbEntity
  8
참조1
100
AcDbLine
 10
124.6017350925138
 20
5.441074928723896
 30
0.0
 11
111.9017350925138
 21
5.441074928723896
 31
0.0
  0
SOLID
  5
2E6
330
1F
100
AcDbEntity
  8
참조1
100
AcDbTrace
 10
111.9017350925138
 20
5.441074928723896
 30
0.0
 11
118.2517350925138
 21
4.425074928723896
 31
0.0
 12
118.2517350925138
 22
6.457074928723896
 32
0.0
 13
118.2517350925138
 23
6.457074928723896
 33
0.0
  0
LINE
  5
2E7
330
1F
100
AcDbEntity
  8
참조1
100
AcDbLine
 10
124.6017350925138
 20
-5.438925071276109
 30
0.0
 11
111.9017350925138
 21
-5.438925071276109
 31
0.0
  0
SOLID
  5
2E8
330
1F
100
AcDbEntity
  8
참조1
100
AcDbTrace
 10
111.9017350925138
 20
-5.438925071276109
 30
0.0
 11
118.2517350925138
 21
-6.454925071276109
 31
0.0
 12
118.2517350925138
 22
-4.422925071276109
 32
0.0
 13
118.2517350925138
 23
-4.422925071276109
 33
0.0
  0
MTEXT
  5
2E9
330
1F
100
AcDbEntity
  8
참조1
100
AcDbMText
 10
121.5018499030764
 20
11.06679249473997
 30
0.0
 40
3.5
 41
0.0
 71
     1
 72
     1
  1
A
  7
SLDTEXTSTYLE0
 73
     1
 44
1.0
  0
MTEXT
  5
2EA
330
1F
100
AcDbEntity
  8
참조1
100
AcDbMText
 10
121.5018499030764
 20
0.1867924947399667
 30
0.0
 40
3.5
 41
0.0
 71
     1
 72
     1
  1
A
  7
SLDTEXTSTYLE0
 73
     1
 44
1.0
  0
INSERT
  5
2F1
330
1F
100
AcDbEntity
  8
해칭선
100
AcDbBlockReference
  2
SW_DOWELSYMBOL_0
 10
0.0
 20
0.0
 30
0.0
  0
ARC
  5
31A
330
1F
100
AcDbEntity
  8
0
  6
Continuous
 62
     1
370
    15
100
AcDbCircle
 10
35.876
 20
8.001000117719169
 30
0.0
 40
1.524
100
AcDbArc
 50
359.9751749101108
 51
90.0
  0
DIMENSION
  5
31D
330
1F
100
AcDbEntity
  8
치수문자_일반주서
100
AcDbDimension
  2
*D7
 10
35.876
 20
8.001000117719169
 30
0.0
 11
53.47215478532667
 21
21.4182919745294
 31
0.0
 70
   164
  1
<>
 71
     5
 42
1.524000000000008
  3
SLDDIMSTYLE0
100
AcDbRadialDimension
 15
37.08788267773129
 25
8.925076075319444
 35
0.0
 40
0.0
1001
ACAD_DSTYLE_DIMRADIAL_EXTENSION
1070
   387
1070
     1
1070
   388
1040
6.282752027623917
1070
   390
1040
1.570796326794897
  0
LINE
  5
49B
330
1F
100
AcDbEntity
  8
외형선
  6
Continuous
370
    15
100
AcDbLine
 10
11.87941618577175
 20
1.273528725751039
 30
0.0
 11
12.00000000000001
 21
1.179584178200685
 31
0.0
  0
LINE
  5
49C
330
1F
100
AcDbEntity
  8
외형선
  6
Continuous
370
    15
100
AcDbLine
 10
11.87155050374893
 20
-4.417512787688542
 30
0.0
 11
12.00000000000001
 21
-4.44669612880057
 31
0.0
  0
LINE
  5
49D
330
1F
100
AcDbEntity
  8
외형선
  6
Continuous
370
    15
100
AcDbLine
 10
12.00000000000001
 20
-8.53206424803405
 30
0.0
 11
11.8950162889107
 21
-8.462306596560609
 31
0.0
  0
LINE
  5
4FA
330
1F
100
AcDbEntity
  8
외형선
  6
Continuous
370
    15
100
AcDbLine
 10
-18.7943260848045
 20
7.619999999999994
 30
0.0
 11
-7.211926084804496
 21
7.619999999999994
 31
0.0
  0
LINE
  5
4FB
330
1F
100
AcDbEntity
  8
외형선
  6
Continuous
370
    15
100
AcDbLine
 10
-18.79432608480452
 20
7.619999999999996
 30
0.0
 11
-20.69932620252381
 21
9.52500011771917
 31
0.0
  0
LINE
  5
4FC
330
1F
100
AcDbEntity
  8
외형선
  6
Continuous
370
    15
100
AcDbLine
 10
-7.211926084804496
 20
7.61999999999998
 30
0.0
 11
-5.306925967085364
 21
9.525000117719168
 31
0.0
  0
LINE
  5
4FD
330
1F
100
AcDbEntity
  8
외형선
  6
Continuous
370
    15
100
AcDbLine
 10
-20.69932620252381
 20
9.525000117719168
 30
0.0
 11
-37.79999905824661
 21
9.525000117719168
 31
0.0
  0
ENDSEC
  0
SECTION
  2
OBJECTS
  0
DICTIONARY
  5
C
330
0
100
AcDbDictionary
281
     1
  3
ACAD_GROUP
350
D
  3
ACAD_IMAGE_VARS
350
315
  3
ACAD_LAYOUT
350
1A
  3
ACAD_MLINESTYLE
350
17
  3
ACAD_PLOTSETTINGS
350
19
  3
ACAD_PLOTSTYLENAME
350
E
  3
ACAD_SCALELIST
350
47
  3
APPDATA
350
313
  3
DWGPROPS
350
522
  0
DICTIONARY
  5
3E2
330
2
100
AcDbDictionary
280
     1
281
     1
  3
ACAD_LAYERSTATES
360
3E3
  0
DICTIONARY
  5
520
330
1F
100
AcDbDictionary
280
     1
281
     1
  3
DIM_BOUNDING_BOXES_V1
360
521
  0
DICTIONARY
  5
D
102
{ACAD_REACTORS
330
C
102
}
330
C
100
AcDbDictionary
281
     1
  0
RASTERVARIABLES
  5
315
102
{ACAD_REACTORS
330
C
102
}
330
C
100
AcDbRasterVariables
 90
        0
 70
     1
 71
     1
 72
     1
  0
DICTIONARY
  5
1A
102
{ACAD_REACTORS
330
C
102
}
330
C
100
AcDbDictionary
281
     1
  3
Layout1
350
1E
  3
Layout2
350
26
  3
Model
350
22
  0
DICTIONARY
  5
17
102
{ACAD_REACTORS
330
C
102
}
330
C
100
AcDbDictionary
281
     1
  3
Standard
350
18
  0
DICTIONARY
  5
19
102
{ACAD_REACTORS
330
C
102
}
330
C
100
AcDbDictionary
281
     1
  0
ACDBDICTIONARYWDFLT
  5
E
102
{ACAD_REACTORS
330
C
102
}
330
C
100
AcDbDictionary
281
     1
  3
Normal
350
F
100
AcDbDictionaryWithDefault
340
F
  0
DICTIONARY
  5
47
102
{ACAD_REACTORS
330
C
102
}
330
C
100
AcDbDictionary
281
     1
  3
A0
350
48
  3
A1
350
49
  3
A2
350
4A
  3
A3
350
4B
  3
A4
350
4C
  3
A5
350
4D
  3
A6
350
4E
  3
A7
350
4F
  3
A8
350
50
  3
A9
350
51
  3
B0
350
52
  3
B1
350
53
  3
B2
350
54
  3
B3
350
55
  3
B4
350
56
  3
B5
350
57
  3
B6
350
58
  3
B7
350
59
  3
B8
350
5A
  3
B9
350
5B
  3
C0
350
5C
  3
C1
350
5D
  3
C2
350
5E
  3
C3
350
5F
  3
C4
350
60
  3
C5
350
61
  3
C6
350
62
  3
C7
350
63
  3
C8
350
64
  3
C9
350
65
  3
D0
350
66
  3
D1
350
67
  3
D2
350
68
  0
DICTIONARY
  5
313
102
{ACAD_REACTORS
330
C
102
}
330
C
100
AcDbDictionary
281
     1
  0
XRECORD
  5
522
102
{ACAD_REACTORS
330
C
102
}
330
C
100
AcDbXrecord
280
     1
  1
DWGPROPS COOKIE
  2

  3

  4

  6

  7

  8
12011056
  9

300
=
301
=
302
=
303
=
304
=
305
=
306
=
307
=
308
=
309
=
 40
0.0
 41
2458319.182220857
 42
2459720.016292257
  1

 90
        0
  0
DICTIONARY
  5
3E3
102
{ACAD_REACTORS
330
3E2
102
}
330
3E2
100
AcDbDictionary
281
     1
  0
DICTIONARY
  5
521
102
{ACAD_REACTORS
330
520
102
}
330
520
100
AcDbDictionary
281
     1
  0
LAYOUT
  5
1E
102
{ACAD_REACTORS
330
1A
102
}
330
1A
100
AcDbPlotSettings
  1

  2
none_device
  4

  6

 40
0.0
 41
0.0
 42
0.0
 43
0.0
 44
0.0
 45
0.0
 46
0.0
 47
0.0
 48
0.0
 49
0.0
140
0.0
141
0.0
142
1.0
143
1.0
 70
   688
 72
     1
 73
     0
 74
     5
  7

 75
    16
147
1.0
148
0.0
149
0.0
100
AcDbLayout
  1
Layout1
 70
     1
 71
     1
 10
0.0
 20
0.0
 11
420.0
 21
297.0
 12
0.0
 22
0.0
 32
0.0
 14
1.000000000000000E+20
 24
1.000000000000000E+20
 34
1.000000000000000E+20
 15
-1.000000000000000E+20
 25
-1.000000000000000E+20
 35
-1.000000000000000E+20
146
0.0
 13
0.0
 23
0.0
 33
0.0
 16
1.0
 26
0.0
 36
0.0
 17
0.0
 27
1.0
 37
0.0
 76
     0
330
1B
  0
LAYOUT
  5
26
102
{ACAD_REACTORS
330
1A
102
}
330
1A
100
AcDbPlotSettings
  1

  2
none_device
  4

  6

 40
0.0
 41
0.0
 42
0.0
 43
0.0
 44
0.0
 45
0.0
 46
0.0
 47
0.0
 48
0.0
 49
0.0
140
0.0
141
0.0
142
1.0
143
1.0
 70
   688
 72
     1
 73
     0
 74
     5
  7

 75
    16
147
1.0
148
0.0
149
0.0
100
AcDbLayout
  1
Layout2
 70
     1
 71
     2
 10
0.0
 20
0.0
 11
0.0
 21
0.0
 12
0.0
 22
0.0
 32
0.0
 14
0.0
 24
0.0
 34
0.0
 15
0.0
 25
0.0
 35
0.0
146
0.0
 13
0.0
 23
0.0
 33
0.0
 16
1.0
 26
0.0
 36
0.0
 17
0.0
 27
1.0
 37
0.0
 76
     0
330
23
  0
LAYOUT
  5
22
102
{ACAD_REACTORS
330
1A
102
}
330
1A
100
AcDbPlotSettings
  1

  2
none_device
  4
ANSI_A_(11.00_x_8.50_Inches)
  6

 40
6.35
 41
19.05
 42
6.35000508
 43
19.05000254
 44
279.4
 45
215.9
 46
89.48297529771446
 47
88.9750771311851
 48
0.0
 49
0.0
140
0.0
141
0.0
142
0.0575597772478878
143
1.0
 70
  1696
 72
     0
 73
     0
 74
     0
  7

 75
     0
147
0.0235690232323232
148
0.0
149
0.0
100
AcDbLayout
  1
Model
 70
     1
 71
     0
 10
0.0
 20
0.0
 11
420.0
 21
297.0
 12
0.0
 22
0.0
 32
0.0
 14
-56.17500000000005
 24
-39.99892507127611
 34
0.0
 15
124.6017350925138
 25
50.991419584289
 35
0.0
146
0.0
 13
0.0
 23
0.0
 33
0.0
 16
1.0
 26
0.0
 36
0.0
 17
0.0
 27
1.0
 37
0.0
 76
     0
330
1F
331
29
  0
MLINESTYLE
  5
18
102
{ACAD_REACTORS
330
17
102
}
330
17
100
AcDbMlineStyle
  2
Standard
 70
     0
  3

 62
   256
 51
90.0
 52
90.0
 71
     2
 49
0.5
 62
   256
  6
BYLAYER
 49
-0.5
 62
   256
  6
BYLAYER
  0
ACDBPLACEHOLDER
  5
F
102
{ACAD_REACTORS
330
E
102
}
330
E
  0
SCALE
  5
48
102
{ACAD_REACTORS
330
47
102
}
330
47
100
AcDbScale
 70
     0
300
1:1
140
1.0
141
1.0
290
     1
  0
SCALE
  5
49
102
{ACAD_REACTORS
330
47
102
}
330
47
100
AcDbScale
 70
     0
300
1:2
140
1.0
141
2.0
290
     0
  0
SCALE
  5
4A
102
{ACAD_REACTORS
330
47
102
}
330
47
100
AcDbScale
 70
     0
300
1:4
140
1.0
141
4.0
290
     0
  0
SCALE
  5
4B
102
{ACAD_REACTORS
330
47
102
}
330
47
100
AcDbScale
 70
     0
300
1:5
140
1.0
141
5.0
290
     0
  0
SCALE
  5
4C
102
{ACAD_REACTORS
330
47
102
}
330
47
100
AcDbScale
 70
     0
300
1:8
140
1.0
141
8.0
290
     0
  0
SCALE
  5
4D
102
{ACAD_REACTORS
330
47
102
}
330
47
100
AcDbScale
 70
     0
300
1:10
140
1.0
141
10.0
290
     0
  0
SCALE
  5
4E
102
{ACAD_REACTORS
330
47
102
}
330
47
100
AcDbScale
 70
     0
300
1:16
140
1.0
141
16.0
290
     0
  0
SCALE
  5
4F
102
{ACAD_REACTORS
330
47
102
}
330
47
100
AcDbScale
 70
     0
300
1:20
140
1.0
141
20.0
290
     0
  0
SCALE
  5
50
102
{ACAD_REACTORS
330
47
102
}
330
47
100
AcDbScale
 70
     0
300
1:30
140
1.0
141
30.0
290
     0
  0
SCALE
  5
51
102
{ACAD_REACTORS
330
47
102
}
330
47
100
AcDbScale
 70
     0
300
1:40
140
1.0
141
40.0
290
     0
  0
SCALE
  5
52
102
{ACAD_REACTORS
330
47
102
}
330
47
100
AcDbScale
 70
     0
300
1:50
140
1.0
141
50.0
290
     0
  0
SCALE
  5
53
102
{ACAD_REACTORS
330
47
102
}
330
47
100
AcDbScale
 70
     0
300
1:100
140
1.0
141
100.0
290
     0
  0
SCALE
  5
54
102
{ACAD_REACTORS
330
47
102
}
330
47
100
AcDbScale
 70
     0
300
2:1
140
2.0
141
1.0
290
     0
  0
SCALE
  5
55
102
{ACAD_REACTORS
330
47
102
}
330
47
100
AcDbScale
 70
     0
300
4:1
140
4.0
141
1.0
290
     0
  0
SCALE
  5
56
102
{ACAD_REACTORS
330
47
102
}
330
47
100
AcDbScale
 70
     0
300
8:1
140
8.0
141
1.0
290
     0
  0
SCALE
  5
57
102
{ACAD_REACTORS
330
47
102
}
330
47
100
AcDbScale
 70
     0
300
10:1
140
10.0
141
1.0
290
     0
  0
SCALE
  5
58
102
{ACAD_REACTORS
330
47
102
}
330
47
100
AcDbScale
 70
     0
300
100:1
140
100.0
141
1.0
290
     0
  0
SCALE
  5
59
102
{ACAD_REACTORS
330
47
102
}
330
47
100
AcDbScale
 70
     0
300
1/128" = 1'-0"
140
0.0078125
141
12.0
290
     0
  0
SCALE
  5
5A
102
{ACAD_REACTORS
330
47
102
}
330
47
100
AcDbScale
 70
     0
300
1/64" = 1'-0"
140
0.015625
141
12.0
290
     0
  0
SCALE
  5
5B
102
{ACAD_REACTORS
330
47
102
}
330
47
100
AcDbScale
 70
     0
300
1/32" = 1'-0"
140
0.03125
141
12.0
290
     0
  0
SCALE
  5
5C
102
{ACAD_REACTORS
330
47
102
}
330
47
100
AcDbScale
 70
     0
300
1/16" = 1'-0"
140
0.0625
141
12.0
290
     0
  0
SCALE
  5
5D
102
{ACAD_REACTORS
330
47
102
}
330
47
100
AcDbScale
 70
     0
300
3/32" = 1'-0"
140
0.09375
141
12.0
290
     0
  0
SCALE
  5
5E
102
{ACAD_REACTORS
330
47
102
}
330
47
100
AcDbScale
 70
     0
300
1/8" = 1'-0"
140
0.125
141
12.0
290
     0
  0
SCALE
  5
5F
102
{ACAD_REACTORS
330
47
102
}
330
47
100
AcDbScale
 70
     0
300
3/16" = 1'-0"
140
0.1875
141
12.0
290
     0
  0
SCALE
  5
60
102
{ACAD_REACTORS
330
47
102
}
330
47
100
AcDbScale
 70
     0
300
1/4" = 1'-0"
140
0.25
141
12.0
290
     0
  0
SCALE
  5
61
102
{ACAD_REACTORS
330
47
102
}
330
47
100
AcDbScale
 70
     0
300
3/8" = 1'-0"
140
0.375
141
12.0
290
     0
  0
SCALE
  5
62
102
{ACAD_REACTORS
330
47
102
}
330
47
100
AcDbScale
 70
     0
300
1/2" = 1'-0"
140
0.5
141
12.0
290
     0
  0
SCALE
  5
63
102
{ACAD_REACTORS
330
47
102
}
330
47
100
AcDbScale
 70
     0
300
3/4" = 1'-0"
140
0.75
141
12.0
290
     0
  0
SCALE
  5
64
102
{ACAD_REACTORS
330
47
102
}
330
47
100
AcDbScale
 70
     0
300
1" = 1'-0"
140
1.0
141
12.0
290
     0
  0
SCALE
  5
65
102
{ACAD_REACTORS
330
47
102
}
330
47
100
AcDbScale
 70
     0
300
1-1/2" = 1'-0"
140
1.5
141
12.0
290
     0
  0
SCALE
  5
66
102
{ACAD_REACTORS
330
47
102
}
330
47
100
AcDbScale
 70
     0
300
3" = 1'-0"
140
3.0
141
12.0
290
     0
  0
SCALE
  5
67
102
{ACAD_REACTORS
330
47
102
}
330
47
100
AcDbScale
 70
     0
300
6" = 1'-0"
140
6.0
141
12.0
290
     0
  0
SCALE
  5
68
102
{ACAD_REACTORS
330
47
102
}
330
47
100
AcDbScale
 70
     0
300
1'-0" = 1'-0"
140
12.0
141
12.0
290
     0
  0
ENDSEC
  0
EOF
