  0
SECTION
  2
HEADER
  9
$ACADVER
  1
AC1015
  9
$ACADMAINTVER
 70
     6
  9
$DWGCODEPAGE
  3
ANSI_949
  9
$INSBASE
 10
0.0
 20
0.0
 30
0.0
  9
$EXTMIN
 10
-46.44713571539761
 20
-40.00000000000001
 30
0.0
  9
$EXTMAX
 10
95.5134838153456
 20
47.64891262060423
 30
0.0
  9
$LIMMIN
 10
0.0
 20
0.0
  9
$LIMMAX
 10
420.0
 20
297.0
  9
$ORTHOMODE
 70
     0
  9
$REGENMODE
 70
     1
  9
$FILLMODE
 70
     1
  9
$QTEXTMODE
 70
     0
  9
$MIRRTEXT
 70
     1
  9
$LTSCALE
 40
1.0
  9
$ATTMODE
 70
     1
  9
$TEXTSIZE
 40
3.5
  9
$TRACEWID
 40
1.0
  9
$TEXTSTYLE
  7
Standard
  9
$CLAYER
  8
0
  9
$CELTYPE
  6
ByLayer
  9
$CECOLOR
 62
   256
  9
$CELTSCALE
 40
1.0
  9
$DISPSILH
 70
     0
  9
$DIMSCALE
 40
1.0
  9
$DIMASZ
 40
3.302
  9
$DIMEXO
 40
1.0
  9
$DIMDLI
 40
3.75
  9
$DIMRND
 40
0.0
  9
$DIMDLE
 40
0.0
  9
$DIMEXE
 40
1.0
  9
$DIMTP
 40
0.0
  9
$DIMTM
 40
0.0
  9
$DIMTXT
 40
3.5
  9
$DIMCEN
 40
2.5
  9
$DIMTSZ
 40
0.0
  9
$DIMTOL
 70
     0
  9
$DIMLIM
 70
     0
  9
$DIMTIH
 70
     1
  9
$DIMTOH
 70
     1
  9
$DIMSE1
 70
     0
  9
$DIMSE2
 70
     0
  9
$DIMTAD
 70
     1
  9
$DIMZIN
 70
     0
  9
$DIMBLK
  1

  9
$DIMASO
 70
     1
  9
$DIMSHO
 70
     1
  9
$DIMPOST
  1

  9
$DIMAPOST
  1

  9
$DIMALT
 70
     0
  9
$DIMALTD
 70
     3
  9
$DIMALTF
 40
0.0393700787401575
  9
$DIMLFAC
 40
1.0
  9
$DIMTOFL
 70
     1
  9
$DIMTVP
 40
0.0
  9
$DIMTIX
 70
     0
  9
$DIMSOXD
 70
     0
  9
$DIMSAH
 70
     0
  9
$DIMBLK1
  1

  9
$DIMBLK2
  1

  9
$DIMSTYLE
  2
ISO-25
  9
$DIMCLRD
 70
     0
  9
$DIMCLRE
 70
     0
  9
$DIMCLRT
 70
     0
  9
$DIMTFAC
 40
1.0
  9
$DIMGAP
 40
1.524
  9
$DIMJUST
 70
     0
  9
$DIMSD1
 70
     0
  9
$DIMSD2
 70
     0
  9
$DIMTOLJ
 70
     0
  9
$DIMTZIN
 70
     0
  9
$DIMALTZ
 70
     0
  9
$DIMALTTZ
 70
     0
  9
$DIMUPT
 70
     0
  9
$DIMDEC
 70
     2
  9
$DIMTDEC
 70
     2
  9
$DIMALTU
 70
     2
  9
$DIMALTTD
 70
     3
  9
$DIMTXSTY
  7
Standard
  9
$DIMAUNIT
 70
     0
  9
$DIMADEC
 70
     2
  9
$DIMALTRND
 40
0.0
  9
$DIMAZIN
 70
     0
  9
$DIMDSEP
 70
    44
  9
$DIMATFIT
 70
     3
  9
$DIMFRAC
 70
     0
  9
$DIMLDRBLK
  1

  9
$DIMLUNIT
 70
     2
  9
$DIMLWD
 70
    -2
  9
$DIMLWE
 70
    -2
  9
$DIMTMOVE
 70
     0
  9
$LUNITS
 70
     2
  9
$LUPREC
 70
     2
  9
$SKETCHINC
 40
1.0
  9
$FILLETRAD
 40
10.0
  9
$AUNITS
 70
     0
  9
$AUPREC
 70
     2
  9
$MENU
  1
.
  9
$ELEVATION
 40
0.0
  9
$PELEVATION
 40
0.0
  9
$THICKNESS
 40
0.0
  9
$LIMCHECK
 70
     0
  9
$CHAMFERA
 40
0.0
  9
$CHAMFERB
 40
0.0
  9
$CHAMFERC
 40
0.0
  9
$CHAMFERD
 40
0.0
  9
$SKPOLY
 70
     0
  9
$TDCREATE
 40
2458316.467665035
  9
$TDUCREATE
 40
2458316.092665035
  9
$TDUPDATE
 40
2459720.395029919
  9
$TDUUPDATE
 40
2459720.020029919
  9
$TDINDWG
 40
0.0012379861
  9
$TDUSRTIMER
 40
0.0001718634
  9
$USRTIMER
 70
     1
  9
$ANGBASE
 50
0.0
  9
$ANGDIR
 70
     0
  9
$PDMODE
 70
     0
  9
$PDSIZE
 40
-1.0
  9
$PLINEWID
 40
0.0
  9
$SPLFRAME
 70
     0
  9
$SPLINETYPE
 70
     6
  9
$SPLINESEGS
 70
     8
  9
$HANDSEED
  5
300
  9
$SURFTAB1
 70
     6
  9
$SURFTAB2
 70
     6
  9
$SURFTYPE
 70
     6
  9
$SURFU
 70
     6
  9
$SURFV
 70
     6
  9
$UCSBASE
  2

  9
$UCSNAME
  2

  9
$UCSORG
 10
0.0
 20
0.0
 30
0.0
  9
$UCSXDIR
 10
1.0
 20
0.0
 30
0.0
  9
$UCSYDIR
 10
0.0
 20
1.0
 30
0.0
  9
$UCSORTHOREF
  2

  9
$UCSORTHOVIEW
 70
     0
  9
$UCSORGTOP
 10
0.0
 20
0.0
 30
0.0
  9
$UCSORGBOTTOM
 10
0.0
 20
0.0
 30
0.0
  9
$UCSORGLEFT
 10
0.0
 20
0.0
 30
0.0
  9
$UCSORGRIGHT
 10
0.0
 20
0.0
 30
0.0
  9
$UCSORGFRONT
 10
0.0
 20
0.0
 30
0.0
  9
$UCSORGBACK
 10
0.0
 20
0.0
 30
0.0
  9
$PUCSBASE
  2

  9
$PUCSNAME
  2

  9
$PUCSORG
 10
0.0
 20
0.0
 30
0.0
  9
$PUCSXDIR
 10
1.0
 20
0.0
 30
0.0
  9
$PUCSYDIR
 10
0.0
 20
1.0
 30
0.0
  9
$PUCSORTHOREF
  2

  9
$PUCSORTHOVIEW
 70
     0
  9
$PUCSORGTOP
 10
0.0
 20
0.0
 30
0.0
  9
$PUCSORGBOTTOM
 10
0.0
 20
0.0
 30
0.0
  9
$PUCSORGLEFT
 10
0.0
 20
0.0
 30
0.0
  9
$PUCSORGRIGHT
 10
0.0
 20
0.0
 30
0.0
  9
$PUCSORGFRONT
 10
0.0
 20
0.0
 30
0.0
  9
$PUCSORGBACK
 10
0.0
 20
0.0
 30
0.0
  9
$USERI1
 70
     0
  9
$USERI2
 70
     0
  9
$USERI3
 70
     0
  9
$USERI4
 70
     0
  9
$USERI5
 70
     0
  9
$USERR1
 40
0.0
  9
$USERR2
 40
0.0
  9
$USERR3
 40
0.0
  9
$USERR4
 40
0.0
  9
$USERR5
 40
0.0
  9
$WORLDVIEW
 70
     1
  9
$SHADEDGE
 70
     3
  9
$SHADEDIF
 70
    70
  9
$TILEMODE
 70
     1
  9
$MAXACTVP
 70
    64
  9
$PINSBASE
 10
0.0
 20
0.0
 30
0.0
  9
$PLIMCHECK
 70
     0
  9
$PEXTMIN
 10
1.000000000000000E+20
 20
1.000000000000000E+20
 30
1.000000000000000E+20
  9
$PEXTMAX
 10
-1.000000000000000E+20
 20
-1.000000000000000E+20
 30
-1.000000000000000E+20
  9
$PLIMMIN
 10
0.0
 20
0.0
  9
$PLIMMAX
 10
0.0
 20
0.0
  9
$UNITMODE
 70
     0
  9
$VISRETAIN
 70
     1
  9
$PLINEGEN
 70
     0
  9
$PSLTSCALE
 70
     1
  9
$TREEDEPTH
 70
  3020
  9
$CMLSTYLE
  2
Standard
  9
$CMLJUST
 70
     0
  9
$CMLSCALE
 40
20.0
  9
$PROXYGRAPHICS
 70
     1
  9
$MEASUREMENT
 70
     1
  9
$CELWEIGHT
370
    -1
  9
$ENDCAPS
280
     0
  9
$JOINSTYLE
280
     0
  9
$LWDISPLAY
290
     1
  9
$INSUNITS
 70
     4
  9
$HYPERLINKBASE
  1

  9
$STYLESHEET
  1

  9
$XEDIT
290
     1
  9
$CEPSNTYPE
380
     0
  9
$PSTYLEMODE
290
     1
  9
$FINGERPRINTGUID
  2
{E1F1889D-D5C6-4FC7-886F-FDD8CB798286}
  9
$VERSIONGUID
  2
{FAEB1C32-E019-11D5-929B-00C0DF256EC4}
  9
$EXTNAMES
290
     1
  9
$PSVPSCALE
 40
0.0
  9
$OLESTARTUP
290
     0
  0
ENDSEC
  0
SECTION
  2
CLASSES
  0
CLASS
  1
ACDBDICTIONARYWDFLT
  2
AcDbDictionaryWithDefault
  3
ObjectDBX Classes
 90
        0
280
     0
281
     0
  0
CLASS
  1
VISUALSTYLE
  2
AcDbVisualStyle
  3
ObjectDBX Classes
 90
     4095
280
     0
281
     0
  0
CLASS
  1
MATERIAL
  2
AcDbMaterial
  3
ObjectDBX Classes
 90
     1153
280
     0
281
     0
  0
CLASS
  1
SCALE
  2
AcDbScale
  3
ObjectDBX Classes
 90
     1153
280
     0
281
     0
  0
CLASS
  1
SUN
  2
AcDbSun
  3
SCENEOE
 90
     1153
280
     0
281
     0
  0
CLASS
  1
ACDBPLACEHOLDER
  2
AcDbPlaceHolder
  3
ObjectDBX Classes
 90
        0
280
     0
281
     0
  0
CLASS
  1
LAYOUT
  2
AcDbLayout
  3
ObjectDBX Classes
 90
        0
280
     0
281
     0
  0
CLASS
  1
TABLESTYLE
  2
AcDbTableStyle
  3
ObjectDBX Classes
 90
     4095
280
     0
281
     0
  0
CLASS
  1
MLEADERSTYLE
  2
AcDbMLeaderStyle
  3
ACDB_MLEADERSTYLE_CLASS
 90
     4095
280
     0
281
     0
  0
CLASS
  1
RASTERVARIABLES
  2
AcDbRasterVariables
  3
ISM
 90
        0
280
     0
281
     0
  0
ENDSEC
  0
SECTION
  2
TABLES
  0
TABLE
  2
VPORT
  5
8
330
0
100
AcDbSymbolTable
 70
     1
  0
VPORT
  5
29
330
8
100
AcDbSymbolTableRecord
100
AcDbViewportTableRecord
  2
*Active
 70
     0
 10
0.0
 20
0.0
 11
1.0
 21
1.0
 12
-1.09490646288662
 22
8.936904303963471
 13
0.0
 23
0.0
 14
10.0
 24
10.0
 15
10.0
 25
10.0
 16
0.0
 26
0.0
 36
1.0
 17
0.0
 27
0.0
 37
0.0
 40
112.2822603699416
 41
1.519944979367263
 42
50.0
 43
0.0
 44
0.0
 50
0.0
 51
0.0
 71
    16
 72
  2000
 73
     1
 74
     3
 75
     0
 76
     0
 77
     0
 78
     0
281
     0
 65
     1
110
0.0
120
0.0
130
0.0
111
1.0
121
0.0
131
0.0
112
0.0
122
1.0
132
0.0
 79
     0
146
0.0
  0
ENDTAB
  0
TABLE
  2
LTYPE
  5
5
330
0
100
AcDbSymbolTable
 70
     6
  0
LTYPE
  5
14
330
5
100
AcDbSymbolTableRecord
100
AcDbLinetypeTableRecord
  2
ByBlock
 70
     0
  3

 72
    65
 73
     0
 40
0.0
  0
LTYPE
  5
15
330
5
100
AcDbSymbolTableRecord
100
AcDbLinetypeTableRecord
  2
ByLayer
 70
     0
  3

 72
    65
 73
     0
 40
0.0
  0
LTYPE
  5
16
330
5
100
AcDbSymbolTableRecord
100
AcDbLinetypeTableRecord
  2
Continuous
 70
     0
  3
Solid line
 72
    65
 73
     0
 40
0.0
  0
LTYPE
  5
6A
330
5
100
AcDbSymbolTableRecord
100
AcDbLinetypeTableRecord
  2
HIDDEN
 70
     0
  3
Hidden __ __ __ __ __ __ __ __ __ __ __ __ __ __
 72
    65
 73
     2
 40
1.905
 49
1.27
 74
     0
 49
-0.635
 74
     0
  0
LTYPE
  5
6B
330
5
100
AcDbSymbolTableRecord
100
AcDbLinetypeTableRecord
  2
PHANTOM
 70
     0
  3
Phantom ______  __  __  ______  __  __  ______
 72
    65
 73
     6
 40
12.7
 49
6.35
 74
     0
 49
-1.27
 74
     0
 49
1.27
 74
     0
 49
-1.27
 74
     0
 49
1.27
 74
     0
 49
-1.27
 74
     0
  0
LTYPE
  5
6C
330
5
100
AcDbSymbolTableRecord
100
AcDbLinetypeTableRecord
  2
CENTER
 70
     0
  3
Center ____ _ ____ _ ____ _ ____ _ ____ _ ____
 72
    65
 73
     4
 40
10.16
 49
6.35
 74
     0
 49
-1.27
 74
     0
 49
1.27
 74
     0
 49
-1.27
 74
     0
  0
LTYPE
  5
6D
330
5
100
AcDbSymbolTableRecord
100
AcDbLinetypeTableRecord
  2
CENTERX2
 70
     0
  3
Center (2x) ________  __  ________  __  _____
 72
    65
 73
     4
 40
20.32
 49
12.7
 74
     0
 49
-2.54
 74
     0
 49
2.54
 74
     0
 49
-2.54
 74
     0
  0
LTYPE
  5
6E
330
5
100
AcDbSymbolTableRecord
100
AcDbLinetypeTableRecord
  2
DOT2
 70
     0
  3
Dot (.5x) ........................................
 72
    65
 73
     2
 40
0.635
 49
0.0
 74
     0
 49
-0.635
 74
     0
  0
ENDTAB
  0
TABLE
  2
LAYER
  5
2
102
{ACAD_XDICTIONARY
360
220
102
}
330
0
100
AcDbSymbolTable
 70
    18
  0
LAYER
  5
10
330
2
100
AcDbSymbolTableRecord
100
AcDbLayerTableRecord
  2
0
 70
     0
 62
     7
  6
Continuous
370
    -3
390
F
  0
LAYER
  5
6F
330
2
100
AcDbSymbolTableRecord
100
AcDbLayerTableRecord
  2
FORMAT
 70
     0
 62
     2
  6
Continuous
370
    -3
390
F
  0
LAYER
  5
70
330
2
100
AcDbSymbolTableRecord
100
AcDbLayerTableRecord
  2
외형선
 70
     0
 62
     4
  6
Continuous
370
    30
390
F
  0
LAYER
  5
71
330
2
100
AcDbSymbolTableRecord
100
AcDbLayerTableRecord
  2
숨은선
 70
     0
 62
     2
  6
HIDDEN
370
    15
390
F
  0
LAYER
  5
72
330
2
100
AcDbSymbolTableRecord
100
AcDbLayerTableRecord
  2
중심선
 70
     0
 62
     1
  6
CENTERX2
370
    -3
390
F
  0
LAYER
  5
73
330
2
100
AcDbSymbolTableRecord
100
AcDbLayerTableRecord
  2
파단선
 70
     0
 62
     4
  6
Continuous
370
    -3
390
F
  0
LAYER
  5
74
330
2
100
AcDbSymbolTableRecord
100
AcDbLayerTableRecord
  2
해칭선
 70
     0
 62
   100
  6
Continuous
370
    -3
390
F
  0
LAYER
  5
75
330
2
100
AcDbSymbolTableRecord
100
AcDbLayerTableRecord
  2
가는실선
 70
     0
 62
     4
  6
Continuous
370
    -3
390
F
  0
LAYER
  5
76
330
2
100
AcDbSymbolTableRecord
100
AcDbLayerTableRecord
  2
치수_보조선
 70
     0
 62
     4
  6
Continuous
370
    -3
390
F
  0
LAYER
  5
77
330
2
100
AcDbSymbolTableRecord
100
AcDbLayerTableRecord
  2
치수문자_일반주서
 70
     0
 62
     7
  6
Continuous
370
    15
390
F
  0
LAYER
  5
78
330
2
100
AcDbSymbolTableRecord
100
AcDbLayerTableRecord
  2
개별주서
 70
     0
 62
   100
  6
Continuous
370
    30
390
F
  0
LAYER
  5
79
330
2
100
AcDbSymbolTableRecord
100
AcDbLayerTableRecord
  2
중간선
 70
     0
 62
     2
  6
Continuous
370
    15
390
F
  0
LAYER
  5
7A
330
2
100
AcDbSymbolTableRecord
100
AcDbLayerTableRecord
  2
윤곽선
 70
     0
 62
     3
  6
Continuous
370
    40
390
F
  0
LAYER
  5
7B
330
2
100
AcDbSymbolTableRecord
100
AcDbLayerTableRecord
  2
중심마크
 70
     0
 62
   100
  6
Continuous
370
    30
390
F
  0
LAYER
  5
7C
330
2
100
AcDbSymbolTableRecord
100
AcDbLayerTableRecord
  2
가상선
 70
     0
 62
     4
  6
PHANTOM
370
    -3
390
F
  0
LAYER
  5
7D
330
2
100
AcDbSymbolTableRecord
100
AcDbLayerTableRecord
  2
특수지정선
 70
     0
 62
     5
  6
CENTERX2
370
    60
390
F
  0
LAYER
  5
7E
330
2
100
AcDbSymbolTableRecord
100
AcDbLayerTableRecord
  2
참조1
 70
     0
 62
    -4
  6
Continuous
370
    -3
390
F
  0
LAYER
  5
168
330
2
100
AcDbSymbolTableRecord
100
AcDbLayerTableRecord
  2
Defpoints
 70
     0
 62
     7
  6
Continuous
290
     0
370
    -3
390
F
  0
ENDTAB
  0
TABLE
  2
STYLE
  5
3
330
0
100
AcDbSymbolTable
 70
     2
  0
STYLE
  5
11
330
3
100
AcDbSymbolTableRecord
100
AcDbTextStyleTableRecord
  2
Standard
 70
     0
 40
0.0
 41
1.0
 50
0.0
 71
     0
 42
3.5
  3
txt
  4

  0
STYLE
  5
94
330
3
100
AcDbSymbolTableRecord
100
AcDbTextStyleTableRecord
  2
SLDTEXTSTYLE0
 70
     0
 40
0.0
 41
0.75
 50
0.0
 71
     0
 42
3.5
  3
TXT
  4

  0
ENDTAB
  0
TABLE
  2
VIEW
  5
6
330
0
100
AcDbSymbolTable
 70
     0
  0
ENDTAB
  0
TABLE
  2
UCS
  5
7
330
0
100
AcDbSymbolTable
 70
     0
  0
ENDTAB
  0
TABLE
  2
APPID
  5
9
330
0
100
AcDbSymbolTable
 70
     3
  0
APPID
  5
12
330
9
100
AcDbSymbolTableRecord
100
AcDbRegAppTableRecord
  2
ACAD
 70
     0
  0
APPID
  5
174
330
9
100
AcDbSymbolTableRecord
100
AcDbRegAppTableRecord
  2
PE_URL
 70
     0
  0
APPID
  5
175
330
9
100
AcDbSymbolTableRecord
100
AcDbRegAppTableRecord
  2
ACAD_DSTYLE_DIMRADIAL_EXTENSION
 70
     0
  0
ENDTAB
  0
TABLE
  2
DIMSTYLE
  5
A
330
0
100
AcDbSymbolTable
 70
     4
100
AcDbDimStyleTable
  0
DIMSTYLE
105
27
330
A
100
AcDbSymbolTableRecord
100
AcDbDimStyleTableRecord
  2
ISO-25
 70
     0
 41
2.5
 42
0.625
 43
3.75
 44
1.25
 73
     0
 74
     0
 77
     1
 78
     8
140
2.5
141
2.5
143
0.03937007874016
147
0.625
171
     3
172
     1
178
     0
271
     2
272
     2
274
     3
278
    44
283
     0
284
     8
340
11
  0
DIMSTYLE
105
E4
102
{ACAD_REACTORS
330
E3
330
F8
330
121
330
10D
102
}
330
A
100
AcDbSymbolTableRecord
100
AcDbDimStyleTableRecord
  2
SLDDIMSTYLE0
 70
     0
 41
3.302
 44
0.0
 45
0.000000001
 73
     0
 74
     0
 77
     1
 78
    12
 79
     3
140
3.5
143
0.0393700787401575
147
0.875
148
0.000000001
170
     1
172
     1
173
     1
178
     0
271
     2
272
     2
276
     2
284
    12
289
     0
340
94
  0
DIMSTYLE
105
10E
102
{ACAD_REACTORS
102
}
330
A
100
AcDbSymbolTableRecord
100
AcDbDimStyleTableRecord
  2
SLDDIMSTYLE1
 70
     0
 41
3.302
 44
0.0
 45
0.000000001
 73
     0
 74
     0
 77
     1
 78
     4
 79
     1
140
3.5
143
0.0393700787401575
147
0.875
148
0.000000001
170
     1
173
     1
178
     0
271
     2
272
     2
276
     2
284
    12
340
94
  0
DIMSTYLE
105
173
102
{ACAD_REACTORS
102
}
330
A
100
AcDbSymbolTableRecord
100
AcDbDimStyleTableRecord
  2
SLDDIMSTYLE2
 70
     0
 41
3.302
 44
0.0
 45
0.000000001
 73
     0
 74
     0
 77
     1
 78
    12
 79
     3
140
3.5
147
0.875
172
     1
173
     1
178
     0
271
     2
272
     2
276
     2
284
    12
289
     0
340
94
  0
ENDTAB
  0
TABLE
  2
BLOCK_RECORD
  5
1
330
0
100
AcDbSymbolTable
 70
    17
  0
BLOCK_RECORD
  5
1F
102
{ACAD_XDICTIONARY
360
2FD
102
}
330
1
100
AcDbSymbolTableRecord
100
AcDbBlockTableRecord
  2
*Model_Space
340
22
  0
BLOCK_RECORD
  5
1B
330
1
100
AcDbSymbolTableRecord
100
AcDbBlockTableRecord
  2
*Paper_Space
340
1E
  0
BLOCK_RECORD
  5
23
330
1
100
AcDbSymbolTableRecord
100
AcDbBlockTableRecord
  2
*Paper_Space0
340
26
  0
BLOCK_RECORD
  5
7F
330
1
100
AcDbSymbolTableRecord
100
AcDbBlockTableRecord
  2
블럭10
340
0
102
{BLKREFS
331
DC
102
}
  0
BLOCK_RECORD
  5
E5
330
1
100
AcDbSymbolTableRecord
100
AcDbBlockTableRecord
  2
_D
340
0
  0
BLOCK_RECORD
  5
F9
330
1
100
AcDbSymbolTableRecord
100
AcDbBlockTableRecord
  2
_D_1
340
0
  0
BLOCK_RECORD
  5
10F
330
1
100
AcDbSymbolTableRecord
100
AcDbBlockTableRecord
  2
_D_2
340
0
  0
BLOCK_RECORD
  5
122
330
1
100
AcDbSymbolTableRecord
100
AcDbBlockTableRecord
  2
_D_3
340
0
  0
BLOCK_RECORD
  5
13C
330
1
100
AcDbSymbolTableRecord
100
AcDbBlockTableRecord
  2
SW_DOWELSYMBOL_0
340
0
102
{BLKREFS
331
142
102
}
  0
BLOCK_RECORD
  5
1FE
330
1
100
AcDbSymbolTableRecord
100
AcDbBlockTableRecord
  2
_D_4
340
0
  0
BLOCK_RECORD
  5
218
330
1
100
AcDbSymbolTableRecord
100
AcDbBlockTableRecord
  2
*D8
340
0
  0
BLOCK_RECORD
  5
224
330
1
100
AcDbSymbolTableRecord
100
AcDbBlockTableRecord
  2
*D9
340
0
  0
BLOCK_RECORD
  5
230
330
1
100
AcDbSymbolTableRecord
100
AcDbBlockTableRecord
  2
*D10
340
0
  0
BLOCK_RECORD
  5
23C
330
1
100
AcDbSymbolTableRecord
100
AcDbBlockTableRecord
  2
*D11
340
0
  0
BLOCK_RECORD
  5
297
330
1
100
AcDbSymbolTableRecord
100
AcDbBlockTableRecord
  2
*D12
340
0
  0
BLOCK_RECORD
  5
2A3
330
1
100
AcDbSymbolTableRecord
100
AcDbBlockTableRecord
  2
*D13
340
0
  0
BLOCK_RECORD
  5
2AF
330
1
100
AcDbSymbolTableRecord
100
AcDbBlockTableRecord
  2
*D14
340
0
  0
BLOCK_RECORD
  5
2BD
330
1
100
AcDbSymbolTableRecord
100
AcDbBlockTableRecord
  2
*D15
340
0
  0
BLOCK_RECORD
  5
2CB
330
1
100
AcDbSymbolTableRecord
100
AcDbBlockTableRecord
  2
*D16
340
0
  0
ENDTAB
  0
ENDSEC
  0
SECTION
  2
BLOCKS
  0
BLOCK
  5
20
330
1F
100
AcDbEntity
  8
0
100
AcDbBlockBegin
  2
*Model_Space
 70
     0
 10
0.0
 20
0.0
 30
0.0
  3
*Model_Space
  1
*Model_Space
  0
ENDBLK
  5
21
330
1F
100
AcDbEntity
  8
0
100
AcDbBlockEnd
  0
BLOCK
  5
1C
330
1B
100
AcDbEntity
 67
     1
  8
0
100
AcDbBlockBegin
  2
*Paper_Space
 70
     0
 10
0.0
 20
0.0
 30
0.0
  3
*Paper_Space
  1
*Paper_Space
  0
ENDBLK
  5
1D
330
1B
100
AcDbEntity
 67
     1
  8
0
100
AcDbBlockEnd
  0
BLOCK
  5
24
330
23
100
AcDbEntity
  8
0
100
AcDbBlockBegin
  2
*Paper_Space0
 70
     0
 10
0.0
 20
0.0
 30
0.0
  3
*Paper_Space0
  1
*Paper_Space0
  0
ENDBLK
  5
25
330
23
100
AcDbEntity
  8
0
100
AcDbBlockEnd
  0
BLOCK
  5
80
330
7F
100
AcDbEntity
  8
0
100
AcDbBlockBegin
  2
블럭10
 70
     2
 10
0.0
 20
0.0
 30
0.0
  3
블럭10
  1
블럭10
  0
ELLIPSE
  5
82
330
7F
100
AcDbEntity
  8
중심선
100
AcDbEllipse
 10
20.54032771741204
 20
12.0471743016438
 30
0.0
 11
6.600054785286829
 21
-1.261213355974178E-13
 31
0.0
210
0.0
220
0.0
230
1.0
 40
0.636358354079598
 41
0.9219305317359503
 42
6.513795318482858
  0
ELLIPSE
  5
83
330
7F
100
AcDbEntity
  8
중심선
100
AcDbEllipse
 10
20.54032771746488
 20
12.04717430159265
 30
0.0
 11
3.960054785062283
 21
1.540847449632565E-10
 31
0.0
210
0.0
220
0.0
230
1.0
 40
0.3939339440162632
 41
1.131841032648279
 42
5.62031148352944
  0
LINE
  5
84
330
7F
100
AcDbEntity
  8
중심선
100
AcDbLine
 10
2.268634060543552
 20
16.24717430164393
 30
0.0
 11
5.714909304380834
 21
16.24717430164393
 31
0.0
  0
LINE
  5
85
330
7F
100
AcDbEntity
  8
중심선
100
AcDbLine
 10
5.245725140726316
 20
7.84717430164391
 30
0.0
 11
8.692000384563599
 21
7.84717430164391
 31
0.0
  0
LINE
  5
86
330
7F
100
AcDbEntity
  8
중심선
100
AcDbLine
 10
15.74043728645272
 20
16.24717430164393
 30
0.0
 11
8.692000384563599
 21
7.84717430164391
 31
0.0
  0
LINE
  5
87
330
7F
100
AcDbEntity
  8
중심선
100
AcDbLine
 10
0.1404042013395286
 20
13.71084872107135
 30
0.0
 11
3.58671253028996
 21
13.71088815037384
 31
0.0
  0
LINE
  5
88
330
7F
100
AcDbEntity
  8
중심선
100
AcDbLine
 10
2.750260043222114
 20
10.84717430164391
 30
0.0
 11
6.196535287059397
 21
10.84717430164391
 31
0.0
  0
LINE
  5
89
330
7F
100
AcDbEntity
  8
중심선
100
AcDbLine
 10
12.29416204261559
 20
16.24717430164393
 30
0.0
 11
5.245725140726316
 21
7.84717430164391
 31
0.0
  0
LINE
  5
8A
330
7F
100
AcDbEntity
  8
중심선
100
AcDbLine
 10
10.72767329541681
 20
16.24717430164393
 30
0.0
 11
6.196535287059397
 21
10.84717430164391
 31
0.0
  0
LINE
  5
8B
330
7F
100
AcDbEntity
  8
중심선
100
AcDbLine
 10
7.28139805157953
 20
16.24717430164393
 30
0.0
 11
2.750260043222114
 21
10.84717430164391
 31
0.0
  0
LINE
  5
8C
330
7F
100
AcDbEntity
  8
중심선
100
AcDbLine
 10
5.714909304380834
 20
16.24717430164393
 30
0.0
 11
3.58671253028996
 21
13.71088815037384
 31
0.0
  0
LINE
  5
8D
330
7F
100
AcDbEntity
  8
중심선
100
AcDbLine
 10
2.268634060543552
 20
16.24717430164393
 30
0.0
 11
0.1404042013395286
 21
13.71084872107135
 31
0.0
  0
LINE
  5
8E
330
7F
100
AcDbEntity
  8
중심선
100
AcDbLine
 10
7.28139805157953
 20
16.24717430164393
 30
0.0
 11
10.72767329541681
 21
16.24717430164393
 31
0.0
  0
LINE
  5
8F
330
7F
100
AcDbEntity
  8
중심선
100
AcDbLine
 10
12.29416204261559
 20
16.24717430164393
 30
0.0
 11
15.74043728645272
 21
16.24717430164393
 31
0.0
  0
LINE
  5
90
330
7F
100
AcDbEntity
  8
중심선
100
AcDbLine
 10
19.22036997980202
 20
11.08717430171403
 30
0.0
 11
23.66174974927406
 21
11.08717430171406
 31
0.0
  0
LINE
  5
91
330
7F
100
AcDbEntity
  8
중심선
100
AcDbLine
 10
19.22039502424796
 20
13.00717430171391
 30
0.0
 11
19.22036997980202
 21
11.08717430171403
 31
0.0
  0
LINE
  5
92
330
7F
100
AcDbEntity
  8
중심선
100
AcDbLine
 10
19.22039502424796
 20
13.00717430171391
 30
0.0
 11
26.96566020931264
 21
13.00717430171391
 31
0.0
  0
LINE
  5
93
330
7F
100
AcDbEntity
  8
중심선
100
AcDbLine
 10
22.22332737316547
 20
13.45928029700563
 30
0.0
 11
24.52862924686651
 21
15.39360700705356
 31
0.0
  0
ATTDEF
  5
95
330
7F
100
AcDbEntity
  8
FORMAT
 62
     2
100
AcDbText
 10
4.408487351596664
 20
2.075366912832191
 30
0.0
 40
4.233333333333333
  1
E5058016
 41
0.75
  7
SLDTEXTSTYLE0
 11
4.408487351596664
 21
-0.0412997538344756
 31
0.0
100
AcDbAttributeDefinition
  3

  2
AUTOATTR0
 70
     0
 74
     1
  0
ENDBLK
  5
81
330
7F
100
AcDbEntity
  8
0
100
AcDbBlockEnd
  0
BLOCK
  5
E6
330
E5
100
AcDbEntity
  8
0
100
AcDbBlockBegin
  2
_D
 70
     0
 10
0.0
 20
0.0
 30
0.0
  3
_D
  1
_D
  0
LINE
  5
E8
330
E5
100
AcDbEntity
  8
치수문자_일반주서
 62
     0
370
    -2
100
AcDbLine
 10
29.1125
 20
3.174999999999997
 30
0.0
 11
39.60957430822597
 21
3.175000000000036
 31
0.0
  0
LINE
  5
E9
330
E5
100
AcDbEntity
  8
치수문자_일반주서
 62
     0
370
    -2
100
AcDbLine
 10
29.1125
 20
-3.175000000000005
 30
0.0
 11
39.60957430822599
 21
-3.174999999999965
 31
0.0
  0
LINE
  5
EA
330
E5
100
AcDbEntity
  8
치수문자_일반주서
 62
     0
370
    -2
100
AcDbLine
 10
39.60957430822597
 20
3.175000000000036
 30
0.0
 11
39.60957430822587
 21
35.81025000000003
 31
0.0
  0
LINE
  5
EB
330
E5
100
AcDbEntity
  8
치수문자_일반주서
 62
     0
370
    -2
100
AcDbLine
 10
39.60957430822597
 20
3.175000000000036
 30
0.0
 11
39.60957430822599
 21
-3.174999999999965
 31
0.0
  0
LINE
  5
EC
330
E5
100
AcDbEntity
  8
치수문자_일반주서
 62
     0
370
    -2
100
AcDbLine
 10
39.60957430822596
 20
6.477000000000036
 30
0.0
 11
39.60957430822594
 21
9.779000000000035
 31
0.0
  0
LINE
  5
ED
330
E5
100
AcDbEntity
  8
치수문자_일반주서
 62
     0
370
    -2
100
AcDbLine
 10
39.60957430822601
 20
-6.476999999999965
 30
0.0
 11
39.60957430822602
 21
-9.778999999999964
 31
0.0
  0
SOLID
  5
EE
330
E5
100
AcDbEntity
  8
치수문자_일반주서
 62
     0
100
AcDbTrace
 10
39.05924097489262
 20
6.477000000000034
 30
0.0
 11
40.15990764155929
 21
6.477000000000038
 31
0.0
 12
39.60957430822597
 22
3.175000000000036
 32
0.0
 13
39.60957430822597
 23
3.175000000000036
 33
0.0
  0
SOLID
  5
EF
330
E5
100
AcDbEntity
  8
치수문자_일반주서
 62
     0
100
AcDbTrace
 10
40.15990764155934
 20
-6.476999999999963
 30
0.0
 11
39.05924097489267
 21
-6.476999999999967
 31
0.0
 12
39.60957430822599
 22
-3.174999999999965
 32
0.0
 13
39.60957430822599
 23
-3.174999999999965
 33
0.0
  0
MTEXT
  5
F0
330
E5
100
AcDbEntity
  8
치수문자_일반주서
 62
     0
100
AcDbMText
 10
35.23457430822591
 20
23.12275000000002
 30
0.0
 40
3.5
 41
0.0
 71
     2
 72
     1
  1
\A1;%%c6.35 [1/4]
  7
SLDTEXTSTYLE0
 11
-3.356894814614646E-15
 21
1.0
 31
0.0
 73
     1
 44
1.0
  0
POINT
  5
F1
330
E5
100
AcDbEntity
  8
Defpoints
 62
     0
100
AcDbPoint
 10
29.05
 20
3.174999999999996
 30
0.0
  0
POINT
  5
F2
330
E5
100
AcDbEntity
  8
Defpoints
 62
     0
100
AcDbPoint
 10
29.05
 20
-3.175000000000005
 30
0.0
  0
POINT
  5
F3
330
E5
100
AcDbEntity
  8
Defpoints
 62
     0
100
AcDbPoint
 10
39.60957430822599
 20
-3.174999999999966
 30
0.0
  0
ENDBLK
  5
E7
330
E5
100
AcDbEntity
  8
0
100
AcDbBlockEnd
  0
BLOCK
  5
FA
330
F9
100
AcDbEntity
  8
0
100
AcDbBlockBegin
  2
_D_1
 70
     0
 10
0.0
 20
0.0
 30
0.0
  3
_D_1
  1
_D_1
  0
LINE
  5
FC
330
F9
100
AcDbEntity
  8
치수문자_일반주서
 62
     0
370
    -2
100
AcDbLine
 10
29.05
 20
3.214330599121269
 30
0.0
 11
29.05
 21
25.27391262060421
 31
0.0
  0
LINE
  5
FD
330
F9
100
AcDbEntity
  8
치수문자_일반주서
 62
     0
370
    -2
100
AcDbLine
 10
10.00000000000001
 20
3.195868787727855
 30
0.0
 11
10.00000000000001
 21
25.27391262060421
 31
0.0
  0
LINE
  5
FE
330
F9
100
AcDbEntity
  8
치수문자_일반주서
 62
     0
370
    -2
100
AcDbLine
 10
25.748
 20
25.27391262060421
 30
0.0
 11
13.30200000000001
 21
25.27391262060421
 31
0.0
  0
SOLID
  5
FF
330
F9
100
AcDbEntity
  8
치수문자_일반주서
 62
     0
100
AcDbTrace
 10
25.748
 20
24.72357928727088
 30
0.0
 11
25.748
 21
25.82424595393755
 31
0.0
 12
29.05
 22
25.27391262060421
 32
0.0
 13
29.05
 23
25.27391262060421
 33
0.0
  0
SOLID
  5
100
330
F9
100
AcDbEntity
  8
치수문자_일반주서
 62
     0
100
AcDbTrace
 10
13.30200000000001
 20
25.82424595393755
 30
0.0
 11
13.30200000000001
 21
24.72357928727088
 31
0.0
 12
10.00000000000001
 22
25.27391262060421
 32
0.0
 13
10.00000000000001
 23
25.27391262060421
 33
0.0
  0
MTEXT
  5
101
330
F9
100
AcDbEntity
  8
치수문자_일반주서
 62
     0
100
AcDbMText
 10
19.52500000000001
 20
29.64891262060421
 30
0.0
 40
3.5
 41
0.0
 71
     2
 72
     1
  1
\A1;19.05 [3/4]
  7
SLDTEXTSTYLE0
 73
     1
 44
1.0
  0
POINT
  5
102
330
F9
100
AcDbEntity
  8
Defpoints
 62
     0
100
AcDbPoint
 10
29.05
 20
3.151830599121269
 30
0.0
  0
POINT
  5
103
330
F9
100
AcDbEntity
  8
Defpoints
 62
     0
100
AcDbPoint
 10
10.00000000000001
 20
3.133368787727855
 30
0.0
  0
POINT
  5
104
330
F9
100
AcDbEntity
  8
Defpoints
 62
     0
100
AcDbPoint
 10
10.00000000000001
 20
25.27391262060421
 30
0.0
  0
ENDBLK
  5
FB
330
F9
100
AcDbEntity
  8
0
100
AcDbBlockEnd
  0
BLOCK
  5
110
330
10F
100
AcDbEntity
  8
0
100
AcDbBlockBegin
  2
_D_2
 70
     0
 10
0.0
 20
0.0
 30
0.0
  3
_D_2
  1
_D_2
  0
LINE
  5
112
330
10F
100
AcDbEntity
  8
치수문자_일반주서
 62
     0
370
    -2
100
AcDbLine
 10
29.05
 20
3.214330599121269
 30
0.0
 11
29.05
 21
43.27391262060423
 31
0.0
  0
LINE
  5
113
330
10F
100
AcDbEntity
  8
치수문자_일반주서
 62
     0
370
    -2
100
AcDbLine
 10
-34.45
 20
2.602499999999997
 30
0.0
 11
-34.45
 21
43.27391262060423
 31
0.0
  0
LINE
  5
114
330
10F
100
AcDbEntity
  8
치수문자_일반주서
 62
     0
370
    -2
100
AcDbLine
 10
25.748
 20
43.27391262060423
 30
0.0
 11
-31.148
 21
43.27391262060423
 31
0.0
  0
SOLID
  5
115
330
10F
100
AcDbEntity
  8
치수문자_일반주서
 62
     0
100
AcDbTrace
 10
25.748
 20
42.72357928727089
 30
0.0
 11
25.748
 21
43.82424595393756
 31
0.0
 12
29.05
 22
43.27391262060423
 32
0.0
 13
29.05
 23
43.27391262060423
 33
0.0
  0
SOLID
  5
116
330
10F
100
AcDbEntity
  8
치수문자_일반주서
 62
     0
100
AcDbTrace
 10
-31.148
 20
43.82424595393756
 30
0.0
 11
-31.148
 21
42.72357928727089
 31
0.0
 12
-34.45
 22
43.27391262060423
 32
0.0
 13
-34.45
 23
43.27391262060423
 33
0.0
  0
MTEXT
  5
117
330
10F
100
AcDbEntity
  8
치수문자_일반주서
 62
     0
100
AcDbMText
 10
-2.699999999999996
 20
47.64891262060423
 30
0.0
 40
3.5
 41
0.0
 71
     2
 72
     1
  1
\A1;63.5 [2 1/2]
  7
SLDTEXTSTYLE0
 73
     1
 44
1.0
  0
POINT
  5
118
330
10F
100
AcDbEntity
  8
Defpoints
 62
     0
100
AcDbPoint
 10
29.05
 20
3.151830599121269
 30
0.0
  0
POINT
  5
119
330
10F
100
AcDbEntity
  8
Defpoints
 62
     0
100
AcDbPoint
 10
-34.45
 20
2.539999999999997
 30
0.0
  0
POINT
  5
11A
330
10F
100
AcDbEntity
  8
Defpoints
 62
     0
100
AcDbPoint
 10
-34.45
 20
43.27391262060423
 30
0.0
  0
ENDBLK
  5
111
330
10F
100
AcDbEntity
  8
0
100
AcDbBlockEnd
  0
BLOCK
  5
123
330
122
100
AcDbEntity
  8
0
100
AcDbBlockBegin
  2
_D_3
 70
     0
 10
0.0
 20
0.0
 30
0.0
  3
_D_3
  1
_D_3
  0
LINE
  5
125
330
122
100
AcDbEntity
  8
치수문자_일반주서
 62
     0
370
    -2
100
AcDbLine
 10
-33.8775
 20
3.175000000000006
 30
0.0
 11
-42.0721357153975
 21
3.174999999999976
 31
0.0
  0
LINE
  5
126
330
122
100
AcDbEntity
  8
치수문자_일반주서
 62
     0
370
    -2
100
AcDbLine
 10
-33.8775
 20
-3.175000000000016
 30
0.0
 11
-42.07213571539748
 21
-3.175000000000047
 31
0.0
  0
LINE
  5
127
330
122
100
AcDbEntity
  8
치수문자_일반주서
 62
     0
370
    -2
100
AcDbLine
 10
-42.0721357153975
 20
3.174999999999976
 30
0.0
 11
-42.07213571539761
 21
35.81024999999998
 31
0.0
  0
LINE
  5
128
330
122
100
AcDbEntity
  8
치수문자_일반주서
 62
     0
370
    -2
100
AcDbLine
 10
-42.0721357153975
 20
3.174999999999976
 30
0.0
 11
-42.07213571539748
 21
-3.175000000000047
 31
0.0
  0
LINE
  5
129
330
122
100
AcDbEntity
  8
치수문자_일반주서
 62
     0
370
    -2
100
AcDbLine
 10
-42.07213571539751
 20
6.476999999999975
 30
0.0
 11
-42.07213571539753
 21
9.778999999999975
 31
0.0
  0
LINE
  5
12A
330
122
100
AcDbEntity
  8
치수문자_일반주서
 62
     0
370
    -2
100
AcDbLine
 10
-42.07213571539747
 20
-6.477000000000046
 30
0.0
 11
-42.07213571539745
 21
-9.779000000000046
 31
0.0
  0
SOLID
  5
12B
330
122
100
AcDbEntity
  8
치수문자_일반주서
 62
     0
100
AcDbTrace
 10
-42.62246904873085
 20
6.476999999999974
 30
0.0
 11
-41.52180238206418
 21
6.476999999999977
 31
0.0
 12
-42.0721357153975
 22
3.174999999999976
 32
0.0
 13
-42.0721357153975
 23
3.174999999999976
 33
0.0
  0
SOLID
  5
12C
330
122
100
AcDbEntity
  8
치수문자_일반주서
 62
     0
100
AcDbTrace
 10
-41.52180238206413
 20
-6.477000000000045
 30
0.0
 11
-42.6224690487308
 21
-6.477000000000048
 31
0.0
 12
-42.07213571539748
 22
-3.175000000000047
 32
0.0
 13
-42.07213571539748
 23
-3.175000000000047
 33
0.0
  0
MTEXT
  5
12D
330
122
100
AcDbEntity
  8
치수문자_일반주서
 62
     0
100
AcDbMText
 10
-46.44713571539756
 20
23.12274999999996
 30
0.0
 40
3.5
 41
0.0
 71
     2
 72
     1
  1
\A1;%%c6.35 [1/4]
  7
SLDTEXTSTYLE0
 11
-3.356894814614635E-15
 21
1.0
 31
0.0
 73
     1
 44
1.0
  0
POINT
  5
2D5
330
122
100
AcDbEntity
  8
Defpoints
 62
     0
100
AcDbPoint
 10
-33.815
 20
3.175000000000007
 30
0.0
  0
POINT
  5
2D6
330
122
100
AcDbEntity
  8
Defpoints
 62
     0
100
AcDbPoint
 10
-33.815
 20
-3.175000000000015
 30
0.0
  0
POINT
  5
2D7
330
122
100
AcDbEntity
  8
Defpoints
 62
     0
100
AcDbPoint
 10
-42.07213571539748
 20
-3.175000000000046
 30
0.0
  0
ENDBLK
  5
124
330
122
100
AcDbEntity
  8
0
100
AcDbBlockEnd
  0
BLOCK
  5
13D
330
13C
100
AcDbEntity
  8
0
100
AcDbBlockBegin
  2
SW_DOWELSYMBOL_0
 70
     0
 10
0.0
 20
0.0
 30
0.0
  3
SW_DOWELSYMBOL_0
  1
SW_DOWELSYMBOL_0
  0
CIRCLE
  5
13F
330
13C
100
AcDbEntity
  8
해칭선
 62
     0
100
AcDbCircle
 10
0.0
 20
0.0
 30
0.0
 40
3.000000000000001
  0
HATCH
  5
140
330
13C
100
AcDbEntity
  8
0
  6
Continuous
 62
     0
370
     0
100
AcDbHatch
 10
0.0
 20
0.0
 30
0.0
210
0.0
220
0.0
230
1.0
  2
SOLID
 70
     1
 71
     0
 91
        1
 92
        0
 93
        3
 72
     2
 10
0.0
 20
0.0
 40
3.000000000000001
 50
0.0
 51
90.0
 73
     1
 72
     1
 10
0.0
 20
3.000000000000001
 11
0.0
 21
0.0
 72
     1
 10
0.0
 20
0.0
 11
3.000000000000001
 21
0.0
 97
        0
 75
     0
 76
     1
 98
        1
 10
0.0
 20
0.0
  0
HATCH
  5
141
330
13C
100
AcDbEntity
  8
0
  6
Continuous
 62
     0
370
     0
100
AcDbHatch
 10
0.0
 20
0.0
 30
0.0
210
0.0
220
0.0
230
1.0
  2
SOLID
 70
     1
 71
     0
 91
        1
 92
        0
 93
        3
 72
     2
 10
0.0
 20
0.0
 40
3.000000000000001
 50
180.0
 51
270.0000000000007
 73
     1
 72
     1
 10
0.0
 20
-3.000000000000001
 11
0.0
 21
0.0
 72
     1
 10
0.0
 20
0.0
 11
-3.000000000000001
 21
0.0
 97
        0
 75
     0
 76
     1
 98
        1
 10
0.0
 20
0.0
  0
ENDBLK
  5
13E
330
13C
100
AcDbEntity
  8
0
100
AcDbBlockEnd
  0
BLOCK
  5
1FF
330
1FE
100
AcDbEntity
  8
0
100
AcDbBlockBegin
  2
_D_4
 70
     0
 10
0.0
 20
0.0
 30
0.0
  3
_D_4
  1
_D_4
  0
LINE
  5
200
330
1FE
100
AcDbEntity
  8
치수문자_일반주서
 62
     0
370
    -2
100
AcDbLine
 10
102.4375000000001
 20
36.22143424691529
 30
0.0
 11
117.3750000000001
 21
36.22143424691535
 31
0.0
  0
LINE
  5
201
330
1FE
100
AcDbEntity
  8
치수문자_일반주서
 62
     0
370
    -2
100
AcDbLine
 10
102.4375000000001
 20
22.22143424691529
 30
0.0
 11
117.3750000000001
 21
22.22143424691535
 31
0.0
  0
LINE
  5
202
330
1FE
100
AcDbEntity
  8
치수문자_일반주서
 62
     0
370
    -2
100
AcDbLine
 10
117.3750000000001
 20
36.22143424691535
 30
0.0
 11
117.3750000000001
 21
22.22143424691535
 31
0.0
  0
LINE
  5
203
330
1FE
100
AcDbEntity
  8
치수문자_일반주서
 62
     0
370
    -2
100
AcDbLine
 10
117.3750000000001
 20
39.52343424691535
 30
0.0
 11
117.375
 21
42.82543424691535
 31
0.0
  0
LINE
  5
204
330
1FE
100
AcDbEntity
  8
치수문자_일반주서
 62
     0
370
    -2
100
AcDbLine
 10
117.3750000000001
 20
18.91943424691535
 30
0.0
 11
117.3750000000001
 21
15.61743424691535
 31
0.0
  0
SOLID
  5
205
330
1FE
100
AcDbEntity
  8
치수문자_일반주서
 62
     0
100
AcDbTrace
 10
116.8246666666667
 20
39.52343424691535
 30
0.0
 11
117.9253333333334
 21
39.52343424691535
 31
0.0
 12
117.3750000000001
 22
36.22143424691535
 32
0.0
 13
117.3750000000001
 23
36.22143424691535
 33
0.0
  0
SOLID
  5
206
330
1FE
100
AcDbEntity
  8
치수문자_일반주서
 62
     0
100
AcDbTrace
 10
117.9253333333335
 20
18.91943424691535
 30
0.0
 11
116.8246666666668
 21
18.91943424691535
 31
0.0
 12
117.3750000000001
 22
22.22143424691535
 32
0.0
 13
117.3750000000001
 23
22.22143424691535
 33
0.0
  0
MTEXT
  5
207
330
1FE
100
AcDbEntity
  8
치수문자_일반주서
 62
     0
100
AcDbMText
 10
113.0000000000001
 20
29.28713862862833
 30
0.0
 40
3.5
 41
0.0
 71
     2
 72
     1
  1
\A1;%%c14
  7
SLDTEXTSTYLE0
 11
-3.045183153257572E-15
 21
1.0
 31
0.0
 73
     1
 44
1.0
  0
POINT
  5
208
330
1FE
100
AcDbEntity
  8
Defpoints
 62
     0
100
AcDbPoint
 10
102.3750000000001
 20
36.22143424691529
 30
0.0
  0
POINT
  5
209
330
1FE
100
AcDbEntity
  8
Defpoints
 62
     0
100
AcDbPoint
 10
102.3750000000001
 20
22.22143424691529
 30
0.0
  0
POINT
  5
20A
330
1FE
100
AcDbEntity
  8
Defpoints
 62
     0
100
AcDbPoint
 10
117.3750000000001
 20
22.22143424691535
 30
0.0
  0
ENDBLK
  5
20B
330
1FE
100
AcDbEntity
  8
0
100
AcDbBlockEnd
  0
BLOCK
  5
219
330
218
100
AcDbEntity
  8
0
100
AcDbBlockBegin
  2
*D8
 70
     1
 10
0.0
 20
0.0
 30
0.0
  3
*D8
  1
*D8
  0
LINE
  5
21A
330
218
100
AcDbEntity
  8
치수문자_일반주서
 62
     0
370
    -2
100
AcDbLine
 10
103.8657751816695
 20
19.48229575403651
 30
0.0
 11
120.1921280501954
 21
-7.081888143622854
 31
0.0
  0
MTEXT
  5
21B
330
218
100
AcDbEntity
  8
치수문자_일반주서
 62
     0
100
AcDbMText
 10
115.6706384014277
 20
5.288158154535728
 30
0.0
 40
3.5
 41
0.0
 71
     5
 72
     1
  1
\A1;R.50 [R0.02]
  7
SLDTEXTSTYLE0
 11
0.5236126201129557
 21
-0.8519564684057781
 31
0.0
 73
     1
 44
1.0
  0
SOLID
  5
21C
330
218
100
AcDbEntity
  8
치수문자_일반주서
 62
     0
100
AcDbTrace
 10
104.3346352247821
 20
19.77045723263868
 30
0.0
 11
103.3969151385569
 21
19.19413427543435
 31
0.0
 12
102.1368063100565
 22
22.29545601271239
 32
0.0
 13
102.1368063100565
 23
22.29545601271239
 33
0.0
  0
LINE
  5
21D
330
218
100
AcDbEntity
  8
치수문자_일반주서
 62
     0
100
AcDbLine
 10
101.785
 20
22.72143424691529
 30
0.0
 11
101.965
 21
22.72143424691529
 31
0.0
  0
LINE
  5
21E
330
218
100
AcDbEntity
  8
치수문자_일반주서
 62
     0
100
AcDbLine
 10
101.875
 20
22.63143424691529
 30
0.0
 11
101.875
 21
22.81143424691529
 31
0.0
  0
POINT
  5
24A
330
218
100
AcDbEntity
  8
Defpoints
 62
     0
100
AcDbPoint
 10
102.1368063100565
 20
22.29545601271239
 30
0.0
  0
POINT
  5
24B
330
218
100
AcDbEntity
  8
Defpoints
 62
     0
100
AcDbPoint
 10
101.875
 20
22.72143424691529
 30
0.0
  0
ENDBLK
  5
21F
330
218
100
AcDbEntity
  8
0
100
AcDbBlockEnd
  0
BLOCK
  5
225
330
224
100
AcDbEntity
  8
0
100
AcDbBlockBegin
  2
*D9
 70
     1
 10
0.0
 20
0.0
 30
0.0
  3
*D9
  1
*D10
  0
LINE
  5
227
330
224
100
AcDbEntity
  8
치수문자_일반주서
 62
     0
370
    -2
100
AcDbLine
 10
19.37500000000004
 20
35.78393424691529
 30
0.0
 11
19.37500000000004
 21
70.88391841499404
 31
0.0
  0
LINE
  5
228
330
224
100
AcDbEntity
  8
치수문자_일반주서
 62
     0
370
    -2
100
AcDbLine
 10
102.3750000000001
 20
36.34643424691529
 30
0.0
 11
102.3750000000001
 21
70.88391841499404
 31
0.0
  0
LINE
  5
229
330
224
100
AcDbEntity
  8
치수문자_일반주서
 62
     0
370
    -2
100
AcDbLine
 10
22.67700000000004
 20
70.88391841499404
 30
0.0
 11
99.07300000000006
 21
70.88391841499404
 31
0.0
  0
SOLID
  5
22A
330
224
100
AcDbEntity
  8
치수문자_일반주서
 62
     0
100
AcDbTrace
 10
22.67700000000004
 20
71.43425174832737
 30
0.0
 11
22.67700000000004
 21
70.33358508166071
 31
0.0
 12
19.37500000000004
 22
70.88391841499404
 32
0.0
 13
19.37500000000004
 23
70.88391841499404
 33
0.0
  0
SOLID
  5
22B
330
224
100
AcDbEntity
  8
치수문자_일반주서
 62
     0
100
AcDbTrace
 10
99.07300000000006
 20
70.33358508166071
 30
0.0
 11
99.07300000000006
 21
71.43425174832737
 31
0.0
 12
102.3750000000001
 22
70.88391841499404
 32
0.0
 13
102.3750000000001
 23
70.88391841499404
 33
0.0
  0
MTEXT
  5
22C
330
224
100
AcDbEntity
  8
치수문자_일반주서
 62
     0
100
AcDbMText
 10
60.87500000000005
 20
75.25891841499404
 30
0.0
 40
3.5
 41
0.0
 71
     2
 72
     1
  1
\A1;83 [3.27]
  7
SLDTEXTSTYLE0
 73
     1
 44
1.0
  0
POINT
  5
22D
330
224
100
AcDbEntity
  8
Defpoints
 62
     0
100
AcDbPoint
 10
19.37500000000004
 20
35.72143424691529
 30
0.0
  0
POINT
  5
22E
330
224
100
AcDbEntity
  8
Defpoints
 62
     0
100
AcDbPoint
 10
102.3750000000001
 20
36.28393424691529
 30
0.0
  0
POINT
  5
22F
330
224
100
AcDbEntity
  8
Defpoints
 62
     0
100
AcDbPoint
 10
102.3750000000001
 20
70.88391841499404
 30
0.0
  0
ENDBLK
  5
226
330
224
100
AcDbEntity
  8
0
100
AcDbBlockEnd
  0
BLOCK
  5
231
330
230
100
AcDbEntity
  8
0
100
AcDbBlockBegin
  2
*D10
 70
     1
 10
0.0
 20
0.0
 30
0.0
  3
*D10
  1
*D11
  0
LINE
  5
233
330
230
100
AcDbEntity
  8
치수문자_일반주서
 62
     0
370
    -2
100
AcDbLine
 10
76.37504186422882
 20
28.62038676313042
 30
0.0
 11
76.37504186422882
 21
61.90091383617725
 31
0.0
  0
LINE
  5
234
330
230
100
AcDbEntity
  8
치수문자_일반주서
 62
     0
370
    -2
100
AcDbLine
 10
102.3750000000001
 20
36.28393424691529
 30
0.0
 11
102.3750000000001
 21
61.90091383617725
 31
0.0
  0
LINE
  5
235
330
230
100
AcDbEntity
  8
치수문자_일반주서
 62
     0
370
    -2
100
AcDbLine
 10
79.67704186422881
 20
61.90091383617725
 30
0.0
 11
99.07300000000006
 21
61.90091383617725
 31
0.0
  0
SOLID
  5
236
330
230
100
AcDbEntity
  8
치수문자_일반주서
 62
     0
100
AcDbTrace
 10
79.67704186422881
 20
62.45124716951059
 30
0.0
 11
79.67704186422881
 21
61.35058050284392
 31
0.0
 12
76.37504186422882
 22
61.90091383617725
 32
0.0
 13
76.37504186422882
 23
61.90091383617725
 33
0.0
  0
SOLID
  5
237
330
230
100
AcDbEntity
  8
치수문자_일반주서
 62
     0
100
AcDbTrace
 10
99.07300000000006
 20
61.35058050284392
 30
0.0
 11
99.07300000000006
 21
62.45124716951059
 31
0.0
 12
102.3750000000001
 22
61.90091383617725
 32
0.0
 13
102.3750000000001
 23
61.90091383617725
 33
0.0
  0
MTEXT
  5
238
330
230
100
AcDbEntity
  8
치수문자_일반주서
 62
     0
100
AcDbMText
 10
89.42159572693208
 20
66.27591383617725
 30
0.0
 40
3.5
 41
0.0
 71
     2
 72
     1
  1
\A1;26 [1.02]
  7
SLDTEXTSTYLE0
 73
     1
 44
1.0
  0
POINT
  5
239
330
230
100
AcDbEntity
  8
Defpoints
 62
     0
100
AcDbPoint
 10
76.37504186422882
 20
28.55788676313042
 30
0.0
  0
POINT
  5
23A
330
230
100
AcDbEntity
  8
Defpoints
 62
     0
100
AcDbPoint
 10
102.3750000000001
 20
36.22143424691529
 30
0.0
  0
POINT
  5
23B
330
230
100
AcDbEntity
  8
Defpoints
 62
     0
100
AcDbPoint
 10
102.3750000000001
 20
61.90091383617725
 30
0.0
  0
ENDBLK
  5
232
330
230
100
AcDbEntity
  8
0
100
AcDbBlockEnd
  0
BLOCK
  5
23D
330
23C
100
AcDbEntity
  8
0
100
AcDbBlockBegin
  2
*D11
 70
     1
 10
0.0
 20
0.0
 30
0.0
  3
*D11
  1
*D12
  0
LINE
  5
23F
330
23C
100
AcDbEntity
  8
치수문자_일반주서
 62
     0
370
    -2
100
AcDbLine
 10
19.81250000000005
 20
36.22143424691529
 30
0.0
 11
4.374999999999983
 21
36.22143424691524
 31
0.0
  0
LINE
  5
240
330
23C
100
AcDbEntity
  8
치수문자_일반주서
 62
     0
370
    -2
100
AcDbLine
 10
19.81250000000005
 20
22.22143424691529
 30
0.0
 11
4.375000000000032
 21
22.22143424691524
 31
0.0
  0
LINE
  5
241
330
23C
100
AcDbEntity
  8
치수문자_일반주서
 62
     0
370
    -2
100
AcDbLine
 10
4.374999999999983
 20
36.22143424691524
 30
0.0
 11
4.375000000000032
 21
22.22143424691524
 31
0.0
  0
LINE
  5
242
330
23C
100
AcDbEntity
  8
치수문자_일반주서
 62
     0
370
    -2
100
AcDbLine
 10
4.374999999999972
 20
39.52343424691524
 30
0.0
 11
4.37499999999996
 21
42.82543424691524
 31
0.0
  0
LINE
  5
243
330
23C
100
AcDbEntity
  8
치수문자_일반주서
 62
     0
370
    -2
100
AcDbLine
 10
4.375000000000044
 20
18.91943424691524
 30
0.0
 11
4.375000000000055
 21
15.61743424691524
 31
0.0
  0
SOLID
  5
244
330
23C
100
AcDbEntity
  8
치수문자_일반주서
 62
     0
100
AcDbTrace
 10
3.824666666666638
 20
39.52343424691524
 30
0.0
 11
4.925333333333305
 21
39.52343424691524
 31
0.0
 12
4.374999999999983
 22
36.22143424691524
 32
0.0
 13
4.374999999999983
 23
36.22143424691524
 33
0.0
  0
SOLID
  5
245
330
23C
100
AcDbEntity
  8
치수문자_일반주서
 62
     0
100
AcDbTrace
 10
4.925333333333377
 20
18.91943424691524
 30
0.0
 11
3.82466666666671
 21
18.91943424691523
 31
0.0
 12
4.375000000000032
 22
22.22143424691524
 32
0.0
 13
4.375000000000032
 23
22.22143424691524
 33
0.0
  0
MTEXT
  5
246
330
23C
100
AcDbEntity
  8
치수문자_일반주서
 62
     0
100
AcDbMText
 10
0.0000000000000071
 20
29.22143424691528
 30
0.0
 40
3.5
 41
0.0
 71
     2
 72
     1
  1
\A1;%%c14
  7
SLDTEXTSTYLE0
 11
-3.489272363107635E-15
 21
1.0
 31
0.0
 73
     1
 44
1.0
  0
POINT
  5
247
330
23C
100
AcDbEntity
  8
Defpoints
 62
     0
100
AcDbPoint
 10
19.87500000000005
 20
36.22143424691529
 30
0.0
  0
POINT
  5
248
330
23C
100
AcDbEntity
  8
Defpoints
 62
     0
100
AcDbPoint
 10
19.87500000000005
 20
22.22143424691529
 30
0.0
  0
POINT
  5
249
330
23C
100
AcDbEntity
  8
Defpoints
 62
     0
100
AcDbPoint
 10
4.375000000000043
 20
22.22143424691524
 30
0.0
  0
ENDBLK
  5
23E
330
23C
100
AcDbEntity
  8
0
100
AcDbBlockEnd
  0
BLOCK
  5
298
330
297
100
AcDbEntity
  8
0
100
AcDbBlockBegin
  2
*D12
 70
     1
 10
0.0
 20
0.0
 30
0.0
  3
*D12
  1
*D13
  0
LINE
  5
29A
330
297
100
AcDbEntity
  8
치수문자_일반주서
 62
     0
370
    -2
100
AcDbLine
 10
-49.84711479661776
 20
100.8086818855078
 30
0.0
 11
-49.84711479661776
 21
135.9086660535865
 31
0.0
  0
LINE
  5
29B
330
297
100
AcDbEntity
  8
치수문자_일반주서
 62
     0
370
    -2
100
AcDbLine
 10
33.15288520338225
 20
101.3711818855078
 30
0.0
 11
33.15288520338225
 21
135.9086660535865
 31
0.0
  0
LINE
  5
29C
330
297
100
AcDbEntity
  8
치수문자_일반주서
 62
     0
370
    -2
100
AcDbLine
 10
-46.54511479661776
 20
135.9086660535865
 30
0.0
 11
29.85088520338225
 21
135.9086660535865
 31
0.0
  0
SOLID
  5
29D
330
297
100
AcDbEntity
  8
치수문자_일반주서
 62
     0
100
AcDbTrace
 10
-46.54511479661776
 20
136.4589993869198
 30
0.0
 11
-46.54511479661776
 21
135.3583327202532
 31
0.0
 12
-49.84711479661776
 22
135.9086660535865
 32
0.0
 13
-49.84711479661776
 23
135.9086660535865
 33
0.0
  0
SOLID
  5
29E
330
297
100
AcDbEntity
  8
치수문자_일반주서
 62
     0
100
AcDbTrace
 10
29.85088520338225
 20
135.3583327202532
 30
0.0
 11
29.85088520338225
 21
136.4589993869198
 31
0.0
 12
33.15288520338225
 22
135.9086660535865
 32
0.0
 13
33.15288520338225
 23
135.9086660535865
 33
0.0
  0
MTEXT
  5
29F
330
297
100
AcDbEntity
  8
치수문자_일반주서
 62
     0
100
AcDbMText
 10
-8.347114796617753
 20
140.2836660535865
 30
0.0
 40
3.5
 41
0.0
 71
     2
 72
     1
  1
\A1;83 [3.27]
  7
SLDTEXTSTYLE0
 73
     1
 44
1.0
  0
POINT
  5
2A0
330
297
100
AcDbEntity
  8
Defpoints
 62
     0
100
AcDbPoint
 10
-49.84711479661776
 20
100.7461818855078
 30
0.0
  0
POINT
  5
2A1
330
297
100
AcDbEntity
  8
Defpoints
 62
     0
100
AcDbPoint
 10
33.15288520338225
 20
101.3086818855078
 30
0.0
  0
POINT
  5
2A2
330
297
100
AcDbEntity
  8
Defpoints
 62
     0
100
AcDbPoint
 10
33.15288520338225
 20
135.9086660535865
 30
0.0
  0
ENDBLK
  5
299
330
297
100
AcDbEntity
  8
0
100
AcDbBlockEnd
  0
BLOCK
  5
2A4
330
2A3
100
AcDbEntity
  8
0
100
AcDbBlockBegin
  2
*D13
 70
     1
 10
0.0
 20
0.0
 30
0.0
  3
*D13
  1
*D14
  0
LINE
  5
2A6
330
2A3
100
AcDbEntity
  8
치수문자_일반주서
 62
     0
370
    -2
100
AcDbLine
 10
7.152927067611017
 20
93.6451344017229
 30
0.0
 11
7.152927067611017
 21
126.9256614747697
 31
0.0
  0
LINE
  5
2A7
330
2A3
100
AcDbEntity
  8
치수문자_일반주서
 62
     0
370
    -2
100
AcDbLine
 10
33.15288520338225
 20
101.3086818855078
 30
0.0
 11
33.15288520338225
 21
126.9256614747697
 31
0.0
  0
LINE
  5
2A8
330
2A3
100
AcDbEntity
  8
치수문자_일반주서
 62
     0
370
    -2
100
AcDbLine
 10
10.45492706761102
 20
126.9256614747697
 30
0.0
 11
29.85088520338225
 21
126.9256614747697
 31
0.0
  0
SOLID
  5
2A9
330
2A3
100
AcDbEntity
  8
치수문자_일반주서
 62
     0
100
AcDbTrace
 10
10.45492706761102
 20
127.4759948081031
 30
0.0
 11
10.45492706761102
 21
126.3753281414364
 31
0.0
 12
7.152927067611017
 22
126.9256614747697
 32
0.0
 13
7.152927067611017
 23
126.9256614747697
 33
0.0
  0
SOLID
  5
2AA
330
2A3
100
AcDbEntity
  8
치수문자_일반주서
 62
     0
100
AcDbTrace
 10
29.85088520338225
 20
126.3753281414364
 30
0.0
 11
29.85088520338225
 21
127.4759948081031
 31
0.0
 12
33.15288520338225
 22
126.9256614747697
 32
0.0
 13
33.15288520338225
 23
126.9256614747697
 33
0.0
  0
MTEXT
  5
2AB
330
2A3
100
AcDbEntity
  8
치수문자_일반주서
 62
     0
100
AcDbMText
 10
20.19948093031428
 20
131.3006614747697
 30
0.0
 40
3.5
 41
0.0
 71
     2
 72
     1
  1
\A1;26 [1.02]
  7
SLDTEXTSTYLE0
 73
     1
 44
1.0
  0
POINT
  5
2AC
330
2A3
100
AcDbEntity
  8
Defpoints
 62
     0
100
AcDbPoint
 10
7.152927067611017
 20
93.5826344017229
 30
0.0
  0
POINT
  5
2AD
330
2A3
100
AcDbEntity
  8
Defpoints
 62
     0
100
AcDbPoint
 10
33.15288520338225
 20
101.2461818855078
 30
0.0
  0
POINT
  5
2AE
330
2A3
100
AcDbEntity
  8
Defpoints
 62
     0
100
AcDbPoint
 10
33.15288520338225
 20
126.9256614747697
 30
0.0
  0
ENDBLK
  5
2A5
330
2A3
100
AcDbEntity
  8
0
100
AcDbBlockEnd
  0
BLOCK
  5
2B0
330
2AF
100
AcDbEntity
  8
0
100
AcDbBlockBegin
  2
*D14
 70
     1
 10
0.0
 20
0.0
 30
0.0
  3
*D14
  1
*D15
  0
LINE
  5
2B2
330
2AF
100
AcDbEntity
  8
치수문자_일반주서
 62
     0
370
    -2
100
AcDbLine
 10
-49.40961479661775
 20
101.2461818855078
 30
0.0
 11
-64.84711479661782
 21
101.2461818855077
 31
0.0
  0
LINE
  5
2B3
330
2AF
100
AcDbEntity
  8
치수문자_일반주서
 62
     0
370
    -2
100
AcDbLine
 10
-49.40961479661775
 20
87.24618188550777
 30
0.0
 11
-64.84711479661777
 21
87.24618188550771
 31
0.0
  0
LINE
  5
2B4
330
2AF
100
AcDbEntity
  8
치수문자_일반주서
 62
     0
370
    -2
100
AcDbLine
 10
-64.84711479661782
 20
101.2461818855077
 30
0.0
 11
-64.84711479661777
 21
87.24618188550771
 31
0.0
  0
LINE
  5
2B5
330
2AF
100
AcDbEntity
  8
치수문자_일반주서
 62
     0
370
    -2
100
AcDbLine
 10
-64.84711479661783
 20
104.5481818855077
 30
0.0
 11
-64.84711479661784
 21
107.8501818855077
 31
0.0
  0
LINE
  5
2B6
330
2AF
100
AcDbEntity
  8
치수문자_일반주서
 62
     0
370
    -2
100
AcDbLine
 10
-64.84711479661776
 20
83.9441818855077
 30
0.0
 11
-64.84711479661775
 21
80.6421818855077
 31
0.0
  0
SOLID
  5
2B7
330
2AF
100
AcDbEntity
  8
치수문자_일반주서
 62
     0
100
AcDbTrace
 10
-65.39744812995116
 20
104.5481818855077
 30
0.0
 11
-64.2967814632845
 21
104.5481818855077
 31
0.0
 12
-64.84711479661782
 22
101.2461818855077
 32
0.0
 13
-64.84711479661782
 23
101.2461818855077
 33
0.0
  0
SOLID
  5
2B8
330
2AF
100
AcDbEntity
  8
치수문자_일반주서
 62
     0
100
AcDbTrace
 10
-64.29678146328443
 20
83.9441818855077
 30
0.0
 11
-65.39744812995109
 21
83.9441818855077
 31
0.0
 12
-64.84711479661777
 22
87.24618188550771
 32
0.0
 13
-64.84711479661777
 23
87.24618188550771
 33
0.0
  0
MTEXT
  5
2B9
330
2AF
100
AcDbEntity
  8
치수문자_일반주서
 62
     0
100
AcDbMText
 10
-69.2221147966178
 20
94.24618188550775
 30
0.0
 40
3.5
 41
0.0
 71
     2
 72
     1
  1
\A1;%%c14
  7
SLDTEXTSTYLE0
 11
-3.045183153257572E-15
 21
1.0
 31
0.0
 73
     1
 44
1.0
  0
POINT
  5
2BA
330
2AF
100
AcDbEntity
  8
Defpoints
 62
     0
100
AcDbPoint
 10
-49.34711479661775
 20
101.2461818855078
 30
0.0
  0
POINT
  5
2BB
330
2AF
100
AcDbEntity
  8
Defpoints
 62
     0
100
AcDbPoint
 10
-49.34711479661775
 20
87.24618188550777
 30
0.0
  0
POINT
  5
2BC
330
2AF
100
AcDbEntity
  8
Defpoints
 62
     0
100
AcDbPoint
 10
-64.84711479661777
 20
87.24618188550771
 30
0.0
  0
ENDBLK
  5
2B1
330
2AF
100
AcDbEntity
  8
0
100
AcDbBlockEnd
  0
BLOCK
  5
2BE
330
2BD
100
AcDbEntity
  8
0
100
AcDbBlockBegin
  2
*D15
 70
     1
 10
0.0
 20
0.0
 30
0.0
  3
*D15
  1
*D16
  0
LINE
  5
2C0
330
2BD
100
AcDbEntity
  8
치수문자_일반주서
 62
     0
370
    -2
100
AcDbLine
 10
33.21538520338227
 20
101.2461818855078
 30
0.0
 11
48.15288520338226
 21
101.2461818855078
 31
0.0
  0
LINE
  5
2C1
330
2BD
100
AcDbEntity
  8
치수문자_일반주서
 62
     0
370
    -2
100
AcDbLine
 10
33.21538520338225
 20
87.24618188550777
 30
0.0
 11
48.15288520338231
 21
87.24618188550782
 31
0.0
  0
LINE
  5
2C2
330
2BD
100
AcDbEntity
  8
치수문자_일반주서
 62
     0
370
    -2
100
AcDbLine
 10
48.15288520338226
 20
101.2461818855078
 30
0.0
 11
48.15288520338231
 21
87.24618188550782
 31
0.0
  0
LINE
  5
2C3
330
2BD
100
AcDbEntity
  8
치수문자_일반주서
 62
     0
370
    -2
100
AcDbLine
 10
48.15288520338225
 20
104.5481818855078
 30
0.0
 11
48.15288520338223
 21
107.8501818855078
 31
0.0
  0
LINE
  5
2C4
330
2BD
100
AcDbEntity
  8
치수문자_일반주서
 62
     0
370
    -2
100
AcDbLine
 10
48.15288520338233
 20
83.94418188550782
 30
0.0
 11
48.15288520338234
 21
80.64218188550781
 31
0.0
  0
SOLID
  5
2C5
330
2BD
100
AcDbEntity
  8
치수문자_일반주서
 62
     0
100
AcDbTrace
 10
47.60255187004891
 20
104.5481818855078
 30
0.0
 11
48.70321853671558
 21
104.5481818855078
 31
0.0
 12
48.15288520338226
 22
101.2461818855078
 32
0.0
 13
48.15288520338226
 23
101.2461818855078
 33
0.0
  0
SOLID
  5
2C6
330
2BD
100
AcDbEntity
  8
치수문자_일반주서
 62
     0
100
AcDbTrace
 10
48.70321853671566
 20
83.94418188550782
 30
0.0
 11
47.60255187004899
 21
83.94418188550782
 31
0.0
 12
48.15288520338231
 22
87.24618188550782
 32
0.0
 13
48.15288520338231
 23
87.24618188550782
 33
0.0
  0
MTEXT
  5
2C7
330
2BD
100
AcDbEntity
  8
치수문자_일반주서
 62
     0
100
AcDbMText
 10
43.77788520338228
 20
94.3118862672208
 30
0.0
 40
3.5
 41
0.0
 71
     2
 72
     1
  1
\A1;%%c14
  7
SLDTEXTSTYLE0
 11
-3.552713678800501E-15
 21
1.0
 31
0.0
 73
     1
 44
1.0
  0
POINT
  5
2C8
330
2BD
100
AcDbEntity
  8
Defpoints
 62
     0
100
AcDbPoint
 10
33.15288520338227
 20
101.2461818855078
 30
0.0
  0
POINT
  5
2C9
330
2BD
100
AcDbEntity
  8
Defpoints
 62
     0
100
AcDbPoint
 10
33.15288520338225
 20
87.24618188550777
 30
0.0
  0
POINT
  5
2CA
330
2BD
100
AcDbEntity
  8
Defpoints
 62
     0
100
AcDbPoint
 10
48.15288520338231
 20
87.24618188550782
 30
0.0
  0
ENDBLK
  5
2BF
330
2BD
100
AcDbEntity
  8
0
100
AcDbBlockEnd
  0
BLOCK
  5
2CC
330
2CB
100
AcDbEntity
  8
0
100
AcDbBlockBegin
  2
*D16
 70
     1
 10
0.0
 20
0.0
 30
0.0
  3
*D16
  1
*D17
  0
LINE
  5
2CE
330
2CB
100
AcDbEntity
  8
치수문자_일반주서
 62
     0
370
    -2
100
AcDbLine
 10
34.6436603850517
 20
84.50704339262899
 30
0.0
 11
50.97001325357754
 21
57.94285949496961
 31
0.0
  0
MTEXT
  5
2CF
330
2CB
100
AcDbEntity
  8
치수문자_일반주서
 62
     0
100
AcDbMText
 10
46.44852360480988
 20
70.3129057931282
 30
0.0
 40
3.5
 41
0.0
 71
     5
 72
     1
  1
\A1;R.50 [R0.02]
  7
SLDTEXTSTYLE0
 11
0.5236126201129557
 21
-0.8519564684057781
 31
0.0
 73
     1
 44
1.0
  0
SOLID
  5
2D0
330
2CB
100
AcDbEntity
  8
치수문자_일반주서
 62
     0
100
AcDbTrace
 10
35.11252042816435
 20
84.79520487123115
 30
0.0
 11
34.17480034193905
 21
84.21888191402682
 31
0.0
 12
32.91469151343873
 22
87.32020365130487
 32
0.0
 13
32.91469151343873
 23
87.32020365130487
 33
0.0
  0
LINE
  5
2D1
330
2CB
100
AcDbEntity
  8
치수문자_일반주서
 62
     0
100
AcDbLine
 10
32.56288520338224
 20
87.74618188550777
 30
0.0
 11
32.74288520338224
 21
87.74618188550777
 31
0.0
  0
LINE
  5
2D2
330
2CB
100
AcDbEntity
  8
치수문자_일반주서
 62
     0
100
AcDbLine
 10
32.65288520338224
 20
87.65618188550776
 30
0.0
 11
32.65288520338224
 21
87.83618188550777
 31
0.0
  0
POINT
  5
2D3
330
2CB
100
AcDbEntity
  8
Defpoints
 62
     0
100
AcDbPoint
 10
32.91469151343873
 20
87.32020365130487
 30
0.0
  0
POINT
  5
2D4
330
2CB
100
AcDbEntity
  8
Defpoints
 62
     0
100
AcDbPoint
 10
32.65288520338224
 20
87.74618188550777
 30
0.0
  0
ENDBLK
  5
2CD
330
2CB
100
AcDbEntity
  8
0
100
AcDbBlockEnd
  0
ENDSEC
  0
SECTION
  2
ENTITIES
  0
LINE
  5
96
330
1F
100
AcDbEntity
  8
0
  6
Continuous
 62
     1
370
    15
100
AcDbLine
 10
23.0717135756876
 20
0.6041737746064173
 30
0.0
 11
23.04008098171519
 21
0.6347250432001186
 31
0.0
  0
LINE
  5
97
330
1F
100
AcDbEntity
  8
0
  6
Continuous
 62
     1
370
    15
100
AcDbLine
 10
21.63223872437053
 20
-0.510714441962225
 30
0.0
 11
21.76194531366839
 21
-0.6352805791785086
 31
0.0
  0
LINE
  5
98
330
1F
100
AcDbEntity
  8
0
  6
Continuous
 62
     1
370
    15
100
AcDbLine
 10
28.66578581199863
 20
-3.175000000000005
 30
0.0
 11
29.05
 21
-3.175000000000005
 31
0.0
  0
LINE
  5
99
330
1F
100
AcDbEntity
  8
0
  6
Continuous
 62
     1
370
    15
100
AcDbLine
 10
19.45973857201733
 20
3.174999999999996
 30
0.0
 11
18.69143307120217
 21
3.174999999999996
 31
0.0
  0
LINE
  5
9A
330
1F
100
AcDbEntity
  8
0
  6
Continuous
 62
     1
370
    15
100
AcDbLine
 10
15.36607707988207
 20
-3.175000000000005
 30
0.0
 11
16.13466743342147
 21
-3.175000000000005
 31
0.0
  0
LINE
  5
9B
330
1F
100
AcDbEntity
  8
0
  6
Continuous
 62
     1
370
    15
100
AcDbLine
 10
26.10926337981464
 20
3.174999999999996
 30
0.0
 11
25.34055224375221
 21
3.174999999999996
 31
0.0
  0
LINE
  5
9C
330
1F
100
AcDbEntity
  8
0
  6
Continuous
 62
     1
370
    15
100
AcDbLine
 10
12.04182005402413
 20
-3.175000000000005
 30
0.0
 11
12.80992271107272
 21
-3.175000000000005
 31
0.0
  0
LINE
  5
9D
330
1F
100
AcDbEntity
  8
0
  6
Continuous
 62
     1
370
    15
100
AcDbLine
 10
22.78482652228677
 20
3.174999999999996
 30
0.0
 11
22.01622490483327
 21
3.174999999999996
 31
0.0
  0
LINE
  5
9E
330
1F
100
AcDbEntity
  8
0
  6
Continuous
 62
     1
370
    15
100
AcDbLine
 10
18.69143307120216
 20
-3.175000000000005
 30
0.0
 11
19.4597385720173
 21
-3.175000000000005
 31
0.0
  0
LINE
  5
9F
330
1F
100
AcDbEntity
  8
0
  6
Continuous
 62
     1
370
    15
100
AcDbLine
 10
29.05
 20
3.174999999999996
 30
0.0
 11
28.66578581199862
 21
3.174999999999996
 31
0.0
  0
LINE
  5
A0
330
1F
100
AcDbEntity
  8
0
  6
Continuous
 62
     1
370
    15
100
AcDbLine
 10
25.34055224375218
 20
-3.175000000000005
 30
0.0
 11
26.10926337981464
 21
-3.175000000000005
 31
0.0
  0
LINE
  5
A1
330
1F
100
AcDbEntity
  8
0
  6
Continuous
 62
     1
370
    15
100
AcDbLine
 10
16.13466743342148
 20
3.174999999999996
 30
0.0
 11
15.36607707988205
 21
3.174999999999996
 31
0.0
  0
LINE
  5
A2
330
1F
100
AcDbEntity
  8
0
  6
Continuous
 62
     1
370
    15
100
AcDbLine
 10
22.01622490483324
 20
-3.175000000000005
 30
0.0
 11
22.78482652228675
 21
-3.175000000000005
 31
0.0
  0
LINE
  5
A3
330
1F
100
AcDbEntity
  8
0
  6
Continuous
 62
     1
370
    15
100
AcDbLine
 10
12.80992271107269
 20
3.174999999999996
 30
0.0
 11
12.0418200540241
 21
3.174999999999996
 31
0.0
  0
LINE
  5
A4
330
1F
100
AcDbEntity
  8
외형선
  6
Continuous
370
    15
100
AcDbLine
 10
-33.815
 20
-3.175000000000004
 30
0.0
 11
9.484347714879053
 21
-3.175000000000004
 31
0.0
  0
LINE
  5
A5
330
1F
100
AcDbEntity
  8
외형선
  6
Continuous
370
    15
100
AcDbLine
 10
9.484347714879025
 20
3.174999999999995
 30
0.0
 11
-33.815
 21
3.174999999999995
 31
0.0
  0
LINE
  5
A6
330
1F
100
AcDbEntity
  8
외형선
  6
Continuous
370
    15
100
AcDbLine
 10
-33.815
 20
3.174999999999995
 30
0.0
 11
-34.45
 21
2.539999999999997
 31
0.0
  0
LINE
  5
A7
330
1F
100
AcDbEntity
  8
외형선
  6
Continuous
370
    15
100
AcDbLine
 10
-34.45
 20
-2.540000000000006
 30
0.0
 11
-33.815
 21
-3.175000000000004
 31
0.0
  0
LINE
  5
A8
330
1F
100
AcDbEntity
  8
0
  6
Continuous
 62
     1
370
    15
100
AcDbLine
 10
29.05
 20
1.892666680852449
 30
0.0
 11
29.05
 21
3.151830599121269
 31
0.0
  0
SPLINE
  5
A9
330
1F
100
AcDbEntity
  8
0
  6
Continuous
 62
     1
370
    15
100
AcDbSpline
210
0.0
220
0.0
230
1.0
 70
     8
 71
     3
 72
    20
 73
    16
 74
     0
 42
0.000000001
 43
0.00000001
 40
0.0
 40
0.0
 40
0.0
 40
0.0
 40
0.067625250343725
 40
0.135508386375073
 40
0.2031407873565418
 40
0.287664731441142
 40
0.3722998726619574
 40
0.4566373482427408
 40
0.5413123259749162
 40
0.625789081269701
 40
0.7101703145070098
 40
0.7948953226542724
 40
0.879269068569774
 40
0.963760014628896
 40
1.0
 40
1.0
 40
1.0
 40
1.0
 10
10.0
 20
1.122872744546776
 30
0.0
 10
10.16680277072986
 20
0.9636327982144949
 30
0.0
 10
10.50104440665145
 20
0.6445456515605091
 30
0.0
 10
11.00408749058819
 20
0.1445129174721512
 30
0.0
 10
11.54660905266774
 20
-0.4010591718910115
 30
0.0
 10
12.13198974332973
 20
-0.9760385558209139
 30
0.0
 10
12.75947046787657
 20
-1.552702088101466
 30
0.0
 10
13.38473368100033
 20
-2.071625381922651
 30
0.0
 10
14.01253731163842
 20
-2.507503702442657
 30
0.0
 10
14.63882538122145
 20
-2.847557513266227
 30
0.0
 10
15.26439516081133
 20
-3.076593110299402
 30
0.0
 10
15.89257174108456
 20
-3.187382359545124
 30
0.0
 10
16.51806133111287
 20
-3.16815944358748
 30
0.0
 10
17.02489765144635
 20
-3.073110987730742
 30
0.0
 10
17.32355547290047
 20
-2.945397529244728
 30
0.0
 10
17.41320404060591
 20
-2.907061588219531
 30
0.0
  0
SPLINE
  5
AA
330
1F
100
AcDbEntity
  8
0
  6
Continuous
 62
     1
370
    15
100
AcDbSpline
210
0.0
220
0.0
230
1.0
 70
     8
 71
     3
 72
    12
 73
     8
 74
     0
 42
0.000000001
 43
0.00000001
 40
0.0
 40
0.0
 40
0.0
 40
0.0
 40
0.1477721502182143
 40
0.3606232273135732
 40
0.5741547369576696
 40
0.7867799539115015
 40
0.9999999999999999
 40
0.9999999999999999
 40
0.9999999999999999
 40
0.9999999999999999
 10
26.10926337981464
 20
3.161912139142439
 30
0.0
 10
26.25405446139296
 20
3.161361986596325
 30
0.0
 10
26.60740268734686
 20
3.160019394055032
 30
0.0
 10
27.16954919609611
 20
3.015914316800413
 30
0.0
 10
27.7976144371578
 20
2.755018604960336
 30
0.0
 10
28.42291153420918
 20
2.386235174507743
 30
0.0
 10
28.84077595095981
 20
2.067220133545959
 30
0.0
 10
29.05000000000002
 20
1.90748980978741
 30
0.0
  0
SPLINE
  5
AB
330
1F
100
AcDbEntity
  8
외형선
  6
Continuous
370
    15
100
AcDbSpline
210
0.0
220
0.0
230
1.0
 70
    24
 71
     3
 72
    13
 73
     9
 74
     0
 42
0.000000001
 43
0.00000001
 40
0.0
 40
0.0
 40
0.0
 40
0.0
 40
0.0096871203544055
 40
0.2245343861141146
 40
0.4393816518737999
 40
0.6542289176334946
 40
0.8690761833931876
 40
1.0
 40
1.0
 40
1.0
 40
1.0
 10
10.00000000000002
 20
2.91954592839672
 30
0.0
 10
10.00000000000001
 20
2.914257857483951
 30
0.0
 10
9.999999999999861
 20
2.79168750502762
 30
0.0
 10
10.00000000000004
 20
2.520522620856371
 30
0.0
 10
9.999999999999972
 20
2.086789963532251
 30
0.0
 10
10.00000000000001
 20
1.669954018588125
 30
0.0
 10
10.00000000000001
 20
1.343046183564032
 30
0.0
 10
10.00000000000003
 20
1.215246503578388
 30
0.0
 10
10.00000000000002
 20
1.166856043189586
 30
0.0
  0
SPLINE
  5
AC
330
1F
100
AcDbEntity
  8
0
  6
Continuous
 62
     1
370
    15
100
AcDbSpline
210
0.0
220
0.0
230
1.0
 70
     8
 71
     3
 72
    10
 73
     6
 74
     0
 42
0.000000001
 43
0.00000001
 40
0.0
 40
0.0
 40
0.0
 40
0.0
 40
0.3772514886420626
 40
0.7534505425780403
 40
1.0
 40
1.0
 40
1.0
 40
1.0
 10
29.05
 20
3.151830599121269
 30
0.0
 10
28.84077707522897
 20
3.164333916395548
 30
0.0
 10
28.42291490388025
 20
3.189305669902048
 30
0.0
 10
27.87015273037072
 20
3.097312019223975
 30
0.0
 10
27.52453425575821
 20
2.961755879248447
 30
0.0
 10
27.38770205811087
 20
2.908088480368112
 30
0.0
  0
SPLINE
  5
AD
330
1F
100
AcDbEntity
  8
0
  6
Continuous
 62
     1
370
    15
100
AcDbSpline
210
0.0
220
0.0
230
1.0
 70
     8
 71
     3
 72
    22
 73
    18
 74
     0
 42
0.000000001
 43
0.00000001
 40
0.0
 40
0.0
 40
0.0
 40
0.0
 40
0.0338305967030412
 40
0.1057642304137808
 40
0.1779766827351013
 40
0.2500418511422971
 40
0.3220070556068344
 40
0.3942718634379735
 40
0.4662434540909964
 40
0.5382965187182078
 40
0.6105186539263412
 40
0.6824529222030172
 40
0.754641079511341
 40
0.8267343930438348
 40
0.8844203415844856
 40
0.9423201504786786
 40
1.0
 40
1.0
 40
1.0
 40
1.0
 10
18.69143307120216
 20
-3.159592332917113
 30
0.0
 10
18.59329210703293
 20
-3.162886172679468
 30
0.0
 10
18.28647506686851
 20
-3.173183668482747
 30
0.0
 10
17.77222746952942
 20
-3.057895391780781
 30
0.0
 10
17.1444699495026
 20
-2.825227390998784
 30
0.0
 10
16.51808481523025
 20
-2.47574920049044
 30
0.0
 10
15.89256542223759
 20
-2.0308978903017
 30
0.0
 10
15.26439684918254
 20
-1.509261724222404
 30
0.0
 10
14.63882492906326
 20
-0.9265808051012245
 30
0.0
 10
14.01253743318391
 20
-0.3086595474154525
 30
0.0
 10
13.38473364854713
 20
0.3194892121154416
 30
0.0
 10
12.75947047659677
 20
0.938516977807345
 30
0.0
 10
12.13198974097589
 20
1.518087605113634
 30
0.0
 10
11.5466090531591
 20
2.005868619525076
 30
0.0
 10
11.00408749046865
 20
2.396246815222636
 30
0.0
 10
10.50104440668012
 20
2.700801071988905
 30
0.0
 10
10.16680277073841
 20
2.846723544506137
 30
0.0
 10
9.999999999998515
 20
2.919545928409663
 30
0.0
  0
SPLINE
  5
AE
330
1F
100
AcDbEntity
  8
0
  6
Continuous
 62
     1
370
    15
100
AcDbSpline
210
0.0
220
0.0
230
1.0
 70
     8
 71
     3
 72
    26
 73
    22
 74
     0
 42
0.000000001
 43
0.00000001
 40
0.0
 40
0.0
 40
0.0
 40
0.0
 40
0.0340893146746567
 40
0.0897537343521869
 40
0.1455319187483549
 40
0.2010947386834901
 40
0.2568632796480302
 40
0.3125391224952888
 40
0.3681211655606652
 40
0.4239388317617185
 40
0.4795372680621384
 40
0.5351820407147718
 40
0.5909754373154973
 40
0.646539886170356
 40
0.7022877539898863
 40
0.7579864590011323
 40
0.813560520666746
 40
0.8693736614664547
 40
0.9249854381618433
 40
0.9806126616405275
 40
1.0
 40
1.0
 40
1.0
 40
1.0
 10
16.13466743342147
 20
3.160374224522315
 30
0.0
 10
16.26242671971762
 20
3.161638111921741
 30
0.0
 10
16.59880406120091
 20
3.164965800230579
 30
0.0
 10
17.14444574608668
 20
3.031676343776977
 30
0.0
 10
17.77220651256816
 20
2.781549325035916
 30
0.0
 10
18.39744750548443
 20
2.416456742156485
 30
0.0
 10
19.02505965183916
 20
1.960822659857924
 30
0.0
 10
19.65158650706297
 20
1.428012663914402
 30
0.0
 10
20.27704602787131
 20
0.8384090157476711
 30
0.0
 10
20.90520483300224
 20
0.2193810512581113
 30
0.0
 10
21.53084735619658
 20
-0.4110667383967758
 30
0.0
 10
22.1570159197572
 20
-1.024807102551579
 30
0.0
 10
22.78490875185168
 20
-1.597048744257676
 30
0.0
 10
23.4101777754699
 20
-2.110149576805266
 30
0.0
 10
24.03754721006811
 20
-2.539044797107428
 30
0.0
 10
24.664341327846
 20
-2.870270876044679
 30
0.0
 10
25.28971251770844
 20
-3.08999299966224
 30
0.0
 10
25.91782341603967
 20
-3.191042847659562
 30
0.0
 10
26.54361207141505
 20
-3.161035310849251
 30
0.0
 10
27.03312355988499
 20
-3.063576004474057
 30
0.0
 10
27.31488219637389
 20
-2.940020986326238
 30
0.0
 10
27.38770205811087
 20
-2.90808848036812
 30
0.0
  0
SPLINE
  5
AF
330
1F
100
AcDbEntity
  8
0
  6
Continuous
 62
     1
370
    15
100
AcDbSpline
210
0.0
220
0.0
230
1.0
 70
     8
 71
     3
 72
    26
 73
    22
 74
     0
 42
0.000000001
 43
0.00000001
 40
0.0
 40
0.0
 40
0.0
 40
0.0
 40
0.0215957922023193
 40
0.0771666979665611
 40
0.1329744688891621
 40
0.1886044045879544
 40
0.2442188927503095
 40
0.3000347548349085
 40
0.3556115261286156
 40
0.4113129468451981
 40
0.4670635327671003
 40
0.5226306907813593
 40
0.5784268077043069
 40
0.6340742934326925
 40
0.6896754405496417
 40
0.7454958282562301
 40
0.8010805813388494
 40
0.8567591387767532
 40
0.9125303988516265
 40
0.9680959278667416
 40
1.0
 40
1.0
 40
1.0
 40
1.0
 10
28.66578581199862
 20
-3.160327327854387
 30
0.0
 10
28.58472393590051
 20
-3.164075304300221
 30
0.0
 10
28.29507133826188
 20
-3.177467680170109
 30
0.0
 10
27.79765092616692
 20
-3.071444961367078
 30
0.0
 10
27.16957123399754
 20
-2.849073848762236
 30
0.0
 10
26.54361868155055
 20
-2.5075264061089
 30
0.0
 10
25.91782163768119
 20
-2.070197809229847
 30
0.0
 10
25.28971299264114
 20
-1.55417497781959
 30
0.0
 10
24.6643412004804
 20
-0.9750984186953544
 30
0.0
 10
24.03754724435585
 20
-0.3597945286455614
 30
0.0
 10
23.41017776597474
 20
0.268783153656578
 30
0.0
 10
22.78490875566671
 20
0.889654624657189
 30
0.0
 10
22.15701591400424
 20
1.472761809494924
 30
0.0
 10
21.53084737532566
 20
2.000611952417107
 30
0.0
 10
20.90520476216183
 20
2.451009614734807
 30
0.0
 10
20.27704629278298
 20
2.804670040489763
 30
0.0
 10
19.65158552251245
 20
3.050755638080101
 30
0.0
 10
19.02506333620057
 20
3.178973464749684
 30
0.0
 10
18.39743375189956
 20
3.178852939874381
 30
0.0
 10
17.86157933227894
 20
3.089318580817159
 30
0.0
 10
17.53303781345596
 20
2.955771995454016
 30
0.0
 10
17.41320404060591
 20
2.907061588219523
 30
0.0
  0
LINE
  5
B0
330
1F
100
AcDbEntity
  8
0
  6
Continuous
 62
     1
370
    15
100
AcDbLine
 10
29.05
 20
-3.151830599121273
 30
0.0
 11
29.05
 21
-1.900011591580278
 31
0.0
  0
SPLINE
  5
B1
330
1F
100
AcDbEntity
  8
0
  6
Continuous
 62
     1
370
    15
100
AcDbSpline
210
0.0
220
0.0
230
1.0
 70
     8
 71
     3
 72
     9
 73
     5
 74
     0
 42
0.000000001
 43
0.00000001
 40
0.0
 40
0.0
 40
0.0
 40
0.0
 40
0.6563597045773235
 40
1.0
 40
1.0
 40
1.0
 40
1.0
 10
10.00000000000001
 20
-3.133368787727872
 30
0.0
 10
10.16680807279015
 20
-3.101656863118095
 30
0.0
 10
10.42094931824879
 20
-3.053342007119737
 30
0.0
 10
10.67581759001725
 20
-2.94805192362709
 30
0.0
 10
10.76340059822164
 20
-2.9118700082306
 30
0.0
  0
SPLINE
  5
B2
330
1F
100
AcDbEntity
  8
0
  6
Continuous
 62
     1
370
    15
100
AcDbSpline
210
0.0
220
0.0
230
1.0
 70
     8
 71
     3
 72
    23
 73
    19
 74
     0
 42
0.000000001
 43
0.00000001
 40
0.0
 40
0.0
 40
0.0
 40
0.0
 40
0.0200197448924921
 40
0.0852391328758587
 40
0.1507349985821744
 40
0.2159736222160792
 40
0.2812666164410253
 40
0.3467340044521595
 40
0.4119327475729278
 40
0.477346712588407
 40
0.542702990478854
 40
0.6079130131712189
 40
0.6734035688189294
 40
0.7386578459327593
 40
0.8039302481405455
 40
0.8694113101662783
 40
0.9346144506432729
 40
1.0
 40
1.0
 40
1.0
 40
1.0
 10
19.45973857201733
 20
3.161875799610227
 30
0.0
 10
19.52374857229493
 20
3.165618301435865
 30
0.0
 10
19.79628735579825
 20
3.181552950559354
 30
0.0
 10
20.27699078147939
 20
3.084150927619788
 30
0.0
 10
20.90521959735115
 20
2.87217649168018
 30
0.0
 10
21.53084340341513
 20
2.538659705079334
 30
0.0
 10
22.15701698225379
 20
2.109030821069288
 30
0.0
 10
22.78490846932238
 20
1.598608442117248
 30
0.0
 10
23.41017784703072
 20
1.023372242892927
 30
0.0
 10
24.03754720696534
 20
0.4108883182274662
 30
0.0
 10
24.66434126879056
 20
-0.2181079739430813
 30
0.0
 10
25.28971275684326
 20
-0.8404739720836802
 30
0.0
 10
25.91782251549701
 20
-1.427064943927484
 30
0.0
 10
26.54361542007731
 20
-1.960614363483137
 30
0.0
 10
27.16958342717832
 20
-2.418191681063313
 30
0.0
 10
27.79760534072718
 20
-2.778290100011645
 30
0.0
 10
28.42291381169688
 20
-3.040941096078403
 30
0.0
 10
28.84077671082898
 20
-3.114833026867368
 30
0.0
 10
29.05000000000003
 20
-3.151830599121273
 30
0.0
  0
SPLINE
  5
B3
330
1F
100
AcDbEntity
  8
외형선
  6
Continuous
370
    15
100
AcDbSpline
210
0.0
220
0.0
230
1.0
 70
    24
 71
     3
 72
    11
 73
     7
 74
     0
 42
0.000000001
 43
0.00000001
 40
0.0
 40
0.0
 40
0.0
 40
0.0
 40
0.1857871874624473
 40
0.5595820191244643
 40
0.9442169262273447
 40
1.0
 40
1.0
 40
1.0
 40
1.0
 10
10.0
 20
-2.584328249048859
 30
0.0
 10
10.00000000000001
 20
-2.616099008962389
 30
0.0
 10
10.00000000000001
 20
-2.711791000559631
 30
0.0
 10
9.999999999999972
 20
-2.8869650282001
 30
0.0
 10
10.00000000000001
 20
-3.040074439861137
 30
0.0
 10
9.999999999999993
 20
-3.122880608710775
 30
0.0
 10
10.00000000000001
 20
-3.133368787727871
 30
0.0
  0
SPLINE
  5
B4
330
1F
100
AcDbEntity
  8
0
  6
Continuous
 62
     1
370
    15
100
AcDbSpline
210
0.0
220
0.0
230
1.0
 70
     8
 71
     3
 72
    21
 73
    17
 74
     0
 42
0.000000001
 43
0.00000001
 40
0.0
 40
0.0
 40
0.0
 40
0.0
 40
0.0754391465511208
 40
0.1506678372699436
 40
0.2262171823940744
 40
0.3015257844375082
 40
0.3768134744960639
 40
0.4523737729691665
 40
0.5276104041038593
 40
0.6030157784460421
 40
0.6784877098107217
 40
0.75371132704153
 40
0.8292448956523307
 40
0.9045772559147502
 40
0.9798468856346285
 40
1.0
 40
1.0
 40
1.0
 40
1.0
 10
29.05
 20
-1.907489809787404
 30
0.0
 10
28.84077671083161
 20
-1.733395880917267
 30
0.0
 10
28.42291381170481
 20
-1.385693700499357
 30
0.0
 10
27.79760534069553
 20
-0.788081263077133
 30
0.0
 10
27.16958342729738
 20
-0.168435809918625
 30
0.0
 10
26.54361541963454
 20
0.4614844071252223
 30
0.0
 10
25.9178225171517
 20
1.07326810864146
 30
0.0
 10
25.28971275065404
 20
1.641076453578846
 30
0.0
 10
24.66434129179796
 20
2.148060777491879
 30
0.0
 10
24.03754712084239
 20
2.569963502875773
 30
0.0
 10
23.41017816829355
 20
2.892256952307401
 30
0.0
 10
22.78490727270489
 20
3.10257462172445
 30
0.0
 10
22.15702146401065
 20
3.193911076005744
 30
0.0
 10
21.53082673488348
 20
3.153025016450864
 30
0.0
 10
21.05854601843365
 20
3.05386157288289
 30
0.0
 10
20.79376411416565
 20
2.934972443626041
 30
0.0
 10
20.73784264544508
 20
2.909863270318553
 30
0.0
  0
SPLINE
  5
B5
330
1F
100
AcDbEntity
  8
0
  6
Continuous
 62
     1
370
    15
100
AcDbSpline
210
0.0
220
0.0
230
1.0
 70
     8
 71
     3
 72
    11
 73
     7
 74
     0
 42
0.000000001
 43
0.00000001
 40
0.0
 40
0.0
 40
0.0
 40
0.0
 40
0.2627063890802787
 40
0.5081762318611707
 40
0.7545561102519313
 40
1.0
 40
1.0
 40
1.0
 40
1.0
 10
12.04182005402413
 20
-3.167408648775026
 30
0.0
 10
11.86284021407171
 20
-3.162033801299598
 30
0.0
 10
11.51662366043341
 20
-3.151636757868512
 30
0.0
 10
11.00409979189894
 20
-3.016794559751979
 30
0.0
 10
10.50104134022812
 20
-2.823787846934568
 30
0.0
 10
10.1668017498854
 20
-2.634712639731693
 30
0.0
 10
9.999999999998508
 20
-2.540354950418688
 30
0.0
  0
SPLINE
  5
B6
330
1F
100
AcDbEntity
  8
0
  6
Continuous
 62
     1
370
    15
100
AcDbSpline
210
0.0
220
0.0
230
1.0
 70
     8
 71
     3
 72
    25
 73
    21
 74
     0
 42
0.000000001
 43
0.00000001
 40
0.0
 40
0.0
 40
0.0
 40
0.0
 40
0.0466892415625317
 40
0.0935565303352955
 40
0.1402507087794103
 40
0.1986070005953422
 40
0.2570400641781426
 40
0.3152676160193719
 40
0.3737281831824539
 40
0.432051895321482
 40
0.4903096579461885
 40
0.5488047666765639
 40
0.6070573599691831
 40
0.665390869573222
 40
0.7238435988753323
 40
0.7820706370640023
 40
0.8405132605352289
 40
0.8988587410460863
 40
0.9571059241075321
 40
1.0
 40
1.0
 40
1.0
 40
1.0
 10
10.00000000000001
 20
3.133368787727861
 30
0.0
 10
10.16680277073887
 20
3.098782499078506
 30
0.0
 10
10.5010444066785
 20
3.029478028606974
 30
0.0
 10
11.00408749047974
 20
2.829742641330002
 30
0.0
 10
11.54660905311549
 20
2.542058080055993
 30
0.0
 10
12.1319897411855
 20
2.147162854777905
 30
0.0
 10
12.75947047582024
 20
1.642594603172982
 30
0.0
 10
13.38473365143713
 20
1.071468918532432
 30
0.0
 10
14.01253742236024
 20
0.4618268500497182
 30
0.0
 10
14.63882496932814
 20
-0.1673784289812126
 30
0.0
 10
15.26439669883248
 20
-0.7910029411936297
 30
0.0
 10
15.89256598493316
 20
-1.381016620249312
 30
0.0
 10
16.5180827239613
 20
-1.920337096560677
 30
0.0
 10
17.14447777405713
 20
-2.383885273181889
 30
0.0
 10
17.77219825030127
 20
-2.754302040545024
 30
0.0
 10
18.39744864994847
 20
-3.018993023673552
 30
0.0
 10
19.02506337436486
 20
-3.166344948820569
 30
0.0
 10
19.65157052003277
 20
-3.187455397044924
 30
0.0
 10
20.22137175033966
 20
-3.106831623123214
 30
0.0
 10
20.58403634649397
 20
-2.968520928750973
 30
0.0
 10
20.73784264544507
 20
-2.909863270318561
 30
0.0
  0
SPLINE
  5
B7
330
1F
100
AcDbEntity
  8
0
  6
Continuous
 62
     1
370
    15
100
AcDbSpline
210
0.0
220
0.0
230
1.0
 70
     8
 71
     3
 72
    26
 73
    22
 74
     0
 42
0.000000001
 43
0.00000001
 40
0.0
 40
0.0
 40
0.0
 40
0.0
 40
0.0431518025894992
 40
0.0987501263795995
 40
0.1545676796266938
 40
0.210149610214924
 40
0.2658253403952213
 40
0.3215937685052138
 40
0.3771564760021035
 40
0.4329345475242098
 40
0.4885988545578931
 40
0.5441859478179959
 40
0.6000044595865883
 40
0.6555964856424437
 40
0.711251443519798
 40
0.7670369942610116
 40
0.8226001919069414
 40
0.8783594975662496
 40
0.9340455443520312
 40
0.9786031083190283
 40
1.0
 40
1.0
 40
1.0
 40
1.0
 10
22.01622490483325
 20
-3.164258845460979
 30
0.0
 10
21.85436651117025
 20
-3.161418864831879
 30
0.0
 10
21.48396398171236
 20
-3.154919751719338
 30
0.0
 10
20.90523384764174
 20
-2.998877019646061
 30
0.0
 10
20.27703823634779
 20
-2.729532469725505
 30
0.0
 10
19.65158874786171
 20
-2.348793861793382
 30
0.0
 10
19.02505847713327
 20
-1.878546489650797
 30
0.0
 10
18.39744995753003
 20
-1.33632805243752
 30
0.0
 10
17.77219789893634
 20
-0.739439456945284
 30
0.0
 10
17.14447786819397
 20
-0.1168897495985997
 30
0.0
 10
16.51808269863172
 20
0.5116549103628055
 30
0.0
 10
15.89256599238158
 20
1.121411092615276
 30
0.0
 10
15.26439669447095
 20
1.684758423303533
 30
0.0
 10
14.63882497930274
 20
2.185420623414394
 30
0.0
 10
14.01253738672681
 20
2.600202282369631
 30
0.0
 10
13.3847337840904
 20
2.913499967681978
 30
0.0
 10
12.75946998237209
 20
3.114528174975837
 30
0.0
 10
12.13199158917288
 20
3.1952451011554
 30
0.0
 10
11.54660274872335
 20
3.150072423286096
 30
0.0
 10
11.09139652105207
 20
3.04777782200867
 30
0.0
 10
10.8437438722203
 20
2.945160905954887
 30
0.0
 10
10.76340059822162
 20
2.911870008230591
 30
0.0
  0
LINE
  5
B8
330
1F
100
AcDbEntity
  8
0
  6
Continuous
 62
     1
370
    15
100
AcDbLine
 10
29.05
 20
-1.244340789333829
 30
0.0
 11
29.05
 21
1.24434078933388
 31
0.0
  0
SPLINE
  5
B9
330
1F
100
AcDbEntity
  8
0
  6
Continuous
 62
     1
370
    15
100
AcDbSpline
210
0.0
220
0.0
230
1.0
 70
     8
 71
     3
 72
    15
 73
    11
 74
     0
 42
0.000000001
 43
0.00000001
 40
0.0
 40
0.0
 40
0.0
 40
0.0
 40
0.1226002050550134
 40
0.245667940182339
 40
0.3682811088810994
 40
0.5215175527265477
 40
0.6749555897880243
 40
0.8278539782963309
 40
0.9813642363763855
 40
0.9999999999999999
 40
0.9999999999999999
 40
0.9999999999999999
 40
0.9999999999999999
 10
10.00000000000001
 20
-2.010496043181067
 30
0.0
 10
10.16680279609017
 20
-2.135151815581892
 30
0.0
 10
10.50104448282908
 20
-2.38493872926452
 30
0.0
 10
11.00408718499284
 20
-2.685204241193293
 30
0.0
 10
11.54661031407261
 20
-2.943222436650372
 30
0.0
 10
12.13198370278568
 20
-3.12269770805712
 30
0.0
 10
12.75949284600614
 20
-3.19716273522724
 30
0.0
 10
13.38465039850972
 20
-3.136149627646141
 30
0.0
 10
13.82897262339004
 20
-3.036555704435019
 30
0.0
 10
14.06355504467682
 20
-2.926816711827171
 30
0.0
 10
14.08894989557194
 20
-2.91493685595659
 30
0.0
  0
SPLINE
  5
BA
330
1F
100
AcDbEntity
  8
0
  6
Continuous
 62
     1
370
    15
100
AcDbSpline
210
0.0
220
0.0
230
1.0
 70
     8
 71
     3
 72
    18
 73
    14
 74
     0
 42
0.000000001
 43
0.00000001
 40
0.0
 40
0.0
 40
0.0
 40
0.0
 40
0.0000700361245394
 40
0.0998673274236254
 40
0.199994050872663
 40
0.3000324747848461
 40
0.3998470313046785
 40
0.5000909891860025
 40
0.5999732843029122
 40
0.6998833228270532
 40
0.8001127491742918
 40
0.8999167713430121
 40
1.0
 40
1.0
 40
1.0
 40
1.0
 10
22.78482652228677
 20
3.174956870812028
 30
0.0
 10
22.78497294258612
 20
3.17497124626978
 30
0.0
 10
22.9937595376942
 20
3.19546978978053
 30
0.0
 10
23.41007008559468
 20
3.123952123646101
 30
0.0
 10
24.03757609526043
 20
2.952521188623292
 30
0.0
 10
24.66433355139618
 20
2.6513871101245
 30
0.0
 10
25.28971483289821
 20
2.250042359749397
 30
0.0
 10
25.91782196045831
 20
1.762658908620257
 30
0.0
 10
26.54361556860015
 20
1.205153735172458
 30
0.0
 10
27.16958338724371
 20
0.6005647873064097
 30
0.0
 10
27.79760535133924
 20
-0.0240267570207929
 30
0.0
 10
28.42291380903991
 20
-0.6545168254387889
 30
0.0
 10
28.84077670994252
 20
-1.047549802608472
 30
0.0
 10
29.05000000000002
 20
-1.244340789333829
 30
0.0
  0
SPLINE
  5
BB
330
1F
100
AcDbEntity
  8
외형선
  6
Continuous
370
    15
100
AcDbSpline
210
0.0
220
0.0
230
1.0
 70
    24
 71
     3
 72
    16
 73
    12
 74
     0
 42
0.000000001
 43
0.00000001
 40
0.0
 40
0.0
 40
0.0
 40
0.0
 40
0.0262514480917489
 40
0.1639068457342875
 40
0.301562243376832
 40
0.4392176410193754
 40
0.5768730386619196
 40
0.7145284363044666
 40
0.8521838339470006
 40
0.9898392315895442
 40
1.0
 40
1.0
 40
1.0
 40
1.0
 10
9.999999999999986
 20
0.3454113538828724
 30
0.0
 10
9.999999999999986
 20
0.3432871368197216
 30
0.0
 10
9.999999999999993
 20
0.3300241077761757
 30
0.0
 10
9.999999999999986
 20
0.1677291730404454
 30
0.0
 10
10.0
 20
-0.1269594236021946
 30
0.0
 10
9.999999999999993
 20
-0.5197393586270393
 30
0.0
 10
10.00000000000004
 20
-0.9505046243260542
 30
0.0
 10
9.999999999999986
 20
-1.375104883522504
 30
0.0
 10
10.0
 20
-1.743832012078926
 30
0.0
 10
9.999999999999986
 20
-1.933391174575575
 30
0.0
 10
9.999999999999993
 20
-2.005536808366959
 30
0.0
 10
10.00000000000001
 20
-2.010496043181079
 30
0.0
  0
SPLINE
  5
BC
330
1F
100
AcDbEntity
  8
0
  6
Continuous
 62
     1
370
    15
100
AcDbSpline
210
0.0
220
0.0
230
1.0
 70
     8
 71
     3
 72
    15
 73
    11
 74
     0
 42
0.000000001
 43
0.00000001
 40
0.0
 40
0.0
 40
0.0
 40
0.0
 40
0.1257411431339446
 40
0.2511315007918841
 40
0.3770563217002402
 40
0.5025798746787168
 40
0.6280685717898623
 40
0.754011649620305
 40
0.8794152422764396
 40
1.0
 40
1.0
 40
1.0
 40
1.0
 10
29.05
 20
1.244340789333881
 30
0.0
 10
28.84077671473542
 20
1.431803685330882
 30
0.0
 10
28.42291382340528
 20
1.806206504019834
 30
0.0
 10
27.79760529396316
 20
2.286793567636813
 30
0.0
 10
27.16958360315749
 20
2.679747490252774
 30
0.0
 10
26.54361476558414
 20
2.969149170021501
 30
0.0
 10
25.91782496137704
 20
3.143801785161065
 30
0.0
 10
25.28970360832551
 20
3.193765346347285
 30
0.0
 10
24.67283407476702
 20
3.129623958082779
 30
0.0
 10
24.26365174781147
 20
2.988144876828934
 30
0.0
 10
24.06306846130813
 20
2.918791101702536
 30
0.0
  0
SPLINE
  5
BD
330
1F
100
AcDbEntity
  8
0
  6
Continuous
 62
     1
370
    15
100
AcDbSpline
210
0.0
220
0.0
230
1.0
 70
     8
 71
     3
 72
    17
 73
    13
 74
     0
 42
0.000000001
 43
0.00000001
 40
0.0
 40
0.0
 40
0.0
 40
0.0
 40
0.0189913844515421
 40
0.135553165626309
 40
0.2522468981927937
 40
0.3692144494685455
 40
0.4857157850893767
 40
0.6026283073670691
 40
0.7193872251552151
 40
0.8128126566295687
 40
0.9065844462086321
 40
1.0
 40
1.0
 40
1.0
 40
1.0
 10
15.36607707988207
 20
-3.166590549411633
 30
0.0
 10
15.33205330299637
 20
-3.169266466124322
 30
0.0
 10
15.08920472736009
 20
-3.188366125882296
 30
0.0
 10
14.63886528813087
 20
-3.104813606625259
 30
0.0
 10
14.01252658418685
 20
-2.910811746159997
 30
0.0
 10
13.38473654527671
 20
-2.59342381014023
 30
0.0
 10
12.75946969824122
 20
-2.176415433597468
 30
0.0
 10
12.13198995107795
 20
-1.67612498101392
 30
0.0
 10
11.54660900928494
 20
-1.14760646978915
 30
0.0
 10
11.00408750109785
 20
-0.6220103764796384
 30
0.0
 10
10.50104440403054
 20
-0.1226221758239755
 30
0.0
 10
10.16680276985633
 20
0.2121322835243167
 30
0.0
 10
9.999999999998508
 20
0.3791909779909981
 30
0.0
  0
SPLINE
  5
BE
330
1F
100
AcDbEntity
  8
0
  6
Continuous
 62
     1
370
    15
100
AcDbSpline
210
0.0
220
0.0
230
1.0
 70
     8
 71
     3
 72
    26
 73
    22
 74
     0
 42
0.000000001
 43
0.00000001
 40
0.0
 40
0.0
 40
0.0
 40
0.0
 40
0.0511023074778832
 40
0.1068879936787036
 40
0.1625430866985585
 40
0.2181352477441002
 40
0.2739538950523375
 40
0.3295411232901476
 40
0.3852055654890334
 40
0.4409837724525855
 40
0.49654661486797
 40
0.5523151783959923
 40
0.6079910437692283
 40
0.6635731093226315
 40
0.7193907981070429
 40
0.7749892569021221
 40
0.8306340520681621
 40
0.8864274712424263
 40
0.9419919425781932
 40
0.9977398329528417
 40
1.0
 40
1.0
 40
1.0
 40
1.0
 10
12.80992271107269
 20
3.170455579515772
 30
0.0
 10
13.00130176603159
 20
3.16220108256393
 30
0.0
 10
13.40159921298221
 20
3.144935587881694
 30
0.0
 10
14.0125109252598
 20
2.967554508432205
 30
0.0
 10
14.63883205274771
 20
2.680578854544123
 30
0.0
 10
15.26439479139684
 20
2.285762554096876
 30
0.0
 10
15.89256650007783
 20
1.805271181905556
 30
0.0
 10
16.5180825653225
 20
1.252009425249976
 30
0.0
 10
17.14447789395094
 20
0.6510872701171184
 30
0.0
 10
17.77219792967612
 20
0.0264111173364485
 30
0.0
 10
18.39744980938224
 20
-0.6024749383549283
 30
0.0
 10
19.02505904111633
 20
-1.204926776310492
 30
0.0
 10
19.65158664624805
 20
-1.761878912642418
 30
0.0
 10
20.27704608001257
 20
-2.251386067889354
 30
0.0
 10
20.90520448341632
 20
-2.651248814389462
 30
0.0
 10
21.53084869637761
 20
-2.950282574622155
 30
0.0
 10
22.15701089620239
 20
-3.133157005790392
 30
0.0
 10
22.78492752575346
 20
-3.19782549247458
 30
0.0
 10
23.41010793853714
 20
-3.125555905210649
 30
0.0
 10
23.8369632308081
 20
-3.02639493534954
 30
0.0
 10
24.05458910762431
 20
-2.922826439413251
 30
0.0
 10
24.06306846130811
 20
-2.918791101702547
 30
0.0
  0
SPLINE
  5
BF
330
1F
100
AcDbEntity
  8
0
  6
Continuous
 62
     1
370
    15
100
AcDbSpline
210
0.0
220
0.0
230
1.0
 70
     8
 71
     3
 72
    26
 73
    22
 74
     0
 42
0.000000001
 43
0.00000001
 40
0.0
 40
0.0
 40
0.0
 40
0.0
 40
0.0045470872384341
 40
0.0601267829637576
 40
0.1158311346709687
 40
0.1715846541705564
 40
0.2271547361105842
 40
0.2829537890070439
 40
0.3386042028880166
 40
0.39420827571923
 40
0.4500316006764512
 40
0.5056192786106861
 40
0.5613007658361603
 40
0.6170749605765863
 40
0.6726434134317528
 40
0.7284272525814517
 40
0.7840973154791226
 40
0.8396901566190665
 40
0.8955144401969
 40
0.951112214642663
 40
1.0
 40
1.0
 40
1.0
 40
1.0
 10
25.34055224375219
 20
-3.170374312132337
 30
0.0
 10
25.32347528087372
 20
-3.171893007396942
 30
0.0
 10
25.09766416557451
 20
-3.191974931445181
 30
0.0
 10
24.66441480425031
 20
-3.114880946897054
 30
0.0
 10
24.03752748212703
 20
-2.932006862493791
 30
0.0
 10
23.41018304353015
 20
-2.622775628359427
 30
0.0
 10
22.78490733543592
 20
-2.213471208243491
 30
0.0
 10
22.15701629962769
 20
-1.719639169693344
 30
0.0
 10
21.53084725164488
 20
-1.157882148211085
 30
0.0
 10
20.90520487228896
 20
-0.5502834656936659
 30
0.0
 10
20.27704597560632
 20
0.0757241586533446
 30
0.0
 10
19.65158667619828
 20
0.7020229138263914
 30
0.0
 10
19.02505902568188
 20
1.299593290410305
 30
0.0
 10
18.39744984108971
 20
1.845799164779324
 30
0.0
 10
17.77219781853566
 20
2.322722672992309
 30
0.0
 10
17.14447830834832
 20
2.707227401429307
 30
0.0
 10
16.51808102386736
 20
2.987580549455381
 30
0.0
 10
15.8925722542976
 20
3.152710458522043
 30
0.0
 10
15.2643732527606
 20
3.192231150550059
 30
0.0
 10
14.66426601922294
 20
3.121705698312684
 30
0.0
 10
14.27233202847282
 20
2.980844467041913
 30
0.0
 10
14.08894989557193
 20
2.914936855956584
 30
0.0
  0
LINE
  5
C0
330
1F
100
AcDbEntity
  8
0
  6
Continuous
 62
     1
370
    15
100
AcDbLine
 10
29.05
 20
-3.175000000000006
 30
0.0
 11
29.05
 21
-3.151830599121273
 31
0.0
  0
LINE
  5
C1
330
1F
100
AcDbEntity
  8
외형선
  6
Continuous
370
    15
100
AcDbLine
 10
10.00000000000002
 20
0.3791909779907213
 30
0.0
 11
10.00000000000001
 21
1.122872744546765
 31
0.0
  0
LINE
  5
C2
330
1F
100
AcDbEntity
  8
0
  6
Continuous
 62
     1
370
    15
100
AcDbLine
 10
29.05
 20
1.24434078933388
 30
0.0
 11
29.05
 21
1.90748980978741
 31
0.0
  0
LINE
  5
C3
330
1F
100
AcDbEntity
  8
0
  6
Continuous
 62
     1
370
    15
100
AcDbLine
 10
29.05
 20
-1.907489809787404
 30
0.0
 11
29.05
 21
-1.244340789333829
 31
0.0
  0
LINE
  5
C4
330
1F
100
AcDbEntity
  8
외형선
  6
Continuous
370
    15
100
AcDbLine
 10
10.00000000000002
 20
-2.540354950406022
 30
0.0
 11
10.00000000000001
 21
-2.010496043181079
 31
0.0
  0
LINE
  5
C5
330
1F
100
AcDbEntity
  8
0
  6
Continuous
 62
     1
370
    15
100
AcDbLine
 10
29.05
 20
3.151830599121269
 30
0.0
 11
29.05
 21
3.174999999999997
 31
0.0
  0
LINE
  5
C6
330
1F
100
AcDbEntity
  8
외형선
  6
Continuous
370
    15
100
AcDbLine
 10
10.00000000000002
 20
2.91954592839672
 30
0.0
 11
10.00000000000001
 21
3.133368787727858
 31
0.0
  0
SPLINE
  5
C7
330
1F
100
AcDbEntity
  8
외형선
  6
Continuous
370
    15
100
AcDbSpline
210
0.0
220
0.0
230
1.0
 70
     8
 71
     3
 72
    10
 73
     6
 74
     0
 42
0.000000001
 43
0.00000001
 40
0.0
 40
0.0
 40
0.0
 40
0.0
 40
0.5
 40
0.5
 40
1.0
 40
1.0
 40
1.0
 40
1.0
 10
10.0
 20
-2.010496043181073
 30
0.0
 10
9.834328071562481
 20
-1.881779133872887
 30
0.0
 10
9.666174884716327
 20
-1.744096758231511
 30
0.0
 10
9.33111153582545
 20
-1.455727630821366
 30
0.0
 10
9.16595311854853
 20
-1.305607211875157
 30
0.0
 10
9.000258550361668
 20
-1.150596672690433
 30
0.0
  0
SPLINE
  5
C8
330
1F
100
AcDbEntity
  8
외형선
  6
Continuous
370
    15
100
AcDbSpline
210
0.0
220
0.0
230
1.0
 70
     8
 71
     3
 72
    10
 73
     6
 74
     0
 42
0.000000001
 43
0.00000001
 40
0.0
 40
0.0
 40
0.0
 40
0.0
 40
0.5
 40
0.5
 40
1.0
 40
1.0
 40
1.0
 40
1.0
 10
9.999999999999993
 20
-2.540354950419586
 30
0.0
 10
9.834328071562481
 20
-2.440594817919412
 30
0.0
 10
9.666174884716305
 20
-2.329818832741246
 30
0.0
 10
9.331111535825436
 20
-2.090114228569516
 30
0.0
 10
9.165953118548508
 20
-1.961685528083065
 30
0.0
 10
9.00025855036166
 20
-1.82561328477796
 30
0.0
  0
LINE
  5
C9
330
1F
100
AcDbEntity
  8
외형선
  6
Continuous
370
    15
100
AcDbLine
 10
9.000258550361668
 20
-3.13802678205834
 30
0.0
 11
9.000258550361668
 21
-1.82560206448855
 31
0.0
  0
SPLINE
  5
CA
330
1F
100
AcDbEntity
  8
외형선
  6
Continuous
370
    15
100
AcDbSpline
210
0.0
220
0.0
230
1.0
 70
     8
 71
     3
 72
    10
 73
     6
 74
     0
 42
0.000000001
 43
0.00000001
 40
0.0
 40
0.0
 40
0.0
 40
0.0
 40
0.5
 40
0.5
 40
1.0
 40
1.0
 40
1.0
 40
1.0
 10
10.0
 20
-3.13336878772787
 30
0.0
 10
9.834328071562481
 20
-3.160212219136491
 30
0.0
 10
9.666174884716327
 20
-3.174213049761025
 30
0.0
 10
9.33111153582545
 20
-3.175722082543383
 30
0.0
 10
9.16595311854853
 20
-3.163332794593345
 30
0.0
 10
9.000258550361668
 20
-3.138024272257073
 30
0.0
  0
SPLINE
  5
CB
330
1F
100
AcDbEntity
  8
외형선
  6
Continuous
370
    15
100
AcDbSpline
210
0.0
220
0.0
230
1.0
 70
     8
 71
     3
 72
     9
 73
     5
 74
     0
 42
0.000000001
 43
0.00000001
 40
0.0
 40
0.0
 40
0.0
 40
0.0
 40
0.0277766210032431
 40
1.0
 40
1.0
 40
1.0
 40
1.0
 10
9.484347714879032
 20
3.173907897325844
 30
0.0
 10
9.48911274866908
 20
3.174271527956949
 30
0.0
 10
9.66066110905054
 20
3.187362775847148
 30
0.0
 10
9.832720164106508
 20
3.159985558492207
 30
0.0
 10
10.0
 20
3.133368787727858
 30
0.0
  0
SPLINE
  5
CC
330
1F
100
AcDbEntity
  8
외형선
  6
Continuous
370
    15
100
AcDbSpline
210
0.0
220
0.0
230
1.0
 70
     8
 71
     3
 72
    10
 73
     6
 74
     0
 42
0.000000001
 43
0.00000001
 40
0.0
 40
0.0
 40
0.0
 40
0.0
 40
0.5
 40
0.5
 40
1.0
 40
1.0
 40
1.0
 40
1.0
 10
9.999999999999993
 20
2.919545928409072
 30
0.0
 10
9.834328071562481
 20
2.984903673013085
 30
0.0
 10
9.666174884716305
 20
3.038495670663602
 30
0.0
 10
9.331111535825436
 20
3.119890645190521
 30
0.0
 10
9.165953118548508
 20
3.147650754508142
 30
0.0
 10
9.00025855036166
 20
3.162433467182736
 30
0.0
  0
LINE
  5
CD
330
1F
100
AcDbEntity
  8
외형선
  6
Continuous
370
    15
100
AcDbLine
 10
9.000258550361668
 20
1.987414737003852
 30
0.0
 11
9.000258550361668
 21
3.162434686109127
 31
0.0
  0
SPLINE
  5
CE
330
1F
100
AcDbEntity
  8
외형선
  6
Continuous
370
    15
100
AcDbSpline
210
0.0
220
0.0
230
1.0
 70
     8
 71
     3
 72
    10
 73
     6
 74
     0
 42
0.000000001
 43
0.00000001
 40
0.0
 40
0.0
 40
0.0
 40
0.0
 40
0.5
 40
0.5
 40
1.0
 40
1.0
 40
1.0
 40
1.0
 10
10.0
 20
1.12287274454676
 30
0.0
 10
9.834328071562481
 20
1.278433085263567
 30
0.0
 10
9.666174884716327
 20
1.430116291529477
 30
0.0
 10
9.33111153582545
 20
1.71999445172198
 30
0.0
 10
9.16595311854853
 20
1.857725582718153
 30
0.0
 10
9.000258550361668
 20
1.987427599566606
 30
0.0
  0
SPLINE
  5
CF
330
1F
100
AcDbEntity
  8
외형선
  6
Continuous
370
    15
100
AcDbSpline
210
0.0
220
0.0
230
1.0
 70
     8
 71
     3
 72
    10
 73
     6
 74
     0
 42
0.000000001
 43
0.00000001
 40
0.0
 40
0.0
 40
0.0
 40
0.0
 40
0.5
 40
0.5
 40
1.0
 40
1.0
 40
1.0
 40
1.0
 10
9.999999999999993
 20
0.3791909779895103
 30
0.0
 10
9.834328071562481
 20
0.5443088550936965
 30
0.0
 10
9.666174884716305
 20
0.7086768379223772
 30
0.0
 10
9.331111535825436
 20
1.029776416621022
 30
0.0
 10
9.165953118548508
 20
1.185965226425093
 30
0.0
 10
9.00025855036166
 20
1.33682018240479
 30
0.0
  0
LINE
  5
D0
330
1F
100
AcDbEntity
  8
외형선
  6
Continuous
370
    15
100
AcDbLine
 10
-33.815
 20
-0.0000000000000043
 30
0.0
 11
-33.815
 21
3.174999999999995
 31
0.0
  0
LINE
  5
D1
330
1F
100
AcDbEntity
  8
외형선
  6
Continuous
370
    15
100
AcDbLine
 10
-33.815
 20
-3.175000000000004
 30
0.0
 11
-33.815
 21
-0.0000000000000043
 31
0.0
  0
LINE
  5
D2
330
1F
100
AcDbEntity
  8
외형선
  6
Continuous
370
    15
100
AcDbLine
 10
9.000258550361668
 20
-1.150612045054455
 30
0.0
 11
9.000258550361668
 21
1.336832621620591
 31
0.0
  0
LINE
  5
D3
330
1F
100
AcDbEntity
  8
외형선
  6
Continuous
370
    15
100
AcDbLine
 10
-34.45
 20
-0.0000000000000043
 30
0.0
 11
-34.45
 21
2.539999999999997
 31
0.0
  0
LINE
  5
D4
330
1F
100
AcDbEntity
  8
외형선
  6
Continuous
370
    15
100
AcDbLine
 10
-34.45
 20
-2.540000000000006
 30
0.0
 11
-34.45
 21
-0.0000000000000043
 31
0.0
  0
SPLINE
  5
D5
330
1F
100
AcDbEntity
  8
외형선
  6
Continuous
370
    15
100
AcDbSpline
210
0.0
220
0.0
230
1.0
 70
    24
 71
     3
 72
    24
 73
    20
 74
     0
 42
0.000000001
 43
0.00000001
 40
0.0
 40
0.0
 40
0.0
 40
0.0
 40
0.125
 40
0.125
 40
0.2499999999999999
 40
0.2499999999999999
 40
0.3749999999999999
 40
0.3749999999999999
 40
0.4999999999999999
 40
0.4999999999999999
 40
0.6249999999999998
 40
0.6249999999999998
 40
0.7499999999999997
 40
0.7499999999999997
 40
0.8749999999999996
 40
0.8749999999999996
 40
0.9374999999999998
 40
0.9374999999999998
 40
1.0
 40
1.0
 40
1.0
 40
1.0
 10
10.0
 20
-2.010496043181035
 30
0.0
 10
10.00000000000002
 20
-1.949707159589466
 30
0.0
 10
10.0
 20
-1.866248611795874
 30
0.0
 10
10.0
 20
-1.653159633303681
 30
0.0
 10
9.999999999999993
 20
-1.523420245271543
 30
0.0
 10
9.999999999999979
 20
-1.235865789925439
 30
0.0
 10
9.999999999999986
 20
-1.07857017142671
 30
0.0
 10
9.999999999999993
 20
-0.768213359947535
 30
0.0
 10
10.0
 20
-0.6157764557370276
 30
0.0
 10
10.0
 20
-0.3417243386874184
 30
0.0
 10
10.00000000000001
 20
-0.2201871391611352
 30
0.0
 10
10.00000000000002
 20
-0.0165111038355754
 30
0.0
 10
10.0
 20
0.065910036043258
 30
0.0
 10
10.0
 20
0.1964380642149897
 30
0.0
 10
10.0
 20
0.2447885833985086
 30
0.0
 10
9.999999999999986
 20
0.2987480431451356
 30
0.0
 10
9.999999999999986
 20
0.3136514742970061
 30
0.0
 10
10.0
 20
0.3384085724639998
 30
0.0
 10
9.999999999999993
 20
0.3480583378371351
 30
0.0
 10
9.999999999999993
 20
0.3563864913903182
 30
0.0
  0
SPLINE
  5
D6
330
1F
100
AcDbEntity
  8
외형선
  6
Continuous
370
    15
100
AcDbSpline
210
0.0
220
0.0
230
1.0
 70
    24
 71
     3
 72
    12
 73
     8
 74
     0
 42
0.000000001
 43
0.00000001
 40
0.0
 40
0.0
 40
0.0
 40
0.0
 40
0.1686435939771913
 40
0.3842564917408628
 40
0.5998693895045114
 40
0.8154822872681794
 40
1.0
 40
1.0
 40
1.0
 40
1.0
 10
10.0
 20
1.166846043189602
 30
0.0
 10
10.0
 20
1.234151078741002
 30
0.0
 10
9.999999999999979
 20
1.387506425526204
 30
0.0
 10
10.00000000000001
 20
1.746130399927137
 30
0.0
 10
10.00000000000008
 20
2.168915156510366
 30
0.0
 10
10.0
 20
2.583096234638109
 30
0.0
 10
10.0
 20
2.813360850156691
 30
0.0
 10
9.999999999999986
 20
2.919545928388888
 30
0.0
  0
SPLINE
  5
D7
330
1F
100
AcDbEntity
  8
외형선
  6
Continuous
370
    15
100
AcDbSpline
210
0.0
220
0.0
230
1.0
 70
    24
 71
     3
 72
    12
 73
     8
 74
     0
 42
0.000000001
 43
0.00000001
 40
0.0
 40
0.0
 40
0.0
 40
0.0
 40
0.2006340237158655
 40
0.3875117068193082
 40
0.7676163435247457
 40
0.9612979437226677
 40
1.0
 40
1.0
 40
1.0
 40
1.0
 10
10.00000000000001
 20
-3.133368787727868
 30
0.0
 10
9.999999999999993
 20
-3.095706536851558
 30
0.0
 10
9.99999999999995
 20
-3.022964322697471
 30
0.0
 10
10.00000000000003
 20
-2.879321156031275
 30
0.0
 10
9.999999999999925
 20
-2.739640428229811
 30
0.0
 10
10.00000000000001
 20
-2.630469477594141
 30
0.0
 10
10.0
 20
-2.590915687411922
 30
0.0
 10
10.0
 20
-2.584328249048859
 30
0.0
  0
LINE
  5
D8
330
1F
100
AcDbEntity
  8
중심선
 62
     1
100
AcDbLine
 10
-37.45
 20
-0.0000000000000039
 30
0.0
 11
32.05
 21
0.0000000000000046
 31
0.0
  0
LINE
  5
D9
330
1F
100
AcDbEntity
  8
참조1
100
AcDbLine
 10
6.349999999999994
 20
-0.0000000000000039
 30
0.0
 11
6.350000000000001
 21
-40.00000000000001
 31
0.0
  0
LINE
  5
DA
330
1F
100
AcDbEntity
  8
참조1
100
AcDbLine
 10
6.350000000000001
 20
-40.00000000000001
 30
0.0
 11
-15.15885681430868
 21
-40.0
 31
0.0
  0
CIRCLE
  5
DB
330
1F
100
AcDbEntity
  8
해칭선
100
AcDbCircle
 10
0.0
 20
0.0
 30
0.0
 40
3.000000000000001
  0
INSERT
  5
DC
330
1F
100
AcDbEntity
  8
0
  6
Continuous
 62
     7
100
AcDbBlockReference
 66
     1
  2
블럭10
 10
-18.62407460603496
 20
-28.92873269916635
 30
0.0
  0
ATTRIB
  5
DD
330
DC
100
AcDbEntity
  8
FORMAT
 62
     2
100
AcDbText
 10
-27.80536989477624
 20
-26.85336578633415
 30
0.0
 40
4.233333333333333
  1
E5058016 [ 6 FLUTE ]
 41
0.75
  7
SLDTEXTSTYLE0
 11
-27.80536989477624
 21
-28.97003245300082
 31
0.0
100
AcDbAttribute
  2
AUTOATTR0
 70
     0
 74
     1
  0
SEQEND
  5
DE
330
DC
100
AcDbEntity
  8
0
  6
Continuous
 62
     7
  0
HATCH
  5
DF
330
1F
100
AcDbEntity
  8
중심선
100
AcDbHatch
 10
0.0
 20
0.0
 30
0.0
210
0.0
220
0.0
230
1.0
  2
SOLID
 70
     1
 71
     0
 91
        1
 92
        0
 93
        4
 72
     1
 10
-12.90916530165413
 20
-12.68155839752241
 11
-16.35544054549141
 21
-12.68155839752241
 72
     1
 10
-16.35544054549141
 20
-12.68155839752241
 11
-18.48367040469543
 21
-15.217883978095
 72
     1
 10
-18.48367040469543
 20
-15.217883978095
 11
-15.037362075745
 21
-15.21784454879251
 72
     1
 10
-15.037362075745
 20
-15.21784454879251
 11
-12.90916530165412
 21
-12.68155839752241
 97
        0
 75
     0
 76
     1
 98
        1
 10
-11.03380167390975
 20
23.11844160247759
  0
HATCH
  5
E0
330
1F
100
AcDbEntity
  8
중심선
100
AcDbHatch
 10
0.0
 20
0.0
 30
0.0
210
0.0
220
0.0
230
1.0
  2
SOLID
 70
     1
 71
     0
 91
        1
 92
        0
 93
        4
 72
     1
 10
-7.896401310618146
 20
-12.68155839752241
 11
-11.34267655445543
 21
-12.68155839752241
 72
     1
 10
-11.34267655445543
 20
-12.68155839752241
 11
-15.87381456281284
 21
-18.08155839752243
 72
     1
 10
-15.87381456281284
 20
-18.08155839752243
 11
-12.42753931897556
 21
-18.08155839752243
 72
     1
 10
-12.42753931897556
 20
-18.08155839752243
 11
-7.896401310618146
 21
-12.68155839752241
 97
        0
 75
     0
 76
     1
 98
        1
 10
-11.03380167390975
 20
23.11844160247759
  0
HATCH
  5
E1
330
1F
100
AcDbEntity
  8
중심선
100
AcDbHatch
 10
0.0
 20
0.0
 30
0.0
210
0.0
220
0.0
230
1.0
  2
SOLID
 70
     1
 71
     0
 91
        1
 92
        0
 93
        4
 72
     1
 10
-2.883637319582277
 20
-12.68155839752241
 11
-6.329912563419394
 21
-12.68155839752241
 72
     1
 10
-6.329912563419394
 20
-12.68155839752241
 11
-13.37834946530864
 21
-21.08155839752243
 72
     1
 10
-13.37834946530864
 20
-21.08155839752243
 11
-9.93207422147136
 21
-21.08155839752243
 72
     1
 10
-9.93207422147136
 20
-21.08155839752243
 11
-2.883637319582277
 21
-12.68155839752241
 97
        0
 75
     0
 76
     1
 98
        1
 10
-11.03380167390975
 20
23.11844160247759
  0
HATCH
  5
E2
330
1F
100
AcDbEntity
  8
중심선
100
AcDbHatch
 10
0.0
 20
0.0
 30
0.0
210
0.0
220
0.0
230
1.0
  2
SOLID
 70
     1
 71
     0
 91
        1
 92
        0
 93
        6
 72
     3
 10
1.916253111429921
 20
-16.88155839757368
 11
3.960054785062283
 21
1.540882976769353E-10
 40
0.3939339440162628
 50
17.09539180608436
 51
320.0019657685081
 73
     0
 72
     1
 10
3.599252767130517
 20
-15.46945240216071
 11
5.904554640831581
 21
-13.53512569211276
 72
     3
 10
1.916253111377074
 20
-16.88155839752256
 11
6.600054785286829
 21
-1.278976924368180E-13
 40
0.636358354079598
 50
39.99873849337413
 51
368.4976242363724
 73
     1
 72
     1
 10
8.341585603277682
 20
-15.92155839745243
 11
0.5963204182129971
 21
-15.92155839745243
 72
     1
 10
0.5963204182129971
 20
-15.92155839745243
 11
0.5962953737670631
 21
-17.84155839745232
 72
     1
 10
0.5962953737670631
 20
-17.84155839745232
 11
5.037675143239099
 21
-17.8415583974523
 97
        0
 75
     0
 76
     1
 98
        1
 10
-11.03380167390975
 20
23.11844160247759
  0
DIMENSION
  5
E3
330
1F
100
AcDbEntity
  8
치수문자_일반주서
100
AcDbDimension
  2
_D
 10
39.60957430822599
 20
-3.174999999999965
 30
0.0
 11
39.60957430822591
 21
23.12275000000003
 31
0.0
 70
   160
  1
%%c<>
 71
     2
 42
6.350000000000001
 52
-270.0
  3
SLDDIMSTYLE0
100
AcDbAlignedDimension
 13
29.05
 23
3.174999999999996
 33
0.0
 14
29.05
 24
-3.175000000000005
 34
0.0
 50
90.0000000000002
100
AcDbRotatedDimension
1001
ACAD
1000
DSTYLE
1002
{
1070
   171
1070
     6
1070
   273
1070
     5
1002
}
  0
DIMENSION
  5
F8
330
1F
100
AcDbEntity
  8
치수문자_일반주서
100
AcDbDimension
  2
_D_1
 10
10.00000000000001
 20
25.27391262060421
 30
0.0
 11
19.52500000000001
 21
25.27391262060421
 31
0.0
 70
   160
  1
<>
 71
     2
 42
19.05
  3
SLDDIMSTYLE0
100
AcDbAlignedDimension
 13
29.05
 23
3.151830599121269
 33
0.0
 14
10.00000000000001
 24
3.133368787727855
 34
0.0
 50
0.0000000000000107
100
AcDbRotatedDimension
1001
ACAD
1000
DSTYLE
1002
{
1070
   171
1070
     6
1070
   273
1070
     5
1002
}
  0
DIMENSION
  5
10D
330
1F
100
AcDbEntity
  8
치수문자_일반주서
100
AcDbDimension
  2
_D_2
 10
-34.45
 20
43.27391262060423
 30
0.0
 11
-2.699999999999996
 21
43.27391262060423
 31
0.0
 70
   160
  1
<>
 71
     2
 42
63.5
  3
SLDDIMSTYLE0
100
AcDbAlignedDimension
 13
29.05
 23
3.151830599121269
 33
0.0
 14
-34.45
 24
2.539999999999997
 34
0.0
100
AcDbRotatedDimension
1001
ACAD
1000
DSTYLE
1002
{
1070
   171
1070
     6
1070
   273
1070
     5
1002
}
  0
DIMENSION
  5
121
330
1F
100
AcDbEntity
  8
치수문자_일반주서
100
AcDbDimension
  2
_D_3
 10
-42.07213571539748
 20
-3.175000000000047
 30
0.0
 11
-42.07213571539756
 21
23.12274999999998
 31
0.0
 70
   160
  1
%%c<>
 71
     2
 42
6.350000000000023
 52
-270.0
  3
SLDDIMSTYLE0
100
AcDbAlignedDimension
 13
-33.815
 23
3.175000000000007
 33
0.0
 14
-33.815
 24
-3.175000000000015
 34
0.0
 50
90.0000000000002
100
AcDbRotatedDimension
1001
ACAD
1000
DSTYLE
1002
{
1070
   171
1070
     6
1070
   273
1070
     5
1002
}
  0
LINE
  5
135
330
1F
100
AcDbEntity
  8
참조1
100
AcDbLine
 10
82.81348381534559
 20
7.440000000000002
 30
0.0
 11
82.81348381534559
 21
-7.440000000000002
 31
0.0
  0
LINE
  5
136
330
1F
100
AcDbEntity
  8
참조1
100
AcDbLine
 10
95.5134838153456
 20
5.440000000000002
 30
0.0
 11
82.81348381534559
 21
5.440000000000002
 31
0.0
  0
SOLID
  5
137
330
1F
100
AcDbEntity
  8
참조1
100
AcDbTrace
 10
82.81348381534559
 20
5.440000000000002
 30
0.0
 11
89.16348381534559
 21
4.424000000000002
 31
0.0
 12
89.16348381534559
 22
6.456000000000002
 32
0.0
 13
89.16348381534559
 23
6.456000000000002
 33
0.0
  0
LINE
  5
138
330
1F
100
AcDbEntity
  8
참조1
100
AcDbLine
 10
95.5134838153456
 20
-5.440000000000002
 30
0.0
 11
82.81348381534559
 21
-5.440000000000002
 31
0.0
  0
SOLID
  5
139
330
1F
100
AcDbEntity
  8
참조1
100
AcDbTrace
 10
82.81348381534559
 20
-5.440000000000002
 30
0.0
 11
89.16348381534559
 21
-6.456000000000002
 31
0.0
 12
89.16348381534559
 22
-4.424000000000002
 32
0.0
 13
89.16348381534559
 23
-4.424000000000002
 33
0.0
  0
MTEXT
  5
13A
330
1F
100
AcDbEntity
  8
참조1
100
AcDbMText
 10
92.41359862590816
 20
11.06571756601608
 30
0.0
 40
3.5
 41
0.0
 71
     1
 72
     1
  1
A
  7
SLDTEXTSTYLE0
 73
     1
 44
1.0
  0
MTEXT
  5
13B
330
1F
100
AcDbEntity
  8
참조1
100
AcDbMText
 10
92.41359862590816
 20
0.1857175660160727
 30
0.0
 40
3.5
 41
0.0
 71
     1
 72
     1
  1
A
  7
SLDTEXTSTYLE0
 73
     1
 44
1.0
  0
INSERT
  5
142
330
1F
100
AcDbEntity
  8
해칭선
100
AcDbBlockReference
  2
SW_DOWELSYMBOL_0
 10
0.0
 20
0.0
 30
0.0
  0
ENDSEC
  0
SECTION
  2
OBJECTS
  0
DICTIONARY
  5
C
330
0
100
AcDbDictionary
281
     1
  3
ACAD_GROUP
350
D
  3
ACAD_IMAGE_VARS
350
166
  3
ACAD_LAYOUT
350
1A
  3
ACAD_MLINESTYLE
350
17
  3
ACAD_PLOTSETTINGS
350
19
  3
ACAD_PLOTSTYLENAME
350
E
  3
ACAD_SCALELIST
350
47
  3
APPDATA
350
164
  3
DWGPROPS
350
2FF
  0
DICTIONARY
  5
220
330
2
100
AcDbDictionary
280
     1
281
     1
  3
ACAD_LAYERSTATES
360
221
  0
DICTIONARY
  5
2FD
330
1F
100
AcDbDictionary
280
     1
281
     1
  3
DIM_BOUNDING_BOXES_V1
360
2FE
  0
DICTIONARY
  5
D
102
{ACAD_REACTORS
330
C
102
}
330
C
100
AcDbDictionary
281
     1
  0
RASTERVARIABLES
  5
166
102
{ACAD_REACTORS
330
C
102
}
330
C
100
AcDbRasterVariables
 90
        0
 70
     1
 71
     1
 72
     1
  0
DICTIONARY
  5
1A
102
{ACAD_REACTORS
330
C
102
}
330
C
100
AcDbDictionary
281
     1
  3
Layout1
350
1E
  3
Layout2
350
26
  3
Model
350
22
  0
DICTIONARY
  5
17
102
{ACAD_REACTORS
330
C
102
}
330
C
100
AcDbDictionary
281
     1
  3
Standard
350
18
  0
DICTIONARY
  5
19
102
{ACAD_REACTORS
330
C
102
}
330
C
100
AcDbDictionary
281
     1
  0
ACDBDICTIONARYWDFLT
  5
E
102
{ACAD_REACTORS
330
C
102
}
330
C
100
AcDbDictionary
281
     1
  3
Normal
350
F
100
AcDbDictionaryWithDefault
340
F
  0
DICTIONARY
  5
47
102
{ACAD_REACTORS
330
C
102
}
330
C
100
AcDbDictionary
281
     1
  3
A0
350
48
  3
A1
350
49
  3
A2
350
4A
  3
A3
350
4B
  3
A4
350
4C
  3
A5
350
4D
  3
A6
350
4E
  3
A7
350
4F
  3
A8
350
50
  3
A9
350
51
  3
B0
350
52
  3
B1
350
53
  3
B2
350
54
  3
B3
350
55
  3
B4
350
56
  3
B5
350
57
  3
B6
350
58
  3
B7
350
59
  3
B8
350
5A
  3
B9
350
5B
  3
C0
350
5C
  3
C1
350
5D
  3
C2
350
5E
  3
C3
350
5F
  3
C4
350
60
  3
C5
350
61
  3
C6
350
62
  3
C7
350
63
  3
C8
350
64
  3
C9
350
65
  3
D0
350
66
  3
D1
350
67
  3
D2
350
68
  0
DICTIONARY
  5
164
102
{ACAD_REACTORS
330
C
102
}
330
C
100
AcDbDictionary
281
     1
  0
XRECORD
  5
2FF
102
{ACAD_REACTORS
330
C
102
}
330
C
100
AcDbXrecord
280
     1
  1
DWGPROPS COOKIE
  2

  3

  4

  6

  7

  8
12011056
  9

300
=
301
=
302
=
303
=
304
=
305
=
306
=
307
=
308
=
309
=
 40
0.0
 41
2458316.092665035
 42
2459720.020029919
  1

 90
        0
  0
DICTIONARY
  5
221
102
{ACAD_REACTORS
330
220
102
}
330
220
100
AcDbDictionary
281
     1
  0
DICTIONARY
  5
2FE
102
{ACAD_REACTORS
330
2FD
102
}
330
2FD
100
AcDbDictionary
281
     1
  0
LAYOUT
  5
1E
102
{ACAD_REACTORS
330
1A
102
}
330
1A
100
AcDbPlotSettings
  1

  2
none_device
  4

  6

 40
0.0
 41
0.0
 42
0.0
 43
0.0
 44
0.0
 45
0.0
 46
0.0
 47
0.0
 48
0.0
 49
0.0
140
0.0
141
0.0
142
1.0
143
1.0
 70
   688
 72
     1
 73
     0
 74
     5
  7

 75
    16
147
1.0
148
0.0
149
0.0
100
AcDbLayout
  1
Layout1
 70
     1
 71
     1
 10
0.0
 20
0.0
 11
420.0
 21
297.0
 12
0.0
 22
0.0
 32
0.0
 14
1.000000000000000E+20
 24
1.000000000000000E+20
 34
1.000000000000000E+20
 15
-1.000000000000000E+20
 25
-1.000000000000000E+20
 35
-1.000000000000000E+20
146
0.0
 13
0.0
 23
0.0
 33
0.0
 16
1.0
 26
0.0
 36
0.0
 17
0.0
 27
1.0
 37
0.0
 76
     0
330
1B
  0
LAYOUT
  5
26
102
{ACAD_REACTORS
330
1A
102
}
330
1A
100
AcDbPlotSettings
  1

  2
none_device
  4

  6

 40
0.0
 41
0.0
 42
0.0
 43
0.0
 44
0.0
 45
0.0
 46
0.0
 47
0.0
 48
0.0
 49
0.0
140
0.0
141
0.0
142
1.0
143
1.0
 70
   688
 72
     1
 73
     0
 74
     5
  7

 75
    16
147
1.0
148
0.0
149
0.0
100
AcDbLayout
  1
Layout2
 70
     1
 71
     2
 10
0.0
 20
0.0
 11
0.0
 21
0.0
 12
0.0
 22
0.0
 32
0.0
 14
0.0
 24
0.0
 34
0.0
 15
0.0
 25
0.0
 35
0.0
146
0.0
 13
0.0
 23
0.0
 33
0.0
 16
1.0
 26
0.0
 36
0.0
 17
0.0
 27
1.0
 37
0.0
 76
     0
330
23
  0
LAYOUT
  5
22
102
{ACAD_REACTORS
330
1A
102
}
330
1A
100
AcDbPlotSettings
  1

  2
none_device
  4
ANSI_A_(11.00_x_8.50_Inches)
  6

 40
6.35
 41
19.05
 42
6.35000508
 43
19.05000254
 44
279.4
 45
215.9
 46
83.57655332358644
 47
85.60073600698153
 48
0.0
 49
0.0
140
0.0
141
0.0
142
0.0775239695908755
143
1.0
 70
  1696
 72
     0
 73
     0
 74
     0
  7

 75
     0
147
0.0235690232323232
148
0.0
149
0.0
100
AcDbLayout
  1
Model
 70
     1
 71
     0
 10
0.0
 20
0.0
 11
420.0
 21
297.0
 12
0.0
 22
0.0
 32
0.0
 14
-46.44713571539761
 24
-40.00000000000001
 34
0.0
 15
95.5134838153456
 25
47.64891262060423
 35
0.0
146
0.0
 13
0.0
 23
0.0
 33
0.0
 16
1.0
 26
0.0
 36
0.0
 17
0.0
 27
1.0
 37
0.0
 76
     0
330
1F
331
29
  0
MLINESTYLE
  5
18
102
{ACAD_REACTORS
330
17
102
}
330
17
100
AcDbMlineStyle
  2
Standard
 70
     0
  3

 62
   256
 51
90.0
 52
90.0
 71
     2
 49
0.5
 62
   256
  6
BYLAYER
 49
-0.5
 62
   256
  6
BYLAYER
  0
ACDBPLACEHOLDER
  5
F
102
{ACAD_REACTORS
330
E
102
}
330
E
  0
SCALE
  5
48
102
{ACAD_REACTORS
330
47
102
}
330
47
100
AcDbScale
 70
     0
300
1:1
140
1.0
141
1.0
290
     1
  0
SCALE
  5
49
102
{ACAD_REACTORS
330
47
102
}
330
47
100
AcDbScale
 70
     0
300
1:2
140
1.0
141
2.0
290
     0
  0
SCALE
  5
4A
102
{ACAD_REACTORS
330
47
102
}
330
47
100
AcDbScale
 70
     0
300
1:4
140
1.0
141
4.0
290
     0
  0
SCALE
  5
4B
102
{ACAD_REACTORS
330
47
102
}
330
47
100
AcDbScale
 70
     0
300
1:5
140
1.0
141
5.0
290
     0
  0
SCALE
  5
4C
102
{ACAD_REACTORS
330
47
102
}
330
47
100
AcDbScale
 70
     0
300
1:8
140
1.0
141
8.0
290
     0
  0
SCALE
  5
4D
102
{ACAD_REACTORS
330
47
102
}
330
47
100
AcDbScale
 70
     0
300
1:10
140
1.0
141
10.0
290
     0
  0
SCALE
  5
4E
102
{ACAD_REACTORS
330
47
102
}
330
47
100
AcDbScale
 70
     0
300
1:16
140
1.0
141
16.0
290
     0
  0
SCALE
  5
4F
102
{ACAD_REACTORS
330
47
102
}
330
47
100
AcDbScale
 70
     0
300
1:20
140
1.0
141
20.0
290
     0
  0
SCALE
  5
50
102
{ACAD_REACTORS
330
47
102
}
330
47
100
AcDbScale
 70
     0
300
1:30
140
1.0
141
30.0
290
     0
  0
SCALE
  5
51
102
{ACAD_REACTORS
330
47
102
}
330
47
100
AcDbScale
 70
     0
300
1:40
140
1.0
141
40.0
290
     0
  0
SCALE
  5
52
102
{ACAD_REACTORS
330
47
102
}
330
47
100
AcDbScale
 70
     0
300
1:50
140
1.0
141
50.0
290
     0
  0
SCALE
  5
53
102
{ACAD_REACTORS
330
47
102
}
330
47
100
AcDbScale
 70
     0
300
1:100
140
1.0
141
100.0
290
     0
  0
SCALE
  5
54
102
{ACAD_REACTORS
330
47
102
}
330
47
100
AcDbScale
 70
     0
300
2:1
140
2.0
141
1.0
290
     0
  0
SCALE
  5
55
102
{ACAD_REACTORS
330
47
102
}
330
47
100
AcDbScale
 70
     0
300
4:1
140
4.0
141
1.0
290
     0
  0
SCALE
  5
56
102
{ACAD_REACTORS
330
47
102
}
330
47
100
AcDbScale
 70
     0
300
8:1
140
8.0
141
1.0
290
     0
  0
SCALE
  5
57
102
{ACAD_REACTORS
330
47
102
}
330
47
100
AcDbScale
 70
     0
300
10:1
140
10.0
141
1.0
290
     0
  0
SCALE
  5
58
102
{ACAD_REACTORS
330
47
102
}
330
47
100
AcDbScale
 70
     0
300
100:1
140
100.0
141
1.0
290
     0
  0
SCALE
  5
59
102
{ACAD_REACTORS
330
47
102
}
330
47
100
AcDbScale
 70
     0
300
1/128" = 1'-0"
140
0.0078125
141
12.0
290
     0
  0
SCALE
  5
5A
102
{ACAD_REACTORS
330
47
102
}
330
47
100
AcDbScale
 70
     0
300
1/64" = 1'-0"
140
0.015625
141
12.0
290
     0
  0
SCALE
  5
5B
102
{ACAD_REACTORS
330
47
102
}
330
47
100
AcDbScale
 70
     0
300
1/32" = 1'-0"
140
0.03125
141
12.0
290
     0
  0
SCALE
  5
5C
102
{ACAD_REACTORS
330
47
102
}
330
47
100
AcDbScale
 70
     0
300
1/16" = 1'-0"
140
0.0625
141
12.0
290
     0
  0
SCALE
  5
5D
102
{ACAD_REACTORS
330
47
102
}
330
47
100
AcDbScale
 70
     0
300
3/32" = 1'-0"
140
0.09375
141
12.0
290
     0
  0
SCALE
  5
5E
102
{ACAD_REACTORS
330
47
102
}
330
47
100
AcDbScale
 70
     0
300
1/8" = 1'-0"
140
0.125
141
12.0
290
     0
  0
SCALE
  5
5F
102
{ACAD_REACTORS
330
47
102
}
330
47
100
AcDbScale
 70
     0
300
3/16" = 1'-0"
140
0.1875
141
12.0
290
     0
  0
SCALE
  5
60
102
{ACAD_REACTORS
330
47
102
}
330
47
100
AcDbScale
 70
     0
300
1/4" = 1'-0"
140
0.25
141
12.0
290
     0
  0
SCALE
  5
61
102
{ACAD_REACTORS
330
47
102
}
330
47
100
AcDbScale
 70
     0
300
3/8" = 1'-0"
140
0.375
141
12.0
290
     0
  0
SCALE
  5
62
102
{ACAD_REACTORS
330
47
102
}
330
47
100
AcDbScale
 70
     0
300
1/2" = 1'-0"
140
0.5
141
12.0
290
     0
  0
SCALE
  5
63
102
{ACAD_REACTORS
330
47
102
}
330
47
100
AcDbScale
 70
     0
300
3/4" = 1'-0"
140
0.75
141
12.0
290
     0
  0
SCALE
  5
64
102
{ACAD_REACTORS
330
47
102
}
330
47
100
AcDbScale
 70
     0
300
1" = 1'-0"
140
1.0
141
12.0
290
     0
  0
SCALE
  5
65
102
{ACAD_REACTORS
330
47
102
}
330
47
100
AcDbScale
 70
     0
300
1-1/2" = 1'-0"
140
1.5
141
12.0
290
     0
  0
SCALE
  5
66
102
{ACAD_REACTORS
330
47
102
}
330
47
100
AcDbScale
 70
     0
300
3" = 1'-0"
140
3.0
141
12.0
290
     0
  0
SCALE
  5
67
102
{ACAD_REACTORS
330
47
102
}
330
47
100
AcDbScale
 70
     0
300
6" = 1'-0"
140
6.0
141
12.0
290
     0
  0
SCALE
  5
68
102
{ACAD_REACTORS
330
47
102
}
330
47
100
AcDbScale
 70
     0
300
1'-0" = 1'-0"
140
12.0
141
12.0
290
     0
  0
ENDSEC
  0
EOF
