  0
SECTION
  2
HEADER
  9
$ACADVER
  1
AC1015
  9
$ACADMAINTVER
 70
     6
  9
$DWGCODEPAGE
  3
ANSI_949
  9
$INSBASE
 10
0.0
 20
0.0
 30
0.0
  9
$EXTMIN
 10
1.000000000000000E+20
 20
1.000000000000000E+20
 30
1.000000000000000E+20
  9
$EXTMAX
 10
-1.000000000000000E+20
 20
-1.000000000000000E+20
 30
-1.000000000000000E+20
  9
$LIMMIN
 10
0.0
 20
0.0
  9
$LIMMAX
 10
420.0
 20
297.0
  9
$ORTHOMODE
 70
     1
  9
$REGENMODE
 70
     1
  9
$FILLMODE
 70
     1
  9
$QTEXTMODE
 70
     0
  9
$MIRRTEXT
 70
     1
  9
$LTSCALE
 40
1.0
  9
$ATTMODE
 70
     1
  9
$TEXTSIZE
 40
3.5
  9
$TRACEWID
 40
1.0
  9
$TEXTSTYLE
  7
Standard
  9
$CLAYER
  8
0
  9
$CELTYPE
  6
ByLayer
  9
$CECOLOR
 62
   256
  9
$CELTSCALE
 40
1.0
  9
$DISPSILH
 70
     0
  9
$DIMSCALE
 40
1.0
  9
$DIMASZ
 40
3.302
  9
$DIMEXO
 40
1.0
  9
$DIMDLI
 40
3.75
  9
$DIMRND
 40
0.0
  9
$DIMDLE
 40
0.0
  9
$DIMEXE
 40
1.0
  9
$DIMTP
 40
0.0
  9
$DIMTM
 40
0.0
  9
$DIMTXT
 40
3.5
  9
$DIMCEN
 40
2.5
  9
$DIMTSZ
 40
0.0
  9
$DIMTOL
 70
     0
  9
$DIMLIM
 70
     0
  9
$DIMTIH
 70
     1
  9
$DIMTOH
 70
     1
  9
$DIMSE1
 70
     0
  9
$DIMSE2
 70
     0
  9
$DIMTAD
 70
     1
  9
$DIMZIN
 70
     0
  9
$DIMBLK
  1

  9
$DIMASO
 70
     1
  9
$DIMSHO
 70
     1
  9
$DIMPOST
  1

  9
$DIMAPOST
  1

  9
$DIMALT
 70
     0
  9
$DIMALTD
 70
     3
  9
$DIMALTF
 40
0.0393700787401575
  9
$DIMLFAC
 40
1.0
  9
$DIMTOFL
 70
     1
  9
$DIMTVP
 40
0.0
  9
$DIMTIX
 70
     0
  9
$DIMSOXD
 70
     0
  9
$DIMSAH
 70
     0
  9
$DIMBLK1
  1

  9
$DIMBLK2
  1

  9
$DIMSTYLE
  2
ISO-25
  9
$DIMCLRD
 70
     0
  9
$DIMCLRE
 70
     0
  9
$DIMCLRT
 70
     0
  9
$DIMTFAC
 40
1.0
  9
$DIMGAP
 40
1.524
  9
$DIMJUST
 70
     0
  9
$DIMSD1
 70
     0
  9
$DIMSD2
 70
     0
  9
$DIMTOLJ
 70
     0
  9
$DIMTZIN
 70
     0
  9
$DIMALTZ
 70
     0
  9
$DIMALTTZ
 70
     0
  9
$DIMUPT
 70
     0
  9
$DIMDEC
 70
     2
  9
$DIMTDEC
 70
     2
  9
$DIMALTU
 70
     2
  9
$DIMALTTD
 70
     3
  9
$DIMTXSTY
  7
Standard
  9
$DIMAUNIT
 70
     0
  9
$DIMADEC
 70
     2
  9
$DIMALTRND
 40
0.0
  9
$DIMAZIN
 70
     0
  9
$DIMDSEP
 70
    44
  9
$DIMATFIT
 70
     3
  9
$DIMFRAC
 70
     0
  9
$DIMLDRBLK
  1

  9
$DIMLUNIT
 70
     2
  9
$DIMLWD
 70
    -2
  9
$DIMLWE
 70
    -2
  9
$DIMTMOVE
 70
     0
  9
$LUNITS
 70
     2
  9
$LUPREC
 70
     2
  9
$SKETCHINC
 40
1.0
  9
$FILLETRAD
 40
10.0
  9
$AUNITS
 70
     0
  9
$AUPREC
 70
     2
  9
$MENU
  1
.
  9
$ELEVATION
 40
0.0
  9
$PELEVATION
 40
0.0
  9
$THICKNESS
 40
0.0
  9
$LIMCHECK
 70
     0
  9
$CHAMFERA
 40
0.0
  9
$CHAMFERB
 40
0.0
  9
$CHAMFERC
 40
0.0
  9
$CHAMFERD
 40
0.0
  9
$SKPOLY
 70
     0
  9
$TDCREATE
 40
2458311.647826308
  9
$TDUCREATE
 40
2458311.272826308
  9
$TDUPDATE
 40
2458323.393377303
  9
$TDUUPDATE
 40
2458323.018377303
  9
$TDINDWG
 40
0.0010821412
  9
$TDUSRTIMER
 40
2458323.01729544
  9
$USRTIMER
 70
     1
  9
$ANGBASE
 50
0.0
  9
$ANGDIR
 70
     0
  9
$PDMODE
 70
     0
  9
$PDSIZE
 40
-1.0
  9
$PLINEWID
 40
0.0
  9
$SPLFRAME
 70
     0
  9
$SPLINETYPE
 70
     6
  9
$SPLINESEGS
 70
     8
  9
$HANDSEED
  5
2B9
  9
$SURFTAB1
 70
     6
  9
$SURFTAB2
 70
     6
  9
$SURFTYPE
 70
     6
  9
$SURFU
 70
     6
  9
$SURFV
 70
     6
  9
$UCSBASE
  2

  9
$UCSNAME
  2

  9
$UCSORG
 10
0.0
 20
0.0
 30
0.0
  9
$UCSXDIR
 10
1.0
 20
0.0
 30
0.0
  9
$UCSYDIR
 10
0.0
 20
1.0
 30
0.0
  9
$UCSORTHOREF
  2

  9
$UCSORTHOVIEW
 70
     0
  9
$UCSORGTOP
 10
0.0
 20
0.0
 30
0.0
  9
$UCSORGBOTTOM
 10
0.0
 20
0.0
 30
0.0
  9
$UCSORGLEFT
 10
0.0
 20
0.0
 30
0.0
  9
$UCSORGRIGHT
 10
0.0
 20
0.0
 30
0.0
  9
$UCSORGFRONT
 10
0.0
 20
0.0
 30
0.0
  9
$UCSORGBACK
 10
0.0
 20
0.0
 30
0.0
  9
$PUCSBASE
  2

  9
$PUCSNAME
  2

  9
$PUCSORG
 10
0.0
 20
0.0
 30
0.0
  9
$PUCSXDIR
 10
1.0
 20
0.0
 30
0.0
  9
$PUCSYDIR
 10
0.0
 20
1.0
 30
0.0
  9
$PUCSORTHOREF
  2

  9
$PUCSORTHOVIEW
 70
     0
  9
$PUCSORGTOP
 10
0.0
 20
0.0
 30
0.0
  9
$PUCSORGBOTTOM
 10
0.0
 20
0.0
 30
0.0
  9
$PUCSORGLEFT
 10
0.0
 20
0.0
 30
0.0
  9
$PUCSORGRIGHT
 10
0.0
 20
0.0
 30
0.0
  9
$PUCSORGFRONT
 10
0.0
 20
0.0
 30
0.0
  9
$PUCSORGBACK
 10
0.0
 20
0.0
 30
0.0
  9
$USERI1
 70
     0
  9
$USERI2
 70
     0
  9
$USERI3
 70
     0
  9
$USERI4
 70
     0
  9
$USERI5
 70
     0
  9
$USERR1
 40
0.0
  9
$USERR2
 40
0.0
  9
$USERR3
 40
0.0
  9
$USERR4
 40
0.0
  9
$USERR5
 40
0.0
  9
$WORLDVIEW
 70
     1
  9
$SHADEDGE
 70
     3
  9
$SHADEDIF
 70
    70
  9
$TILEMODE
 70
     1
  9
$MAXACTVP
 70
    64
  9
$PINSBASE
 10
0.0
 20
0.0
 30
0.0
  9
$PLIMCHECK
 70
     0
  9
$PEXTMIN
 10
1.000000000000000E+20
 20
1.000000000000000E+20
 30
1.000000000000000E+20
  9
$PEXTMAX
 10
-1.000000000000000E+20
 20
-1.000000000000000E+20
 30
-1.000000000000000E+20
  9
$PLIMMIN
 10
0.0
 20
0.0
  9
$PLIMMAX
 10
0.0
 20
0.0
  9
$UNITMODE
 70
     0
  9
$VISRETAIN
 70
     1
  9
$PLINEGEN
 70
     0
  9
$PSLTSCALE
 70
     1
  9
$TREEDEPTH
 70
  3020
  9
$CMLSTYLE
  2
Standard
  9
$CMLJUST
 70
     0
  9
$CMLSCALE
 40
20.0
  9
$PROXYGRAPHICS
 70
     1
  9
$MEASUREMENT
 70
     1
  9
$CELWEIGHT
370
    -1
  9
$ENDCAPS
280
     0
  9
$JOINSTYLE
280
     0
  9
$LWDISPLAY
290
     1
  9
$INSUNITS
 70
     4
  9
$HYPERLINKBASE
  1

  9
$STYLESHEET
  1

  9
$XEDIT
290
     1
  9
$CEPSNTYPE
380
     0
  9
$PSTYLEMODE
290
     1
  9
$FINGERPRINTGUID
  2
{6BD57738-80EF-4A97-9B2D-540F06C2CEBC}
  9
$VERSIONGUID
  2
{FAEB1C32-E019-11D5-929B-00C0DF256EC4}
  9
$EXTNAMES
290
     1
  9
$PSVPSCALE
 40
0.0
  9
$OLESTARTUP
290
     0
  0
ENDSEC
  0
SECTION
  2
CLASSES
  0
CLASS
  1
ACDBDICTIONARYWDFLT
  2
AcDbDictionaryWithDefault
  3
ObjectDBX Classes
 90
        0
280
     0
281
     0
  0
CLASS
  1
VISUALSTYLE
  2
AcDbVisualStyle
  3
ObjectDBX Classes
 90
     4095
280
     0
281
     0
  0
CLASS
  1
MATERIAL
  2
AcDbMaterial
  3
ObjectDBX Classes
 90
     1153
280
     0
281
     0
  0
CLASS
  1
SCALE
  2
AcDbScale
  3
ObjectDBX Classes
 90
     1153
280
     0
281
     0
  0
CLASS
  1
SUN
  2
AcDbSun
  3
SCENEOE
 90
     1153
280
     0
281
     0
  0
CLASS
  1
ACDBPLACEHOLDER
  2
AcDbPlaceHolder
  3
ObjectDBX Classes
 90
        0
280
     0
281
     0
  0
CLASS
  1
LAYOUT
  2
AcDbLayout
  3
ObjectDBX Classes
 90
        0
280
     0
281
     0
  0
CLASS
  1
TABLESTYLE
  2
AcDbTableStyle
  3
ObjectDBX Classes
 90
     4095
280
     0
281
     0
  0
CLASS
  1
MLEADERSTYLE
  2
AcDbMLeaderStyle
  3
ACDB_MLEADERSTYLE_CLASS
 90
     4095
280
     0
281
     0
  0
CLASS
  1
RASTERVARIABLES
  2
AcDbRasterVariables
  3
ISM
 90
        0
280
     0
281
     0
  0
ENDSEC
  0
SECTION
  2
TABLES
  0
TABLE
  2
VPORT
  5
8
330
0
100
AcDbSymbolTable
 70
     1
  0
VPORT
  5
29
330
8
100
AcDbSymbolTableRecord
100
AcDbViewportTableRecord
  2
*Active
 70
     0
 10
0.0
 20
0.0
 11
1.0
 21
1.0
 12
31.04217672523568
 22
-1.401533653586821
 13
0.0
 23
0.0
 14
10.0
 24
10.0
 15
10.0
 25
10.0
 16
0.0
 26
0.0
 36
1.0
 17
0.0
 27
0.0
 37
0.0
 40
149.8282878460433
 41
1.970186335403727
 42
50.0
 43
0.0
 44
0.0
 50
0.0
 51
0.0
 71
    16
 72
  2000
 73
     1
 74
     3
 75
     0
 76
     0
 77
     0
 78
     0
281
     0
 65
     1
110
0.0
120
0.0
130
0.0
111
1.0
121
0.0
131
0.0
112
0.0
122
1.0
132
0.0
 79
     0
146
0.0
  0
ENDTAB
  0
TABLE
  2
LTYPE
  5
5
330
0
100
AcDbSymbolTable
 70
     6
  0
LTYPE
  5
14
330
5
100
AcDbSymbolTableRecord
100
AcDbLinetypeTableRecord
  2
ByBlock
 70
     0
  3

 72
    65
 73
     0
 40
0.0
  0
LTYPE
  5
15
330
5
100
AcDbSymbolTableRecord
100
AcDbLinetypeTableRecord
  2
ByLayer
 70
     0
  3

 72
    65
 73
     0
 40
0.0
  0
LTYPE
  5
16
330
5
100
AcDbSymbolTableRecord
100
AcDbLinetypeTableRecord
  2
Continuous
 70
     0
  3
Solid line
 72
    65
 73
     0
 40
0.0
  0
LTYPE
  5
6A
330
5
100
AcDbSymbolTableRecord
100
AcDbLinetypeTableRecord
  2
HIDDEN
 70
     0
  3
Hidden __ __ __ __ __ __ __ __ __ __ __ __ __ __
 72
    65
 73
     2
 40
1.905
 49
1.27
 74
     0
 49
-0.635
 74
     0
  0
LTYPE
  5
6B
330
5
100
AcDbSymbolTableRecord
100
AcDbLinetypeTableRecord
  2
PHANTOM
 70
     0
  3
Phantom ______  __  __  ______  __  __  ______
 72
    65
 73
     6
 40
12.7
 49
6.35
 74
     0
 49
-1.27
 74
     0
 49
1.27
 74
     0
 49
-1.27
 74
     0
 49
1.27
 74
     0
 49
-1.27
 74
     0
  0
LTYPE
  5
6C
330
5
100
AcDbSymbolTableRecord
100
AcDbLinetypeTableRecord
  2
CENTER
 70
     0
  3
Center ____ _ ____ _ ____ _ ____ _ ____ _ ____
 72
    65
 73
     4
 40
10.16
 49
6.35
 74
     0
 49
-1.27
 74
     0
 49
1.27
 74
     0
 49
-1.27
 74
     0
  0
LTYPE
  5
6D
330
5
100
AcDbSymbolTableRecord
100
AcDbLinetypeTableRecord
  2
CENTERX2
 70
     0
  3
Center (2x) ________  __  ________  __  _____
 72
    65
 73
     4
 40
20.32
 49
12.7
 74
     0
 49
-2.54
 74
     0
 49
2.54
 74
     0
 49
-2.54
 74
     0
  0
LTYPE
  5
6E
330
5
100
AcDbSymbolTableRecord
100
AcDbLinetypeTableRecord
  2
DOT2
 70
     0
  3
Dot (.5x) ........................................
 72
    65
 73
     2
 40
0.635
 49
0.0
 74
     0
 49
-0.635
 74
     0
  0
ENDTAB
  0
TABLE
  2
LAYER
  5
2
102
{ACAD_XDICTIONARY
360
201
102
}
330
0
100
AcDbSymbolTable
 70
    18
  0
LAYER
  5
10
330
2
100
AcDbSymbolTableRecord
100
AcDbLayerTableRecord
  2
0
 70
     0
 62
     7
  6
Continuous
370
    -3
390
F
  0
LAYER
  5
6F
330
2
100
AcDbSymbolTableRecord
100
AcDbLayerTableRecord
  2
FORMAT
 70
     0
 62
     2
  6
Continuous
370
    -3
390
F
  0
LAYER
  5
70
330
2
100
AcDbSymbolTableRecord
100
AcDbLayerTableRecord
  2
외형선
 70
     0
 62
     4
  6
Continuous
370
    30
390
F
  0
LAYER
  5
71
330
2
100
AcDbSymbolTableRecord
100
AcDbLayerTableRecord
  2
숨은선
 70
     0
 62
     2
  6
HIDDEN
370
    15
390
F
  0
LAYER
  5
72
330
2
100
AcDbSymbolTableRecord
100
AcDbLayerTableRecord
  2
중심선
 70
     0
 62
     1
  6
CENTERX2
370
    -3
390
F
  0
LAYER
  5
73
330
2
100
AcDbSymbolTableRecord
100
AcDbLayerTableRecord
  2
파단선
 70
     0
 62
     4
  6
Continuous
370
    -3
390
F
  0
LAYER
  5
74
330
2
100
AcDbSymbolTableRecord
100
AcDbLayerTableRecord
  2
해칭선
 70
     0
 62
   100
  6
Continuous
370
    -3
390
F
  0
LAYER
  5
75
330
2
100
AcDbSymbolTableRecord
100
AcDbLayerTableRecord
  2
가는실선
 70
     0
 62
     4
  6
Continuous
370
    -3
390
F
  0
LAYER
  5
76
330
2
100
AcDbSymbolTableRecord
100
AcDbLayerTableRecord
  2
치수_보조선
 70
     0
 62
     4
  6
Continuous
370
    -3
390
F
  0
LAYER
  5
77
330
2
100
AcDbSymbolTableRecord
100
AcDbLayerTableRecord
  2
치수문자_일반주서
 70
     0
 62
     7
  6
Continuous
370
    15
390
F
  0
LAYER
  5
78
330
2
100
AcDbSymbolTableRecord
100
AcDbLayerTableRecord
  2
개별주서
 70
     0
 62
   100
  6
Continuous
370
    30
390
F
  0
LAYER
  5
79
330
2
100
AcDbSymbolTableRecord
100
AcDbLayerTableRecord
  2
중간선
 70
     0
 62
     2
  6
Continuous
370
    15
390
F
  0
LAYER
  5
7A
330
2
100
AcDbSymbolTableRecord
100
AcDbLayerTableRecord
  2
윤곽선
 70
     0
 62
     3
  6
Continuous
370
    40
390
F
  0
LAYER
  5
7B
330
2
100
AcDbSymbolTableRecord
100
AcDbLayerTableRecord
  2
중심마크
 70
     0
 62
   100
  6
Continuous
370
    30
390
F
  0
LAYER
  5
7C
330
2
100
AcDbSymbolTableRecord
100
AcDbLayerTableRecord
  2
가상선
 70
     0
 62
     4
  6
PHANTOM
370
    -3
390
F
  0
LAYER
  5
7D
330
2
100
AcDbSymbolTableRecord
100
AcDbLayerTableRecord
  2
특수지정선
 70
     0
 62
     5
  6
CENTERX2
370
    60
390
F
  0
LAYER
  5
7E
330
2
100
AcDbSymbolTableRecord
100
AcDbLayerTableRecord
  2
참조1
 70
     0
 62
    -4
  6
Continuous
370
    -3
390
F
  0
LAYER
  5
149
330
2
100
AcDbSymbolTableRecord
100
AcDbLayerTableRecord
  2
Defpoints
 70
     0
 62
     7
  6
Continuous
290
     0
370
    -3
390
F
  0
ENDTAB
  0
TABLE
  2
STYLE
  5
3
330
0
100
AcDbSymbolTable
 70
     2
  0
STYLE
  5
11
330
3
100
AcDbSymbolTableRecord
100
AcDbTextStyleTableRecord
  2
Standard
 70
     0
 40
0.0
 41
1.0
 50
0.0
 71
     0
 42
3.5
  3
txt
  4

  0
STYLE
  5
94
330
3
100
AcDbSymbolTableRecord
100
AcDbTextStyleTableRecord
  2
SLDTEXTSTYLE0
 70
     0
 40
0.0
 41
0.75
 50
0.0
 71
     0
 42
3.5
  3
TXT
  4

  0
ENDTAB
  0
TABLE
  2
VIEW
  5
6
330
0
100
AcDbSymbolTable
 70
     0
  0
ENDTAB
  0
TABLE
  2
UCS
  5
7
330
0
100
AcDbSymbolTable
 70
     0
  0
ENDTAB
  0
TABLE
  2
APPID
  5
9
330
0
100
AcDbSymbolTable
 70
     3
  0
APPID
  5
12
330
9
100
AcDbSymbolTableRecord
100
AcDbRegAppTableRecord
  2
ACAD
 70
     0
  0
APPID
  5
155
330
9
100
AcDbSymbolTableRecord
100
AcDbRegAppTableRecord
  2
PE_URL
 70
     0
  0
APPID
  5
156
330
9
100
AcDbSymbolTableRecord
100
AcDbRegAppTableRecord
  2
ACAD_DSTYLE_DIMRADIAL_EXTENSION
 70
     0
  0
ENDTAB
  0
TABLE
  2
DIMSTYLE
  5
A
330
0
100
AcDbSymbolTable
 70
     4
100
AcDbDimStyleTable
  0
DIMSTYLE
105
27
330
A
100
AcDbSymbolTableRecord
100
AcDbDimStyleTableRecord
  2
ISO-25
 70
     0
 41
2.5
 42
0.625
 43
3.75
 44
1.25
 73
     0
 74
     0
 77
     1
 78
     8
140
2.5
141
2.5
143
0.03937007874016
147
0.625
171
     3
172
     1
178
     0
271
     2
272
     2
274
     3
278
    44
283
     0
284
     8
340
11
  0
DIMSTYLE
105
C5
102
{ACAD_REACTORS
330
C4
330
1B5
330
1C2
330
D8
330
ED
330
102
102
}
330
A
100
AcDbSymbolTableRecord
100
AcDbDimStyleTableRecord
  2
SLDDIMSTYLE0
 70
     0
 41
3.302
 44
0.0
 45
0.000000001
 73
     0
 74
     0
 77
     1
 78
     4
 79
     1
140
3.5
143
0.0393700787401575
147
0.875
148
0.000000001
170
     1
173
     1
178
     0
271
     2
272
     2
276
     2
284
    12
340
94
  0
DIMSTYLE
105
D9
102
{ACAD_REACTORS
330
1F8
102
}
330
A
100
AcDbSymbolTableRecord
100
AcDbDimStyleTableRecord
  2
SLDDIMSTYLE1
 70
     0
 41
3.302
 44
0.0
 45
0.000000001
 73
     0
 74
     0
 77
     1
 78
    12
 79
     3
140
3.5
143
0.0393700787401575
147
0.875
148
0.000000001
170
     1
172
     1
173
     1
178
     0
271
     2
272
     2
276
     2
284
    12
289
     0
340
94
  0
DIMSTYLE
105
103
102
{ACAD_REACTORS
330
1CF
330
1DE
102
}
330
A
100
AcDbSymbolTableRecord
100
AcDbDimStyleTableRecord
  2
SLDDIMSTYLE2
 70
     0
 41
3.302
 44
0.0
 45
0.000000001
 73
     0
 74
     0
 77
     1
 78
    12
 79
     3
140
3.5
143
0.0393700787401575
147
0.875
148
0.000000001
170
     1
173
     1
178
     0
271
     2
272
     2
276
     2
284
    12
340
94
  0
ENDTAB
  0
TABLE
  2
BLOCK_RECORD
  5
1
330
0
100
AcDbSymbolTable
 70
    18
  0
BLOCK_RECORD
  5
1F
330
1
100
AcDbSymbolTableRecord
100
AcDbBlockTableRecord
  2
*Model_Space
340
22
  0
BLOCK_RECORD
  5
1B
330
1
100
AcDbSymbolTableRecord
100
AcDbBlockTableRecord
  2
*Paper_Space
340
1E
  0
BLOCK_RECORD
  5
23
330
1
100
AcDbSymbolTableRecord
100
AcDbBlockTableRecord
  2
*Paper_Space0
340
26
  0
BLOCK_RECORD
  5
7F
330
1
100
AcDbSymbolTableRecord
100
AcDbBlockTableRecord
  2
블럭10
340
0
102
{BLKREFS
331
BD
102
}
  0
BLOCK_RECORD
  5
C6
330
1
100
AcDbSymbolTableRecord
100
AcDbBlockTableRecord
  2
_D
340
0
  0
BLOCK_RECORD
  5
DA
330
1
100
AcDbSymbolTableRecord
100
AcDbBlockTableRecord
  2
_D_1
340
0
  0
BLOCK_RECORD
  5
EE
330
1
100
AcDbSymbolTableRecord
100
AcDbBlockTableRecord
  2
_D_2
340
0
  0
BLOCK_RECORD
  5
104
330
1
100
AcDbSymbolTableRecord
100
AcDbBlockTableRecord
  2
_D_3
340
0
  0
BLOCK_RECORD
  5
11D
330
1
100
AcDbSymbolTableRecord
100
AcDbBlockTableRecord
  2
SW_DOWELSYMBOL_0
340
0
102
{BLKREFS
331
123
331
1ED
331
0
102
}
  0
BLOCK_RECORD
  5
1DF
330
1
100
AcDbSymbolTableRecord
100
AcDbBlockTableRecord
  2
_D_4
340
0
  0
BLOCK_RECORD
  5
1F9
330
1
100
AcDbSymbolTableRecord
100
AcDbBlockTableRecord
  2
*D9
340
0
  0
BLOCK_RECORD
  5
205
330
1
100
AcDbSymbolTableRecord
100
AcDbBlockTableRecord
  2
*D10
340
0
  0
BLOCK_RECORD
  5
211
330
1
100
AcDbSymbolTableRecord
100
AcDbBlockTableRecord
  2
*D11
340
0
  0
BLOCK_RECORD
  5
21D
330
1
100
AcDbSymbolTableRecord
100
AcDbBlockTableRecord
  2
*D12
340
0
  0
BLOCK_RECORD
  5
277
330
1
100
AcDbSymbolTableRecord
100
AcDbBlockTableRecord
  2
*D13
340
0
  0
BLOCK_RECORD
  5
283
330
1
100
AcDbSymbolTableRecord
100
AcDbBlockTableRecord
  2
*D14
340
0
  0
BLOCK_RECORD
  5
28F
330
1
100
AcDbSymbolTableRecord
100
AcDbBlockTableRecord
  2
*D15
340
0
  0
BLOCK_RECORD
  5
29D
330
1
100
AcDbSymbolTableRecord
100
AcDbBlockTableRecord
  2
*D16
340
0
  0
BLOCK_RECORD
  5
2AB
330
1
100
AcDbSymbolTableRecord
100
AcDbBlockTableRecord
  2
*D17
340
0
  0
ENDTAB
  0
ENDSEC
  0
SECTION
  2
BLOCKS
  0
BLOCK
  5
20
330
1F
100
AcDbEntity
  8
0
100
AcDbBlockBegin
  2
*Model_Space
 70
     0
 10
0.0
 20
0.0
 30
0.0
  3
*Model_Space
  1
*Model_Space
  0
ENDBLK
  5
21
330
1F
100
AcDbEntity
  8
0
100
AcDbBlockEnd
  0
BLOCK
  5
1C
330
1B
100
AcDbEntity
 67
     1
  8
0
100
AcDbBlockBegin
  2
*Paper_Space
 70
     0
 10
0.0
 20
0.0
 30
0.0
  3
*Paper_Space
  1
*Paper_Space
  0
ENDBLK
  5
1D
330
1B
100
AcDbEntity
 67
     1
  8
0
100
AcDbBlockEnd
  0
BLOCK
  5
24
330
23
100
AcDbEntity
  8
0
100
AcDbBlockBegin
  2
*Paper_Space0
 70
     0
 10
0.0
 20
0.0
 30
0.0
  3
*Paper_Space0
  1
*Paper_Space0
  0
ENDBLK
  5
25
330
23
100
AcDbEntity
  8
0
100
AcDbBlockEnd
  0
BLOCK
  5
80
330
7F
100
AcDbEntity
  8
0
100
AcDbBlockBegin
  2
블럭10
 70
     2
 10
0.0
 20
0.0
 30
0.0
  3
블럭10
  1
블럭10
  0
ELLIPSE
  5
82
330
7F
100
AcDbEntity
  8
중심선
100
AcDbEllipse
 10
20.54032771741204
 20
12.0471743016438
 30
0.0
 11
6.600054785286829
 21
-1.261213355974178E-13
 31
0.0
210
0.0
220
0.0
230
1.0
 40
0.636358354079598
 41
0.9219305317359503
 42
6.513795318482858
  0
ELLIPSE
  5
83
330
7F
100
AcDbEntity
  8
중심선
100
AcDbEllipse
 10
20.54032771746488
 20
12.04717430159265
 30
0.0
 11
3.960054785062283
 21
1.540847449632565E-10
 31
0.0
210
0.0
220
0.0
230
1.0
 40
0.3939339440162632
 41
1.131841032648279
 42
5.62031148352944
  0
LINE
  5
84
330
7F
100
AcDbEntity
  8
중심선
100
AcDbLine
 10
2.268634060543552
 20
16.24717430164393
 30
0.0
 11
5.714909304380834
 21
16.24717430164393
 31
0.0
  0
LINE
  5
85
330
7F
100
AcDbEntity
  8
중심선
100
AcDbLine
 10
5.245725140726316
 20
7.84717430164391
 30
0.0
 11
8.692000384563599
 21
7.84717430164391
 31
0.0
  0
LINE
  5
86
330
7F
100
AcDbEntity
  8
중심선
100
AcDbLine
 10
15.74043728645272
 20
16.24717430164393
 30
0.0
 11
8.692000384563599
 21
7.84717430164391
 31
0.0
  0
LINE
  5
87
330
7F
100
AcDbEntity
  8
중심선
100
AcDbLine
 10
0.1404042013395286
 20
13.71084872107135
 30
0.0
 11
3.58671253028996
 21
13.71088815037384
 31
0.0
  0
LINE
  5
88
330
7F
100
AcDbEntity
  8
중심선
100
AcDbLine
 10
2.750260043222114
 20
10.84717430164391
 30
0.0
 11
6.196535287059397
 21
10.84717430164391
 31
0.0
  0
LINE
  5
89
330
7F
100
AcDbEntity
  8
중심선
100
AcDbLine
 10
12.29416204261559
 20
16.24717430164393
 30
0.0
 11
5.245725140726316
 21
7.84717430164391
 31
0.0
  0
LINE
  5
8A
330
7F
100
AcDbEntity
  8
중심선
100
AcDbLine
 10
10.72767329541681
 20
16.24717430164393
 30
0.0
 11
6.196535287059397
 21
10.84717430164391
 31
0.0
  0
LINE
  5
8B
330
7F
100
AcDbEntity
  8
중심선
100
AcDbLine
 10
7.28139805157953
 20
16.24717430164393
 30
0.0
 11
2.750260043222114
 21
10.84717430164391
 31
0.0
  0
LINE
  5
8C
330
7F
100
AcDbEntity
  8
중심선
100
AcDbLine
 10
5.714909304380834
 20
16.24717430164393
 30
0.0
 11
3.58671253028996
 21
13.71088815037384
 31
0.0
  0
LINE
  5
8D
330
7F
100
AcDbEntity
  8
중심선
100
AcDbLine
 10
2.268634060543552
 20
16.24717430164393
 30
0.0
 11
0.1404042013395286
 21
13.71084872107135
 31
0.0
  0
LINE
  5
8E
330
7F
100
AcDbEntity
  8
중심선
100
AcDbLine
 10
7.28139805157953
 20
16.24717430164393
 30
0.0
 11
10.72767329541681
 21
16.24717430164393
 31
0.0
  0
LINE
  5
8F
330
7F
100
AcDbEntity
  8
중심선
100
AcDbLine
 10
12.29416204261559
 20
16.24717430164393
 30
0.0
 11
15.74043728645272
 21
16.24717430164393
 31
0.0
  0
LINE
  5
90
330
7F
100
AcDbEntity
  8
중심선
100
AcDbLine
 10
19.22036997980202
 20
11.08717430171403
 30
0.0
 11
23.66174974927406
 21
11.08717430171406
 31
0.0
  0
LINE
  5
91
330
7F
100
AcDbEntity
  8
중심선
100
AcDbLine
 10
19.22039502424796
 20
13.00717430171391
 30
0.0
 11
19.22036997980202
 21
11.08717430171403
 31
0.0
  0
LINE
  5
92
330
7F
100
AcDbEntity
  8
중심선
100
AcDbLine
 10
19.22039502424796
 20
13.00717430171391
 30
0.0
 11
26.96566020931264
 21
13.00717430171391
 31
0.0
  0
LINE
  5
93
330
7F
100
AcDbEntity
  8
중심선
100
AcDbLine
 10
22.22332737316547
 20
13.45928029700563
 30
0.0
 11
24.52862924686651
 21
15.39360700705356
 31
0.0
  0
ATTDEF
  5
95
330
7F
100
AcDbEntity
  8
FORMAT
 62
     2
100
AcDbText
 10
4.408487351596664
 20
2.075366912832191
 30
0.0
 40
4.233333333333333
  1
E5059040
 41
0.75
  7
SLDTEXTSTYLE0
 11
4.408487351596664
 21
-0.0412997538344756
 31
0.0
100
AcDbAttributeDefinition
  3

  2
AUTOATTR0
 70
     0
 74
     1
  0
ENDBLK
  5
81
330
7F
100
AcDbEntity
  8
0
100
AcDbBlockEnd
  0
BLOCK
  5
C7
330
C6
100
AcDbEntity
  8
0
100
AcDbBlockBegin
  2
_D
 70
     0
 10
0.0
 20
0.0
 30
0.0
  3
_D
  1
_D
  0
LINE
  5
C9
330
C6
100
AcDbEntity
  8
치수문자_일반주서
 62
     0
370
    -2
100
AcDbLine
 10
-41.97499999999998
 20
7.49999999999999
 30
0.0
 11
-41.97499999999998
 21
31.12855032795721
 31
0.0
  0
LINE
  5
CA
330
C6
100
AcDbEntity
  8
치수문자_일반주서
 62
     0
370
    -2
100
AcDbLine
 10
34.22500000000002
 20
7.999999999999999
 30
0.0
 11
34.22500000000002
 21
31.12855032795721
 31
0.0
  0
LINE
  5
CB
330
C6
100
AcDbEntity
  8
치수문자_일반주서
 62
     0
370
    -2
100
AcDbLine
 10
-38.67299999999998
 20
31.12855032795721
 30
0.0
 11
30.92300000000002
 21
31.12855032795721
 31
0.0
  0
SOLID
  5
CC
330
C6
100
AcDbEntity
  8
치수문자_일반주서
 62
     0
100
AcDbTrace
 10
-38.67299999999998
 20
31.67888366129055
 30
0.0
 11
-38.67299999999998
 21
30.57821699462388
 31
0.0
 12
-41.97499999999998
 22
31.12855032795721
 32
0.0
 13
-41.97499999999998
 23
31.12855032795721
 33
0.0
  0
SOLID
  5
CD
330
C6
100
AcDbEntity
  8
치수문자_일반주서
 62
     0
100
AcDbTrace
 10
30.92300000000002
 20
30.57821699462388
 30
0.0
 11
30.92300000000002
 21
31.67888366129055
 31
0.0
 12
34.22500000000002
 22
31.12855032795721
 32
0.0
 13
34.22500000000002
 23
31.12855032795721
 33
0.0
  0
MTEXT
  5
CE
330
C6
100
AcDbEntity
  8
치수문자_일반주서
 62
     0
100
AcDbMText
 10
-3.87499999999998
 20
35.50355032795721
 30
0.0
 40
3.5
 41
0.0
 71
     2
 72
     1
  1
\A1;76.20 [3]
  7
SLDTEXTSTYLE0
 73
     1
 44
1.0
  0
POINT
  5
CF
330
C6
100
AcDbEntity
  8
Defpoints
 62
     0
100
AcDbPoint
 10
-41.97499999999998
 20
7.43749999999999
 30
0.0
  0
POINT
  5
D0
330
C6
100
AcDbEntity
  8
Defpoints
 62
     0
100
AcDbPoint
 10
34.22500000000002
 20
7.937499999999999
 30
0.0
  0
POINT
  5
D1
330
C6
100
AcDbEntity
  8
Defpoints
 62
     0
100
AcDbPoint
 10
34.22500000000002
 20
31.12855032795721
 30
0.0
  0
ENDBLK
  5
C8
330
C6
100
AcDbEntity
  8
0
100
AcDbBlockEnd
  0
BLOCK
  5
DB
330
DA
100
AcDbEntity
  8
0
100
AcDbBlockBegin
  2
_D_1
 70
     0
 10
0.0
 20
0.0
 30
0.0
  3
_D_1
  1
_D_1
  0
LINE
  5
DD
330
DA
100
AcDbEntity
  8
치수문자_일반주서
 62
     0
370
    -2
100
AcDbLine
 10
-41.53749999999998
 20
7.937499999999983
 30
0.0
 11
-54.96531483557303
 21
7.937499999999932
 31
0.0
  0
LINE
  5
DE
330
DA
100
AcDbEntity
  8
치수문자_일반주서
 62
     0
370
    -2
100
AcDbLine
 10
-41.53749999999998
 20
-7.937500000000017
 30
0.0
 11
-54.96531483557298
 21
-7.937500000000064
 31
0.0
  0
LINE
  5
DF
330
DA
100
AcDbEntity
  8
치수문자_일반주서
 62
     0
370
    -2
100
AcDbLine
 10
-54.96531483557303
 20
7.937499999999932
 30
0.0
 11
-54.96531483557315
 21
39.45824999999994
 31
0.0
  0
LINE
  5
E0
330
DA
100
AcDbEntity
  8
치수문자_일반주서
 62
     0
370
    -2
100
AcDbLine
 10
-54.96531483557302
 20
4.635499999999933
 30
0.0
 11
-54.96531483557299
 21
-4.635500000000064
 31
0.0
  0
SOLID
  5
E1
330
DA
100
AcDbEntity
  8
치수문자_일반주서
 62
     0
100
AcDbTrace
 10
-54.41498150223968
 20
4.635499999999935
 30
0.0
 11
-55.51564816890635
 21
4.635499999999931
 31
0.0
 12
-54.96531483557303
 22
7.937499999999932
 32
0.0
 13
-54.96531483557303
 23
7.937499999999932
 33
0.0
  0
SOLID
  5
E2
330
DA
100
AcDbEntity
  8
치수문자_일반주서
 62
     0
100
AcDbTrace
 10
-55.51564816890632
 20
-4.635500000000066
 30
0.0
 11
-54.41498150223966
 21
-4.635500000000063
 31
0.0
 12
-54.96531483557298
 22
-7.937500000000064
 32
0.0
 13
-54.96531483557298
 23
-7.937500000000064
 33
0.0
  0
MTEXT
  5
E3
330
DA
100
AcDbEntity
  8
치수문자_일반주서
 62
     0
100
AcDbMText
 10
-59.3403148355731
 20
25.45824999999992
 30
0.0
 40
3.5
 41
0.0
 71
     2
 72
     1
  1
\A1;%%c15.88 [5/8]
  7
SLDTEXTSTYLE0
 11
-3.580687802255623E-15
 21
1.0
 31
0.0
 73
     1
 44
1.0
  0
POINT
  5
E4
330
DA
100
AcDbEntity
  8
Defpoints
 62
     0
100
AcDbPoint
 10
-41.47499999999998
 20
7.937499999999983
 30
0.0
  0
POINT
  5
E5
330
DA
100
AcDbEntity
  8
Defpoints
 62
     0
100
AcDbPoint
 10
-41.47499999999998
 20
-7.937500000000017
 30
0.0
  0
POINT
  5
2B4
330
DA
100
AcDbEntity
  8
Defpoints
 62
     0
100
AcDbPoint
 10
-54.96531483557297
 20
-7.937500000000068
 30
0.0
  0
ENDBLK
  5
DC
330
DA
100
AcDbEntity
  8
0
100
AcDbBlockEnd
  0
BLOCK
  5
EF
330
EE
100
AcDbEntity
  8
0
100
AcDbBlockBegin
  2
_D_2
 70
     0
 10
0.0
 20
0.0
 30
0.0
  3
_D_2
  1
_D_2
  0
LINE
  5
F1
330
EE
100
AcDbEntity
  8
치수문자_일반주서
 62
     0
370
    -2
100
AcDbLine
 10
34.22500000000002
 20
7.999999999999999
 30
0.0
 11
34.22500000000002
 21
16.61419826837648
 31
0.0
  0
LINE
  5
F2
330
EE
100
AcDbEntity
  8
치수문자_일반주서
 62
     0
370
    -2
100
AcDbLine
 10
12.00000000000001
 20
7.999999999999997
 30
0.0
 11
12.00000000000001
 21
16.61419826837648
 31
0.0
  0
LINE
  5
F3
330
EE
100
AcDbEntity
  8
치수문자_일반주서
 62
     0
370
    -2
100
AcDbLine
 10
30.92300000000002
 20
16.61419826837648
 30
0.0
 11
15.30200000000001
 21
16.61419826837648
 31
0.0
  0
SOLID
  5
F4
330
EE
100
AcDbEntity
  8
치수문자_일반주서
 62
     0
100
AcDbTrace
 10
30.92300000000002
 20
16.06386493504315
 30
0.0
 11
30.92300000000002
 21
17.16453160170982
 31
0.0
 12
34.22500000000002
 22
16.61419826837648
 32
0.0
 13
34.22500000000002
 23
16.61419826837648
 33
0.0
  0
SOLID
  5
F5
330
EE
100
AcDbEntity
  8
치수문자_일반주서
 62
     0
100
AcDbTrace
 10
15.30200000000001
 20
17.16453160170982
 30
0.0
 11
15.30200000000001
 21
16.06386493504315
 31
0.0
 12
12.00000000000001
 22
16.61419826837648
 32
0.0
 13
12.00000000000001
 23
16.61419826837648
 33
0.0
  0
MTEXT
  5
F6
330
EE
100
AcDbEntity
  8
치수문자_일반주서
 62
     0
100
AcDbMText
 10
23.82303050222464
 20
20.98919826837648
 30
0.0
 40
3.5
 41
0.0
 71
     2
 72
     1
  1
\A1;22.23 [7/8]
  7
SLDTEXTSTYLE0
 73
     1
 44
1.0
  0
POINT
  5
F7
330
EE
100
AcDbEntity
  8
Defpoints
 62
     0
100
AcDbPoint
 10
34.22500000000002
 20
7.937499999999999
 30
0.0
  0
POINT
  5
F8
330
EE
100
AcDbEntity
  8
Defpoints
 62
     0
100
AcDbPoint
 10
12.00000000000001
 20
7.937499999999997
 30
0.0
  0
POINT
  5
F9
330
EE
100
AcDbEntity
  8
Defpoints
 62
     0
100
AcDbPoint
 10
12.00000000000001
 20
16.61419826837648
 30
0.0
  0
ENDBLK
  5
F0
330
EE
100
AcDbEntity
  8
0
100
AcDbBlockEnd
  0
BLOCK
  5
105
330
104
100
AcDbEntity
  8
0
100
AcDbBlockBegin
  2
_D_3
 70
     0
 10
0.0
 20
0.0
 30
0.0
  3
_D_3
  1
_D_3
  0
LINE
  5
107
330
104
100
AcDbEntity
  8
치수문자_일반주서
 62
     0
370
    -2
100
AcDbLine
 10
34.28750000000002
 20
7.937499999999999
 30
0.0
 11
48.8500000000001
 21
7.937500000000053
 31
0.0
  0
LINE
  5
108
330
104
100
AcDbEntity
  8
치수문자_일반주서
 62
     0
370
    -2
100
AcDbLine
 10
34.28750000000002
 20
-7.937499999999983
 30
0.0
 11
48.85000000000016
 21
-7.937499999999925
 31
0.0
  0
LINE
  5
109
330
104
100
AcDbEntity
  8
치수문자_일반주서
 62
     0
370
    -2
100
AcDbLine
 10
48.8500000000001
 20
7.937500000000053
 30
0.0
 11
48.84999999999997
 21
43.4445209742492
 31
0.0
  0
LINE
  5
10A
330
104
100
AcDbEntity
  8
치수문자_일반주서
 62
     0
370
    -2
100
AcDbLine
 10
48.85000000000012
 20
4.635500000000054
 30
0.0
 11
48.85000000000014
 21
-4.635499999999926
 31
0.0
  0
SOLID
  5
10B
330
104
100
AcDbEntity
  8
치수문자_일반주서
 62
     0
100
AcDbTrace
 10
49.40033333333345
 20
4.635500000000055
 30
0.0
 11
48.29966666666678
 21
4.635500000000052
 31
0.0
 12
48.8500000000001
 22
7.937500000000053
 32
0.0
 13
48.8500000000001
 23
7.937500000000053
 33
0.0
  0
SOLID
  5
10C
330
104
100
AcDbEntity
  8
치수문자_일반주서
 62
     0
100
AcDbTrace
 10
48.29966666666681
 20
-4.635499999999928
 30
0.0
 11
49.40033333333348
 21
-4.635499999999924
 31
0.0
 12
48.85000000000016
 22
-7.937499999999925
 32
0.0
 13
48.85000000000016
 23
-7.937499999999925
 33
0.0
  0
MTEXT
  5
10D
330
104
100
AcDbEntity
  8
치수문자_일반주서
 62
     0
100
AcDbMText
 10
44.47500000000002
 20
29.44452097424918
 30
0.0
 40
3.5
 41
0.0
 71
     2
 72
     1
  1
\A1;%%c15.88 [5/8]
  7
SLDTEXTSTYLE0
 11
-3.580687802255627E-15
 21
1.0
 31
0.0
 73
     1
 44
1.0
  0
POINT
  5
10E
330
104
100
AcDbEntity
  8
Defpoints
 62
     0
100
AcDbPoint
 10
34.22500000000002
 20
7.937499999999999
 30
0.0
  0
POINT
  5
10F
330
104
100
AcDbEntity
  8
Defpoints
 62
     0
100
AcDbPoint
 10
34.22500000000002
 20
-7.937499999999983
 30
0.0
  0
POINT
  5
110
330
104
100
AcDbEntity
  8
Defpoints
 62
     0
100
AcDbPoint
 10
48.85000000000016
 20
-7.937499999999928
 30
0.0
  0
ENDBLK
  5
106
330
104
100
AcDbEntity
  8
0
100
AcDbBlockEnd
  0
BLOCK
  5
11E
330
11D
100
AcDbEntity
  8
0
100
AcDbBlockBegin
  2
SW_DOWELSYMBOL_0
 70
     0
 10
0.0
 20
0.0
 30
0.0
  3
SW_DOWELSYMBOL_0
  1
SW_DOWELSYMBOL_0
  0
CIRCLE
  5
120
330
11D
100
AcDbEntity
  8
해칭선
 62
     0
100
AcDbCircle
 10
0.0
 20
0.0
 30
0.0
 40
3.000000000000003
  0
HATCH
  5
121
330
11D
100
AcDbEntity
  8
0
  6
Continuous
 62
     0
370
     0
100
AcDbHatch
 10
0.0
 20
0.0
 30
0.0
210
0.0
220
0.0
230
1.0
  2
SOLID
 70
     1
 71
     0
 91
        1
 92
        0
 93
        3
 72
     2
 10
0.0
 20
0.0
 40
3.000000000000003
 50
0.0
 51
90.0
 73
     1
 72
     1
 10
0.0
 20
3.000000000000003
 11
0.0
 21
0.0
 72
     1
 10
0.0
 20
0.0
 11
3.000000000000003
 21
0.0
 97
        0
 75
     0
 76
     1
 98
        1
 10
0.0
 20
0.0
  0
HATCH
  5
122
330
11D
100
AcDbEntity
  8
0
  6
Continuous
 62
     0
370
     0
100
AcDbHatch
 10
0.0
 20
0.0
 30
0.0
210
0.0
220
0.0
230
1.0
  2
SOLID
 70
     1
 71
     0
 91
        1
 92
        0
 93
        3
 72
     2
 10
0.0
 20
0.0
 40
3.000000000000003
 50
180.0
 51
270.0000000000008
 73
     1
 72
     1
 10
0.0
 20
-3.000000000000003
 11
0.0
 21
0.0
 72
     1
 10
0.0
 20
0.0
 11
-3.000000000000003
 21
0.0
 97
        0
 75
     0
 76
     1
 98
        1
 10
0.0
 20
0.0
  0
ENDBLK
  5
11F
330
11D
100
AcDbEntity
  8
0
100
AcDbBlockEnd
  0
BLOCK
  5
1E0
330
1DF
100
AcDbEntity
  8
0
100
AcDbBlockBegin
  2
_D_4
 70
     0
 10
0.0
 20
0.0
 30
0.0
  3
_D_4
  1
_D_4
  0
LINE
  5
1E1
330
1DF
100
AcDbEntity
  8
치수문자_일반주서
 62
     0
370
    -2
100
AcDbLine
 10
102.4375000000001
 20
36.22143424691529
 30
0.0
 11
117.3750000000001
 21
36.22143424691535
 31
0.0
  0
LINE
  5
1E2
330
1DF
100
AcDbEntity
  8
치수문자_일반주서
 62
     0
370
    -2
100
AcDbLine
 10
102.4375000000001
 20
22.22143424691529
 30
0.0
 11
117.3750000000001
 21
22.22143424691535
 31
0.0
  0
LINE
  5
1E3
330
1DF
100
AcDbEntity
  8
치수문자_일반주서
 62
     0
370
    -2
100
AcDbLine
 10
117.3750000000001
 20
36.22143424691535
 30
0.0
 11
117.3750000000001
 21
22.22143424691535
 31
0.0
  0
LINE
  5
1E4
330
1DF
100
AcDbEntity
  8
치수문자_일반주서
 62
     0
370
    -2
100
AcDbLine
 10
117.3750000000001
 20
39.52343424691535
 30
0.0
 11
117.375
 21
42.82543424691535
 31
0.0
  0
LINE
  5
1E5
330
1DF
100
AcDbEntity
  8
치수문자_일반주서
 62
     0
370
    -2
100
AcDbLine
 10
117.3750000000001
 20
18.91943424691535
 30
0.0
 11
117.3750000000001
 21
15.61743424691535
 31
0.0
  0
SOLID
  5
1E6
330
1DF
100
AcDbEntity
  8
치수문자_일반주서
 62
     0
100
AcDbTrace
 10
116.8246666666667
 20
39.52343424691535
 30
0.0
 11
117.9253333333334
 21
39.52343424691535
 31
0.0
 12
117.3750000000001
 22
36.22143424691535
 32
0.0
 13
117.3750000000001
 23
36.22143424691535
 33
0.0
  0
SOLID
  5
1E7
330
1DF
100
AcDbEntity
  8
치수문자_일반주서
 62
     0
100
AcDbTrace
 10
117.9253333333335
 20
18.91943424691535
 30
0.0
 11
116.8246666666668
 21
18.91943424691535
 31
0.0
 12
117.3750000000001
 22
22.22143424691535
 32
0.0
 13
117.3750000000001
 23
22.22143424691535
 33
0.0
  0
MTEXT
  5
1E8
330
1DF
100
AcDbEntity
  8
치수문자_일반주서
 62
     0
100
AcDbMText
 10
113.0000000000001
 20
29.28713862862833
 30
0.0
 40
3.5
 41
0.0
 71
     2
 72
     1
  1
\A1;%%c14 [0.55]
  7
SLDTEXTSTYLE0
 11
-3.045183153257572E-15
 21
1.0
 31
0.0
 73
     1
 44
1.0
  0
POINT
  5
1E9
330
1DF
100
AcDbEntity
  8
Defpoints
 62
     0
100
AcDbPoint
 10
102.3750000000001
 20
36.22143424691529
 30
0.0
  0
POINT
  5
1EA
330
1DF
100
AcDbEntity
  8
Defpoints
 62
     0
100
AcDbPoint
 10
102.3750000000001
 20
22.22143424691529
 30
0.0
  0
POINT
  5
1EB
330
1DF
100
AcDbEntity
  8
Defpoints
 62
     0
100
AcDbPoint
 10
117.3750000000001
 20
22.22143424691535
 30
0.0
  0
ENDBLK
  5
1EC
330
1DF
100
AcDbEntity
  8
0
100
AcDbBlockEnd
  0
BLOCK
  5
1FA
330
1F9
100
AcDbEntity
  8
0
100
AcDbBlockBegin
  2
*D9
 70
     1
 10
0.0
 20
0.0
 30
0.0
  3
*D9
  1
*D8
  0
LINE
  5
1FB
330
1F9
100
AcDbEntity
  8
치수문자_일반주서
 62
     0
370
    -2
100
AcDbLine
 10
103.8657751816695
 20
19.48229575403651
 30
0.0
 11
119.6194267469468
 21
-6.150060756304035
 31
0.0
  0
MTEXT
  5
1FC
330
1F9
100
AcDbEntity
  8
치수문자_일반주서
 62
     0
100
AcDbMText
 10
115.6706384014277
 20
5.288158154535728
 30
0.0
 40
3.5
 41
0.0
 71
     5
 72
     1
  1
\A1;R.5 [R0.02]
  7
SLDTEXTSTYLE0
 11
0.5236126201129557
 21
-0.8519564684057781
 31
0.0
 73
     1
 44
1.0
  0
LINE
  5
1FD
330
1F9
100
AcDbEntity
  8
치수문자_일반주서
 62
     0
370
    -2
100
AcDbLine
 10
101.875
 20
22.72143424691529
 30
0.0
 11
102.1368063100565
 21
22.29545601271239
 31
0.0
  0
SOLID
  5
1FE
330
1F9
100
AcDbEntity
  8
치수문자_일반주서
 62
     0
100
AcDbTrace
 10
104.3346352247821
 20
19.77045723263868
 30
0.0
 11
103.3969151385569
 21
19.19413427543435
 31
0.0
 12
102.1368063100565
 22
22.29545601271239
 32
0.0
 13
102.1368063100565
 23
22.29545601271239
 33
0.0
  0
POINT
  5
1FF
330
1F9
100
AcDbEntity
  8
Defpoints
 62
     0
100
AcDbPoint
 10
102.1368063100565
 20
22.29545601271239
 30
0.0
  0
POINT
  5
22B
330
1F9
100
AcDbEntity
  8
Defpoints
 62
     0
100
AcDbPoint
 10
101.875
 20
22.72143424691529
 30
0.0
  0
ENDBLK
  5
200
330
1F9
100
AcDbEntity
  8
0
100
AcDbBlockEnd
  0
BLOCK
  5
206
330
205
100
AcDbEntity
  8
0
100
AcDbBlockBegin
  2
*D10
 70
     1
 10
0.0
 20
0.0
 30
0.0
  3
*D10
  1
*D10
  0
LINE
  5
208
330
205
100
AcDbEntity
  8
치수문자_일반주서
 62
     0
370
    -2
100
AcDbLine
 10
19.37500000000004
 20
35.78393424691529
 30
0.0
 11
19.37500000000004
 21
70.88391841499404
 31
0.0
  0
LINE
  5
209
330
205
100
AcDbEntity
  8
치수문자_일반주서
 62
     0
370
    -2
100
AcDbLine
 10
102.3750000000001
 20
36.34643424691529
 30
0.0
 11
102.3750000000001
 21
70.88391841499404
 31
0.0
  0
LINE
  5
20A
330
205
100
AcDbEntity
  8
치수문자_일반주서
 62
     0
370
    -2
100
AcDbLine
 10
22.67700000000004
 20
70.88391841499404
 30
0.0
 11
99.07300000000006
 21
70.88391841499404
 31
0.0
  0
SOLID
  5
20B
330
205
100
AcDbEntity
  8
치수문자_일반주서
 62
     0
100
AcDbTrace
 10
22.67700000000004
 20
71.43425174832737
 30
0.0
 11
22.67700000000004
 21
70.33358508166071
 31
0.0
 12
19.37500000000004
 22
70.88391841499404
 32
0.0
 13
19.37500000000004
 23
70.88391841499404
 33
0.0
  0
SOLID
  5
20C
330
205
100
AcDbEntity
  8
치수문자_일반주서
 62
     0
100
AcDbTrace
 10
99.07300000000006
 20
70.33358508166071
 30
0.0
 11
99.07300000000006
 21
71.43425174832737
 31
0.0
 12
102.3750000000001
 22
70.88391841499404
 32
0.0
 13
102.3750000000001
 23
70.88391841499404
 33
0.0
  0
MTEXT
  5
20D
330
205
100
AcDbEntity
  8
치수문자_일반주서
 62
     0
100
AcDbMText
 10
60.87500000000005
 20
75.25891841499404
 30
0.0
 40
3.5
 41
0.0
 71
     2
 72
     1
  1
\A1;83.00 [3.27]
  7
SLDTEXTSTYLE0
 73
     1
 44
1.0
  0
POINT
  5
20E
330
205
100
AcDbEntity
  8
Defpoints
 62
     0
100
AcDbPoint
 10
19.37500000000004
 20
35.72143424691529
 30
0.0
  0
POINT
  5
20F
330
205
100
AcDbEntity
  8
Defpoints
 62
     0
100
AcDbPoint
 10
102.3750000000001
 20
36.28393424691529
 30
0.0
  0
POINT
  5
210
330
205
100
AcDbEntity
  8
Defpoints
 62
     0
100
AcDbPoint
 10
102.3750000000001
 20
70.88391841499404
 30
0.0
  0
ENDBLK
  5
207
330
205
100
AcDbEntity
  8
0
100
AcDbBlockEnd
  0
BLOCK
  5
212
330
211
100
AcDbEntity
  8
0
100
AcDbBlockBegin
  2
*D11
 70
     1
 10
0.0
 20
0.0
 30
0.0
  3
*D11
  1
*D11
  0
LINE
  5
214
330
211
100
AcDbEntity
  8
치수문자_일반주서
 62
     0
370
    -2
100
AcDbLine
 10
76.37504186422882
 20
28.62038676313042
 30
0.0
 11
76.37504186422882
 21
61.90091383617725
 31
0.0
  0
LINE
  5
215
330
211
100
AcDbEntity
  8
치수문자_일반주서
 62
     0
370
    -2
100
AcDbLine
 10
102.3750000000001
 20
36.28393424691529
 30
0.0
 11
102.3750000000001
 21
61.90091383617725
 31
0.0
  0
LINE
  5
216
330
211
100
AcDbEntity
  8
치수문자_일반주서
 62
     0
370
    -2
100
AcDbLine
 10
79.67704186422881
 20
61.90091383617725
 30
0.0
 11
99.07300000000006
 21
61.90091383617725
 31
0.0
  0
SOLID
  5
217
330
211
100
AcDbEntity
  8
치수문자_일반주서
 62
     0
100
AcDbTrace
 10
79.67704186422881
 20
62.45124716951059
 30
0.0
 11
79.67704186422881
 21
61.35058050284392
 31
0.0
 12
76.37504186422882
 22
61.90091383617725
 32
0.0
 13
76.37504186422882
 23
61.90091383617725
 33
0.0
  0
SOLID
  5
218
330
211
100
AcDbEntity
  8
치수문자_일반주서
 62
     0
100
AcDbTrace
 10
99.07300000000006
 20
61.35058050284392
 30
0.0
 11
99.07300000000006
 21
62.45124716951059
 31
0.0
 12
102.3750000000001
 22
61.90091383617725
 32
0.0
 13
102.3750000000001
 23
61.90091383617725
 33
0.0
  0
MTEXT
  5
219
330
211
100
AcDbEntity
  8
치수문자_일반주서
 62
     0
100
AcDbMText
 10
89.42159572693208
 20
66.27591383617725
 30
0.0
 40
3.5
 41
0.0
 71
     2
 72
     1
  1
\A1;26.00 [1.02]
  7
SLDTEXTSTYLE0
 73
     1
 44
1.0
  0
POINT
  5
21A
330
211
100
AcDbEntity
  8
Defpoints
 62
     0
100
AcDbPoint
 10
76.37504186422882
 20
28.55788676313042
 30
0.0
  0
POINT
  5
21B
330
211
100
AcDbEntity
  8
Defpoints
 62
     0
100
AcDbPoint
 10
102.3750000000001
 20
36.22143424691529
 30
0.0
  0
POINT
  5
21C
330
211
100
AcDbEntity
  8
Defpoints
 62
     0
100
AcDbPoint
 10
102.3750000000001
 20
61.90091383617725
 30
0.0
  0
ENDBLK
  5
213
330
211
100
AcDbEntity
  8
0
100
AcDbBlockEnd
  0
BLOCK
  5
21E
330
21D
100
AcDbEntity
  8
0
100
AcDbBlockBegin
  2
*D12
 70
     1
 10
0.0
 20
0.0
 30
0.0
  3
*D12
  1
*D12
  0
LINE
  5
220
330
21D
100
AcDbEntity
  8
치수문자_일반주서
 62
     0
370
    -2
100
AcDbLine
 10
19.81250000000005
 20
36.22143424691529
 30
0.0
 11
4.374999999999983
 21
36.22143424691524
 31
0.0
  0
LINE
  5
221
330
21D
100
AcDbEntity
  8
치수문자_일반주서
 62
     0
370
    -2
100
AcDbLine
 10
19.81250000000005
 20
22.22143424691529
 30
0.0
 11
4.375000000000032
 21
22.22143424691524
 31
0.0
  0
LINE
  5
222
330
21D
100
AcDbEntity
  8
치수문자_일반주서
 62
     0
370
    -2
100
AcDbLine
 10
4.374999999999983
 20
36.22143424691524
 30
0.0
 11
4.375000000000032
 21
22.22143424691524
 31
0.0
  0
LINE
  5
223
330
21D
100
AcDbEntity
  8
치수문자_일반주서
 62
     0
370
    -2
100
AcDbLine
 10
4.374999999999972
 20
39.52343424691524
 30
0.0
 11
4.37499999999996
 21
42.82543424691524
 31
0.0
  0
LINE
  5
224
330
21D
100
AcDbEntity
  8
치수문자_일반주서
 62
     0
370
    -2
100
AcDbLine
 10
4.375000000000044
 20
18.91943424691524
 30
0.0
 11
4.375000000000055
 21
15.61743424691524
 31
0.0
  0
SOLID
  5
225
330
21D
100
AcDbEntity
  8
치수문자_일반주서
 62
     0
100
AcDbTrace
 10
3.824666666666638
 20
39.52343424691524
 30
0.0
 11
4.925333333333305
 21
39.52343424691524
 31
0.0
 12
4.374999999999983
 22
36.22143424691524
 32
0.0
 13
4.374999999999983
 23
36.22143424691524
 33
0.0
  0
SOLID
  5
226
330
21D
100
AcDbEntity
  8
치수문자_일반주서
 62
     0
100
AcDbTrace
 10
4.925333333333377
 20
18.91943424691524
 30
0.0
 11
3.82466666666671
 21
18.91943424691523
 31
0.0
 12
4.375000000000032
 22
22.22143424691524
 32
0.0
 13
4.375000000000032
 23
22.22143424691524
 33
0.0
  0
MTEXT
  5
227
330
21D
100
AcDbEntity
  8
치수문자_일반주서
 62
     0
100
AcDbMText
 10
0.0000000000000071
 20
29.22143424691528
 30
0.0
 40
3.5
 41
0.0
 71
     2
 72
     1
  1
\A1;%%c14 [0.55]
  7
SLDTEXTSTYLE0
 11
-3.489272363107635E-15
 21
1.0
 31
0.0
 73
     1
 44
1.0
  0
POINT
  5
228
330
21D
100
AcDbEntity
  8
Defpoints
 62
     0
100
AcDbPoint
 10
19.87500000000005
 20
36.22143424691529
 30
0.0
  0
POINT
  5
229
330
21D
100
AcDbEntity
  8
Defpoints
 62
     0
100
AcDbPoint
 10
19.87500000000005
 20
22.22143424691529
 30
0.0
  0
POINT
  5
22A
330
21D
100
AcDbEntity
  8
Defpoints
 62
     0
100
AcDbPoint
 10
4.375000000000043
 20
22.22143424691524
 30
0.0
  0
ENDBLK
  5
21F
330
21D
100
AcDbEntity
  8
0
100
AcDbBlockEnd
  0
BLOCK
  5
278
330
277
100
AcDbEntity
  8
0
100
AcDbBlockBegin
  2
*D13
 70
     1
 10
0.0
 20
0.0
 30
0.0
  3
*D13
  1
*D13
  0
LINE
  5
27A
330
277
100
AcDbEntity
  8
치수문자_일반주서
 62
     0
370
    -2
100
AcDbLine
 10
-56.08671242997323
 20
94.38502477785312
 30
0.0
 11
-56.08671242997323
 21
129.4850089459319
 31
0.0
  0
LINE
  5
27B
330
277
100
AcDbEntity
  8
치수문자_일반주서
 62
     0
370
    -2
100
AcDbLine
 10
26.91328757002678
 20
94.94752477785313
 30
0.0
 11
26.91328757002678
 21
129.4850089459319
 31
0.0
  0
LINE
  5
27C
330
277
100
AcDbEntity
  8
치수문자_일반주서
 62
     0
370
    -2
100
AcDbLine
 10
-52.78471242997323
 20
129.4850089459319
 30
0.0
 11
23.61128757002678
 21
129.4850089459319
 31
0.0
  0
SOLID
  5
27D
330
277
100
AcDbEntity
  8
치수문자_일반주서
 62
     0
100
AcDbTrace
 10
-52.78471242997323
 20
130.0353422792652
 30
0.0
 11
-52.78471242997323
 21
128.9346756125986
 31
0.0
 12
-56.08671242997323
 22
129.4850089459319
 32
0.0
 13
-56.08671242997323
 23
129.4850089459319
 33
0.0
  0
SOLID
  5
27E
330
277
100
AcDbEntity
  8
치수문자_일반주서
 62
     0
100
AcDbTrace
 10
23.61128757002678
 20
128.9346756125986
 30
0.0
 11
23.61128757002678
 21
130.0353422792652
 31
0.0
 12
26.91328757002678
 22
129.4850089459319
 32
0.0
 13
26.91328757002678
 23
129.4850089459319
 33
0.0
  0
MTEXT
  5
27F
330
277
100
AcDbEntity
  8
치수문자_일반주서
 62
     0
100
AcDbMText
 10
-14.58671242997323
 20
133.8600089459319
 30
0.0
 40
3.5
 41
0.0
 71
     2
 72
     1
  1
\A1;83.00 [3.27]
  7
SLDTEXTSTYLE0
 73
     1
 44
1.0
  0
POINT
  5
280
330
277
100
AcDbEntity
  8
Defpoints
 62
     0
100
AcDbPoint
 10
-56.08671242997323
 20
94.32252477785312
 30
0.0
  0
POINT
  5
281
330
277
100
AcDbEntity
  8
Defpoints
 62
     0
100
AcDbPoint
 10
26.91328757002678
 20
94.88502477785313
 30
0.0
  0
POINT
  5
282
330
277
100
AcDbEntity
  8
Defpoints
 62
     0
100
AcDbPoint
 10
26.91328757002678
 20
129.4850089459319
 30
0.0
  0
ENDBLK
  5
279
330
277
100
AcDbEntity
  8
0
100
AcDbBlockEnd
  0
BLOCK
  5
284
330
283
100
AcDbEntity
  8
0
100
AcDbBlockBegin
  2
*D14
 70
     1
 10
0.0
 20
0.0
 30
0.0
  3
*D14
  1
*D14
  0
LINE
  5
286
330
283
100
AcDbEntity
  8
치수문자_일반주서
 62
     0
370
    -2
100
AcDbLine
 10
0.9133294342555445
 20
87.22147729406826
 30
0.0
 11
0.9133294342555445
 21
120.5020043671151
 31
0.0
  0
LINE
  5
287
330
283
100
AcDbEntity
  8
치수문자_일반주서
 62
     0
370
    -2
100
AcDbLine
 10
26.91328757002678
 20
94.88502477785313
 30
0.0
 11
26.91328757002678
 21
120.5020043671151
 31
0.0
  0
LINE
  5
288
330
283
100
AcDbEntity
  8
치수문자_일반주서
 62
     0
370
    -2
100
AcDbLine
 10
4.215329434255544
 20
120.5020043671151
 30
0.0
 11
23.61128757002678
 21
120.5020043671151
 31
0.0
  0
SOLID
  5
289
330
283
100
AcDbEntity
  8
치수문자_일반주서
 62
     0
100
AcDbTrace
 10
4.215329434255544
 20
121.0523377004484
 30
0.0
 11
4.215329434255544
 21
119.9516710337818
 31
0.0
 12
0.9133294342555445
 22
120.5020043671151
 32
0.0
 13
0.9133294342555445
 23
120.5020043671151
 33
0.0
  0
SOLID
  5
28A
330
283
100
AcDbEntity
  8
치수문자_일반주서
 62
     0
100
AcDbTrace
 10
23.61128757002678
 20
119.9516710337818
 30
0.0
 11
23.61128757002678
 21
121.0523377004484
 31
0.0
 12
26.91328757002678
 22
120.5020043671151
 32
0.0
 13
26.91328757002678
 23
120.5020043671151
 33
0.0
  0
MTEXT
  5
28B
330
283
100
AcDbEntity
  8
치수문자_일반주서
 62
     0
100
AcDbMText
 10
13.95988329695881
 20
124.8770043671151
 30
0.0
 40
3.5
 41
0.0
 71
     2
 72
     1
  1
\A1;26.00 [1.02]
  7
SLDTEXTSTYLE0
 73
     1
 44
1.0
  0
POINT
  5
28C
330
283
100
AcDbEntity
  8
Defpoints
 62
     0
100
AcDbPoint
 10
0.9133294342555445
 20
87.15897729406826
 30
0.0
  0
POINT
  5
28D
330
283
100
AcDbEntity
  8
Defpoints
 62
     0
100
AcDbPoint
 10
26.91328757002678
 20
94.82252477785313
 30
0.0
  0
POINT
  5
28E
330
283
100
AcDbEntity
  8
Defpoints
 62
     0
100
AcDbPoint
 10
26.91328757002678
 20
120.5020043671151
 30
0.0
  0
ENDBLK
  5
285
330
283
100
AcDbEntity
  8
0
100
AcDbBlockEnd
  0
BLOCK
  5
290
330
28F
100
AcDbEntity
  8
0
100
AcDbBlockBegin
  2
*D15
 70
     1
 10
0.0
 20
0.0
 30
0.0
  3
*D15
  1
*D15
  0
LINE
  5
292
330
28F
100
AcDbEntity
  8
치수문자_일반주서
 62
     0
370
    -2
100
AcDbLine
 10
-55.64921242997323
 20
94.82252477785313
 30
0.0
 11
-71.08671242997328
 21
94.82252477785308
 31
0.0
  0
LINE
  5
293
330
28F
100
AcDbEntity
  8
치수문자_일반주서
 62
     0
370
    -2
100
AcDbLine
 10
-55.64921242997323
 20
80.82252477785313
 30
0.0
 11
-71.08671242997323
 21
80.82252477785308
 31
0.0
  0
LINE
  5
294
330
28F
100
AcDbEntity
  8
치수문자_일반주서
 62
     0
370
    -2
100
AcDbLine
 10
-71.08671242997328
 20
94.82252477785308
 30
0.0
 11
-71.08671242997323
 21
80.82252477785308
 31
0.0
  0
LINE
  5
295
330
28F
100
AcDbEntity
  8
치수문자_일반주서
 62
     0
370
    -2
100
AcDbLine
 10
-71.08671242997329
 20
98.12452477785308
 30
0.0
 11
-71.0867124299733
 21
101.4265247778531
 31
0.0
  0
LINE
  5
296
330
28F
100
AcDbEntity
  8
치수문자_일반주서
 62
     0
370
    -2
100
AcDbLine
 10
-71.08671242997322
 20
77.52052477785307
 30
0.0
 11
-71.0867124299732
 21
74.21852477785308
 31
0.0
  0
SOLID
  5
297
330
28F
100
AcDbEntity
  8
치수문자_일반주서
 62
     0
100
AcDbTrace
 10
-71.63704576330662
 20
98.12452477785308
 30
0.0
 11
-70.53637909663996
 21
98.12452477785308
 31
0.0
 12
-71.08671242997328
 22
94.82252477785308
 32
0.0
 13
-71.08671242997328
 23
94.82252477785308
 33
0.0
  0
SOLID
  5
298
330
28F
100
AcDbEntity
  8
치수문자_일반주서
 62
     0
100
AcDbTrace
 10
-70.53637909663989
 20
77.52052477785307
 30
0.0
 11
-71.63704576330655
 21
77.52052477785307
 31
0.0
 12
-71.08671242997323
 22
80.82252477785308
 32
0.0
 13
-71.08671242997323
 23
80.82252477785308
 33
0.0
  0
MTEXT
  5
299
330
28F
100
AcDbEntity
  8
치수문자_일반주서
 62
     0
100
AcDbMText
 10
-75.46171242997326
 20
87.82252477785312
 30
0.0
 40
3.5
 41
0.0
 71
     2
 72
     1
  1
\A1;%%c14 [0.55]
  7
SLDTEXTSTYLE0
 11
-3.045183153257572E-15
 21
1.0
 31
0.0
 73
     1
 44
1.0
  0
POINT
  5
29A
330
28F
100
AcDbEntity
  8
Defpoints
 62
     0
100
AcDbPoint
 10
-55.58671242997323
 20
94.82252477785313
 30
0.0
  0
POINT
  5
29B
330
28F
100
AcDbEntity
  8
Defpoints
 62
     0
100
AcDbPoint
 10
-55.58671242997323
 20
80.82252477785313
 30
0.0
  0
POINT
  5
29C
330
28F
100
AcDbEntity
  8
Defpoints
 62
     0
100
AcDbPoint
 10
-71.08671242997325
 20
80.82252477785308
 30
0.0
  0
ENDBLK
  5
291
330
28F
100
AcDbEntity
  8
0
100
AcDbBlockEnd
  0
BLOCK
  5
29E
330
29D
100
AcDbEntity
  8
0
100
AcDbBlockBegin
  2
*D16
 70
     1
 10
0.0
 20
0.0
 30
0.0
  3
*D16
  1
*D16
  0
LINE
  5
2A0
330
29D
100
AcDbEntity
  8
치수문자_일반주서
 62
     0
370
    -2
100
AcDbLine
 10
26.9757875700268
 20
94.82252477785313
 30
0.0
 11
41.91328757002679
 21
94.82252477785319
 31
0.0
  0
LINE
  5
2A1
330
29D
100
AcDbEntity
  8
치수문자_일반주서
 62
     0
370
    -2
100
AcDbLine
 10
26.97578757002678
 20
80.82252477785313
 30
0.0
 11
41.91328757002684
 21
80.82252477785319
 31
0.0
  0
LINE
  5
2A2
330
29D
100
AcDbEntity
  8
치수문자_일반주서
 62
     0
370
    -2
100
AcDbLine
 10
41.91328757002679
 20
94.82252477785319
 30
0.0
 11
41.91328757002684
 21
80.82252477785319
 31
0.0
  0
LINE
  5
2A3
330
29D
100
AcDbEntity
  8
치수문자_일반주서
 62
     0
370
    -2
100
AcDbLine
 10
41.91328757002677
 20
98.1245247778532
 30
0.0
 11
41.91328757002676
 21
101.4265247778532
 31
0.0
  0
LINE
  5
2A4
330
29D
100
AcDbEntity
  8
치수문자_일반주서
 62
     0
370
    -2
100
AcDbLine
 10
41.91328757002685
 20
77.52052477785318
 30
0.0
 11
41.91328757002687
 21
74.21852477785319
 31
0.0
  0
SOLID
  5
2A5
330
29D
100
AcDbEntity
  8
치수문자_일반주서
 62
     0
100
AcDbTrace
 10
41.36295423669344
 20
98.1245247778532
 30
0.0
 11
42.46362090336011
 21
98.1245247778532
 31
0.0
 12
41.91328757002679
 22
94.82252477785319
 32
0.0
 13
41.91328757002679
 23
94.82252477785319
 33
0.0
  0
SOLID
  5
2A6
330
29D
100
AcDbEntity
  8
치수문자_일반주서
 62
     0
100
AcDbTrace
 10
42.46362090336019
 20
77.52052477785318
 30
0.0
 11
41.36295423669352
 21
77.52052477785318
 31
0.0
 12
41.91328757002684
 22
80.82252477785319
 32
0.0
 13
41.91328757002684
 23
80.82252477785319
 33
0.0
  0
MTEXT
  5
2A7
330
29D
100
AcDbEntity
  8
치수문자_일반주서
 62
     0
100
AcDbMText
 10
37.53828757002681
 20
87.88822915956617
 30
0.0
 40
3.5
 41
0.0
 71
     2
 72
     1
  1
\A1;%%c14 [0.55]
  7
SLDTEXTSTYLE0
 11
-3.552713678800501E-15
 21
1.0
 31
0.0
 73
     1
 44
1.0
  0
POINT
  5
2A8
330
29D
100
AcDbEntity
  8
Defpoints
 62
     0
100
AcDbPoint
 10
26.9132875700268
 20
94.82252477785313
 30
0.0
  0
POINT
  5
2A9
330
29D
100
AcDbEntity
  8
Defpoints
 62
     0
100
AcDbPoint
 10
26.91328757002678
 20
80.82252477785313
 30
0.0
  0
POINT
  5
2AA
330
29D
100
AcDbEntity
  8
Defpoints
 62
     0
100
AcDbPoint
 10
41.91328757002684
 20
80.82252477785319
 30
0.0
  0
ENDBLK
  5
29F
330
29D
100
AcDbEntity
  8
0
100
AcDbBlockEnd
  0
BLOCK
  5
2AC
330
2AB
100
AcDbEntity
  8
0
100
AcDbBlockBegin
  2
*D17
 70
     1
 10
0.0
 20
0.0
 30
0.0
  3
*D17
  1
*D17
  0
LINE
  5
2AE
330
2AB
100
AcDbEntity
  8
치수문자_일반주서
 62
     0
370
    -2
100
AcDbLine
 10
28.40406275169623
 20
78.08338628497435
 30
0.0
 11
44.15771431697352
 21
52.4510297746338
 31
0.0
  0
MTEXT
  5
2AF
330
2AB
100
AcDbEntity
  8
치수문자_일반주서
 62
     0
100
AcDbMText
 10
40.2089259714544
 20
63.88924868547356
 30
0.0
 40
3.5
 41
0.0
 71
     5
 72
     1
  1
\A1;R.5 [R0.02]
  7
SLDTEXTSTYLE0
 11
0.5236126201129557
 21
-0.8519564684057781
 31
0.0
 73
     1
 44
1.0
  0
LINE
  5
2B0
330
2AB
100
AcDbEntity
  8
치수문자_일반주서
 62
     0
370
    -2
100
AcDbLine
 10
26.41328757002677
 20
81.32252477785313
 30
0.0
 11
26.67509388008325
 21
80.89654654365023
 31
0.0
  0
SOLID
  5
2B1
330
2AB
100
AcDbEntity
  8
치수문자_일반주서
 62
     0
100
AcDbTrace
 10
28.87292279480888
 20
78.37154776357652
 30
0.0
 11
27.93520270858359
 21
77.79522480637219
 31
0.0
 12
26.67509388008325
 22
80.89654654365023
 32
0.0
 13
26.67509388008325
 23
80.89654654365023
 33
0.0
  0
POINT
  5
2B2
330
2AB
100
AcDbEntity
  8
Defpoints
 62
     0
100
AcDbPoint
 10
26.67509388008325
 20
80.89654654365023
 30
0.0
  0
POINT
  5
2B3
330
2AB
100
AcDbEntity
  8
Defpoints
 62
     0
100
AcDbPoint
 10
26.41328757002677
 20
81.32252477785313
 30
0.0
  0
ENDBLK
  5
2AD
330
2AB
100
AcDbEntity
  8
0
100
AcDbBlockEnd
  0
ENDSEC
  0
SECTION
  2
ENTITIES
  0
LINE
  5
96
330
1F
100
AcDbEntity
  8
외형선
  6
Continuous
370
    15
100
AcDbLine
 10
12.00000000000001
 20
7.937499999999997
 30
0.0
 11
-41.47499999999998
 21
7.937499999999994
 31
0.0
  0
LINE
  5
97
330
1F
100
AcDbEntity
  8
외형선
  6
Continuous
370
    15
100
AcDbLine
 10
-41.47499999999998
 20
-7.937500000000006
 30
0.0
 11
8.950150067411435
 21
-7.937500000000003
 31
0.0
  0
LINE
  5
98
330
1F
100
AcDbEntity
  8
외형선
  6
Continuous
370
    15
100
AcDbLine
 10
-41.47499999999998
 20
7.93749999999999
 30
0.0
 11
-41.97499999999998
 21
7.437499999999989
 31
0.0
  0
LINE
  5
99
330
1F
100
AcDbEntity
  8
외형선
  6
Continuous
370
    15
100
AcDbLine
 10
-41.97499999999998
 20
-7.437500000000004
 30
0.0
 11
-41.47499999999998
 21
-7.937500000000003
 31
0.0
  0
LINE
  5
9A
330
1F
100
AcDbEntity
  8
0
  6
Continuous
 62
     1
370
    15
100
AcDbLine
 10
13.49144429876666
 20
7.937499999999999
 30
0.0
 11
12.00000000000002
 21
7.937499999999999
 31
0.0
  0
LINE
  5
9B
330
1F
100
AcDbEntity
  8
0
  6
Continuous
 62
     1
370
    15
100
AcDbLine
 10
18.96616537169101
 20
-7.937500000000004
 30
0.0
 11
27.88888440082798
 21
-7.937500000000004
 31
0.0
  0
LINE
  5
9C
330
1F
100
AcDbEntity
  8
0
  6
Continuous
 62
     1
370
    15
100
AcDbLine
 10
34.22500000000002
 20
7.937499999999999
 30
0.0
 11
33.3632411918059
 21
7.937499999999999
 31
0.0
  0
LINE
  5
9D
330
1F
100
AcDbEntity
  8
외형선
  6
Continuous
370
    15
100
AcDbLine
 10
12.00000000000001
 20
7.937499999999997
 30
0.0
 11
12.00000000000002
 21
6.806356116497454
 31
0.0
  0
SPLINE
  5
9E
330
1F
100
AcDbEntity
  8
외형선
  6
Continuous
370
    15
100
AcDbSpline
210
0.0
220
0.0
230
1.0
 70
     8
 71
     3
 72
    10
 73
     6
 74
     0
 42
0.000000001
 43
0.00000001
 40
0.0
 40
0.0
 40
0.0
 40
0.0
 40
0.5
 40
0.5
 40
1.0
 40
1.0
 40
1.0
 40
1.0
 10
12.0
 20
6.806356116497463
 30
0.0
 10
11.49158038983001
 20
6.957343077881459
 30
0.0
 10
10.98094428207522
 20
7.094549571352903
 30
0.0
 10
9.964638765009788
 20
7.338890988014922
 30
0.0
 10
9.459339638607045
 20
7.44606987783978
 30
0.0
 10
8.950150067411432
 20
7.538041289993124
 30
0.0
  0
SPLINE
  5
9F
330
1F
100
AcDbEntity
  8
외형선
  6
Continuous
370
    15
100
AcDbSpline
210
0.0
220
0.0
230
1.0
 70
     8
 71
     3
 72
    10
 73
     6
 74
     0
 42
0.000000001
 43
0.00000001
 40
0.0
 40
0.0
 40
0.0
 40
0.0
 40
0.5
 40
0.5
 40
1.0
 40
1.0
 40
1.0
 40
1.0
 10
12.0
 20
-3.200975214367443
 30
0.0
 10
11.49158038983001
 20
-2.932429790748285
 30
0.0
 10
10.98094428207522
 20
-2.65691257666366
 30
0.0
 10
9.964638765009788
 20
-2.097012278107475
 30
0.0
 10
9.459339638607045
 20
-1.812722256609642
 30
0.0
 10
8.950150067411435
 20
-1.524574487126124
 30
0.0
  0
LINE
  5
A0
330
1F
100
AcDbEntity
  8
외형선
  6
Continuous
370
    15
100
AcDbLine
 10
12.00000000000002
 20
-3.200975214367446
 30
0.0
 11
12.00000000000002
 21
-6.939852626125082
 31
0.0
  0
SPLINE
  5
A1
330
1F
100
AcDbEntity
  8
외형선
  6
Continuous
370
    15
100
AcDbSpline
210
0.0
220
0.0
230
1.0
 70
     8
 71
     3
 72
    10
 73
     6
 74
     0
 42
0.000000001
 43
0.00000001
 40
0.0
 40
0.0
 40
0.0
 40
0.0
 40
0.5
 40
0.5
 40
1.0
 40
1.0
 40
1.0
 40
1.0
 10
12.0
 20
-6.939852626125076
 30
0.0
 10
11.49158038983001
 20
-6.797414471801441
 30
0.0
 10
10.98094428207522
 20
-6.640497033578193
 30
0.0
 10
9.964638765009788
 20
-6.3006065285561
 30
0.0
 10
9.459339638607045
 20
-6.117741474250635
 30
0.0
 10
8.950150067411434
 20
-5.922246090756771
 30
0.0
  0
LINE
  5
A2
330
1F
100
AcDbEntity
  8
외형선
  6
Continuous
370
    15
100
AcDbLine
 10
8.950150067411435
 20
-5.922205271120927
 30
0.0
 11
8.950150067411435
 21
-7.937500000000003
 31
0.0
  0
LINE
  5
A3
330
1F
100
AcDbEntity
  8
외형선
  6
Continuous
370
    15
100
AcDbLine
 10
9.031426902058774
 20
-5.95126172554265
 30
0.0
 11
8.950150067411435
 21
-5.983799337737451
 31
0.0
  0
LINE
  5
A4
330
1F
100
AcDbEntity
  8
외형선
  6
Continuous
370
    15
100
AcDbLine
 10
-41.47499999999998
 20
7.93749999999999
 30
0.0
 11
-41.47499999999998
 21
-7.937500000000006
 31
0.0
  0
LINE
  5
A5
330
1F
100
AcDbEntity
  8
외형선
  6
Continuous
370
    15
100
AcDbLine
 10
8.950150067411434
 20
7.538060493410012
 30
0.0
 11
8.950150067411435
 21
-1.524581174975621
 31
0.0
  0
LINE
  5
A6
330
1F
100
AcDbEntity
  8
외형선
  6
Continuous
370
    15
100
AcDbLine
 10
-41.97499999999998
 20
7.43749999999999
 30
0.0
 11
-41.97499999999998
 21
-7.43750000000001
 31
0.0
  0
SPLINE
  5
A7
330
1F
100
AcDbEntity
  8
외형선
  6
Continuous
370
    15
100
AcDbSpline
210
0.0
220
0.0
230
1.0
 70
    24
 71
     3
 72
    20
 73
    16
 74
     0
 42
0.000000001
 43
0.00000001
 40
0.0
 40
0.0
 40
0.0
 40
0.0
 40
0.25
 40
0.25
 40
0.375
 40
0.375
 40
0.5
 40
0.5
 40
0.625
 40
0.625
 40
0.75
 40
0.75
 40
0.875
 40
0.875
 40
1.0
 40
1.0
 40
1.0
 40
1.0
 10
12.00000000000001
 20
6.806356116497454
 30
0.0
 10
12.00000000000001
 20
6.222415944412116
 30
0.0
 10
12.00000000000002
 20
5.538885830779478
 30
0.0
 10
12.00000000000001
 20
4.356157733112968
 30
0.0
 10
12.00000000000002
 20
3.936110214480332
 30
0.0
 10
12.00000000000002
 20
3.05211253141128
 30
0.0
 10
12.00000000000001
 20
2.588079169422415
 30
0.0
 10
12.00000000000002
 20
1.63335361273837
 30
0.0
 10
12.00000000000002
 20
1.142655014496309
 30
0.0
 10
12.00000000000002
 20
0.1631814055895109
 30
0.0
 10
12.00000000000002
 20
-0.3254564307647635
 30
0.0
 10
12.00000000000002
 20
-1.262611278605907
 30
0.0
 10
12.00000000000002
 20
-1.710833799960561
 30
0.0
 10
12.00000000000002
 20
-2.525861928640374
 30
0.0
 10
12.00000000000002
 20
-2.89231229912125
 30
0.0
 10
12.00000000000002
 20
-3.200975214365326
 30
0.0
  0
SPLINE
  5
A8
330
1F
100
AcDbEntity
  8
0
  6
Continuous
 62
     1
370
    15
100
AcDbSpline
210
0.0
220
0.0
230
1.0
 70
     8
 71
     3
 72
    36
 73
    32
 74
     0
 42
0.000000001
 43
0.00000001
 40
0.0
 40
0.0
 40
0.0
 40
0.0
 40
0.1249999999999996
 40
0.1249999999999996
 40
0.1874999999999996
 40
0.1874999999999996
 40
0.2499999999999996
 40
0.2499999999999996
 40
0.3124999999999996
 40
0.3124999999999996
 40
0.3749999999999996
 40
0.3749999999999996
 40
0.4374999999999996
 40
0.4374999999999996
 40
0.4999999999999997
 40
0.4999999999999997
 40
0.5624999999999997
 40
0.5624999999999997
 40
0.6249999999999998
 40
0.6249999999999998
 40
0.6874999999999998
 40
0.6874999999999998
 40
0.7499999999999998
 40
0.7499999999999998
 40
0.8124999999999999
 40
0.8124999999999999
 40
0.8749999999999999
 40
0.8749999999999999
 40
0.9375
 40
0.9375
 40
1.0
 40
1.0
 40
1.0
 40
1.0
 10
34.22500000000002
 20
-7.109119296257994
 30
0.0
 10
33.30336597593612
 20
-7.346555542752708
 30
0.0
 10
32.36945737710151
 20
-7.536358945570601
 30
0.0
 10
30.98587158838415
 20
-7.741384970071818
 30
0.0
 10
30.52143486782129
 20
-7.796832003487006
 30
0.0
 10
29.5931579669478
 20
-7.880921969207836
 30
0.0
 10
29.13062228250497
 20
-7.909551502469957
 30
0.0
 10
28.20752014292095
 20
-7.939862956435737
 30
0.0
 10
27.74292646203282
 20
-7.941562012206533
 30
0.0
 10
26.81474127567564
 20
-7.917873015947792
 30
0.0
 10
26.35290128503348
 20
-7.89253784681255
 30
0.0
 10
25.42913253597477
 20
-7.815188738853186
 30
0.0
 10
24.9644048957488
 20
-7.763059232973501
 30
0.0
 10
24.03635726228916
 20
-7.632564776316186
 30
0.0
 10
23.57510290307722
 20
-7.554343039551699
 30
0.0
 10
22.65071265790721
 20
-7.372432549601604
 30
0.0
 10
22.18587408152022
 20
-7.268587838511887
 30
0.0
 10
21.25800981669442
 20
-7.036613416675092
 30
0.0
 10
20.79723093055364
 20
-6.908721237012912
 30
0.0
 10
19.87226440440705
 20
-6.62961149263616
 30
0.0
 10
19.40733793341763
 20
-6.478273078470473
 30
0.0
 10
18.47970282278084
 20
-6.154278461722753
 30
0.0
 10
18.01928917339673
 20
-5.981938740145607
 30
0.0
 10
17.0937916758503
 20
-5.61695648786314
 30
0.0
 10
16.62880036638473
 20
-5.424282138851706
 30
0.0
 10
15.70144015778529
 20
-5.021474942016765
 30
0.0
 10
15.24128144894785
 20
-4.811705698965417
 30
0.0
 10
14.3152983766587
 20
-4.375681983541113
 30
0.0
 10
13.85026529559181
 20
-4.149514779162264
 30
0.0
 10
12.92322569165853
 20
-3.684311133710863
 30
0.0
 10
12.46321158534278
 20
-3.445641920613466
 30
0.0
 10
11.99999999999979
 20
-3.200975214367328
 30
0.0
  0
SPLINE
  5
A9
330
1F
100
AcDbEntity
  8
외형선
  6
Continuous
370
    15
100
AcDbSpline
210
0.0
220
0.0
230
1.0
 70
    24
 71
     3
 72
    20
 73
    16
 74
     0
 42
0.000000001
 43
0.00000001
 40
0.0
 40
0.0
 40
0.0
 40
0.0
 40
0.2499999999999998
 40
0.2499999999999998
 40
0.3749999999999999
 40
0.3749999999999999
 40
0.4999999999999999
 40
0.4999999999999999
 40
0.6249999999999999
 40
0.6249999999999999
 40
0.75
 40
0.75
 40
0.875
 40
0.875
 40
1.0
 40
1.0
 40
1.0
 40
1.0
 10
12.00000000000001
 20
6.806356116524147
 30
0.0
 10
12.00000000000001
 20
6.222415944439549
 30
0.0
 10
12.00000000000001
 20
5.538885830807186
 30
0.0
 10
12.00000000000001
 20
4.356157733139664
 30
0.0
 10
12.00000000000002
 20
3.936110214506454
 30
0.0
 10
12.00000000000002
 20
3.052112531435678
 30
0.0
 10
12.00000000000001
 20
2.588079169445664
 30
0.0
 10
12.00000000000002
 20
1.633353612758766
 30
0.0
 10
12.00000000000002
 20
1.142655014515
 30
0.0
 10
12.00000000000002
 20
0.1631814056044062
 30
0.0
 10
12.00000000000002
 20
-0.3254564307519579
 30
0.0
 10
12.00000000000002
 20
-1.262611278597291
 30
0.0
 10
12.00000000000002
 20
-1.710833799954038
 30
0.0
 10
12.00000000000002
 20
-2.525861928637576
 30
0.0
 10
12.00000000000002
 20
-2.892312299120074
 30
0.0
 10
12.00000000000002
 20
-3.200975214365326
 30
0.0
  0
SPLINE
  5
AA
330
1F
100
AcDbEntity
  8
0
  6
Continuous
 62
     1
370
    15
100
AcDbSpline
210
0.0
220
0.0
230
1.0
 70
     8
 71
     3
 72
    36
 73
    32
 74
     0
 42
0.000000001
 43
0.00000001
 40
0.0
 40
0.0
 40
0.0
 40
0.0
 40
0.1250000000000001
 40
0.1250000000000001
 40
0.1875000000000001
 40
0.1875000000000001
 40
0.2500000000000002
 40
0.2500000000000002
 40
0.3125000000000002
 40
0.3125000000000002
 40
0.3750000000000002
 40
0.3750000000000002
 40
0.4375000000000003
 40
0.4375000000000003
 40
0.5000000000000003
 40
0.5000000000000003
 40
0.5625000000000003
 40
0.5625000000000003
 40
0.6250000000000004
 40
0.6250000000000004
 40
0.6875000000000004
 40
0.6875000000000004
 40
0.7500000000000003
 40
0.7500000000000003
 40
0.8125000000000003
 40
0.8125000000000003
 40
0.8750000000000002
 40
0.8750000000000002
 40
0.9375000000000002
 40
0.9375000000000002
 40
1.0
 40
1.0
 40
1.0
 40
1.0
 10
34.22500000000002
 20
-4.391435072996243
 30
0.0
 10
33.30336597593607
 20
-3.946753954788663
 30
0.0
 10
32.36945737710138
 20
-3.470063650084572
 30
0.0
 10
30.98587158838395
 20
-2.727498914335509
 30
0.0
 10
30.52143486782106
 20
-2.474336797230911
 30
0.0
 10
29.5931579669475
 20
-1.960541182946152
 30
0.0
 10
29.13062228250465
 20
-1.7001597311399
 30
0.0
 10
28.20752014292057
 20
-1.174887151368358
 30
0.0
 10
27.74292646203244
 20
-0.9092277601102675
 30
0.0
 10
26.81474127567519
 20
-0.3759013330627778
 30
0.0
 10
26.35290128503299
 20
-0.1085764371004414
 30
0.0
 10
25.42913253597422
 20
0.425550134742202
 30
0.0
 10
24.96440489574823
 20
0.6928904381887626
 30
0.0
 10
24.03635726228854
 20
1.224031519911598
 30
0.0
 10
23.57510290307656
 20
1.48744072945451
 30
0.0
 10
22.6507126579065
 20
2.008674295489467
 30
0.0
 10
22.18587408151948
 20
2.266808468024317
 30
0.0
 10
21.25800981669363
 20
2.77413933100087
 30
0.0
 10
20.79723093055282
 20
3.02294121191572
 30
0.0
 10
19.87226440440617
 20
3.510050085044949
 30
0.0
 10
19.40733793341672
 20
3.748464496100457
 30
0.0
 10
18.47970282277987
 20
4.211333431659258
 30
0.0
 10
18.01928917339574
 20
4.435434447681868
 30
0.0
 10
17.09379167584925
 20
4.86856853025829
 30
0.0
 10
16.62880036638365
 20
5.077551888141018
 30
0.0
 10
15.70144015778415
 20
5.477122383884882
 30
0.0
 10
15.2412814489467
 20
5.66743341790473
 30
0.0
 10
14.31529837665748
 20
6.028934473723964
 30
0.0
 10
13.85026529559056
 20
6.199974054860805
 30
0.0
 10
12.92322569165722
 20
6.519992586404068
 30
0.0
 10
12.46321158534145
 20
6.668794723605537
 30
0.0
 10
11.99999999999842
 20
6.806356116497932
 30
0.0
  0
SPLINE
  5
AB
330
1F
100
AcDbEntity
  8
0
  6
Continuous
 62
     1
370
    15
100
AcDbSpline
210
0.0
220
0.0
230
1.0
 70
     8
 71
     3
 72
     9
 73
     5
 74
     0
 42
0.000000001
 43
0.00000001
 40
0.0
 40
0.0
 40
0.0
 40
0.0
 40
0.2442045225065874
 40
1.0
 40
1.0
 40
1.0
 40
1.0
 10
32.67406317298807
 20
-3.613163208835285
 30
0.0
 10
32.5967141072378
 20
-3.633382441501188
 30
0.0
 10
32.27997523214923
 20
-3.716178748704537
 30
0.0
 10
31.92440339900141
 20
-3.87847431236467
 30
0.0
 10
31.65566381558423
 20
-4.001136565396242
 30
0.0
  0
SPLINE
  5
AC
330
1F
100
AcDbEntity
  8
0
  6
Continuous
 62
     1
370
    15
100
AcDbSpline
210
0.0
220
0.0
230
1.0
 70
     8
 71
     3
 72
     8
 73
     4
 74
     0
 42
0.000000001
 43
0.00000001
 40
0.0
 40
0.0
 40
0.0
 40
0.0
 40
1.0
 40
1.0
 40
1.0
 40
1.0
 10
34.22500000000002
 20
-4.640327385311447
 30
0.0
 10
33.34697575888762
 20
-4.505700818124558
 30
0.0
 10
32.49122840740822
 20
-4.290099890856967
 30
0.0
 10
31.65566381558423
 20
-4.001136565396241
 30
0.0
  0
LINE
  5
AD
330
1F
100
AcDbEntity
  8
0
  6
Continuous
 62
     1
370
    15
100
AcDbLine
 10
34.22500000000002
 20
-7.109119296257995
 30
0.0
 11
34.22500000000002
 21
-4.640327385311449
 31
0.0
  0
SPLINE
  5
AE
330
1F
100
AcDbEntity
  8
0
  6
Continuous
 62
     1
370
    15
100
AcDbSpline
210
0.0
220
0.0
230
1.0
 70
     8
 71
     3
 72
    18
 73
    14
 74
     0
 42
0.000000001
 43
0.00000001
 40
0.0
 40
0.0
 40
0.0
 40
0.0
 40
0.1001014966175
 40
0.200112615270103
 40
0.3001112701884353
 40
0.4001754956372408
 40
0.5003050518557269
 40
0.600336575996953
 40
0.6946073106740083
 40
0.7889565492676224
 40
0.8833695758111823
 40
0.977658360448038
 40
1.0
 40
1.0
 40
1.0
 40
1.0
 10
34.22500000000002
 20
0.4970693683114072
 30
0.0
 10
33.53307115384997
 20
0.8944487293161631
 30
0.0
 10
32.14983817869277
 20
1.688848672095061
 30
0.0
 10
30.07594665644506
 20
2.839766624027833
 30
0.0
 10
28.00232218368921
 20
3.926815071526283
 30
0.0
 10
25.92759245537747
 20
4.924383330828916
 30
0.0
 10
23.85214072164441
 20
5.809509054046457
 30
0.0
 10
21.81737013859443
 20
6.549153158829719
 30
0.0
 10
19.82288092065771
 20
7.134105313778069
 30
0.0
 10
17.8667795808346
 20
7.566633336275792
 30
0.0
 10
15.91001679017072
 20
7.832981181180513
 30
0.0
 10
14.45179316395497
 20
7.950399061866445
 30
0.0
 10
13.64583337245987
 20
7.92739946026185
 30
0.0
 10
13.49144429876666
 20
7.922993673243045
 30
0.0
  0
LINE
  5
AF
330
1F
100
AcDbEntity
  8
0
  6
Continuous
 62
     1
370
    15
100
AcDbLine
 10
34.22500000000002
 20
-4.391435072996245
 30
0.0
 11
34.22500000000002
 21
0.4970693683114037
 31
0.0
  0
SPLINE
  5
B0
330
1F
100
AcDbEntity
  8
0
  6
Continuous
 62
     1
370
    15
100
AcDbSpline
210
0.0
220
0.0
230
1.0
 70
     8
 71
     3
 72
    13
 73
     9
 74
     0
 42
0.000000001
 43
0.00000001
 40
0.0
 40
0.0
 40
0.0
 40
0.0
 40
0.093639440694589
 40
0.2748848379312564
 40
0.4563126578320307
 40
0.6375043312498633
 40
0.8186493453608722
 40
1.0
 40
1.0
 40
1.0
 40
1.0
 10
23.43436550236048
 20
5.93896059942961
 30
0.0
 10
23.77114419998333
 20
6.071004886872596
 30
0.0
 10
24.75978058042367
 20
6.458629719787802
 30
0.0
 10
26.40093425925042
 20
6.960628850192102
 30
0.0
 10
28.35779995357336
 20
7.443547344507202
 30
0.0
 10
30.31335597175779
 20
7.766885964790657
 30
0.0
 10
32.26854849895778
 20
7.946365997310912
 30
0.0
 10
33.57260290687898
 20
7.930072243664159
 30
0.0
 10
34.22500000000002
 20
7.921920745190937
 30
0.0
  0
SPLINE
  5
B1
330
1F
100
AcDbEntity
  8
0
  6
Continuous
 62
     1
370
    15
100
AcDbSpline
210
0.0
220
0.0
230
1.0
 70
     8
 71
     3
 72
    14
 73
    10
 74
     0
 42
0.000000001
 43
0.00000001
 40
0.0
 40
0.0
 40
0.0
 40
0.0
 40
0.2500000000000001
 40
0.2500000000000001
 40
0.5000000000000002
 40
0.5000000000000002
 40
0.7500000000000001
 40
0.7500000000000001
 40
1.0
 40
1.0
 40
1.0
 40
1.0
 10
34.22500000000002
 20
5.13956271898625
 30
0.0
 10
34.09418461345612
 20
4.840893526514107
 30
0.0
 10
33.93998802833573
 20
4.564181916077043
 30
0.0
 10
33.58233064814398
 20
4.057023343606347
 30
0.0
 10
33.37622114544111
 20
3.825076111166094
 30
0.0
 10
32.93323545467892
 20
3.430820271666699
 30
0.0
 10
32.69494356723916
 20
3.265340887970855
 30
0.0
 10
32.18619512587485
 20
2.994978707179062
 30
0.0
 10
31.92419846283584
 20
2.894470648640719
 30
0.0
 10
31.65566381558423
 20
2.823971977977076
 30
0.0
  0
SPLINE
  5
B2
330
1F
100
AcDbEntity
  8
0
  6
Continuous
 62
     1
370
    15
100
AcDbSpline
210
0.0
220
0.0
230
1.0
 70
     8
 71
     3
 72
     8
 73
     4
 74
     0
 42
0.000000001
 43
0.00000001
 40
0.0
 40
0.0
 40
0.0
 40
0.0
 40
1.0
 40
1.0
 40
1.0
 40
1.0
 10
34.22500000000002
 20
1.53114702191105
 30
0.0
 10
33.34697575888762
 20
2.008499565455244
 30
0.0
 10
32.49122840740822
 20
2.43793989471824
 30
0.0
 10
31.65566381558423
 20
2.823971977977076
 30
0.0
  0
LINE
  5
B3
330
1F
100
AcDbEntity
  8
0
  6
Continuous
 62
     1
370
    15
100
AcDbLine
 10
34.22500000000002
 20
0.4970693683114037
 30
0.0
 11
34.22500000000002
 21
1.53114702191105
 31
0.0
  0
LINE
  5
B4
330
1F
100
AcDbEntity
  8
0
  6
Continuous
 62
     1
370
    15
100
AcDbLine
 10
34.22500000000002
 20
5.139562718986244
 30
0.0
 11
34.22500000000002
 21
7.921920745190937
 31
0.0
  0
SPLINE
  5
B5
330
1F
100
AcDbEntity
  8
0
  6
Continuous
 62
     1
370
    15
100
AcDbSpline
210
0.0
220
0.0
230
1.0
 70
     8
 71
     3
 72
    11
 73
     7
 74
     0
 42
0.000000001
 43
0.00000001
 40
0.0
 40
0.0
 40
0.0
 40
0.0
 40
0.2976585006315831
 40
0.5952820254143062
 40
0.8931028181843402
 40
1.0
 40
1.0
 40
1.0
 40
1.0
 10
11.99999999999842
 20
-6.939852626124633
 30
0.0
 10
12.69115310166833
 20
-7.118987053197172
 30
0.0
 10
14.0733780922547
 20
-7.477234858460282
 30
0.0
 10
16.14697570888873
 20
-7.791411483698776
 30
0.0
 10
17.77793024080532
 20
-7.943405521299122
 30
0.0
 10
18.71789480105452
 20
-7.922290658742935
 30
0.0
 10
18.96616537169101
 20
-7.916713641057986
 30
0.0
  0
LINE
  5
B6
330
1F
100
AcDbEntity
  8
0
  6
Continuous
 62
     1
370
    15
100
AcDbLine
 10
34.22500000000002
 20
1.53114702191105
 30
0.0
 11
34.22500000000002
 21
5.139562718986244
 31
0.0
  0
LINE
  5
B7
330
1F
100
AcDbEntity
  8
0
  6
Continuous
 62
     1
370
    15
100
AcDbLine
 10
34.22500000000002
 20
-4.391435072996246
 30
0.0
 11
34.22500000000002
 21
-4.640327385311448
 31
0.0
  0
LINE
  5
B8
330
1F
100
AcDbEntity
  8
0
  6
Continuous
 62
     1
370
    15
100
AcDbLine
 10
34.22500000000002
 20
7.921920745190937
 30
0.0
 11
34.22500000000002
 21
7.937499999999999
 31
0.0
  0
LINE
  5
B9
330
1F
100
AcDbEntity
  8
중심선
 62
     1
100
AcDbLine
 10
-44.97499999999997
 20
-0.0000000000000072
 30
0.0
 11
37.22500000000002
 21
0.0000000000000028
 31
0.0
  0
LINE
  5
BA
330
1F
100
AcDbEntity
  8
참조1
100
AcDbLine
 10
-6.95036934298443
 20
0.0010749287238892
 30
0.0
 11
-6.950369342984425
 21
-39.99892507127611
 31
0.0
  0
LINE
  5
BB
330
1F
100
AcDbEntity
  8
참조1
100
AcDbLine
 10
-6.950369342984425
 20
-39.99892507127611
 30
0.0
 11
-21.31545115729311
 21
-39.9989250712761
 31
0.0
  0
CIRCLE
  5
BC
330
1F
100
AcDbEntity
  8
해칭선
100
AcDbCircle
 10
0.0
 20
0.0
 30
0.0
 40
3.000000000000003
  0
INSERT
  5
BD
330
1F
100
AcDbEntity
  8
0
  6
Continuous
 62
     7
100
AcDbBlockReference
 66
     1
  2
블럭10
 10
-17.81527293212518
 20
-52.04717430164393
 30
0.0
  0
ATTRIB
  5
BE
330
BD
100
AcDbEntity
  8
FORMAT
 62
     2
100
AcDbText
 10
-26.99656822086646
 20
-49.97180738881175
 30
0.0
 40
4.233333333333333
  1
E5059040 [ 3 FLUTE ]
 41
0.75
  7
SLDTEXTSTYLE0
 11
-26.99656822086646
 21
-52.08847405547841
 31
0.0
100
AcDbAttribute
  2
AUTOATTR0
 70
     0
 74
     1
  0
SEQEND
  5
BF
330
BD
100
AcDbEntity
  8
0
  6
Continuous
 62
     7
  0
HATCH
  5
C0
330
1F
100
AcDbEntity
  8
중심선
100
AcDbHatch
 10
0.0
 20
0.0
 30
0.0
210
0.0
220
0.0
230
1.0
  2
SOLID
 70
     1
 71
     0
 91
        1
 92
        0
 93
        4
 72
     1
 10
-12.10036362774435
 20
-35.8
 11
-15.54663887158163
 21
-35.8
 72
     1
 10
-15.54663887158163
 20
-35.8
 11
-17.67486873078565
 21
-38.3363255805726
 72
     1
 10
-17.67486873078565
 20
-38.3363255805726
 11
-14.22856040183519
 21
-38.33628615127011
 72
     1
 10
-14.22856040183519
 20
-38.33628615127011
 11
-12.10036362774435
 21
-35.8
 97
        0
 75
     0
 76
     1
 98
        1
 10
3.075369342984455
 20
-0.001074928723896
  0
HATCH
  5
C1
330
1F
100
AcDbEntity
  8
중심선
100
AcDbHatch
 10
0.0
 20
0.0
 30
0.0
210
0.0
220
0.0
230
1.0
  2
SOLID
 70
     1
 71
     0
 91
        1
 92
        0
 93
        4
 72
     1
 10
-7.087599636708394
 20
-35.80000000000003
 11
-10.53387488054565
 21
-35.79999999999998
 72
     1
 10
-10.53387488054565
 20
-35.79999999999998
 11
-15.06501288890307
 21
-41.20000000000002
 72
     1
 10
-15.06501288890307
 20
-41.20000000000002
 11
-11.61873764506578
 21
-41.20000000000002
 72
     1
 10
-11.61873764506578
 20
-41.20000000000002
 11
-7.087599636708394
 21
-35.80000000000003
 97
        0
 75
     0
 76
     1
 98
        1
 10
3.075369342984455
 20
-0.001074928723896
  0
HATCH
  5
C2
330
1F
100
AcDbEntity
  8
중심선
100
AcDbHatch
 10
0.0
 20
0.0
 30
0.0
210
0.0
220
0.0
230
1.0
  2
SOLID
 70
     1
 71
     0
 91
        1
 92
        0
 93
        4
 72
     1
 10
-2.07483564567247
 20
-35.79999999999998
 11
-5.521110889509586
 21
-35.8
 72
     1
 10
-5.521110889509586
 20
-35.8
 11
-12.56954779139886
 21
-44.20000000000002
 72
     1
 10
-12.56954779139886
 20
-44.20000000000002
 11
-9.12327254756158
 21
-44.20000000000002
 72
     1
 10
-9.12327254756158
 20
-44.20000000000002
 11
-2.07483564567247
 21
-35.79999999999998
 97
        0
 75
     0
 76
     1
 98
        1
 10
3.075369342984455
 20
-0.001074928723896
  0
HATCH
  5
C3
330
1F
100
AcDbEntity
  8
중심선
100
AcDbHatch
 10
0.0
 20
0.0
 30
0.0
210
0.0
220
0.0
230
1.0
  2
SOLID
 70
     1
 71
     0
 91
        1
 92
        0
 93
        6
 72
     3
 10
2.725054785339701
 20
-40.00000000005127
 11
3.960054785062284
 21
1.540882976769353E-10
 40
0.3939339440162627
 50
17.09539180608437
 51
320.0019657685082
 73
     0
 72
     1
 10
4.408054441040269
 20
-38.58789400463833
 11
6.713356314741334
 21
-36.65356729459038
 72
     3
 10
2.725054785286854
 20
-40.00000000000015
 11
6.600054785286829
 21
-1.278976924368180E-13
 40
0.636358354079598
 50
39.9987384933741
 51
368.4976242363725
 73
     1
 72
     1
 10
9.150387277187464
 20
-39.03999999993002
 11
1.405122092122777
 21
-39.03999999993
 72
     1
 10
1.405122092122777
 20
-39.03999999993
 11
1.405097047676843
 21
-40.95999999992991
 72
     1
 10
1.405097047676843
 20
-40.95999999992991
 11
5.84647681714888
 21
-40.95999999992988
 97
        0
 75
     0
 76
     1
 98
        1
 10
3.075369342984455
 20
-0.001074928723896
  0
DIMENSION
  5
C4
330
1F
100
AcDbEntity
  8
치수문자_일반주서
100
AcDbDimension
  2
_D
 10
34.22500000000002
 20
31.12855032795721
 30
0.0
 11
-3.87499999999998
 21
31.12855032795721
 31
0.0
 70
   160
  1
<>
 71
     2
 42
76.2
  3
SLDDIMSTYLE0
100
AcDbAlignedDimension
 13
-41.97499999999998
 23
7.43749999999999
 33
0.0
 14
34.22500000000002
 24
7.937499999999999
 34
0.0
100
AcDbRotatedDimension
1001
ACAD
1000
DSTYLE
1002
{
1070
   171
1070
     6
1070
   273
1070
     5
1002
}
  0
DIMENSION
  5
D8
330
1F
100
AcDbEntity
  8
치수문자_일반주서
100
AcDbDimension
  2
_D_1
 10
-54.96531483557298
 20
-7.937500000000064
 30
0.0
 11
-54.9653148355731
 21
25.45824999999994
 31
0.0
 70
   160
  1
%%c<>
 71
     2
 42
15.875
 52
-270.0
  3
SLDDIMSTYLE0
100
AcDbAlignedDimension
 13
-41.47499999999998
 23
7.937499999999983
 33
0.0
 14
-41.47499999999998
 24
-7.937500000000017
 34
0.0
 50
90.0000000000002
100
AcDbRotatedDimension
1001
ACAD
1000
DSTYLE
1002
{
1070
   171
1070
     6
1070
   273
1070
     5
1002
}
  0
DIMENSION
  5
ED
330
1F
100
AcDbEntity
  8
치수문자_일반주서
100
AcDbDimension
  2
_D_2
 10
12.00000000000001
 20
16.61419826837648
 30
0.0
 11
23.82303050222464
 21
16.61419826837648
 31
0.0
 70
   160
  1
<>
 71
     2
 42
22.22500000000001
  3
SLDDIMSTYLE0
100
AcDbAlignedDimension
 13
34.22500000000002
 23
7.937499999999999
 33
0.0
 14
12.00000000000001
 24
7.937499999999997
 34
0.0
100
AcDbRotatedDimension
1001
ACAD
1000
DSTYLE
1002
{
1070
   171
1070
     6
1070
   273
1070
     5
1002
}
  0
DIMENSION
  5
102
330
1F
100
AcDbEntity
  8
치수문자_일반주서
100
AcDbDimension
  2
_D_3
 10
48.85000000000016
 20
-7.937499999999925
 30
0.0
 11
48.85000000000002
 21
29.4445209742492
 31
0.0
 70
   160
  1
%%c<>
 71
     2
 42
15.87499999999998
 52
-270.0
  3
SLDDIMSTYLE0
100
AcDbAlignedDimension
 13
34.22500000000002
 23
7.937499999999999
 33
0.0
 14
34.22500000000002
 24
-7.937499999999983
 34
0.0
 50
90.0000000000002
100
AcDbRotatedDimension
1001
ACAD
1000
DSTYLE
1002
{
1070
   171
1070
     6
1070
   273
1070
     5
1002
}
  0
LINE
  5
116
330
1F
100
AcDbEntity
  8
참조1
100
AcDbLine
 10
76.65688947236116
 20
7.441074928723896
 30
0.0
 11
76.65688947236116
 21
-7.438925071276109
 31
0.0
  0
LINE
  5
117
330
1F
100
AcDbEntity
  8
참조1
100
AcDbLine
 10
89.35688947236116
 20
5.441074928723896
 30
0.0
 11
76.65688947236116
 21
5.441074928723896
 31
0.0
  0
SOLID
  5
118
330
1F
100
AcDbEntity
  8
참조1
100
AcDbTrace
 10
76.65688947236116
 20
5.441074928723896
 30
0.0
 11
83.00688947236115
 21
4.425074928723896
 31
0.0
 12
83.00688947236115
 22
6.457074928723896
 32
0.0
 13
83.00688947236115
 23
6.457074928723896
 33
0.0
  0
LINE
  5
119
330
1F
100
AcDbEntity
  8
참조1
100
AcDbLine
 10
89.35688947236116
 20
-5.438925071276109
 30
0.0
 11
76.65688947236116
 21
-5.438925071276109
 31
0.0
  0
SOLID
  5
11A
330
1F
100
AcDbEntity
  8
참조1
100
AcDbTrace
 10
76.65688947236116
 20
-5.438925071276109
 30
0.0
 11
83.00688947236115
 21
-6.454925071276109
 31
0.0
 12
83.00688947236115
 22
-4.422925071276109
 32
0.0
 13
83.00688947236115
 23
-4.422925071276109
 33
0.0
  0
MTEXT
  5
11B
330
1F
100
AcDbEntity
  8
참조1
100
AcDbMText
 10
86.04123960498715
 20
11.01136670591222
 30
0.0
 40
3.5
 41
0.0
 71
     1
 72
     1
  1
A
  7
SLDTEXTSTYLE0
 73
     1
 44
1.0
  0
MTEXT
  5
11C
330
1F
100
AcDbEntity
  8
참조1
100
AcDbMText
 10
86.04123960498715
 20
0.1313667059122201
 30
0.0
 40
3.5
 41
0.0
 71
     1
 72
     1
  1
A
  7
SLDTEXTSTYLE0
 73
     1
 44
1.0
  0
INSERT
  5
123
330
1F
100
AcDbEntity
  8
해칭선
100
AcDbBlockReference
  2
SW_DOWELSYMBOL_0
 10
0.0
 20
0.0
 30
0.0
  0
ENDSEC
  0
SECTION
  2
OBJECTS
  0
DICTIONARY
  5
C
330
0
100
AcDbDictionary
281
     1
  3
ACAD_GROUP
350
D
  3
ACAD_IMAGE_VARS
350
147
  3
ACAD_LAYOUT
350
1A
  3
ACAD_MLINESTYLE
350
17
  3
ACAD_PLOTSETTINGS
350
19
  3
ACAD_PLOTSTYLENAME
350
E
  3
ACAD_SCALELIST
350
47
  3
APPDATA
350
145
  3
DWGPROPS
350
2B8
  0
DICTIONARY
  5
201
330
2
100
AcDbDictionary
280
     1
281
     1
  3
ACAD_LAYERSTATES
360
202
  0
DICTIONARY
  5
D
102
{ACAD_REACTORS
330
C
102
}
330
C
100
AcDbDictionary
281
     1
  0
RASTERVARIABLES
  5
147
102
{ACAD_REACTORS
330
C
102
}
330
C
100
AcDbRasterVariables
 90
        0
 70
     1
 71
     1
 72
     1
  0
DICTIONARY
  5
1A
102
{ACAD_REACTORS
330
C
102
}
330
C
100
AcDbDictionary
281
     1
  3
Layout1
350
1E
  3
Layout2
350
26
  3
Model
350
22
  0
DICTIONARY
  5
17
102
{ACAD_REACTORS
330
C
102
}
330
C
100
AcDbDictionary
281
     1
  3
Standard
350
18
  0
DICTIONARY
  5
19
102
{ACAD_REACTORS
330
C
102
}
330
C
100
AcDbDictionary
281
     1
  0
ACDBDICTIONARYWDFLT
  5
E
102
{ACAD_REACTORS
330
C
102
}
330
C
100
AcDbDictionary
281
     1
  3
Normal
350
F
100
AcDbDictionaryWithDefault
340
F
  0
DICTIONARY
  5
47
102
{ACAD_REACTORS
330
C
102
}
330
C
100
AcDbDictionary
281
     1
  3
A0
350
48
  3
A1
350
49
  3
A2
350
4A
  3
A3
350
4B
  3
A4
350
4C
  3
A5
350
4D
  3
A6
350
4E
  3
A7
350
4F
  3
A8
350
50
  3
A9
350
51
  3
B0
350
52
  3
B1
350
53
  3
B2
350
54
  3
B3
350
55
  3
B4
350
56
  3
B5
350
57
  3
B6
350
58
  3
B7
350
59
  3
B8
350
5A
  3
B9
350
5B
  3
C0
350
5C
  3
C1
350
5D
  3
C2
350
5E
  3
C3
350
5F
  3
C4
350
60
  3
C5
350
61
  3
C6
350
62
  3
C7
350
63
  3
C8
350
64
  3
C9
350
65
  3
D0
350
66
  3
D1
350
67
  3
D2
350
68
  0
DICTIONARY
  5
145
102
{ACAD_REACTORS
330
C
102
}
330
C
100
AcDbDictionary
281
     1
  0
XRECORD
  5
2B8
102
{ACAD_REACTORS
330
C
102
}
330
C
100
AcDbXrecord
280
     1
  1
DWGPROPS COOKIE
  2

  3

  4

  6

  7

  8
12014074
  9

300
=
301
=
302
=
303
=
304
=
305
=
306
=
307
=
308
=
309
=
 40
0.0
 41
2458311.272826308
 42
2458323.018377303
  1

 90
        0
  0
DICTIONARY
  5
202
102
{ACAD_REACTORS
330
201
102
}
330
201
100
AcDbDictionary
281
     1
  0
LAYOUT
  5
1E
102
{ACAD_REACTORS
330
1A
102
}
330
1A
100
AcDbPlotSettings
  1

  2
none_device
  4

  6

 40
0.0
 41
0.0
 42
0.0
 43
0.0
 44
0.0
 45
0.0
 46
0.0
 47
0.0
 48
0.0
 49
0.0
140
0.0
141
0.0
142
1.0
143
1.0
 70
   688
 72
     1
 73
     0
 74
     5
  7

 75
    16
147
1.0
148
0.0
149
0.0
100
AcDbLayout
  1
Layout1
 70
     1
 71
     1
 10
0.0
 20
0.0
 11
420.0
 21
297.0
 12
0.0
 22
0.0
 32
0.0
 14
1.000000000000000E+20
 24
1.000000000000000E+20
 34
1.000000000000000E+20
 15
-1.000000000000000E+20
 25
-1.000000000000000E+20
 35
-1.000000000000000E+20
146
0.0
 13
0.0
 23
0.0
 33
0.0
 16
1.0
 26
0.0
 36
0.0
 17
0.0
 27
1.0
 37
0.0
 76
     0
330
1B
  0
LAYOUT
  5
26
102
{ACAD_REACTORS
330
1A
102
}
330
1A
100
AcDbPlotSettings
  1

  2
none_device
  4

  6

 40
0.0
 41
0.0
 42
0.0
 43
0.0
 44
0.0
 45
0.0
 46
0.0
 47
0.0
 48
0.0
 49
0.0
140
0.0
141
0.0
142
1.0
143
1.0
 70
   688
 72
     1
 73
     0
 74
     5
  7

 75
    16
147
1.0
148
0.0
149
0.0
100
AcDbLayout
  1
Layout2
 70
     1
 71
     2
 10
0.0
 20
0.0
 11
0.0
 21
0.0
 12
0.0
 22
0.0
 32
0.0
 14
0.0
 24
0.0
 34
0.0
 15
0.0
 25
0.0
 35
0.0
146
0.0
 13
0.0
 23
0.0
 33
0.0
 16
1.0
 26
0.0
 36
0.0
 17
0.0
 27
1.0
 37
0.0
 76
     0
330
23
  0
LAYOUT
  5
22
102
{ACAD_REACTORS
330
1A
102
}
330
1A
100
AcDbPlotSettings
  1

  2
none_device
  4
ANSI_A_(11.00_x_8.50_Inches)
  6

 40
6.35
 41
19.05
 42
6.35000508
 43
19.05000254
 44
279.4
 45
215.9
 46
115.4163993990272
 47
96.58637889969926
 48
0.0
 49
0.0
140
0.0
141
0.0
142
0.0688368541483016
143
1.0
 70
  1696
 72
     0
 73
     0
 74
     0
  7

 75
     0
147
0.0235690232323232
148
0.0
149
0.0
100
AcDbLayout
  1
Model
 70
     1
 71
     0
 10
0.0
 20
0.0
 11
420.0
 21
297.0
 12
0.0
 22
0.0
 32
0.0
 14
1.000000000000000E+20
 24
1.000000000000000E+20
 34
1.000000000000000E+20
 15
-1.000000000000000E+20
 25
-1.000000000000000E+20
 35
-1.000000000000000E+20
146
0.0
 13
0.0
 23
0.0
 33
0.0
 16
1.0
 26
0.0
 36
0.0
 17
0.0
 27
1.0
 37
0.0
 76
     0
330
1F
331
29
  0
MLINESTYLE
  5
18
102
{ACAD_REACTORS
330
17
102
}
330
17
100
AcDbMlineStyle
  2
Standard
 70
     0
  3

 62
   256
 51
90.0
 52
90.0
 71
     2
 49
0.5
 62
   256
  6
BYLAYER
 49
-0.5
 62
   256
  6
BYLAYER
  0
ACDBPLACEHOLDER
  5
F
102
{ACAD_REACTORS
330
E
102
}
330
E
  0
SCALE
  5
48
102
{ACAD_REACTORS
330
47
102
}
330
47
100
AcDbScale
 70
     0
300
1:1
140
1.0
141
1.0
290
     1
  0
SCALE
  5
49
102
{ACAD_REACTORS
330
47
102
}
330
47
100
AcDbScale
 70
     0
300
1:2
140
1.0
141
2.0
290
     0
  0
SCALE
  5
4A
102
{ACAD_REACTORS
330
47
102
}
330
47
100
AcDbScale
 70
     0
300
1:4
140
1.0
141
4.0
290
     0
  0
SCALE
  5
4B
102
{ACAD_REACTORS
330
47
102
}
330
47
100
AcDbScale
 70
     0
300
1:5
140
1.0
141
5.0
290
     0
  0
SCALE
  5
4C
102
{ACAD_REACTORS
330
47
102
}
330
47
100
AcDbScale
 70
     0
300
1:8
140
1.0
141
8.0
290
     0
  0
SCALE
  5
4D
102
{ACAD_REACTORS
330
47
102
}
330
47
100
AcDbScale
 70
     0
300
1:10
140
1.0
141
10.0
290
     0
  0
SCALE
  5
4E
102
{ACAD_REACTORS
330
47
102
}
330
47
100
AcDbScale
 70
     0
300
1:16
140
1.0
141
16.0
290
     0
  0
SCALE
  5
4F
102
{ACAD_REACTORS
330
47
102
}
330
47
100
AcDbScale
 70
     0
300
1:20
140
1.0
141
20.0
290
     0
  0
SCALE
  5
50
102
{ACAD_REACTORS
330
47
102
}
330
47
100
AcDbScale
 70
     0
300
1:30
140
1.0
141
30.0
290
     0
  0
SCALE
  5
51
102
{ACAD_REACTORS
330
47
102
}
330
47
100
AcDbScale
 70
     0
300
1:40
140
1.0
141
40.0
290
     0
  0
SCALE
  5
52
102
{ACAD_REACTORS
330
47
102
}
330
47
100
AcDbScale
 70
     0
300
1:50
140
1.0
141
50.0
290
     0
  0
SCALE
  5
53
102
{ACAD_REACTORS
330
47
102
}
330
47
100
AcDbScale
 70
     0
300
1:100
140
1.0
141
100.0
290
     0
  0
SCALE
  5
54
102
{ACAD_REACTORS
330
47
102
}
330
47
100
AcDbScale
 70
     0
300
2:1
140
2.0
141
1.0
290
     0
  0
SCALE
  5
55
102
{ACAD_REACTORS
330
47
102
}
330
47
100
AcDbScale
 70
     0
300
4:1
140
4.0
141
1.0
290
     0
  0
SCALE
  5
56
102
{ACAD_REACTORS
330
47
102
}
330
47
100
AcDbScale
 70
     0
300
8:1
140
8.0
141
1.0
290
     0
  0
SCALE
  5
57
102
{ACAD_REACTORS
330
47
102
}
330
47
100
AcDbScale
 70
     0
300
10:1
140
10.0
141
1.0
290
     0
  0
SCALE
  5
58
102
{ACAD_REACTORS
330
47
102
}
330
47
100
AcDbScale
 70
     0
300
100:1
140
100.0
141
1.0
290
     0
  0
SCALE
  5
59
102
{ACAD_REACTORS
330
47
102
}
330
47
100
AcDbScale
 70
     0
300
1/128" = 1'-0"
140
0.0078125
141
12.0
290
     0
  0
SCALE
  5
5A
102
{ACAD_REACTORS
330
47
102
}
330
47
100
AcDbScale
 70
     0
300
1/64" = 1'-0"
140
0.015625
141
12.0
290
     0
  0
SCALE
  5
5B
102
{ACAD_REACTORS
330
47
102
}
330
47
100
AcDbScale
 70
     0
300
1/32" = 1'-0"
140
0.03125
141
12.0
290
     0
  0
SCALE
  5
5C
102
{ACAD_REACTORS
330
47
102
}
330
47
100
AcDbScale
 70
     0
300
1/16" = 1'-0"
140
0.0625
141
12.0
290
     0
  0
SCALE
  5
5D
102
{ACAD_REACTORS
330
47
102
}
330
47
100
AcDbScale
 70
     0
300
3/32" = 1'-0"
140
0.09375
141
12.0
290
     0
  0
SCALE
  5
5E
102
{ACAD_REACTORS
330
47
102
}
330
47
100
AcDbScale
 70
     0
300
1/8" = 1'-0"
140
0.125
141
12.0
290
     0
  0
SCALE
  5
5F
102
{ACAD_REACTORS
330
47
102
}
330
47
100
AcDbScale
 70
     0
300
3/16" = 1'-0"
140
0.1875
141
12.0
290
     0
  0
SCALE
  5
60
102
{ACAD_REACTORS
330
47
102
}
330
47
100
AcDbScale
 70
     0
300
1/4" = 1'-0"
140
0.25
141
12.0
290
     0
  0
SCALE
  5
61
102
{ACAD_REACTORS
330
47
102
}
330
47
100
AcDbScale
 70
     0
300
3/8" = 1'-0"
140
0.375
141
12.0
290
     0
  0
SCALE
  5
62
102
{ACAD_REACTORS
330
47
102
}
330
47
100
AcDbScale
 70
     0
300
1/2" = 1'-0"
140
0.5
141
12.0
290
     0
  0
SCALE
  5
63
102
{ACAD_REACTORS
330
47
102
}
330
47
100
AcDbScale
 70
     0
300
3/4" = 1'-0"
140
0.75
141
12.0
290
     0
  0
SCALE
  5
64
102
{ACAD_REACTORS
330
47
102
}
330
47
100
AcDbScale
 70
     0
300
1" = 1'-0"
140
1.0
141
12.0
290
     0
  0
SCALE
  5
65
102
{ACAD_REACTORS
330
47
102
}
330
47
100
AcDbScale
 70
     0
300
1-1/2" = 1'-0"
140
1.5
141
12.0
290
     0
  0
SCALE
  5
66
102
{ACAD_REACTORS
330
47
102
}
330
47
100
AcDbScale
 70
     0
300
3" = 1'-0"
140
3.0
141
12.0
290
     0
  0
SCALE
  5
67
102
{ACAD_REACTORS
330
47
102
}
330
47
100
AcDbScale
 70
     0
300
6" = 1'-0"
140
6.0
141
12.0
290
     0
  0
SCALE
  5
68
102
{ACAD_REACTORS
330
47
102
}
330
47
100
AcDbScale
 70
     0
300
1'-0" = 1'-0"
140
12.0
141
12.0
290
     0
  0
ENDSEC
  0
EOF
