  0
SECTION
  2
HEADER
  9
$ACADVER
  1
AC1015
  9
$ACADMAINTVER
 70
     6
  9
$DWGCODEPAGE
  3
ANSI_949
  9
$INSBASE
 10
0.0
 20
0.0
 30
0.0
  9
$EXTMIN
 10
1.000000000000000E+20
 20
1.000000000000000E+20
 30
1.000000000000000E+20
  9
$EXTMAX
 10
-1.000000000000000E+20
 20
-1.000000000000000E+20
 30
-1.000000000000000E+20
  9
$LIMMIN
 10
0.0
 20
0.0
  9
$LIMMAX
 10
420.0
 20
297.0
  9
$ORTHOMODE
 70
     1
  9
$REGENMODE
 70
     1
  9
$FILLMODE
 70
     1
  9
$QTEXTMODE
 70
     0
  9
$MIRRTEXT
 70
     1
  9
$LTSCALE
 40
1.0
  9
$ATTMODE
 70
     1
  9
$TEXTSIZE
 40
3.5
  9
$TRACEWID
 40
1.0
  9
$TEXTSTYLE
  7
Standard
  9
$CLAYER
  8
0
  9
$CELTYPE
  6
ByLayer
  9
$CECOLOR
 62
   256
  9
$CELTSCALE
 40
1.0
  9
$DISPSILH
 70
     0
  9
$DIMSCALE
 40
1.0
  9
$DIMASZ
 40
3.302
  9
$DIMEXO
 40
1.0
  9
$DIMDLI
 40
3.75
  9
$DIMRND
 40
0.0
  9
$DIMDLE
 40
0.0
  9
$DIMEXE
 40
1.0
  9
$DIMTP
 40
0.0
  9
$DIMTM
 40
0.0
  9
$DIMTXT
 40
3.5
  9
$DIMCEN
 40
2.5
  9
$DIMTSZ
 40
0.0
  9
$DIMTOL
 70
     0
  9
$DIMLIM
 70
     0
  9
$DIMTIH
 70
     1
  9
$DIMTOH
 70
     1
  9
$DIMSE1
 70
     0
  9
$DIMSE2
 70
     0
  9
$DIMTAD
 70
     1
  9
$DIMZIN
 70
     0
  9
$DIMBLK
  1

  9
$DIMASO
 70
     1
  9
$DIMSHO
 70
     1
  9
$DIMPOST
  1

  9
$DIMAPOST
  1

  9
$DIMALT
 70
     0
  9
$DIMALTD
 70
     3
  9
$DIMALTF
 40
0.0393700787401575
  9
$DIMLFAC
 40
1.0
  9
$DIMTOFL
 70
     1
  9
$DIMTVP
 40
0.0
  9
$DIMTIX
 70
     0
  9
$DIMSOXD
 70
     0
  9
$DIMSAH
 70
     0
  9
$DIMBLK1
  1

  9
$DIMBLK2
  1

  9
$DIMSTYLE
  2
ISO-25
  9
$DIMCLRD
 70
     0
  9
$DIMCLRE
 70
     0
  9
$DIMCLRT
 70
     0
  9
$DIMTFAC
 40
1.0
  9
$DIMGAP
 40
1.524
  9
$DIMJUST
 70
     0
  9
$DIMSD1
 70
     0
  9
$DIMSD2
 70
     0
  9
$DIMTOLJ
 70
     0
  9
$DIMTZIN
 70
     0
  9
$DIMALTZ
 70
     0
  9
$DIMALTTZ
 70
     0
  9
$DIMUPT
 70
     0
  9
$DIMDEC
 70
     2
  9
$DIMTDEC
 70
     2
  9
$DIMALTU
 70
     2
  9
$DIMALTTD
 70
     3
  9
$DIMTXSTY
  7
Standard
  9
$DIMAUNIT
 70
     0
  9
$DIMADEC
 70
     2
  9
$DIMALTRND
 40
0.0
  9
$DIMAZIN
 70
     0
  9
$DIMDSEP
 70
    44
  9
$DIMATFIT
 70
     3
  9
$DIMFRAC
 70
     0
  9
$DIMLDRBLK
  1

  9
$DIMLUNIT
 70
     2
  9
$DIMLWD
 70
    -2
  9
$DIMLWE
 70
    -2
  9
$DIMTMOVE
 70
     0
  9
$LUNITS
 70
     2
  9
$LUPREC
 70
     2
  9
$SKETCHINC
 40
1.0
  9
$FILLETRAD
 40
10.0
  9
$AUNITS
 70
     0
  9
$AUPREC
 70
     2
  9
$MENU
  1
.
  9
$ELEVATION
 40
0.0
  9
$PELEVATION
 40
0.0
  9
$THICKNESS
 40
0.0
  9
$LIMCHECK
 70
     0
  9
$CHAMFERA
 40
0.0
  9
$CHAMFERB
 40
0.0
  9
$CHAMFERC
 40
0.0
  9
$CHAMFERD
 40
0.0
  9
$SKPOLY
 70
     0
  9
$TDCREATE
 40
2458311.648885278
  9
$TDUCREATE
 40
2458311.273885278
  9
$TDUPDATE
 40
2458323.400198599
  9
$TDUUPDATE
 40
2458323.025198599
  9
$TDINDWG
 40
0.0023779398
  9
$TDUSRTIMER
 40
2458323.022820926
  9
$USRTIMER
 70
     1
  9
$ANGBASE
 50
0.0
  9
$ANGDIR
 70
     0
  9
$PDMODE
 70
     0
  9
$PDSIZE
 40
-1.0
  9
$PLINEWID
 40
0.0
  9
$SPLFRAME
 70
     0
  9
$SPLINETYPE
 70
     6
  9
$SPLINESEGS
 70
     8
  9
$HANDSEED
  5
2BD
  9
$SURFTAB1
 70
     6
  9
$SURFTAB2
 70
     6
  9
$SURFTYPE
 70
     6
  9
$SURFU
 70
     6
  9
$SURFV
 70
     6
  9
$UCSBASE
  2

  9
$UCSNAME
  2

  9
$UCSORG
 10
0.0
 20
0.0
 30
0.0
  9
$UCSXDIR
 10
1.0
 20
0.0
 30
0.0
  9
$UCSYDIR
 10
0.0
 20
1.0
 30
0.0
  9
$UCSORTHOREF
  2

  9
$UCSORTHOVIEW
 70
     0
  9
$UCSORGTOP
 10
0.0
 20
0.0
 30
0.0
  9
$UCSORGBOTTOM
 10
0.0
 20
0.0
 30
0.0
  9
$UCSORGLEFT
 10
0.0
 20
0.0
 30
0.0
  9
$UCSORGRIGHT
 10
0.0
 20
0.0
 30
0.0
  9
$UCSORGFRONT
 10
0.0
 20
0.0
 30
0.0
  9
$UCSORGBACK
 10
0.0
 20
0.0
 30
0.0
  9
$PUCSBASE
  2

  9
$PUCSNAME
  2

  9
$PUCSORG
 10
0.0
 20
0.0
 30
0.0
  9
$PUCSXDIR
 10
1.0
 20
0.0
 30
0.0
  9
$PUCSYDIR
 10
0.0
 20
1.0
 30
0.0
  9
$PUCSORTHOREF
  2

  9
$PUCSORTHOVIEW
 70
     0
  9
$PUCSORGTOP
 10
0.0
 20
0.0
 30
0.0
  9
$PUCSORGBOTTOM
 10
0.0
 20
0.0
 30
0.0
  9
$PUCSORGLEFT
 10
0.0
 20
0.0
 30
0.0
  9
$PUCSORGRIGHT
 10
0.0
 20
0.0
 30
0.0
  9
$PUCSORGFRONT
 10
0.0
 20
0.0
 30
0.0
  9
$PUCSORGBACK
 10
0.0
 20
0.0
 30
0.0
  9
$USERI1
 70
     0
  9
$USERI2
 70
     0
  9
$USERI3
 70
     0
  9
$USERI4
 70
     0
  9
$USERI5
 70
     0
  9
$USERR1
 40
0.0
  9
$USERR2
 40
0.0
  9
$USERR3
 40
0.0
  9
$USERR4
 40
0.0
  9
$USERR5
 40
0.0
  9
$WORLDVIEW
 70
     1
  9
$SHADEDGE
 70
     3
  9
$SHADEDIF
 70
    70
  9
$TILEMODE
 70
     1
  9
$MAXACTVP
 70
    64
  9
$PINSBASE
 10
0.0
 20
0.0
 30
0.0
  9
$PLIMCHECK
 70
     0
  9
$PEXTMIN
 10
1.000000000000000E+20
 20
1.000000000000000E+20
 30
1.000000000000000E+20
  9
$PEXTMAX
 10
-1.000000000000000E+20
 20
-1.000000000000000E+20
 30
-1.000000000000000E+20
  9
$PLIMMIN
 10
0.0
 20
0.0
  9
$PLIMMAX
 10
0.0
 20
0.0
  9
$UNITMODE
 70
     0
  9
$VISRETAIN
 70
     1
  9
$PLINEGEN
 70
     0
  9
$PSLTSCALE
 70
     1
  9
$TREEDEPTH
 70
  3020
  9
$CMLSTYLE
  2
Standard
  9
$CMLJUST
 70
     0
  9
$CMLSCALE
 40
20.0
  9
$PROXYGRAPHICS
 70
     1
  9
$MEASUREMENT
 70
     1
  9
$CELWEIGHT
370
    -1
  9
$ENDCAPS
280
     0
  9
$JOINSTYLE
280
     0
  9
$LWDISPLAY
290
     1
  9
$INSUNITS
 70
     4
  9
$HYPERLINKBASE
  1

  9
$STYLESHEET
  1

  9
$XEDIT
290
     1
  9
$CEPSNTYPE
380
     0
  9
$PSTYLEMODE
290
     1
  9
$FINGERPRINTGUID
  2
{8CFF5698-DA65-4896-ACDF-9EEF6114D778}
  9
$VERSIONGUID
  2
{FAEB1C32-E019-11D5-929B-00C0DF256EC4}
  9
$EXTNAMES
290
     1
  9
$PSVPSCALE
 40
0.0
  9
$OLESTARTUP
290
     0
  0
ENDSEC
  0
SECTION
  2
CLASSES
  0
CLASS
  1
ACDBDICTIONARYWDFLT
  2
AcDbDictionaryWithDefault
  3
ObjectDBX Classes
 90
        0
280
     0
281
     0
  0
CLASS
  1
VISUALSTYLE
  2
AcDbVisualStyle
  3
ObjectDBX Classes
 90
     4095
280
     0
281
     0
  0
CLASS
  1
MATERIAL
  2
AcDbMaterial
  3
ObjectDBX Classes
 90
     1153
280
     0
281
     0
  0
CLASS
  1
SCALE
  2
AcDbScale
  3
ObjectDBX Classes
 90
     1153
280
     0
281
     0
  0
CLASS
  1
SUN
  2
AcDbSun
  3
SCENEOE
 90
     1153
280
     0
281
     0
  0
CLASS
  1
ACDBPLACEHOLDER
  2
AcDbPlaceHolder
  3
ObjectDBX Classes
 90
        0
280
     0
281
     0
  0
CLASS
  1
LAYOUT
  2
AcDbLayout
  3
ObjectDBX Classes
 90
        0
280
     0
281
     0
  0
CLASS
  1
TABLESTYLE
  2
AcDbTableStyle
  3
ObjectDBX Classes
 90
     4095
280
     0
281
     0
  0
CLASS
  1
MLEADERSTYLE
  2
AcDbMLeaderStyle
  3
ACDB_MLEADERSTYLE_CLASS
 90
     4095
280
     0
281
     0
  0
CLASS
  1
RASTERVARIABLES
  2
AcDbRasterVariables
  3
ISM
 90
        0
280
     0
281
     0
  0
ENDSEC
  0
SECTION
  2
TABLES
  0
TABLE
  2
VPORT
  5
8
330
0
100
AcDbSymbolTable
 70
     1
  0
VPORT
  5
29
330
8
100
AcDbSymbolTableRecord
100
AcDbViewportTableRecord
  2
*Active
 70
     0
 10
0.0
 20
0.0
 11
1.0
 21
1.0
 12
20.34823580298199
 22
2.546109875672443
 13
0.0
 23
0.0
 14
10.0
 24
10.0
 15
10.0
 25
10.0
 16
0.0
 26
0.0
 36
1.0
 17
0.0
 27
0.0
 37
0.0
 40
144.7681315960431
 41
1.970186335403727
 42
50.0
 43
0.0
 44
0.0
 50
0.0
 51
0.0
 71
    16
 72
  2000
 73
     1
 74
     3
 75
     0
 76
     0
 77
     0
 78
     0
281
     0
 65
     1
110
0.0
120
0.0
130
0.0
111
1.0
121
0.0
131
0.0
112
0.0
122
1.0
132
0.0
 79
     0
146
0.0
  0
ENDTAB
  0
TABLE
  2
LTYPE
  5
5
330
0
100
AcDbSymbolTable
 70
     6
  0
LTYPE
  5
14
330
5
100
AcDbSymbolTableRecord
100
AcDbLinetypeTableRecord
  2
ByBlock
 70
     0
  3

 72
    65
 73
     0
 40
0.0
  0
LTYPE
  5
15
330
5
100
AcDbSymbolTableRecord
100
AcDbLinetypeTableRecord
  2
ByLayer
 70
     0
  3

 72
    65
 73
     0
 40
0.0
  0
LTYPE
  5
16
330
5
100
AcDbSymbolTableRecord
100
AcDbLinetypeTableRecord
  2
Continuous
 70
     0
  3
Solid line
 72
    65
 73
     0
 40
0.0
  0
LTYPE
  5
6A
330
5
100
AcDbSymbolTableRecord
100
AcDbLinetypeTableRecord
  2
HIDDEN
 70
     0
  3
Hidden __ __ __ __ __ __ __ __ __ __ __ __ __ __
 72
    65
 73
     2
 40
1.905
 49
1.27
 74
     0
 49
-0.635
 74
     0
  0
LTYPE
  5
6B
330
5
100
AcDbSymbolTableRecord
100
AcDbLinetypeTableRecord
  2
PHANTOM
 70
     0
  3
Phantom ______  __  __  ______  __  __  ______
 72
    65
 73
     6
 40
12.7
 49
6.35
 74
     0
 49
-1.27
 74
     0
 49
1.27
 74
     0
 49
-1.27
 74
     0
 49
1.27
 74
     0
 49
-1.27
 74
     0
  0
LTYPE
  5
6C
330
5
100
AcDbSymbolTableRecord
100
AcDbLinetypeTableRecord
  2
CENTER
 70
     0
  3
Center ____ _ ____ _ ____ _ ____ _ ____ _ ____
 72
    65
 73
     4
 40
10.16
 49
6.35
 74
     0
 49
-1.27
 74
     0
 49
1.27
 74
     0
 49
-1.27
 74
     0
  0
LTYPE
  5
6D
330
5
100
AcDbSymbolTableRecord
100
AcDbLinetypeTableRecord
  2
CENTERX2
 70
     0
  3
Center (2x) ________  __  ________  __  _____
 72
    65
 73
     4
 40
20.32
 49
12.7
 74
     0
 49
-2.54
 74
     0
 49
2.54
 74
     0
 49
-2.54
 74
     0
  0
LTYPE
  5
6E
330
5
100
AcDbSymbolTableRecord
100
AcDbLinetypeTableRecord
  2
DOT2
 70
     0
  3
Dot (.5x) ........................................
 72
    65
 73
     2
 40
0.635
 49
0.0
 74
     0
 49
-0.635
 74
     0
  0
ENDTAB
  0
TABLE
  2
LAYER
  5
2
102
{ACAD_XDICTIONARY
360
205
102
}
330
0
100
AcDbSymbolTable
 70
    18
  0
LAYER
  5
10
330
2
100
AcDbSymbolTableRecord
100
AcDbLayerTableRecord
  2
0
 70
     0
 62
     7
  6
Continuous
370
    -3
390
F
  0
LAYER
  5
6F
330
2
100
AcDbSymbolTableRecord
100
AcDbLayerTableRecord
  2
FORMAT
 70
     0
 62
     2
  6
Continuous
370
    -3
390
F
  0
LAYER
  5
70
330
2
100
AcDbSymbolTableRecord
100
AcDbLayerTableRecord
  2
외형선
 70
     0
 62
     4
  6
Continuous
370
    30
390
F
  0
LAYER
  5
71
330
2
100
AcDbSymbolTableRecord
100
AcDbLayerTableRecord
  2
숨은선
 70
     0
 62
     2
  6
HIDDEN
370
    15
390
F
  0
LAYER
  5
72
330
2
100
AcDbSymbolTableRecord
100
AcDbLayerTableRecord
  2
중심선
 70
     0
 62
     1
  6
CENTERX2
370
    -3
390
F
  0
LAYER
  5
73
330
2
100
AcDbSymbolTableRecord
100
AcDbLayerTableRecord
  2
파단선
 70
     0
 62
     4
  6
Continuous
370
    -3
390
F
  0
LAYER
  5
74
330
2
100
AcDbSymbolTableRecord
100
AcDbLayerTableRecord
  2
해칭선
 70
     0
 62
   100
  6
Continuous
370
    -3
390
F
  0
LAYER
  5
75
330
2
100
AcDbSymbolTableRecord
100
AcDbLayerTableRecord
  2
가는실선
 70
     0
 62
     4
  6
Continuous
370
    -3
390
F
  0
LAYER
  5
76
330
2
100
AcDbSymbolTableRecord
100
AcDbLayerTableRecord
  2
치수_보조선
 70
     0
 62
     4
  6
Continuous
370
    -3
390
F
  0
LAYER
  5
77
330
2
100
AcDbSymbolTableRecord
100
AcDbLayerTableRecord
  2
치수문자_일반주서
 70
     0
 62
     7
  6
Continuous
370
    15
390
F
  0
LAYER
  5
78
330
2
100
AcDbSymbolTableRecord
100
AcDbLayerTableRecord
  2
개별주서
 70
     0
 62
   100
  6
Continuous
370
    30
390
F
  0
LAYER
  5
79
330
2
100
AcDbSymbolTableRecord
100
AcDbLayerTableRecord
  2
중간선
 70
     0
 62
     2
  6
Continuous
370
    15
390
F
  0
LAYER
  5
7A
330
2
100
AcDbSymbolTableRecord
100
AcDbLayerTableRecord
  2
윤곽선
 70
     0
 62
     3
  6
Continuous
370
    40
390
F
  0
LAYER
  5
7B
330
2
100
AcDbSymbolTableRecord
100
AcDbLayerTableRecord
  2
중심마크
 70
     0
 62
   100
  6
Continuous
370
    30
390
F
  0
LAYER
  5
7C
330
2
100
AcDbSymbolTableRecord
100
AcDbLayerTableRecord
  2
가상선
 70
     0
 62
     4
  6
PHANTOM
370
    -3
390
F
  0
LAYER
  5
7D
330
2
100
AcDbSymbolTableRecord
100
AcDbLayerTableRecord
  2
특수지정선
 70
     0
 62
     5
  6
CENTERX2
370
    60
390
F
  0
LAYER
  5
7E
330
2
100
AcDbSymbolTableRecord
100
AcDbLayerTableRecord
  2
참조1
 70
     0
 62
    -4
  6
Continuous
370
    -3
390
F
  0
LAYER
  5
14D
330
2
100
AcDbSymbolTableRecord
100
AcDbLayerTableRecord
  2
Defpoints
 70
     0
 62
     7
  6
Continuous
290
     0
370
    -3
390
F
  0
ENDTAB
  0
TABLE
  2
STYLE
  5
3
330
0
100
AcDbSymbolTable
 70
     2
  0
STYLE
  5
11
330
3
100
AcDbSymbolTableRecord
100
AcDbTextStyleTableRecord
  2
Standard
 70
     0
 40
0.0
 41
1.0
 50
0.0
 71
     0
 42
3.5
  3
txt
  4

  0
STYLE
  5
94
330
3
100
AcDbSymbolTableRecord
100
AcDbTextStyleTableRecord
  2
SLDTEXTSTYLE0
 70
     0
 40
0.0
 41
0.75
 50
0.0
 71
     0
 42
3.5
  3
TXT
  4

  0
ENDTAB
  0
TABLE
  2
VIEW
  5
6
330
0
100
AcDbSymbolTable
 70
     0
  0
ENDTAB
  0
TABLE
  2
UCS
  5
7
330
0
100
AcDbSymbolTable
 70
     0
  0
ENDTAB
  0
TABLE
  2
APPID
  5
9
330
0
100
AcDbSymbolTable
 70
     3
  0
APPID
  5
12
330
9
100
AcDbSymbolTableRecord
100
AcDbRegAppTableRecord
  2
ACAD
 70
     0
  0
APPID
  5
159
330
9
100
AcDbSymbolTableRecord
100
AcDbRegAppTableRecord
  2
PE_URL
 70
     0
  0
APPID
  5
15A
330
9
100
AcDbSymbolTableRecord
100
AcDbRegAppTableRecord
  2
ACAD_DSTYLE_DIMRADIAL_EXTENSION
 70
     0
  0
ENDTAB
  0
TABLE
  2
DIMSTYLE
  5
A
330
0
100
AcDbSymbolTable
 70
     4
100
AcDbDimStyleTable
  0
DIMSTYLE
105
27
330
A
100
AcDbSymbolTableRecord
100
AcDbDimStyleTableRecord
  2
ISO-25
 70
     0
 41
2.5
 42
0.625
 43
3.75
 44
1.25
 73
     0
 74
     0
 77
     1
 78
     8
140
2.5
141
2.5
143
0.03937007874016
147
0.625
171
     3
172
     1
178
     0
271
     2
272
     2
274
     3
278
    44
283
     0
284
     8
340
11
  0
DIMSTYLE
105
CB
102
{ACAD_REACTORS
330
CA
330
F3
330
1B9
330
1C6
330
DE
330
106
102
}
330
A
100
AcDbSymbolTableRecord
100
AcDbDimStyleTableRecord
  2
SLDDIMSTYLE0
 70
     0
 41
3.302
 44
0.0
 45
0.000000001
 73
     0
 74
     0
 77
     1
 78
     4
 79
     1
140
3.5
143
0.0393700787401575
147
0.875
148
0.000000001
170
     1
173
     1
178
     0
271
     2
272
     2
276
     2
284
    12
340
94
  0
DIMSTYLE
105
DF
102
{ACAD_REACTORS
330
1FC
102
}
330
A
100
AcDbSymbolTableRecord
100
AcDbDimStyleTableRecord
  2
SLDDIMSTYLE1
 70
     0
 41
3.302
 44
0.0
 45
0.000000001
 73
     0
 74
     0
 77
     1
 78
    12
 79
     3
140
3.5
143
0.0393700787401575
147
0.875
148
0.000000001
170
     1
172
     1
173
     1
178
     0
271
     2
272
     2
276
     2
284
    12
289
     0
340
94
  0
DIMSTYLE
105
107
102
{ACAD_REACTORS
330
1D3
330
1E2
102
}
330
A
100
AcDbSymbolTableRecord
100
AcDbDimStyleTableRecord
  2
SLDDIMSTYLE2
 70
     0
 41
3.302
 44
0.0
 45
0.000000001
 73
     0
 74
     0
 77
     1
 78
    12
 79
     3
140
3.5
143
0.0393700787401575
147
0.875
148
0.000000001
170
     1
173
     1
178
     0
271
     2
272
     2
276
     2
284
    12
340
94
  0
ENDTAB
  0
TABLE
  2
BLOCK_RECORD
  5
1
330
0
100
AcDbSymbolTable
 70
    18
  0
BLOCK_RECORD
  5
1F
330
1
100
AcDbSymbolTableRecord
100
AcDbBlockTableRecord
  2
*Model_Space
340
22
  0
BLOCK_RECORD
  5
1B
330
1
100
AcDbSymbolTableRecord
100
AcDbBlockTableRecord
  2
*Paper_Space
340
1E
  0
BLOCK_RECORD
  5
23
330
1
100
AcDbSymbolTableRecord
100
AcDbBlockTableRecord
  2
*Paper_Space0
340
26
  0
BLOCK_RECORD
  5
7F
330
1
100
AcDbSymbolTableRecord
100
AcDbBlockTableRecord
  2
블럭10
340
0
102
{BLKREFS
331
C3
102
}
  0
BLOCK_RECORD
  5
CC
330
1
100
AcDbSymbolTableRecord
100
AcDbBlockTableRecord
  2
_D
340
0
  0
BLOCK_RECORD
  5
E0
330
1
100
AcDbSymbolTableRecord
100
AcDbBlockTableRecord
  2
_D_1
340
0
  0
BLOCK_RECORD
  5
F4
330
1
100
AcDbSymbolTableRecord
100
AcDbBlockTableRecord
  2
_D_2
340
0
  0
BLOCK_RECORD
  5
108
330
1
100
AcDbSymbolTableRecord
100
AcDbBlockTableRecord
  2
_D_3
340
0
  0
BLOCK_RECORD
  5
121
330
1
100
AcDbSymbolTableRecord
100
AcDbBlockTableRecord
  2
SW_DOWELSYMBOL_0
340
0
102
{BLKREFS
331
127
331
1F1
331
0
102
}
  0
BLOCK_RECORD
  5
1E3
330
1
100
AcDbSymbolTableRecord
100
AcDbBlockTableRecord
  2
_D_4
340
0
  0
BLOCK_RECORD
  5
1FD
330
1
100
AcDbSymbolTableRecord
100
AcDbBlockTableRecord
  2
*D9
340
0
  0
BLOCK_RECORD
  5
209
330
1
100
AcDbSymbolTableRecord
100
AcDbBlockTableRecord
  2
*D10
340
0
  0
BLOCK_RECORD
  5
215
330
1
100
AcDbSymbolTableRecord
100
AcDbBlockTableRecord
  2
*D11
340
0
  0
BLOCK_RECORD
  5
221
330
1
100
AcDbSymbolTableRecord
100
AcDbBlockTableRecord
  2
*D12
340
0
  0
BLOCK_RECORD
  5
27B
330
1
100
AcDbSymbolTableRecord
100
AcDbBlockTableRecord
  2
*D13
340
0
  0
BLOCK_RECORD
  5
287
330
1
100
AcDbSymbolTableRecord
100
AcDbBlockTableRecord
  2
*D14
340
0
  0
BLOCK_RECORD
  5
293
330
1
100
AcDbSymbolTableRecord
100
AcDbBlockTableRecord
  2
*D15
340
0
  0
BLOCK_RECORD
  5
2A1
330
1
100
AcDbSymbolTableRecord
100
AcDbBlockTableRecord
  2
*D16
340
0
  0
BLOCK_RECORD
  5
2AF
330
1
100
AcDbSymbolTableRecord
100
AcDbBlockTableRecord
  2
*D17
340
0
  0
ENDTAB
  0
ENDSEC
  0
SECTION
  2
BLOCKS
  0
BLOCK
  5
20
330
1F
100
AcDbEntity
  8
0
100
AcDbBlockBegin
  2
*Model_Space
 70
     0
 10
0.0
 20
0.0
 30
0.0
  3
*Model_Space
  1
*Model_Space
  0
ENDBLK
  5
21
330
1F
100
AcDbEntity
  8
0
100
AcDbBlockEnd
  0
BLOCK
  5
1C
330
1B
100
AcDbEntity
 67
     1
  8
0
100
AcDbBlockBegin
  2
*Paper_Space
 70
     0
 10
0.0
 20
0.0
 30
0.0
  3
*Paper_Space
  1
*Paper_Space
  0
ENDBLK
  5
1D
330
1B
100
AcDbEntity
 67
     1
  8
0
100
AcDbBlockEnd
  0
BLOCK
  5
24
330
23
100
AcDbEntity
  8
0
100
AcDbBlockBegin
  2
*Paper_Space0
 70
     0
 10
0.0
 20
0.0
 30
0.0
  3
*Paper_Space0
  1
*Paper_Space0
  0
ENDBLK
  5
25
330
23
100
AcDbEntity
  8
0
100
AcDbBlockEnd
  0
BLOCK
  5
80
330
7F
100
AcDbEntity
  8
0
100
AcDbBlockBegin
  2
블럭10
 70
     2
 10
0.0
 20
0.0
 30
0.0
  3
블럭10
  1
블럭10
  0
ELLIPSE
  5
82
330
7F
100
AcDbEntity
  8
중심선
100
AcDbEllipse
 10
20.54032771741204
 20
12.0471743016438
 30
0.0
 11
6.600054785286829
 21
-1.261213355974178E-13
 31
0.0
210
0.0
220
0.0
230
1.0
 40
0.636358354079598
 41
0.9219305317359503
 42
6.513795318482858
  0
ELLIPSE
  5
83
330
7F
100
AcDbEntity
  8
중심선
100
AcDbEllipse
 10
20.54032771746488
 20
12.04717430159265
 30
0.0
 11
3.960054785062283
 21
1.540847449632565E-10
 31
0.0
210
0.0
220
0.0
230
1.0
 40
0.3939339440162632
 41
1.131841032648279
 42
5.62031148352944
  0
LINE
  5
84
330
7F
100
AcDbEntity
  8
중심선
100
AcDbLine
 10
2.268634060543552
 20
16.24717430164393
 30
0.0
 11
5.714909304380834
 21
16.24717430164393
 31
0.0
  0
LINE
  5
85
330
7F
100
AcDbEntity
  8
중심선
100
AcDbLine
 10
5.245725140726316
 20
7.84717430164391
 30
0.0
 11
8.692000384563599
 21
7.84717430164391
 31
0.0
  0
LINE
  5
86
330
7F
100
AcDbEntity
  8
중심선
100
AcDbLine
 10
15.74043728645272
 20
16.24717430164393
 30
0.0
 11
8.692000384563599
 21
7.84717430164391
 31
0.0
  0
LINE
  5
87
330
7F
100
AcDbEntity
  8
중심선
100
AcDbLine
 10
0.1404042013395286
 20
13.71084872107135
 30
0.0
 11
3.58671253028996
 21
13.71088815037384
 31
0.0
  0
LINE
  5
88
330
7F
100
AcDbEntity
  8
중심선
100
AcDbLine
 10
2.750260043222114
 20
10.84717430164391
 30
0.0
 11
6.196535287059397
 21
10.84717430164391
 31
0.0
  0
LINE
  5
89
330
7F
100
AcDbEntity
  8
중심선
100
AcDbLine
 10
12.29416204261559
 20
16.24717430164393
 30
0.0
 11
5.245725140726316
 21
7.84717430164391
 31
0.0
  0
LINE
  5
8A
330
7F
100
AcDbEntity
  8
중심선
100
AcDbLine
 10
10.72767329541681
 20
16.24717430164393
 30
0.0
 11
6.196535287059397
 21
10.84717430164391
 31
0.0
  0
LINE
  5
8B
330
7F
100
AcDbEntity
  8
중심선
100
AcDbLine
 10
7.28139805157953
 20
16.24717430164393
 30
0.0
 11
2.750260043222114
 21
10.84717430164391
 31
0.0
  0
LINE
  5
8C
330
7F
100
AcDbEntity
  8
중심선
100
AcDbLine
 10
5.714909304380834
 20
16.24717430164393
 30
0.0
 11
3.58671253028996
 21
13.71088815037384
 31
0.0
  0
LINE
  5
8D
330
7F
100
AcDbEntity
  8
중심선
100
AcDbLine
 10
2.268634060543552
 20
16.24717430164393
 30
0.0
 11
0.1404042013395286
 21
13.71084872107135
 31
0.0
  0
LINE
  5
8E
330
7F
100
AcDbEntity
  8
중심선
100
AcDbLine
 10
7.28139805157953
 20
16.24717430164393
 30
0.0
 11
10.72767329541681
 21
16.24717430164393
 31
0.0
  0
LINE
  5
8F
330
7F
100
AcDbEntity
  8
중심선
100
AcDbLine
 10
12.29416204261559
 20
16.24717430164393
 30
0.0
 11
15.74043728645272
 21
16.24717430164393
 31
0.0
  0
LINE
  5
90
330
7F
100
AcDbEntity
  8
중심선
100
AcDbLine
 10
19.22036997980202
 20
11.08717430171403
 30
0.0
 11
23.66174974927406
 21
11.08717430171406
 31
0.0
  0
LINE
  5
91
330
7F
100
AcDbEntity
  8
중심선
100
AcDbLine
 10
19.22039502424796
 20
13.00717430171391
 30
0.0
 11
19.22036997980202
 21
11.08717430171403
 31
0.0
  0
LINE
  5
92
330
7F
100
AcDbEntity
  8
중심선
100
AcDbLine
 10
19.22039502424796
 20
13.00717430171391
 30
0.0
 11
26.96566020931264
 21
13.00717430171391
 31
0.0
  0
LINE
  5
93
330
7F
100
AcDbEntity
  8
중심선
100
AcDbLine
 10
22.22332737316547
 20
13.45928029700563
 30
0.0
 11
24.52862924686651
 21
15.39360700705356
 31
0.0
  0
ATTDEF
  5
95
330
7F
100
AcDbEntity
  8
FORMAT
 62
     2
100
AcDbText
 10
4.408487351596664
 20
2.075366912832191
 30
0.0
 40
4.233333333333333
  1
E5059904
 41
0.75
  7
SLDTEXTSTYLE0
 11
4.408487351596664
 21
-0.0412997538344756
 31
0.0
100
AcDbAttributeDefinition
  3

  2
AUTOATTR0
 70
     0
 74
     1
  0
ENDBLK
  5
81
330
7F
100
AcDbEntity
  8
0
100
AcDbBlockEnd
  0
BLOCK
  5
CD
330
CC
100
AcDbEntity
  8
0
100
AcDbBlockBegin
  2
_D
 70
     0
 10
0.0
 20
0.0
 30
0.0
  3
_D
  1
_D
  0
LINE
  5
CF
330
CC
100
AcDbEntity
  8
치수문자_일반주서
 62
     0
370
    -2
100
AcDbLine
 10
-40.80000000000001
 20
4.324999999999992
 30
0.0
 11
-40.80000000000001
 21
27.95355032795722
 31
0.0
  0
LINE
  5
D0
330
CC
100
AcDbEntity
  8
치수문자_일반주서
 62
     0
370
    -2
100
AcDbLine
 10
48.10000000000001
 20
4.825000000000003
 30
0.0
 11
48.10000000000001
 21
27.95355032795722
 31
0.0
  0
LINE
  5
D1
330
CC
100
AcDbEntity
  8
치수문자_일반주서
 62
     0
370
    -2
100
AcDbLine
 10
-37.49800000000001
 20
27.95355032795722
 30
0.0
 11
44.79800000000001
 21
27.95355032795722
 31
0.0
  0
SOLID
  5
D2
330
CC
100
AcDbEntity
  8
치수문자_일반주서
 62
     0
100
AcDbTrace
 10
-37.49800000000001
 20
28.50388366129055
 30
0.0
 11
-37.49800000000001
 21
27.40321699462388
 31
0.0
 12
-40.80000000000001
 22
27.95355032795722
 32
0.0
 13
-40.80000000000001
 23
27.95355032795722
 33
0.0
  0
SOLID
  5
D3
330
CC
100
AcDbEntity
  8
치수문자_일반주서
 62
     0
100
AcDbTrace
 10
44.79800000000001
 20
27.40321699462388
 30
0.0
 11
44.79800000000001
 21
28.50388366129055
 31
0.0
 12
48.10000000000001
 22
27.95355032795722
 32
0.0
 13
48.10000000000001
 23
27.95355032795722
 33
0.0
  0
MTEXT
  5
D4
330
CC
100
AcDbEntity
  8
치수문자_일반주서
 62
     0
100
AcDbMText
 10
3.649999999999997
 20
32.32855032795722
 30
0.0
 40
3.5
 41
0.0
 71
     2
 72
     1
  1
\A1;88.90 [3 1/2]
  7
SLDTEXTSTYLE0
 73
     1
 44
1.0
  0
POINT
  5
D5
330
CC
100
AcDbEntity
  8
Defpoints
 62
     0
100
AcDbPoint
 10
-40.80000000000001
 20
4.262499999999992
 30
0.0
  0
POINT
  5
D6
330
CC
100
AcDbEntity
  8
Defpoints
 62
     0
100
AcDbPoint
 10
48.10000000000001
 20
4.762500000000003
 30
0.0
  0
POINT
  5
D7
330
CC
100
AcDbEntity
  8
Defpoints
 62
     0
100
AcDbPoint
 10
48.10000000000001
 20
27.95355032795722
 30
0.0
  0
ENDBLK
  5
CE
330
CC
100
AcDbEntity
  8
0
100
AcDbBlockEnd
  0
BLOCK
  5
E1
330
E0
100
AcDbEntity
  8
0
100
AcDbBlockBegin
  2
_D_1
 70
     0
 10
0.0
 20
0.0
 30
0.0
  3
_D_1
  1
_D_1
  0
LINE
  5
E3
330
E0
100
AcDbEntity
  8
치수문자_일반주서
 62
     0
370
    -2
100
AcDbLine
 10
-40.36250000000001
 20
4.762500000000002
 30
0.0
 11
-53.80000000000003
 21
4.762499999999953
 31
0.0
  0
LINE
  5
E4
330
E0
100
AcDbEntity
  8
치수문자_일반주서
 62
     0
370
    -2
100
AcDbLine
 10
-40.36250000000001
 20
-4.762500000000004
 30
0.0
 11
-53.8
 21
-4.762500000000053
 31
0.0
  0
LINE
  5
E5
330
E0
100
AcDbEntity
  8
치수문자_일반주서
 62
     0
370
    -2
100
AcDbLine
 10
-53.80000000000003
 20
4.762499999999953
 30
0.0
 11
-53.80000000000015
 21
34.53324999999995
 31
0.0
  0
LINE
  5
E6
330
E0
100
AcDbEntity
  8
치수문자_일반주서
 62
     0
370
    -2
100
AcDbLine
 10
-53.80000000000002
 20
1.460499999999954
 30
0.0
 11
-53.80000000000001
 21
-1.460500000000053
 31
0.0
  0
SOLID
  5
E7
330
E0
100
AcDbEntity
  8
치수문자_일반주서
 62
     0
100
AcDbTrace
 10
-53.24966666666668
 20
1.460499999999956
 30
0.0
 11
-54.35033333333335
 21
1.460499999999952
 31
0.0
 12
-53.80000000000003
 22
4.762499999999953
 32
0.0
 13
-53.80000000000003
 23
4.762499999999953
 33
0.0
  0
SOLID
  5
E8
330
E0
100
AcDbEntity
  8
치수문자_일반주서
 62
     0
100
AcDbTrace
 10
-54.35033333333335
 20
-1.460500000000055
 30
0.0
 11
-53.24966666666668
 21
-1.460500000000051
 31
0.0
 12
-53.8
 22
-4.762500000000053
 32
0.0
 13
-53.8
 23
-4.762500000000053
 33
0.0
  0
MTEXT
  5
E9
330
E0
100
AcDbEntity
  8
치수문자_일반주서
 62
     0
100
AcDbMText
 10
-58.1750000000001
 20
21.40824999999993
 30
0.0
 40
3.5
 41
0.0
 71
     2
 72
     1
  1
\A1;%%c9.53 [3/8]
  7
SLDTEXTSTYLE0
 11
-3.729883127349605E-15
 21
1.0
 31
0.0
 73
     1
 44
1.0
  0
POINT
  5
EA
330
E0
100
AcDbEntity
  8
Defpoints
 62
     0
100
AcDbPoint
 10
-40.30000000000001
 20
4.762500000000002
 30
0.0
  0
POINT
  5
EB
330
E0
100
AcDbEntity
  8
Defpoints
 62
     0
100
AcDbPoint
 10
-40.30000000000001
 20
-4.762500000000004
 30
0.0
  0
POINT
  5
2B8
330
E0
100
AcDbEntity
  8
Defpoints
 62
     0
100
AcDbPoint
 10
-53.8
 20
-4.762500000000054
 30
0.0
  0
ENDBLK
  5
E2
330
E0
100
AcDbEntity
  8
0
100
AcDbBlockEnd
  0
BLOCK
  5
F5
330
F4
100
AcDbEntity
  8
0
100
AcDbBlockBegin
  2
_D_2
 70
     0
 10
0.0
 20
0.0
 30
0.0
  3
_D_2
  1
_D_2
  0
LINE
  5
F7
330
F4
100
AcDbEntity
  8
치수문자_일반주서
 62
     0
370
    -2
100
AcDbLine
 10
48.10000000000001
 20
4.825000000000003
 30
0.0
 11
48.10000000000001
 21
14.55837318078201
 31
0.0
  0
LINE
  5
F8
330
F4
100
AcDbEntity
  8
치수문자_일반주서
 62
     0
370
    -2
100
AcDbLine
 10
10.00000000000001
 20
4.507325487712497
 30
0.0
 11
10.00000000000001
 21
14.55837318078201
 31
0.0
  0
LINE
  5
F9
330
F4
100
AcDbEntity
  8
치수문자_일반주서
 62
     0
370
    -2
100
AcDbLine
 10
44.79800000000001
 20
14.55837318078201
 30
0.0
 11
13.30200000000001
 21
14.55837318078201
 31
0.0
  0
SOLID
  5
FA
330
F4
100
AcDbEntity
  8
치수문자_일반주서
 62
     0
100
AcDbTrace
 10
44.79800000000001
 20
14.00803984744867
 30
0.0
 11
44.79800000000001
 21
15.10870651411534
 31
0.0
 12
48.10000000000001
 22
14.55837318078201
 32
0.0
 13
48.10000000000001
 23
14.55837318078201
 33
0.0
  0
SOLID
  5
FB
330
F4
100
AcDbEntity
  8
치수문자_일반주서
 62
     0
100
AcDbTrace
 10
13.30200000000001
 20
15.10870651411534
 30
0.0
 11
13.30200000000001
 21
14.00803984744867
 31
0.0
 12
10.00000000000001
 22
14.55837318078201
 32
0.0
 13
10.00000000000001
 23
14.55837318078201
 33
0.0
  0
MTEXT
  5
FC
330
F4
100
AcDbEntity
  8
치수문자_일반주서
 62
     0
100
AcDbMText
 10
30.26805228952794
 20
18.93337318078201
 30
0.0
 40
3.5
 41
0.0
 71
     2
 72
     1
  1
\A1;38.10 [1 1/2]
  7
SLDTEXTSTYLE0
 73
     1
 44
1.0
  0
POINT
  5
FD
330
F4
100
AcDbEntity
  8
Defpoints
 62
     0
100
AcDbPoint
 10
48.10000000000001
 20
4.762500000000003
 30
0.0
  0
POINT
  5
FE
330
F4
100
AcDbEntity
  8
Defpoints
 62
     0
100
AcDbPoint
 10
10.00000000000001
 20
4.444825487712497
 30
0.0
  0
POINT
  5
FF
330
F4
100
AcDbEntity
  8
Defpoints
 62
     0
100
AcDbPoint
 10
10.00000000000001
 20
14.55837318078201
 30
0.0
  0
ENDBLK
  5
F6
330
F4
100
AcDbEntity
  8
0
100
AcDbBlockEnd
  0
BLOCK
  5
109
330
108
100
AcDbEntity
  8
0
100
AcDbBlockBegin
  2
_D_3
 70
     0
 10
0.0
 20
0.0
 30
0.0
  3
_D_3
  1
_D_3
  0
LINE
  5
10B
330
108
100
AcDbEntity
  8
치수문자_일반주서
 62
     0
370
    -2
100
AcDbLine
 10
48.16250000000001
 20
4.762500000000003
 30
0.0
 11
61.17872968480466
 21
4.762500000000053
 31
0.0
  0
LINE
  5
10C
330
108
100
AcDbEntity
  8
치수문자_일반주서
 62
     0
370
    -2
100
AcDbLine
 10
48.16250000000001
 20
-4.762499999999946
 30
0.0
 11
61.17872968480469
 21
-4.762499999999896
 31
0.0
  0
LINE
  5
10D
330
108
100
AcDbEntity
  8
치수문자_일반주서
 62
     0
370
    -2
100
AcDbLine
 10
61.17872968480466
 20
4.762500000000053
 30
0.0
 11
61.17872968480454
 21
34.53325000000009
 31
0.0
  0
LINE
  5
10E
330
108
100
AcDbEntity
  8
치수문자_일반주서
 62
     0
370
    -2
100
AcDbLine
 10
61.17872968480467
 20
1.460500000000053
 30
0.0
 11
61.17872968480468
 21
-1.460499999999897
 31
0.0
  0
SOLID
  5
10F
330
108
100
AcDbEntity
  8
치수문자_일반주서
 62
     0
100
AcDbTrace
 10
61.72906301813801
 20
1.460500000000055
 30
0.0
 11
60.62839635147134
 21
1.460500000000051
 31
0.0
 12
61.17872968480466
 22
4.762500000000053
 32
0.0
 13
61.17872968480466
 23
4.762500000000053
 33
0.0
  0
SOLID
  5
110
330
108
100
AcDbEntity
  8
치수문자_일반주서
 62
     0
100
AcDbTrace
 10
60.62839635147134
 20
-1.460499999999899
 30
0.0
 11
61.72906301813801
 21
-1.460499999999895
 31
0.0
 12
61.17872968480469
 22
-4.762499999999896
 32
0.0
 13
61.17872968480469
 23
-4.762499999999896
 33
0.0
  0
MTEXT
  5
111
330
108
100
AcDbEntity
  8
치수문자_일반주서
 62
     0
100
AcDbMText
 10
56.80372968480459
 20
21.40825000000007
 30
0.0
 40
3.5
 41
0.0
 71
     2
 72
     1
  1
\A1;%%c9.53 [3/8]
  7
SLDTEXTSTYLE0
 11
-3.729883127349627E-15
 21
1.0
 31
0.0
 73
     1
 44
1.0
  0
POINT
  5
112
330
108
100
AcDbEntity
  8
Defpoints
 62
     0
100
AcDbPoint
 10
48.10000000000001
 20
4.762500000000003
 30
0.0
  0
POINT
  5
113
330
108
100
AcDbEntity
  8
Defpoints
 62
     0
100
AcDbPoint
 10
48.10000000000001
 20
-4.762499999999946
 30
0.0
  0
POINT
  5
114
330
108
100
AcDbEntity
  8
Defpoints
 62
     0
100
AcDbPoint
 10
61.17872968480469
 20
-4.762499999999897
 30
0.0
  0
ENDBLK
  5
10A
330
108
100
AcDbEntity
  8
0
100
AcDbBlockEnd
  0
BLOCK
  5
122
330
121
100
AcDbEntity
  8
0
100
AcDbBlockBegin
  2
SW_DOWELSYMBOL_0
 70
     0
 10
0.0
 20
0.0
 30
0.0
  3
SW_DOWELSYMBOL_0
  1
SW_DOWELSYMBOL_0
  0
CIRCLE
  5
124
330
121
100
AcDbEntity
  8
해칭선
 62
     0
100
AcDbCircle
 10
0.0
 20
0.0
 30
0.0
 40
3.000000000000003
  0
HATCH
  5
125
330
121
100
AcDbEntity
  8
0
  6
Continuous
 62
     0
370
     0
100
AcDbHatch
 10
0.0
 20
0.0
 30
0.0
210
0.0
220
0.0
230
1.0
  2
SOLID
 70
     1
 71
     0
 91
        1
 92
        0
 93
        3
 72
     2
 10
0.0
 20
0.0
 40
3.000000000000003
 50
0.0
 51
90.0
 73
     1
 72
     1
 10
0.0
 20
3.000000000000003
 11
0.0
 21
0.0
 72
     1
 10
0.0
 20
0.0
 11
3.000000000000003
 21
0.0
 97
        0
 75
     0
 76
     1
 98
        1
 10
0.0
 20
0.0
  0
HATCH
  5
126
330
121
100
AcDbEntity
  8
0
  6
Continuous
 62
     0
370
     0
100
AcDbHatch
 10
0.0
 20
0.0
 30
0.0
210
0.0
220
0.0
230
1.0
  2
SOLID
 70
     1
 71
     0
 91
        1
 92
        0
 93
        3
 72
     2
 10
0.0
 20
0.0
 40
3.000000000000003
 50
180.0
 51
270.0000000000008
 73
     1
 72
     1
 10
0.0
 20
-3.000000000000003
 11
0.0
 21
0.0
 72
     1
 10
0.0
 20
0.0
 11
-3.000000000000003
 21
0.0
 97
        0
 75
     0
 76
     1
 98
        1
 10
0.0
 20
0.0
  0
ENDBLK
  5
123
330
121
100
AcDbEntity
  8
0
100
AcDbBlockEnd
  0
BLOCK
  5
1E4
330
1E3
100
AcDbEntity
  8
0
100
AcDbBlockBegin
  2
_D_4
 70
     0
 10
0.0
 20
0.0
 30
0.0
  3
_D_4
  1
_D_4
  0
LINE
  5
1E5
330
1E3
100
AcDbEntity
  8
치수문자_일반주서
 62
     0
370
    -2
100
AcDbLine
 10
102.4375000000001
 20
36.22143424691529
 30
0.0
 11
117.3750000000001
 21
36.22143424691535
 31
0.0
  0
LINE
  5
1E6
330
1E3
100
AcDbEntity
  8
치수문자_일반주서
 62
     0
370
    -2
100
AcDbLine
 10
102.4375000000001
 20
22.22143424691529
 30
0.0
 11
117.3750000000001
 21
22.22143424691535
 31
0.0
  0
LINE
  5
1E7
330
1E3
100
AcDbEntity
  8
치수문자_일반주서
 62
     0
370
    -2
100
AcDbLine
 10
117.3750000000001
 20
36.22143424691535
 30
0.0
 11
117.3750000000001
 21
22.22143424691535
 31
0.0
  0
LINE
  5
1E8
330
1E3
100
AcDbEntity
  8
치수문자_일반주서
 62
     0
370
    -2
100
AcDbLine
 10
117.3750000000001
 20
39.52343424691535
 30
0.0
 11
117.375
 21
42.82543424691535
 31
0.0
  0
LINE
  5
1E9
330
1E3
100
AcDbEntity
  8
치수문자_일반주서
 62
     0
370
    -2
100
AcDbLine
 10
117.3750000000001
 20
18.91943424691535
 30
0.0
 11
117.3750000000001
 21
15.61743424691535
 31
0.0
  0
SOLID
  5
1EA
330
1E3
100
AcDbEntity
  8
치수문자_일반주서
 62
     0
100
AcDbTrace
 10
116.8246666666667
 20
39.52343424691535
 30
0.0
 11
117.9253333333334
 21
39.52343424691535
 31
0.0
 12
117.3750000000001
 22
36.22143424691535
 32
0.0
 13
117.3750000000001
 23
36.22143424691535
 33
0.0
  0
SOLID
  5
1EB
330
1E3
100
AcDbEntity
  8
치수문자_일반주서
 62
     0
100
AcDbTrace
 10
117.9253333333335
 20
18.91943424691535
 30
0.0
 11
116.8246666666668
 21
18.91943424691535
 31
0.0
 12
117.3750000000001
 22
22.22143424691535
 32
0.0
 13
117.3750000000001
 23
22.22143424691535
 33
0.0
  0
MTEXT
  5
1EC
330
1E3
100
AcDbEntity
  8
치수문자_일반주서
 62
     0
100
AcDbMText
 10
113.0000000000001
 20
29.28713862862833
 30
0.0
 40
3.5
 41
0.0
 71
     2
 72
     1
  1
\A1;%%c14 [0.55]
  7
SLDTEXTSTYLE0
 11
-3.045183153257572E-15
 21
1.0
 31
0.0
 73
     1
 44
1.0
  0
POINT
  5
1ED
330
1E3
100
AcDbEntity
  8
Defpoints
 62
     0
100
AcDbPoint
 10
102.3750000000001
 20
36.22143424691529
 30
0.0
  0
POINT
  5
1EE
330
1E3
100
AcDbEntity
  8
Defpoints
 62
     0
100
AcDbPoint
 10
102.3750000000001
 20
22.22143424691529
 30
0.0
  0
POINT
  5
1EF
330
1E3
100
AcDbEntity
  8
Defpoints
 62
     0
100
AcDbPoint
 10
117.3750000000001
 20
22.22143424691535
 30
0.0
  0
ENDBLK
  5
1F0
330
1E3
100
AcDbEntity
  8
0
100
AcDbBlockEnd
  0
BLOCK
  5
1FE
330
1FD
100
AcDbEntity
  8
0
100
AcDbBlockBegin
  2
*D9
 70
     1
 10
0.0
 20
0.0
 30
0.0
  3
*D9
  1
*D8
  0
LINE
  5
1FF
330
1FD
100
AcDbEntity
  8
치수문자_일반주서
 62
     0
370
    -2
100
AcDbLine
 10
103.8657751816695
 20
19.48229575403651
 30
0.0
 11
119.6194267469468
 21
-6.150060756304035
 31
0.0
  0
MTEXT
  5
200
330
1FD
100
AcDbEntity
  8
치수문자_일반주서
 62
     0
100
AcDbMText
 10
115.6706384014277
 20
5.288158154535728
 30
0.0
 40
3.5
 41
0.0
 71
     5
 72
     1
  1
\A1;R.5 [R0.02]
  7
SLDTEXTSTYLE0
 11
0.5236126201129557
 21
-0.8519564684057781
 31
0.0
 73
     1
 44
1.0
  0
LINE
  5
201
330
1FD
100
AcDbEntity
  8
치수문자_일반주서
 62
     0
370
    -2
100
AcDbLine
 10
101.875
 20
22.72143424691529
 30
0.0
 11
102.1368063100565
 21
22.29545601271239
 31
0.0
  0
SOLID
  5
202
330
1FD
100
AcDbEntity
  8
치수문자_일반주서
 62
     0
100
AcDbTrace
 10
104.3346352247821
 20
19.77045723263868
 30
0.0
 11
103.3969151385569
 21
19.19413427543435
 31
0.0
 12
102.1368063100565
 22
22.29545601271239
 32
0.0
 13
102.1368063100565
 23
22.29545601271239
 33
0.0
  0
POINT
  5
203
330
1FD
100
AcDbEntity
  8
Defpoints
 62
     0
100
AcDbPoint
 10
102.1368063100565
 20
22.29545601271239
 30
0.0
  0
POINT
  5
22F
330
1FD
100
AcDbEntity
  8
Defpoints
 62
     0
100
AcDbPoint
 10
101.875
 20
22.72143424691529
 30
0.0
  0
ENDBLK
  5
204
330
1FD
100
AcDbEntity
  8
0
100
AcDbBlockEnd
  0
BLOCK
  5
20A
330
209
100
AcDbEntity
  8
0
100
AcDbBlockBegin
  2
*D10
 70
     1
 10
0.0
 20
0.0
 30
0.0
  3
*D10
  1
*D10
  0
LINE
  5
20C
330
209
100
AcDbEntity
  8
치수문자_일반주서
 62
     0
370
    -2
100
AcDbLine
 10
19.37500000000004
 20
35.78393424691529
 30
0.0
 11
19.37500000000004
 21
70.88391841499404
 31
0.0
  0
LINE
  5
20D
330
209
100
AcDbEntity
  8
치수문자_일반주서
 62
     0
370
    -2
100
AcDbLine
 10
102.3750000000001
 20
36.34643424691529
 30
0.0
 11
102.3750000000001
 21
70.88391841499404
 31
0.0
  0
LINE
  5
20E
330
209
100
AcDbEntity
  8
치수문자_일반주서
 62
     0
370
    -2
100
AcDbLine
 10
22.67700000000004
 20
70.88391841499404
 30
0.0
 11
99.07300000000006
 21
70.88391841499404
 31
0.0
  0
SOLID
  5
20F
330
209
100
AcDbEntity
  8
치수문자_일반주서
 62
     0
100
AcDbTrace
 10
22.67700000000004
 20
71.43425174832737
 30
0.0
 11
22.67700000000004
 21
70.33358508166071
 31
0.0
 12
19.37500000000004
 22
70.88391841499404
 32
0.0
 13
19.37500000000004
 23
70.88391841499404
 33
0.0
  0
SOLID
  5
210
330
209
100
AcDbEntity
  8
치수문자_일반주서
 62
     0
100
AcDbTrace
 10
99.07300000000006
 20
70.33358508166071
 30
0.0
 11
99.07300000000006
 21
71.43425174832737
 31
0.0
 12
102.3750000000001
 22
70.88391841499404
 32
0.0
 13
102.3750000000001
 23
70.88391841499404
 33
0.0
  0
MTEXT
  5
211
330
209
100
AcDbEntity
  8
치수문자_일반주서
 62
     0
100
AcDbMText
 10
60.87500000000005
 20
75.25891841499404
 30
0.0
 40
3.5
 41
0.0
 71
     2
 72
     1
  1
\A1;83.00 [3.27]
  7
SLDTEXTSTYLE0
 73
     1
 44
1.0
  0
POINT
  5
212
330
209
100
AcDbEntity
  8
Defpoints
 62
     0
100
AcDbPoint
 10
19.37500000000004
 20
35.72143424691529
 30
0.0
  0
POINT
  5
213
330
209
100
AcDbEntity
  8
Defpoints
 62
     0
100
AcDbPoint
 10
102.3750000000001
 20
36.28393424691529
 30
0.0
  0
POINT
  5
214
330
209
100
AcDbEntity
  8
Defpoints
 62
     0
100
AcDbPoint
 10
102.3750000000001
 20
70.88391841499404
 30
0.0
  0
ENDBLK
  5
20B
330
209
100
AcDbEntity
  8
0
100
AcDbBlockEnd
  0
BLOCK
  5
216
330
215
100
AcDbEntity
  8
0
100
AcDbBlockBegin
  2
*D11
 70
     1
 10
0.0
 20
0.0
 30
0.0
  3
*D11
  1
*D11
  0
LINE
  5
218
330
215
100
AcDbEntity
  8
치수문자_일반주서
 62
     0
370
    -2
100
AcDbLine
 10
76.37504186422882
 20
28.62038676313042
 30
0.0
 11
76.37504186422882
 21
61.90091383617725
 31
0.0
  0
LINE
  5
219
330
215
100
AcDbEntity
  8
치수문자_일반주서
 62
     0
370
    -2
100
AcDbLine
 10
102.3750000000001
 20
36.28393424691529
 30
0.0
 11
102.3750000000001
 21
61.90091383617725
 31
0.0
  0
LINE
  5
21A
330
215
100
AcDbEntity
  8
치수문자_일반주서
 62
     0
370
    -2
100
AcDbLine
 10
79.67704186422881
 20
61.90091383617725
 30
0.0
 11
99.07300000000006
 21
61.90091383617725
 31
0.0
  0
SOLID
  5
21B
330
215
100
AcDbEntity
  8
치수문자_일반주서
 62
     0
100
AcDbTrace
 10
79.67704186422881
 20
62.45124716951059
 30
0.0
 11
79.67704186422881
 21
61.35058050284392
 31
0.0
 12
76.37504186422882
 22
61.90091383617725
 32
0.0
 13
76.37504186422882
 23
61.90091383617725
 33
0.0
  0
SOLID
  5
21C
330
215
100
AcDbEntity
  8
치수문자_일반주서
 62
     0
100
AcDbTrace
 10
99.07300000000006
 20
61.35058050284392
 30
0.0
 11
99.07300000000006
 21
62.45124716951059
 31
0.0
 12
102.3750000000001
 22
61.90091383617725
 32
0.0
 13
102.3750000000001
 23
61.90091383617725
 33
0.0
  0
MTEXT
  5
21D
330
215
100
AcDbEntity
  8
치수문자_일반주서
 62
     0
100
AcDbMText
 10
89.42159572693208
 20
66.27591383617725
 30
0.0
 40
3.5
 41
0.0
 71
     2
 72
     1
  1
\A1;26.00 [1.02]
  7
SLDTEXTSTYLE0
 73
     1
 44
1.0
  0
POINT
  5
21E
330
215
100
AcDbEntity
  8
Defpoints
 62
     0
100
AcDbPoint
 10
76.37504186422882
 20
28.55788676313042
 30
0.0
  0
POINT
  5
21F
330
215
100
AcDbEntity
  8
Defpoints
 62
     0
100
AcDbPoint
 10
102.3750000000001
 20
36.22143424691529
 30
0.0
  0
POINT
  5
220
330
215
100
AcDbEntity
  8
Defpoints
 62
     0
100
AcDbPoint
 10
102.3750000000001
 20
61.90091383617725
 30
0.0
  0
ENDBLK
  5
217
330
215
100
AcDbEntity
  8
0
100
AcDbBlockEnd
  0
BLOCK
  5
222
330
221
100
AcDbEntity
  8
0
100
AcDbBlockBegin
  2
*D12
 70
     1
 10
0.0
 20
0.0
 30
0.0
  3
*D12
  1
*D12
  0
LINE
  5
224
330
221
100
AcDbEntity
  8
치수문자_일반주서
 62
     0
370
    -2
100
AcDbLine
 10
19.81250000000005
 20
36.22143424691529
 30
0.0
 11
4.374999999999983
 21
36.22143424691524
 31
0.0
  0
LINE
  5
225
330
221
100
AcDbEntity
  8
치수문자_일반주서
 62
     0
370
    -2
100
AcDbLine
 10
19.81250000000005
 20
22.22143424691529
 30
0.0
 11
4.375000000000032
 21
22.22143424691524
 31
0.0
  0
LINE
  5
226
330
221
100
AcDbEntity
  8
치수문자_일반주서
 62
     0
370
    -2
100
AcDbLine
 10
4.374999999999983
 20
36.22143424691524
 30
0.0
 11
4.375000000000032
 21
22.22143424691524
 31
0.0
  0
LINE
  5
227
330
221
100
AcDbEntity
  8
치수문자_일반주서
 62
     0
370
    -2
100
AcDbLine
 10
4.374999999999972
 20
39.52343424691524
 30
0.0
 11
4.37499999999996
 21
42.82543424691524
 31
0.0
  0
LINE
  5
228
330
221
100
AcDbEntity
  8
치수문자_일반주서
 62
     0
370
    -2
100
AcDbLine
 10
4.375000000000044
 20
18.91943424691524
 30
0.0
 11
4.375000000000055
 21
15.61743424691524
 31
0.0
  0
SOLID
  5
229
330
221
100
AcDbEntity
  8
치수문자_일반주서
 62
     0
100
AcDbTrace
 10
3.824666666666638
 20
39.52343424691524
 30
0.0
 11
4.925333333333305
 21
39.52343424691524
 31
0.0
 12
4.374999999999983
 22
36.22143424691524
 32
0.0
 13
4.374999999999983
 23
36.22143424691524
 33
0.0
  0
SOLID
  5
22A
330
221
100
AcDbEntity
  8
치수문자_일반주서
 62
     0
100
AcDbTrace
 10
4.925333333333377
 20
18.91943424691524
 30
0.0
 11
3.82466666666671
 21
18.91943424691523
 31
0.0
 12
4.375000000000032
 22
22.22143424691524
 32
0.0
 13
4.375000000000032
 23
22.22143424691524
 33
0.0
  0
MTEXT
  5
22B
330
221
100
AcDbEntity
  8
치수문자_일반주서
 62
     0
100
AcDbMText
 10
0.0000000000000071
 20
29.22143424691528
 30
0.0
 40
3.5
 41
0.0
 71
     2
 72
     1
  1
\A1;%%c14 [0.55]
  7
SLDTEXTSTYLE0
 11
-3.489272363107635E-15
 21
1.0
 31
0.0
 73
     1
 44
1.0
  0
POINT
  5
22C
330
221
100
AcDbEntity
  8
Defpoints
 62
     0
100
AcDbPoint
 10
19.87500000000005
 20
36.22143424691529
 30
0.0
  0
POINT
  5
22D
330
221
100
AcDbEntity
  8
Defpoints
 62
     0
100
AcDbPoint
 10
19.87500000000005
 20
22.22143424691529
 30
0.0
  0
POINT
  5
22E
330
221
100
AcDbEntity
  8
Defpoints
 62
     0
100
AcDbPoint
 10
4.375000000000043
 20
22.22143424691524
 30
0.0
  0
ENDBLK
  5
223
330
221
100
AcDbEntity
  8
0
100
AcDbBlockEnd
  0
BLOCK
  5
27C
330
27B
100
AcDbEntity
  8
0
100
AcDbBlockBegin
  2
*D13
 70
     1
 10
0.0
 20
0.0
 30
0.0
  3
*D13
  1
*D13
  0
LINE
  5
27E
330
27B
100
AcDbEntity
  8
치수문자_일반주서
 62
     0
370
    -2
100
AcDbLine
 10
-55.75845327336597
 20
98.7200344488785
 30
0.0
 11
-55.75845327336597
 21
133.8200186169572
 31
0.0
  0
LINE
  5
27F
330
27B
100
AcDbEntity
  8
치수문자_일반주서
 62
     0
370
    -2
100
AcDbLine
 10
27.24154672663404
 20
99.2825344488785
 30
0.0
 11
27.24154672663404
 21
133.8200186169572
 31
0.0
  0
LINE
  5
280
330
27B
100
AcDbEntity
  8
치수문자_일반주서
 62
     0
370
    -2
100
AcDbLine
 10
-52.45645327336597
 20
133.8200186169572
 30
0.0
 11
23.93954672663404
 21
133.8200186169572
 31
0.0
  0
SOLID
  5
281
330
27B
100
AcDbEntity
  8
치수문자_일반주서
 62
     0
100
AcDbTrace
 10
-52.45645327336597
 20
134.3703519502906
 30
0.0
 11
-52.45645327336597
 21
133.2696852836239
 31
0.0
 12
-55.75845327336597
 22
133.8200186169572
 32
0.0
 13
-55.75845327336597
 23
133.8200186169572
 33
0.0
  0
SOLID
  5
282
330
27B
100
AcDbEntity
  8
치수문자_일반주서
 62
     0
100
AcDbTrace
 10
23.93954672663404
 20
133.2696852836239
 30
0.0
 11
23.93954672663404
 21
134.3703519502906
 31
0.0
 12
27.24154672663404
 22
133.8200186169572
 32
0.0
 13
27.24154672663404
 23
133.8200186169572
 33
0.0
  0
MTEXT
  5
283
330
27B
100
AcDbEntity
  8
치수문자_일반주서
 62
     0
100
AcDbMText
 10
-14.25845327336597
 20
138.1950186169572
 30
0.0
 40
3.5
 41
0.0
 71
     2
 72
     1
  1
\A1;83.00 [3.27]
  7
SLDTEXTSTYLE0
 73
     1
 44
1.0
  0
POINT
  5
284
330
27B
100
AcDbEntity
  8
Defpoints
 62
     0
100
AcDbPoint
 10
-55.75845327336597
 20
98.6575344488785
 30
0.0
  0
POINT
  5
285
330
27B
100
AcDbEntity
  8
Defpoints
 62
     0
100
AcDbPoint
 10
27.24154672663404
 20
99.2200344488785
 30
0.0
  0
POINT
  5
286
330
27B
100
AcDbEntity
  8
Defpoints
 62
     0
100
AcDbPoint
 10
27.24154672663404
 20
133.8200186169572
 30
0.0
  0
ENDBLK
  5
27D
330
27B
100
AcDbEntity
  8
0
100
AcDbBlockEnd
  0
BLOCK
  5
288
330
287
100
AcDbEntity
  8
0
100
AcDbBlockBegin
  2
*D14
 70
     1
 10
0.0
 20
0.0
 30
0.0
  3
*D14
  1
*D14
  0
LINE
  5
28A
330
287
100
AcDbEntity
  8
치수문자_일반주서
 62
     0
370
    -2
100
AcDbLine
 10
1.241588590862804
 20
91.55648696509363
 30
0.0
 11
1.241588590862804
 21
124.8370140381405
 31
0.0
  0
LINE
  5
28B
330
287
100
AcDbEntity
  8
치수문자_일반주서
 62
     0
370
    -2
100
AcDbLine
 10
27.24154672663404
 20
99.2200344488785
 30
0.0
 11
27.24154672663404
 21
124.8370140381405
 31
0.0
  0
LINE
  5
28C
330
287
100
AcDbEntity
  8
치수문자_일반주서
 62
     0
370
    -2
100
AcDbLine
 10
4.543588590862804
 20
124.8370140381405
 30
0.0
 11
23.93954672663404
 21
124.8370140381405
 31
0.0
  0
SOLID
  5
28D
330
287
100
AcDbEntity
  8
치수문자_일반주서
 62
     0
100
AcDbTrace
 10
4.543588590862804
 20
125.3873473714738
 30
0.0
 11
4.543588590862804
 21
124.2866807048071
 31
0.0
 12
1.241588590862804
 22
124.8370140381405
 32
0.0
 13
1.241588590862804
 23
124.8370140381405
 33
0.0
  0
SOLID
  5
28E
330
287
100
AcDbEntity
  8
치수문자_일반주서
 62
     0
100
AcDbTrace
 10
23.93954672663404
 20
124.2866807048071
 30
0.0
 11
23.93954672663404
 21
125.3873473714738
 31
0.0
 12
27.24154672663404
 22
124.8370140381405
 32
0.0
 13
27.24154672663404
 23
124.8370140381405
 33
0.0
  0
MTEXT
  5
28F
330
287
100
AcDbEntity
  8
치수문자_일반주서
 62
     0
100
AcDbMText
 10
14.28814245356607
 20
129.2120140381405
 30
0.0
 40
3.5
 41
0.0
 71
     2
 72
     1
  1
\A1;26.00 [1.02]
  7
SLDTEXTSTYLE0
 73
     1
 44
1.0
  0
POINT
  5
290
330
287
100
AcDbEntity
  8
Defpoints
 62
     0
100
AcDbPoint
 10
1.241588590862804
 20
91.49398696509363
 30
0.0
  0
POINT
  5
291
330
287
100
AcDbEntity
  8
Defpoints
 62
     0
100
AcDbPoint
 10
27.24154672663404
 20
99.1575344488785
 30
0.0
  0
POINT
  5
292
330
287
100
AcDbEntity
  8
Defpoints
 62
     0
100
AcDbPoint
 10
27.24154672663404
 20
124.8370140381405
 30
0.0
  0
ENDBLK
  5
289
330
287
100
AcDbEntity
  8
0
100
AcDbBlockEnd
  0
BLOCK
  5
294
330
293
100
AcDbEntity
  8
0
100
AcDbBlockBegin
  2
*D15
 70
     1
 10
0.0
 20
0.0
 30
0.0
  3
*D15
  1
*D15
  0
LINE
  5
296
330
293
100
AcDbEntity
  8
치수문자_일반주서
 62
     0
370
    -2
100
AcDbLine
 10
-55.32095327336597
 20
99.1575344488785
 30
0.0
 11
-70.75845327336602
 21
99.15753444887844
 31
0.0
  0
LINE
  5
297
330
293
100
AcDbEntity
  8
치수문자_일반주서
 62
     0
370
    -2
100
AcDbLine
 10
-55.32095327336597
 20
85.1575344488785
 30
0.0
 11
-70.75845327336597
 21
85.15753444887844
 31
0.0
  0
LINE
  5
298
330
293
100
AcDbEntity
  8
치수문자_일반주서
 62
     0
370
    -2
100
AcDbLine
 10
-70.75845327336602
 20
99.15753444887844
 30
0.0
 11
-70.75845327336597
 21
85.15753444887844
 31
0.0
  0
LINE
  5
299
330
293
100
AcDbEntity
  8
치수문자_일반주서
 62
     0
370
    -2
100
AcDbLine
 10
-70.75845327336603
 20
102.4595344488784
 30
0.0
 11
-70.75845327336604
 21
105.7615344488784
 31
0.0
  0
LINE
  5
29A
330
293
100
AcDbEntity
  8
치수문자_일반주서
 62
     0
370
    -2
100
AcDbLine
 10
-70.75845327336596
 20
81.85553444887844
 30
0.0
 11
-70.75845327336594
 21
78.55353444887845
 31
0.0
  0
SOLID
  5
29B
330
293
100
AcDbEntity
  8
치수문자_일반주서
 62
     0
100
AcDbTrace
 10
-71.30878660669936
 20
102.4595344488784
 30
0.0
 11
-70.2081199400327
 21
102.4595344488784
 31
0.0
 12
-70.75845327336602
 22
99.15753444887844
 32
0.0
 13
-70.75845327336602
 23
99.15753444887844
 33
0.0
  0
SOLID
  5
29C
330
293
100
AcDbEntity
  8
치수문자_일반주서
 62
     0
100
AcDbTrace
 10
-70.20811994003263
 20
81.85553444887844
 30
0.0
 11
-71.30878660669929
 21
81.85553444887844
 31
0.0
 12
-70.75845327336597
 22
85.15753444887844
 32
0.0
 13
-70.75845327336597
 23
85.15753444887844
 33
0.0
  0
MTEXT
  5
29D
330
293
100
AcDbEntity
  8
치수문자_일반주서
 62
     0
100
AcDbMText
 10
-75.133453273366
 20
92.15753444887848
 30
0.0
 40
3.5
 41
0.0
 71
     2
 72
     1
  1
\A1;%%c14 [0.55]
  7
SLDTEXTSTYLE0
 11
-3.045183153257572E-15
 21
1.0
 31
0.0
 73
     1
 44
1.0
  0
POINT
  5
29E
330
293
100
AcDbEntity
  8
Defpoints
 62
     0
100
AcDbPoint
 10
-55.25845327336597
 20
99.1575344488785
 30
0.0
  0
POINT
  5
29F
330
293
100
AcDbEntity
  8
Defpoints
 62
     0
100
AcDbPoint
 10
-55.25845327336597
 20
85.1575344488785
 30
0.0
  0
POINT
  5
2A0
330
293
100
AcDbEntity
  8
Defpoints
 62
     0
100
AcDbPoint
 10
-70.75845327336599
 20
85.15753444887844
 30
0.0
  0
ENDBLK
  5
295
330
293
100
AcDbEntity
  8
0
100
AcDbBlockEnd
  0
BLOCK
  5
2A2
330
2A1
100
AcDbEntity
  8
0
100
AcDbBlockBegin
  2
*D16
 70
     1
 10
0.0
 20
0.0
 30
0.0
  3
*D16
  1
*D16
  0
LINE
  5
2A4
330
2A1
100
AcDbEntity
  8
치수문자_일반주서
 62
     0
370
    -2
100
AcDbLine
 10
27.30404672663406
 20
99.1575344488785
 30
0.0
 11
42.24154672663405
 21
99.15753444887855
 31
0.0
  0
LINE
  5
2A5
330
2A1
100
AcDbEntity
  8
치수문자_일반주서
 62
     0
370
    -2
100
AcDbLine
 10
27.30404672663404
 20
85.1575344488785
 30
0.0
 11
42.2415467266341
 21
85.15753444887855
 31
0.0
  0
LINE
  5
2A6
330
2A1
100
AcDbEntity
  8
치수문자_일반주서
 62
     0
370
    -2
100
AcDbLine
 10
42.24154672663405
 20
99.15753444887855
 30
0.0
 11
42.2415467266341
 21
85.15753444887855
 31
0.0
  0
LINE
  5
2A7
330
2A1
100
AcDbEntity
  8
치수문자_일반주서
 62
     0
370
    -2
100
AcDbLine
 10
42.24154672663403
 20
102.4595344488785
 30
0.0
 11
42.24154672663402
 21
105.7615344488785
 31
0.0
  0
LINE
  5
2A8
330
2A1
100
AcDbEntity
  8
치수문자_일반주서
 62
     0
370
    -2
100
AcDbLine
 10
42.24154672663411
 20
81.85553444887856
 30
0.0
 11
42.24154672663413
 21
78.55353444887857
 31
0.0
  0
SOLID
  5
2A9
330
2A1
100
AcDbEntity
  8
치수문자_일반주서
 62
     0
100
AcDbTrace
 10
41.6912133933007
 20
102.4595344488785
 30
0.0
 11
42.79188005996737
 21
102.4595344488785
 31
0.0
 12
42.24154672663405
 22
99.15753444887855
 32
0.0
 13
42.24154672663405
 23
99.15753444887855
 33
0.0
  0
SOLID
  5
2AA
330
2A1
100
AcDbEntity
  8
치수문자_일반주서
 62
     0
100
AcDbTrace
 10
42.79188005996745
 20
81.85553444887856
 30
0.0
 11
41.69121339330078
 21
81.85553444887856
 31
0.0
 12
42.2415467266341
 22
85.15753444887855
 32
0.0
 13
42.2415467266341
 23
85.15753444887855
 33
0.0
  0
MTEXT
  5
2AB
330
2A1
100
AcDbEntity
  8
치수문자_일반주서
 62
     0
100
AcDbMText
 10
37.86654672663407
 20
92.22323883059154
 30
0.0
 40
3.5
 41
0.0
 71
     2
 72
     1
  1
\A1;%%c14 [0.55]
  7
SLDTEXTSTYLE0
 11
-3.552713678800501E-15
 21
1.0
 31
0.0
 73
     1
 44
1.0
  0
POINT
  5
2AC
330
2A1
100
AcDbEntity
  8
Defpoints
 62
     0
100
AcDbPoint
 10
27.24154672663406
 20
99.1575344488785
 30
0.0
  0
POINT
  5
2AD
330
2A1
100
AcDbEntity
  8
Defpoints
 62
     0
100
AcDbPoint
 10
27.24154672663404
 20
85.1575344488785
 30
0.0
  0
POINT
  5
2AE
330
2A1
100
AcDbEntity
  8
Defpoints
 62
     0
100
AcDbPoint
 10
42.2415467266341
 20
85.15753444887855
 30
0.0
  0
ENDBLK
  5
2A3
330
2A1
100
AcDbEntity
  8
0
100
AcDbBlockEnd
  0
BLOCK
  5
2B0
330
2AF
100
AcDbEntity
  8
0
100
AcDbBlockBegin
  2
*D17
 70
     1
 10
0.0
 20
0.0
 30
0.0
  3
*D17
  1
*D17
  0
LINE
  5
2B2
330
2AF
100
AcDbEntity
  8
치수문자_일반주서
 62
     0
370
    -2
100
AcDbLine
 10
28.73232190830353
 20
82.41839595599976
 30
0.0
 11
44.4859734735812
 21
56.78603944565943
 31
0.0
  0
MTEXT
  5
2B3
330
2AF
100
AcDbEntity
  8
치수문자_일반주서
 62
     0
100
AcDbMText
 10
40.53718512806191
 20
68.22425835649913
 30
0.0
 40
3.5
 41
0.0
 71
     5
 72
     1
  1
\A1;R.5 [R0.02]
  7
SLDTEXTSTYLE0
 11
0.5236126201129684
 21
-0.8519564684057703
 31
0.0
 73
     1
 44
1.0
  0
LINE
  5
2B4
330
2AF
100
AcDbEntity
  8
치수문자_일반주서
 62
     0
370
    -2
100
AcDbLine
 10
26.74154672663403
 20
85.6575344488785
 30
0.0
 11
27.00335303669051
 21
85.2315562146756
 31
0.0
  0
SOLID
  5
2B5
330
2AF
100
AcDbEntity
  8
치수문자_일반주서
 62
     0
100
AcDbTrace
 10
29.20118195141617
 20
82.70655743460193
 30
0.0
 11
28.26346186519089
 21
82.13023447739758
 31
0.0
 12
27.00335303669051
 22
85.2315562146756
 32
0.0
 13
27.00335303669051
 23
85.2315562146756
 33
0.0
  0
POINT
  5
2B6
330
2AF
100
AcDbEntity
  8
Defpoints
 62
     0
100
AcDbPoint
 10
27.00335303669051
 20
85.2315562146756
 30
0.0
  0
POINT
  5
2B7
330
2AF
100
AcDbEntity
  8
Defpoints
 62
     0
100
AcDbPoint
 10
26.74154672663403
 20
85.6575344488785
 30
0.0
  0
ENDBLK
  5
2B1
330
2AF
100
AcDbEntity
  8
0
100
AcDbBlockEnd
  0
ENDSEC
  0
SECTION
  2
ENTITIES
  0
LINE
  5
96
330
1F
100
AcDbEntity
  8
외형선
  6
Continuous
370
    15
100
AcDbLine
 10
8.480097946559354
 20
4.762499999999999
 30
0.0
 11
-40.30000000000001
 21
4.762499999999997
 31
0.0
  0
LINE
  5
97
330
1F
100
AcDbEntity
  8
외형선
  6
Continuous
370
    15
100
AcDbLine
 10
-40.30000000000001
 20
-4.762500000000004
 30
0.0
 11
9.745119710418757
 21
-4.762500000000001
 31
0.0
  0
LINE
  5
98
330
1F
100
AcDbEntity
  8
외형선
  6
Continuous
370
    15
100
AcDbLine
 10
-40.30000000000001
 20
4.762499999999992
 30
0.0
 11
-40.80000000000001
 21
4.262499999999992
 31
0.0
  0
LINE
  5
99
330
1F
100
AcDbEntity
  8
외형선
  6
Continuous
370
    15
100
AcDbLine
 10
-40.80000000000001
 20
-4.262500000000002
 30
0.0
 11
-40.30000000000001
 21
-4.762499999999999
 31
0.0
  0
LINE
  5
9A
330
1F
100
AcDbEntity
  8
0
  6
Continuous
 62
     1
370
    15
100
AcDbLine
 10
38.94510733810642
 20
-4.762500000000005
 30
0.0
 11
44.29755417638829
 21
-4.762500000000005
 31
0.0
  0
LINE
  5
9B
330
1F
100
AcDbEntity
  8
0
  6
Continuous
 62
     1
370
    15
100
AcDbLine
 10
18.38349468168098
 20
4.762500000000003
 30
0.0
 11
13.03005001572011
 21
4.762500000000003
 31
0.0
  0
LINE
  5
9C
330
1F
100
AcDbEntity
  8
0
  6
Continuous
 62
     1
370
    15
100
AcDbLine
 10
21.66919894285987
 20
-4.762500000000005
 30
0.0
 11
27.02040883268316
 21
-4.762500000000005
 31
0.0
  0
LINE
  5
9D
330
1F
100
AcDbEntity
  8
0
  6
Continuous
 62
     1
370
    15
100
AcDbLine
 10
48.10000000000001
 20
4.762500000000003
 30
0.0
 11
47.58335218665101
 21
4.762500000000003
 31
0.0
  0
LINE
  5
9E
330
1F
100
AcDbEntity
  8
0
  6
Continuous
 62
     1
370
    15
100
AcDbLine
 10
35.66017608019402
 20
4.762500000000003
 30
0.0
 11
30.30543814897382
 21
4.762500000000003
 31
0.0
  0
SPLINE
  5
9F
330
1F
100
AcDbEntity
  8
외형선
  6
Continuous
370
    15
100
AcDbSpline
210
0.0
220
0.0
230
1.0
 70
     8
 71
     3
 72
     8
 73
     4
 74
     0
 42
0.000000001
 43
0.00000001
 40
0.0
 40
0.0
 40
0.0
 40
0.0
 40
1.0
 40
1.0
 40
1.0
 40
1.0
 10
10.0
 20
-4.760217574360007
 30
0.0
 10
9.491562872758474
 20
-4.769287082779027
 30
0.0
 10
8.988490571996307
 20
-4.751351810092123
 30
0.0
 10
8.480097946559354
 20
-4.706592818573905
 30
0.0
  0
SPLINE
  5
A0
330
1F
100
AcDbEntity
  8
외형선
  6
Continuous
370
    15
100
AcDbSpline
210
0.0
220
0.0
230
1.0
 70
     8
 71
     3
 72
     8
 73
     4
 74
     0
 42
0.000000001
 43
0.00000001
 40
0.0
 40
0.0
 40
0.0
 40
0.0
 40
1.0
 40
1.0
 40
1.0
 40
1.0
 10
10.0
 20
-0.7412984756694876
 30
0.0
 10
9.491562872758474
 20
-0.4518880589629186
 30
0.0
 10
8.988490571996307
 20
-0.1592962409491546
 30
0.0
 10
8.480097946559354
 20
0.1335613227042496
 30
0.0
  0
SPLINE
  5
A1
330
1F
100
AcDbEntity
  8
외형선
  6
Continuous
370
    15
100
AcDbSpline
210
0.0
220
0.0
230
1.0
 70
    24
 71
     3
 72
    15
 73
    11
 74
     0
 42
0.000000001
 43
0.00000001
 40
0.0
 40
0.0
 40
0.0
 40
0.0
 40
0.0941292983673842
 40
0.2228166450418215
 40
0.3515039917162587
 40
0.4801913383906959
 40
0.608878685065133
 40
0.7375660317395706
 40
0.8662533784140082
 40
1.0
 40
1.0
 40
1.0
 40
1.0
 10
10.0
 20
-0.7664396481274666
 30
0.0
 10
10.0
 20
-0.793018343738817
 30
0.0
 10
9.999999999999998
 20
-0.8559336728491518
 30
0.0
 10
9.999999999999998
 20
-1.088658689496296
 30
0.0
 10
9.999999999999998
 20
-1.457811235787921
 30
0.0
 10
9.999999999999998
 20
-1.946591826659273
 30
0.0
 10
9.999999999999998
 20
-2.533445126576385
 30
0.0
 10
9.999999999999998
 20
-3.206861700308639
 30
0.0
 10
9.999999999999998
 20
-3.952184522498569
 30
0.0
 10
9.999999999999998
 20
-4.487433663218563
 30
0.0
 10
10.0
 20
-4.760217574358693
 30
0.0
  0
LINE
  5
A2
330
1F
100
AcDbEntity
  8
외형선
  6
Continuous
370
    15
100
AcDbLine
 10
8.480097946559354
 20
0.1335768632218446
 30
0.0
 11
8.480097946559354
 21
-4.70659632093138
 31
0.0
  0
SPLINE
  5
A3
330
1F
100
AcDbEntity
  8
외형선
  6
Continuous
370
    15
100
AcDbSpline
210
0.0
220
0.0
230
1.0
 70
     8
 71
     3
 72
     8
 73
     4
 74
     0
 42
0.000000001
 43
0.00000001
 40
0.0
 40
0.0
 40
0.0
 40
0.0
 40
1.0
 40
1.0
 40
1.0
 40
1.0
 10
10.0
 20
4.444825487701421
 30
0.0
 10
9.491562872758472
 20
4.339614060591857
 30
0.0
 10
8.988490571996307
 20
4.209587346732443
 30
0.0
 10
8.480097946559354
 20
4.056043093953006
 30
0.0
  0
LINE
  5
A4
330
1F
100
AcDbEntity
  8
외형선
  6
Continuous
370
    15
100
AcDbLine
 10
8.480097946559354
 20
4.762499999999999
 30
0.0
 11
8.480097946559354
 21
2.983391797432737
 31
0.0
  0
SPLINE
  5
A5
330
1F
100
AcDbEntity
  8
외형선
  6
Continuous
370
    15
100
AcDbSpline
210
0.0
220
0.0
230
1.0
 70
     8
 71
     3
 72
     8
 73
     4
 74
     0
 42
0.000000001
 43
0.00000001
 40
0.0
 40
0.0
 40
0.0
 40
0.0
 40
1.0
 40
1.0
 40
1.0
 40
1.0
 10
10.0
 20
2.252432747667521
 30
0.0
 10
9.491562872758472
 20
2.510575188557479
 30
0.0
 10
8.988490571996307
 20
2.755045730439863
 30
0.0
 10
8.480097946559354
 20
2.983409667052053
 30
0.0
  0
LINE
  5
A6
330
1F
100
AcDbEntity
  8
외형선
  6
Continuous
370
    15
100
AcDbLine
 10
-40.30000000000001
 20
4.762499999999992
 30
0.0
 11
-40.30000000000001
 21
-4.762500000000004
 31
0.0
  0
LINE
  5
A7
330
1F
100
AcDbEntity
  8
외형선
  6
Continuous
370
    15
100
AcDbLine
 10
10.0
 20
2.252432747667523
 30
0.0
 11
10.0
 21
-0.7412984756694874
 31
0.0
  0
LINE
  5
A8
330
1F
100
AcDbEntity
  8
외형선
  6
Continuous
370
    15
100
AcDbLine
 10
-40.80000000000001
 20
4.262499999999992
 30
0.0
 11
-40.80000000000001
 21
-4.262500000000004
 31
0.0
  0
SPLINE
  5
A9
330
1F
100
AcDbEntity
  8
외형선
  6
Continuous
370
    15
100
AcDbSpline
210
0.0
220
0.0
230
1.0
 70
    24
 71
     3
 72
    12
 73
     8
 74
     0
 42
0.000000001
 43
0.00000001
 40
0.0
 40
0.0
 40
0.0
 40
0.0
 40
0.1869678739781189
 40
0.3770827332346317
 40
0.6199468984144499
 40
0.8698541408372702
 40
0.9999999999999999
 40
0.9999999999999999
 40
0.9999999999999999
 40
0.9999999999999999
 10
10.0
 20
4.444825487701427
 30
0.0
 10
10.0
 20
4.269486343889986
 30
0.0
 10
9.999999999999998
 20
3.915856802168951
 30
0.0
 10
9.999999999999998
 20
3.394850391028271
 30
0.0
 10
9.999999999999998
 20
2.898015501651031
 30
0.0
 10
9.999999999999998
 20
2.517168457920509
 30
0.0
 10
9.999999999999998
 20
2.365906778483622
 30
0.0
 10
9.999999999999998
 20
2.314108539904375
 30
0.0
  0
SPLINE
  5
AA
330
1F
100
AcDbEntity
  8
0
  6
Continuous
 62
     1
370
    15
100
AcDbSpline
210
0.0
220
0.0
230
1.0
 70
     8
 71
     3
 72
    26
 73
    22
 74
     0
 42
0.000000001
 43
0.00000001
 40
0.0
 40
0.0
 40
0.0
 40
0.0
 40
0.0555779019411361
 40
0.1111378546318065
 40
0.1666847742842383
 40
0.2222236134666405
 40
0.2777593473379412
 40
0.3332969597488326
 40
0.3888414292912993
 40
0.4443977153793214
 40
0.4999707444431292
 40
0.5555524310287688
 40
0.6111163483879078
 40
0.6666660184209013
 40
0.7222063860154072
 40
0.7777424220544052
 40
0.8332791095425729
 40
0.888821429660827
 40
0.9443743478316824
 40
0.9999427998779533
 40
1.0
 40
1.0
 40
1.0
 40
1.0
 10
48.10000000000001
 20
-4.265471577754797
 30
0.0
 10
47.54941454985534
 20
-4.390304663891261
 30
0.0
 10
46.4484214647732
 20
-4.639930520494632
 30
0.0
 10
44.79729261403676
 20
-4.783535072531696
 30
0.0
 10
43.146618465893
 20
-4.748382207337293
 30
0.0
 10
41.49623489184324
 20
-4.520432844270505
 30
0.0
 10
39.84596123877152
 20
-4.112947268277875
 30
0.0
 10
38.19562101819187
 20
-3.541065062728507
 30
0.0
 10
36.54503564875654
 20
-2.827876242976916
 30
0.0
 10
34.89403194018814
 20
-2.001712233333085
 30
0.0
 10
33.24254997486155
 20
-1.095611736241508
 30
0.0
 10
31.59090213464365
 20
-0.1458775127809274
 30
0.0
 10
29.9396484450952
 20
0.8098160458387973
 30
0.0
 10
28.2888755693886
 20
1.733100863190962
 30
0.0
 10
26.63843767987434
 20
2.587029549083204
 30
0.0
 10
24.98815335986949
 20
3.338134095917813
 30
0.0
 10
23.33784554010945
 20
3.954304005442728
 30
0.0
 10
21.68733891625768
 20
4.419042356748988
 30
0.0
 10
20.03644718548239
 20
4.683608216310199
 30
0.0
 10
18.93512185138203
 20
4.79461866294716
 30
0.0
 10
18.38406133981958
 20
4.762433799310162
 30
0.0
 10
18.38349468168098
 20
4.76240070346218
 30
0.0
  0
SPLINE
  5
AB
330
1F
100
AcDbEntity
  8
0
  6
Continuous
 62
     1
370
    15
100
AcDbSpline
210
0.0
220
0.0
230
1.0
 70
     8
 71
     3
 72
    22
 73
    18
 74
     0
 42
0.000000001
 43
0.00000001
 40
0.0
 40
0.0
 40
0.0
 40
0.0
 40
0.0270956507395227
 40
0.0965675600386252
 40
0.1660448878272855
 40
0.2355338523514594
 40
0.3050406393386744
 40
0.3745696544534223
 40
0.4440878395807539
 40
0.5135850803523456
 40
0.583067539406703
 40
0.6525414206428213
 40
0.7220129519501118
 40
0.7914883677962826
 40
0.8609738917762164
 40
0.9304757192253028
 40
0.9999999999999999
 40
0.9999999999999999
 40
0.9999999999999999
 40
0.9999999999999999
 10
24.34452592651937
 20
3.554877903822936
 30
0.0
 10
24.5590704825089
 20
3.641066400325407
 30
0.0
 10
25.32369667623453
 20
3.94823794201128
 30
0.0
 10
26.63843702816322
 20
4.322623236036354
 30
0.0
 10
28.28887574405077
 20
4.653263728560528
 30
0.0
 10
29.93964839827841
 20
4.789277685745168
 30
0.0
 10
31.59090214719407
 20
4.736469471494257
 30
0.0
 10
33.24254997149879
 20
4.493951061074559
 30
0.0
 10
34.89403194108883
 20
4.072166271722683
 30
0.0
 10
36.5450356485153
 20
3.487758007511808
 30
0.0
 10
38.1956210182565
 20
2.764201885340566
 30
0.0
 10
39.8459612387542
 20
1.930310543997819
 30
0.0
 10
41.49623489184786
 20
1.019535584126389
 30
0.0
 10
43.14661846589175
 20
0.067504856154163
 30
0.0
 10
44.79729261403709
 20
-0.8852503544149636
 30
0.0
 10
46.44842146477311
 20
-1.810316987137574
 30
0.0
 10
47.54941454985533
 20
-2.359983433731205
 30
0.0
 10
48.10000000000001
 20
-2.634861043797744
 30
0.0
  0
SPLINE
  5
AC
330
1F
100
AcDbEntity
  8
0
  6
Continuous
 62
     1
370
    15
100
AcDbSpline
210
0.0
220
0.0
230
1.0
 70
     8
 71
     3
 72
     9
 73
     5
 74
     0
 42
0.000000001
 43
0.00000001
 40
0.0
 40
0.0
 40
0.0
 40
0.0
 40
0.2549323666487192
 40
0.9999999999999999
 40
0.9999999999999999
 40
0.9999999999999999
 40
0.9999999999999999
 10
47.17840238106369
 20
-2.16538403540342
 30
0.0
 10
47.12922894037588
 20
-2.178193073287054
 30
0.0
 10
46.93634075856423
 20
-2.228437920781389
 30
0.0
 10
46.71978626358096
 20
-2.327114620901309
 30
0.0
 10
46.5584385185122
 20
-2.400635436326572
 30
0.0
  0
SPLINE
  5
AD
330
1F
100
AcDbEntity
  8
0
  6
Continuous
 62
     1
370
    15
100
AcDbSpline
210
0.0
220
0.0
230
1.0
 70
     8
 71
     3
 72
     8
 73
     4
 74
     0
 42
0.000000001
 43
0.00000001
 40
0.0
 40
0.0
 40
0.0
 40
0.0
 40
1.0
 40
1.0
 40
1.0
 40
1.0
 10
48.10000000000001
 20
-2.784196431186865
 30
0.0
 10
47.57292840035622
 20
-2.703525848157295
 30
0.0
 10
47.05954323427956
 20
-2.57399921792601
 30
0.0
 10
46.55843851851154
 20
-2.4006354363293
 30
0.0
  0
LINE
  5
AE
330
1F
100
AcDbEntity
  8
0
  6
Continuous
 62
     1
370
    15
100
AcDbLine
 10
48.10000000000001
 20
-4.2654715777548
 30
0.0
 11
48.10000000000001
 21
-2.784196431186866
 31
0.0
  0
SPLINE
  5
AF
330
1F
100
AcDbEntity
  8
0
  6
Continuous
 62
     1
370
    15
100
AcDbSpline
210
0.0
220
0.0
230
1.0
 70
     8
 71
     3
 72
    21
 73
    17
 74
     0
 42
0.000000001
 43
0.00000001
 40
0.0
 40
0.0
 40
0.0
 40
0.0
 40
0.0605387232368214
 40
0.1323850075228288
 40
0.2042128694676261
 40
0.2760287030013266
 40
0.3478389356669964
 40
0.4196500106815222
 40
0.4914683689035991
 40
0.563300430815701
 40
0.6351525786267498
 40
0.7081490779843747
 40
0.7811321849848323
 40
0.8540989063746525
 40
0.9270534376221568
 40
1.0
 40
1.0
 40
1.0
 40
1.0
 10
32.98219578033724
 20
-3.562390967500586
 30
0.0
 10
32.51837562974904
 20
-3.733597006067762
 30
0.0
 10
31.50410194107781
 20
-4.107987338268949
 30
0.0
 10
29.93964793775744
 20
-4.494832074494735
 30
0.0
 10
28.28887569996285
 20
-4.738511151626481
 30
0.0
 10
26.63843766476822
 20
-4.78905824549848
 30
0.0
 10
24.98815328974592
 20
-4.64952841524789
 30
0.0
 10
23.33784583572794
 20
-4.32414249530001
 30
0.0
 10
21.68733780369579
 20
-3.826224031303711
 30
0.0
 10
20.03645134141393
 20
-3.175510492726345
 30
0.0
 10
18.37644972568135
 20
-2.39388795390328
 30
0.0
 10
16.70749542061876
 20
-1.510856857935825
 30
0.0
 10
15.03010983210005
 20
-0.5604503076682772
 30
0.0
 10
13.35311756863536
 20
0.4112005535501038
 30
0.0
 10
11.67646106861533
 20
1.372510349734324
 30
0.0
 10
10.55880000795614
 20
1.959135961854314
 30
0.0
 10
9.999999999999938
 20
2.252432747667557
 30
0.0
  0
SPLINE
  5
B0
330
1F
100
AcDbEntity
  8
외형선
  6
Continuous
370
    15
100
AcDbSpline
210
0.0
220
0.0
230
1.0
 70
    24
 71
     3
 72
    12
 73
     8
 74
     0
 42
0.000000001
 43
0.00000001
 40
0.0
 40
0.0
 40
0.0
 40
0.0
 40
0.1869678739792767
 40
0.3770827332370302
 40
0.6199468984159133
 40
0.8698541408377718
 40
0.9999999999999999
 40
0.9999999999999999
 40
0.9999999999999999
 40
0.9999999999999999
 10
10.00000000000001
 20
4.444825487712497
 30
0.0
 10
10.00000000000001
 20
4.269486343899057
 30
0.0
 10
10.00000000000001
 20
3.915856802173935
 30
0.0
 10
10.00000000000001
 20
3.394850391029709
 30
0.0
 10
10.00000000000001
 20
2.898015501651033
 30
0.0
 10
10.00000000000001
 20
2.517168457920508
 30
0.0
 10
10.00000000000001
 20
2.365906778483622
 30
0.0
 10
10.00000000000001
 20
2.314108539904375
 30
0.0
  0
SPLINE
  5
B1
330
1F
100
AcDbEntity
  8
0
  6
Continuous
 62
     1
370
    15
100
AcDbSpline
210
0.0
220
0.0
230
1.0
 70
     8
 71
     3
 72
    25
 73
    21
 74
     0
 42
0.000000001
 43
0.00000001
 40
0.0
 40
0.0
 40
0.0
 40
0.0
 40
0.0579190465860662
 40
0.1158444203974069
 40
0.1737794730941904
 40
0.2317275358481293
 40
0.2896862320374675
 40
0.3467363213181766
 40
0.4037704625393895
 40
0.4607937231291501
 40
0.5178112009044271
 40
0.5748280098607625
 40
0.6318492658660861
 40
0.6888800723434257
 40
0.7459255060273671
 40
0.8029891827236828
 40
0.8600439710602319
 40
0.9170815699983322
 40
0.9741070373230064
 40
1.0
 40
1.0
 40
1.0
 40
1.0
 10
9.999999999999325
 20
4.444825487701284
 30
0.0
 10
10.55880000795548
 20
4.542969284959873
 30
0.0
 10
11.67646106861459
 20
4.739267600957313
 30
0.0
 10
13.35311756863597
 20
4.789515811550078
 30
0.0
 10
15.03010983209614
 20
4.65566462844307
 30
0.0
 10
16.70749542063236
 20
4.326518524012902
 30
0.0
 10
18.37644972563046
 20
3.822776274827794
 30
0.0
 10
20.03645134160039
 20
3.166875672168479
 30
0.0
 10
21.6873378029998
 20
2.388055831233343
 30
0.0
 10
23.33784583832488
 20
1.513958899955393
 30
0.0
 10
24.98815328005508
 20
0.5794745968618644
 30
0.0
 10
26.63843770093571
 20
-0.3781297798953023
 30
0.0
 10
28.28887556496258
 20
-1.320687405561214
 30
0.0
 10
29.93964844173263
 20
-2.210530834475913
 30
0.0
 10
31.59090215252894
 20
-3.012423879326027
 30
0.0
 10
33.2425499066651
 20
-3.693167035829331
 30
0.0
 10
34.89403219500397
 20
-4.22943268297715
 30
0.0
 10
36.5450346980686
 20
-4.586058728252285
 30
0.0
 10
37.89532687945743
 20
-4.760865209757823
 30
0.0
 10
38.69529961516783
 20
-4.744113785343631
 30
0.0
 10
38.94510733810644
 20
-4.738882813084092
 30
0.0
  0
SPLINE
  5
B2
330
1F
100
AcDbEntity
  8
0
  6
Continuous
 62
     1
370
    15
100
AcDbSpline
210
0.0
220
0.0
230
1.0
 70
     8
 71
     3
 72
    14
 73
    10
 74
     0
 42
0.000000001
 43
0.00000001
 40
0.0
 40
0.0
 40
0.0
 40
0.0
 40
0.1436696187819299
 40
0.2873549324016846
 40
0.4310642547346996
 40
0.5748058488342928
 40
0.7185738194317776
 40
0.8600879682576729
 40
1.0
 40
1.0
 40
1.0
 40
1.0
 10
9.999999999999325
 20
-0.7412984756691032
 30
0.0
 10
10.55880000666324
 20
-1.057085321146332
 30
0.0
 10
11.67646106473772
 20
-1.688693509466127
 30
0.0
 10
13.35311758414653
 20
-2.558457776449694
 30
0.0
 10
15.0301097739154
 20
-3.324835100412116
 30
0.0
 10
16.70749563791033
 20
-3.954751211795257
 30
0.0
 10
18.37644891993285
 20
-4.41564813212601
 30
0.0
 10
20.03037623332611
 20
-4.70849321099536
 30
0.0
 10
21.12500188629825
 20
-4.743872614222284
 30
0.0
 10
21.66919894285987
 20
-4.761461611014678
 30
0.0
  0
SPLINE
  5
B3
330
1F
100
AcDbEntity
  8
0
  6
Continuous
 62
     1
370
    15
100
AcDbSpline
210
0.0
220
0.0
230
1.0
 70
     8
 71
     3
 72
    11
 73
     7
 74
     0
 42
0.000000001
 43
0.00000001
 40
0.0
 40
0.0
 40
0.0
 40
0.0
 40
0.2353914216791163
 40
0.4901936461049995
 40
0.7450556550725832
 40
1.0
 40
1.0
 40
1.0
 40
1.0
 10
41.6217079554
 20
3.566863353612987
 30
0.0
 10
42.12998485491521
 20
3.751514645212693
 30
0.0
 10
43.18845208718318
 20
4.136043908180682
 30
0.0
 10
44.79729292991397
 20
4.519384826418721
 30
0.0
 10
46.44842138576639
 20
4.758216193745278
 30
0.0
 10
47.54941452351692
 20
4.754840544385524
 30
0.0
 10
48.10000000000001
 20
4.753152447114566
 30
0.0
  0
LINE
  5
B4
330
1F
100
AcDbEntity
  8
0
  6
Continuous
 62
     1
370
    15
100
AcDbLine
 10
48.10000000000001
 20
4.753152447114568
 30
0.0
 11
48.10000000000001
 21
4.762500000000003
 31
0.0
  0
SPLINE
  5
B5
330
1F
100
AcDbEntity
  8
0
  6
Continuous
 62
     1
370
    15
100
AcDbSpline
210
0.0
220
0.0
230
1.0
 70
     8
 71
     3
 72
    15
 73
    11
 74
     0
 42
0.000000001
 43
0.00000001
 40
0.0
 40
0.0
 40
0.0
 40
0.0
 40
0.1327641604343941
 40
0.2654854438064077
 40
0.3981755939344657
 40
0.5308464414839462
 40
0.6635098710848022
 40
0.7961777881298201
 40
0.9288620854498175
 40
1.0
 40
1.0
 40
1.0
 40
1.0
 10
48.10000000000001
 20
0.2982416209868447
 30
0.0
 10
47.54941455102819
 20
0.6142139194613
 30
0.0
 10
46.44842146829137
 20
1.246056471069752
 30
0.0
 10
44.79729259997069
 20
2.140954154809298
 30
0.0
 10
43.14661851862422
 20
2.951317568105403
 30
0.0
 10
41.49623469501488
 20
3.642940064939604
 30
0.0
 10
39.84596197333188
 20
4.191712213560433
 30
0.0
 10
38.19561827651796
 20
4.563842440298723
 30
0.0
 10
36.8003645324748
 20
4.753891671028391
 30
0.0
 10
35.9551665929837
 20
4.74270405560682
 30
0.0
 10
35.66017608019402
 20
4.738799360320777
 30
0.0
  0
SPLINE
  5
B6
330
1F
100
AcDbEntity
  8
0
  6
Continuous
 62
     1
370
    15
100
AcDbSpline
210
0.0
220
0.0
230
1.0
 70
     8
 71
     3
 72
    11
 73
     7
 74
     0
 42
0.000000001
 43
0.00000001
 40
0.0
 40
0.0
 40
0.0
 40
0.0
 40
0.1185740680238128
 40
0.4124261375928907
 40
0.7062291149391077
 40
1.0
 40
1.0
 40
1.0
 40
1.0
 10
15.70670824967291
 20
-3.554126179171464
 30
0.0
 10
15.48113624995978
 20
-3.644620186786852
 30
0.0
 10
14.69654826928841
 20
-3.959377828640051
 30
0.0
 10
13.35312095952992
 20
-4.335709904947397
 30
0.0
 10
11.67646022105873
 20
-4.674687862309018
 30
0.0
 10
10.55879972544755
 20
-4.731708708470238
 30
0.0
 10
9.999999999999938
 20
-4.760217574360016
 30
0.0
  0
LINE
  5
B7
330
1F
100
AcDbEntity
  8
0
  6
Continuous
 62
     1
370
    15
100
AcDbLine
 10
48.10000000000001
 20
-2.634861043797745
 30
0.0
 11
48.10000000000001
 21
0.2982416209868436
 31
0.0
  0
SPLINE
  5
B8
330
1F
100
AcDbEntity
  8
0
  6
Continuous
 62
     1
370
    15
100
AcDbSpline
210
0.0
220
0.0
230
1.0
 70
     8
 71
     3
 72
    12
 73
     8
 74
     0
 42
0.000000001
 43
0.00000001
 40
0.0
 40
0.0
 40
0.0
 40
0.0
 40
0.2500000000000001
 40
0.2500000000000001
 40
0.5000000000000002
 40
0.5000000000000002
 40
1.0
 40
1.0
 40
1.0
 40
1.0
 10
48.10000000000001
 20
3.083737631391749
 30
0.0
 10
48.02153092721761
 20
2.904524724964048
 30
0.0
 10
47.92902628026825
 20
2.738489621723903
 30
0.0
 10
47.7144400299475
 20
2.434188803654806
 30
0.0
 10
47.59077090346048
 20
2.295026508004929
 30
0.0
 10
47.19207244545565
 20
1.940226661608799
 30
0.0
 10
46.88066539088916
 20
1.779028486456495
 30
0.0
 10
46.55843851851196
 20
1.694338970691257
 30
0.0
  0
SPLINE
  5
B9
330
1F
100
AcDbEntity
  8
0
  6
Continuous
 62
     1
370
    15
100
AcDbSpline
210
0.0
220
0.0
230
1.0
 70
     8
 71
     3
 72
     8
 73
     4
 74
     0
 42
0.000000001
 43
0.00000001
 40
0.0
 40
0.0
 40
0.0
 40
0.0
 40
1.0
 40
1.0
 40
1.0
 40
1.0
 10
48.10000000000001
 20
0.9186882131466312
 30
0.0
 10
47.57292840035619
 20
1.205300908192388
 30
0.0
 10
47.05954323427954
 20
1.462856153808308
 30
0.0
 10
46.55843851851149
 20
1.694338970689043
 30
0.0
  0
SPLINE
  5
BA
330
1F
100
AcDbEntity
  8
외형선
  6
Continuous
370
    15
100
AcDbSpline
210
0.0
220
0.0
230
1.0
 70
    24
 71
     3
 72
    15
 73
    11
 74
     0
 42
0.000000001
 43
0.00000001
 40
0.0
 40
0.0
 40
0.0
 40
0.0
 40
0.0900796217259819
 40
0.2193422625797455
 40
0.3486049034335091
 40
0.4778675442872725
 40
0.607130185141036
 40
0.7363928259947997
 40
0.8656554668485636
 40
1.0
 40
1.0
 40
1.0
 40
1.0
 10
10.00000000000001
 20
-0.770923630669579
 30
0.0
 10
10.00000000000001
 20
-0.7963712752436654
 30
0.0
 10
10.00000000000001
 20
-0.8583358331675949
 30
0.0
 10
10.00000000000001
 20
-1.088826025805346
 30
0.0
 10
10.00000000000001
 20
-1.457766398259625
 30
0.0
 10
10.00000000000001
 20
-1.946603840463409
 30
0.0
 10
10.00000000000001
 20
-2.533441908888144
 30
0.0
 10
10.00000000000001
 20
-3.20686255725747
 30
0.0
 10
10.00000000000001
 20
-3.952184298407905
 30
0.0
 10
10.00000000000001
 20
-4.487433587567788
 30
0.0
 10
10.00000000000001
 20
-4.760217574358693
 30
0.0
  0
LINE
  5
BB
330
1F
100
AcDbEntity
  8
0
  6
Continuous
 62
     1
370
    15
100
AcDbLine
 10
48.10000000000001
 20
0.2982416209868436
 30
0.0
 11
48.10000000000001
 21
0.9186882131466303
 31
0.0
  0
LINE
  5
BC
330
1F
100
AcDbEntity
  8
0
  6
Continuous
 62
     1
370
    15
100
AcDbLine
 10
48.10000000000001
 20
3.083737631391753
 30
0.0
 11
48.10000000000001
 21
4.753152447114568
 31
0.0
  0
LINE
  5
BD
330
1F
100
AcDbEntity
  8
0
  6
Continuous
 62
     1
370
    15
100
AcDbLine
 10
48.10000000000001
 20
0.9186882131466311
 30
0.0
 11
48.10000000000001
 21
3.083737631391753
 31
0.0
  0
LINE
  5
BE
330
1F
100
AcDbEntity
  8
0
  6
Continuous
 62
     1
370
    15
100
AcDbLine
 10
48.10000000000001
 20
-2.634861043797745
 30
0.0
 11
48.10000000000001
 21
-2.784196431186866
 31
0.0
  0
LINE
  5
BF
330
1F
100
AcDbEntity
  8
중심선
 62
     1
100
AcDbLine
 10
-43.8
 20
-0.0000000000000054
 30
0.0
 11
51.10000000000001
 21
0.0000000000000062
 31
0.0
  0
LINE
  5
C0
330
1F
100
AcDbEntity
  8
참조1
100
AcDbLine
 10
2.574630657015575
 20
0.0010749287238892
 30
0.0
 11
2.574630657015581
 21
-39.99892507127611
 31
0.0
  0
LINE
  5
C1
330
1F
100
AcDbEntity
  8
참조1
100
AcDbLine
 10
2.574630657015581
 20
-39.99892507127611
 30
0.0
 11
-21.31545115729311
 21
-39.9989250712761
 31
0.0
  0
CIRCLE
  5
C2
330
1F
100
AcDbEntity
  8
해칭선
100
AcDbCircle
 10
0.0
 20
0.0
 30
0.0
 40
3.000000000000003
  0
INSERT
  5
C3
330
1F
100
AcDbEntity
  8
0
  6
Continuous
 62
     7
100
AcDbBlockReference
 66
     1
  2
블럭10
 10
-10.29027293212519
 20
-52.04717430164393
 30
0.0
  0
ATTRIB
  5
C4
330
C3
100
AcDbEntity
  8
FORMAT
 62
     2
100
AcDbText
 10
-19.47156822086647
 20
-49.97180738881175
 30
0.0
 40
4.233333333333333
  1
E5059904 [ 3 FLUTE ]
 41
0.75
  7
SLDTEXTSTYLE0
 11
-19.47156822086647
 21
-52.08847405547841
 31
0.0
100
AcDbAttribute
  2
AUTOATTR0
 70
     0
 74
     1
  0
SEQEND
  5
C5
330
C3
100
AcDbEntity
  8
0
  6
Continuous
 62
     7
  0
HATCH
  5
C6
330
1F
100
AcDbEntity
  8
중심선
100
AcDbHatch
 10
0.0
 20
0.0
 30
0.0
210
0.0
220
0.0
230
1.0
  2
SOLID
 70
     1
 71
     0
 91
        1
 92
        0
 93
        4
 72
     1
 10
-4.575363627744354
 20
-35.8
 11
-8.021638871581636
 21
-35.8
 72
     1
 10
-8.021638871581636
 20
-35.8
 11
-10.14986873078566
 21
-38.3363255805726
 72
     1
 10
-10.14986873078566
 20
-38.3363255805726
 11
-6.703560401835227
 21
-38.33628615127011
 72
     1
 10
-6.703560401835227
 20
-38.33628615127011
 11
-4.575363627744354
 21
-35.8
 97
        0
 75
     0
 76
     1
 98
        1
 10
1.075369342984441
 20
-0.0010749287238943
  0
HATCH
  5
C7
330
1F
100
AcDbEntity
  8
중심선
100
AcDbHatch
 10
0.0
 20
0.0
 30
0.0
210
0.0
220
0.0
230
1.0
  2
SOLID
 70
     1
 71
     0
 91
        1
 92
        0
 93
        4
 72
     1
 10
0.4374003632915977
 20
-35.80000000000003
 11
-3.008874880545656
 21
-35.79999999999998
 72
     1
 10
-3.008874880545656
 20
-35.79999999999998
 11
-7.540012888903073
 21
-41.20000000000002
 72
     1
 10
-7.540012888903073
 20
-41.20000000000002
 11
-4.09373764506579
 21
-41.20000000000002
 72
     1
 10
-4.09373764506579
 20
-41.20000000000002
 11
0.4374003632915979
 21
-35.80000000000003
 97
        0
 75
     0
 76
     1
 98
        1
 10
1.075369342984441
 20
-0.0010749287238943
  0
HATCH
  5
C8
330
1F
100
AcDbEntity
  8
중심선
100
AcDbHatch
 10
0.0
 20
0.0
 30
0.0
210
0.0
220
0.0
230
1.0
  2
SOLID
 70
     1
 71
     0
 91
        1
 92
        0
 93
        4
 72
     1
 10
5.450164354327494
 20
-35.80000000000003
 11
2.003889110490405
 21
-35.8
 72
     1
 10
2.003889110490405
 20
-35.8
 11
-5.044547791398871
 21
-44.20000000000002
 72
     1
 10
-5.044547791398871
 20
-44.20000000000002
 11
-1.598272547561589
 21
-44.20000000000002
 72
     1
 10
-1.598272547561589
 20
-44.20000000000002
 11
5.450164354327494
 21
-35.80000000000003
 97
        0
 75
     0
 76
     1
 98
        1
 10
1.075369342984441
 20
-0.0010749287238943
  0
HATCH
  5
C9
330
1F
100
AcDbEntity
  8
중심선
100
AcDbHatch
 10
0.0
 20
0.0
 30
0.0
210
0.0
220
0.0
230
1.0
  2
SOLID
 70
     1
 71
     0
 91
        1
 92
        0
 93
        6
 72
     3
 10
10.25005478533969
 20
-40.00000000005127
 11
3.960054785062283
 21
1.540882976769353E-10
 40
0.3939339440162628
 50
17.09539180608437
 51
320.0019657685075
 73
     0
 72
     1
 10
11.93305444104029
 20
-38.58789400463827
 11
14.23835631474135
 21
-36.65356729459032
 72
     3
 10
10.25005478528685
 20
-40.00000000000015
 11
6.600054785286829
 21
-1.278976924368180E-13
 40
0.636358354079598
 50
39.99873849337433
 51
368.4976242363725
 73
     1
 72
     1
 10
16.67538727718745
 20
-39.03999999993002
 11
8.930122092122794
 21
-39.03999999993002
 72
     1
 10
8.930122092122797
 20
-39.03999999993002
 11
8.930097047676835
 21
-40.95999999992991
 72
     1
 10
8.930097047676835
 20
-40.95999999992991
 11
13.37147681714887
 21
-40.95999999992988
 97
        0
 75
     0
 76
     1
 98
        1
 10
1.075369342984441
 20
-0.0010749287238943
  0
DIMENSION
  5
CA
330
1F
100
AcDbEntity
  8
치수문자_일반주서
100
AcDbDimension
  2
_D
 10
48.10000000000001
 20
27.95355032795722
 30
0.0
 11
3.649999999999997
 21
27.95355032795722
 31
0.0
 70
   160
  1
<>
 71
     2
 42
88.90000000000002
  3
SLDDIMSTYLE0
100
AcDbAlignedDimension
 13
-40.80000000000001
 23
4.262499999999992
 33
0.0
 14
48.10000000000001
 24
4.762500000000003
 34
0.0
 50
-0.0000000000000046
100
AcDbRotatedDimension
1001
ACAD
1000
DSTYLE
1002
{
1070
   171
1070
     6
1070
   273
1070
     5
1002
}
  0
DIMENSION
  5
DE
330
1F
100
AcDbEntity
  8
치수문자_일반주서
100
AcDbDimension
  2
_D_1
 10
-53.8
 20
-4.762500000000053
 30
0.0
 11
-53.8000000000001
 21
21.40824999999995
 31
0.0
 70
   160
  1
%%c<>
 71
     2
 42
9.525000000000006
 52
-270.0
  3
SLDDIMSTYLE0
100
AcDbAlignedDimension
 13
-40.30000000000001
 23
4.762500000000002
 33
0.0
 14
-40.30000000000001
 24
-4.762500000000004
 34
0.0
 50
90.0000000000002
100
AcDbRotatedDimension
1001
ACAD
1000
DSTYLE
1002
{
1070
   171
1070
     6
1070
   273
1070
     5
1002
}
  0
DIMENSION
  5
F3
330
1F
100
AcDbEntity
  8
치수문자_일반주서
100
AcDbDimension
  2
_D_2
 10
10.00000000000001
 20
14.55837318078201
 30
0.0
 11
30.26805228952794
 21
14.55837318078201
 31
0.0
 70
   160
  1
<>
 71
     2
 42
38.1
  3
SLDDIMSTYLE0
100
AcDbAlignedDimension
 13
48.10000000000001
 23
4.762500000000003
 33
0.0
 14
10.00000000000001
 24
4.444825487712497
 34
0.0
 50
-0.0000000000000401
100
AcDbRotatedDimension
1001
ACAD
1000
DSTYLE
1002
{
1070
   171
1070
     6
1070
   273
1070
     5
1002
}
  0
DIMENSION
  5
106
330
1F
100
AcDbEntity
  8
치수문자_일반주서
100
AcDbDimension
  2
_D_3
 10
61.17872968480469
 20
-4.762499999999896
 30
0.0
 11
61.17872968480459
 21
21.40825000000009
 31
0.0
 70
   160
  1
%%c<>
 71
     2
 42
9.524999999999949
 52
-270.0
  3
SLDDIMSTYLE0
100
AcDbAlignedDimension
 13
48.10000000000001
 23
4.762500000000003
 33
0.0
 14
48.10000000000001
 24
-4.762499999999946
 34
0.0
 50
90.0000000000002
100
AcDbRotatedDimension
1001
ACAD
1000
DSTYLE
1002
{
1070
   171
1070
     6
1070
   273
1070
     5
1002
}
  0
LINE
  5
11A
330
1F
100
AcDbEntity
  8
참조1
100
AcDbLine
 10
76.65688947236116
 20
7.441074928723896
 30
0.0
 11
76.65688947236116
 21
-7.438925071276109
 31
0.0
  0
LINE
  5
11B
330
1F
100
AcDbEntity
  8
참조1
100
AcDbLine
 10
89.35688947236116
 20
5.441074928723896
 30
0.0
 11
76.65688947236116
 21
5.441074928723896
 31
0.0
  0
SOLID
  5
11C
330
1F
100
AcDbEntity
  8
참조1
100
AcDbTrace
 10
76.65688947236116
 20
5.441074928723896
 30
0.0
 11
83.00688947236115
 21
4.425074928723896
 31
0.0
 12
83.00688947236115
 22
6.457074928723896
 32
0.0
 13
83.00688947236115
 23
6.457074928723896
 33
0.0
  0
LINE
  5
11D
330
1F
100
AcDbEntity
  8
참조1
100
AcDbLine
 10
89.35688947236116
 20
-5.438925071276109
 30
0.0
 11
76.65688947236116
 21
-5.438925071276109
 31
0.0
  0
SOLID
  5
11E
330
1F
100
AcDbEntity
  8
참조1
100
AcDbTrace
 10
76.65688947236116
 20
-5.438925071276109
 30
0.0
 11
83.00688947236115
 21
-6.454925071276109
 31
0.0
 12
83.00688947236115
 22
-4.422925071276109
 32
0.0
 13
83.00688947236115
 23
-4.422925071276109
 33
0.0
  0
MTEXT
  5
11F
330
1F
100
AcDbEntity
  8
참조1
100
AcDbMText
 10
86.04123960498715
 20
11.01136670591222
 30
0.0
 40
3.5
 41
0.0
 71
     1
 72
     1
  1
A
  7
SLDTEXTSTYLE0
 73
     1
 44
1.0
  0
MTEXT
  5
120
330
1F
100
AcDbEntity
  8
참조1
100
AcDbMText
 10
86.04123960498715
 20
0.1313667059122201
 30
0.0
 40
3.5
 41
0.0
 71
     1
 72
     1
  1
A
  7
SLDTEXTSTYLE0
 73
     1
 44
1.0
  0
INSERT
  5
127
330
1F
100
AcDbEntity
  8
해칭선
100
AcDbBlockReference
  2
SW_DOWELSYMBOL_0
 10
0.0
 20
0.0
 30
0.0
  0
ENDSEC
  0
SECTION
  2
OBJECTS
  0
DICTIONARY
  5
C
330
0
100
AcDbDictionary
281
     1
  3
ACAD_GROUP
350
D
  3
ACAD_IMAGE_VARS
350
14B
  3
ACAD_LAYOUT
350
1A
  3
ACAD_MLINESTYLE
350
17
  3
ACAD_PLOTSETTINGS
350
19
  3
ACAD_PLOTSTYLENAME
350
E
  3
ACAD_SCALELIST
350
47
  3
APPDATA
350
149
  3
DWGPROPS
350
2BC
  0
DICTIONARY
  5
205
330
2
100
AcDbDictionary
280
     1
281
     1
  3
ACAD_LAYERSTATES
360
206
  0
DICTIONARY
  5
D
102
{ACAD_REACTORS
330
C
102
}
330
C
100
AcDbDictionary
281
     1
  0
RASTERVARIABLES
  5
14B
102
{ACAD_REACTORS
330
C
102
}
330
C
100
AcDbRasterVariables
 90
        0
 70
     1
 71
     1
 72
     1
  0
DICTIONARY
  5
1A
102
{ACAD_REACTORS
330
C
102
}
330
C
100
AcDbDictionary
281
     1
  3
Layout1
350
1E
  3
Layout2
350
26
  3
Model
350
22
  0
DICTIONARY
  5
17
102
{ACAD_REACTORS
330
C
102
}
330
C
100
AcDbDictionary
281
     1
  3
Standard
350
18
  0
DICTIONARY
  5
19
102
{ACAD_REACTORS
330
C
102
}
330
C
100
AcDbDictionary
281
     1
  0
ACDBDICTIONARYWDFLT
  5
E
102
{ACAD_REACTORS
330
C
102
}
330
C
100
AcDbDictionary
281
     1
  3
Normal
350
F
100
AcDbDictionaryWithDefault
340
F
  0
DICTIONARY
  5
47
102
{ACAD_REACTORS
330
C
102
}
330
C
100
AcDbDictionary
281
     1
  3
A0
350
48
  3
A1
350
49
  3
A2
350
4A
  3
A3
350
4B
  3
A4
350
4C
  3
A5
350
4D
  3
A6
350
4E
  3
A7
350
4F
  3
A8
350
50
  3
A9
350
51
  3
B0
350
52
  3
B1
350
53
  3
B2
350
54
  3
B3
350
55
  3
B4
350
56
  3
B5
350
57
  3
B6
350
58
  3
B7
350
59
  3
B8
350
5A
  3
B9
350
5B
  3
C0
350
5C
  3
C1
350
5D
  3
C2
350
5E
  3
C3
350
5F
  3
C4
350
60
  3
C5
350
61
  3
C6
350
62
  3
C7
350
63
  3
C8
350
64
  3
C9
350
65
  3
D0
350
66
  3
D1
350
67
  3
D2
350
68
  0
DICTIONARY
  5
149
102
{ACAD_REACTORS
330
C
102
}
330
C
100
AcDbDictionary
281
     1
  0
XRECORD
  5
2BC
102
{ACAD_REACTORS
330
C
102
}
330
C
100
AcDbXrecord
280
     1
  1
DWGPROPS COOKIE
  2

  3

  4

  6

  7

  8
12014074
  9

300
=
301
=
302
=
303
=
304
=
305
=
306
=
307
=
308
=
309
=
 40
0.0
 41
2458311.273885278
 42
2458323.025198599
  1

 90
        0
  0
DICTIONARY
  5
206
102
{ACAD_REACTORS
330
205
102
}
330
205
100
AcDbDictionary
281
     1
  0
LAYOUT
  5
1E
102
{ACAD_REACTORS
330
1A
102
}
330
1A
100
AcDbPlotSettings
  1

  2
none_device
  4

  6

 40
0.0
 41
0.0
 42
0.0
 43
0.0
 44
0.0
 45
0.0
 46
0.0
 47
0.0
 48
0.0
 49
0.0
140
0.0
141
0.0
142
1.0
143
1.0
 70
   688
 72
     1
 73
     0
 74
     5
  7

 75
    16
147
1.0
148
0.0
149
0.0
100
AcDbLayout
  1
Layout1
 70
     1
 71
     1
 10
0.0
 20
0.0
 11
420.0
 21
297.0
 12
0.0
 22
0.0
 32
0.0
 14
1.000000000000000E+20
 24
1.000000000000000E+20
 34
1.000000000000000E+20
 15
-1.000000000000000E+20
 25
-1.000000000000000E+20
 35
-1.000000000000000E+20
146
0.0
 13
0.0
 23
0.0
 33
0.0
 16
1.0
 26
0.0
 36
0.0
 17
0.0
 27
1.0
 37
0.0
 76
     0
330
1B
  0
LAYOUT
  5
26
102
{ACAD_REACTORS
330
1A
102
}
330
1A
100
AcDbPlotSettings
  1

  2
none_device
  4

  6

 40
0.0
 41
0.0
 42
0.0
 43
0.0
 44
0.0
 45
0.0
 46
0.0
 47
0.0
 48
0.0
 49
0.0
140
0.0
141
0.0
142
1.0
143
1.0
 70
   688
 72
     1
 73
     0
 74
     5
  7

 75
    16
147
1.0
148
0.0
149
0.0
100
AcDbLayout
  1
Layout2
 70
     1
 71
     2
 10
0.0
 20
0.0
 11
0.0
 21
0.0
 12
0.0
 22
0.0
 32
0.0
 14
0.0
 24
0.0
 34
0.0
 15
0.0
 25
0.0
 35
0.0
146
0.0
 13
0.0
 23
0.0
 33
0.0
 16
1.0
 26
0.0
 36
0.0
 17
0.0
 27
1.0
 37
0.0
 76
     0
330
23
  0
LAYOUT
  5
22
102
{ACAD_REACTORS
330
1A
102
}
330
1A
100
AcDbPlotSettings
  1

  2
none_device
  4
ANSI_A_(11.00_x_8.50_Inches)
  6

 40
6.35
 41
19.05
 42
6.35000508
 43
19.05000254
 44
279.4
 45
215.9
 46
112.2165880836287
 47
99.576321566095
 48
0.0
 49
0.0
140
0.0
141
0.0
142
0.0702466707185153
143
1.0
 70
  1696
 72
     0
 73
     0
 74
     0
  7

 75
     0
147
0.0235690232323232
148
0.0
149
0.0
100
AcDbLayout
  1
Model
 70
     1
 71
     0
 10
0.0
 20
0.0
 11
420.0
 21
297.0
 12
0.0
 22
0.0
 32
0.0
 14
1.000000000000000E+20
 24
1.000000000000000E+20
 34
1.000000000000000E+20
 15
-1.000000000000000E+20
 25
-1.000000000000000E+20
 35
-1.000000000000000E+20
146
0.0
 13
0.0
 23
0.0
 33
0.0
 16
1.0
 26
0.0
 36
0.0
 17
0.0
 27
1.0
 37
0.0
 76
     0
330
1F
331
29
  0
MLINESTYLE
  5
18
102
{ACAD_REACTORS
330
17
102
}
330
17
100
AcDbMlineStyle
  2
Standard
 70
     0
  3

 62
   256
 51
90.0
 52
90.0
 71
     2
 49
0.5
 62
   256
  6
BYLAYER
 49
-0.5
 62
   256
  6
BYLAYER
  0
ACDBPLACEHOLDER
  5
F
102
{ACAD_REACTORS
330
E
102
}
330
E
  0
SCALE
  5
48
102
{ACAD_REACTORS
330
47
102
}
330
47
100
AcDbScale
 70
     0
300
1:1
140
1.0
141
1.0
290
     1
  0
SCALE
  5
49
102
{ACAD_REACTORS
330
47
102
}
330
47
100
AcDbScale
 70
     0
300
1:2
140
1.0
141
2.0
290
     0
  0
SCALE
  5
4A
102
{ACAD_REACTORS
330
47
102
}
330
47
100
AcDbScale
 70
     0
300
1:4
140
1.0
141
4.0
290
     0
  0
SCALE
  5
4B
102
{ACAD_REACTORS
330
47
102
}
330
47
100
AcDbScale
 70
     0
300
1:5
140
1.0
141
5.0
290
     0
  0
SCALE
  5
4C
102
{ACAD_REACTORS
330
47
102
}
330
47
100
AcDbScale
 70
     0
300
1:8
140
1.0
141
8.0
290
     0
  0
SCALE
  5
4D
102
{ACAD_REACTORS
330
47
102
}
330
47
100
AcDbScale
 70
     0
300
1:10
140
1.0
141
10.0
290
     0
  0
SCALE
  5
4E
102
{ACAD_REACTORS
330
47
102
}
330
47
100
AcDbScale
 70
     0
300
1:16
140
1.0
141
16.0
290
     0
  0
SCALE
  5
4F
102
{ACAD_REACTORS
330
47
102
}
330
47
100
AcDbScale
 70
     0
300
1:20
140
1.0
141
20.0
290
     0
  0
SCALE
  5
50
102
{ACAD_REACTORS
330
47
102
}
330
47
100
AcDbScale
 70
     0
300
1:30
140
1.0
141
30.0
290
     0
  0
SCALE
  5
51
102
{ACAD_REACTORS
330
47
102
}
330
47
100
AcDbScale
 70
     0
300
1:40
140
1.0
141
40.0
290
     0
  0
SCALE
  5
52
102
{ACAD_REACTORS
330
47
102
}
330
47
100
AcDbScale
 70
     0
300
1:50
140
1.0
141
50.0
290
     0
  0
SCALE
  5
53
102
{ACAD_REACTORS
330
47
102
}
330
47
100
AcDbScale
 70
     0
300
1:100
140
1.0
141
100.0
290
     0
  0
SCALE
  5
54
102
{ACAD_REACTORS
330
47
102
}
330
47
100
AcDbScale
 70
     0
300
2:1
140
2.0
141
1.0
290
     0
  0
SCALE
  5
55
102
{ACAD_REACTORS
330
47
102
}
330
47
100
AcDbScale
 70
     0
300
4:1
140
4.0
141
1.0
290
     0
  0
SCALE
  5
56
102
{ACAD_REACTORS
330
47
102
}
330
47
100
AcDbScale
 70
     0
300
8:1
140
8.0
141
1.0
290
     0
  0
SCALE
  5
57
102
{ACAD_REACTORS
330
47
102
}
330
47
100
AcDbScale
 70
     0
300
10:1
140
10.0
141
1.0
290
     0
  0
SCALE
  5
58
102
{ACAD_REACTORS
330
47
102
}
330
47
100
AcDbScale
 70
     0
300
100:1
140
100.0
141
1.0
290
     0
  0
SCALE
  5
59
102
{ACAD_REACTORS
330
47
102
}
330
47
100
AcDbScale
 70
     0
300
1/128" = 1'-0"
140
0.0078125
141
12.0
290
     0
  0
SCALE
  5
5A
102
{ACAD_REACTORS
330
47
102
}
330
47
100
AcDbScale
 70
     0
300
1/64" = 1'-0"
140
0.015625
141
12.0
290
     0
  0
SCALE
  5
5B
102
{ACAD_REACTORS
330
47
102
}
330
47
100
AcDbScale
 70
     0
300
1/32" = 1'-0"
140
0.03125
141
12.0
290
     0
  0
SCALE
  5
5C
102
{ACAD_REACTORS
330
47
102
}
330
47
100
AcDbScale
 70
     0
300
1/16" = 1'-0"
140
0.0625
141
12.0
290
     0
  0
SCALE
  5
5D
102
{ACAD_REACTORS
330
47
102
}
330
47
100
AcDbScale
 70
     0
300
3/32" = 1'-0"
140
0.09375
141
12.0
290
     0
  0
SCALE
  5
5E
102
{ACAD_REACTORS
330
47
102
}
330
47
100
AcDbScale
 70
     0
300
1/8" = 1'-0"
140
0.125
141
12.0
290
     0
  0
SCALE
  5
5F
102
{ACAD_REACTORS
330
47
102
}
330
47
100
AcDbScale
 70
     0
300
3/16" = 1'-0"
140
0.1875
141
12.0
290
     0
  0
SCALE
  5
60
102
{ACAD_REACTORS
330
47
102
}
330
47
100
AcDbScale
 70
     0
300
1/4" = 1'-0"
140
0.25
141
12.0
290
     0
  0
SCALE
  5
61
102
{ACAD_REACTORS
330
47
102
}
330
47
100
AcDbScale
 70
     0
300
3/8" = 1'-0"
140
0.375
141
12.0
290
     0
  0
SCALE
  5
62
102
{ACAD_REACTORS
330
47
102
}
330
47
100
AcDbScale
 70
     0
300
1/2" = 1'-0"
140
0.5
141
12.0
290
     0
  0
SCALE
  5
63
102
{ACAD_REACTORS
330
47
102
}
330
47
100
AcDbScale
 70
     0
300
3/4" = 1'-0"
140
0.75
141
12.0
290
     0
  0
SCALE
  5
64
102
{ACAD_REACTORS
330
47
102
}
330
47
100
AcDbScale
 70
     0
300
1" = 1'-0"
140
1.0
141
12.0
290
     0
  0
SCALE
  5
65
102
{ACAD_REACTORS
330
47
102
}
330
47
100
AcDbScale
 70
     0
300
1-1/2" = 1'-0"
140
1.5
141
12.0
290
     0
  0
SCALE
  5
66
102
{ACAD_REACTORS
330
47
102
}
330
47
100
AcDbScale
 70
     0
300
3" = 1'-0"
140
3.0
141
12.0
290
     0
  0
SCALE
  5
67
102
{ACAD_REACTORS
330
47
102
}
330
47
100
AcDbScale
 70
     0
300
6" = 1'-0"
140
6.0
141
12.0
290
     0
  0
SCALE
  5
68
102
{ACAD_REACTORS
330
47
102
}
330
47
100
AcDbScale
 70
     0
300
1'-0" = 1'-0"
140
12.0
141
12.0
290
     0
  0
ENDSEC
  0
EOF
