  0
SECTION
  2
HEADER
  9
$ACADVER
  1
AC1015
  9
$ACADMAINTVER
 70
     6
  9
$DWGCODEPAGE
  3
ANSI_949
  9
$INSBASE
 10
0.0
 20
0.0
 30
0.0
  9
$EXTMIN
 10
1.000000000000000E+20
 20
1.000000000000000E+20
 30
1.000000000000000E+20
  9
$EXTMAX
 10
-1.000000000000000E+20
 20
-1.000000000000000E+20
 30
-1.000000000000000E+20
  9
$LIMMIN
 10
0.0
 20
0.0
  9
$LIMMAX
 10
420.0
 20
297.0
  9
$ORTHOMODE
 70
     1
  9
$REGENMODE
 70
     1
  9
$FILLMODE
 70
     1
  9
$QTEXTMODE
 70
     0
  9
$MIRRTEXT
 70
     1
  9
$LTSCALE
 40
1.0
  9
$ATTMODE
 70
     1
  9
$TEXTSIZE
 40
3.5
  9
$TRACEWID
 40
1.0
  9
$TEXTSTYLE
  7
Standard
  9
$CLAYER
  8
0
  9
$CELTYPE
  6
ByLayer
  9
$CECOLOR
 62
   256
  9
$CELTSCALE
 40
1.0
  9
$DISPSILH
 70
     0
  9
$DIMSCALE
 40
1.0
  9
$DIMASZ
 40
3.302
  9
$DIMEXO
 40
1.0
  9
$DIMDLI
 40
3.75
  9
$DIMRND
 40
0.0
  9
$DIMDLE
 40
0.0
  9
$DIMEXE
 40
1.0
  9
$DIMTP
 40
0.0
  9
$DIMTM
 40
0.0
  9
$DIMTXT
 40
3.5
  9
$DIMCEN
 40
2.5
  9
$DIMTSZ
 40
0.0
  9
$DIMTOL
 70
     0
  9
$DIMLIM
 70
     0
  9
$DIMTIH
 70
     1
  9
$DIMTOH
 70
     1
  9
$DIMSE1
 70
     0
  9
$DIMSE2
 70
     0
  9
$DIMTAD
 70
     1
  9
$DIMZIN
 70
     0
  9
$DIMBLK
  1

  9
$DIMASO
 70
     1
  9
$DIMSHO
 70
     1
  9
$DIMPOST
  1

  9
$DIMAPOST
  1

  9
$DIMALT
 70
     0
  9
$DIMALTD
 70
     3
  9
$DIMALTF
 40
0.0393700787401575
  9
$DIMLFAC
 40
1.0
  9
$DIMTOFL
 70
     1
  9
$DIMTVP
 40
0.0
  9
$DIMTIX
 70
     0
  9
$DIMSOXD
 70
     0
  9
$DIMSAH
 70
     0
  9
$DIMBLK1
  1

  9
$DIMBLK2
  1

  9
$DIMSTYLE
  2
ISO-25
  9
$DIMCLRD
 70
     0
  9
$DIMCLRE
 70
     0
  9
$DIMCLRT
 70
     0
  9
$DIMTFAC
 40
1.0
  9
$DIMGAP
 40
1.524
  9
$DIMJUST
 70
     0
  9
$DIMSD1
 70
     0
  9
$DIMSD2
 70
     0
  9
$DIMTOLJ
 70
     0
  9
$DIMTZIN
 70
     0
  9
$DIMALTZ
 70
     0
  9
$DIMALTTZ
 70
     0
  9
$DIMUPT
 70
     0
  9
$DIMDEC
 70
     2
  9
$DIMTDEC
 70
     2
  9
$DIMALTU
 70
     2
  9
$DIMALTTD
 70
     3
  9
$DIMTXSTY
  7
Standard
  9
$DIMAUNIT
 70
     0
  9
$DIMADEC
 70
     2
  9
$DIMALTRND
 40
0.0
  9
$DIMAZIN
 70
     0
  9
$DIMDSEP
 70
    44
  9
$DIMATFIT
 70
     3
  9
$DIMFRAC
 70
     0
  9
$DIMLDRBLK
  1

  9
$DIMLUNIT
 70
     2
  9
$DIMLWD
 70
    -2
  9
$DIMLWE
 70
    -2
  9
$DIMTMOVE
 70
     0
  9
$LUNITS
 70
     2
  9
$LUPREC
 70
     2
  9
$SKETCHINC
 40
1.0
  9
$FILLETRAD
 40
10.0
  9
$AUNITS
 70
     0
  9
$AUPREC
 70
     2
  9
$MENU
  1
.
  9
$ELEVATION
 40
0.0
  9
$PELEVATION
 40
0.0
  9
$THICKNESS
 40
0.0
  9
$LIMCHECK
 70
     0
  9
$CHAMFERA
 40
0.0
  9
$CHAMFERB
 40
0.0
  9
$CHAMFERC
 40
0.0
  9
$CHAMFERD
 40
0.0
  9
$SKPOLY
 70
     0
  9
$TDCREATE
 40
2458316.721090984
  9
$TDUCREATE
 40
2458316.346090984
  9
$TDUPDATE
 40
2458330.38260434
  9
$TDUUPDATE
 40
2458330.00760434
  9
$TDINDWG
 40
0.0009058449
  9
$TDUSRTIMER
 40
2458330.00669875
  9
$USRTIMER
 70
     1
  9
$ANGBASE
 50
0.0
  9
$ANGDIR
 70
     0
  9
$PDMODE
 70
     0
  9
$PDSIZE
 40
-1.0
  9
$PLINEWID
 40
0.0
  9
$SPLFRAME
 70
     0
  9
$SPLINETYPE
 70
     6
  9
$SPLINESEGS
 70
     8
  9
$HANDSEED
  5
229
  9
$SURFTAB1
 70
     6
  9
$SURFTAB2
 70
     6
  9
$SURFTYPE
 70
     6
  9
$SURFU
 70
     6
  9
$SURFV
 70
     6
  9
$UCSBASE
  2

  9
$UCSNAME
  2

  9
$UCSORG
 10
0.0
 20
0.0
 30
0.0
  9
$UCSXDIR
 10
1.0
 20
0.0
 30
0.0
  9
$UCSYDIR
 10
0.0
 20
1.0
 30
0.0
  9
$UCSORTHOREF
  2

  9
$UCSORTHOVIEW
 70
     0
  9
$UCSORGTOP
 10
0.0
 20
0.0
 30
0.0
  9
$UCSORGBOTTOM
 10
0.0
 20
0.0
 30
0.0
  9
$UCSORGLEFT
 10
0.0
 20
0.0
 30
0.0
  9
$UCSORGRIGHT
 10
0.0
 20
0.0
 30
0.0
  9
$UCSORGFRONT
 10
0.0
 20
0.0
 30
0.0
  9
$UCSORGBACK
 10
0.0
 20
0.0
 30
0.0
  9
$PUCSBASE
  2

  9
$PUCSNAME
  2

  9
$PUCSORG
 10
0.0
 20
0.0
 30
0.0
  9
$PUCSXDIR
 10
1.0
 20
0.0
 30
0.0
  9
$PUCSYDIR
 10
0.0
 20
1.0
 30
0.0
  9
$PUCSORTHOREF
  2

  9
$PUCSORTHOVIEW
 70
     0
  9
$PUCSORGTOP
 10
0.0
 20
0.0
 30
0.0
  9
$PUCSORGBOTTOM
 10
0.0
 20
0.0
 30
0.0
  9
$PUCSORGLEFT
 10
0.0
 20
0.0
 30
0.0
  9
$PUCSORGRIGHT
 10
0.0
 20
0.0
 30
0.0
  9
$PUCSORGFRONT
 10
0.0
 20
0.0
 30
0.0
  9
$PUCSORGBACK
 10
0.0
 20
0.0
 30
0.0
  9
$USERI1
 70
     0
  9
$USERI2
 70
     0
  9
$USERI3
 70
     0
  9
$USERI4
 70
     0
  9
$USERI5
 70
     0
  9
$USERR1
 40
0.0
  9
$USERR2
 40
0.0
  9
$USERR3
 40
0.0
  9
$USERR4
 40
0.0
  9
$USERR5
 40
0.0
  9
$WORLDVIEW
 70
     1
  9
$SHADEDGE
 70
     3
  9
$SHADEDIF
 70
    70
  9
$TILEMODE
 70
     1
  9
$MAXACTVP
 70
    64
  9
$PINSBASE
 10
0.0
 20
0.0
 30
0.0
  9
$PLIMCHECK
 70
     0
  9
$PEXTMIN
 10
1.000000000000000E+20
 20
1.000000000000000E+20
 30
1.000000000000000E+20
  9
$PEXTMAX
 10
-1.000000000000000E+20
 20
-1.000000000000000E+20
 30
-1.000000000000000E+20
  9
$PLIMMIN
 10
0.0
 20
0.0
  9
$PLIMMAX
 10
0.0
 20
0.0
  9
$UNITMODE
 70
     0
  9
$VISRETAIN
 70
     1
  9
$PLINEGEN
 70
     0
  9
$PSLTSCALE
 70
     1
  9
$TREEDEPTH
 70
  3020
  9
$CMLSTYLE
  2
Standard
  9
$CMLJUST
 70
     0
  9
$CMLSCALE
 40
20.0
  9
$PROXYGRAPHICS
 70
     1
  9
$MEASUREMENT
 70
     1
  9
$CELWEIGHT
370
    -1
  9
$ENDCAPS
280
     0
  9
$JOINSTYLE
280
     0
  9
$LWDISPLAY
290
     1
  9
$INSUNITS
 70
     4
  9
$HYPERLINKBASE
  1

  9
$STYLESHEET
  1

  9
$XEDIT
290
     1
  9
$CEPSNTYPE
380
     0
  9
$PSTYLEMODE
290
     1
  9
$FINGERPRINTGUID
  2
{AA5136DB-C554-404B-995F-5FBCD9EEA86C}
  9
$VERSIONGUID
  2
{FAEB1C32-E019-11D5-929B-00C0DF256EC4}
  9
$EXTNAMES
290
     1
  9
$PSVPSCALE
 40
0.0
  9
$OLESTARTUP
290
     0
  0
ENDSEC
  0
SECTION
  2
CLASSES
  0
CLASS
  1
ACDBDICTIONARYWDFLT
  2
AcDbDictionaryWithDefault
  3
ObjectDBX Classes
 90
        0
280
     0
281
     0
  0
CLASS
  1
VISUALSTYLE
  2
AcDbVisualStyle
  3
ObjectDBX Classes
 90
     4095
280
     0
281
     0
  0
CLASS
  1
MATERIAL
  2
AcDbMaterial
  3
ObjectDBX Classes
 90
     1153
280
     0
281
     0
  0
CLASS
  1
SCALE
  2
AcDbScale
  3
ObjectDBX Classes
 90
     1153
280
     0
281
     0
  0
CLASS
  1
SUN
  2
AcDbSun
  3
SCENEOE
 90
     1153
280
     0
281
     0
  0
CLASS
  1
ACDBPLACEHOLDER
  2
AcDbPlaceHolder
  3
ObjectDBX Classes
 90
        0
280
     0
281
     0
  0
CLASS
  1
LAYOUT
  2
AcDbLayout
  3
ObjectDBX Classes
 90
        0
280
     0
281
     0
  0
CLASS
  1
TABLESTYLE
  2
AcDbTableStyle
  3
ObjectDBX Classes
 90
     4095
280
     0
281
     0
  0
CLASS
  1
MLEADERSTYLE
  2
AcDbMLeaderStyle
  3
ACDB_MLEADERSTYLE_CLASS
 90
     4095
280
     0
281
     0
  0
CLASS
  1
RASTERVARIABLES
  2
AcDbRasterVariables
  3
ISM
 90
        0
280
     0
281
     0
  0
ENDSEC
  0
SECTION
  2
TABLES
  0
TABLE
  2
VPORT
  5
8
330
0
100
AcDbSymbolTable
 70
     1
  0
VPORT
  5
29
330
8
100
AcDbSymbolTableRecord
100
AcDbViewportTableRecord
  2
*Active
 70
     0
 10
0.0
 20
0.0
 11
1.0
 21
1.0
 12
32.22699369853729
 22
1.27022761707088
 13
0.0
 23
0.0
 14
10.0
 24
10.0
 15
10.0
 25
10.0
 16
0.0
 26
0.0
 36
1.0
 17
0.0
 27
0.0
 37
0.0
 40
183.4752959862876
 41
1.493230174081238
 42
50.0
 43
0.0
 44
0.0
 50
0.0
 51
0.0
 71
    16
 72
  2000
 73
     1
 74
     3
 75
     0
 76
     0
 77
     0
 78
     0
281
     0
 65
     1
110
0.0
120
0.0
130
0.0
111
1.0
121
0.0
131
0.0
112
0.0
122
1.0
132
0.0
 79
     0
146
0.0
  0
ENDTAB
  0
TABLE
  2
LTYPE
  5
5
330
0
100
AcDbSymbolTable
 70
     6
  0
LTYPE
  5
14
330
5
100
AcDbSymbolTableRecord
100
AcDbLinetypeTableRecord
  2
ByBlock
 70
     0
  3

 72
    65
 73
     0
 40
0.0
  0
LTYPE
  5
15
330
5
100
AcDbSymbolTableRecord
100
AcDbLinetypeTableRecord
  2
ByLayer
 70
     0
  3

 72
    65
 73
     0
 40
0.0
  0
LTYPE
  5
16
330
5
100
AcDbSymbolTableRecord
100
AcDbLinetypeTableRecord
  2
Continuous
 70
     0
  3
Solid line
 72
    65
 73
     0
 40
0.0
  0
LTYPE
  5
6A
330
5
100
AcDbSymbolTableRecord
100
AcDbLinetypeTableRecord
  2
HIDDEN
 70
     0
  3
Hidden __ __ __ __ __ __ __ __ __ __ __ __ __ __
 72
    65
 73
     2
 40
1.905
 49
1.27
 74
     0
 49
-0.635
 74
     0
  0
LTYPE
  5
6B
330
5
100
AcDbSymbolTableRecord
100
AcDbLinetypeTableRecord
  2
PHANTOM
 70
     0
  3
Phantom ______  __  __  ______  __  __  ______
 72
    65
 73
     6
 40
12.7
 49
6.35
 74
     0
 49
-1.27
 74
     0
 49
1.27
 74
     0
 49
-1.27
 74
     0
 49
1.27
 74
     0
 49
-1.27
 74
     0
  0
LTYPE
  5
6C
330
5
100
AcDbSymbolTableRecord
100
AcDbLinetypeTableRecord
  2
CENTER
 70
     0
  3
Center ____ _ ____ _ ____ _ ____ _ ____ _ ____
 72
    65
 73
     4
 40
10.16
 49
6.35
 74
     0
 49
-1.27
 74
     0
 49
1.27
 74
     0
 49
-1.27
 74
     0
  0
LTYPE
  5
6D
330
5
100
AcDbSymbolTableRecord
100
AcDbLinetypeTableRecord
  2
CENTERX2
 70
     0
  3
Center (2x) ________  __  ________  __  _____
 72
    65
 73
     4
 40
20.32
 49
12.7
 74
     0
 49
-2.54
 74
     0
 49
2.54
 74
     0
 49
-2.54
 74
     0
  0
LTYPE
  5
6E
330
5
100
AcDbSymbolTableRecord
100
AcDbLinetypeTableRecord
  2
DOT2
 70
     0
  3
Dot (.5x) ........................................
 72
    65
 73
     2
 40
0.635
 49
0.0
 74
     0
 49
-0.635
 74
     0
  0
ENDTAB
  0
TABLE
  2
LAYER
  5
2
102
{ACAD_XDICTIONARY
360
1C5
102
}
330
0
100
AcDbSymbolTable
 70
    18
  0
LAYER
  5
10
330
2
100
AcDbSymbolTableRecord
100
AcDbLayerTableRecord
  2
0
 70
     0
 62
     7
  6
Continuous
370
    -3
390
F
  0
LAYER
  5
6F
330
2
100
AcDbSymbolTableRecord
100
AcDbLayerTableRecord
  2
FORMAT
 70
     0
 62
     2
  6
Continuous
370
    -3
390
F
  0
LAYER
  5
70
330
2
100
AcDbSymbolTableRecord
100
AcDbLayerTableRecord
  2
외형선
 70
     0
 62
     4
  6
Continuous
370
    30
390
F
  0
LAYER
  5
71
330
2
100
AcDbSymbolTableRecord
100
AcDbLayerTableRecord
  2
숨은선
 70
     0
 62
     2
  6
HIDDEN
370
    15
390
F
  0
LAYER
  5
72
330
2
100
AcDbSymbolTableRecord
100
AcDbLayerTableRecord
  2
중심선
 70
     0
 62
     1
  6
CENTERX2
370
    -3
390
F
  0
LAYER
  5
73
330
2
100
AcDbSymbolTableRecord
100
AcDbLayerTableRecord
  2
파단선
 70
     0
 62
     4
  6
Continuous
370
    -3
390
F
  0
LAYER
  5
74
330
2
100
AcDbSymbolTableRecord
100
AcDbLayerTableRecord
  2
해칭선
 70
     0
 62
   100
  6
Continuous
370
    -3
390
F
  0
LAYER
  5
75
330
2
100
AcDbSymbolTableRecord
100
AcDbLayerTableRecord
  2
가는실선
 70
     0
 62
     4
  6
Continuous
370
    -3
390
F
  0
LAYER
  5
76
330
2
100
AcDbSymbolTableRecord
100
AcDbLayerTableRecord
  2
치수_보조선
 70
     0
 62
     4
  6
Continuous
370
    -3
390
F
  0
LAYER
  5
77
330
2
100
AcDbSymbolTableRecord
100
AcDbLayerTableRecord
  2
치수문자_일반주서
 70
     0
 62
     7
  6
Continuous
370
    15
390
F
  0
LAYER
  5
78
330
2
100
AcDbSymbolTableRecord
100
AcDbLayerTableRecord
  2
개별주서
 70
     0
 62
   100
  6
Continuous
370
    30
390
F
  0
LAYER
  5
79
330
2
100
AcDbSymbolTableRecord
100
AcDbLayerTableRecord
  2
중간선
 70
     0
 62
     2
  6
Continuous
370
    15
390
F
  0
LAYER
  5
7A
330
2
100
AcDbSymbolTableRecord
100
AcDbLayerTableRecord
  2
윤곽선
 70
     0
 62
     3
  6
Continuous
370
    40
390
F
  0
LAYER
  5
7B
330
2
100
AcDbSymbolTableRecord
100
AcDbLayerTableRecord
  2
중심마크
 70
     0
 62
   100
  6
Continuous
370
    30
390
F
  0
LAYER
  5
7C
330
2
100
AcDbSymbolTableRecord
100
AcDbLayerTableRecord
  2
가상선
 70
     0
 62
     4
  6
PHANTOM
370
    -3
390
F
  0
LAYER
  5
7D
330
2
100
AcDbSymbolTableRecord
100
AcDbLayerTableRecord
  2
특수지정선
 70
     0
 62
     5
  6
CENTERX2
370
    60
390
F
  0
LAYER
  5
7E
330
2
100
AcDbSymbolTableRecord
100
AcDbLayerTableRecord
  2
참조1
 70
     0
 62
    -4
  6
Continuous
370
    -3
390
F
  0
LAYER
  5
13E
330
2
100
AcDbSymbolTableRecord
100
AcDbLayerTableRecord
  2
Defpoints
 70
     0
 62
     7
  6
Continuous
290
     0
370
    -3
390
F
  0
ENDTAB
  0
TABLE
  2
STYLE
  5
3
330
0
100
AcDbSymbolTable
 70
     2
  0
STYLE
  5
11
330
3
100
AcDbSymbolTableRecord
100
AcDbTextStyleTableRecord
  2
Standard
 70
     0
 40
0.0
 41
1.0
 50
0.0
 71
     0
 42
3.5
  3
txt
  4

  0
STYLE
  5
94
330
3
100
AcDbSymbolTableRecord
100
AcDbTextStyleTableRecord
  2
SLDTEXTSTYLE0
 70
     0
 40
0.0
 41
0.75
 50
0.0
 71
     0
 42
3.5
  3
TXT
  4

  0
ENDTAB
  0
TABLE
  2
VIEW
  5
6
330
0
100
AcDbSymbolTable
 70
     0
  0
ENDTAB
  0
TABLE
  2
UCS
  5
7
330
0
100
AcDbSymbolTable
 70
     0
  0
ENDTAB
  0
TABLE
  2
APPID
  5
9
330
0
100
AcDbSymbolTable
 70
     1
  0
APPID
  5
12
330
9
100
AcDbSymbolTableRecord
100
AcDbRegAppTableRecord
  2
ACAD
 70
     0
  0
ENDTAB
  0
TABLE
  2
DIMSTYLE
  5
A
330
0
100
AcDbSymbolTable
 70
     4
100
AcDbDimStyleTable
  0
DIMSTYLE
105
27
330
A
100
AcDbSymbolTableRecord
100
AcDbDimStyleTableRecord
  2
ISO-25
 70
     0
 41
2.5
 42
0.625
 43
3.75
 44
1.25
 73
     0
 74
     0
 77
     1
 78
     8
140
2.5
141
2.5
143
0.03937007874016
147
0.625
171
     3
172
     1
178
     0
271
     2
272
     2
274
     3
278
    44
283
     0
284
     8
340
11
  0
DIMSTYLE
105
BD
102
{ACAD_REACTORS
330
188
330
195
330
1A2
330
1B0
330
1EA
330
1EB
330
1EC
330
1ED
102
}
330
A
100
AcDbSymbolTableRecord
100
AcDbDimStyleTableRecord
  2
SLDDIMSTYLE0
 70
     0
 41
3.302
 44
0.0
 45
0.000000001
 73
     0
 74
     0
 77
     1
 78
     4
 79
     1
140
3.5
143
0.0393700787401575
147
0.875
148
0.000000001
170
     1
173
     1
178
     0
271
     2
272
     2
276
     2
284
    12
340
94
  0
DIMSTYLE
105
E4
330
A
100
AcDbSymbolTableRecord
100
AcDbDimStyleTableRecord
  2
SLDDIMSTYLE1
 70
     0
 41
3.302
 44
0.0
 45
0.000000001
 73
     0
 74
     0
 77
     1
 78
     4
 79
     1
140
3.5
143
0.0393700787401575
147
0.875
148
0.000000001
170
     1
172
     1
173
     1
178
     0
271
     2
272
     2
276
     2
284
    12
289
     0
340
94
  0
DIMSTYLE
105
F9
330
A
100
AcDbSymbolTableRecord
100
AcDbDimStyleTableRecord
  2
SLDDIMSTYLE2
 70
     0
 41
3.302
 44
0.0
 45
0.000000001
 73
     0
 74
     0
 77
     1
 78
    12
 79
     3
140
3.5
143
0.0393700787401575
147
0.875
148
0.000000001
170
     1
173
     1
178
     0
271
     2
272
     2
276
     2
284
    12
340
94
  0
ENDTAB
  0
TABLE
  2
BLOCK_RECORD
  5
1
330
0
100
AcDbSymbolTable
 70
    16
  0
BLOCK_RECORD
  5
1F
330
1
100
AcDbSymbolTableRecord
100
AcDbBlockTableRecord
  2
*Model_Space
340
22
  0
BLOCK_RECORD
  5
1B
330
1
100
AcDbSymbolTableRecord
100
AcDbBlockTableRecord
  2
*Paper_Space
340
1E
  0
BLOCK_RECORD
  5
23
330
1
100
AcDbSymbolTableRecord
100
AcDbBlockTableRecord
  2
*Paper_Space0
340
26
  0
BLOCK_RECORD
  5
7F
330
1
100
AcDbSymbolTableRecord
100
AcDbBlockTableRecord
  2
블럭10
340
0
102
{BLKREFS
331
B5
102
}
  0
BLOCK_RECORD
  5
BE
330
1
100
AcDbSymbolTableRecord
100
AcDbBlockTableRecord
  2
_D
340
0
  0
BLOCK_RECORD
  5
D1
330
1
100
AcDbSymbolTableRecord
100
AcDbBlockTableRecord
  2
_D_1
340
0
  0
BLOCK_RECORD
  5
E5
330
1
100
AcDbSymbolTableRecord
100
AcDbBlockTableRecord
  2
_D_2
340
0
  0
BLOCK_RECORD
  5
FA
330
1
100
AcDbSymbolTableRecord
100
AcDbBlockTableRecord
  2
_D_3
340
0
  0
BLOCK_RECORD
  5
113
330
1
100
AcDbSymbolTableRecord
100
AcDbBlockTableRecord
  2
SW_DOWELSYMBOL_0
340
0
102
{BLKREFS
331
0
331
1BE
331
1EE
102
}
  0
BLOCK_RECORD
  5
189
330
1
100
AcDbSymbolTableRecord
100
AcDbBlockTableRecord
  2
*D8
340
0
  0
BLOCK_RECORD
  5
196
330
1
100
AcDbSymbolTableRecord
100
AcDbBlockTableRecord
  2
*D9
340
0
  0
BLOCK_RECORD
  5
1A3
330
1
100
AcDbSymbolTableRecord
100
AcDbBlockTableRecord
  2
*D10
340
0
  0
BLOCK_RECORD
  5
1B1
330
1
100
AcDbSymbolTableRecord
100
AcDbBlockTableRecord
  2
*D11
340
0
  0
BLOCK_RECORD
  5
1EF
330
1
100
AcDbSymbolTableRecord
100
AcDbBlockTableRecord
  2
*D12
340
0
  0
BLOCK_RECORD
  5
1FB
330
1
100
AcDbSymbolTableRecord
100
AcDbBlockTableRecord
  2
*D13
340
0
  0
BLOCK_RECORD
  5
207
330
1
100
AcDbSymbolTableRecord
100
AcDbBlockTableRecord
  2
*D14
340
0
  0
BLOCK_RECORD
  5
214
330
1
100
AcDbSymbolTableRecord
100
AcDbBlockTableRecord
  2
*D15
340
0
  0
ENDTAB
  0
ENDSEC
  0
SECTION
  2
BLOCKS
  0
BLOCK
  5
20
330
1F
100
AcDbEntity
  8
0
100
AcDbBlockBegin
  2
*Model_Space
 70
     0
 10
0.0
 20
0.0
 30
0.0
  3
*Model_Space
  1
*Model_Space
  0
ENDBLK
  5
21
330
1F
100
AcDbEntity
  8
0
100
AcDbBlockEnd
  0
BLOCK
  5
1C
330
1B
100
AcDbEntity
 67
     1
  8
0
100
AcDbBlockBegin
  2
*Paper_Space
 70
     0
 10
0.0
 20
0.0
 30
0.0
  3
*Paper_Space
  1
*Paper_Space
  0
ENDBLK
  5
1D
330
1B
100
AcDbEntity
 67
     1
  8
0
100
AcDbBlockEnd
  0
BLOCK
  5
24
330
23
100
AcDbEntity
  8
0
100
AcDbBlockBegin
  2
*Paper_Space0
 70
     0
 10
0.0
 20
0.0
 30
0.0
  3
*Paper_Space0
  1
*Paper_Space0
  0
ENDBLK
  5
25
330
23
100
AcDbEntity
  8
0
100
AcDbBlockEnd
  0
BLOCK
  5
80
330
7F
100
AcDbEntity
  8
0
100
AcDbBlockBegin
  2
블럭10
 70
     2
 10
0.0
 20
0.0
 30
0.0
  3
블럭10
  1
블럭10
  0
ELLIPSE
  5
82
330
7F
100
AcDbEntity
  8
중심선
100
AcDbEllipse
 10
20.54032771741204
 20
12.0471743016438
 30
0.0
 11
6.600054785286829
 21
-1.261213355974178E-13
 31
0.0
210
0.0
220
0.0
230
1.0
 40
0.636358354079598
 41
0.9219305317359503
 42
6.513795318482858
  0
ELLIPSE
  5
83
330
7F
100
AcDbEntity
  8
중심선
100
AcDbEllipse
 10
20.54032771746488
 20
12.04717430159265
 30
0.0
 11
3.960054785062283
 21
1.540847449632565E-10
 31
0.0
210
0.0
220
0.0
230
1.0
 40
0.3939339440162632
 41
1.131841032648279
 42
5.62031148352944
  0
LINE
  5
84
330
7F
100
AcDbEntity
  8
중심선
100
AcDbLine
 10
2.268634060543552
 20
16.24717430164393
 30
0.0
 11
5.714909304380834
 21
16.24717430164393
 31
0.0
  0
LINE
  5
85
330
7F
100
AcDbEntity
  8
중심선
100
AcDbLine
 10
5.245725140726316
 20
7.84717430164391
 30
0.0
 11
8.692000384563599
 21
7.84717430164391
 31
0.0
  0
LINE
  5
86
330
7F
100
AcDbEntity
  8
중심선
100
AcDbLine
 10
15.74043728645272
 20
16.24717430164393
 30
0.0
 11
8.692000384563599
 21
7.84717430164391
 31
0.0
  0
LINE
  5
87
330
7F
100
AcDbEntity
  8
중심선
100
AcDbLine
 10
0.1404042013395286
 20
13.71084872107135
 30
0.0
 11
3.58671253028996
 21
13.71088815037384
 31
0.0
  0
LINE
  5
88
330
7F
100
AcDbEntity
  8
중심선
100
AcDbLine
 10
2.750260043222114
 20
10.84717430164391
 30
0.0
 11
6.196535287059397
 21
10.84717430164391
 31
0.0
  0
LINE
  5
89
330
7F
100
AcDbEntity
  8
중심선
100
AcDbLine
 10
12.29416204261559
 20
16.24717430164393
 30
0.0
 11
5.245725140726316
 21
7.84717430164391
 31
0.0
  0
LINE
  5
8A
330
7F
100
AcDbEntity
  8
중심선
100
AcDbLine
 10
10.72767329541681
 20
16.24717430164393
 30
0.0
 11
6.196535287059397
 21
10.84717430164391
 31
0.0
  0
LINE
  5
8B
330
7F
100
AcDbEntity
  8
중심선
100
AcDbLine
 10
7.28139805157953
 20
16.24717430164393
 30
0.0
 11
2.750260043222114
 21
10.84717430164391
 31
0.0
  0
LINE
  5
8C
330
7F
100
AcDbEntity
  8
중심선
100
AcDbLine
 10
5.714909304380834
 20
16.24717430164393
 30
0.0
 11
3.58671253028996
 21
13.71088815037384
 31
0.0
  0
LINE
  5
8D
330
7F
100
AcDbEntity
  8
중심선
100
AcDbLine
 10
2.268634060543552
 20
16.24717430164393
 30
0.0
 11
0.1404042013395286
 21
13.71084872107135
 31
0.0
  0
LINE
  5
8E
330
7F
100
AcDbEntity
  8
중심선
100
AcDbLine
 10
7.28139805157953
 20
16.24717430164393
 30
0.0
 11
10.72767329541681
 21
16.24717430164393
 31
0.0
  0
LINE
  5
8F
330
7F
100
AcDbEntity
  8
중심선
100
AcDbLine
 10
12.29416204261559
 20
16.24717430164393
 30
0.0
 11
15.74043728645272
 21
16.24717430164393
 31
0.0
  0
LINE
  5
90
330
7F
100
AcDbEntity
  8
중심선
100
AcDbLine
 10
19.22036997980202
 20
11.08717430171403
 30
0.0
 11
23.66174974927406
 21
11.08717430171406
 31
0.0
  0
LINE
  5
91
330
7F
100
AcDbEntity
  8
중심선
100
AcDbLine
 10
19.22039502424796
 20
13.00717430171391
 30
0.0
 11
19.22036997980202
 21
11.08717430171403
 31
0.0
  0
LINE
  5
92
330
7F
100
AcDbEntity
  8
중심선
100
AcDbLine
 10
19.22039502424796
 20
13.00717430171391
 30
0.0
 11
26.96566020931264
 21
13.00717430171391
 31
0.0
  0
LINE
  5
93
330
7F
100
AcDbEntity
  8
중심선
100
AcDbLine
 10
22.22332737316547
 20
13.45928029700563
 30
0.0
 11
24.52862924686651
 21
15.39360700705356
 31
0.0
  0
ATTDEF
  5
95
330
7F
100
AcDbEntity
  8
FORMAT
 62
     2
100
AcDbText
 10
4.408487351596664
 20
2.075366912832191
 30
0.0
 40
4.233333333333333
  1
E5062906
 41
0.75
  7
SLDTEXTSTYLE0
 11
4.408487351596664
 21
-0.0412997538344756
 31
0.0
100
AcDbAttributeDefinition
  3

  2
AUTOATTR0
 70
     0
 74
     1
  0
ENDBLK
  5
81
330
7F
100
AcDbEntity
  8
0
100
AcDbBlockEnd
  0
BLOCK
  5
BF
330
BE
100
AcDbEntity
  8
0
100
AcDbBlockBegin
  2
_D
 70
     0
 10
0.0
 20
0.0
 30
0.0
  3
_D
  1
_D
  0
SOLID
  5
C1
330
BE
100
AcDbEntity
  8
치수문자_일반주서
100
AcDbTrace
 10
123.8249999999994
 20
12.99892507127611
 30
0.0
 11
120.5229999999994
 21
13.50692507127597
 31
0.0
 12
120.5229999999995
 22
12.49092507127597
 32
0.0
 13
120.5229999999995
 23
12.49092507127597
 33
0.0
  0
SOLID
  5
C2
330
BE
100
AcDbEntity
  8
치수문자_일반주서
100
AcDbTrace
 10
85.72499999999998
 20
12.99892507127441
 30
0.0
 11
89.02700000000002
 21
12.49092507127456
 31
0.0
 12
89.02699999999996
 22
13.50692507127455
 32
0.0
 13
89.02699999999996
 23
13.50692507127455
 33
0.0
  0
LINE
  5
C3
330
BE
100
AcDbEntity
  8
치수문자_일반주서
100
AcDbLine
 10
100.2170082605949
 20
23.79180678731819
 30
0.0
 11
99.50607077503042
 21
23.79180678731815
 31
0.0
  0
LINE
  5
C4
330
BE
100
AcDbEntity
  8
치수문자_일반주서
100
AcDbLine
 10
99.50607077503042
 20
23.79180678731815
 30
0.0
 11
99.50607077503071
 21
18.23555679625885
 31
0.0
  0
LINE
  5
C5
330
BE
100
AcDbEntity
  8
치수문자_일반주서
100
AcDbLine
 10
99.50607077503071
 20
18.23555679625885
 30
0.0
 11
100.2170082605952
 21
18.23555679625888
 31
0.0
  0
LINE
  5
C6
330
BE
100
AcDbEntity
  8
치수문자_일반주서
100
AcDbLine
 10
111.0457411227322
 20
23.79180678731874
 30
0.0
 11
111.7566786082967
 21
23.79180678731878
 31
0.0
  0
LINE
  5
C7
330
BE
100
AcDbEntity
  8
치수문자_일반주서
100
AcDbLine
 10
111.7566786082967
 20
23.79180678731878
 30
0.0
 11
111.756678608297
 21
18.23555679625948
 31
0.0
  0
LINE
  5
C8
330
BE
100
AcDbEntity
  8
치수문자_일반주서
100
AcDbLine
 10
111.756678608297
 20
18.23555679625948
 30
0.0
 11
111.0457411227325
 21
18.23555679625944
 31
0.0
  0
LINE
  5
C9
330
BE
100
AcDbEntity
  8
치수문자_일반주서
100
AcDbLine
 10
123.8249999999999
 20
2.24181467615686
 30
0.0
 11
123.8249999999994
 21
13.99892507127611
 31
0.0
  0
LINE
  5
CA
330
BE
100
AcDbEntity
  8
치수문자_일반주서
100
AcDbLine
 10
85.72499999999995
 20
13.65329691240968
 30
0.0
 11
85.72499999999994
 21
13.99892507127441
 31
0.0
  0
LINE
  5
CB
330
BE
100
AcDbEntity
  8
치수문자_일반주서
100
AcDbLine
 10
123.8249999999994
 20
12.99892507127611
 30
0.0
 11
85.72499999999998
 21
12.99892507127441
 31
0.0
  0
MTEXT
  5
CC
330
BE
100
AcDbEntity
  8
치수문자_일반주서
100
AcDbMText
 10
98.99231204954404
 20
17.56413433713709
 30
0.0
 40
3.5
 41
0.0
 71
     1
 72
     1
  1

  7
SLDTEXTSTYLE0
 73
     1
 44
1.0
  0
MTEXT
  5
CD
330
BE
100
AcDbEntity
  8
치수문자_일반주서
100
AcDbMText
 10
101.1056801612063
 20
22.74729371083782
 30
0.0
 40
3.5
 41
0.0
 71
     1
 72
     1
  1
1.50
  7
SLDTEXTSTYLE0
 73
     1
 44
1.0
  0
MTEXT
  5
CE
330
BE
100
AcDbEntity
  8
치수문자_일반주서
100
AcDbMText
 10
99.81262444802988
 20
17.51066216047729
 30
0.0
 40
3.5
 41
0.0
 71
     1
 72
     1
  1
38.10
  7
SLDTEXTSTYLE0
 73
     1
 44
1.0
  0
MTEXT
  5
CF
330
BE
100
AcDbEntity
  8
치수문자_일반주서
100
AcDbMText
 10
113.6023818534376
 20
17.56413433713785
 30
0.0
 40
3.5
 41
0.0
 71
     1
 72
     1
  1

  7
SLDTEXTSTYLE0
 73
     1
 44
1.0
  0
ENDBLK
  5
C0
330
BE
100
AcDbEntity
  8
0
100
AcDbBlockEnd
  0
BLOCK
  5
D2
330
D1
100
AcDbEntity
  8
0
100
AcDbBlockBegin
  2
_D_1
 70
     0
 10
0.0
 20
0.0
 30
0.0
  3
_D_1
  1
_D_1
  0
SOLID
  5
D4
330
D1
100
AcDbEntity
  8
치수문자_일반주서
100
AcDbTrace
 10
123.8249999999987
 20
29.60639052598201
 30
0.0
 11
120.5229999999987
 21
30.11439052598186
 31
0.0
 12
120.5229999999987
 22
29.09839052598187
 32
0.0
 13
120.5229999999987
 23
29.09839052598187
 33
0.0
  0
SOLID
  5
D5
330
D1
100
AcDbEntity
  8
치수문자_일반주서
100
AcDbTrace
 10
-28.57500000000086
 20
29.60639052597519
 30
0.0
 11
-25.27300000000084
 21
29.09839052597534
 31
0.0
 12
-25.27300000000088
 22
30.11439052597534
 32
0.0
 13
-25.27300000000088
 23
30.11439052597534
 33
0.0
  0
LINE
  5
D6
330
D1
100
AcDbEntity
  8
치수문자_일반주서
100
AcDbLine
 10
42.21063391817629
 20
40.39927224202152
 30
0.0
 11
41.49969643261179
 21
40.39927224202149
 31
0.0
  0
LINE
  5
D7
330
D1
100
AcDbEntity
  8
치수문자_일반주서
100
AcDbLine
 10
41.49969643261179
 20
40.39927224202149
 30
0.0
 11
41.49969643261208
 21
34.84302225096219
 31
0.0
  0
LINE
  5
D8
330
D1
100
AcDbEntity
  8
치수문자_일반주서
100
AcDbLine
 10
41.49969643261208
 20
34.84302225096219
 30
0.0
 11
42.21063391817658
 21
34.84302225096221
 31
0.0
  0
LINE
  5
D9
330
D1
100
AcDbEntity
  8
치수문자_일반주서
100
AcDbLine
 10
53.03936678031355
 20
40.39927224202209
 30
0.0
 11
53.75030426587805
 21
40.39927224202211
 31
0.0
  0
LINE
  5
DA
330
D1
100
AcDbEntity
  8
치수문자_일반주서
100
AcDbLine
 10
53.75030426587805
 20
40.39927224202211
 30
0.0
 11
53.75030426587833
 21
34.84302225096281
 31
0.0
  0
LINE
  5
DB
330
D1
100
AcDbEntity
  8
치수문자_일반주서
100
AcDbLine
 10
53.75030426587833
 20
34.84302225096281
 30
0.0
 11
53.03936678031383
 21
34.84302225096278
 31
0.0
  0
LINE
  5
DC
330
D1
100
AcDbEntity
  8
치수문자_일반주서
100
AcDbLine
 10
123.8249999999999
 20
2.24181467615686
 30
0.0
 11
123.8249999999987
 21
30.60639052598201
 31
0.0
  0
LINE
  5
DD
330
D1
100
AcDbEntity
  8
치수문자_일반주서
100
AcDbLine
 10
-28.57500000000003
 20
11.16
 30
0.0
 11
-28.57500000000091
 21
30.60639052597519
 31
0.0
  0
LINE
  5
DE
330
D1
100
AcDbEntity
  8
치수문자_일반주서
100
AcDbLine
 10
123.8249999999987
 20
29.60639052598201
 30
0.0
 11
-28.57500000000086
 21
29.60639052597519
 31
0.0
  0
MTEXT
  5
DF
330
D1
100
AcDbEntity
  8
치수문자_일반주서
100
AcDbMText
 10
40.53263879567312
 20
34.1715997918404
 30
0.0
 40
3.5
 41
0.0
 71
     1
 72
     1
  1

  7
SLDTEXTSTYLE0
 73
     1
 44
1.0
  0
MTEXT
  5
E0
330
D1
100
AcDbEntity
  8
치수문자_일반주서
100
AcDbMText
 10
43.09930581878771
 20
39.35475916554116
 30
0.0
 40
3.5
 41
0.0
 71
     1
 72
     1
  1
6.00
  7
SLDTEXTSTYLE0
 73
     1
 44
1.0
  0
MTEXT
  5
E1
330
D1
100
AcDbEntity
  8
치수문자_일반주서
100
AcDbMText
 10
40.51319439243454
 20
34.11812761518055
 30
0.0
 40
3.5
 41
0.0
 71
     1
 72
     1
  1
152.40
  7
SLDTEXTSTYLE0
 73
     1
 44
1.0
  0
MTEXT
  5
E2
330
D1
100
AcDbEntity
  8
치수문자_일반주서
100
AcDbMText
 10
56.04930642247128
 20
34.1715997918412
 30
0.0
 40
3.5
 41
0.0
 71
     1
 72
     1
  1

  7
SLDTEXTSTYLE0
 73
     1
 44
1.0
  0
ENDBLK
  5
D3
330
D1
100
AcDbEntity
  8
0
100
AcDbBlockEnd
  0
BLOCK
  5
E6
330
E5
100
AcDbEntity
  8
0
100
AcDbBlockBegin
  2
_D_2
 70
     0
 10
0.0
 20
0.0
 30
0.0
  3
_D_2
  1
_D_2
  0
SOLID
  5
E8
330
E5
100
AcDbEntity
  8
치수문자_일반주서
100
AcDbTrace
 10
-34.28539556408949
 20
12.69999999999999
 30
0.0
 11
-33.77739556408949
 21
16.00199999999999
 31
0.0
 12
-34.79339556408949
 22
16.00199999999999
 32
0.0
 13
-34.79339556408949
 23
16.00199999999999
 33
0.0
  0
SOLID
  5
E9
330
E5
100
AcDbEntity
  8
치수문자_일반주서
100
AcDbTrace
 10
-34.28539556408949
 20
-12.69999999999999
 30
0.0
 11
-34.79339556408949
 21
-16.00199999999999
 31
0.0
 12
-33.77739556408949
 22
-16.00199999999999
 32
0.0
 13
-33.77739556408949
 23
-16.00199999999999
 33
0.0
  0
LINE
  5
EA
330
E5
100
AcDbEntity
  8
치수문자_일반주서
100
AcDbLine
 10
-45.07827728013222
 20
-5.414366431068721
 30
0.0
 11
-45.07827728013221
 21
-6.125303916633221
 31
0.0
  0
LINE
  5
EB
330
E5
100
AcDbEntity
  8
치수문자_일반주서
100
AcDbLine
 10
-45.07827728013221
 20
-6.125303916633221
 30
0.0
 11
-39.52202728907291
 21
-6.125303916633182
 31
0.0
  0
LINE
  5
EC
330
E5
100
AcDbEntity
  8
치수문자_일반주서
100
AcDbLine
 10
-39.52202728907291
 20
-6.125303916633182
 30
0.0
 11
-39.52202728907292
 21
-5.414366431068682
 31
0.0
  0
LINE
  5
ED
330
E5
100
AcDbEntity
  8
치수문자_일반주서
100
AcDbLine
 10
-45.07827728013229
 20
5.414366431068537
 30
0.0
 11
-45.0782772801323
 21
6.125303916633037
 31
0.0
  0
LINE
  5
EE
330
E5
100
AcDbEntity
  8
치수문자_일반주서
100
AcDbLine
 10
-45.0782772801323
 20
6.125303916633037
 30
0.0
 11
-39.52202728907299
 21
6.125303916633076
 31
0.0
  0
LINE
  5
EF
330
E5
100
AcDbEntity
  8
치수문자_일반주서
100
AcDbLine
 10
-39.52202728907299
 20
6.125303916633076
 30
0.0
 11
-39.52202728907299
 21
5.414366431068576
 31
0.0
  0
LINE
  5
F0
330
E5
100
AcDbEntity
  8
치수문자_일반주서
100
AcDbLine
 10
-27.03499999999997
 20
12.69999999999999
 30
0.0
 11
-35.2853955640895
 21
12.69999999999999
 31
0.0
  0
LINE
  5
F1
330
E5
100
AcDbEntity
  8
치수문자_일반주서
100
AcDbLine
 10
-27.03499999999997
 20
-12.69999999999999
 30
0.0
 11
-35.2853955640895
 21
-12.69999999999999
 31
0.0
  0
LINE
  5
F2
330
E5
100
AcDbEntity
  8
치수문자_일반주서
100
AcDbLine
 10
-34.28539556408949
 20
12.69999999999999
 30
0.0
 11
-34.28539556408949
 21
19.04999999999999
 31
0.0
  0
LINE
  5
F3
330
E5
100
AcDbEntity
  8
치수문자_일반주서
100
AcDbLine
 10
-34.28539556408949
 20
12.69999999999999
 30
0.0
 11
-34.28539556408949
 21
-12.69999999999999
 31
0.0
  0
LINE
  5
F4
330
E5
100
AcDbEntity
  8
치수문자_일반주서
100
AcDbLine
 10
-34.28539556408949
 20
-12.69999999999999
 30
0.0
 11
-34.28539556408949
 21
-19.04999999999999
 31
0.0
  0
MTEXT
  5
F5
330
E5
100
AcDbEntity
  8
치수문자_일반주서
100
AcDbMText
 10
-44.03376420365181
 20
-4.525694530457343
 30
0.0
 40
3.5
 41
0.0
 71
     1
 72
     1
  1
1.00
  7
SLDTEXTSTYLE0
 11
-7.044195017643634E-15
 21
1.0
 31
0.0
 73
     1
 44
1.0
  0
MTEXT
  5
F6
330
E5
100
AcDbEntity
  8
치수문자_일반주서
100
AcDbMText
 10
-38.79713265329131
 20
-8.457968942821074
 30
0.0
 40
3.5
 41
0.0
 71
     1
 72
     1
  1
%%c
  7
SLDTEXTSTYLE0
 11
-7.044195017643634E-15
 21
1.0
 31
0.0
 73
     1
 44
1.0
  0
MTEXT
  5
F7
330
E5
100
AcDbEntity
  8
치수문자_일반주서
100
AcDbMText
 10
-38.79713265329135
 20
-3.179531544446994
 30
0.0
 40
3.5
 41
0.0
 71
     1
 72
     1
  1
25.40
  7
SLDTEXTSTYLE0
 11
-7.044195017643634E-15
 21
1.0
 31
0.0
 73
     1
 44
1.0
  0
ENDBLK
  5
E7
330
E5
100
AcDbEntity
  8
0
100
AcDbBlockEnd
  0
BLOCK
  5
FB
330
FA
100
AcDbEntity
  8
0
100
AcDbBlockBegin
  2
_D_3
 70
     0
 10
0.0
 20
0.0
 30
0.0
  3
_D_3
  1
_D_3
  0
SOLID
  5
FD
330
FA
100
AcDbEntity
  8
치수문자_일반주서
100
AcDbTrace
 10
21.25491098202481
 20
-7.937500000000014
 30
0.0
 11
21.76291098202481
 21
-4.635500000000015
 31
0.0
 12
20.74691098202481
 22
-4.635500000000015
 32
0.0
 13
20.74691098202481
 23
-4.635500000000015
 33
0.0
  0
SOLID
  5
FE
330
FA
100
AcDbEntity
  8
치수문자_일반주서
100
AcDbTrace
 10
21.25491098202481
 20
7.937500000000024
 30
0.0
 11
20.74691098202481
 21
4.635500000000024
 31
0.0
 12
21.76291098202481
 22
4.635500000000024
 32
0.0
 13
21.76291098202481
 23
4.635500000000024
 33
0.0
  0
LINE
  5
FF
330
FA
100
AcDbEntity
  8
치수문자_일반주서
100
AcDbLine
 10
10.46202926598205
 20
-63.44631906097823
 30
0.0
 11
10.46202926598205
 21
-64.15725654654273
 31
0.0
  0
LINE
  5
100
330
FA
100
AcDbEntity
  8
치수문자_일반주서
100
AcDbLine
 10
10.46202926598205
 20
-64.15725654654273
 30
0.0
 11
16.01827925704135
 21
-64.15725654654273
 31
0.0
  0
LINE
  5
101
330
FA
100
AcDbEntity
  8
치수문자_일반주서
100
AcDbLine
 10
16.01827925704135
 20
-64.15725654654273
 30
0.0
 11
16.01827925704135
 21
-63.44631906097823
 31
0.0
  0
LINE
  5
102
330
FA
100
AcDbEntity
  8
치수문자_일반주서
100
AcDbLine
 10
10.46202926598205
 20
-52.61758619884097
 30
0.0
 11
10.46202926598205
 21
-51.90664871327647
 31
0.0
  0
LINE
  5
103
330
FA
100
AcDbEntity
  8
치수문자_일반주서
100
AcDbLine
 10
10.46202926598205
 20
-51.90664871327647
 30
0.0
 11
16.01827925704135
 21
-51.90664871327647
 31
0.0
  0
LINE
  5
104
330
FA
100
AcDbEntity
  8
치수문자_일반주서
100
AcDbLine
 10
16.01827925704135
 20
-51.90664871327647
 30
0.0
 11
16.01827925704135
 21
-52.61758619884097
 31
0.0
  0
LINE
  5
105
330
FA
100
AcDbEntity
  8
치수문자_일반주서
100
AcDbLine
 10
107.4996855420442
 20
-7.93750000000002
 30
0.0
 11
20.25491098202481
 21
-7.937500000000014
 31
0.0
  0
LINE
  5
106
330
FA
100
AcDbEntity
  8
치수문자_일반주서
100
AcDbLine
 10
107.4996855420441
 20
7.93750000000002
 30
0.0
 11
20.25491098202481
 21
7.937500000000024
 31
0.0
  0
LINE
  5
107
330
FA
100
AcDbEntity
  8
치수문자_일반주서
100
AcDbLine
 10
21.25491098202481
 20
-7.937500000000014
 30
0.0
 11
21.25491098202481
 21
-66.48992157273062
 31
0.0
  0
LINE
  5
108
330
FA
100
AcDbEntity
  8
치수문자_일반주서
100
AcDbLine
 10
21.25491098202481
 20
-7.937500000000014
 30
0.0
 11
21.25491098202481
 21
7.937500000000024
 31
0.0
  0
MTEXT
  5
109
330
FA
100
AcDbEntity
  8
치수문자_일반주서
100
AcDbMText
 10
11.50654234246246
 20
-62.55764716036686
 30
0.0
 40
3.5
 41
0.0
 71
     1
 72
     1
  1
0.63
  7
SLDTEXTSTYLE0
 11
6.123233995736766E-17
 21
1.0
 31
0.0
 73
     1
 44
1.0
  0
MTEXT
  5
10A
330
FA
100
AcDbEntity
  8
치수문자_일반주서
100
AcDbMText
 10
16.74317389282293
 20
-66.48992157273062
 30
0.0
 40
3.5
 41
0.0
 71
     1
 72
     1
  1
%%c
  7
SLDTEXTSTYLE0
 11
6.123233995736766E-17
 21
1.0
 31
0.0
 73
     1
 44
1.0
  0
MTEXT
  5
10B
330
FA
100
AcDbEntity
  8
치수문자_일반주서
100
AcDbMText
 10
16.74317389282293
 20
-61.21148417435654
 30
0.0
 40
3.5
 41
0.0
 71
     1
 72
     1
  1
15.88
  7
SLDTEXTSTYLE0
 11
6.123233995736766E-17
 21
1.0
 31
0.0
 73
     1
 44
1.0
  0
ENDBLK
  5
FC
330
FA
100
AcDbEntity
  8
0
100
AcDbBlockEnd
  0
BLOCK
  5
114
330
113
100
AcDbEntity
  8
0
100
AcDbBlockBegin
  2
SW_DOWELSYMBOL_0
 70
     0
 10
0.0
 20
0.0
 30
0.0
  3
SW_DOWELSYMBOL_0
  1
SW_DOWELSYMBOL_0
  0
CIRCLE
  5
116
330
113
100
AcDbEntity
  8
해칭선
 62
     0
100
AcDbCircle
 10
0.0
 20
0.0
 30
0.0
 40
3.000000000000008
  0
HATCH
  5
117
330
113
100
AcDbEntity
  8
0
  6
Continuous
 62
     0
370
     0
100
AcDbHatch
 10
0.0
 20
0.0
 30
0.0
210
0.0
220
0.0
230
1.0
  2
SOLID
 70
     1
 71
     0
 91
        1
 92
        0
 93
        3
 72
     2
 10
0.0
 20
0.0
 40
3.000000000000008
 50
0.0
 51
90.0
 73
     1
 72
     1
 10
0.0
 20
3.000000000000008
 11
0.0
 21
0.0
 72
     1
 10
0.0
 20
0.0
 11
3.000000000000003
 21
0.0
 97
        0
 75
     0
 76
     1
 98
        1
 10
0.0
 20
0.0
  0
HATCH
  5
118
330
113
100
AcDbEntity
  8
0
  6
Continuous
 62
     0
370
     0
100
AcDbHatch
 10
0.0
 20
0.0
 30
0.0
210
0.0
220
0.0
230
1.0
  2
SOLID
 70
     1
 71
     0
 91
        1
 92
        0
 93
        3
 72
     2
 10
0.0
 20
0.0
 40
3.000000000000008
 50
180.0
 51
270.0000000000008
 73
     1
 72
     1
 10
0.0
 20
-3.000000000000008
 11
0.0
 21
0.0
 72
     1
 10
0.0
 20
0.0
 11
-3.000000000000003
 21
0.0
 97
        0
 75
     0
 76
     1
 98
        1
 10
0.0
 20
0.0
  0
ENDBLK
  5
115
330
113
100
AcDbEntity
  8
0
100
AcDbBlockEnd
  0
BLOCK
  5
18A
330
189
100
AcDbEntity
  8
0
100
AcDbBlockBegin
  2
*D8
 70
     1
 10
0.0
 20
0.0
 30
0.0
  3
*D8
  1
*D23
  0
LINE
  5
18B
330
189
100
AcDbEntity
  8
치수문자_일반주서
 62
     0
370
    -2
100
AcDbLine
 10
170.4743658530533
 20
25.52572483571032
 30
0.0
 11
170.4743658530533
 21
47.28582902296495
 31
0.0
  0
LINE
  5
18C
330
189
100
AcDbEntity
  8
치수문자_일반주서
 62
     0
370
    -2
100
AcDbLine
 10
94.27436585305338
 20
25.47902174811986
 30
0.0
 11
94.27436585305338
 21
47.28582902296495
 31
0.0
  0
LINE
  5
18D
330
189
100
AcDbEntity
  8
치수문자_일반주서
 62
     0
370
    -2
100
AcDbLine
 10
167.1723658530533
 20
47.28582902296495
 30
0.0
 11
97.57636585305337
 21
47.28582902296495
 31
0.0
  0
SOLID
  5
18E
330
189
100
AcDbEntity
  8
치수문자_일반주서
 62
     0
100
AcDbTrace
 10
167.1723658530533
 20
46.73549568963162
 30
0.0
 11
167.1723658530533
 21
47.83616235629829
 31
0.0
 12
170.4743658530533
 22
47.28582902296495
 32
0.0
 13
170.4743658530533
 23
47.28582902296495
 33
0.0
  0
SOLID
  5
18F
330
189
100
AcDbEntity
  8
치수문자_일반주서
 62
     0
100
AcDbTrace
 10
97.57636585305337
 20
47.83616235629829
 30
0.0
 11
97.57636585305337
 21
46.73549568963162
 31
0.0
 12
94.27436585305338
 22
47.28582902296495
 32
0.0
 13
94.27436585305338
 23
47.28582902296495
 33
0.0
  0
MTEXT
  5
190
330
189
100
AcDbEntity
  8
치수문자_일반주서
 62
     0
100
AcDbMText
 10
130.7803472533191
 20
51.66082902296495
 30
0.0
 40
3.5
 41
0.0
 71
     2
 72
     1
  1
\A1;76.20 [3]
  7
SLDTEXTSTYLE0
 73
     1
 44
1.0
  0
POINT
  5
191
330
189
100
AcDbEntity
  8
Defpoints
 62
     0
100
AcDbPoint
 10
170.4743658530533
 20
25.46322483571032
 30
0.0
  0
POINT
  5
192
330
189
100
AcDbEntity
  8
Defpoints
 62
     0
100
AcDbPoint
 10
94.27436585305338
 20
25.41652174811986
 30
0.0
  0
POINT
  5
193
330
189
100
AcDbEntity
  8
Defpoints
 62
     0
100
AcDbPoint
 10
94.27436585305338
 20
47.28582902296495
 30
0.0
  0
ENDBLK
  5
194
330
189
100
AcDbEntity
  8
0
100
AcDbBlockEnd
  0
BLOCK
  5
197
330
196
100
AcDbEntity
  8
0
100
AcDbBlockBegin
  2
*D9
 70
     1
 10
0.0
 20
0.0
 30
0.0
  3
*D9
  1
*D24
  0
LINE
  5
198
330
196
100
AcDbEntity
  8
치수문자_일반주서
 62
     0
370
    -2
100
AcDbLine
 10
170.4743658530533
 20
25.52572483571032
 30
0.0
 11
170.4743658530533
 21
64.53038161993521
 31
0.0
  0
LINE
  5
199
330
196
100
AcDbEntity
  8
치수문자_일반주서
 62
     0
370
    -2
100
AcDbLine
 10
18.07436585305337
 20
22.98572483571016
 30
0.0
 11
18.07436585305337
 21
64.53038161993521
 31
0.0
  0
LINE
  5
19A
330
196
100
AcDbEntity
  8
치수문자_일반주서
 62
     0
370
    -2
100
AcDbLine
 10
167.1723658530533
 20
64.53038161993521
 30
0.0
 11
21.37636585305336
 21
64.53038161993521
 31
0.0
  0
SOLID
  5
19B
330
196
100
AcDbEntity
  8
치수문자_일반주서
 62
     0
100
AcDbTrace
 10
167.1723658530533
 20
63.98004828660188
 30
0.0
 11
167.1723658530533
 21
65.08071495326854
 31
0.0
 12
170.4743658530533
 22
64.53038161993521
 32
0.0
 13
170.4743658530533
 23
64.53038161993521
 33
0.0
  0
SOLID
  5
19C
330
196
100
AcDbEntity
  8
치수문자_일반주서
 62
     0
100
AcDbTrace
 10
21.37636585305336
 20
65.08071495326854
 30
0.0
 11
21.37636585305336
 21
63.98004828660188
 31
0.0
 12
18.07436585305337
 22
64.53038161993521
 32
0.0
 13
18.07436585305337
 23
64.53038161993521
 33
0.0
  0
MTEXT
  5
19D
330
196
100
AcDbEntity
  8
치수문자_일반주서
 62
     0
100
AcDbMText
 10
92.46868623727285
 20
68.90538161993521
 30
0.0
 40
3.5
 41
0.0
 71
     2
 72
     1
  1
\A1;152.40 [6]
  7
SLDTEXTSTYLE0
 73
     1
 44
1.0
  0
POINT
  5
19E
330
196
100
AcDbEntity
  8
Defpoints
 62
     0
100
AcDbPoint
 10
170.4743658530533
 20
25.46322483571032
 30
0.0
  0
POINT
  5
19F
330
196
100
AcDbEntity
  8
Defpoints
 62
     0
100
AcDbPoint
 10
18.07436585305337
 20
22.92322483571016
 30
0.0
  0
POINT
  5
1A0
330
196
100
AcDbEntity
  8
Defpoints
 62
     0
100
AcDbPoint
 10
18.07436585305337
 20
64.53038161993521
 30
0.0
  0
ENDBLK
  5
1A1
330
196
100
AcDbEntity
  8
0
100
AcDbBlockEnd
  0
BLOCK
  5
1A4
330
1A3
100
AcDbEntity
  8
0
100
AcDbBlockBegin
  2
*D10
 70
     1
 10
0.0
 20
0.0
 30
0.0
  3
*D10
  1
*D25
  0
LINE
  5
1A5
330
1A3
100
AcDbEntity
  8
치수문자_일반주서
 62
     0
370
    -2
100
AcDbLine
 10
20.55186585305339
 20
25.46322483571015
 30
0.0
 11
4.375000000000114
 21
25.46322483571009
 31
0.0
  0
LINE
  5
1A6
330
1A3
100
AcDbEntity
  8
치수문자_일반주서
 62
     0
370
    -2
100
AcDbLine
 10
20.55186585305339
 20
0.0632248357101692
 30
0.0
 11
4.375000000000203
 21
0.0632248357101091
 31
0.0
  0
LINE
  5
1A7
330
1A3
100
AcDbEntity
  8
치수문자_일반주서
 62
     0
370
    -2
100
AcDbLine
 10
4.375000000000114
 20
25.46322483571009
 30
0.0
 11
4.375000000000004
 21
57.00472483571008
 31
0.0
  0
LINE
  5
1A8
330
1A3
100
AcDbEntity
  8
치수문자_일반주서
 62
     0
370
    -2
100
AcDbLine
 10
4.375000000000125
 20
22.16122483571009
 30
0.0
 11
4.375000000000191
 21
3.365224835710109
 31
0.0
  0
SOLID
  5
1A9
330
1A3
100
AcDbEntity
  8
치수문자_일반주서
 62
     0
100
AcDbTrace
 10
4.925333333333459
 20
22.16122483571009
 30
0.0
 11
3.824666666666792
 21
22.16122483571009
 31
0.0
 12
4.375000000000114
 22
25.46322483571009
 32
0.0
 13
4.375000000000114
 23
25.46322483571009
 33
0.0
  0
SOLID
  5
1AA
330
1A3
100
AcDbEntity
  8
치수문자_일반주서
 62
     0
100
AcDbTrace
 10
3.824666666666858
 20
3.365224835710107
 30
0.0
 11
4.925333333333525
 21
3.36522483571011
 31
0.0
 12
4.375000000000203
 22
0.0632248357101091
 32
0.0
 13
4.375000000000203
 23
0.0632248357101091
 33
0.0
  0
MTEXT
  5
1AB
330
1A3
100
AcDbEntity
  8
치수문자_일반주서
 62
     0
100
AcDbMText
 10
0.0000000000000426
 20
45.84847483571006
 30
0.0
 40
3.5
 41
0.0
 71
     2
 72
     1
  1
\A1;%%c25.40 [1]
  7
SLDTEXTSTYLE0
 11
-3.496765431890259E-15
 21
1.0
 31
0.0
 73
     1
 44
1.0
  0
POINT
  5
1AC
330
1A3
100
AcDbEntity
  8
Defpoints
 62
     0
100
AcDbPoint
 10
20.61436585305339
 20
25.46322483571015
 30
0.0
  0
POINT
  5
1AD
330
1A3
100
AcDbEntity
  8
Defpoints
 62
     0
100
AcDbPoint
 10
20.61436585305339
 20
0.0632248357101695
 30
0.0
  0
POINT
  5
1AE
330
1A3
100
AcDbEntity
  8
Defpoints
 62
     0
100
AcDbPoint
 10
4.375000000000199
 20
0.0632248357101088
 30
0.0
  0
ENDBLK
  5
1AF
330
1A3
100
AcDbEntity
  8
0
100
AcDbBlockEnd
  0
BLOCK
  5
1B2
330
1B1
100
AcDbEntity
  8
0
100
AcDbBlockBegin
  2
*D11
 70
     1
 10
0.0
 20
0.0
 30
0.0
  3
*D11
  1
*D26
  0
LINE
  5
1B3
330
1B1
100
AcDbEntity
  8
치수문자_일반주서
 62
     0
370
    -2
100
AcDbLine
 10
170.5368658530533
 20
0.0632248357102905
 30
0.0
 11
188.4009022333175
 21
0.0632248357103506
 31
0.0
  0
LINE
  5
1B4
330
1B1
100
AcDbEntity
  8
치수문자_일반주서
 62
     0
370
    -2
100
AcDbLine
 10
170.5368658530533
 20
25.46322483571032
 30
0.0
 11
188.4009022333174
 21
25.46322483571039
 31
0.0
  0
LINE
  5
1B5
330
1B1
100
AcDbEntity
  8
치수문자_일반주서
 62
     0
370
    -2
100
AcDbLine
 10
188.4009022333174
 20
25.46322483571039
 30
0.0
 11
188.4009022333173
 21
54.99447483571038
 31
0.0
  0
LINE
  5
1B6
330
1B1
100
AcDbEntity
  8
치수문자_일반주서
 62
     0
370
    -2
100
AcDbLine
 10
188.4009022333175
 20
3.36522483571035
 30
0.0
 11
188.4009022333174
 21
22.16122483571039
 31
0.0
  0
SOLID
  5
1B7
330
1B1
100
AcDbEntity
  8
치수문자_일반주서
 62
     0
100
AcDbTrace
 10
187.8505688999842
 20
3.365224835710348
 30
0.0
 11
188.9512355666508
 21
3.365224835710352
 31
0.0
 12
188.4009022333175
 22
0.0632248357103506
 32
0.0
 13
188.4009022333175
 23
0.0632248357103506
 33
0.0
  0
SOLID
  5
1B8
330
1B1
100
AcDbEntity
  8
치수문자_일반주서
 62
     0
100
AcDbTrace
 10
188.9512355666508
 20
22.16122483571039
 30
0.0
 11
187.8505688999841
 21
22.16122483571039
 31
0.0
 12
188.4009022333174
 22
25.46322483571039
 32
0.0
 13
188.4009022333174
 23
25.46322483571039
 33
0.0
  0
MTEXT
  5
1B9
330
1B1
100
AcDbEntity
  8
치수문자_일반주서
 62
     0
100
AcDbMText
 10
184.0259022333174
 20
43.83822483571036
 30
0.0
 40
3.5
 41
0.0
 71
     2
 72
     1
  1
\A1;%%c25.40 [1]
  7
SLDTEXTSTYLE0
 11
-3.356894814614643E-15
 21
1.0
 31
0.0
 73
     1
 44
1.0
  0
POINT
  5
1BA
330
1B1
100
AcDbEntity
  8
Defpoints
 62
     0
100
AcDbPoint
 10
170.4743658530533
 20
0.0632248357102903
 30
0.0
  0
POINT
  5
1BB
330
1B1
100
AcDbEntity
  8
Defpoints
 62
     0
100
AcDbPoint
 10
170.4743658530533
 20
25.46322483571032
 30
0.0
  0
POINT
  5
1BC
330
1B1
100
AcDbEntity
  8
Defpoints
 62
     0
100
AcDbPoint
 10
188.4009022333175
 20
25.46322483571039
 30
0.0
  0
ENDBLK
  5
1BD
330
1B1
100
AcDbEntity
  8
0
100
AcDbBlockEnd
  0
BLOCK
  5
1F0
330
1EF
100
AcDbEntity
  8
0
100
AcDbBlockBegin
  2
*D12
 70
     1
 10
0.0
 20
0.0
 30
0.0
  3
*D12
  1
*D12
  0
LINE
  5
1F2
330
1EF
100
AcDbEntity
  8
치수문자_일반주서
 62
     0
370
    -2
100
AcDbLine
 10
50.09999999999997
 20
12.76250000000016
 30
0.0
 11
50.09999999999997
 21
34.52260418725479
 31
0.0
  0
LINE
  5
1F3
330
1EF
100
AcDbEntity
  8
치수문자_일반주서
 62
     0
370
    -2
100
AcDbLine
 10
11.99999999999996
 20
12.72620675021651
 30
0.0
 11
11.99999999999996
 21
34.52260418725479
 31
0.0
  0
LINE
  5
1F4
330
1EF
100
AcDbEntity
  8
치수문자_일반주서
 62
     0
370
    -2
100
AcDbLine
 10
11.99999999999996
 20
34.52260418725479
 30
0.0
 11
-19.73950000000004
 21
34.52260418725479
 31
0.0
  0
LINE
  5
1F5
330
1EF
100
AcDbEntity
  8
치수문자_일반주서
 62
     0
370
    -2
100
AcDbLine
 10
46.79799999999997
 20
34.52260418725479
 30
0.0
 11
15.30199999999996
 21
34.52260418725479
 31
0.0
  0
SOLID
  5
1F6
330
1EF
100
AcDbEntity
  8
치수문자_일반주서
 62
     0
100
AcDbTrace
 10
46.79799999999997
 20
33.97227085392146
 30
0.0
 11
46.79799999999997
 21
35.07293752058813
 31
0.0
 12
50.09999999999997
 22
34.52260418725479
 32
0.0
 13
50.09999999999997
 23
34.52260418725479
 33
0.0
  0
SOLID
  5
1F7
330
1EF
100
AcDbEntity
  8
치수문자_일반주서
 62
     0
100
AcDbTrace
 10
15.30199999999996
 20
35.07293752058813
 30
0.0
 11
15.30199999999996
 21
33.97227085392146
 31
0.0
 12
11.99999999999996
 22
34.52260418725479
 32
0.0
 13
11.99999999999996
 23
34.52260418725479
 33
0.0
  0
MTEXT
  5
1F8
330
1EF
100
AcDbEntity
  8
치수문자_일반주서
 62
     0
100
AcDbMText
 10
-5.520750000000042
 20
38.89760418725479
 30
0.0
 40
3.5
 41
0.0
 71
     2
 72
     1
  1
\A1;38.10 [1 1/2]
  7
SLDTEXTSTYLE0
 73
     1
 44
1.0
  0
POINT
  5
1F9
330
1EF
100
AcDbEntity
  8
Defpoints
 62
     0
100
AcDbPoint
 10
50.09999999999997
 20
12.70000000000016
 30
0.0
  0
POINT
  5
1FA
330
1EF
100
AcDbEntity
  8
Defpoints
 62
     0
100
AcDbPoint
 10
11.99999999999996
 20
12.66370675021651
 30
0.0
  0
POINT
  5
226
330
1EF
100
AcDbEntity
  8
Defpoints
 62
     0
100
AcDbPoint
 10
11.99999999999996
 20
34.52260418725479
 30
0.0
  0
ENDBLK
  5
1F1
330
1EF
100
AcDbEntity
  8
0
100
AcDbBlockEnd
  0
BLOCK
  5
1FC
330
1FB
100
AcDbEntity
  8
0
100
AcDbBlockBegin
  2
*D13
 70
     1
 10
0.0
 20
0.0
 30
0.0
  3
*D13
  1
*D13
  0
LINE
  5
1FE
330
1FB
100
AcDbEntity
  8
치수문자_일반주서
 62
     0
370
    -2
100
AcDbLine
 10
50.09999999999997
 20
12.76250000000016
 30
0.0
 11
50.09999999999997
 21
51.76715678422505
 31
0.0
  0
LINE
  5
1FF
330
1FB
100
AcDbEntity
  8
치수문자_일반주서
 62
     0
370
    -2
100
AcDbLine
 10
-102.3
 20
10.2225
 30
0.0
 11
-102.3
 21
51.76715678422505
 31
0.0
  0
LINE
  5
200
330
1FB
100
AcDbEntity
  8
치수문자_일반주서
 62
     0
370
    -2
100
AcDbLine
 10
46.79799999999997
 20
51.76715678422505
 30
0.0
 11
-98.99799999999999
 21
51.76715678422505
 31
0.0
  0
SOLID
  5
201
330
1FB
100
AcDbEntity
  8
치수문자_일반주서
 62
     0
100
AcDbTrace
 10
46.79799999999997
 20
51.21682345089172
 30
0.0
 11
46.79799999999997
 21
52.31749011755839
 31
0.0
 12
50.09999999999997
 22
51.76715678422505
 32
0.0
 13
50.09999999999997
 23
51.76715678422505
 33
0.0
  0
SOLID
  5
202
330
1FB
100
AcDbEntity
  8
치수문자_일반주서
 62
     0
100
AcDbTrace
 10
-98.99799999999999
 20
52.31749011755839
 30
0.0
 11
-98.99799999999999
 21
51.21682345089172
 31
0.0
 12
-102.3
 22
51.76715678422505
 32
0.0
 13
-102.3
 23
51.76715678422505
 33
0.0
  0
MTEXT
  5
203
330
1FB
100
AcDbEntity
  8
치수문자_일반주서
 62
     0
100
AcDbMText
 10
-27.90567961578051
 20
56.14215678422505
 30
0.0
 40
3.5
 41
0.0
 71
     2
 72
     1
  1
\A1;152.40 [6]
  7
SLDTEXTSTYLE0
 73
     1
 44
1.0
  0
POINT
  5
204
330
1FB
100
AcDbEntity
  8
Defpoints
 62
     0
100
AcDbPoint
 10
50.09999999999997
 20
12.70000000000016
 30
0.0
  0
POINT
  5
205
330
1FB
100
AcDbEntity
  8
Defpoints
 62
     0
100
AcDbPoint
 10
-102.3
 20
10.16
 30
0.0
  0
POINT
  5
206
330
1FB
100
AcDbEntity
  8
Defpoints
 62
     0
100
AcDbPoint
 10
-102.3
 20
51.76715678422505
 30
0.0
  0
ENDBLK
  5
1FD
330
1FB
100
AcDbEntity
  8
0
100
AcDbBlockEnd
  0
BLOCK
  5
208
330
207
100
AcDbEntity
  8
0
100
AcDbBlockBegin
  2
*D14
 70
     1
 10
0.0
 20
0.0
 30
0.0
  3
*D14
  1
*D14
  0
LINE
  5
20A
330
207
100
AcDbEntity
  8
치수문자_일반주서
 62
     0
370
    -2
100
AcDbLine
 10
-99.82249999999996
 20
12.69999999999999
 30
0.0
 11
-115.9993658530532
 21
12.69999999999993
 31
0.0
  0
LINE
  5
20B
330
207
100
AcDbEntity
  8
치수문자_일반주서
 62
     0
370
    -2
100
AcDbLine
 10
-99.82249999999996
 20
-12.69999999999999
 30
0.0
 11
-115.9993658530532
 21
-12.70000000000005
 31
0.0
  0
LINE
  5
20C
330
207
100
AcDbEntity
  8
치수문자_일반주서
 62
     0
370
    -2
100
AcDbLine
 10
-115.9993658530532
 20
12.69999999999993
 30
0.0
 11
-115.9993658530534
 21
44.24149999999992
 31
0.0
  0
LINE
  5
20D
330
207
100
AcDbEntity
  8
치수문자_일반주서
 62
     0
370
    -2
100
AcDbLine
 10
-115.9993658530532
 20
9.397999999999929
 30
0.0
 11
-115.9993658530532
 21
-9.398000000000053
 31
0.0
  0
SOLID
  5
20E
330
207
100
AcDbEntity
  8
치수문자_일반주서
 62
     0
100
AcDbTrace
 10
-115.4490325197199
 20
9.39799999999993
 30
0.0
 11
-116.5496991863866
 21
9.397999999999927
 31
0.0
 12
-115.9993658530532
 22
12.69999999999993
 32
0.0
 13
-115.9993658530532
 23
12.69999999999993
 33
0.0
  0
SOLID
  5
20F
330
207
100
AcDbEntity
  8
치수문자_일반주서
 62
     0
100
AcDbTrace
 10
-116.5496991863865
 20
-9.398000000000055
 30
0.0
 11
-115.4490325197199
 21
-9.398000000000051
 31
0.0
 12
-115.9993658530532
 22
-12.70000000000005
 32
0.0
 13
-115.9993658530532
 23
-12.70000000000005
 33
0.0
  0
MTEXT
  5
210
330
207
100
AcDbEntity
  8
치수문자_일반주서
 62
     0
100
AcDbMText
 10
-120.3743658530533
 20
33.0852499999999
 30
0.0
 40
3.5
 41
0.0
 71
     2
 72
     1
  1
\A1;%%c25.40 [1]
  7
SLDTEXTSTYLE0
 11
-3.356894814614649E-15
 21
1.0
 31
0.0
 73
     1
 44
1.0
  0
POINT
  5
211
330
207
100
AcDbEntity
  8
Defpoints
 62
     0
100
AcDbPoint
 10
-99.75999999999996
 20
12.69999999999999
 30
0.0
  0
POINT
  5
212
330
207
100
AcDbEntity
  8
Defpoints
 62
     0
100
AcDbPoint
 10
-99.75999999999996
 20
-12.69999999999999
 30
0.0
  0
POINT
  5
213
330
207
100
AcDbEntity
  8
Defpoints
 62
     0
100
AcDbPoint
 10
-115.9993658530531
 20
-12.70000000000005
 30
0.0
  0
ENDBLK
  5
209
330
207
100
AcDbEntity
  8
0
100
AcDbBlockEnd
  0
BLOCK
  5
215
330
214
100
AcDbEntity
  8
0
100
AcDbBlockBegin
  2
*D15
 70
     1
 10
0.0
 20
0.0
 30
0.0
  3
*D15
  1
*D15
  0
LINE
  5
217
330
214
100
AcDbEntity
  8
치수문자_일반주서
 62
     0
370
    -2
100
AcDbLine
 10
50.16249999999997
 20
-12.69999999999987
 30
0.0
 11
68.02653638026416
 21
-12.6999999999998
 31
0.0
  0
LINE
  5
218
330
214
100
AcDbEntity
  8
치수문자_일반주서
 62
     0
370
    -2
100
AcDbLine
 10
50.16249999999997
 20
12.70000000000016
 30
0.0
 11
68.02653638026408
 21
12.70000000000023
 31
0.0
  0
LINE
  5
219
330
214
100
AcDbEntity
  8
치수문자_일반주서
 62
     0
370
    -2
100
AcDbLine
 10
68.02653638026408
 20
12.70000000000023
 30
0.0
 11
68.02653638026398
 21
42.23125000000022
 31
0.0
  0
LINE
  5
21A
330
214
100
AcDbEntity
  8
치수문자_일반주서
 62
     0
370
    -2
100
AcDbLine
 10
68.02653638026415
 20
-9.397999999999804
 30
0.0
 11
68.02653638026409
 21
9.398000000000227
 31
0.0
  0
SOLID
  5
21B
330
214
100
AcDbEntity
  8
치수문자_일반주서
 62
     0
100
AcDbTrace
 10
67.47620304693082
 20
-9.397999999999806
 30
0.0
 11
68.57686971359747
 21
-9.397999999999803
 31
0.0
 12
68.02653638026416
 22
-12.6999999999998
 32
0.0
 13
68.02653638026416
 23
-12.6999999999998
 33
0.0
  0
SOLID
  5
21C
330
214
100
AcDbEntity
  8
치수문자_일반주서
 62
     0
100
AcDbTrace
 10
68.57686971359742
 20
9.398000000000229
 30
0.0
 11
67.47620304693076
 21
9.398000000000225
 31
0.0
 12
68.02653638026408
 22
12.70000000000023
 32
0.0
 13
68.02653638026408
 23
12.70000000000023
 33
0.0
  0
MTEXT
  5
21D
330
214
100
AcDbEntity
  8
치수문자_일반주서
 62
     0
100
AcDbMText
 10
63.65153638026402
 20
31.0750000000002
 30
0.0
 40
3.5
 41
0.0
 71
     2
 72
     1
  1
\A1;%%c25.40 [1]
  7
SLDTEXTSTYLE0
 11
-3.356894814614643E-15
 21
1.0
 31
0.0
 73
     1
 44
1.0
  0
POINT
  5
21E
330
214
100
AcDbEntity
  8
Defpoints
 62
     0
100
AcDbPoint
 10
50.09999999999997
 20
-12.69999999999987
 30
0.0
  0
POINT
  5
21F
330
214
100
AcDbEntity
  8
Defpoints
 62
     0
100
AcDbPoint
 10
50.09999999999997
 20
12.70000000000016
 30
0.0
  0
POINT
  5
220
330
214
100
AcDbEntity
  8
Defpoints
 62
     0
100
AcDbPoint
 10
68.02653638026408
 20
12.70000000000023
 30
0.0
  0
ENDBLK
  5
216
330
214
100
AcDbEntity
  8
0
100
AcDbBlockEnd
  0
ENDSEC
  0
SECTION
  2
ENTITIES
  0
LINE
  5
B1
330
1F
100
AcDbEntity
  8
참조1
100
AcDbLine
 10
85.72500000000002
 20
0.0
 30
0.0
 11
85.72499999999997
 21
1.241814676156848
 31
0.0
  0
LINE
  5
B2
330
1F
100
AcDbEntity
  8
참조1
100
AcDbLine
 10
9.524999999999999
 20
-0.0000000000000039
 30
0.0
 11
9.524999999999999
 21
-40.00000000000001
 31
0.0
  0
LINE
  5
B3
330
1F
100
AcDbEntity
  8
참조1
100
AcDbLine
 10
9.524999999999999
 20
-40.00000000000001
 30
0.0
 11
-53.25885681430866
 21
-40.0
 31
0.0
  0
INSERT
  5
B5
330
1F
100
AcDbEntity
  8
0
  6
Continuous
 62
     7
100
AcDbBlockReference
 66
     1
  2
블럭10
 10
-40.33273229925981
 20
-51.21100762364829
 30
0.0
  0
ATTRIB
  5
B6
330
B5
100
AcDbEntity
  8
FORMAT
 62
     2
100
AcDbText
 10
-49.51402758800109
 20
-49.1356407108161
 30
0.0
 40
4.233333333333333
  1
E5062906 [ 4 FLUTE ]
 41
0.75
  7
SLDTEXTSTYLE0
 11
-49.51402758800109
 21
-51.25230737748277
 31
0.0
100
AcDbAttribute
  2
AUTOATTR0
 70
     0
 74
     1
  0
SEQEND
  5
B7
330
B5
100
AcDbEntity
  8
0
  6
Continuous
 62
     7
  0
HATCH
  5
B8
330
1F
100
AcDbEntity
  8
중심선
100
AcDbHatch
 10
0.0
 20
0.0
 30
0.0
210
0.0
220
0.0
230
1.0
  2
SOLID
 70
     1
 71
     0
 91
        1
 92
        0
 93
        4
 72
     1
 10
-34.61782299487896
 20
-34.96383332200435
 11
-38.06409823871623
 21
-34.96383332200435
 72
     1
 10
-38.06409823871623
 20
-34.96383332200435
 11
-40.19232809792026
 21
-37.50015890257695
 72
     1
 10
-40.19232809792026
 20
-37.50015890257695
 11
-36.7460197689698
 21
-37.50011947327446
 72
     1
 10
-36.7460197689698
 20
-37.50011947327446
 11
-34.61782299487896
 21
-34.96383332200435
 97
        0
 75
     0
 76
     1
 98
        1
 10
-74.01745936713459
 20
0.8361666779956423
  0
HATCH
  5
B9
330
1F
100
AcDbEntity
  8
중심선
100
AcDbHatch
 10
0.0
 20
0.0
 30
0.0
210
0.0
220
0.0
230
1.0
  2
SOLID
 70
     1
 71
     0
 91
        1
 92
        0
 93
        4
 72
     1
 10
-29.605059003843
 20
-34.96383332200435
 11
-33.05133424768029
 21
-34.96383332200433
 72
     1
 10
-33.05133424768029
 20
-34.96383332200433
 11
-37.58247225603768
 21
-40.36383332200437
 72
     1
 10
-37.58247225603768
 20
-40.36383332200437
 11
-34.13619701220039
 21
-40.36383332200437
 72
     1
 10
-34.13619701220039
 20
-40.36383332200437
 11
-29.605059003843
 21
-34.96383332200435
 97
        0
 75
     0
 76
     1
 98
        1
 10
-74.01745936713459
 20
0.8361666779956423
  0
HATCH
  5
BA
330
1F
100
AcDbEntity
  8
중심선
100
AcDbHatch
 10
0.0
 20
0.0
 30
0.0
210
0.0
220
0.0
230
1.0
  2
SOLID
 70
     1
 71
     0
 91
        1
 92
        0
 93
        4
 72
     1
 10
-24.59229501280699
 20
-34.96383332200433
 11
-28.03857025664428
 21
-34.96383332200435
 72
     1
 10
-28.03857025664428
 20
-34.96383332200435
 11
-35.08700715853347
 21
-43.36383332200437
 72
     1
 10
-35.08700715853347
 20
-43.36383332200437
 11
-31.64073191469622
 21
-43.36383332200437
 72
     1
 10
-31.64073191469622
 20
-43.36383332200437
 11
-24.59229501280699
 21
-34.96383332200433
 97
        0
 75
     0
 76
     1
 98
        1
 10
-74.01745936713459
 20
0.8361666779956423
  0
HATCH
  5
BB
330
1F
100
AcDbEntity
  8
중심선
100
AcDbHatch
 10
0.0
 20
0.0
 30
0.0
210
0.0
220
0.0
230
1.0
  2
SOLID
 70
     1
 71
     0
 91
        1
 92
        0
 93
        6
 72
     3
 10
-19.79240458179491
 20
-39.16383332205563
 11
3.960054785062283
 21
1.540882976769353E-10
 40
0.3939339440162628
 50
17.09539180608459
 51
320.0019657685078
 73
     0
 72
     1
 10
-18.10940492609429
 20
-37.75172732664263
 11
-15.8041030523933
 21
-35.81740061659474
 72
     3
 10
-19.79240458184776
 20
-39.16383332200451
 11
6.600054785286829
 21
-1.278976924368180E-13
 40
0.636358354079598
 50
39.99873849337429
 51
368.4976242363725
 73
     1
 72
     1
 10
-13.36707208994717
 20
-38.20383332193438
 11
-21.11233727501186
 21
-38.20383332193435
 72
     1
 10
-21.11233727501186
 20
-38.20383332193435
 11
-21.11236231945777
 21
-40.12383332193427
 72
     1
 10
-21.11236231945777
 20
-40.12383332193427
 11
-16.67098254998576
 21
-40.12383332193424
 97
        0
 75
     0
 76
     1
 98
        1
 10
-74.01745936713459
 20
0.8361666779956423
  0
LINE
  5
10C
330
1F
100
AcDbEntity
  8
참조1
100
AcDbLine
 10
44.7134838153456
 20
7.440000000000002
 30
0.0
 11
44.7134838153456
 21
-7.440000000000002
 31
0.0
  0
LINE
  5
10D
330
1F
100
AcDbEntity
  8
참조1
100
AcDbLine
 10
57.41348381534561
 20
5.440000000000002
 30
0.0
 11
44.7134838153456
 21
5.440000000000002
 31
0.0
  0
SOLID
  5
10E
330
1F
100
AcDbEntity
  8
참조1
100
AcDbTrace
 10
44.7134838153456
 20
5.440000000000002
 30
0.0
 11
51.0634838153456
 21
4.424000000000002
 31
0.0
 12
51.0634838153456
 22
6.456000000000002
 32
0.0
 13
51.0634838153456
 23
6.456000000000002
 33
0.0
  0
LINE
  5
10F
330
1F
100
AcDbEntity
  8
참조1
100
AcDbLine
 10
57.41348381534561
 20
-5.440000000000002
 30
0.0
 11
44.7134838153456
 21
-5.440000000000002
 31
0.0
  0
SOLID
  5
110
330
1F
100
AcDbEntity
  8
참조1
100
AcDbTrace
 10
44.7134838153456
 20
-5.440000000000002
 30
0.0
 11
51.0634838153456
 21
-6.456000000000002
 31
0.0
 12
51.0634838153456
 22
-4.424000000000002
 32
0.0
 13
51.0634838153456
 23
-4.424000000000002
 33
0.0
  0
MTEXT
  5
111
330
1F
100
AcDbEntity
  8
참조1
100
AcDbMText
 10
54.0978339479716
 20
11.01029177718833
 30
0.0
 40
3.5
 41
0.0
 71
     1
 72
     1
  1
A
  7
SLDTEXTSTYLE0
 73
     1
 44
1.0
  0
MTEXT
  5
112
330
1F
100
AcDbEntity
  8
참조1
100
AcDbMText
 10
54.0978339479716
 20
0.1302917771883261
 30
0.0
 40
3.5
 41
0.0
 71
     1
 72
     1
  1
A
  7
SLDTEXTSTYLE0
 73
     1
 44
1.0
  0
LINE
  5
1CA
330
1F
100
AcDbEntity
  8
0
  6
Continuous
 62
     1
370
    15
100
AcDbLine
 10
12.0
 20
-12.70000000000002
 30
0.0
 11
18.08251567576422
 21
-12.70000000000002
 31
0.0
  0
ARC
  5
1CC
330
1F
100
AcDbEntity
  8
0
  6
Continuous
 62
     1
370
    15
100
AcDbCircle
 10
37.39999999999997
 20
0.0
 30
0.0
 40
12.70000000000002
100
AcDbArc
 50
310.2639128374834
 51
0.0
  0
ARC
  5
1CD
330
1F
100
AcDbEntity
  8
0
  6
Continuous
 62
     1
370
    15
100
AcDbCircle
 10
37.39999999999997
 20
0.0
 30
0.0
 40
12.70000000000003
100
AcDbArc
 50
0.0
 51
49.74449560531699
  0
LINE
  5
1CE
330
1F
100
AcDbEntity
  8
0
  6
Continuous
 62
     1
370
    15
100
AcDbLine
 10
18.08251567576428
 20
12.69999999999999
 30
0.0
 11
12.0
 21
12.69999999999999
 31
0.0
  0
LINE
  5
1D0
330
1F
100
AcDbEntity
  8
외형선
  6
Continuous
370
    15
100
AcDbLine
 10
-99.75999999999999
 20
-12.69999999999999
 30
0.0
 11
12.00000000000002
 21
-12.69999999999999
 31
0.0
  0
LINE
  5
1D1
330
1F
100
AcDbEntity
  8
외형선
  6
Continuous
370
    15
100
AcDbLine
 10
12.00000000000001
 20
12.69999999999999
 30
0.0
 11
-99.75999999999999
 21
12.69999999999999
 31
0.0
  0
LINE
  5
1D2
330
1F
100
AcDbEntity
  8
외형선
  6
Continuous
370
    15
100
AcDbLine
 10
-99.75999999999999
 20
12.69999999999999
 30
0.0
 11
-102.3
 21
10.16
 31
0.0
  0
LINE
  5
1D3
330
1F
100
AcDbEntity
  8
외형선
  6
Continuous
370
    15
100
AcDbLine
 10
-102.3
 20
-10.16000000000003
 30
0.0
 11
-99.75999999999999
 21
-12.69999999999999
 31
0.0
  0
SPLINE
  5
1D7
330
1F
100
AcDbEntity
  8
0
  6
Continuous
 62
     1
370
    15
100
AcDbSpline
210
0.0
220
0.0
230
1.0
 70
     8
 71
     3
 72
    66
 73
    62
 74
     0
 42
0.000000001
 43
0.00000001
 40
0.0
 40
0.0
 40
0.0
 40
0.0
 40
0.062499999999999
 40
0.062499999999999
 40
0.0937499999999985
 40
0.0937499999999985
 40
0.124999999999998
 40
0.124999999999998
 40
0.1874999999999969
 40
0.1874999999999969
 40
0.2187499999999964
 40
0.2187499999999964
 40
0.2499999999999959
 40
0.2499999999999959
 40
0.3124999999999932
 40
0.3124999999999932
 40
0.3749999999999905
 40
0.3749999999999905
 40
0.4062499999999891
 40
0.4062499999999891
 40
0.4374999999999878
 40
0.4374999999999878
 40
0.4687499999999865
 40
0.4687499999999865
 40
0.484374999999986
 40
0.484374999999986
 40
0.4999999999999854
 40
0.4999999999999854
 40
0.5312499999999843
 40
0.5312499999999843
 40
0.5468749999999838
 40
0.5468749999999838
 40
0.5624999999999832
 40
0.5624999999999832
 40
0.5781249999999827
 40
0.5781249999999827
 40
0.593749999999982
 40
0.593749999999982
 40
0.6093749999999815
 40
0.6093749999999815
 40
0.6249999999999809
 40
0.6249999999999809
 40
0.6562499999999811
 40
0.6562499999999811
 40
0.671874999999982
 40
0.671874999999982
 40
0.6874999999999829
 40
0.6874999999999829
 40
0.7187499999999846
 40
0.7187499999999846
 40
0.7499999999999863
 40
0.7499999999999863
 40
0.781249999999988
 40
0.781249999999988
 40
0.8124999999999897
 40
0.8124999999999897
 40
0.8749999999999931
 40
0.8749999999999931
 40
0.9374999999999966
 40
0.9374999999999966
 40
1.0
 40
1.0
 40
1.0
 40
1.0
 10
37.39999999999997
 20
4.24271000793283
 30
0.0
 10
38.04519883770012
 20
3.891997287634327
 30
0.0
 10
38.6875529423118
 20
3.536160093694436
 30
0.0
 10
39.65338362166903
 20
3.006793414315325
 30
0.0
 10
39.97590113557651
 20
2.831420425428007
 30
0.0
 10
40.62284984567014
 20
2.484249520691804
 30
0.0
 10
40.94906656978781
 20
2.311484700902071
 30
0.0
 10
41.91568656197307
 20
1.807326264519816
 30
0.0
 10
42.54296069742053
 20
1.490631016272346
 30
0.0
 10
43.45755018524618
 20
1.040387019905751
 30
0.0
 10
43.75807793897899
 20
0.8946832187026814
 30
0.0
 10
44.34935431686386
 20
0.6099351877515176
 30
0.0
 10
44.64016946233317
 20
0.4708584555147581
 30
0.0
 10
45.47889241374968
 20
0.0670296897501714
 30
0.0
 10
45.99957265156137
 20
-0.1868552837927666
 30
0.0
 10
46.95360967685462
 20
-0.7013487005660863
 30
0.0
 10
47.38868792657046
 20
-0.9628543963726202
 30
0.0
 10
47.93998514354245
 20
-1.38676877052481
 30
0.0
 10
48.10779132342224
 20
-1.533948708910827
 30
0.0
 10
48.40836382855151
 20
-1.8490378637768
 30
0.0
 10
48.54166698059476
 20
-2.017692321396595
 30
0.0
 10
48.76564800046015
 20
-2.384161657116977
 30
0.0
 10
48.85527436163097
 20
-2.579872424663478
 30
0.0
 10
48.95278411855964
 20
-2.900405607077118
 30
0.0
 10
48.97910770850786
 20
-3.011766273940339
 30
0.0
 10
49.01836810512805
 20
-3.245338342002981
 30
0.0
 10
49.03123162100326
 20
-3.367817439414637
 30
0.0
 10
49.04760461166376
 20
-3.746329904352564
 30
0.0
 10
49.02969521592383
 20
-4.015552007407592
 30
0.0
 10
48.95435756143412
 20
-4.452303419175422
 30
0.0
 10
48.92099442584209
 20
-4.603183815444339
 30
0.0
 10
48.83949070423893
 20
-4.907512078302233
 30
0.0
 10
48.79119031043025
 20
-5.062053038173588
 30
0.0
 10
48.67940887783181
 20
-5.376121579477626
 30
0.0
 10
48.61593124783747
 20
-5.53564805665124
 30
0.0
 10
48.47310322367816
 20
-5.85996248512717
 30
0.0
 10
48.39409734446503
 20
-6.023698549584452
 30
0.0
 10
48.22536728409772
 20
-6.34581056213915
 30
0.0
 10
48.13511275375708
 20
-6.505420070903057
 30
0.0
 10
47.94303057768996
 20
-6.821688416359478
 30
0.0
 10
47.84053865822789
 20
-6.979276553381338
 30
0.0
 10
47.52045764144503
 20
-7.439988973174566
 30
0.0
 10
47.29215232218166
 20
-7.729302737215846
 30
0.0
 10
46.92785864674698
 20
-8.138549916749781
 30
0.0
 10
46.80285123180555
 20
-8.270586995950964
 30
0.0
 10
46.55065572928981
 20
-8.521340730691065
 30
0.0
 10
46.42280523632774
 20
-8.640830186482077
 30
0.0
 10
46.03373484521853
 20
-8.982875542148435
 30
0.0
 10
45.76703055328152
 20
-9.189091071096414
 30
0.0
 10
45.21687872994186
 20
-9.560868330182558
 30
0.0
 10
44.93924617829702
 20
-9.722435708476212
 30
0.0
 10
44.37867755559846
 20
-10.00200485069448
 30
0.0
 10
44.09531809244793
 20
-10.12023282612452
 30
0.0
 10
43.51988077918912
 20
-10.31712080015808
 30
0.0
 10
43.22615964120012
 20
-10.39595353866696
 30
0.0
 10
42.34455227955851
 20
-10.57292576089583
 30
0.0
 10
41.75363871276931
 20
-10.61464565389005
 30
0.0
 10
40.54608684732357
 20
-10.57137777795663
 30
0.0
 10
39.92488083383846
 20
-10.48437384217257
 30
0.0
 10
38.67625108754367
 20
-10.2033193649097
 30
0.0
 10
38.04513992394646
 20
-10.01098711430754
 30
0.0
 10
37.39999999999997
 20
-9.773401132652936
 30
0.0
  0
SPLINE
  5
1D8
330
1F
100
AcDbEntity
  8
0
  6
Continuous
 62
     1
370
    15
100
AcDbSpline
210
0.0
220
0.0
230
1.0
 70
     8
 71
     3
 72
    14
 73
    10
 74
     0
 42
0.000000001
 43
0.00000001
 40
0.0
 40
0.0
 40
0.0
 40
0.0
 40
0.0739406444838982
 40
0.1478784449903507
 40
0.221811421178759
 40
0.2957375984690249
 40
0.3696553148738697
 40
0.4422583077260853
 40
0.4715111664166607
 40
0.4715111664166607
 40
0.4715111664166607
 40
0.4715111664166607
 10
37.39999999999997
 20
-9.773401132652964
 30
0.0
 10
36.07224288197727
 20
-9.253014198249787
 30
0.0
 10
33.41677971542583
 20
-8.212260345075094
 30
0.0
 10
29.43372974735438
 20
-6.29702760809991
 30
0.0
 10
25.45099285740951
 20
-4.198913448498416
 30
0.0
 10
21.4686825072643
 20
-1.957491214952825
 30
0.0
 10
17.5103754229712
 20
0.332717746531273
 30
0.0
 10
14.35420812202524
 20
2.150110370331837
 30
0.0
 10
12.52526987121213
 20
3.17629503468601
 30
0.0
 10
11.99999999999999
 20
3.468047839428585
 30
0.0
  0
SPLINE
  5
1D9
330
1F
100
AcDbEntity
  8
0
  6
Continuous
 62
     1
370
    15
100
AcDbSpline
210
0.0
220
0.0
230
1.0
 70
     8
 71
     3
 72
    32
 73
    28
 74
     0
 42
0.000000001
 43
0.00000001
 40
0.6000000137354666
 40
0.6000000137354666
 40
0.6000000137354666
 40
0.6000000137354666
 40
0.6249999999999981
 40
0.6249999999999981
 40
0.6562499999999983
 40
0.6562499999999983
 40
0.6874999999999984
 40
0.6874999999999984
 40
0.7187499999999987
 40
0.7187499999999987
 40
0.7499999999999988
 40
0.7499999999999988
 40
0.7812499999999989
 40
0.7812499999999989
 40
0.8124999999999991
 40
0.8124999999999991
 40
0.8437499999999992
 40
0.8437499999999992
 40
0.8749999999999993
 40
0.8749999999999993
 40
0.9062499999999996
 40
0.9062499999999996
 40
0.9374999999999997
 40
0.9374999999999997
 40
0.9687499999999999
 40
0.9687499999999999
 40
1.0
 40
1.0
 40
1.0
 40
1.0
 10
12.00000000000004
 20
-0.9575920755346602
 30
0.0
 10
12.53006662230131
 20
-1.262409604932825
 30
0.0
 10
13.06025018968242
 20
-1.566417135000162
 30
0.0
 10
14.24877340382101
 20
-2.245946558052765
 30
0.0
 10
14.90921078619493
 20
-2.6209603153915
 30
0.0
 10
16.23434636024808
 20
-3.363660144099214
 30
0.0
 10
16.89714741555184
 20
-3.730980725977901
 30
0.0
 10
18.21563016307527
 20
-4.453226151646788
 30
0.0
 10
18.87854649031328
 20
-4.809469772613483
 30
0.0
 10
20.20366749273369
 20
-5.507797804975297
 30
0.0
 10
20.86397467935654
 20
-5.849560817873623
 30
0.0
 10
22.18468653528105
 20
-6.516349737856132
 30
0.0
 10
22.84804794946535
 20
-6.841855168201903
 30
0.0
 10
24.17270220523141
 20
-7.473067644382185
 30
0.0
 10
24.83152830638397
 20
-7.778413597430728
 30
0.0
 10
26.15402210039382
 20
-8.367956907552895
 30
0.0
 10
26.81760160597855
 20
-8.652104343114758
 30
0.0
 10
28.14133747082553
 20
-9.195665524672876
 30
0.0
 10
28.79969694943315
 20
-9.454877752835358
 30
0.0
 10
30.1235234910369
 20
-9.947899897776722
 30
0.0
 10
30.78709384309507
 20
-10.18142459091194
 30
0.0
 10
32.10946071643098
 20
-10.61968473222464
 30
0.0
 10
32.76836856483214
 20
-10.82447862489386
 30
0.0
 10
34.09307715043081
 20
-11.20485762096681
 30
0.0
 10
34.75641111450403
 20
-11.38015654182777
 30
0.0
 10
36.07695994983708
 20
-11.69893325415754
 30
0.0
 10
36.73743053821993
 20
-11.8427041199825
 30
0.0
 10
37.39999999999991
 20
-11.97035554144435
 30
0.0
  0
SPLINE
  5
1DA
330
1F
100
AcDbEntity
  8
0
  6
Continuous
 62
     1
370
    15
100
AcDbSpline
210
0.0
220
0.0
230
1.0
 70
     8
 71
     3
 72
    12
 73
     8
 74
     0
 42
0.000000001
 43
0.00000001
 40
0.0
 40
0.0
 40
0.0
 40
0.0
 40
0.2059073907255554
 40
0.4178481174086885
 40
0.6214039069269641
 40
0.8311913368005323
 40
1.0
 40
1.0
 40
1.0
 40
1.0
 10
37.39999999999997
 20
-11.97035554144435
 30
0.0
 10
37.98526216806697
 20
-12.0514653298745
 30
0.0
 10
39.17293539463548
 20
-12.21606152178165
 30
0.0
 10
40.95991536452924
 20
-12.02777219807689
 30
0.0
 10
42.71837376491748
 20
-11.50298740056789
 30
0.0
 10
44.29282599855804
 20
-10.72371625946204
 30
0.0
 10
45.1938664889547
 20
-9.999297833963738
 30
0.0
 10
45.59562298738506
 20
-9.676293692497751
 30
0.0
  0
SPLINE
  5
1DB
330
1F
100
AcDbEntity
  8
0
  6
Continuous
 62
     1
370
    15
100
AcDbSpline
210
0.0
220
0.0
230
1.0
 70
     8
 71
     3
 72
    13
 73
     9
 74
     0
 42
0.000000001
 43
0.00000001
 40
0.0
 40
0.0
 40
0.0
 40
0.0
 40
0.0352955306178078
 40
0.104479029768467
 40
0.1736561667842829
 40
0.2428253864445492
 40
0.3107643407959377
 40
0.3381379867533006
 40
0.3381379867533006
 40
0.3381379867533006
 40
0.3381379867533006
 10
31.46557904032039
 20
-10.37854102214533
 30
0.0
 10
30.78826881079294
 20
-10.60993404187536
 30
0.0
 10
28.78334879982736
 20
-11.2948853026561
 30
0.0
 10
25.45099423368742
 20
-12.04887770184058
 30
0.0
 10
21.46868213832624
 20
-12.62154384530368
 30
0.0
 10
17.51037551989099
 20
-12.76322483571016
 30
0.0
 10
14.35420812295347
 20
-12.55216100214901
 30
0.0
 10
12.525269868458
 20
-12.30016462749128
 30
0.0
 10
12.00000000000001
 20
-12.2173374494487
 30
0.0
  0
SPLINE
  5
1DD
330
1F
100
AcDbEntity
  8
0
  6
Continuous
 62
     1
370
    15
100
AcDbSpline
210
0.0
220
0.0
230
1.0
 70
     8
 71
     3
 72
    66
 73
    62
 74
     0
 42
0.000000001
 43
0.00000001
 40
0.0
 40
0.0
 40
0.0
 40
0.0
 40
0.0624999999999991
 40
0.0624999999999991
 40
0.0937499999999986
 40
0.0937499999999986
 40
0.1249999999999982
 40
0.1249999999999982
 40
0.1874999999999993
 40
0.1874999999999993
 40
0.2187499999999999
 40
0.2187499999999999
 40
0.2500000000000006
 40
0.2500000000000006
 40
0.3124999999999999
 40
0.3124999999999999
 40
0.3749999999999992
 40
0.3749999999999992
 40
0.4062499999999988
 40
0.4062499999999988
 40
0.4374999999999985
 40
0.4374999999999985
 40
0.4687499999999982
 40
0.4687499999999982
 40
0.4843749999999982
 40
0.4843749999999982
 40
0.4999999999999982
 40
0.4999999999999982
 40
0.5312499999999983
 40
0.5312499999999983
 40
0.5468749999999983
 40
0.5468749999999983
 40
0.5624999999999983
 40
0.5624999999999983
 40
0.5781249999999983
 40
0.5781249999999983
 40
0.5937499999999983
 40
0.5937499999999983
 40
0.6093749999999984
 40
0.6093749999999984
 40
0.6249999999999986
 40
0.6249999999999986
 40
0.6562499999999973
 40
0.6562499999999973
 40
0.6718749999999974
 40
0.6718749999999974
 40
0.6874999999999976
 40
0.6874999999999976
 40
0.7187499999999979
 40
0.7187499999999979
 40
0.7499999999999981
 40
0.7499999999999981
 40
0.7812499999999984
 40
0.7812499999999984
 40
0.8124999999999987
 40
0.8124999999999987
 40
0.8749999999999991
 40
0.8749999999999991
 40
0.9374999999999996
 40
0.9374999999999996
 40
1.0
 40
1.0
 40
1.0
 40
1.0
 10
37.39999999999997
 20
11.97035554144432
 30
0.0
 10
38.04519883770006
 20
12.09466031778686
 30
0.0
 10
38.68755294231175
 20
12.15183171940384
 30
0.0
 10
39.65338362166914
 20
12.13697921017723
 30
0.0
 10
39.97590113557651
 20
12.115036790624
 30
0.0
 10
40.62284984567014
 20
12.03611515046174
 30
0.0
 10
40.94906656978781
 20
11.97868012786239
 30
0.0
 10
41.91568656197307
 20
11.75510940941564
 30
0.0
 10
42.54296069742059
 20
11.53941573895565
 30
0.0
 10
43.45755018524618
 20
11.11974441665012
 30
0.0
 10
43.75807793897894
 20
10.96365664273654
 30
0.0
 10
44.3493543168638
 20
10.61893750641789
 30
0.0
 10
44.64016946233323
 20
10.43000299740899
 30
0.0
 10
45.47889241374963
 20
9.826693269117756
 30
0.0
 10
45.99957265156137
 20
9.372676638787683
 30
0.0
 10
46.95360967685462
 20
8.370859227365175
 30
0.0
 10
47.38868792657052
 20
7.818784981875071
 30
0.0
 10
47.93998514354245
 20
6.957850168691325
 30
0.0
 10
48.1077913234223
 20
6.66457210920416
 30
0.0
 10
48.40836382855145
 20
6.068220485683382
 30
0.0
 10
48.54166698059476
 20
5.763779837319847
 30
0.0
 10
48.7656480004601
 20
5.154299384568391
 30
0.0
 10
48.85527436163097
 20
4.852633045720326
 30
0.0
 10
48.95278411855958
 20
4.4096600096199
 30
0.0
 10
48.9791077085078
 20
4.263599057069486
 30
0.0
 10
49.018368105128
 20
3.975682325486249
 30
0.0
 10
49.03123162100326
 20
3.833642382388947
 30
0.0
 10
49.04760461166376
 20
3.424404770016055
 30
0.0
 10
49.02969521592383
 20
3.170970173871126
 30
0.0
 10
48.95435756143406
 20
2.828196554678357
 30
0.0
 10
48.92099442584203
 20
2.720607840302904
 30
0.0
 10
48.83949070423888
 20
2.525608530378292
 30
0.0
 10
48.7911903104303
 20
2.437295291391649
 30
0.0
 10
48.67940887783181
 20
2.279530240318593
 30
0.0
 10
48.61593124783747
 20
2.210074221904193
 30
0.0
 10
48.47310322367822
 20
2.090972477178582
 30
0.0
 10
48.39409734446503
 20
2.041901632262295
 30
0.0
 10
48.22536728409772
 20
1.96636578120777
 30
0.0
 10
48.13511275375708
 20
1.939425232596705
 30
0.0
 10
47.94303057769002
 20
1.906195099044169
 30
0.0
 10
47.84053865822795
 20
1.899956049614616
 30
0.0
 10
47.52045764144491
 20
1.911237269086485
 30
0.0
 10
47.29215232218166
 20
1.95775651216195
 30
0.0
 10
46.92785864674709
 20
2.075769036430188
 30
0.0
 10
46.80285123180561
 20
2.123274237413
 30
0.0
 10
46.55065572928986
 20
2.230866627076267
 30
0.0
 10
46.42280523632774
 20
2.291111587378765
 30
0.0
 10
46.03373484521853
 20
2.488610338584095
 30
0.0
 10
45.76703055328158
 20
2.642556771848717
 30
0.0
 10
45.21687872994197
 20
2.985951268723085
 30
0.0
 10
44.93924617829708
 20
3.171762407823024
 30
0.0
 10
44.37867755559846
 20
3.561463793971599
 30
0.0
 10
44.09531809244793
 20
3.765693831442123
 30
0.0
 10
43.51988077918912
 20
4.186994684692936
 30
0.0
 10
43.22615964120023
 20
4.405391944816673
 30
0.0
 10
42.34455227955856
 20
5.060089023982586
 30
0.0
 10
41.75363871276925
 20
5.4961499655455
 30
0.0
 10
40.54608684732357
 20
6.33882057385742
 30
0.0
 10
39.92488083383852
 20
6.74832781319134
 30
0.0
 10
38.67625108754373
 20
7.49002693326341
 30
0.0
 10
38.04513992394651
 20
7.823590147988769
 30
0.0
 10
37.39999999999997
 20
8.109909389152138
 30
0.0
  0
SPLINE
  5
1DF
330
1F
100
AcDbEntity
  8
0
  6
Continuous
 62
     1
370
    15
100
AcDbSpline
210
0.0
220
0.0
230
1.0
 70
     8
 71
     3
 72
     9
 73
     5
 74
     0
 42
0.000000001
 43
0.00000001
 40
0.0
 40
0.0
 40
0.0
 40
0.0
 40
0.4115233277038514
 40
1.0
 40
1.0
 40
1.0
 40
1.0
 10
31.46557904032039
 20
10.3785410221453
 30
0.0
 10
32.27962991708738
 20
10.64881868840081
 30
0.0
 10
34.25777021185274
 20
11.305592309871
 30
0.0
 10
36.23591055407456
 20
11.7240833353718
 30
0.0
 10
37.39999999999997
 20
11.97035554144435
 30
0.0
  0
SPLINE
  5
1E0
330
1F
100
AcDbEntity
  8
0
  6
Continuous
 62
     1
370
    15
100
AcDbSpline
210
0.0
220
0.0
230
1.0
 70
     8
 71
     3
 72
    12
 73
     8
 74
     0
 42
0.000000001
 43
0.00000001
 40
0.0
 40
0.0
 40
0.0
 40
0.0
 40
0.2061949223426352
 40
0.4123819138143335
 40
0.6185554519290632
 40
0.8247100302648475
 40
1.0
 40
1.0
 40
1.0
 40
1.0
 10
37.39999999999997
 20
8.109909389152138
 30
0.0
 10
36.07224289006029
 20
8.673969403043374
 30
0.0
 10
33.41677973967449
 20
9.802067735397374
 30
0.0
 10
29.43372965036672
 20
11.10549433804911
 30
0.0
 10
25.45099322107335
 20
12.05366379506057
 30
0.0
 10
21.66726912874048
 20
12.61515521233986
 30
0.0
 10
19.21118886591673
 20
12.65517336388959
 30
0.0
 10
18.08251567576428
 20
12.67356340409196
 30
0.0
  0
LINE
  5
1E2
330
1F
100
AcDbEntity
  8
외형선
  6
Continuous
370
    15
100
AcDbLine
 10
-99.75999999999999
 20
0.0
 30
0.0
 11
-99.75999999999999
 21
12.69999999999999
 31
0.0
  0
LINE
  5
1E3
330
1F
100
AcDbEntity
  8
외형선
  6
Continuous
370
    15
100
AcDbLine
 10
-99.75999999999999
 20
-12.69999999999999
 30
0.0
 11
-99.75999999999999
 21
0.0
 31
0.0
  0
LINE
  5
1E6
330
1F
100
AcDbEntity
  8
외형선
  6
Continuous
370
    15
100
AcDbLine
 10
-102.3
 20
0.0
 30
0.0
 11
-102.3
 21
10.16
 31
0.0
  0
LINE
  5
1E7
330
1F
100
AcDbEntity
  8
외형선
  6
Continuous
370
    15
100
AcDbLine
 10
-102.3
 20
-10.16000000000003
 30
0.0
 11
-102.3
 21
0.0
 31
0.0
  0
LINE
  5
1E8
330
1F
100
AcDbEntity
  8
중심선
 62
     1
100
AcDbLine
 10
-105.3
 20
0.0
 30
0.0
 11
53.09999999999997
 21
0.0
 31
0.0
  0
CIRCLE
  5
1E9
330
1F
100
AcDbEntity
  8
해칭선
100
AcDbCircle
 10
0.0
 20
0.0
 30
0.0
 40
2.999999999999997
  0
DIMENSION
  5
1EA
330
1F
100
AcDbEntity
  8
치수문자_일반주서
100
AcDbDimension
  2
*D12
 10
11.99999999999996
 20
34.52260418725479
 30
0.0
 11
-5.520750000000042
 21
34.52260418725479
 31
0.0
 70
   160
  1
<>
 71
     2
 42
38.10000000000002
  3
SLDDIMSTYLE0
100
AcDbAlignedDimension
 13
50.09999999999997
 23
12.70000000000016
 33
0.0
 14
11.99999999999996
 24
12.66370675021651
 34
0.0
 50
0.0000000000025645
100
AcDbRotatedDimension
1001
ACAD
1000
DSTYLE
1002
{
1070
   171
1070
     6
1070
   273
1070
     5
1002
}
  0
DIMENSION
  5
1EB
330
1F
100
AcDbEntity
  8
치수문자_일반주서
100
AcDbDimension
  2
*D13
 10
-102.3
 20
51.76715678422505
 30
0.0
 11
-27.90567961578051
 21
51.76715678422505
 31
0.0
 70
   160
  1
<>
 71
     2
 42
152.4000000000001
  3
SLDDIMSTYLE0
100
AcDbAlignedDimension
 13
50.09999999999997
 23
12.70000000000016
 33
0.0
 14
-102.3
 24
10.16
 34
0.0
 50
0.0000000000025645
100
AcDbRotatedDimension
1001
ACAD
1000
DSTYLE
1002
{
1070
   171
1070
     6
1070
   273
1070
     5
1002
}
  0
DIMENSION
  5
1EC
330
1F
100
AcDbEntity
  8
치수문자_일반주서
100
AcDbDimension
  2
*D14
 10
-115.9993658530532
 20
-12.70000000000005
 30
0.0
 11
-115.9993658530533
 21
33.08524999999992
 31
0.0
 70
   160
  1
%%c<>
 71
     2
 42
25.39999999999998
 52
-270.0
  3
SLDDIMSTYLE0
100
AcDbAlignedDimension
 13
-99.75999999999996
 23
12.69999999999999
 33
0.0
 14
-99.75999999999996
 24
-12.69999999999999
 34
0.0
 50
90.0000000000002
100
AcDbRotatedDimension
1001
ACAD
1000
DSTYLE
1002
{
1070
   171
1070
     6
1070
   273
1070
     5
1002
}
  0
DIMENSION
  5
1ED
330
1F
100
AcDbEntity
  8
치수문자_일반주서
100
AcDbDimension
  2
*D15
 10
68.02653638026408
 20
12.70000000000023
 30
0.0
 11
68.02653638026402
 21
31.07500000000022
 31
0.0
 70
   160
  1
%%c<>
 71
     2
 42
25.40000000000003
 52
-270.0
  3
SLDDIMSTYLE0
100
AcDbAlignedDimension
 13
50.09999999999997
 23
-12.69999999999987
 33
0.0
 14
50.09999999999997
 24
12.70000000000016
 34
0.0
 50
90.0000000000002
100
AcDbRotatedDimension
1001
ACAD
1000
DSTYLE
1002
{
1070
   171
1070
     6
1070
   273
1070
     5
1002
}
  0
INSERT
  5
1EE
330
1F
100
AcDbEntity
  8
해칭선
100
AcDbBlockReference
  2
SW_DOWELSYMBOL_0
 10
0.0
 20
0.0
 30
0.0
  0
LINE
  5
222
330
1F
100
AcDbEntity
  8
외형선
  6
Continuous
370
    15
100
AcDbLine
 10
12.0
 20
12.7
 30
0.0
 11
12.0
 21
-12.7
 31
0.0
  0
SPLINE
  5
225
330
1F
100
AcDbEntity
  8
0
  6
Continuous
 62
     1
370
    15
100
AcDbSpline
210
0.0
220
0.0
230
1.0
 70
     8
 71
     3
 72
    15
 73
    11
 74
     0
 42
0.000000001
 43
0.00000001
 40
0.3724051559015399
 40
0.3724051559015399
 40
0.3724051559015399
 40
0.3724051559015399
 40
0.3959721977354647
 40
0.4822637985126329
 40
0.5685544387272532
 40
0.6548443116342648
 40
0.7411336106473146
 40
0.8274225292987831
 40
0.9137112611997646
 40
1.0
 40
1.0
 40
1.0
 40
1.0
 10
11.99999999999996
 20
12.66370675021651
 30
0.0
 10
12.31793317274288
 20
12.64993691246597
 30
0.0
 10
13.79998808220204
 20
12.56728430787489
 30
0.0
 10
16.44620023157898
 20
12.26526204788854
 30
0.0
 10
19.93855708727232
 20
11.55860853734117
 30
0.0
 10
23.43088448888914
 20
10.56093718941133
 30
0.0
 10
26.92318191943831
 20
9.298193696749651
 30
0.0
 10
30.41546146933199
 20
7.799498958833768
 30
0.0
 10
33.90773168369036
 20
6.112277494290366
 30
0.0
 10
36.23591053020504
 20
4.865899186661126
 30
0.0
 10
37.39999999999997
 20
4.24271000793283
 30
0.0
  0
ENDSEC
  0
SECTION
  2
OBJECTS
  0
DICTIONARY
  5
C
330
0
100
AcDbDictionary
281
     1
  3
ACAD_GROUP
350
D
  3
ACAD_IMAGE_VARS
350
13D
  3
ACAD_LAYOUT
350
1A
  3
ACAD_MLINESTYLE
350
17
  3
ACAD_PLOTSETTINGS
350
19
  3
ACAD_PLOTSTYLENAME
350
E
  3
ACAD_SCALELIST
350
47
  3
APPDATA
350
13B
  3
DWGPROPS
350
228
  0
DICTIONARY
  5
1C5
330
2
100
AcDbDictionary
280
     1
281
     1
  3
ACAD_LAYERSTATES
360
1C6
  0
DICTIONARY
  5
D
102
{ACAD_REACTORS
330
C
102
}
330
C
100
AcDbDictionary
281
     1
  0
RASTERVARIABLES
  5
13D
102
{ACAD_REACTORS
330
C
102
}
330
C
100
AcDbRasterVariables
 90
        0
 70
     1
 71
     1
 72
     1
  0
DICTIONARY
  5
1A
102
{ACAD_REACTORS
330
C
102
}
330
C
100
AcDbDictionary
281
     1
  3
Layout1
350
1E
  3
Layout2
350
26
  3
Model
350
22
  0
DICTIONARY
  5
17
102
{ACAD_REACTORS
330
C
102
}
330
C
100
AcDbDictionary
281
     1
  3
Standard
350
18
  0
DICTIONARY
  5
19
102
{ACAD_REACTORS
330
C
102
}
330
C
100
AcDbDictionary
281
     1
  0
ACDBDICTIONARYWDFLT
  5
E
102
{ACAD_REACTORS
330
C
102
}
330
C
100
AcDbDictionary
281
     1
  3
Normal
350
F
100
AcDbDictionaryWithDefault
340
F
  0
DICTIONARY
  5
47
102
{ACAD_REACTORS
330
C
102
}
330
C
100
AcDbDictionary
281
     1
  3
A0
350
48
  3
A1
350
49
  3
A2
350
4A
  3
A3
350
4B
  3
A4
350
4C
  3
A5
350
4D
  3
A6
350
4E
  3
A7
350
4F
  3
A8
350
50
  3
A9
350
51
  3
B0
350
52
  3
B1
350
53
  3
B2
350
54
  3
B3
350
55
  3
B4
350
56
  3
B5
350
57
  3
B6
350
58
  3
B7
350
59
  3
B8
350
5A
  3
B9
350
5B
  3
C0
350
5C
  3
C1
350
5D
  3
C2
350
5E
  3
C3
350
5F
  3
C4
350
60
  3
C5
350
61
  3
C6
350
62
  3
C7
350
63
  3
C8
350
64
  3
C9
350
65
  3
D0
350
66
  3
D1
350
67
  3
D2
350
68
  0
DICTIONARY
  5
13B
102
{ACAD_REACTORS
330
C
102
}
330
C
100
AcDbDictionary
281
     1
  0
XRECORD
  5
228
102
{ACAD_REACTORS
330
C
102
}
330
C
100
AcDbXrecord
280
     1
  1
DWGPROPS COOKIE
  2

  3

  4

  6

  7

  8
12016016
  9

300
=
301
=
302
=
303
=
304
=
305
=
306
=
307
=
308
=
309
=
 40
0.0
 41
2458316.346090984
 42
2458330.00760434
  1

 90
        0
  0
DICTIONARY
  5
1C6
102
{ACAD_REACTORS
330
1C5
102
}
330
1C5
100
AcDbDictionary
281
     1
  0
LAYOUT
  5
1E
102
{ACAD_REACTORS
330
1A
102
}
330
1A
100
AcDbPlotSettings
  1

  2
none_device
  4

  6

 40
0.0
 41
0.0
 42
0.0
 43
0.0
 44
0.0
 45
0.0
 46
0.0
 47
0.0
 48
0.0
 49
0.0
140
0.0
141
0.0
142
1.0
143
1.0
 70
   688
 72
     1
 73
     0
 74
     5
  7

 75
    16
147
1.0
148
0.0
149
0.0
100
AcDbLayout
  1
Layout1
 70
     1
 71
     1
 10
0.0
 20
0.0
 11
420.0
 21
297.0
 12
0.0
 22
0.0
 32
0.0
 14
1.000000000000000E+20
 24
1.000000000000000E+20
 34
1.000000000000000E+20
 15
-1.000000000000000E+20
 25
-1.000000000000000E+20
 35
-1.000000000000000E+20
146
0.0
 13
0.0
 23
0.0
 33
0.0
 16
1.0
 26
0.0
 36
0.0
 17
0.0
 27
1.0
 37
0.0
 76
     0
330
1B
  0
LAYOUT
  5
26
102
{ACAD_REACTORS
330
1A
102
}
330
1A
100
AcDbPlotSettings
  1

  2
none_device
  4

  6

 40
0.0
 41
0.0
 42
0.0
 43
0.0
 44
0.0
 45
0.0
 46
0.0
 47
0.0
 48
0.0
 49
0.0
140
0.0
141
0.0
142
1.0
143
1.0
 70
   688
 72
     1
 73
     0
 74
     5
  7

 75
    16
147
1.0
148
0.0
149
0.0
100
AcDbLayout
  1
Layout2
 70
     1
 71
     2
 10
0.0
 20
0.0
 11
0.0
 21
0.0
 12
0.0
 22
0.0
 32
0.0
 14
0.0
 24
0.0
 34
0.0
 15
0.0
 25
0.0
 35
0.0
146
0.0
 13
0.0
 23
0.0
 33
0.0
 16
1.0
 26
0.0
 36
0.0
 17
0.0
 27
1.0
 37
0.0
 76
     0
330
23
  0
LAYOUT
  5
22
102
{ACAD_REACTORS
330
1A
102
}
330
1A
100
AcDbPlotSettings
  1

  2
none_device
  4
ANSI_A_(11.00_x_8.50_Inches)
  6

 40
6.35
 41
19.05
 42
6.35000508
 43
19.05000254
 44
279.4
 45
215.9
 46
67.58151898066312
 47
109.9500938889664
 48
0.0
 49
0.0
140
0.0
141
0.0
142
0.0633495775781735
143
1.0
 70
  1696
 72
     0
 73
     0
 74
     0
  7

 75
     0
147
0.0235690232323232
148
0.0
149
0.0
100
AcDbLayout
  1
Model
 70
     1
 71
     0
 10
0.0
 20
0.0
 11
420.0
 21
297.0
 12
0.0
 22
0.0
 32
0.0
 14
1.000000000000000E+20
 24
1.000000000000000E+20
 34
1.000000000000000E+20
 15
-1.000000000000000E+20
 25
-1.000000000000000E+20
 35
-1.000000000000000E+20
146
0.0
 13
0.0
 23
0.0
 33
0.0
 16
1.0
 26
0.0
 36
0.0
 17
0.0
 27
1.0
 37
0.0
 76
     0
330
1F
331
29
  0
MLINESTYLE
  5
18
102
{ACAD_REACTORS
330
17
102
}
330
17
100
AcDbMlineStyle
  2
Standard
 70
     0
  3

 62
   256
 51
90.0
 52
90.0
 71
     2
 49
0.5
 62
   256
  6
BYLAYER
 49
-0.5
 62
   256
  6
BYLAYER
  0
ACDBPLACEHOLDER
  5
F
102
{ACAD_REACTORS
330
E
102
}
330
E
  0
SCALE
  5
48
102
{ACAD_REACTORS
330
47
102
}
330
47
100
AcDbScale
 70
     0
300
1:1
140
1.0
141
1.0
290
     1
  0
SCALE
  5
49
102
{ACAD_REACTORS
330
47
102
}
330
47
100
AcDbScale
 70
     0
300
1:2
140
1.0
141
2.0
290
     0
  0
SCALE
  5
4A
102
{ACAD_REACTORS
330
47
102
}
330
47
100
AcDbScale
 70
     0
300
1:4
140
1.0
141
4.0
290
     0
  0
SCALE
  5
4B
102
{ACAD_REACTORS
330
47
102
}
330
47
100
AcDbScale
 70
     0
300
1:5
140
1.0
141
5.0
290
     0
  0
SCALE
  5
4C
102
{ACAD_REACTORS
330
47
102
}
330
47
100
AcDbScale
 70
     0
300
1:8
140
1.0
141
8.0
290
     0
  0
SCALE
  5
4D
102
{ACAD_REACTORS
330
47
102
}
330
47
100
AcDbScale
 70
     0
300
1:10
140
1.0
141
10.0
290
     0
  0
SCALE
  5
4E
102
{ACAD_REACTORS
330
47
102
}
330
47
100
AcDbScale
 70
     0
300
1:16
140
1.0
141
16.0
290
     0
  0
SCALE
  5
4F
102
{ACAD_REACTORS
330
47
102
}
330
47
100
AcDbScale
 70
     0
300
1:20
140
1.0
141
20.0
290
     0
  0
SCALE
  5
50
102
{ACAD_REACTORS
330
47
102
}
330
47
100
AcDbScale
 70
     0
300
1:30
140
1.0
141
30.0
290
     0
  0
SCALE
  5
51
102
{ACAD_REACTORS
330
47
102
}
330
47
100
AcDbScale
 70
     0
300
1:40
140
1.0
141
40.0
290
     0
  0
SCALE
  5
52
102
{ACAD_REACTORS
330
47
102
}
330
47
100
AcDbScale
 70
     0
300
1:50
140
1.0
141
50.0
290
     0
  0
SCALE
  5
53
102
{ACAD_REACTORS
330
47
102
}
330
47
100
AcDbScale
 70
     0
300
1:100
140
1.0
141
100.0
290
     0
  0
SCALE
  5
54
102
{ACAD_REACTORS
330
47
102
}
330
47
100
AcDbScale
 70
     0
300
2:1
140
2.0
141
1.0
290
     0
  0
SCALE
  5
55
102
{ACAD_REACTORS
330
47
102
}
330
47
100
AcDbScale
 70
     0
300
4:1
140
4.0
141
1.0
290
     0
  0
SCALE
  5
56
102
{ACAD_REACTORS
330
47
102
}
330
47
100
AcDbScale
 70
     0
300
8:1
140
8.0
141
1.0
290
     0
  0
SCALE
  5
57
102
{ACAD_REACTORS
330
47
102
}
330
47
100
AcDbScale
 70
     0
300
10:1
140
10.0
141
1.0
290
     0
  0
SCALE
  5
58
102
{ACAD_REACTORS
330
47
102
}
330
47
100
AcDbScale
 70
     0
300
100:1
140
100.0
141
1.0
290
     0
  0
SCALE
  5
59
102
{ACAD_REACTORS
330
47
102
}
330
47
100
AcDbScale
 70
     0
300
1/128" = 1'-0"
140
0.0078125
141
12.0
290
     0
  0
SCALE
  5
5A
102
{ACAD_REACTORS
330
47
102
}
330
47
100
AcDbScale
 70
     0
300
1/64" = 1'-0"
140
0.015625
141
12.0
290
     0
  0
SCALE
  5
5B
102
{ACAD_REACTORS
330
47
102
}
330
47
100
AcDbScale
 70
     0
300
1/32" = 1'-0"
140
0.03125
141
12.0
290
     0
  0
SCALE
  5
5C
102
{ACAD_REACTORS
330
47
102
}
330
47
100
AcDbScale
 70
     0
300
1/16" = 1'-0"
140
0.0625
141
12.0
290
     0
  0
SCALE
  5
5D
102
{ACAD_REACTORS
330
47
102
}
330
47
100
AcDbScale
 70
     0
300
3/32" = 1'-0"
140
0.09375
141
12.0
290
     0
  0
SCALE
  5
5E
102
{ACAD_REACTORS
330
47
102
}
330
47
100
AcDbScale
 70
     0
300
1/8" = 1'-0"
140
0.125
141
12.0
290
     0
  0
SCALE
  5
5F
102
{ACAD_REACTORS
330
47
102
}
330
47
100
AcDbScale
 70
     0
300
3/16" = 1'-0"
140
0.1875
141
12.0
290
     0
  0
SCALE
  5
60
102
{ACAD_REACTORS
330
47
102
}
330
47
100
AcDbScale
 70
     0
300
1/4" = 1'-0"
140
0.25
141
12.0
290
     0
  0
SCALE
  5
61
102
{ACAD_REACTORS
330
47
102
}
330
47
100
AcDbScale
 70
     0
300
3/8" = 1'-0"
140
0.375
141
12.0
290
     0
  0
SCALE
  5
62
102
{ACAD_REACTORS
330
47
102
}
330
47
100
AcDbScale
 70
     0
300
1/2" = 1'-0"
140
0.5
141
12.0
290
     0
  0
SCALE
  5
63
102
{ACAD_REACTORS
330
47
102
}
330
47
100
AcDbScale
 70
     0
300
3/4" = 1'-0"
140
0.75
141
12.0
290
     0
  0
SCALE
  5
64
102
{ACAD_REACTORS
330
47
102
}
330
47
100
AcDbScale
 70
     0
300
1" = 1'-0"
140
1.0
141
12.0
290
     0
  0
SCALE
  5
65
102
{ACAD_REACTORS
330
47
102
}
330
47
100
AcDbScale
 70
     0
300
1-1/2" = 1'-0"
140
1.5
141
12.0
290
     0
  0
SCALE
  5
66
102
{ACAD_REACTORS
330
47
102
}
330
47
100
AcDbScale
 70
     0
300
3" = 1'-0"
140
3.0
141
12.0
290
     0
  0
SCALE
  5
67
102
{ACAD_REACTORS
330
47
102
}
330
47
100
AcDbScale
 70
     0
300
6" = 1'-0"
140
6.0
141
12.0
290
     0
  0
SCALE
  5
68
102
{ACAD_REACTORS
330
47
102
}
330
47
100
AcDbScale
 70
     0
300
1'-0" = 1'-0"
140
12.0
141
12.0
290
     0
  0
ENDSEC
  0
EOF
