  0
SECTION
  2
HEADER
  9
$ACADVER
  1
AC1015
  9
$ACADMAINTVER
 70
     6
  9
$DWGCODEPAGE
  3
ANSI_949
  9
$INSBASE
 10
0.0
 20
0.0
 30
0.0
  9
$EXTMIN
 10
1.000000000000000E+20
 20
1.000000000000000E+20
 30
1.000000000000000E+20
  9
$EXTMAX
 10
-1.000000000000000E+20
 20
-1.000000000000000E+20
 30
-1.000000000000000E+20
  9
$LIMMIN
 10
0.0
 20
0.0
  9
$LIMMAX
 10
420.0
 20
297.0
  9
$ORTHOMODE
 70
     1
  9
$REGENMODE
 70
     1
  9
$FILLMODE
 70
     1
  9
$QTEXTMODE
 70
     0
  9
$MIRRTEXT
 70
     1
  9
$LTSCALE
 40
1.0
  9
$ATTMODE
 70
     1
  9
$TEXTSIZE
 40
3.5
  9
$TRACEWID
 40
1.0
  9
$TEXTSTYLE
  7
Standard
  9
$CLAYER
  8
0
  9
$CELTYPE
  6
ByLayer
  9
$CECOLOR
 62
   256
  9
$CELTSCALE
 40
1.0
  9
$DISPSILH
 70
     0
  9
$DIMSCALE
 40
1.0
  9
$DIMASZ
 40
3.302
  9
$DIMEXO
 40
1.0
  9
$DIMDLI
 40
3.75
  9
$DIMRND
 40
0.0
  9
$DIMDLE
 40
0.0
  9
$DIMEXE
 40
1.0
  9
$DIMTP
 40
0.0
  9
$DIMTM
 40
0.0
  9
$DIMTXT
 40
3.5
  9
$DIMCEN
 40
2.5
  9
$DIMTSZ
 40
0.0
  9
$DIMTOL
 70
     0
  9
$DIMLIM
 70
     0
  9
$DIMTIH
 70
     1
  9
$DIMTOH
 70
     1
  9
$DIMSE1
 70
     0
  9
$DIMSE2
 70
     0
  9
$DIMTAD
 70
     1
  9
$DIMZIN
 70
     0
  9
$DIMBLK
  1

  9
$DIMASO
 70
     1
  9
$DIMSHO
 70
     1
  9
$DIMPOST
  1

  9
$DIMAPOST
  1

  9
$DIMALT
 70
     0
  9
$DIMALTD
 70
     3
  9
$DIMALTF
 40
0.0393700787401575
  9
$DIMLFAC
 40
1.0
  9
$DIMTOFL
 70
     1
  9
$DIMTVP
 40
0.0
  9
$DIMTIX
 70
     0
  9
$DIMSOXD
 70
     0
  9
$DIMSAH
 70
     0
  9
$DIMBLK1
  1

  9
$DIMBLK2
  1

  9
$DIMSTYLE
  2
ISO-25
  9
$DIMCLRD
 70
     0
  9
$DIMCLRE
 70
     0
  9
$DIMCLRT
 70
     0
  9
$DIMTFAC
 40
1.0
  9
$DIMGAP
 40
1.524
  9
$DIMJUST
 70
     0
  9
$DIMSD1
 70
     0
  9
$DIMSD2
 70
     0
  9
$DIMTOLJ
 70
     0
  9
$DIMTZIN
 70
     0
  9
$DIMALTZ
 70
     0
  9
$DIMALTTZ
 70
     0
  9
$DIMUPT
 70
     0
  9
$DIMDEC
 70
     2
  9
$DIMTDEC
 70
     2
  9
$DIMALTU
 70
     2
  9
$DIMALTTD
 70
     3
  9
$DIMTXSTY
  7
Standard
  9
$DIMAUNIT
 70
     0
  9
$DIMADEC
 70
     2
  9
$DIMALTRND
 40
0.0
  9
$DIMAZIN
 70
     0
  9
$DIMDSEP
 70
    44
  9
$DIMATFIT
 70
     3
  9
$DIMFRAC
 70
     0
  9
$DIMLDRBLK
  1

  9
$DIMLUNIT
 70
     2
  9
$DIMLWD
 70
    -2
  9
$DIMLWE
 70
    -2
  9
$DIMTMOVE
 70
     0
  9
$LUNITS
 70
     2
  9
$LUPREC
 70
     2
  9
$SKETCHINC
 40
1.0
  9
$FILLETRAD
 40
10.0
  9
$AUNITS
 70
     0
  9
$AUPREC
 70
     2
  9
$MENU
  1
.
  9
$ELEVATION
 40
0.0
  9
$PELEVATION
 40
0.0
  9
$THICKNESS
 40
0.0
  9
$LIMCHECK
 70
     0
  9
$CHAMFERA
 40
0.0
  9
$CHAMFERB
 40
0.0
  9
$CHAMFERC
 40
0.0
  9
$CHAMFERD
 40
0.0
  9
$SKPOLY
 70
     0
  9
$TDCREATE
 40
2458316.449199803
  9
$TDUCREATE
 40
2458316.074199803
  9
$TDUPDATE
 40
2458323.755055637
  9
$TDUUPDATE
 40
2458323.380055637
  9
$TDINDWG
 40
0.0013225579
  9
$TDUSRTIMER
 40
2458323.379885938
  9
$USRTIMER
 70
     1
  9
$ANGBASE
 50
0.0
  9
$ANGDIR
 70
     0
  9
$PDMODE
 70
     0
  9
$PDSIZE
 40
-1.0
  9
$PLINEWID
 40
0.0
  9
$SPLFRAME
 70
     0
  9
$SPLINETYPE
 70
     6
  9
$SPLINESEGS
 70
     8
  9
$HANDSEED
  5
433
  9
$SURFTAB1
 70
     6
  9
$SURFTAB2
 70
     6
  9
$SURFTYPE
 70
     6
  9
$SURFU
 70
     6
  9
$SURFV
 70
     6
  9
$UCSBASE
  2

  9
$UCSNAME
  2

  9
$UCSORG
 10
0.0
 20
0.0
 30
0.0
  9
$UCSXDIR
 10
1.0
 20
0.0
 30
0.0
  9
$UCSYDIR
 10
0.0
 20
1.0
 30
0.0
  9
$UCSORTHOREF
  2

  9
$UCSORTHOVIEW
 70
     0
  9
$UCSORGTOP
 10
0.0
 20
0.0
 30
0.0
  9
$UCSORGBOTTOM
 10
0.0
 20
0.0
 30
0.0
  9
$UCSORGLEFT
 10
0.0
 20
0.0
 30
0.0
  9
$UCSORGRIGHT
 10
0.0
 20
0.0
 30
0.0
  9
$UCSORGFRONT
 10
0.0
 20
0.0
 30
0.0
  9
$UCSORGBACK
 10
0.0
 20
0.0
 30
0.0
  9
$PUCSBASE
  2

  9
$PUCSNAME
  2

  9
$PUCSORG
 10
0.0
 20
0.0
 30
0.0
  9
$PUCSXDIR
 10
1.0
 20
0.0
 30
0.0
  9
$PUCSYDIR
 10
0.0
 20
1.0
 30
0.0
  9
$PUCSORTHOREF
  2

  9
$PUCSORTHOVIEW
 70
     0
  9
$PUCSORGTOP
 10
0.0
 20
0.0
 30
0.0
  9
$PUCSORGBOTTOM
 10
0.0
 20
0.0
 30
0.0
  9
$PUCSORGLEFT
 10
0.0
 20
0.0
 30
0.0
  9
$PUCSORGRIGHT
 10
0.0
 20
0.0
 30
0.0
  9
$PUCSORGFRONT
 10
0.0
 20
0.0
 30
0.0
  9
$PUCSORGBACK
 10
0.0
 20
0.0
 30
0.0
  9
$USERI1
 70
     0
  9
$USERI2
 70
     0
  9
$USERI3
 70
     0
  9
$USERI4
 70
     0
  9
$USERI5
 70
     0
  9
$USERR1
 40
0.0
  9
$USERR2
 40
0.0
  9
$USERR3
 40
0.0
  9
$USERR4
 40
0.0
  9
$USERR5
 40
0.0
  9
$WORLDVIEW
 70
     1
  9
$SHADEDGE
 70
     3
  9
$SHADEDIF
 70
    70
  9
$TILEMODE
 70
     1
  9
$MAXACTVP
 70
    64
  9
$PINSBASE
 10
0.0
 20
0.0
 30
0.0
  9
$PLIMCHECK
 70
     0
  9
$PEXTMIN
 10
1.000000000000000E+20
 20
1.000000000000000E+20
 30
1.000000000000000E+20
  9
$PEXTMAX
 10
-1.000000000000000E+20
 20
-1.000000000000000E+20
 30
-1.000000000000000E+20
  9
$PLIMMIN
 10
0.0
 20
0.0
  9
$PLIMMAX
 10
0.0
 20
0.0
  9
$UNITMODE
 70
     0
  9
$VISRETAIN
 70
     1
  9
$PLINEGEN
 70
     0
  9
$PSLTSCALE
 70
     1
  9
$TREEDEPTH
 70
  3020
  9
$CMLSTYLE
  2
Standard
  9
$CMLJUST
 70
     0
  9
$CMLSCALE
 40
20.0
  9
$PROXYGRAPHICS
 70
     1
  9
$MEASUREMENT
 70
     1
  9
$CELWEIGHT
370
    -1
  9
$ENDCAPS
280
     0
  9
$JOINSTYLE
280
     0
  9
$LWDISPLAY
290
     1
  9
$INSUNITS
 70
     4
  9
$HYPERLINKBASE
  1

  9
$STYLESHEET
  1

  9
$XEDIT
290
     1
  9
$CEPSNTYPE
380
     0
  9
$PSTYLEMODE
290
     1
  9
$FINGERPRINTGUID
  2
{8B8989BD-04F4-478E-A222-3EF868D24660}
  9
$VERSIONGUID
  2
{FAEB1C32-E019-11D5-929B-00C0DF256EC4}
  9
$EXTNAMES
290
     1
  9
$PSVPSCALE
 40
0.0
  9
$OLESTARTUP
290
     0
  0
ENDSEC
  0
SECTION
  2
CLASSES
  0
CLASS
  1
ACDBDICTIONARYWDFLT
  2
AcDbDictionaryWithDefault
  3
ObjectDBX Classes
 90
        0
280
     0
281
     0
  0
CLASS
  1
VISUALSTYLE
  2
AcDbVisualStyle
  3
ObjectDBX Classes
 90
     4095
280
     0
281
     0
  0
CLASS
  1
MATERIAL
  2
AcDbMaterial
  3
ObjectDBX Classes
 90
     1153
280
     0
281
     0
  0
CLASS
  1
SCALE
  2
AcDbScale
  3
ObjectDBX Classes
 90
     1153
280
     0
281
     0
  0
CLASS
  1
SUN
  2
AcDbSun
  3
SCENEOE
 90
     1153
280
     0
281
     0
  0
CLASS
  1
ACDBPLACEHOLDER
  2
AcDbPlaceHolder
  3
ObjectDBX Classes
 90
        0
280
     0
281
     0
  0
CLASS
  1
LAYOUT
  2
AcDbLayout
  3
ObjectDBX Classes
 90
        0
280
     0
281
     0
  0
CLASS
  1
TABLESTYLE
  2
AcDbTableStyle
  3
ObjectDBX Classes
 90
     4095
280
     0
281
     0
  0
CLASS
  1
MLEADERSTYLE
  2
AcDbMLeaderStyle
  3
ACDB_MLEADERSTYLE_CLASS
 90
     4095
280
     0
281
     0
  0
CLASS
  1
RASTERVARIABLES
  2
AcDbRasterVariables
  3
ISM
 90
        0
280
     0
281
     0
  0
ENDSEC
  0
SECTION
  2
TABLES
  0
TABLE
  2
VPORT
  5
8
330
0
100
AcDbSymbolTable
 70
     1
  0
VPORT
  5
29
330
8
100
AcDbSymbolTableRecord
100
AcDbViewportTableRecord
  2
*Active
 70
     0
 10
0.0
 20
0.0
 11
1.0
 21
1.0
 12
36.62277593759148
 22
3.264343826255327
 13
0.0
 23
0.0
 14
10.0
 24
10.0
 15
10.0
 25
10.0
 16
0.0
 26
0.0
 36
1.0
 17
0.0
 27
0.0
 37
0.0
 40
197.4134702098974
 41
1.970186335403727
 42
50.0
 43
0.0
 44
0.0
 50
0.0
 51
0.0
 71
    16
 72
  2000
 73
     1
 74
     3
 75
     0
 76
     0
 77
     0
 78
     0
281
     0
 65
     1
110
0.0
120
0.0
130
0.0
111
1.0
121
0.0
131
0.0
112
0.0
122
1.0
132
0.0
 79
     0
146
0.0
  0
ENDTAB
  0
TABLE
  2
LTYPE
  5
5
330
0
100
AcDbSymbolTable
 70
     6
  0
LTYPE
  5
14
330
5
100
AcDbSymbolTableRecord
100
AcDbLinetypeTableRecord
  2
ByBlock
 70
     0
  3

 72
    65
 73
     0
 40
0.0
  0
LTYPE
  5
15
330
5
100
AcDbSymbolTableRecord
100
AcDbLinetypeTableRecord
  2
ByLayer
 70
     0
  3

 72
    65
 73
     0
 40
0.0
  0
LTYPE
  5
16
330
5
100
AcDbSymbolTableRecord
100
AcDbLinetypeTableRecord
  2
Continuous
 70
     0
  3
Solid line
 72
    65
 73
     0
 40
0.0
  0
LTYPE
  5
6A
330
5
100
AcDbSymbolTableRecord
100
AcDbLinetypeTableRecord
  2
HIDDEN
 70
     0
  3
Hidden __ __ __ __ __ __ __ __ __ __ __ __ __ __
 72
    65
 73
     2
 40
1.905
 49
1.27
 74
     0
 49
-0.635
 74
     0
  0
LTYPE
  5
6B
330
5
100
AcDbSymbolTableRecord
100
AcDbLinetypeTableRecord
  2
PHANTOM
 70
     0
  3
Phantom ______  __  __  ______  __  __  ______
 72
    65
 73
     6
 40
12.7
 49
6.35
 74
     0
 49
-1.27
 74
     0
 49
1.27
 74
     0
 49
-1.27
 74
     0
 49
1.27
 74
     0
 49
-1.27
 74
     0
  0
LTYPE
  5
6C
330
5
100
AcDbSymbolTableRecord
100
AcDbLinetypeTableRecord
  2
CENTER
 70
     0
  3
Center ____ _ ____ _ ____ _ ____ _ ____ _ ____
 72
    65
 73
     4
 40
10.16
 49
6.35
 74
     0
 49
-1.27
 74
     0
 49
1.27
 74
     0
 49
-1.27
 74
     0
  0
LTYPE
  5
6D
330
5
100
AcDbSymbolTableRecord
100
AcDbLinetypeTableRecord
  2
CENTERX2
 70
     0
  3
Center (2x) ________  __  ________  __  _____
 72
    65
 73
     4
 40
20.32
 49
12.7
 74
     0
 49
-2.54
 74
     0
 49
2.54
 74
     0
 49
-2.54
 74
     0
  0
LTYPE
  5
6E
330
5
100
AcDbSymbolTableRecord
100
AcDbLinetypeTableRecord
  2
DOT2
 70
     0
  3
Dot (.5x) ........................................
 72
    65
 73
     2
 40
0.635
 49
0.0
 74
     0
 49
-0.635
 74
     0
  0
ENDTAB
  0
TABLE
  2
LAYER
  5
2
102
{ACAD_XDICTIONARY
360
214
102
}
330
0
100
AcDbSymbolTable
 70
    18
  0
LAYER
  5
10
330
2
100
AcDbSymbolTableRecord
100
AcDbLayerTableRecord
  2
0
 70
     0
 62
     7
  6
Continuous
370
    -3
390
F
  0
LAYER
  5
6F
330
2
100
AcDbSymbolTableRecord
100
AcDbLayerTableRecord
  2
FORMAT
 70
     0
 62
     2
  6
Continuous
370
    -3
390
F
  0
LAYER
  5
70
330
2
100
AcDbSymbolTableRecord
100
AcDbLayerTableRecord
  2
외형선
 70
     0
 62
     4
  6
Continuous
370
    30
390
F
  0
LAYER
  5
71
330
2
100
AcDbSymbolTableRecord
100
AcDbLayerTableRecord
  2
숨은선
 70
     0
 62
     2
  6
HIDDEN
370
    15
390
F
  0
LAYER
  5
72
330
2
100
AcDbSymbolTableRecord
100
AcDbLayerTableRecord
  2
중심선
 70
     0
 62
     1
  6
CENTERX2
370
    -3
390
F
  0
LAYER
  5
73
330
2
100
AcDbSymbolTableRecord
100
AcDbLayerTableRecord
  2
파단선
 70
     0
 62
     4
  6
Continuous
370
    -3
390
F
  0
LAYER
  5
74
330
2
100
AcDbSymbolTableRecord
100
AcDbLayerTableRecord
  2
해칭선
 70
     0
 62
   100
  6
Continuous
370
    -3
390
F
  0
LAYER
  5
75
330
2
100
AcDbSymbolTableRecord
100
AcDbLayerTableRecord
  2
가는실선
 70
     0
 62
     4
  6
Continuous
370
    -3
390
F
  0
LAYER
  5
76
330
2
100
AcDbSymbolTableRecord
100
AcDbLayerTableRecord
  2
치수_보조선
 70
     0
 62
     4
  6
Continuous
370
    -3
390
F
  0
LAYER
  5
77
330
2
100
AcDbSymbolTableRecord
100
AcDbLayerTableRecord
  2
치수문자_일반주서
 70
     0
 62
     7
  6
Continuous
370
    15
390
F
  0
LAYER
  5
78
330
2
100
AcDbSymbolTableRecord
100
AcDbLayerTableRecord
  2
개별주서
 70
     0
 62
   100
  6
Continuous
370
    30
390
F
  0
LAYER
  5
79
330
2
100
AcDbSymbolTableRecord
100
AcDbLayerTableRecord
  2
중간선
 70
     0
 62
     2
  6
Continuous
370
    15
390
F
  0
LAYER
  5
7A
330
2
100
AcDbSymbolTableRecord
100
AcDbLayerTableRecord
  2
윤곽선
 70
     0
 62
     3
  6
Continuous
370
    40
390
F
  0
LAYER
  5
7B
330
2
100
AcDbSymbolTableRecord
100
AcDbLayerTableRecord
  2
중심마크
 70
     0
 62
   100
  6
Continuous
370
    30
390
F
  0
LAYER
  5
7C
330
2
100
AcDbSymbolTableRecord
100
AcDbLayerTableRecord
  2
가상선
 70
     0
 62
     4
  6
PHANTOM
370
    -3
390
F
  0
LAYER
  5
7D
330
2
100
AcDbSymbolTableRecord
100
AcDbLayerTableRecord
  2
특수지정선
 70
     0
 62
     5
  6
CENTERX2
370
    60
390
F
  0
LAYER
  5
7E
330
2
100
AcDbSymbolTableRecord
100
AcDbLayerTableRecord
  2
참조1
 70
     0
 62
    -4
  6
Continuous
370
    -3
390
F
  0
LAYER
  5
15C
330
2
100
AcDbSymbolTableRecord
100
AcDbLayerTableRecord
  2
Defpoints
 70
     0
 62
     7
  6
Continuous
290
     0
370
    -3
390
F
  0
ENDTAB
  0
TABLE
  2
STYLE
  5
3
330
0
100
AcDbSymbolTable
 70
     2
  0
STYLE
  5
11
330
3
100
AcDbSymbolTableRecord
100
AcDbTextStyleTableRecord
  2
Standard
 70
     0
 40
0.0
 41
1.0
 50
0.0
 71
     0
 42
3.5
  3
txt
  4

  0
STYLE
  5
94
330
3
100
AcDbSymbolTableRecord
100
AcDbTextStyleTableRecord
  2
SLDTEXTSTYLE0
 70
     0
 40
0.0
 41
0.75
 50
0.0
 71
     0
 42
3.5
  3
TXT
  4

  0
ENDTAB
  0
TABLE
  2
VIEW
  5
6
330
0
100
AcDbSymbolTable
 70
     0
  0
ENDTAB
  0
TABLE
  2
UCS
  5
7
330
0
100
AcDbSymbolTable
 70
     0
  0
ENDTAB
  0
TABLE
  2
APPID
  5
9
330
0
100
AcDbSymbolTable
 70
     3
  0
APPID
  5
12
330
9
100
AcDbSymbolTableRecord
100
AcDbRegAppTableRecord
  2
ACAD
 70
     0
  0
APPID
  5
166
330
9
100
AcDbSymbolTableRecord
100
AcDbRegAppTableRecord
  2
PE_URL
 70
     0
  0
APPID
  5
167
330
9
100
AcDbSymbolTableRecord
100
AcDbRegAppTableRecord
  2
ACAD_DSTYLE_DIMRADIAL_EXTENSION
 70
     0
  0
ENDTAB
  0
TABLE
  2
DIMSTYLE
  5
A
330
0
100
AcDbSymbolTable
 70
     5
100
AcDbDimStyleTable
  0
DIMSTYLE
105
27
330
A
100
AcDbSymbolTableRecord
100
AcDbDimStyleTableRecord
  2
ISO-25
 70
     0
 41
2.5
 42
0.625
 43
3.75
 44
1.25
 73
     0
 74
     0
 77
     1
 78
     8
140
2.5
141
2.5
143
0.03937007874016
147
0.625
171
     3
172
     1
178
     0
271
     2
272
     2
274
     3
278
    44
283
     0
284
     8
340
11
  0
DIMSTYLE
105
D7
330
A
100
AcDbSymbolTableRecord
100
AcDbDimStyleTableRecord
  2
SLDDIMSTYLE0
 70
     0
 41
3.302
 44
0.0
 45
0.000000001
 73
     0
 74
     0
 77
     1
 78
    12
 79
     3
140
3.5
143
0.0393700787401575
147
0.875
148
0.000000001
170
     1
172
     1
173
     1
178
     0
271
     2
272
     2
276
     2
284
    12
289
     0
340
94
  0
DIMSTYLE
105
EC
330
A
100
AcDbSymbolTableRecord
100
AcDbDimStyleTableRecord
  2
SLDDIMSTYLE1
 70
     0
 41
3.302
 44
0.0
 45
0.000000001
 73
     0
 74
     0
 77
     1
 78
    12
 79
     3
140
3.5
143
0.0393700787401575
147
0.875
148
0.000000001
170
     1
173
     1
178
     0
271
     2
272
     2
276
     2
284
    12
340
94
  0
DIMSTYLE
105
101
102
{ACAD_REACTORS
330
1C6
330
1D3
330
1E0
330
1FA
330
205
330
34A
330
35A
330
367
330
374
330
3FA
330
3FB
330
3FC
330
3FD
102
}
330
A
100
AcDbSymbolTableRecord
100
AcDbDimStyleTableRecord
  2
SLDDIMSTYLE2
 70
     0
 41
3.302
 44
0.0
 45
0.000000001
 73
     0
 74
     0
 77
     1
 78
     4
 79
     1
140
3.5
143
0.0393700787401575
147
0.875
148
0.000000001
170
     1
173
     1
178
     0
271
     2
272
     2
276
     2
284
    12
340
94
  0
DIMSTYLE
105
115
330
A
100
AcDbSymbolTableRecord
100
AcDbDimStyleTableRecord
  2
SLDDIMSTYLE3
 70
     0
 41
3.302
 44
0.0
 45
0.000000001
 73
     0
 74
     0
 77
     1
 78
     4
 79
     1
140
3.5
143
0.0393700787401575
147
0.875
148
0.000000001
170
     1
172
     1
173
     1
178
     0
271
     2
272
     2
276
     2
284
    12
289
     0
340
94
  0
ENDTAB
  0
TABLE
  2
BLOCK_RECORD
  5
1
330
0
100
AcDbSymbolTable
 70
    27
  0
BLOCK_RECORD
  5
1F
330
1
100
AcDbSymbolTableRecord
100
AcDbBlockTableRecord
  2
*Model_Space
340
22
  0
BLOCK_RECORD
  5
1B
330
1
100
AcDbSymbolTableRecord
100
AcDbBlockTableRecord
  2
*Paper_Space
340
1E
  0
BLOCK_RECORD
  5
23
330
1
100
AcDbSymbolTableRecord
100
AcDbBlockTableRecord
  2
*Paper_Space0
340
26
  0
BLOCK_RECORD
  5
7F
330
1
100
AcDbSymbolTableRecord
100
AcDbBlockTableRecord
  2
블럭10
340
0
102
{BLKREFS
331
0
331
32D
331
3F3
102
}
  0
BLOCK_RECORD
  5
D8
330
1
100
AcDbSymbolTableRecord
100
AcDbBlockTableRecord
  2
_D
340
0
  0
BLOCK_RECORD
  5
ED
330
1
100
AcDbSymbolTableRecord
100
AcDbBlockTableRecord
  2
_D_1
340
0
  0
BLOCK_RECORD
  5
102
330
1
100
AcDbSymbolTableRecord
100
AcDbBlockTableRecord
  2
_D_2
340
0
  0
BLOCK_RECORD
  5
116
330
1
100
AcDbSymbolTableRecord
100
AcDbBlockTableRecord
  2
_D_3
340
0
  0
BLOCK_RECORD
  5
130
330
1
100
AcDbSymbolTableRecord
100
AcDbBlockTableRecord
  2
SW_DOWELSYMBOL_0
340
0
102
{BLKREFS
331
0
331
1EF
331
0
331
384
331
3FE
102
}
  0
BLOCK_RECORD
  5
1FB
330
1
100
AcDbSymbolTableRecord
100
AcDbBlockTableRecord
  2
*D8
340
0
  0
BLOCK_RECORD
  5
206
330
1
100
AcDbSymbolTableRecord
100
AcDbBlockTableRecord
  2
*D9
340
0
  0
BLOCK_RECORD
  5
218
330
1
100
AcDbSymbolTableRecord
100
AcDbBlockTableRecord
  2
*D10
340
0
  0
BLOCK_RECORD
  5
224
330
1
100
AcDbSymbolTableRecord
100
AcDbBlockTableRecord
  2
*D11
340
0
  0
BLOCK_RECORD
  5
230
330
1
100
AcDbSymbolTableRecord
100
AcDbBlockTableRecord
  2
*D12
340
0
  0
BLOCK_RECORD
  5
28B
330
1
100
AcDbSymbolTableRecord
100
AcDbBlockTableRecord
  2
*D13
340
0
  0
BLOCK_RECORD
  5
297
330
1
100
AcDbSymbolTableRecord
100
AcDbBlockTableRecord
  2
*D14
340
0
  0
BLOCK_RECORD
  5
2A3
330
1
100
AcDbSymbolTableRecord
100
AcDbBlockTableRecord
  2
*D15
340
0
  0
BLOCK_RECORD
  5
2B1
330
1
100
AcDbSymbolTableRecord
100
AcDbBlockTableRecord
  2
*D16
340
0
  0
BLOCK_RECORD
  5
2BB
330
1
100
AcDbSymbolTableRecord
100
AcDbBlockTableRecord
  2
*D17
340
0
  0
BLOCK_RECORD
  5
38D
330
1
100
AcDbSymbolTableRecord
100
AcDbBlockTableRecord
  2
*D19
340
0
  0
BLOCK_RECORD
  5
39A
330
1
100
AcDbSymbolTableRecord
100
AcDbBlockTableRecord
  2
*D20
340
0
  0
BLOCK_RECORD
  5
3A6
330
1
100
AcDbSymbolTableRecord
100
AcDbBlockTableRecord
  2
*D21
340
0
  0
BLOCK_RECORD
  5
3B2
330
1
100
AcDbSymbolTableRecord
100
AcDbBlockTableRecord
  2
*D22
340
0
  0
BLOCK_RECORD
  5
3FF
330
1
100
AcDbSymbolTableRecord
100
AcDbBlockTableRecord
  2
*D23
340
0
  0
BLOCK_RECORD
  5
40C
330
1
100
AcDbSymbolTableRecord
100
AcDbBlockTableRecord
  2
*D24
340
0
  0
BLOCK_RECORD
  5
418
330
1
100
AcDbSymbolTableRecord
100
AcDbBlockTableRecord
  2
*D25
340
0
  0
BLOCK_RECORD
  5
424
330
1
100
AcDbSymbolTableRecord
100
AcDbBlockTableRecord
  2
*D26
340
0
  0
ENDTAB
  0
ENDSEC
  0
SECTION
  2
BLOCKS
  0
BLOCK
  5
20
330
1F
100
AcDbEntity
  8
0
100
AcDbBlockBegin
  2
*Model_Space
 70
     0
 10
0.0
 20
0.0
 30
0.0
  3
*Model_Space
  1
*Model_Space
  0
ENDBLK
  5
21
330
1F
100
AcDbEntity
  8
0
100
AcDbBlockEnd
  0
BLOCK
  5
1C
330
1B
100
AcDbEntity
 67
     1
  8
0
100
AcDbBlockBegin
  2
*Paper_Space
 70
     0
 10
0.0
 20
0.0
 30
0.0
  3
*Paper_Space
  1
*Paper_Space
  0
ENDBLK
  5
1D
330
1B
100
AcDbEntity
 67
     1
  8
0
100
AcDbBlockEnd
  0
BLOCK
  5
24
330
23
100
AcDbEntity
  8
0
100
AcDbBlockBegin
  2
*Paper_Space0
 70
     0
 10
0.0
 20
0.0
 30
0.0
  3
*Paper_Space0
  1
*Paper_Space0
  0
ENDBLK
  5
25
330
23
100
AcDbEntity
  8
0
100
AcDbBlockEnd
  0
BLOCK
  5
80
330
7F
100
AcDbEntity
  8
0
100
AcDbBlockBegin
  2
블럭10
 70
     2
 10
0.0
 20
0.0
 30
0.0
  3
블럭10
  1
블럭10
  0
ELLIPSE
  5
82
330
7F
100
AcDbEntity
  8
중심선
100
AcDbEllipse
 10
20.54032771741204
 20
12.0471743016438
 30
0.0
 11
6.600054785286829
 21
-1.261213355974178E-13
 31
0.0
210
0.0
220
0.0
230
1.0
 40
0.636358354079598
 41
0.9219305317359503
 42
6.513795318482858
  0
ELLIPSE
  5
83
330
7F
100
AcDbEntity
  8
중심선
100
AcDbEllipse
 10
20.54032771746488
 20
12.04717430159265
 30
0.0
 11
3.960054785062283
 21
1.540847449632565E-10
 31
0.0
210
0.0
220
0.0
230
1.0
 40
0.3939339440162632
 41
1.131841032648279
 42
5.62031148352944
  0
LINE
  5
84
330
7F
100
AcDbEntity
  8
중심선
100
AcDbLine
 10
2.268634060543552
 20
16.24717430164393
 30
0.0
 11
5.714909304380834
 21
16.24717430164393
 31
0.0
  0
LINE
  5
85
330
7F
100
AcDbEntity
  8
중심선
100
AcDbLine
 10
5.245725140726316
 20
7.84717430164391
 30
0.0
 11
8.692000384563599
 21
7.84717430164391
 31
0.0
  0
LINE
  5
86
330
7F
100
AcDbEntity
  8
중심선
100
AcDbLine
 10
15.74043728645272
 20
16.24717430164393
 30
0.0
 11
8.692000384563599
 21
7.84717430164391
 31
0.0
  0
LINE
  5
87
330
7F
100
AcDbEntity
  8
중심선
100
AcDbLine
 10
0.1404042013395286
 20
13.71084872107135
 30
0.0
 11
3.58671253028996
 21
13.71088815037384
 31
0.0
  0
LINE
  5
88
330
7F
100
AcDbEntity
  8
중심선
100
AcDbLine
 10
2.750260043222114
 20
10.84717430164391
 30
0.0
 11
6.196535287059397
 21
10.84717430164391
 31
0.0
  0
LINE
  5
89
330
7F
100
AcDbEntity
  8
중심선
100
AcDbLine
 10
12.29416204261559
 20
16.24717430164393
 30
0.0
 11
5.245725140726316
 21
7.84717430164391
 31
0.0
  0
LINE
  5
8A
330
7F
100
AcDbEntity
  8
중심선
100
AcDbLine
 10
10.72767329541681
 20
16.24717430164393
 30
0.0
 11
6.196535287059397
 21
10.84717430164391
 31
0.0
  0
LINE
  5
8B
330
7F
100
AcDbEntity
  8
중심선
100
AcDbLine
 10
7.28139805157953
 20
16.24717430164393
 30
0.0
 11
2.750260043222114
 21
10.84717430164391
 31
0.0
  0
LINE
  5
8C
330
7F
100
AcDbEntity
  8
중심선
100
AcDbLine
 10
5.714909304380834
 20
16.24717430164393
 30
0.0
 11
3.58671253028996
 21
13.71088815037384
 31
0.0
  0
LINE
  5
8D
330
7F
100
AcDbEntity
  8
중심선
100
AcDbLine
 10
2.268634060543552
 20
16.24717430164393
 30
0.0
 11
0.1404042013395286
 21
13.71084872107135
 31
0.0
  0
LINE
  5
8E
330
7F
100
AcDbEntity
  8
중심선
100
AcDbLine
 10
7.28139805157953
 20
16.24717430164393
 30
0.0
 11
10.72767329541681
 21
16.24717430164393
 31
0.0
  0
LINE
  5
8F
330
7F
100
AcDbEntity
  8
중심선
100
AcDbLine
 10
12.29416204261559
 20
16.24717430164393
 30
0.0
 11
15.74043728645272
 21
16.24717430164393
 31
0.0
  0
LINE
  5
90
330
7F
100
AcDbEntity
  8
중심선
100
AcDbLine
 10
19.22036997980202
 20
11.08717430171403
 30
0.0
 11
23.66174974927406
 21
11.08717430171406
 31
0.0
  0
LINE
  5
91
330
7F
100
AcDbEntity
  8
중심선
100
AcDbLine
 10
19.22039502424796
 20
13.00717430171391
 30
0.0
 11
19.22036997980202
 21
11.08717430171403
 31
0.0
  0
LINE
  5
92
330
7F
100
AcDbEntity
  8
중심선
100
AcDbLine
 10
19.22039502424796
 20
13.00717430171391
 30
0.0
 11
26.96566020931264
 21
13.00717430171391
 31
0.0
  0
LINE
  5
93
330
7F
100
AcDbEntity
  8
중심선
100
AcDbLine
 10
22.22332737316547
 20
13.45928029700563
 30
0.0
 11
24.52862924686651
 21
15.39360700705356
 31
0.0
  0
ATTDEF
  5
95
330
7F
100
AcDbEntity
  8
FORMAT
 62
     2
100
AcDbText
 10
4.408487351596664
 20
2.075366912832191
 30
0.0
 40
4.233333333333333
  1
E5068064
 41
0.75
  7
SLDTEXTSTYLE0
 11
4.408487351596664
 21
-0.0412997538344756
 31
0.0
100
AcDbAttributeDefinition
  3

  2
AUTOATTR0
 70
     0
 74
     1
  0
ENDBLK
  5
81
330
7F
100
AcDbEntity
  8
0
100
AcDbBlockEnd
  0
BLOCK
  5
D9
330
D8
100
AcDbEntity
  8
0
100
AcDbBlockBegin
  2
_D
 70
     0
 10
0.0
 20
0.0
 30
0.0
  3
_D
  1
_D
  0
LINE
  5
DB
330
D8
100
AcDbEntity
  8
치수문자_일반주서
 62
     0
370
    -2
100
AcDbLine
 10
94.61249999999997
 20
12.65398161372425
 30
0.0
 11
116.4293318304829
 21
12.65398161372433
 31
0.0
  0
LINE
  5
DC
330
D8
100
AcDbEntity
  8
치수문자_일반주서
 62
     0
370
    -2
100
AcDbLine
 10
94.61249999999997
 20
-12.74601838627575
 30
0.0
 11
116.429331830483
 21
-12.74601838627567
 31
0.0
  0
LINE
  5
DD
330
D8
100
AcDbEntity
  8
치수문자_일반주서
 62
     0
370
    -2
100
AcDbLine
 10
116.4293318304829
 20
12.65398161372433
 30
0.0
 11
116.4293318304828
 21
45.40398161372433
 31
0.0
  0
LINE
  5
DE
330
D8
100
AcDbEntity
  8
치수문자_일반주서
 62
     0
370
    -2
100
AcDbLine
 10
116.4293318304829
 20
8.653981613724333
 30
0.0
 11
116.429331830483
 21
-8.746018386275672
 31
0.0
  0
SOLID
  5
DF
330
D8
100
AcDbEntity
  8
치수문자_일반주서
 62
     0
100
AcDbTrace
 10
117.0959984971496
 20
8.653981613724335
 30
0.0
 11
115.7626651638163
 21
8.653981613724332
 31
0.0
 12
116.4293318304829
 22
12.65398161372433
 32
0.0
 13
116.4293318304829
 23
12.65398161372433
 33
0.0
  0
SOLID
  5
E0
330
D8
100
AcDbEntity
  8
치수문자_일반주서
 62
     0
100
AcDbTrace
 10
115.7626651638163
 20
-8.746018386275674
 30
0.0
 11
117.0959984971497
 21
-8.74601838627567
 31
0.0
 12
116.429331830483
 22
-12.74601838627567
 32
0.0
 13
116.429331830483
 23
-12.74601838627567
 33
0.0
  0
MTEXT
  5
E1
330
D8
100
AcDbEntity
  8
치수문자_일반주서
 62
     0
100
AcDbMText
 10
111.5543318304828
 20
32.77898161372431
 30
0.0
 40
4.0
 41
0.0
 71
     2
 72
     1
  1
\A1;%%c25.40 [1]
  7
SLDTEXTSTYLE0
 11
-3.356894814614646E-15
 21
1.0
 31
0.0
 73
     1
 44
1.0
  0
POINT
  5
E2
330
D8
100
AcDbEntity
  8
Defpoints
 62
     0
100
AcDbPoint
 10
94.54999999999997
 20
12.65398161372425
 30
0.0
  0
POINT
  5
E3
330
D8
100
AcDbEntity
  8
Defpoints
 62
     0
100
AcDbPoint
 10
94.54999999999997
 20
-12.74601838627575
 30
0.0
  0
POINT
  5
E4
330
D8
100
AcDbEntity
  8
Defpoints
 62
     0
100
AcDbPoint
 10
116.429331830483
 20
-12.74601838627567
 30
0.0
  0
ENDBLK
  5
DA
330
D8
100
AcDbEntity
  8
0
100
AcDbBlockEnd
  0
BLOCK
  5
EE
330
ED
100
AcDbEntity
  8
0
100
AcDbBlockBegin
  2
_D_1
 70
     0
 10
0.0
 20
0.0
 30
0.0
  3
_D_1
  1
_D_1
  0
LINE
  5
F0
330
ED
100
AcDbEntity
  8
치수문자_일반주서
 62
     0
370
    -2
100
AcDbLine
 10
94.54999999999997
 20
12.71648161372425
 30
0.0
 11
94.54999999999997
 21
38.95572817130181
 31
0.0
  0
LINE
  5
F1
330
ED
100
AcDbEntity
  8
치수문자_일반주서
 62
     0
370
    -2
100
AcDbLine
 10
11.99999999999999
 20
12.5956589892486
 30
0.0
 11
11.99999999999999
 21
38.95572817130181
 31
0.0
  0
LINE
  5
F2
330
ED
100
AcDbEntity
  8
치수문자_일반주서
 62
     0
370
    -2
100
AcDbLine
 10
90.54999999999997
 20
38.95572817130181
 30
0.0
 11
15.99999999999999
 21
38.95572817130181
 31
0.0
  0
SOLID
  5
F3
330
ED
100
AcDbEntity
  8
치수문자_일반주서
 62
     0
100
AcDbTrace
 10
90.54999999999997
 20
38.28906150463515
 30
0.0
 11
90.54999999999997
 21
39.62239483796848
 31
0.0
 12
94.54999999999997
 22
38.95572817130181
 32
0.0
 13
94.54999999999997
 23
38.95572817130181
 33
0.0
  0
SOLID
  5
F4
330
ED
100
AcDbEntity
  8
치수문자_일반주서
 62
     0
100
AcDbTrace
 10
15.99999999999999
 20
39.62239483796848
 30
0.0
 11
15.99999999999999
 21
38.28906150463515
 31
0.0
 12
11.99999999999999
 22
38.95572817130181
 32
0.0
 13
11.99999999999999
 23
38.95572817130181
 33
0.0
  0
MTEXT
  5
F5
330
ED
100
AcDbEntity
  8
치수문자_일반주서
 62
     0
100
AcDbMText
 10
53.27499999999996
 20
43.83072817130181
 30
0.0
 40
4.0
 41
0.0
 71
     2
 72
     1
  1
\A1;82.55 [3 1/4]
  7
SLDTEXTSTYLE0
 73
     1
 44
1.0
  0
POINT
  5
F6
330
ED
100
AcDbEntity
  8
Defpoints
 62
     0
100
AcDbPoint
 10
94.54999999999997
 20
12.65398161372425
 30
0.0
  0
POINT
  5
F7
330
ED
100
AcDbEntity
  8
Defpoints
 62
     0
100
AcDbPoint
 10
11.99999999999999
 20
12.5331589892486
 30
0.0
  0
POINT
  5
F8
330
ED
100
AcDbEntity
  8
Defpoints
 62
     0
100
AcDbPoint
 10
11.99999999999999
 20
38.95572817130181
 30
0.0
  0
ENDBLK
  5
EF
330
ED
100
AcDbEntity
  8
0
100
AcDbBlockEnd
  0
BLOCK
  5
103
330
102
100
AcDbEntity
  8
0
100
AcDbBlockBegin
  2
_D_2
 70
     0
 10
0.0
 20
0.0
 30
0.0
  3
_D_2
  1
_D_2
  0
LINE
  5
105
330
102
100
AcDbEntity
  8
치수문자_일반주서
 62
     0
370
    -2
100
AcDbLine
 10
94.54999999999997
 20
12.71648161372425
 30
0.0
 11
94.54999999999995
 21
56.17106870114121
 31
0.0
  0
LINE
  5
106
330
102
100
AcDbEntity
  8
치수문자_일반주서
 62
     0
370
    -2
100
AcDbLine
 10
-57.85000000000002
 20
10.17648161372425
 30
0.0
 11
-57.85000000000004
 21
56.17106870114121
 31
0.0
  0
LINE
  5
107
330
102
100
AcDbEntity
  8
치수문자_일반주서
 62
     0
370
    -2
100
AcDbLine
 10
90.54999999999995
 20
56.17106870114121
 30
0.0
 11
-53.85000000000004
 21
56.17106870114121
 31
0.0
  0
SOLID
  5
108
330
102
100
AcDbEntity
  8
치수문자_일반주서
 62
     0
100
AcDbTrace
 10
90.54999999999995
 20
55.50440203447454
 30
0.0
 11
90.54999999999995
 21
56.83773536780787
 31
0.0
 12
94.54999999999995
 22
56.17106870114121
 32
0.0
 13
94.54999999999995
 23
56.17106870114121
 33
0.0
  0
SOLID
  5
109
330
102
100
AcDbEntity
  8
치수문자_일반주서
 62
     0
100
AcDbTrace
 10
-53.85000000000004
 20
56.83773536780787
 30
0.0
 11
-53.85000000000004
 21
55.50440203447454
 31
0.0
 12
-57.85000000000004
 22
56.17106870114121
 32
0.0
 13
-57.85000000000004
 23
56.17106870114121
 33
0.0
  0
MTEXT
  5
10A
330
102
100
AcDbEntity
  8
치수문자_일반주서
 62
     0
100
AcDbMText
 10
18.34999999999998
 20
61.04606870114121
 30
0.0
 40
4.0
 41
0.0
 71
     2
 72
     1
  1
\A1;152.40 [6]
  7
SLDTEXTSTYLE0
 73
     1
 44
1.0
  0
POINT
  5
10B
330
102
100
AcDbEntity
  8
Defpoints
 62
     0
100
AcDbPoint
 10
94.54999999999997
 20
12.65398161372425
 30
0.0
  0
POINT
  5
10C
330
102
100
AcDbEntity
  8
Defpoints
 62
     0
100
AcDbPoint
 10
-57.85000000000002
 20
10.11398161372425
 30
0.0
  0
POINT
  5
10D
330
102
100
AcDbEntity
  8
Defpoints
 62
     0
100
AcDbPoint
 10
-57.85000000000002
 20
56.17106870114121
 30
0.0
  0
ENDBLK
  5
104
330
102
100
AcDbEntity
  8
0
100
AcDbBlockEnd
  0
BLOCK
  5
117
330
116
100
AcDbEntity
  8
0
100
AcDbBlockBegin
  2
_D_3
 70
     0
 10
0.0
 20
0.0
 30
0.0
  3
_D_3
  1
_D_3
  0
LINE
  5
119
330
116
100
AcDbEntity
  8
치수문자_일반주서
 62
     0
370
    -2
100
AcDbLine
 10
-55.37250000000003
 20
12.65398161372424
 30
0.0
 11
-75.39570391320568
 21
12.65398161372416
 31
0.0
  0
LINE
  5
11A
330
116
100
AcDbEntity
  8
치수문자_일반주서
 62
     0
370
    -2
100
AcDbLine
 10
-55.37250000000003
 20
-12.74601838627574
 30
0.0
 11
-75.3957039132056
 21
-12.74601838627581
 31
0.0
  0
LINE
  5
11B
330
116
100
AcDbEntity
  8
치수문자_일반주서
 62
     0
370
    -2
100
AcDbLine
 10
-75.39570391320568
 20
12.65398161372416
 30
0.0
 11
-75.3957039132058
 21
44.90398161372417
 31
0.0
  0
LINE
  5
11C
330
116
100
AcDbEntity
  8
치수문자_일반주서
 62
     0
370
    -2
100
AcDbLine
 10
-75.39570391320567
 20
8.653981613724163
 30
0.0
 11
-75.39570391320561
 21
-8.746018386275814
 31
0.0
  0
SOLID
  5
11D
330
116
100
AcDbEntity
  8
치수문자_일반주서
 62
     0
100
AcDbTrace
 10
-74.729037246539
 20
8.653981613724165
 30
0.0
 11
-76.06237057987234
 21
8.653981613724161
 31
0.0
 12
-75.39570391320568
 22
12.65398161372416
 32
0.0
 13
-75.39570391320568
 23
12.65398161372416
 33
0.0
  0
SOLID
  5
11E
330
116
100
AcDbEntity
  8
치수문자_일반주서
 62
     0
100
AcDbTrace
 10
-76.06237057987228
 20
-8.746018386275816
 30
0.0
 11
-74.72903724653894
 21
-8.746018386275813
 31
0.0
 12
-75.3957039132056
 22
-12.74601838627581
 32
0.0
 13
-75.3957039132056
 23
-12.74601838627581
 33
0.0
  0
MTEXT
  5
11F
330
116
100
AcDbEntity
  8
치수문자_일반주서
 62
     0
100
AcDbMText
 10
-80.27070391320575
 20
32.27898161372416
 30
0.0
 40
4.0
 41
0.0
 71
     2
 72
     1
  1
\A1;%%c25.40 [1]
  7
SLDTEXTSTYLE0
 11
-3.356894814614650E-15
 21
1.0
 31
0.0
 73
     1
 44
1.0
  0
POINT
  5
120
330
116
100
AcDbEntity
  8
Defpoints
 62
     0
100
AcDbPoint
 10
-55.31000000000003
 20
12.65398161372424
 30
0.0
  0
POINT
  5
121
330
116
100
AcDbEntity
  8
Defpoints
 62
     0
100
AcDbPoint
 10
-55.31000000000003
 20
-12.74601838627574
 30
0.0
  0
POINT
  5
2C9
330
116
100
AcDbEntity
  8
Defpoints
 62
     0
100
AcDbPoint
 10
-75.39570391320561
 20
-12.74601838627581
 30
0.0
  0
ENDBLK
  5
118
330
116
100
AcDbEntity
  8
0
100
AcDbBlockEnd
  0
BLOCK
  5
131
330
130
100
AcDbEntity
  8
0
100
AcDbBlockBegin
  2
SW_DOWELSYMBOL_0
 70
     0
 10
0.0
 20
0.0
 30
0.0
  3
SW_DOWELSYMBOL_0
  1
SW_DOWELSYMBOL_0
  0
CIRCLE
  5
133
330
130
100
AcDbEntity
  8
해칭선
 62
     0
100
AcDbCircle
 10
0.0
 20
0.0
 30
0.0
 40
3.000000000000001
  0
HATCH
  5
134
330
130
100
AcDbEntity
  8
0
  6
Continuous
 62
     0
370
     0
100
AcDbHatch
 10
0.0
 20
0.0
 30
0.0
210
0.0
220
0.0
230
1.0
  2
SOLID
 70
     1
 71
     0
 91
        1
 92
        0
 93
        3
 72
     2
 10
0.0
 20
0.0
 40
3.000000000000001
 50
0.0
 51
90.0
 73
     1
 72
     1
 10
0.0
 20
3.000000000000001
 11
0.0
 21
0.0
 72
     1
 10
0.0
 20
0.0
 11
3.000000000000003
 21
0.0
 97
        0
 75
     0
 76
     1
 98
        1
 10
0.0
 20
0.0
  0
HATCH
  5
135
330
130
100
AcDbEntity
  8
0
  6
Continuous
 62
     0
370
     0
100
AcDbHatch
 10
0.0
 20
0.0
 30
0.0
210
0.0
220
0.0
230
1.0
  2
SOLID
 70
     1
 71
     0
 91
        1
 92
        0
 93
        3
 72
     2
 10
0.0
 20
0.0
 40
3.000000000000001
 50
180.0
 51
270.0000000000008
 73
     1
 72
     1
 10
0.0
 20
-3.000000000000001
 11
0.0
 21
0.0
 72
     1
 10
0.0
 20
0.0
 11
-3.000000000000003
 21
0.0
 97
        0
 75
     0
 76
     1
 98
        1
 10
0.0
 20
0.0
  0
ENDBLK
  5
132
330
130
100
AcDbEntity
  8
0
100
AcDbBlockEnd
  0
BLOCK
  5
1FC
330
1FB
100
AcDbEntity
  8
0
100
AcDbBlockBegin
  2
*D8
 70
     1
 10
0.0
 20
0.0
 30
0.0
  3
*D8
  1
*D19
  0
LINE
  5
1FD
330
1FB
100
AcDbEntity
  8
치수문자_일반주서
 62
     0
370
    -2
100
AcDbLine
 10
122.2075719207232
 20
21.09418497419865
 30
0.0
 11
147.6180318575932
 21
-9.6328211867206
 31
0.0
  0
MTEXT
  5
1FE
330
1FB
100
AcDbEntity
  8
치수문자_일반주서
 62
     0
100
AcDbMText
 10
140.03527720752
 20
4.047751970745924
 30
0.0
 40
4.0
 41
0.0
 71
     5
 72
     1
  1
\A1;R1.00 [R0.04]
  7
SLDTEXTSTYLE0
 11
0.6372880340174896
 21
-0.7706256949376417
 31
0.0
 73
     1
 44
1.0
  0
SOLID
  5
1FF
330
1FB
100
AcDbEntity
  8
치수문자_일반주서
 62
     0
100
AcDbTrace
 10
122.7213223840149
 20
21.51904366354364
 30
0.0
 11
121.6938214574314
 21
20.66932628485365
 31
0.0
 12
119.6584197846532
 22
24.17668775394921
 32
0.0
 13
119.6584197846532
 23
24.17668775394921
 33
0.0
  0
LINE
  5
200
330
1FB
100
AcDbEntity
  8
치수문자_일반주서
 62
     0
100
AcDbLine
 10
118.9311317506357
 20
24.94731344888685
 30
0.0
 11
119.1111317506357
 21
24.94731344888685
 31
0.0
  0
LINE
  5
201
330
1FB
100
AcDbEntity
  8
치수문자_일반주서
 62
     0
100
AcDbLine
 10
119.0211317506357
 20
24.85731344888685
 30
0.0
 11
119.0211317506357
 21
25.03731344888685
 31
0.0
  0
POINT
  5
202
330
1FB
100
AcDbEntity
  8
Defpoints
 62
     0
100
AcDbPoint
 10
119.6584197846532
 20
24.17668775394921
 30
0.0
  0
POINT
  5
23E
330
1FB
100
AcDbEntity
  8
Defpoints
 62
     0
100
AcDbPoint
 10
119.0211317506357
 20
24.94731344888685
 30
0.0
  0
ENDBLK
  5
203
330
1FB
100
AcDbEntity
  8
0
100
AcDbBlockEnd
  0
BLOCK
  5
207
330
206
100
AcDbEntity
  8
0
100
AcDbBlockBegin
  2
*D9
 70
     1
 10
0.0
 20
0.0
 30
0.0
  3
*D9
  1
*D20
  0
LINE
  5
208
330
206
100
AcDbEntity
  8
치수문자_일반주서
 62
     0
370
    -2
100
AcDbLine
 10
120.0836317506357
 20
43.94731344888685
 30
0.0
 11
136.2577258430566
 21
43.94731344888685
 31
0.0
  0
LINE
  5
209
330
206
100
AcDbEntity
  8
치수문자_일반주서
 62
     0
370
    -2
100
AcDbLine
 10
120.0836317506357
 20
23.94731344888685
 30
0.0
 11
136.2577258430566
 21
23.94731344888685
 31
0.0
  0
LINE
  5
20A
330
206
100
AcDbEntity
  8
치수문자_일반주서
 62
     0
370
    -2
100
AcDbLine
 10
136.2577258430566
 20
43.94731344888685
 30
0.0
 11
136.2577258430566
 21
23.94731344888685
 31
0.0
  0
LINE
  5
20B
330
206
100
AcDbEntity
  8
치수문자_일반주서
 62
     0
370
    -2
100
AcDbLine
 10
136.2577258430566
 20
47.94731344888685
 30
0.0
 11
136.2577258430566
 21
51.94731344888685
 31
0.0
  0
LINE
  5
20C
330
206
100
AcDbEntity
  8
치수문자_일반주서
 62
     0
370
    -2
100
AcDbLine
 10
136.2577258430566
 20
19.94731344888685
 30
0.0
 11
136.2577258430566
 21
15.94731344888685
 31
0.0
  0
SOLID
  5
20D
330
206
100
AcDbEntity
  8
치수문자_일반주서
 62
     0
100
AcDbTrace
 10
135.59105917639
 20
47.94731344888685
 30
0.0
 11
136.9243925097233
 21
47.94731344888685
 31
0.0
 12
136.2577258430566
 22
43.94731344888685
 32
0.0
 13
136.2577258430566
 23
43.94731344888685
 33
0.0
  0
SOLID
  5
20E
330
206
100
AcDbEntity
  8
치수문자_일반주서
 62
     0
100
AcDbTrace
 10
136.9243925097233
 20
19.94731344888685
 30
0.0
 11
135.59105917639
 21
19.94731344888685
 31
0.0
 12
136.2577258430566
 22
23.94731344888685
 32
0.0
 13
136.2577258430566
 23
23.94731344888685
 33
0.0
  0
MTEXT
  5
20F
330
206
100
AcDbEntity
  8
치수문자_일반주서
 62
     0
100
AcDbMText
 10
133.3827258430566
 20
33.94731344888685
 30
0.0
 40
4.0
 41
0.0
 71
     5
 72
     1
  1
\A1;{%%c20.00}
  7
SLDTEXTSTYLE0
 11
0.0
 21
1.0
 31
0.0
 73
     1
 44
1.0
  0
POINT
  5
210
330
206
100
AcDbEntity
  8
Defpoints
 62
     0
100
AcDbPoint
 10
120.0211317506357
 20
43.94731344888685
 30
0.0
  0
POINT
  5
211
330
206
100
AcDbEntity
  8
Defpoints
 62
     0
100
AcDbPoint
 10
120.0211317506357
 20
23.94731344888685
 30
0.0
  0
POINT
  5
212
330
206
100
AcDbEntity
  8
Defpoints
 62
     0
100
AcDbPoint
 10
136.2577258430566
 20
23.94731344888685
 30
0.0
  0
ENDBLK
  5
213
330
206
100
AcDbEntity
  8
0
100
AcDbBlockEnd
  0
BLOCK
  5
219
330
218
100
AcDbEntity
  8
0
100
AcDbBlockBegin
  2
*D10
 70
     1
 10
0.0
 20
0.0
 30
0.0
  3
*D10
  1
*D10
  0
LINE
  5
21B
330
218
100
AcDbEntity
  8
치수문자_일반주서
 62
     0
370
    -2
100
AcDbLine
 10
16.02113175063572
 20
43.50981344888685
 30
0.0
 11
16.02113175063573
 21
78.60979761696561
 31
0.0
  0
LINE
  5
21C
330
218
100
AcDbEntity
  8
치수문자_일반주서
 62
     0
370
    -2
100
AcDbLine
 10
120.0211317506357
 20
44.00981344888685
 30
0.0
 11
120.0211317506357
 21
78.60979761696561
 31
0.0
  0
LINE
  5
21D
330
218
100
AcDbEntity
  8
치수문자_일반주서
 62
     0
370
    -2
100
AcDbLine
 10
20.02113175063573
 20
78.60979761696561
 30
0.0
 11
116.0211317506357
 21
78.60979761696561
 31
0.0
  0
SOLID
  5
21E
330
218
100
AcDbEntity
  8
치수문자_일반주서
 62
     0
100
AcDbTrace
 10
20.02113175063573
 20
79.27646428363228
 30
0.0
 11
20.02113175063573
 21
77.94313095029894
 31
0.0
 12
16.02113175063573
 22
78.60979761696561
 32
0.0
 13
16.02113175063573
 23
78.60979761696561
 33
0.0
  0
SOLID
  5
21F
330
218
100
AcDbEntity
  8
치수문자_일반주서
 62
     0
100
AcDbTrace
 10
116.0211317506357
 20
77.94313095029894
 30
0.0
 11
116.0211317506357
 21
79.27646428363228
 31
0.0
 12
120.0211317506357
 22
78.60979761696561
 32
0.0
 13
120.0211317506357
 23
78.60979761696561
 33
0.0
  0
MTEXT
  5
220
330
218
100
AcDbEntity
  8
치수문자_일반주서
 62
     0
100
AcDbMText
 10
68.02113175063575
 20
83.48479761696561
 30
0.0
 40
4.0
 41
0.0
 71
     2
 72
     1
  1
\A1;104.00 [4.09]
  7
SLDTEXTSTYLE0
 73
     1
 44
1.0
  0
POINT
  5
221
330
218
100
AcDbEntity
  8
Defpoints
 62
     0
100
AcDbPoint
 10
16.02113175063572
 20
43.44731344888685
 30
0.0
  0
POINT
  5
222
330
218
100
AcDbEntity
  8
Defpoints
 62
     0
100
AcDbPoint
 10
120.0211317506357
 20
43.94731344888685
 30
0.0
  0
POINT
  5
223
330
218
100
AcDbEntity
  8
Defpoints
 62
     0
100
AcDbPoint
 10
120.0211317506357
 20
78.60979761696561
 30
0.0
  0
ENDBLK
  5
21A
330
218
100
AcDbEntity
  8
0
100
AcDbBlockEnd
  0
BLOCK
  5
225
330
224
100
AcDbEntity
  8
0
100
AcDbBlockBegin
  2
*D11
 70
     1
 10
0.0
 20
0.0
 30
0.0
  3
*D11
  1
*D11
  0
LINE
  5
227
330
224
100
AcDbEntity
  8
치수문자_일반주서
 62
     0
370
    -2
100
AcDbLine
 10
82.02101279996386
 20
33.65694216895067
 30
0.0
 11
82.02101279996386
 21
65.23491305159995
 31
0.0
  0
LINE
  5
228
330
224
100
AcDbEntity
  8
치수문자_일반주서
 62
     0
370
    -2
100
AcDbLine
 10
120.0211317506357
 20
44.07231344888685
 30
0.0
 11
120.0211317506357
 21
65.23491305159995
 31
0.0
  0
LINE
  5
229
330
224
100
AcDbEntity
  8
치수문자_일반주서
 62
     0
370
    -2
100
AcDbLine
 10
86.02101279996386
 20
65.23491305159995
 30
0.0
 11
116.0211317506357
 21
65.23491305159995
 31
0.0
  0
SOLID
  5
22A
330
224
100
AcDbEntity
  8
치수문자_일반주서
 62
     0
100
AcDbTrace
 10
86.02101279996386
 20
65.90157971826662
 30
0.0
 11
86.02101279996386
 21
64.56824638493327
 31
0.0
 12
82.02101279996386
 22
65.23491305159995
 32
0.0
 13
82.02101279996386
 23
65.23491305159995
 33
0.0
  0
SOLID
  5
22B
330
224
100
AcDbEntity
  8
치수문자_일반주서
 62
     0
100
AcDbTrace
 10
116.0211317506357
 20
64.56824638493327
 30
0.0
 11
116.0211317506357
 21
65.90157971826662
 31
0.0
 12
120.0211317506357
 22
65.23491305159995
 32
0.0
 13
120.0211317506357
 23
65.23491305159995
 33
0.0
  0
MTEXT
  5
22C
330
224
100
AcDbEntity
  8
치수문자_일반주서
 62
     0
100
AcDbMText
 10
101.0891571575877
 20
70.10991305159995
 30
0.0
 40
4.0
 41
0.0
 71
     2
 72
     1
  1
\A1;38.00 [1.50]
  7
SLDTEXTSTYLE0
 73
     1
 44
1.0
  0
POINT
  5
22D
330
224
100
AcDbEntity
  8
Defpoints
 62
     0
100
AcDbPoint
 10
82.02101279996386
 20
33.59444216895067
 30
0.0
  0
POINT
  5
22E
330
224
100
AcDbEntity
  8
Defpoints
 62
     0
100
AcDbPoint
 10
120.0211317506357
 20
44.00981344888685
 30
0.0
  0
POINT
  5
22F
330
224
100
AcDbEntity
  8
Defpoints
 62
     0
100
AcDbPoint
 10
120.0211317506357
 20
65.23491305159995
 30
0.0
  0
ENDBLK
  5
226
330
224
100
AcDbEntity
  8
0
100
AcDbBlockEnd
  0
BLOCK
  5
231
330
230
100
AcDbEntity
  8
0
100
AcDbBlockBegin
  2
*D12
 70
     1
 10
0.0
 20
0.0
 30
0.0
  3
*D12
  1
*D12
  0
LINE
  5
233
330
230
100
AcDbEntity
  8
치수문자_일반주서
 62
     0
370
    -2
100
AcDbLine
 10
16.45863175063572
 20
43.94731344888685
 30
0.0
 11
4.87499999999998
 21
43.94731344888681
 31
0.0
  0
LINE
  5
234
330
230
100
AcDbEntity
  8
치수문자_일반주서
 62
     0
370
    -2
100
AcDbLine
 10
16.45863175063572
 20
23.94731344888685
 30
0.0
 11
4.87500000000005
 21
23.94731344888681
 31
0.0
  0
LINE
  5
235
330
230
100
AcDbEntity
  8
치수문자_일반주서
 62
     0
370
    -2
100
AcDbLine
 10
4.87499999999998
 20
43.94731344888681
 30
0.0
 11
4.87500000000005
 21
23.94731344888681
 31
0.0
  0
LINE
  5
236
330
230
100
AcDbEntity
  8
치수문자_일반주서
 62
     0
370
    -2
100
AcDbLine
 10
4.874999999999965
 20
47.94731344888681
 30
0.0
 11
4.874999999999951
 21
51.94731344888681
 31
0.0
  0
LINE
  5
237
330
230
100
AcDbEntity
  8
치수문자_일반주서
 62
     0
370
    -2
100
AcDbLine
 10
4.875000000000064
 20
19.94731344888681
 30
0.0
 11
4.875000000000078
 21
15.94731344888681
 31
0.0
  0
SOLID
  5
238
330
230
100
AcDbEntity
  8
치수문자_일반주서
 62
     0
100
AcDbTrace
 10
4.208333333333298
 20
47.94731344888681
 30
0.0
 11
5.541666666666632
 21
47.94731344888681
 31
0.0
 12
4.87499999999998
 22
43.94731344888681
 32
0.0
 13
4.87499999999998
 23
43.94731344888681
 33
0.0
  0
SOLID
  5
239
330
230
100
AcDbEntity
  8
치수문자_일반주서
 62
     0
100
AcDbTrace
 10
5.541666666666731
 20
19.94731344888681
 30
0.0
 11
4.208333333333397
 21
19.94731344888681
 31
0.0
 12
4.87500000000005
 22
23.94731344888681
 32
0.0
 13
4.87500000000005
 23
23.94731344888681
 33
0.0
  0
MTEXT
  5
23A
330
230
100
AcDbEntity
  8
치수문자_일반주서
 62
     0
100
AcDbMText
 10
0.0000000000000142
 20
33.94731344888684
 30
0.0
 40
4.0
 41
0.0
 71
     2
 72
     1
  1
\A1;%%c20.00 [0.79]
  7
SLDTEXTSTYLE0
 11
-3.508304757815495E-15
 21
1.0
 31
0.0
 73
     1
 44
1.0
  0
POINT
  5
23B
330
230
100
AcDbEntity
  8
Defpoints
 62
     0
100
AcDbPoint
 10
16.52113175063572
 20
43.94731344888685
 30
0.0
  0
POINT
  5
23C
330
230
100
AcDbEntity
  8
Defpoints
 62
     0
100
AcDbPoint
 10
16.52113175063572
 20
23.94731344888685
 30
0.0
  0
POINT
  5
23D
330
230
100
AcDbEntity
  8
Defpoints
 62
     0
100
AcDbPoint
 10
4.875000000000057
 20
23.94731344888681
 30
0.0
  0
ENDBLK
  5
232
330
230
100
AcDbEntity
  8
0
100
AcDbBlockEnd
  0
BLOCK
  5
28C
330
28B
100
AcDbEntity
  8
0
100
AcDbBlockBegin
  2
*D13
 70
     1
 10
0.0
 20
0.0
 30
0.0
  3
*D13
  1
*D13
  0
LINE
  5
28E
330
28B
100
AcDbEntity
  8
치수문자_일반주서
 62
     0
370
    -2
100
AcDbLine
 10
6.549075608979756
 20
115.8620993094697
 30
0.0
 11
6.549075608979763
 21
150.9620834775484
 31
0.0
  0
LINE
  5
28F
330
28B
100
AcDbEntity
  8
치수문자_일반주서
 62
     0
370
    -2
100
AcDbLine
 10
110.5490756089798
 20
116.3620993094697
 30
0.0
 11
110.5490756089798
 21
150.9620834775484
 31
0.0
  0
LINE
  5
290
330
28B
100
AcDbEntity
  8
치수문자_일반주서
 62
     0
370
    -2
100
AcDbLine
 10
10.54907560897976
 20
150.9620834775484
 30
0.0
 11
106.5490756089798
 21
150.9620834775484
 31
0.0
  0
SOLID
  5
291
330
28B
100
AcDbEntity
  8
치수문자_일반주서
 62
     0
100
AcDbTrace
 10
10.54907560897976
 20
151.6287501442151
 30
0.0
 11
10.54907560897976
 21
150.2954168108818
 31
0.0
 12
6.549075608979763
 22
150.9620834775484
 32
0.0
 13
6.549075608979763
 23
150.9620834775484
 33
0.0
  0
SOLID
  5
292
330
28B
100
AcDbEntity
  8
치수문자_일반주서
 62
     0
100
AcDbTrace
 10
106.5490756089798
 20
150.2954168108818
 30
0.0
 11
106.5490756089798
 21
151.6287501442151
 31
0.0
 12
110.5490756089798
 22
150.9620834775484
 32
0.0
 13
110.5490756089798
 23
150.9620834775484
 33
0.0
  0
MTEXT
  5
293
330
28B
100
AcDbEntity
  8
치수문자_일반주서
 62
     0
100
AcDbMText
 10
58.54907560897978
 20
155.8370834775484
 30
0.0
 40
4.0
 41
0.0
 71
     2
 72
     1
  1
\A1;104.00 [4.09]
  7
SLDTEXTSTYLE0
 73
     1
 44
1.0
  0
POINT
  5
294
330
28B
100
AcDbEntity
  8
Defpoints
 62
     0
100
AcDbPoint
 10
6.549075608979756
 20
115.7995993094697
 30
0.0
  0
POINT
  5
295
330
28B
100
AcDbEntity
  8
Defpoints
 62
     0
100
AcDbPoint
 10
110.5490756089798
 20
116.2995993094697
 30
0.0
  0
POINT
  5
296
330
28B
100
AcDbEntity
  8
Defpoints
 62
     0
100
AcDbPoint
 10
110.5490756089798
 20
150.9620834775484
 30
0.0
  0
ENDBLK
  5
28D
330
28B
100
AcDbEntity
  8
0
100
AcDbBlockEnd
  0
BLOCK
  5
298
330
297
100
AcDbEntity
  8
0
100
AcDbBlockBegin
  2
*D14
 70
     1
 10
0.0
 20
0.0
 30
0.0
  3
*D14
  1
*D14
  0
LINE
  5
29A
330
297
100
AcDbEntity
  8
치수문자_일반주서
 62
     0
370
    -2
100
AcDbLine
 10
72.54895665830789
 20
106.0092280295335
 30
0.0
 11
72.54895665830789
 21
137.5871989121828
 31
0.0
  0
LINE
  5
29B
330
297
100
AcDbEntity
  8
치수문자_일반주서
 62
     0
370
    -2
100
AcDbLine
 10
110.5490756089798
 20
116.4245993094697
 30
0.0
 11
110.5490756089798
 21
137.5871989121828
 31
0.0
  0
LINE
  5
29C
330
297
100
AcDbEntity
  8
치수문자_일반주서
 62
     0
370
    -2
100
AcDbLine
 10
76.54895665830789
 20
137.5871989121828
 30
0.0
 11
106.5490756089798
 21
137.5871989121828
 31
0.0
  0
SOLID
  5
29D
330
297
100
AcDbEntity
  8
치수문자_일반주서
 62
     0
100
AcDbTrace
 10
76.54895665830789
 20
138.2538655788494
 30
0.0
 11
76.54895665830789
 21
136.9205322455161
 31
0.0
 12
72.54895665830789
 22
137.5871989121828
 32
0.0
 13
72.54895665830789
 23
137.5871989121828
 33
0.0
  0
SOLID
  5
29E
330
297
100
AcDbEntity
  8
치수문자_일반주서
 62
     0
100
AcDbTrace
 10
106.5490756089798
 20
136.9205322455161
 30
0.0
 11
106.5490756089798
 21
138.2538655788494
 31
0.0
 12
110.5490756089798
 22
137.5871989121828
 32
0.0
 13
110.5490756089798
 23
137.5871989121828
 33
0.0
  0
MTEXT
  5
29F
330
297
100
AcDbEntity
  8
치수문자_일반주서
 62
     0
100
AcDbMText
 10
91.61710101593175
 20
142.4621989121828
 30
0.0
 40
4.0
 41
0.0
 71
     2
 72
     1
  1
\A1;38.00 [1.50]
  7
SLDTEXTSTYLE0
 73
     1
 44
1.0
  0
POINT
  5
2A0
330
297
100
AcDbEntity
  8
Defpoints
 62
     0
100
AcDbPoint
 10
72.54895665830789
 20
105.9467280295335
 30
0.0
  0
POINT
  5
2A1
330
297
100
AcDbEntity
  8
Defpoints
 62
     0
100
AcDbPoint
 10
110.5490756089798
 20
116.3620993094697
 30
0.0
  0
POINT
  5
2A2
330
297
100
AcDbEntity
  8
Defpoints
 62
     0
100
AcDbPoint
 10
110.5490756089798
 20
137.5871989121828
 30
0.0
  0
ENDBLK
  5
299
330
297
100
AcDbEntity
  8
0
100
AcDbBlockEnd
  0
BLOCK
  5
2A4
330
2A3
100
AcDbEntity
  8
0
100
AcDbBlockBegin
  2
*D15
 70
     1
 10
0.0
 20
0.0
 30
0.0
  3
*D15
  1
*D15
  0
LINE
  5
2A6
330
2A3
100
AcDbEntity
  8
치수문자_일반주서
 62
     0
370
    -2
100
AcDbLine
 10
6.986575608979756
 20
116.2995993094697
 30
0.0
 11
-4.597056141655989
 21
116.2995993094696
 31
0.0
  0
LINE
  5
2A7
330
2A3
100
AcDbEntity
  8
치수문자_일반주서
 62
     0
370
    -2
100
AcDbLine
 10
6.986575608979756
 20
96.29959930946967
 30
0.0
 11
-4.597056141655919
 21
96.29959930946963
 31
0.0
  0
LINE
  5
2A8
330
2A3
100
AcDbEntity
  8
치수문자_일반주서
 62
     0
370
    -2
100
AcDbLine
 10
-4.597056141655989
 20
116.2995993094696
 30
0.0
 11
-4.597056141655919
 21
96.29959930946963
 31
0.0
  0
LINE
  5
2A9
330
2A3
100
AcDbEntity
  8
치수문자_일반주서
 62
     0
370
    -2
100
AcDbLine
 10
-4.597056141656004
 20
120.2995993094696
 30
0.0
 11
-4.597056141656018
 21
124.2995993094696
 31
0.0
  0
LINE
  5
2AA
330
2A3
100
AcDbEntity
  8
치수문자_일반주서
 62
     0
370
    -2
100
AcDbLine
 10
-4.597056141655905
 20
92.29959930946963
 30
0.0
 11
-4.597056141655891
 21
88.29959930946963
 31
0.0
  0
SOLID
  5
2AB
330
2A3
100
AcDbEntity
  8
치수문자_일반주서
 62
     0
100
AcDbTrace
 10
-5.263722808322671
 20
120.2995993094696
 30
0.0
 11
-3.930389474989337
 21
120.2995993094696
 31
0.0
 12
-4.597056141655989
 22
116.2995993094696
 32
0.0
 13
-4.597056141655989
 23
116.2995993094696
 33
0.0
  0
SOLID
  5
2AC
330
2A3
100
AcDbEntity
  8
치수문자_일반주서
 62
     0
100
AcDbTrace
 10
-3.930389474989239
 20
92.29959930946963
 30
0.0
 11
-5.263722808322572
 21
92.29959930946963
 31
0.0
 12
-4.597056141655919
 22
96.29959930946963
 32
0.0
 13
-4.597056141655919
 23
96.29959930946963
 33
0.0
  0
MTEXT
  5
2AD
330
2A3
100
AcDbEntity
  8
치수문자_일반주서
 62
     0
100
AcDbMText
 10
-9.472056141655955
 20
106.2995993094697
 30
0.0
 40
4.0
 41
0.0
 71
     2
 72
     1
  1
\A1;%%c20.00 [0.79]
  7
SLDTEXTSTYLE0
 11
-3.508304757815495E-15
 21
1.0
 31
0.0
 73
     1
 44
1.0
  0
POINT
  5
2AE
330
2A3
100
AcDbEntity
  8
Defpoints
 62
     0
100
AcDbPoint
 10
7.049075608979756
 20
116.2995993094697
 30
0.0
  0
POINT
  5
2AF
330
2A3
100
AcDbEntity
  8
Defpoints
 62
     0
100
AcDbPoint
 10
7.049075608979756
 20
96.29959930946967
 30
0.0
  0
POINT
  5
2B0
330
2A3
100
AcDbEntity
  8
Defpoints
 62
     0
100
AcDbPoint
 10
-4.597056141655919
 20
96.29959930946963
 30
0.0
  0
ENDBLK
  5
2A5
330
2A3
100
AcDbEntity
  8
0
100
AcDbBlockEnd
  0
BLOCK
  5
2B2
330
2B1
100
AcDbEntity
  8
0
100
AcDbBlockBegin
  2
*D16
 70
     1
 10
0.0
 20
0.0
 30
0.0
  3
*D16
  1
*D16
  0
LINE
  5
2B4
330
2B1
100
AcDbEntity
  8
치수문자_일반주서
 62
     0
370
    -2
100
AcDbLine
 10
112.7355157790672
 20
93.44647083478144
 30
0.0
 11
138.1459757159369
 21
62.71946467386201
 31
0.0
  0
MTEXT
  5
2B5
330
2B1
100
AcDbEntity
  8
치수문자_일반주서
 62
     0
100
AcDbMText
 10
130.5632210658638
 20
76.40003783132859
 30
0.0
 40
4.0
 41
0.0
 71
     5
 72
     1
  1
\A1;R1.00 [R0.04]
  7
SLDTEXTSTYLE0
 11
0.6372880340174844
 21
-0.7706256949376459
 31
0.0
 73
     1
 44
1.0
  0
SOLID
  5
2B6
330
2B1
100
AcDbEntity
  8
치수문자_일반주서
 62
     0
100
AcDbTrace
 10
113.2492662423589
 20
93.87132952412642
 30
0.0
 11
112.2217653157754
 21
93.02161214543645
 31
0.0
 12
110.1863636429973
 22
96.52897361453202
 32
0.0
 13
110.1863636429973
 23
96.52897361453202
 33
0.0
  0
LINE
  5
2B7
330
2B1
100
AcDbEntity
  8
치수문자_일반주서
 62
     0
100
AcDbLine
 10
109.4590756089798
 20
97.29959930946967
 30
0.0
 11
109.6390756089798
 21
97.29959930946967
 31
0.0
  0
LINE
  5
2B8
330
2B1
100
AcDbEntity
  8
치수문자_일반주서
 62
     0
100
AcDbLine
 10
109.5490756089798
 20
97.20959930946967
 30
0.0
 11
109.5490756089798
 21
97.38959930946967
 31
0.0
  0
POINT
  5
2B9
330
2B1
100
AcDbEntity
  8
Defpoints
 62
     0
100
AcDbPoint
 10
110.1863636429973
 20
96.52897361453202
 30
0.0
  0
POINT
  5
2BA
330
2B1
100
AcDbEntity
  8
Defpoints
 62
     0
100
AcDbPoint
 10
109.5490756089798
 20
97.29959930946967
 30
0.0
  0
ENDBLK
  5
2B3
330
2B1
100
AcDbEntity
  8
0
100
AcDbBlockEnd
  0
BLOCK
  5
2BC
330
2BB
100
AcDbEntity
  8
0
100
AcDbBlockBegin
  2
*D17
 70
     1
 10
0.0
 20
0.0
 30
0.0
  3
*D17
  1
*D17
  0
LINE
  5
2BE
330
2BB
100
AcDbEntity
  8
치수문자_일반주서
 62
     0
370
    -2
100
AcDbLine
 10
110.6115756089798
 20
116.2995993094697
 30
0.0
 11
126.7856697014006
 21
116.2995993094697
 31
0.0
  0
LINE
  5
2BF
330
2BB
100
AcDbEntity
  8
치수문자_일반주서
 62
     0
370
    -2
100
AcDbLine
 10
110.6115756089798
 20
96.29959930946967
 30
0.0
 11
126.7856697014006
 21
96.29959930946967
 31
0.0
  0
LINE
  5
2C0
330
2BB
100
AcDbEntity
  8
치수문자_일반주서
 62
     0
370
    -2
100
AcDbLine
 10
126.7856697014006
 20
116.2995993094697
 30
0.0
 11
126.7856697014006
 21
96.29959930946967
 31
0.0
  0
LINE
  5
2C1
330
2BB
100
AcDbEntity
  8
치수문자_일반주서
 62
     0
370
    -2
100
AcDbLine
 10
126.7856697014006
 20
120.2995993094697
 30
0.0
 11
126.7856697014006
 21
124.2995993094697
 31
0.0
  0
LINE
  5
2C2
330
2BB
100
AcDbEntity
  8
치수문자_일반주서
 62
     0
370
    -2
100
AcDbLine
 10
126.7856697014006
 20
92.29959930946967
 30
0.0
 11
126.7856697014006
 21
88.29959930946967
 31
0.0
  0
SOLID
  5
2C3
330
2BB
100
AcDbEntity
  8
치수문자_일반주서
 62
     0
100
AcDbTrace
 10
126.119003034734
 20
120.2995993094697
 30
0.0
 11
127.4523363680673
 21
120.2995993094697
 31
0.0
 12
126.7856697014006
 22
116.2995993094697
 32
0.0
 13
126.7856697014006
 23
116.2995993094697
 33
0.0
  0
SOLID
  5
2C4
330
2BB
100
AcDbEntity
  8
치수문자_일반주서
 62
     0
100
AcDbTrace
 10
127.4523363680673
 20
92.29959930946967
 30
0.0
 11
126.119003034734
 21
92.29959930946967
 31
0.0
 12
126.7856697014006
 22
96.29959930946967
 32
0.0
 13
126.7856697014006
 23
96.29959930946967
 33
0.0
  0
MTEXT
  5
2C5
330
2BB
100
AcDbEntity
  8
치수문자_일반주서
 62
     0
100
AcDbMText
 10
123.9106697014006
 20
106.2995993094697
 30
0.0
 40
4.0
 41
0.0
 71
     5
 72
     1
  1
\A1;{%%c20.00}
  7
SLDTEXTSTYLE0
 11
0.0
 21
1.0
 31
0.0
 73
     1
 44
1.0
  0
POINT
  5
2C6
330
2BB
100
AcDbEntity
  8
Defpoints
 62
     0
100
AcDbPoint
 10
110.5490756089798
 20
116.2995993094697
 30
0.0
  0
POINT
  5
2C7
330
2BB
100
AcDbEntity
  8
Defpoints
 62
     0
100
AcDbPoint
 10
110.5490756089798
 20
96.29959930946967
 30
0.0
  0
POINT
  5
2C8
330
2BB
100
AcDbEntity
  8
Defpoints
 62
     0
100
AcDbPoint
 10
126.7856697014006
 20
96.29959930946967
 30
0.0
  0
ENDBLK
  5
2BD
330
2BB
100
AcDbEntity
  8
0
100
AcDbBlockEnd
  0
BLOCK
  5
38E
330
38D
100
AcDbEntity
  8
0
100
AcDbBlockBegin
  2
*D19
 70
     1
 10
0.0
 20
0.0
 30
0.0
  3
*D19
  1
*D19
  0
LINE
  5
390
330
38D
100
AcDbEntity
  8
치수문자_일반주서
 62
     0
370
    -2
100
AcDbLine
 10
147.6162573954451
 20
59.450789002536
 30
0.0
 11
163.5996039041343
 21
59.45078900253606
 31
0.0
  0
LINE
  5
391
330
38D
100
AcDbEntity
  8
치수문자_일반주서
 62
     0
370
    -2
100
AcDbLine
 10
147.6162573954451
 20
40.400789002536
 30
0.0
 11
163.5996039041343
 21
40.40078900253606
 31
0.0
  0
LINE
  5
392
330
38D
100
AcDbEntity
  8
치수문자_일반주서
 62
     0
370
    -2
100
AcDbLine
 10
163.5996039041343
 20
59.45078900253606
 30
0.0
 11
163.5996039041341
 21
95.20078900253606
 31
0.0
  0
LINE
  5
393
330
38D
100
AcDbEntity
  8
치수문자_일반주서
 62
     0
370
    -2
100
AcDbLine
 10
163.5996039041343
 20
55.45078900253606
 30
0.0
 11
163.5996039041343
 21
44.40078900253606
 31
0.0
  0
SOLID
  5
394
330
38D
100
AcDbEntity
  8
치수문자_일반주서
 62
     0
100
AcDbTrace
 10
164.2662705708009
 20
55.45078900253606
 30
0.0
 11
162.9329372374676
 21
55.45078900253606
 31
0.0
 12
163.5996039041343
 22
59.45078900253606
 32
0.0
 13
163.5996039041343
 23
59.45078900253606
 33
0.0
  0
SOLID
  5
395
330
38D
100
AcDbEntity
  8
치수문자_일반주서
 62
     0
100
AcDbTrace
 10
162.9329372374677
 20
44.40078900253606
 30
0.0
 11
164.266270570801
 21
44.40078900253606
 31
0.0
 12
163.5996039041343
 22
40.40078900253606
 32
0.0
 13
163.5996039041343
 23
40.40078900253606
 33
0.0
  0
MTEXT
  5
396
330
38D
100
AcDbEntity
  8
치수문자_일반주서
 62
     0
100
AcDbMText
 10
158.7246039041342
 20
79.32578900253604
 30
0.0
 40
4.0
 41
0.0
 71
     2
 72
     1
  1
\A1;%%c19.05 [0.75]
  7
SLDTEXTSTYLE0
 11
-2.983906501879686E-15
 21
1.0
 31
0.0
 73
     1
 44
1.0
  0
POINT
  5
397
330
38D
100
AcDbEntity
  8
Defpoints
 62
     0
100
AcDbPoint
 10
147.5537573954451
 20
59.450789002536
 30
0.0
  0
POINT
  5
398
330
38D
100
AcDbEntity
  8
Defpoints
 62
     0
100
AcDbPoint
 10
147.5537573954451
 20
40.400789002536
 30
0.0
  0
POINT
  5
399
330
38D
100
AcDbEntity
  8
Defpoints
 62
     0
100
AcDbPoint
 10
163.5996039041343
 20
40.40078900253606
 30
0.0
  0
ENDBLK
  5
38F
330
38D
100
AcDbEntity
  8
0
100
AcDbBlockEnd
  0
BLOCK
  5
39B
330
39A
100
AcDbEntity
  8
0
100
AcDbBlockBegin
  2
*D20
 70
     1
 10
0.0
 20
0.0
 30
0.0
  3
*D20
  1
*D20
  0
LINE
  5
39D
330
39A
100
AcDbEntity
  8
치수문자_일반주서
 62
     0
370
    -2
100
AcDbLine
 10
147.5537573954451
 20
59.513289002536
 30
0.0
 11
147.5537573954451
 21
85.77570496099221
 31
0.0
  0
LINE
  5
39E
330
39A
100
AcDbEntity
  8
치수문자_일반주서
 62
     0
370
    -2
100
AcDbLine
 10
90.4037573954451
 20
59.51043887679267
 30
0.0
 11
90.4037573954451
 21
85.77570496099221
 31
0.0
  0
LINE
  5
39F
330
39A
100
AcDbEntity
  8
치수문자_일반주서
 62
     0
370
    -2
100
AcDbLine
 10
143.5537573954451
 20
85.77570496099221
 30
0.0
 11
94.4037573954451
 21
85.77570496099221
 31
0.0
  0
SOLID
  5
3A0
330
39A
100
AcDbEntity
  8
치수문자_일반주서
 62
     0
100
AcDbTrace
 10
143.5537573954451
 20
85.10903829432554
 30
0.0
 11
143.5537573954451
 21
86.44237162765889
 31
0.0
 12
147.5537573954451
 22
85.77570496099221
 32
0.0
 13
147.5537573954451
 23
85.77570496099221
 33
0.0
  0
SOLID
  5
3A1
330
39A
100
AcDbEntity
  8
치수문자_일반주서
 62
     0
100
AcDbTrace
 10
94.4037573954451
 20
86.44237162765889
 30
0.0
 11
94.4037573954451
 21
85.10903829432554
 31
0.0
 12
90.4037573954451
 22
85.77570496099221
 32
0.0
 13
90.4037573954451
 23
85.77570496099221
 33
0.0
  0
MTEXT
  5
3A2
330
39A
100
AcDbEntity
  8
치수문자_일반주서
 62
     0
100
AcDbMText
 10
118.9787573954451
 20
90.65070496099221
 30
0.0
 40
4.0
 41
0.0
 71
     2
 72
     1
  1
\A1;57.15 [2.25]
  7
SLDTEXTSTYLE0
 73
     1
 44
1.0
  0
POINT
  5
3A3
330
39A
100
AcDbEntity
  8
Defpoints
 62
     0
100
AcDbPoint
 10
147.5537573954451
 20
59.450789002536
 30
0.0
  0
POINT
  5
3A4
330
39A
100
AcDbEntity
  8
Defpoints
 62
     0
100
AcDbPoint
 10
90.4037573954451
 20
59.44793887679267
 30
0.0
  0
POINT
  5
3A5
330
39A
100
AcDbEntity
  8
Defpoints
 62
     0
100
AcDbPoint
 10
90.4037573954451
 20
85.77570496099221
 30
0.0
  0
ENDBLK
  5
39C
330
39A
100
AcDbEntity
  8
0
100
AcDbBlockEnd
  0
BLOCK
  5
3A7
330
3A6
100
AcDbEntity
  8
0
100
AcDbBlockBegin
  2
*D21
 70
     1
 10
0.0
 20
0.0
 30
0.0
  3
*D21
  1
*D21
  0
LINE
  5
3A9
330
3A6
100
AcDbEntity
  8
치수문자_일반주서
 62
     0
370
    -2
100
AcDbLine
 10
147.5537573954451
 20
59.513289002536
 30
0.0
 11
147.5537573954451
 21
102.9910454908317
 31
0.0
  0
LINE
  5
3AA
330
3A6
100
AcDbEntity
  8
치수문자_일반주서
 62
     0
370
    -2
100
AcDbLine
 10
20.55375739544512
 20
57.608289002536
 30
0.0
 11
20.55375739544512
 21
102.9910454908317
 31
0.0
  0
LINE
  5
3AB
330
3A6
100
AcDbEntity
  8
치수문자_일반주서
 62
     0
370
    -2
100
AcDbLine
 10
143.5537573954451
 20
102.9910454908317
 30
0.0
 11
24.55375739544512
 21
102.9910454908317
 31
0.0
  0
SOLID
  5
3AC
330
3A6
100
AcDbEntity
  8
치수문자_일반주서
 62
     0
100
AcDbTrace
 10
143.5537573954451
 20
102.324378824165
 30
0.0
 11
143.5537573954451
 21
103.6577121574984
 31
0.0
 12
147.5537573954451
 22
102.9910454908317
 32
0.0
 13
147.5537573954451
 23
102.9910454908317
 33
0.0
  0
SOLID
  5
3AD
330
3A6
100
AcDbEntity
  8
치수문자_일반주서
 62
     0
100
AcDbTrace
 10
24.55375739544512
 20
103.6577121574984
 30
0.0
 11
24.55375739544512
 21
102.324378824165
 31
0.0
 12
20.55375739544512
 22
102.9910454908317
 32
0.0
 13
20.55375739544512
 23
102.9910454908317
 33
0.0
  0
MTEXT
  5
3AE
330
3A6
100
AcDbEntity
  8
치수문자_일반주서
 62
     0
100
AcDbMText
 10
84.05375739544512
 20
107.8660454908317
 30
0.0
 40
4.0
 41
0.0
 71
     2
 72
     1
  1
\A1;127.00 [5.00]
  7
SLDTEXTSTYLE0
 73
     1
 44
1.0
  0
POINT
  5
3AF
330
3A6
100
AcDbEntity
  8
Defpoints
 62
     0
100
AcDbPoint
 10
147.5537573954451
 20
59.450789002536
 30
0.0
  0
POINT
  5
3B0
330
3A6
100
AcDbEntity
  8
Defpoints
 62
     0
100
AcDbPoint
 10
20.55375739544512
 20
57.545789002536
 30
0.0
  0
POINT
  5
3B1
330
3A6
100
AcDbEntity
  8
Defpoints
 62
     0
100
AcDbPoint
 10
20.55375739544512
 20
102.9910454908317
 30
0.0
  0
ENDBLK
  5
3A8
330
3A6
100
AcDbEntity
  8
0
100
AcDbBlockEnd
  0
BLOCK
  5
3B3
330
3B2
100
AcDbEntity
  8
0
100
AcDbBlockBegin
  2
*D22
 70
     1
 10
0.0
 20
0.0
 30
0.0
  3
*D22
  1
*D22
  0
LINE
  5
3B5
330
3B2
100
AcDbEntity
  8
치수문자_일반주서
 62
     0
370
    -2
100
AcDbLine
 10
22.39625739544511
 20
59.45078900253601
 30
0.0
 11
4.875000000000076
 21
59.45078900253594
 31
0.0
  0
LINE
  5
3B6
330
3B2
100
AcDbEntity
  8
치수문자_일반주서
 62
     0
370
    -2
100
AcDbLine
 10
22.39625739544511
 20
40.40078900253599
 30
0.0
 11
4.875000000000143
 21
40.40078900253593
 31
0.0
  0
LINE
  5
3B7
330
3B2
100
AcDbEntity
  8
치수문자_일반주서
 62
     0
370
    -2
100
AcDbLine
 10
4.875000000000076
 20
59.45078900253594
 30
0.0
 11
4.874999999999951
 21
95.20078900253594
 31
0.0
  0
LINE
  5
3B8
330
3B2
100
AcDbEntity
  8
치수문자_일반주서
 62
     0
370
    -2
100
AcDbLine
 10
4.875000000000091
 20
55.45078900253594
 30
0.0
 11
4.875000000000129
 21
44.40078900253593
 31
0.0
  0
SOLID
  5
3B9
330
3B2
100
AcDbEntity
  8
치수문자_일반주서
 62
     0
100
AcDbTrace
 10
5.541666666666758
 20
55.45078900253594
 30
0.0
 11
4.208333333333424
 21
55.45078900253594
 31
0.0
 12
4.875000000000076
 22
59.45078900253594
 32
0.0
 13
4.875000000000076
 23
59.45078900253594
 33
0.0
  0
SOLID
  5
3BA
330
3B2
100
AcDbEntity
  8
치수문자_일반주서
 62
     0
100
AcDbTrace
 10
4.208333333333462
 20
44.40078900253593
 30
0.0
 11
5.541666666666796
 21
44.40078900253593
 31
0.0
 12
4.875000000000143
 22
40.40078900253593
 32
0.0
 13
4.875000000000143
 23
40.40078900253593
 33
0.0
  0
MTEXT
  5
3BB
330
3B2
100
AcDbEntity
  8
치수문자_일반주서
 62
     0
100
AcDbMText
 10
0.0000000000000062
 20
79.32578900253593
 30
0.0
 40
4.0
 41
0.0
 71
     2
 72
     1
  1
\A1;%%c19.05 [0.75]
  7
SLDTEXTSTYLE0
 11
-3.496765431890255E-15
 21
1.0
 31
0.0
 73
     1
 44
1.0
  0
POINT
  5
3BC
330
3B2
100
AcDbEntity
  8
Defpoints
 62
     0
100
AcDbPoint
 10
22.45875739544511
 20
59.45078900253601
 30
0.0
  0
POINT
  5
3BD
330
3B2
100
AcDbEntity
  8
Defpoints
 62
     0
100
AcDbPoint
 10
22.45875739544511
 20
40.40078900253599
 30
0.0
  0
POINT
  5
3BE
330
3B2
100
AcDbEntity
  8
Defpoints
 62
     0
100
AcDbPoint
 10
4.875000000000135
 20
40.40078900253593
 30
0.0
  0
ENDBLK
  5
3B4
330
3B2
100
AcDbEntity
  8
0
100
AcDbBlockEnd
  0
BLOCK
  5
400
330
3FF
100
AcDbEntity
  8
0
100
AcDbBlockBegin
  2
*D23
 70
     1
 10
0.0
 20
0.0
 30
0.0
  3
*D23
  1
*D23
  0
LINE
  5
402
330
3FF
100
AcDbEntity
  8
치수문자_일반주서
 62
     0
370
    -2
100
AcDbLine
 10
69.21249999999975
 20
9.478981613724244
 30
0.0
 11
85.19584650868886
 21
9.478981613724304
 31
0.0
  0
LINE
  5
403
330
3FF
100
AcDbEntity
  8
치수문자_일반주서
 62
     0
370
    -2
100
AcDbLine
 10
69.21249999999975
 20
-9.571018386275753
 30
0.0
 11
85.19584650868893
 21
-9.571018386275693
 31
0.0
  0
LINE
  5
404
330
3FF
100
AcDbEntity
  8
치수문자_일반주서
 62
     0
370
    -2
100
AcDbLine
 10
85.19584650868886
 20
9.478981613724304
 30
0.0
 11
85.19584650868873
 21
44.9789816137243
 31
0.0
  0
LINE
  5
405
330
3FF
100
AcDbEntity
  8
치수문자_일반주서
 62
     0
370
    -2
100
AcDbLine
 10
85.19584650868887
 20
5.478981613724304
 30
0.0
 11
85.19584650868892
 21
-5.571018386275693
 31
0.0
  0
SOLID
  5
406
330
3FF
100
AcDbEntity
  8
치수문자_일반주서
 62
     0
100
AcDbTrace
 10
85.86251317535555
 20
5.478981613724307
 30
0.0
 11
84.5291798420222
 21
5.478981613724302
 31
0.0
 12
85.19584650868886
 22
9.478981613724304
 32
0.0
 13
85.19584650868886
 23
9.478981613724304
 33
0.0
  0
SOLID
  5
407
330
3FF
100
AcDbEntity
  8
치수문자_일반주서
 62
     0
100
AcDbTrace
 10
84.52917984202224
 20
-5.571018386275695
 30
0.0
 11
85.86251317535559
 21
-5.57101838627569
 31
0.0
 12
85.19584650868893
 22
-9.571018386275693
 32
0.0
 13
85.19584650868893
 23
-9.571018386275693
 33
0.0
  0
MTEXT
  5
408
330
3FF
100
AcDbEntity
  8
치수문자_일반주서
 62
     0
100
AcDbMText
 10
80.32084650868879
 20
29.35398161372429
 30
0.0
 40
4.0
 41
0.0
 71
     2
 72
     1
  1
\A1;%%c19.05 [3/4]
  7
SLDTEXTSTYLE0
 11
-3.729883127349608E-15
 21
1.0
 31
0.0
 73
     1
 44
1.0
  0
POINT
  5
409
330
3FF
100
AcDbEntity
  8
Defpoints
 62
     0
100
AcDbPoint
 10
69.14999999999975
 20
9.478981613724244
 30
0.0
  0
POINT
  5
40A
330
3FF
100
AcDbEntity
  8
Defpoints
 62
     0
100
AcDbPoint
 10
69.14999999999975
 20
-9.571018386275753
 30
0.0
  0
POINT
  5
40B
330
3FF
100
AcDbEntity
  8
Defpoints
 62
     0
100
AcDbPoint
 10
85.19584650868893
 20
-9.571018386275693
 30
0.0
  0
ENDBLK
  5
401
330
3FF
100
AcDbEntity
  8
0
100
AcDbBlockEnd
  0
BLOCK
  5
40D
330
40C
100
AcDbEntity
  8
0
100
AcDbBlockBegin
  2
*D24
 70
     1
 10
0.0
 20
0.0
 30
0.0
  3
*D24
  1
*D24
  0
LINE
  5
40F
330
40C
100
AcDbEntity
  8
치수문자_일반주서
 62
     0
370
    -2
100
AcDbLine
 10
69.14999999999975
 20
9.541481613724244
 30
0.0
 11
69.14999999999975
 21
35.80389757218046
 31
0.0
  0
LINE
  5
410
330
40C
100
AcDbEntity
  8
치수문자_일반주서
 62
     0
370
    -2
100
AcDbLine
 10
11.99999999999972
 20
9.538631487980922
 30
0.0
 11
11.99999999999972
 21
35.80389757218046
 31
0.0
  0
LINE
  5
411
330
40C
100
AcDbEntity
  8
치수문자_일반주서
 62
     0
370
    -2
100
AcDbLine
 10
65.14999999999975
 20
35.80389757218046
 30
0.0
 11
15.99999999999972
 21
35.80389757218046
 31
0.0
  0
SOLID
  5
412
330
40C
100
AcDbEntity
  8
치수문자_일반주서
 62
     0
100
AcDbTrace
 10
65.14999999999975
 20
35.1372309055138
 30
0.0
 11
65.14999999999975
 21
36.47056423884712
 31
0.0
 12
69.14999999999975
 22
35.80389757218046
 32
0.0
 13
69.14999999999975
 23
35.80389757218046
 33
0.0
  0
SOLID
  5
413
330
40C
100
AcDbEntity
  8
치수문자_일반주서
 62
     0
100
AcDbTrace
 10
15.99999999999972
 20
36.47056423884712
 30
0.0
 11
15.99999999999972
 21
35.1372309055138
 31
0.0
 12
11.99999999999972
 22
35.80389757218046
 32
0.0
 13
11.99999999999972
 23
35.80389757218046
 33
0.0
  0
MTEXT
  5
414
330
40C
100
AcDbEntity
  8
치수문자_일반주서
 62
     0
100
AcDbMText
 10
40.57499999999973
 20
40.67889757218046
 30
0.0
 40
4.0
 41
0.0
 71
     2
 72
     1
  1
\A1;57.15 [2 1/4]
  7
SLDTEXTSTYLE0
 73
     1
 44
1.0
  0
POINT
  5
415
330
40C
100
AcDbEntity
  8
Defpoints
 62
     0
100
AcDbPoint
 10
69.14999999999975
 20
9.478981613724244
 30
0.0
  0
POINT
  5
416
330
40C
100
AcDbEntity
  8
Defpoints
 62
     0
100
AcDbPoint
 10
11.99999999999972
 20
9.476131487980922
 30
0.0
  0
POINT
  5
417
330
40C
100
AcDbEntity
  8
Defpoints
 62
     0
100
AcDbPoint
 10
11.99999999999972
 20
35.80389757218046
 30
0.0
  0
ENDBLK
  5
40E
330
40C
100
AcDbEntity
  8
0
100
AcDbBlockEnd
  0
BLOCK
  5
419
330
418
100
AcDbEntity
  8
0
100
AcDbBlockBegin
  2
*D25
 70
     1
 10
0.0
 20
0.0
 30
0.0
  3
*D25
  1
*D25
  0
LINE
  5
41B
330
418
100
AcDbEntity
  8
치수문자_일반주서
 62
     0
370
    -2
100
AcDbLine
 10
69.14999999999975
 20
9.541481613724244
 30
0.0
 11
69.14999999999975
 21
53.01923810201993
 31
0.0
  0
LINE
  5
41C
330
418
100
AcDbEntity
  8
치수문자_일반주서
 62
     0
370
    -2
100
AcDbLine
 10
-57.85000000000026
 20
7.636481613724243
 30
0.0
 11
-57.85000000000026
 21
53.01923810201993
 31
0.0
  0
LINE
  5
41D
330
418
100
AcDbEntity
  8
치수문자_일반주서
 62
     0
370
    -2
100
AcDbLine
 10
65.14999999999975
 20
53.01923810201993
 30
0.0
 11
-53.85000000000026
 21
53.01923810201993
 31
0.0
  0
SOLID
  5
41E
330
418
100
AcDbEntity
  8
치수문자_일반주서
 62
     0
100
AcDbTrace
 10
65.14999999999975
 20
52.35257143535326
 30
0.0
 11
65.14999999999975
 21
53.68590476868659
 31
0.0
 12
69.14999999999975
 22
53.01923810201993
 32
0.0
 13
69.14999999999975
 23
53.01923810201993
 33
0.0
  0
SOLID
  5
41F
330
418
100
AcDbEntity
  8
치수문자_일반주서
 62
     0
100
AcDbTrace
 10
-53.85000000000026
 20
53.68590476868659
 30
0.0
 11
-53.85000000000026
 21
52.35257143535326
 31
0.0
 12
-57.85000000000026
 22
53.01923810201993
 32
0.0
 13
-57.85000000000026
 23
53.01923810201993
 33
0.0
  0
MTEXT
  5
420
330
418
100
AcDbEntity
  8
치수문자_일반주서
 62
     0
100
AcDbMText
 10
5.649999999999736
 20
57.89423810201993
 30
0.0
 40
4.0
 41
0.0
 71
     2
 72
     1
  1
\A1;127.00 [5]
  7
SLDTEXTSTYLE0
 73
     1
 44
1.0
  0
POINT
  5
421
330
418
100
AcDbEntity
  8
Defpoints
 62
     0
100
AcDbPoint
 10
69.14999999999975
 20
9.478981613724244
 30
0.0
  0
POINT
  5
422
330
418
100
AcDbEntity
  8
Defpoints
 62
     0
100
AcDbPoint
 10
-57.85000000000026
 20
7.573981613724243
 30
0.0
  0
POINT
  5
423
330
418
100
AcDbEntity
  8
Defpoints
 62
     0
100
AcDbPoint
 10
-57.85000000000026
 20
53.01923810201993
 30
0.0
  0
ENDBLK
  5
41A
330
418
100
AcDbEntity
  8
0
100
AcDbBlockEnd
  0
BLOCK
  5
425
330
424
100
AcDbEntity
  8
0
100
AcDbBlockBegin
  2
*D26
 70
     1
 10
0.0
 20
0.0
 30
0.0
  3
*D26
  1
*D26
  0
LINE
  5
427
330
424
100
AcDbEntity
  8
치수문자_일반주서
 62
     0
370
    -2
100
AcDbLine
 10
-56.00750000000028
 20
9.478981613724244
 30
0.0
 11
-73.52875739544531
 21
9.478981613724176
 31
0.0
  0
LINE
  5
428
330
424
100
AcDbEntity
  8
치수문자_일반주서
 62
     0
370
    -2
100
AcDbLine
 10
-56.00750000000028
 20
-9.571018386275767
 30
0.0
 11
-73.52875739544524
 21
-9.571018386275831
 31
0.0
  0
LINE
  5
429
330
424
100
AcDbEntity
  8
치수문자_일반주서
 62
     0
370
    -2
100
AcDbLine
 10
-73.52875739544531
 20
9.478981613724176
 30
0.0
 11
-73.52875739544544
 21
44.97898161372419
 31
0.0
  0
LINE
  5
42A
330
424
100
AcDbEntity
  8
치수문자_일반주서
 62
     0
370
    -2
100
AcDbLine
 10
-73.5287573954453
 20
5.478981613724176
 30
0.0
 11
-73.52875739544525
 21
-5.571018386275831
 31
0.0
  0
SOLID
  5
42B
330
424
100
AcDbEntity
  8
치수문자_일반주서
 62
     0
100
AcDbTrace
 10
-72.86209072877863
 20
5.478981613724179
 30
0.0
 11
-74.19542406211197
 21
5.478981613724174
 31
0.0
 12
-73.52875739544531
 22
9.478981613724176
 32
0.0
 13
-73.52875739544531
 23
9.478981613724176
 33
0.0
  0
SOLID
  5
42C
330
424
100
AcDbEntity
  8
치수문자_일반주서
 62
     0
100
AcDbTrace
 10
-74.19542406211193
 20
-5.571018386275834
 30
0.0
 11
-72.86209072877858
 21
-5.571018386275829
 31
0.0
 12
-73.52875739544524
 22
-9.571018386275831
 32
0.0
 13
-73.52875739544524
 23
-9.571018386275831
 33
0.0
  0
MTEXT
  5
42D
330
424
100
AcDbEntity
  8
치수문자_일반주서
 62
     0
100
AcDbMText
 10
-78.40375739544538
 20
29.35398161372417
 30
0.0
 40
4.0
 41
0.0
 71
     2
 72
     1
  1
\A1;%%c19.05 [3/4]
  7
SLDTEXTSTYLE0
 11
-3.729883127349605E-15
 21
1.0
 31
0.0
 73
     1
 44
1.0
  0
POINT
  5
42E
330
424
100
AcDbEntity
  8
Defpoints
 62
     0
100
AcDbPoint
 10
-55.94500000000028
 20
9.478981613724244
 30
0.0
  0
POINT
  5
42F
330
424
100
AcDbEntity
  8
Defpoints
 62
     0
100
AcDbPoint
 10
-55.94500000000028
 20
-9.571018386275767
 30
0.0
  0
POINT
  5
430
330
424
100
AcDbEntity
  8
Defpoints
 62
     0
100
AcDbPoint
 10
-73.52875739544524
 20
-9.571018386275833
 30
0.0
  0
ENDBLK
  5
426
330
424
100
AcDbEntity
  8
0
100
AcDbBlockEnd
  0
ENDSEC
  0
SECTION
  2
ENTITIES
  0
LINE
  5
CC
330
1F
100
AcDbEntity
  8
참조1
100
AcDbLine
 10
54.45000000000001
 20
0.0010749287238892
 30
0.0
 11
54.45000000000002
 21
-39.99892507127611
 31
0.0
  0
LINE
  5
CD
330
1F
100
AcDbEntity
  8
참조1
100
AcDbLine
 10
54.45000000000002
 20
-39.99892507127611
 30
0.0
 11
-17.85885681430866
 21
-39.9989250712761
 31
0.0
  0
LINE
  5
129
330
1F
100
AcDbEntity
  8
참조1
100
AcDbLine
 10
80.1134838153456
 20
7.441074928723896
 30
0.0
 11
80.1134838153456
 21
-7.438925071276109
 31
0.0
  0
LINE
  5
12A
330
1F
100
AcDbEntity
  8
참조1
100
AcDbLine
 10
92.8134838153456
 20
5.441074928723896
 30
0.0
 11
80.1134838153456
 21
5.441074928723896
 31
0.0
  0
SOLID
  5
12B
330
1F
100
AcDbEntity
  8
참조1
100
AcDbTrace
 10
80.1134838153456
 20
5.441074928723896
 30
0.0
 11
86.4634838153456
 21
4.425074928723896
 31
0.0
 12
86.4634838153456
 22
6.457074928723896
 32
0.0
 13
86.4634838153456
 23
6.457074928723896
 33
0.0
  0
LINE
  5
12C
330
1F
100
AcDbEntity
  8
참조1
100
AcDbLine
 10
92.8134838153456
 20
-5.438925071276109
 30
0.0
 11
80.1134838153456
 21
-5.438925071276109
 31
0.0
  0
SOLID
  5
12D
330
1F
100
AcDbEntity
  8
참조1
100
AcDbTrace
 10
80.1134838153456
 20
-5.438925071276109
 30
0.0
 11
86.4634838153456
 21
-6.454925071276109
 31
0.0
 12
86.4634838153456
 22
-4.422925071276109
 32
0.0
 13
86.4634838153456
 23
-4.422925071276109
 33
0.0
  0
MTEXT
  5
12E
330
1F
100
AcDbEntity
  8
참조1
100
AcDbMText
 10
89.4978339479716
 20
11.01136670591222
 30
0.0
 40
3.5
 41
0.0
 71
     1
 72
     1
  1
A
  7
SLDTEXTSTYLE0
 73
     1
 44
1.0
  0
MTEXT
  5
12F
330
1F
100
AcDbEntity
  8
참조1
100
AcDbMText
 10
89.4978339479716
 20
0.1313667059122201
 30
0.0
 40
3.5
 41
0.0
 71
     1
 72
     1
  1
A
  7
SLDTEXTSTYLE0
 73
     1
 44
1.0
  0
SPLINE
  5
3C0
330
1F
100
AcDbEntity
  8
0
  6
Continuous
 62
     1
370
    15
100
AcDbSpline
210
0.0
220
0.0
230
1.0
 70
     8
 71
     3
 72
     9
 73
     5
 74
     0
 42
0.000000001
 43
0.00000001
 40
0.0
 40
0.0
 40
0.0
 40
0.0
 40
0.6340975666551883
 40
1.0
 40
1.0
 40
1.0
 40
1.0
 10
69.14999999999975
 20
1.75134085194253
 30
0.0
 10
69.06650135047312
 20
1.806601712099251
 30
0.0
 10
68.93482027500858
 20
1.893750540706549
 30
0.0
 10
68.80499434108964
 20
1.97207879721384
 30
0.0
 10
68.75749071595749
 20
2.000739296869511
 30
0.0
  0
LINE
  5
3C1
330
1F
100
AcDbEntity
  8
외형선
  6
Continuous
370
    15
100
AcDbLine
 10
62.23978612009259
 20
-1.876322337669563
 30
0.0
 11
62.37396152744401
 21
-1.951230587149553
 31
0.0
  0
LINE
  5
3C2
330
1F
100
AcDbEntity
  8
0
  6
Continuous
 62
     1
370
    15
100
AcDbLine
 10
33.13520486003124
 20
9.478981613724244
 30
0.0
 11
25.69343789208652
 21
9.478981613724244
 31
0.0
  0
LINE
  5
3C3
330
1F
100
AcDbEntity
  8
0
  6
Continuous
 62
     1
370
    15
100
AcDbLine
 10
56.78998539601676
 20
-9.571018386275753
 30
0.0
 11
64.23232853467437
 21
-9.571018386275753
 31
0.0
  0
LINE
  5
3C4
330
1F
100
AcDbEntity
  8
0
  6
Continuous
 62
     1
370
    15
100
AcDbLine
 10
12.40290085362079
 20
9.478981613724244
 30
0.0
 11
11.99999999999973
 21
9.478981613724244
 31
0.0
  0
LINE
  5
3C5
330
1F
100
AcDbEntity
  8
0
  6
Continuous
 62
     1
370
    15
100
AcDbLine
 10
36.05861499557643
 20
-9.571018386275753
 30
0.0
 11
43.50345916854141
 21
-9.571018386275753
 31
0.0
  0
LINE
  5
3C6
330
1F
100
AcDbEntity
  8
0
  6
Continuous
 62
     1
370
    15
100
AcDbLine
 10
53.86780623847466
 20
9.478981613724244
 30
0.0
 11
46.42259182964838
 21
9.478981613724244
 31
0.0
  0
LINE
  5
3C7
330
1F
100
AcDbEntity
  8
0
  6
Continuous
 62
     1
370
    15
100
AcDbLine
 10
15.32502543655501
 20
-9.571018386275753
 30
0.0
 11
22.76986244969045
 21
-9.571018386275753
 31
0.0
  0
LINE
  5
3C8
330
1F
100
AcDbEntity
  8
0
  6
Continuous
 62
     1
370
    15
100
AcDbLine
 10
69.14999999999975
 20
9.478981613724244
 30
0.0
 11
67.15498145174288
 21
9.478981613724244
 31
0.0
  0
LINE
  5
3C9
330
1F
100
AcDbEntity
  8
외형선
  6
Continuous
370
    15
100
AcDbLine
 10
-55.94500000000026
 20
-9.571018386275753
 30
0.0
 11
11.00010188608745
 21
-9.571018386275753
 31
0.0
  0
LINE
  5
3CA
330
1F
100
AcDbEntity
  8
외형선
  6
Continuous
370
    15
100
AcDbLine
 10
11.99999999999973
 20
9.478981613724244
 30
0.0
 11
-55.94500000000026
 21
9.478981613724244
 31
0.0
  0
LINE
  5
3CB
330
1F
100
AcDbEntity
  8
외형선
  6
Continuous
370
    15
100
AcDbLine
 10
-55.94500000000026
 20
9.478981613724244
 30
0.0
 11
-57.85000000000026
 21
7.573981613724243
 31
0.0
  0
LINE
  5
3CC
330
1F
100
AcDbEntity
  8
외형선
  6
Continuous
370
    15
100
AcDbLine
 10
-57.85000000000026
 20
-7.666018386275766
 30
0.0
 11
-55.94500000000026
 21
-9.571018386275753
 31
0.0
  0
SPLINE
  5
3CD
330
1F
100
AcDbEntity
  8
0
  6
Continuous
 62
     1
370
    15
100
AcDbSpline
210
0.0
220
0.0
230
1.0
 70
     8
 71
     3
 72
    21
 73
    17
 74
     0
 42
0.000000001
 43
0.00000001
 40
0.0
 40
0.0
 40
0.0
 40
0.0
 40
0.0782549178781099
 40
0.1565102077929387
 40
0.2347658980772817
 40
0.3130220170370375
 40
0.391278592949318
 40
0.4695356540605605
 40
0.5433327683024725
 40
0.6171380346516179
 40
0.6909393727771158
 40
0.7647326920674632
 40
0.8385194932143798
 40
0.9123012830629335
 40
0.9860795731954626
 40
1.0
 40
1.0
 40
1.0
 40
1.0
 10
11.99999999999972
 20
3.118079369388852
 30
0.0
 10
12.99564903913259
 20
2.565876123792037
 30
0.0
 10
14.98695185087723
 20
1.461467007333596
 30
0.0
 10
17.97391721121562
 20
-0.2721416852043888
 30
0.0
 10
20.96090015813382
 20
-1.990934991828993
 30
0.0
 10
23.94790489365344
 20
-3.64814312058914
 30
0.0
 10
26.93492268164334
 20
-5.187055533624402
 30
0.0
 10
29.8652401677174
 20
-6.532032497522806
 30
0.0
 10
32.73882353631987
 20
-7.651887971933689
 30
0.0
 10
35.55584941848329
 20
-8.52836019898001
 30
0.0
 10
38.37276508463555
 20
-9.158672794672768
 30
0.0
 10
41.18938177791649
 20
-9.52244098834504
 30
0.0
 10
44.00570104204284
 20
-9.616683540309879
 30
0.0
 10
46.82178968126226
 20
-9.410389954188545
 30
0.0
 10
48.87621073302799
 20
-9.122057289433798
 30
0.0
 10
49.99194295751505
 20
-8.830867703422484
 30
0.0
 10
50.16904325392625
 20
-8.784647149007498
 30
0.0
  0
SPLINE
  5
3CE
330
1F
100
AcDbEntity
  8
외형선
  6
Continuous
370
    15
100
AcDbSpline
210
0.0
220
0.0
230
1.0
 70
    24
 71
     3
 72
    17
 73
    13
 74
     0
 42
0.000000001
 43
0.00000001
 40
0.0
 40
0.0
 40
0.0
 40
0.0
 40
0.0904286460949362
 40
0.1828647465964612
 40
0.2856200469564706
 40
0.3913552579880593
 40
0.4941105583480661
 40
0.599845769379652
 40
0.7026010697396607
 40
0.8083362807712487
 40
0.911091581131257
 40
1.0
 40
1.0
 40
1.0
 40
1.0
 10
11.99999999999973
 20
8.624772908823672
 30
0.0
 10
11.99999999999973
 20
8.4698210050297
 30
0.0
 10
11.99999999999974
 20
8.156477370622383
 30
0.0
 10
11.9999999999997
 20
7.613280725130039
 30
0.0
 10
11.99999999999977
 20
7.01273374858269
 30
0.0
 10
11.99999999999969
 20
6.372561423531067
 30
0.0
 10
11.99999999999974
 20
5.72718148624179
 30
0.0
 10
11.99999999999974
 20
5.106345605563746
 30
0.0
 10
11.99999999999976
 20
4.515700201752736
 30
0.0
 10
11.99999999999969
 20
3.98572911354421
 30
0.0
 10
11.99999999999973
 20
3.535551639734393
 30
0.0
 10
11.99999999999973
 20
3.311018848766679
 30
0.0
 10
11.99999999999973
 20
3.206863218742086
 30
0.0
  0
SPLINE
  5
3CF
330
1F
100
AcDbEntity
  8
0
  6
Continuous
 62
     1
370
    15
100
AcDbSpline
210
0.0
220
0.0
230
1.0
 70
     8
 71
     3
 72
    23
 73
    19
 74
     0
 42
0.000000001
 43
0.00000001
 40
0.0
 40
0.0
 40
0.0
 40
0.0
 40
0.0575062966542062
 40
0.1241944917367167
 40
0.187076089533502
 40
0.2499525775868867
 40
0.3128252415060717
 40
0.3756953705166841
 40
0.4385642562436795
 40
0.5014331914894167
 40
0.5643034690093509
 40
0.6271763802878267
 40
0.6900532143164305
 40
0.7529352563773695
 40
0.8147048975548318
 40
0.8764793921053579
 40
0.9382439163234519
 40
0.9999999999999999
 40
0.9999999999999999
 40
0.9999999999999999
 40
0.9999999999999999
 10
56.78998539601679
 20
-9.552514468211797
 30
0.0
 10
55.93138216889184
 20
-9.537632865618889
 30
0.0
 10
54.07708450758543
 20
-9.50549354909559
 30
0.0
 10
51.28389802352632
 20
-9.08724541941082
 30
0.0
 10
48.41067094219642
 20
-8.410699014232478
 30
0.0
 10
45.59443511395017
 20
-7.496827648229214
 30
0.0
 10
42.77841025485523
 20
-6.368410172500404
 30
0.0
 10
39.96252014221382
 20
-5.055690177417858
 30
0.0
 10
37.14669723457308
 20
-3.597506583601131
 30
0.0
 10
34.33087155752608
 20
-2.036052790516408
 30
0.0
 10
31.51497378965131
 20
-0.416743967457279
 30
0.0
 10
28.69893444629878
 20
1.213348559881211
 30
0.0
 10
25.88268447268402
 20
2.806957077853809
 30
0.0
 10
23.08285926356135
 20
4.308400575528907
 30
0.0
 10
20.29943732129283
 20
5.677854399771348
 30
0.0
 10
17.53261497805862
 20
6.873802386213072
 30
0.0
 10
14.7661302898733
 20
7.893213339944253
 30
0.0
 10
12.92200142496614
 20
8.380930828272142
 30
0.0
 10
12.0
 20
8.62477290882103
 30
0.0
  0
LINE
  5
3D0
330
1F
100
AcDbEntity
  8
0
  6
Continuous
 62
     1
370
    15
100
AcDbLine
 10
69.14999999999975
 20
-5.519395405658059
 30
0.0
 11
69.14999999999975
 21
1.783498339834665
 31
0.0
  0
SPLINE
  5
3D1
330
1F
100
AcDbEntity
  8
0
  6
Continuous
 62
     1
370
    15
100
AcDbSpline
210
0.0
220
0.0
230
1.0
 70
     8
 71
     3
 72
    20
 73
    16
 74
     0
 42
0.000000001
 43
0.00000001
 40
0.0
 40
0.0
 40
0.0
 40
0.0
 40
0.0672101422710129
 40
0.1454238917719245
 40
0.2236291430100716
 40
0.3018274864000624
 40
0.3800205188777475
 40
0.4582098423994782
 40
0.5363970624312618
 40
0.6145837864308501
 40
0.6927716223258127
 40
0.7695654816411122
 40
0.8463662490436057
 40
0.9231768009162442
 40
1.0
 40
1.0
 40
1.0
 40
1.0
 10
33.13520486003127
 20
9.462221482107424
 30
0.0
 10
33.94210077621773
 20
9.449244495357135
 30
0.0
 10
35.68799716062875
 20
9.421165936780483
 30
0.0
 10
38.37276655658688
 20
9.042743911131055
 30
0.0
 10
41.1893814276914
 20
8.408942283917867
 30
0.0
 10
44.00570097121039
 20
7.522003717328005
 30
0.0
 10
46.82179031471983
 20
6.417063760354466
 30
0.0
 10
49.63771923717815
 20
5.123740834632571
 30
0.0
 10
52.45355866792747
 20
3.680316614763541
 30
0.0
 10
55.26937123856146
 20
2.128484353078704
 30
0.0
 10
58.06848527169072
 20
0.5232812654371912
 30
0.0
 10
60.85090627044497
 20
-1.089086964963627
 30
0.0
 10
63.61686778737527
 20
-2.65957594852469
 30
0.0
 10
66.38323808577837
 20
-4.167877204967454
 30
0.0
 10
68.22769541636035
 20
-5.068864615508829
 30
0.0
 10
69.1499999999997
 20
-5.519395405658059
 30
0.0
  0
SPLINE
  5
3D2
330
1F
100
AcDbEntity
  8
0
  6
Continuous
 62
     1
370
    15
100
AcDbSpline
210
0.0
220
0.0
230
1.0
 70
     8
 71
     3
 72
    18
 73
    14
 74
     0
 42
0.000000001
 43
0.00000001
 40
0.0
 40
0.0
 40
0.0
 40
0.0
 40
0.1015367504690118
 40
0.2030726311284786
 40
0.304607678302702
 40
0.406141928371741
 40
0.5076754177690219
 40
0.6092081829789258
 40
0.7049454044950473
 40
0.8006748464277453
 40
0.8963984661168014
 40
0.9921182264080045
 40
1.0
 40
1.0
 40
1.0
 40
1.0
 10
69.14999999999975
 20
1.783498339834665
 30
0.0
 10
68.1542581404155
 20
2.341863378482657
 30
0.0
 10
66.16278295122032
 20
3.45858867257212
 30
0.0
 10
63.17558895356592
 20
5.003082733268968
 30
0.0
 10
60.18842474359144
 20
6.386788100927276
 30
0.0
 10
57.20128594917639
 20
7.55907707001515
 30
0.0
 10
54.21418450733373
 20
8.482896983276959
 30
0.0
 10
51.28389794899977
 20
9.116084459950088
 30
0.0
 10
48.41067099386645
 20
9.454781691797194
 30
0.0
 10
45.59443497931022
 20
9.517744147329836
 30
0.0
 10
42.77841074171084
 20
9.276043050458668
 30
0.0
 10
40.82383576810224
 20
8.989211713796834
 30
0.0
 10
39.80792739208465
 20
8.717107082390697
 30
0.0
 10
39.73063934904263
 20
8.696405969022123
 30
0.0
  0
LINE
  5
3D3
330
1F
100
AcDbEntity
  8
0
  6
Continuous
 62
     1
370
    15
100
AcDbLine
 10
69.14999999999975
 20
-9.151220846858934
 30
0.0
 11
69.14999999999975
 21
-8.370806663916909
 31
0.0
  0
SPLINE
  5
3D4
330
1F
100
AcDbEntity
  8
0
  6
Continuous
 62
     1
370
    15
100
AcDbSpline
210
0.0
220
0.0
230
1.0
 70
     8
 71
     3
 72
    27
 73
    23
 74
     0
 42
0.000000001
 43
0.00000001
 40
0.0
 40
0.0
 40
0.0
 40
0.0
 40
0.045535142341104
 40
0.0981703084852512
 40
0.1508057439213011
 40
0.2034414676880389
 40
0.2560774988048877
 40
0.3087138562706387
 40
0.3583504159627596
 40
0.4079924588307676
 40
0.4576318595425123
 40
0.5072658667182951
 40
0.5568954897359868
 40
0.606521742112253
 40
0.6561456405500875
 40
0.7057682039799339
 40
0.7553904525963226
 40
0.8050134068919603
 40
0.8537516553339318
 40
0.9024942880857025
 40
0.9512431306821285
 40
1.0
 40
1.0
 40
1.0
 40
1.0
 10
12.40290085362081
 20
9.460796422951006
 30
0.0
 10
13.26424964774645
 20
9.445631068203511
 30
0.0
 10
15.12125222828703
 20
9.412935715179373
 30
0.0
 10
17.97391722402938
 20
8.985305823846431
 30
0.0
 10
20.96090015469552
 20
8.272814947423939
 30
0.0
 10
23.94790489459268
 20
7.280190590610061
 30
0.0
 10
26.93492268132471
 20
6.050272212321573
 30
0.0
 10
29.86524016804042
 20
4.647561408650546
 30
0.0
 10
32.73882353539086
 20
3.129791428790952
 30
0.0
 10
35.55584942190126
 20
1.549715055461093
 30
0.0
 10
38.37276507189409
 20
-0.0767947893159828
 30
0.0
 10
41.18938182545719
 20
-1.702394623649383
 30
0.0
 10
44.00570086464123
 20
-3.279779980967135
 30
0.0
 10
46.82179034327265
 20
-4.763117204374112
 30
0.0
 10
49.63771922952782
 20
-6.109314368380495
 30
0.0
 10
52.45355866997738
 20
-7.279225062006702
 30
0.0
 10
55.26937123801184
 20
-8.238980258746807
 30
0.0
 10
58.06848527183499
 20
-8.955931400764655
 30
0.0
 10
60.8509062704066
 20
-9.416190446300433
 30
0.0
 10
63.61686778738547
 20
-9.606011062892804
 30
0.0
 10
66.38323808577593
 20
-9.5460459393597
 30
0.0
 10
68.2276954163595
 20
-9.282836433540808
 30
0.0
 10
69.1499999999997
 20
-9.151220846858934
 30
0.0
  0
SPLINE
  5
3D5
330
1F
100
AcDbEntity
  8
0
  6
Continuous
 62
     1
370
    15
100
AcDbSpline
210
0.0
220
0.0
230
1.0
 70
     8
 71
     3
 72
    25
 73
    21
 74
     0
 42
0.000000001
 43
0.00000001
 40
0.0
 40
0.0
 40
0.0
 40
0.0
 40
0.0596143732235412
 40
0.1192282357635063
 40
0.1788416089466607
 40
0.2384545141325062
 40
0.298066972711878
 40
0.3576790061055276
 40
0.4138883532481539
 40
0.4700931328328509
 40
0.5262944940551927
 40
0.5824935893434467
 40
0.6386915732706212
 40
0.6948896014621948
 40
0.75108882950172
 40
0.8072904118365132
 40
0.8634955006856354
 40
0.9197052449523633
 40
0.9749206231467917
 40
1.0
 40
1.0
 40
1.0
 40
1.0
 10
69.14999999999975
 20
-8.370806663916909
 30
0.0
 10
68.15425814041114
 20
-8.065130813360923
 30
0.0
 10
66.16278295120722
 20
-7.453781730806014
 30
0.0
 10
63.17558895361827
 20
-6.221653648582844
 30
0.0
 10
60.18842474339519
 20
-4.807175393645508
 30
0.0
 10
57.20128594990894
 20
-3.231810059542937
 30
0.0
 10
54.21418450459976
 20
-1.553717869588041
 30
0.0
 10
51.28389795895703
 20
0.1412192513872981
 30
0.0
 10
48.41067095905981
 20
1.796228001592851
 30
0.0
 10
45.59443510945002
 20
3.365046064086101
 30
0.0
 10
42.77841025599388
 20
4.834643808247307
 30
0.0
 10
39.96252014215928
 20
6.162348074450591
 30
0.0
 10
37.14669723365276
 20
7.30959789552611
 30
0.0
 10
34.33087156126193
 20
8.24296633350562
 30
0.0
 10
31.51497377562772
 20
8.935675085107931
 30
0.0
 10
28.698934498661
 20
9.366284529275305
 30
0.0
 10
25.8826842772396
 20
9.527117246341106
 30
0.0
 10
23.08285998758279
 20
9.396142084280001
 30
0.0
 10
20.80286091159391
 20
9.112067995583658
 30
0.0
 10
19.46169404203454
 20
8.786876321731825
 30
0.0
 10
19.04279209352293
 20
8.685305496424263
 30
0.0
  0
LINE
  5
3D6
330
1F
100
AcDbEntity
  8
0
  6
Continuous
 62
     1
370
    15
100
AcDbLine
 10
69.14999999999975
 20
-8.370806663916909
 30
0.0
 11
69.14999999999975
 21
-5.519395405658059
 31
0.0
  0
LINE
  5
3D7
330
1F
100
AcDbEntity
  8
외형선
  6
Continuous
370
    15
100
AcDbLine
 10
11.99999999999973
 20
8.624772908821114
 30
0.0
 11
11.99999999999973
 21
9.478981613724244
 31
0.0
  0
SPLINE
  5
3D8
330
1F
100
AcDbEntity
  8
0
  6
Continuous
 62
     1
370
    15
100
AcDbSpline
210
0.0
220
0.0
230
1.0
 70
     8
 71
     3
 72
    16
 73
    12
 74
     0
 42
0.000000001
 43
0.00000001
 40
0.0
 40
0.0
 40
0.0
 40
0.0
 40
0.0718155769016543
 40
0.1888614998827754
 40
0.3059123261458854
 40
0.4229704554133318
 40
0.5400382805016912
 40
0.6550351430737765
 40
0.7700410411957629
 40
0.8850283774979517
 40
1.0
 40
1.0
 40
1.0
 40
1.0
 10
36.05861499557643
 20
-9.538139604640591
 30
0.0
 10
35.48270685009463
 20
-9.540968398590024
 30
0.0
 10
33.96817642587554
 20
-9.548407596201471
 30
0.0
 10
31.5149736414555
 20
-9.249247048815349
 30
0.0
 10
28.69893448601276
 20
-8.682606517867555
 30
0.0
 10
25.88268446203514
 20
-7.853037192380754
 30
0.0
 10
23.08285926635855
 20
-6.805838202388315
 30
0.0
 10
20.29943732054915
 20
-5.571971070760327
 30
0.0
 10
17.53261497825687
 20
-4.19026458606541
 30
0.0
 10
14.76613028982378
 20
-2.694326520272142
 30
0.0
 10
12.92200142494963
 20
-1.642151739429266
 30
0.0
 10
12.0
 20
-1.116100298170892
 30
0.0
  0
LINE
  5
3D9
330
1F
100
AcDbEntity
  8
외형선
  6
Continuous
370
    15
100
AcDbLine
 10
11.99999999999974
 20
-1.11610029817075
 30
0.0
 11
11.99999999999972
 21
3.118079369388852
 31
0.0
  0
SPLINE
  5
3DA
330
1F
100
AcDbEntity
  8
0
  6
Continuous
 62
     1
370
    15
100
AcDbSpline
210
0.0
220
0.0
230
1.0
 70
     8
 71
     3
 72
    13
 73
     9
 74
     0
 42
0.000000001
 43
0.00000001
 40
0.0
 40
0.0
 40
0.0
 40
0.0
 40
0.1714282040887697
 40
0.3428572231753479
 40
0.5142871193266354
 40
0.6857179545506118
 40
0.8571497907921957
 40
1.0
 40
1.0
 40
1.0
 40
1.0
 10
11.99999999999972
 20
-7.612648303804463
 30
0.0
 10
12.99564904652837
 20
-7.937902617114986
 30
0.0
 10
14.98695187306458
 20
-8.588412790048451
 30
0.0
 10
17.97391712246537
 20
-9.218101036705377
 30
0.0
 10
20.96090049094995
 20
-9.567864955193784
 30
0.0
 10
23.94790365112928
 20
-9.593501604202316
 30
0.0
 10
26.76891933408226
 20
-9.35267327463059
 30
0.0
 10
28.59426931874259
 20
-8.963343707310344
 30
0.0
 10
29.42394327231936
 20
-8.786382245630435
 30
0.0
  0
SPLINE
  5
3DB
330
1F
100
AcDbEntity
  8
외형선
  6
Continuous
370
    15
100
AcDbSpline
210
0.0
220
0.0
230
1.0
 70
    24
 71
     3
 72
    22
 73
    18
 74
     0
 42
0.000000001
 43
0.00000001
 40
0.0
 40
0.0
 40
0.0
 40
0.0
 40
0.0332107561564619
 40
0.1058606221177219
 40
0.1764630139333803
 40
0.2491128798946382
 40
0.3197152717102977
 40
0.3923651376715574
 40
0.4629675294872163
 40
0.5356173954484748
 40
0.6062197872641344
 40
0.6788696532253934
 40
0.7494720450410395
 40
0.8221219110023107
 40
0.8927243028179697
 40
0.965374168779229
 40
1.0
 40
1.0
 40
1.0
 40
1.0
 10
11.99999999999973
 20
-0.9522808078562264
 30
0.0
 10
11.99999999999973
 20
-0.9564655105855593
 30
0.0
 10
11.99999999999974
 20
-0.9698044189867403
 30
0.0
 10
11.99999999999969
 20
-1.106928937307828
 30
0.0
 10
11.99999999999976
 20
-1.356030707173716
 30
0.0
 10
11.99999999999974
 20
-1.704326590487739
 30
0.0
 10
11.99999999999977
 20
-2.140761775836324
 30
0.0
 10
11.99999999999969
 20
-2.647124193558795
 30
0.0
 10
11.99999999999973
 20
-3.21765853199841
 30
0.0
 10
11.99999999999976
 20
-3.826092484816655
 30
0.0
 10
11.99999999999966
 20
-4.466109437476149
 30
0.0
 10
11.99999999999979
 20
-5.108111711730544
 30
0.0
 10
11.9999999999997
 20
-5.745379327368852
 30
0.0
 10
11.99999999999973
 20
-6.348779130058688
 30
0.0
 10
11.99999999999969
 20
-6.910694727877313
 30
0.0
 10
11.99999999999979
 20
-7.326261896270495
 30
0.0
 10
11.99999999999973
 20
-7.542766269954569
 30
0.0
 10
11.99999999999972
 20
-7.612648303804463
 30
0.0
  0
SPLINE
  5
3DC
330
1F
100
AcDbEntity
  8
0
  6
Continuous
 62
     1
370
    15
100
AcDbSpline
210
0.0
220
0.0
230
1.0
 70
     8
 71
     3
 72
    13
 73
     9
 74
     0
 42
0.000000001
 43
0.00000001
 40
0.0
 40
0.0
 40
0.0
 40
0.0
 40
0.0917137824771472
 40
0.2759741514524953
 40
0.4569494232516436
 40
0.6379409749066123
 40
0.8189555850086976
 40
1.0
 40
1.0
 40
1.0
 40
1.0
 10
53.86780623847466
 20
9.444311432996756
 30
0.0
 10
54.33499120797157
 20
9.451040610141035
 30
0.0
 10
55.74078837439424
 20
9.471289245648222
 30
0.0
 10
58.06848558405508
 20
9.206813773601255
 30
0.0
 10
60.85090618740497
 20
8.681875126507407
 30
0.0
 10
63.61686780952311
 20
7.898073898185658
 30
0.0
 10
66.38323808024009
 20
6.906718605611246
 30
0.0
 10
68.22769541451413
 20
6.086562735815477
 30
0.0
 10
69.1499999999997
 20
5.676451043086473
 30
0.0
  0
LINE
  5
3DD
330
1F
100
AcDbEntity
  8
0
  6
Continuous
 62
     1
370
    15
100
AcDbLine
 10
69.14999999999975
 20
1.783498339834665
 30
0.0
 11
69.14999999999975
 21
5.676451043086473
 31
0.0
  0
SPLINE
  5
3DE
330
1F
100
AcDbEntity
  8
0
  6
Continuous
 62
     1
370
    15
100
AcDbSpline
210
0.0
220
0.0
230
1.0
 70
     8
 71
     3
 72
    10
 73
     6
 74
     0
 42
0.000000001
 43
0.00000001
 40
0.0
 40
0.0
 40
0.0
 40
0.0
 40
0.3458554412290283
 40
0.6917079197045457
 40
1.0
 40
1.0
 40
1.0
 40
1.0
 10
69.14999999999975
 20
9.409473411088072
 30
0.0
 10
68.15425815263927
 20
9.447499315994236
 30
0.0
 10
66.16278298789155
 20
9.52355080005961
 30
0.0
 10
63.28371940760971
 20
9.276069309142457
 30
0.0
 10
61.40039929735661
 20
8.886671906915012
 30
0.0
 10
60.51280852423599
 20
8.703152631879078
 30
0.0
  0
SPLINE
  5
3DF
330
1F
100
AcDbEntity
  8
0
  6
Continuous
 62
     1
370
    15
100
AcDbSpline
210
0.0
220
0.0
230
1.0
 70
     8
 71
     3
 72
     9
 73
     5
 74
     0
 42
0.000000001
 43
0.00000001
 40
0.0
 40
0.0
 40
0.0
 40
0.0
 40
0.1681175738057636
 40
1.0
 40
1.0
 40
1.0
 40
1.0
 10
15.32502543655502
 20
-9.549457222220155
 30
0.0
 10
15.13868903889465
 20
-9.55632987531476
 30
0.0
 10
14.03031950058778
 20
-9.597209915033488
 30
0.0
 10
12.92199536823296
 20
-9.477631694165694
 30
0.0
 10
12.0
 20
-9.378156673670219
 30
0.0
  0
LINE
  5
3E0
330
1F
100
AcDbEntity
  8
0
  6
Continuous
 62
     1
370
    15
100
AcDbLine
 10
69.14999999999975
 20
5.646660959541151
 30
0.0
 11
69.14999999999975
 21
9.409473411088072
 31
0.0
  0
LINE
  5
3E1
330
1F
100
AcDbEntity
  8
0
  6
Continuous
 62
     1
370
    15
100
AcDbLine
 10
69.14999999999975
 20
9.409473411088072
 30
0.0
 11
69.14999999999975
 21
9.478981613724244
 31
0.0
  0
LINE
  5
3E2
330
1F
100
AcDbEntity
  8
외형선
  6
Continuous
370
    15
100
AcDbLine
 10
11.99999999999973
 20
-9.378156673670304
 30
0.0
 11
11.99999999999972
 21
-7.612648303804463
 31
0.0
  0
SPLINE
  5
3E3
330
1F
100
AcDbEntity
  8
외형선
  6
Continuous
370
    15
100
AcDbSpline
210
0.0
220
0.0
230
1.0
 70
     8
 71
     3
 72
     8
 73
     4
 74
     0
 42
0.000000001
 43
0.00000001
 40
0.0
 40
0.0
 40
0.0
 40
0.0
 40
1.0
 40
1.0
 40
1.0
 40
1.0
 10
11.9999999999997
 20
8.624772908821086
 30
0.0
 10
11.66584495104451
 20
8.704593825693536
 30
0.0
 10
11.33321266372911
 20
8.77896736870207
 30
0.0
 10
11.00010188608745
 20
8.847922077587583
 30
0.0
  0
LINE
  5
3E4
330
1F
100
AcDbEntity
  8
외형선
  6
Continuous
370
    15
100
AcDbLine
 10
11.00010188608745
 20
3.657108940031804
 30
0.0
 11
11.00010188608745
 21
8.84793130696977
 31
0.0
  0
SPLINE
  5
3E5
330
1F
100
AcDbEntity
  8
외형선
  6
Continuous
370
    15
100
AcDbSpline
210
0.0
220
0.0
230
1.0
 70
     8
 71
     3
 72
     8
 73
     4
 74
     0
 42
0.000000001
 43
0.00000001
 40
0.0
 40
0.0
 40
0.0
 40
0.0
 40
1.0
 40
1.0
 40
1.0
 40
1.0
 10
11.99999999999973
 20
3.118079369388852
 30
0.0
 10
11.66584495104453
 20
3.299975715202237
 30
0.0
 10
11.33321266372914
 20
3.479651982974133
 30
0.0
 10
11.00010188608742
 20
3.657142953756477
 30
0.0
  0
SPLINE
  5
3E6
330
1F
100
AcDbEntity
  8
외형선
  6
Continuous
370
    15
100
AcDbSpline
210
0.0
220
0.0
230
1.0
 70
     8
 71
     3
 72
     8
 73
     4
 74
     0
 42
0.000000001
 43
0.00000001
 40
0.0
 40
0.0
 40
0.0
 40
0.0
 40
1.0
 40
1.0
 40
1.0
 40
1.0
 10
11.9999999999997
 20
-1.116100298170721
 30
0.0
 10
11.66584495104451
 20
-0.9244735615113484
 30
0.0
 10
11.33321266372911
 20
-0.7324808561374425
 30
0.0
 10
11.00010188608745
 20
-0.5400935686487855
 30
0.0
  0
LINE
  5
3E7
330
1F
100
AcDbEntity
  8
외형선
  6
Continuous
370
    15
100
AcDbLine
 10
11.00010188608745
 20
-7.247852074168634
 30
0.0
 11
11.00010188608745
 21
-0.5400678180912166
 31
0.0
  0
SPLINE
  5
3E8
330
1F
100
AcDbEntity
  8
외형선
  6
Continuous
370
    15
100
AcDbSpline
210
0.0
220
0.0
230
1.0
 70
     8
 71
     3
 72
     8
 73
     4
 74
     0
 42
0.000000001
 43
0.00000001
 40
0.0
 40
0.0
 40
0.0
 40
0.0
 40
1.0
 40
1.0
 40
1.0
 40
1.0
 10
11.99999999999973
 20
-7.612648303804463
 30
0.0
 10
11.66584495104453
 20
-7.495512849728811
 30
0.0
 10
11.33321266372914
 20
-7.373907681970167
 30
0.0
 10
11.00010188608742
 20
-7.247827912773687
 30
0.0
  0
SPLINE
  5
3E9
330
1F
100
AcDbEntity
  8
외형선
  6
Continuous
370
    15
100
AcDbSpline
210
0.0
220
0.0
230
1.0
 70
     8
 71
     3
 72
     8
 73
     4
 74
     0
 42
0.000000001
 43
0.00000001
 40
0.0
 40
0.0
 40
0.0
 40
0.0
 40
1.0
 40
1.0
 40
1.0
 40
1.0
 10
11.9999999999997
 20
-9.378156673670162
 30
0.0
 10
11.66584495104451
 20
-9.339545754133894
 30
0.0
 10
11.33321266372911
 20
-9.295261279629301
 30
0.0
 10
11.00010188608745
 20
-9.24531410584342
 30
0.0
  0
LINE
  5
3EA
330
1F
100
AcDbEntity
  8
외형선
  6
Continuous
370
    15
100
AcDbLine
 10
11.00010188608745
 20
-9.571018386275753
 30
0.0
 11
11.00010188608745
 21
-9.24530742050581
 31
0.0
  0
LINE
  5
3EB
330
1F
100
AcDbEntity
  8
외형선
  6
Continuous
370
    15
100
AcDbLine
 10
-55.94500000000026
 20
-0.0460183862757617
 30
0.0
 11
-55.94500000000026
 21
9.478981613724244
 31
0.0
  0
LINE
  5
3EC
330
1F
100
AcDbEntity
  8
외형선
  6
Continuous
370
    15
100
AcDbLine
 10
-55.94500000000026
 20
-9.571018386275753
 30
0.0
 11
-55.94500000000026
 21
-0.0460183862757617
 31
0.0
  0
LINE
  5
3ED
330
1F
100
AcDbEntity
  8
외형선
  6
Continuous
370
    15
100
AcDbLine
 10
-57.85000000000026
 20
-0.0460183862757617
 30
0.0
 11
-57.85000000000026
 21
7.573981613724243
 31
0.0
  0
LINE
  5
3EE
330
1F
100
AcDbEntity
  8
외형선
  6
Continuous
370
    15
100
AcDbLine
 10
-57.85000000000026
 20
-7.666018386275766
 30
0.0
 11
-57.85000000000026
 21
-0.0460183862757617
 31
0.0
  0
SPLINE
  5
3EF
330
1F
100
AcDbEntity
  8
외형선
  6
Continuous
370
    15
100
AcDbSpline
210
0.0
220
0.0
230
1.0
 70
    24
 71
     3
 72
    21
 73
    17
 74
     0
 42
0.000000001
 43
0.00000001
 40
0.0
 40
0.0
 40
0.0
 40
0.0
 40
0.0979111343260017
 40
0.1695069466588935
 40
0.2411027589917853
 40
0.3126985713246646
 40
0.3842943836575435
 40
0.4558901959904474
 40
0.5274860083233512
 40
0.5990818206562432
 40
0.670677632989135
 40
0.742273445322026
 40
0.8138692576549169
 40
0.8854650699877885
 40
0.9570608823206601
 40
1.0
 40
1.0
 40
1.0
 40
1.0
 10
11.99999999999973
 20
-7.612648303804463
 30
0.0
 10
11.99999999999973
 20
-7.405497213022983
 30
0.0
 10
11.99999999999972
 20
-7.046870493629484
 30
0.0
 10
11.99999999999973
 20
-6.419229374516505
 30
0.0
 10
11.9999999999997
 20
-5.819728148740637
 30
0.0
 10
11.99999999999974
 20
-5.187247627261826
 30
0.0
 10
11.99999999999976
 20
-4.542783031024385
 30
0.0
 10
11.99999999999973
 20
-3.903908854765035
 30
0.0
 10
11.99999999999966
 20
-3.288302747534516
 30
0.0
 10
11.99999999999969
 20
-2.71476699689606
 30
0.0
 10
11.99999999999969
 20
-2.197445478931087
 30
0.0
 10
11.99999999999969
 20
-1.754121369687596
 30
0.0
 10
11.99999999999969
 20
-1.392541693978814
 30
0.0
 10
11.99999999999974
 20
-1.132666541436691
 30
0.0
 10
11.99999999999969
 20
-0.9790830730693472
 30
0.0
 10
11.99999999999973
 20
-0.9594204347152129
 30
0.0
 10
11.99999999999973
 20
-0.952048916331421
 30
0.0
  0
SPLINE
  5
3F0
330
1F
100
AcDbEntity
  8
외형선
  6
Continuous
370
    15
100
AcDbSpline
210
0.0
220
0.0
230
1.0
 70
    24
 71
     3
 72
    17
 73
    13
 74
     0
 42
0.000000001
 43
0.00000001
 40
0.0
 40
0.0
 40
0.0
 40
0.0
 40
0.0763178929664003
 40
0.1804760183746832
 40
0.2846341437829663
 40
0.3887922691912482
 40
0.4929503945995301
 40
0.5971085200077835
 40
0.7012666454160372
 40
0.8054247708243495
 40
0.9095828962326614
 40
1.0
 40
1.0
 40
1.0
 40
1.0
 10
11.9999999999997
 20
3.206863218742086
 30
0.0
 10
11.99999999999969
 20
3.293912301594077
 30
0.0
 10
11.99999999999966
 20
3.499765362595298
 30
0.0
 10
11.9999999999997
 20
3.924964877664394
 30
0.0
 10
11.99999999999966
 20
4.448765384132599
 30
0.0
 10
11.9999999999997
 20
5.031741823136969
 30
0.0
 10
11.9999999999997
 20
5.651571404503528
 30
0.0
 10
11.99999999999972
 20
6.292817949420908
 30
0.0
 10
11.99999999999974
 20
6.936893712467054
 30
0.0
 10
11.99999999999972
 20
7.563913551935343
 30
0.0
 10
11.99999999999974
 20
8.136011997369934
 30
0.0
 10
11.99999999999973
 20
8.469707873925898
 30
0.0
 10
11.9999999999997
 20
8.624772908797638
 30
0.0
  0
LINE
  5
3F1
330
1F
100
AcDbEntity
  8
중심선
 62
     1
100
AcDbLine
 10
-60.85000000000027
 20
0.0
 30
0.0
 11
72.14999999999975
 21
0.0
 31
0.0
  0
CIRCLE
  5
3F2
330
1F
100
AcDbEntity
  8
해칭선
100
AcDbCircle
 10
0.0
 20
0.0
 30
0.0
 40
3.000000000000004
  0
INSERT
  5
3F3
330
1F
100
AcDbEntity
  8
0
  6
Continuous
 62
     7
100
AcDbBlockReference
 66
     1
  2
블럭10
 10
-8.290272932125475
 20
-52.04717430164393
 30
0.0
  0
ATTRIB
  5
3F4
330
3F3
100
AcDbEntity
  8
FORMAT
 62
     2
100
AcDbText
 10
-17.47156822086676
 20
-49.97180738881176
 30
0.0
 40
4.233333333333333
  1
E5068901 [ 5 FLUTE ]
 41
0.75
  7
SLDTEXTSTYLE0
 11
-17.47156822086676
 21
-52.08847405547843
 31
0.0
100
AcDbAttribute
  2
AUTOATTR0
 70
     0
 74
     1
  0
SEQEND
  5
3F5
330
3F3
100
AcDbEntity
  8
0
  6
Continuous
 62
     7
  0
HATCH
  5
3F6
330
1F
100
AcDbEntity
  8
중심선
100
AcDbHatch
 10
0.0
 20
0.0
 30
0.0
210
0.0
220
0.0
230
1.0
  2
SOLID
 70
     1
 71
     0
 91
        1
 92
        0
 93
        4
 72
     1
 10
-2.575363627744636
 20
-35.80000000000001
 11
-6.021638871581928
 21
-35.80000000000001
 72
     1
 10
-6.021638871581928
 20
-35.80000000000001
 11
-8.149868730785954
 21
-38.33632558057261
 72
     1
 10
-8.14986873078594
 20
-38.33632558057261
 11
-4.703560401835517
 21
-38.33628615127012
 72
     1
 10
-4.703560401835517
 20
-38.33628615127012
 11
-2.575363627744636
 21
-35.8
 97
        0
 75
     0
 76
     1
 98
        1
 10
-36.10000000000028
 20
-0.0010749287239094
  0
HATCH
  5
3F7
330
1F
100
AcDbEntity
  8
중심선
100
AcDbHatch
 10
0.0
 20
0.0
 30
0.0
210
0.0
220
0.0
230
1.0
  2
SOLID
 70
     1
 71
     0
 91
        1
 92
        0
 93
        4
 72
     1
 10
2.437400363291403
 20
-35.79999999999998
 11
-1.008874880545875
 21
-35.79999999999998
 72
     1
 10
-1.008874880545889
 20
-35.79999999999998
 11
-5.540012888903362
 21
-41.20000000000002
 72
     1
 10
-5.540012888903362
 20
-41.20000000000002
 11
-2.093737645066085
 21
-41.20000000000002
 72
     1
 10
-2.093737645066085
 20
-41.20000000000002
 11
2.437400363291388
 21
-35.79999999999998
 97
        0
 75
     0
 76
     1
 98
        1
 10
-36.10000000000028
 20
-0.0010749287239094
  0
HATCH
  5
3F8
330
1F
100
AcDbEntity
  8
중심선
100
AcDbHatch
 10
0.0
 20
0.0
 30
0.0
210
0.0
220
0.0
230
1.0
  2
SOLID
 70
     1
 71
     0
 91
        1
 92
        0
 93
        4
 72
     1
 10
7.450164354327171
 20
-35.79999999999998
 11
4.003889110490064
 21
-35.8
 72
     1
 10
4.003889110490064
 20
-35.80000000000001
 11
-3.044547791399154
 21
-44.20000000000003
 72
     1
 10
-3.044547791399154
 20
-44.20000000000002
 11
0.4017274524381236
 21
-44.20000000000002
 72
     1
 10
0.4017274524381236
 20
-44.20000000000002
 11
7.450164354327171
 21
-35.79999999999998
 97
        0
 75
     0
 76
     1
 98
        1
 10
-36.10000000000028
 20
-0.0010749287239094
  0
HATCH
  5
3F9
330
1F
100
AcDbEntity
  8
중심선
100
AcDbHatch
 10
0.0
 20
0.0
 30
0.0
210
0.0
220
0.0
230
1.0
  2
SOLID
 70
     1
 71
     0
 91
        1
 92
        0
 93
        6
 72
     3
 10
12.25005478533939
 20
-40.00000000005127
 11
3.960054785062283
 21
1.540740868222201E-10
 40
0.3939339440162628
 50
17.09539180608408
 51
320.0019657685083
 73
     0
 72
     1
 10
13.93305444104
 20
-38.58789400463831
 11
16.23835631474104
 21
-36.65356729459042
 72
     3
 10
12.25005478528652
 20
-40.00000000000016
 11
6.600054785286829
 21
-1.278976924368180E-13
 40
0.636358354079598
 50
39.99873849337355
 51
368.4976242363724
 73
     1
 72
     1
 10
18.67538727718717
 20
-39.03999999993003
 11
10.93012209212247
 21
-39.03999999993003
 72
     1
 10
10.93012209212247
 20
-39.03999999993003
 11
10.93009704767651
 21
-40.95999999992992
 72
     1
 10
10.93009704767653
 20
-40.95999999992992
 11
15.37147681714859
 21
-40.95999999992989
 97
        0
 75
     0
 76
     1
 98
        1
 10
-36.10000000000028
 20
-0.0010749287239094
  0
DIMENSION
  5
3FA
330
1F
100
AcDbEntity
  8
치수문자_일반주서
100
AcDbDimension
  2
*D23
 10
85.19584650868893
 20
-9.571018386275693
 30
0.0
 11
85.19584650868879
 21
29.3539816137243
 31
0.0
 70
   160
  1
%%c<>
 71
     2
 42
19.05
 52
-270.0
  3
SLDDIMSTYLE2
100
AcDbAlignedDimension
 13
69.14999999999975
 23
9.478981613724244
 33
0.0
 14
69.14999999999975
 24
-9.571018386275753
 34
0.0
 50
90.0000000000002
100
AcDbRotatedDimension
1001
ACAD
1000
DSTYLE
1002
{
1070
   171
1070
     6
1070
   273
1070
     5
1070
    41
1040
4.0
1070
   140
1040
4.0
1002
}
  0
DIMENSION
  5
3FB
330
1F
100
AcDbEntity
  8
치수문자_일반주서
100
AcDbDimension
  2
*D24
 10
11.99999999999972
 20
35.80389757218046
 30
0.0
 11
40.57499999999973
 21
35.80389757218046
 31
0.0
 70
   160
  1
<>
 71
     2
 42
57.15000000000003
  3
SLDDIMSTYLE2
100
AcDbAlignedDimension
 13
69.14999999999975
 23
9.478981613724244
 33
0.0
 14
11.99999999999972
 24
9.476131487980922
 34
0.0
 50
-0.0000000000000427
100
AcDbRotatedDimension
1001
ACAD
1000
DSTYLE
1002
{
1070
   171
1070
     6
1070
   273
1070
     5
1070
    41
1040
4.0
1070
   140
1040
4.0
1002
}
  0
DIMENSION
  5
3FC
330
1F
100
AcDbEntity
  8
치수문자_일반주서
100
AcDbDimension
  2
*D25
 10
-57.85000000000026
 20
53.01923810201993
 30
0.0
 11
5.649999999999736
 21
53.01923810201993
 31
0.0
 70
   160
  1
<>
 71
     2
 42
127.0
  3
SLDDIMSTYLE2
100
AcDbAlignedDimension
 13
69.14999999999975
 23
9.478981613724244
 33
0.0
 14
-57.85000000000026
 24
7.573981613724243
 34
0.0
 50
0.0000000000000064
100
AcDbRotatedDimension
1001
ACAD
1000
DSTYLE
1002
{
1070
   171
1070
     6
1070
   273
1070
     5
1070
    41
1040
4.0
1070
   140
1040
4.0
1002
}
  0
DIMENSION
  5
3FD
330
1F
100
AcDbEntity
  8
치수문자_일반주서
100
AcDbDimension
  2
*D26
 10
-73.52875739544524
 20
-9.571018386275831
 30
0.0
 11
-73.52875739544538
 21
29.35398161372419
 31
0.0
 70
   160
  1
%%c<>
 71
     2
 42
19.05000000000001
 52
-270.0
  3
SLDDIMSTYLE2
100
AcDbAlignedDimension
 13
-55.94500000000028
 23
9.478981613724244
 33
0.0
 14
-55.94500000000028
 24
-9.571018386275767
 34
0.0
 50
90.0000000000002
100
AcDbRotatedDimension
1001
ACAD
1000
DSTYLE
1002
{
1070
   171
1070
     6
1070
   273
1070
     5
1070
    41
1040
4.0
1070
   140
1040
4.0
1002
}
  0
INSERT
  5
3FE
330
1F
100
AcDbEntity
  8
해칭선
100
AcDbBlockReference
  2
SW_DOWELSYMBOL_0
 10
0.0
 20
0.0
 30
0.0
  0
ENDSEC
  0
SECTION
  2
OBJECTS
  0
DICTIONARY
  5
C
330
0
100
AcDbDictionary
281
     1
  3
ACAD_GROUP
350
D
  3
ACAD_IMAGE_VARS
350
15A
  3
ACAD_LAYOUT
350
1A
  3
ACAD_MLINESTYLE
350
17
  3
ACAD_PLOTSETTINGS
350
19
  3
ACAD_PLOTSTYLENAME
350
E
  3
ACAD_SCALELIST
350
47
  3
APPDATA
350
158
  3
DWGPROPS
350
432
  0
DICTIONARY
  5
214
330
2
100
AcDbDictionary
280
     1
281
     1
  3
ACAD_LAYERSTATES
360
215
  0
DICTIONARY
  5
D
102
{ACAD_REACTORS
330
C
102
}
330
C
100
AcDbDictionary
281
     1
  0
RASTERVARIABLES
  5
15A
102
{ACAD_REACTORS
330
C
102
}
330
C
100
AcDbRasterVariables
 90
        0
 70
     1
 71
     1
 72
     1
  0
DICTIONARY
  5
1A
102
{ACAD_REACTORS
330
C
102
}
330
C
100
AcDbDictionary
281
     1
  3
Layout1
350
1E
  3
Layout2
350
26
  3
Model
350
22
  0
DICTIONARY
  5
17
102
{ACAD_REACTORS
330
C
102
}
330
C
100
AcDbDictionary
281
     1
  3
Standard
350
18
  0
DICTIONARY
  5
19
102
{ACAD_REACTORS
330
C
102
}
330
C
100
AcDbDictionary
281
     1
  0
ACDBDICTIONARYWDFLT
  5
E
102
{ACAD_REACTORS
330
C
102
}
330
C
100
AcDbDictionary
281
     1
  3
Normal
350
F
100
AcDbDictionaryWithDefault
340
F
  0
DICTIONARY
  5
47
102
{ACAD_REACTORS
330
C
102
}
330
C
100
AcDbDictionary
281
     1
  3
A0
350
48
  3
A1
350
49
  3
A2
350
4A
  3
A3
350
4B
  3
A4
350
4C
  3
A5
350
4D
  3
A6
350
4E
  3
A7
350
4F
  3
A8
350
50
  3
A9
350
51
  3
B0
350
52
  3
B1
350
53
  3
B2
350
54
  3
B3
350
55
  3
B4
350
56
  3
B5
350
57
  3
B6
350
58
  3
B7
350
59
  3
B8
350
5A
  3
B9
350
5B
  3
C0
350
5C
  3
C1
350
5D
  3
C2
350
5E
  3
C3
350
5F
  3
C4
350
60
  3
C5
350
61
  3
C6
350
62
  3
C7
350
63
  3
C8
350
64
  3
C9
350
65
  3
D0
350
66
  3
D1
350
67
  3
D2
350
68
  0
DICTIONARY
  5
158
102
{ACAD_REACTORS
330
C
102
}
330
C
100
AcDbDictionary
281
     1
  0
XRECORD
  5
432
102
{ACAD_REACTORS
330
C
102
}
330
C
100
AcDbXrecord
280
     1
  1
DWGPROPS COOKIE
  2

  3

  4

  6

  7

  8
12014074
  9

300
=
301
=
302
=
303
=
304
=
305
=
306
=
307
=
308
=
309
=
 40
0.0
 41
2458316.074199803
 42
2458323.380055637
  1

 90
        0
  0
DICTIONARY
  5
215
102
{ACAD_REACTORS
330
214
102
}
330
214
100
AcDbDictionary
281
     1
  0
LAYOUT
  5
1E
102
{ACAD_REACTORS
330
1A
102
}
330
1A
100
AcDbPlotSettings
  1

  2
none_device
  4

  6

 40
0.0
 41
0.0
 42
0.0
 43
0.0
 44
0.0
 45
0.0
 46
0.0
 47
0.0
 48
0.0
 49
0.0
140
0.0
141
0.0
142
1.0
143
1.0
 70
   688
 72
     1
 73
     0
 74
     5
  7

 75
    16
147
1.0
148
0.0
149
0.0
100
AcDbLayout
  1
Layout1
 70
     1
 71
     1
 10
0.0
 20
0.0
 11
420.0
 21
297.0
 12
0.0
 22
0.0
 32
0.0
 14
1.000000000000000E+20
 24
1.000000000000000E+20
 34
1.000000000000000E+20
 15
-1.000000000000000E+20
 25
-1.000000000000000E+20
 35
-1.000000000000000E+20
146
0.0
 13
0.0
 23
0.0
 33
0.0
 16
1.0
 26
0.0
 36
0.0
 17
0.0
 27
1.0
 37
0.0
 76
     0
330
1B
  0
LAYOUT
  5
26
102
{ACAD_REACTORS
330
1A
102
}
330
1A
100
AcDbPlotSettings
  1

  2
none_device
  4

  6

 40
0.0
 41
0.0
 42
0.0
 43
0.0
 44
0.0
 45
0.0
 46
0.0
 47
0.0
 48
0.0
 49
0.0
140
0.0
141
0.0
142
1.0
143
1.0
 70
   688
 72
     1
 73
     0
 74
     5
  7

 75
    16
147
1.0
148
0.0
149
0.0
100
AcDbLayout
  1
Layout2
 70
     1
 71
     2
 10
0.0
 20
0.0
 11
0.0
 21
0.0
 12
0.0
 22
0.0
 32
0.0
 14
0.0
 24
0.0
 34
0.0
 15
0.0
 25
0.0
 35
0.0
146
0.0
 13
0.0
 23
0.0
 33
0.0
 16
1.0
 26
0.0
 36
0.0
 17
0.0
 27
1.0
 37
0.0
 76
     0
330
23
  0
LAYOUT
  5
22
102
{ACAD_REACTORS
330
1A
102
}
330
1A
100
AcDbPlotSettings
  1

  2
none_device
  4
ANSI_A_(11.00_x_8.50_Inches)
  6

 40
6.35
 41
19.05
 42
6.35000508
 43
19.05000254
 44
279.4
 45
215.9
 46
28.09845710116802
 47
81.53250442837886
 48
0.0
 49
0.0
140
0.0
141
0.0
142
0.035698829707456
143
1.0
 70
  1696
 72
     0
 73
     0
 74
     0
  7

 75
     0
147
0.0235690232323232
148
0.0
149
0.0
100
AcDbLayout
  1
Model
 70
     1
 71
     0
 10
0.0
 20
0.0
 11
420.0
 21
297.0
 12
0.0
 22
0.0
 32
0.0
 14
1.000000000000000E+20
 24
1.000000000000000E+20
 34
1.000000000000000E+20
 15
-1.000000000000000E+20
 25
-1.000000000000000E+20
 35
-1.000000000000000E+20
146
0.0
 13
0.0
 23
0.0
 33
0.0
 16
1.0
 26
0.0
 36
0.0
 17
0.0
 27
1.0
 37
0.0
 76
     0
330
1F
331
29
  0
MLINESTYLE
  5
18
102
{ACAD_REACTORS
330
17
102
}
330
17
100
AcDbMlineStyle
  2
Standard
 70
     0
  3

 62
   256
 51
90.0
 52
90.0
 71
     2
 49
0.5
 62
   256
  6
BYLAYER
 49
-0.5
 62
   256
  6
BYLAYER
  0
ACDBPLACEHOLDER
  5
F
102
{ACAD_REACTORS
330
E
102
}
330
E
  0
SCALE
  5
48
102
{ACAD_REACTORS
330
47
102
}
330
47
100
AcDbScale
 70
     0
300
1:1
140
1.0
141
1.0
290
     1
  0
SCALE
  5
49
102
{ACAD_REACTORS
330
47
102
}
330
47
100
AcDbScale
 70
     0
300
1:2
140
1.0
141
2.0
290
     0
  0
SCALE
  5
4A
102
{ACAD_REACTORS
330
47
102
}
330
47
100
AcDbScale
 70
     0
300
1:4
140
1.0
141
4.0
290
     0
  0
SCALE
  5
4B
102
{ACAD_REACTORS
330
47
102
}
330
47
100
AcDbScale
 70
     0
300
1:5
140
1.0
141
5.0
290
     0
  0
SCALE
  5
4C
102
{ACAD_REACTORS
330
47
102
}
330
47
100
AcDbScale
 70
     0
300
1:8
140
1.0
141
8.0
290
     0
  0
SCALE
  5
4D
102
{ACAD_REACTORS
330
47
102
}
330
47
100
AcDbScale
 70
     0
300
1:10
140
1.0
141
10.0
290
     0
  0
SCALE
  5
4E
102
{ACAD_REACTORS
330
47
102
}
330
47
100
AcDbScale
 70
     0
300
1:16
140
1.0
141
16.0
290
     0
  0
SCALE
  5
4F
102
{ACAD_REACTORS
330
47
102
}
330
47
100
AcDbScale
 70
     0
300
1:20
140
1.0
141
20.0
290
     0
  0
SCALE
  5
50
102
{ACAD_REACTORS
330
47
102
}
330
47
100
AcDbScale
 70
     0
300
1:30
140
1.0
141
30.0
290
     0
  0
SCALE
  5
51
102
{ACAD_REACTORS
330
47
102
}
330
47
100
AcDbScale
 70
     0
300
1:40
140
1.0
141
40.0
290
     0
  0
SCALE
  5
52
102
{ACAD_REACTORS
330
47
102
}
330
47
100
AcDbScale
 70
     0
300
1:50
140
1.0
141
50.0
290
     0
  0
SCALE
  5
53
102
{ACAD_REACTORS
330
47
102
}
330
47
100
AcDbScale
 70
     0
300
1:100
140
1.0
141
100.0
290
     0
  0
SCALE
  5
54
102
{ACAD_REACTORS
330
47
102
}
330
47
100
AcDbScale
 70
     0
300
2:1
140
2.0
141
1.0
290
     0
  0
SCALE
  5
55
102
{ACAD_REACTORS
330
47
102
}
330
47
100
AcDbScale
 70
     0
300
4:1
140
4.0
141
1.0
290
     0
  0
SCALE
  5
56
102
{ACAD_REACTORS
330
47
102
}
330
47
100
AcDbScale
 70
     0
300
8:1
140
8.0
141
1.0
290
     0
  0
SCALE
  5
57
102
{ACAD_REACTORS
330
47
102
}
330
47
100
AcDbScale
 70
     0
300
10:1
140
10.0
141
1.0
290
     0
  0
SCALE
  5
58
102
{ACAD_REACTORS
330
47
102
}
330
47
100
AcDbScale
 70
     0
300
100:1
140
100.0
141
1.0
290
     0
  0
SCALE
  5
59
102
{ACAD_REACTORS
330
47
102
}
330
47
100
AcDbScale
 70
     0
300
1/128" = 1'-0"
140
0.0078125
141
12.0
290
     0
  0
SCALE
  5
5A
102
{ACAD_REACTORS
330
47
102
}
330
47
100
AcDbScale
 70
     0
300
1/64" = 1'-0"
140
0.015625
141
12.0
290
     0
  0
SCALE
  5
5B
102
{ACAD_REACTORS
330
47
102
}
330
47
100
AcDbScale
 70
     0
300
1/32" = 1'-0"
140
0.03125
141
12.0
290
     0
  0
SCALE
  5
5C
102
{ACAD_REACTORS
330
47
102
}
330
47
100
AcDbScale
 70
     0
300
1/16" = 1'-0"
140
0.0625
141
12.0
290
     0
  0
SCALE
  5
5D
102
{ACAD_REACTORS
330
47
102
}
330
47
100
AcDbScale
 70
     0
300
3/32" = 1'-0"
140
0.09375
141
12.0
290
     0
  0
SCALE
  5
5E
102
{ACAD_REACTORS
330
47
102
}
330
47
100
AcDbScale
 70
     0
300
1/8" = 1'-0"
140
0.125
141
12.0
290
     0
  0
SCALE
  5
5F
102
{ACAD_REACTORS
330
47
102
}
330
47
100
AcDbScale
 70
     0
300
3/16" = 1'-0"
140
0.1875
141
12.0
290
     0
  0
SCALE
  5
60
102
{ACAD_REACTORS
330
47
102
}
330
47
100
AcDbScale
 70
     0
300
1/4" = 1'-0"
140
0.25
141
12.0
290
     0
  0
SCALE
  5
61
102
{ACAD_REACTORS
330
47
102
}
330
47
100
AcDbScale
 70
     0
300
3/8" = 1'-0"
140
0.375
141
12.0
290
     0
  0
SCALE
  5
62
102
{ACAD_REACTORS
330
47
102
}
330
47
100
AcDbScale
 70
     0
300
1/2" = 1'-0"
140
0.5
141
12.0
290
     0
  0
SCALE
  5
63
102
{ACAD_REACTORS
330
47
102
}
330
47
100
AcDbScale
 70
     0
300
3/4" = 1'-0"
140
0.75
141
12.0
290
     0
  0
SCALE
  5
64
102
{ACAD_REACTORS
330
47
102
}
330
47
100
AcDbScale
 70
     0
300
1" = 1'-0"
140
1.0
141
12.0
290
     0
  0
SCALE
  5
65
102
{ACAD_REACTORS
330
47
102
}
330
47
100
AcDbScale
 70
     0
300
1-1/2" = 1'-0"
140
1.5
141
12.0
290
     0
  0
SCALE
  5
66
102
{ACAD_REACTORS
330
47
102
}
330
47
100
AcDbScale
 70
     0
300
3" = 1'-0"
140
3.0
141
12.0
290
     0
  0
SCALE
  5
67
102
{ACAD_REACTORS
330
47
102
}
330
47
100
AcDbScale
 70
     0
300
6" = 1'-0"
140
6.0
141
12.0
290
     0
  0
SCALE
  5
68
102
{ACAD_REACTORS
330
47
102
}
330
47
100
AcDbScale
 70
     0
300
1'-0" = 1'-0"
140
12.0
141
12.0
290
     0
  0
ENDSEC
  0
EOF
