  0
SECTION
  2
HEADER
  9
$ACADVER
  1
AC1015
  9
$ACADMAINTVER
 70
     6
  9
$DWGCODEPAGE
  3
ANSI_949
  9
$INSBASE
 10
0.0
 20
0.0
 30
0.0
  9
$EXTMIN
 10
1.000000000000000E+20
 20
1.000000000000000E+20
 30
1.000000000000000E+20
  9
$EXTMAX
 10
-1.000000000000000E+20
 20
-1.000000000000000E+20
 30
-1.000000000000000E+20
  9
$LIMMIN
 10
0.0
 20
0.0
  9
$LIMMAX
 10
420.0
 20
297.0
  9
$ORTHOMODE
 70
     1
  9
$REGENMODE
 70
     1
  9
$FILLMODE
 70
     1
  9
$QTEXTMODE
 70
     0
  9
$MIRRTEXT
 70
     1
  9
$LTSCALE
 40
1.0
  9
$ATTMODE
 70
     1
  9
$TEXTSIZE
 40
3.5
  9
$TRACEWID
 40
1.0
  9
$TEXTSTYLE
  7
Standard
  9
$CLAYER
  8
0
  9
$CELTYPE
  6
ByLayer
  9
$CECOLOR
 62
   256
  9
$CELTSCALE
 40
1.0
  9
$DISPSILH
 70
     0
  9
$DIMSCALE
 40
1.0
  9
$DIMASZ
 40
3.302
  9
$DIMEXO
 40
1.0
  9
$DIMDLI
 40
3.75
  9
$DIMRND
 40
0.0
  9
$DIMDLE
 40
0.0
  9
$DIMEXE
 40
1.0
  9
$DIMTP
 40
0.0
  9
$DIMTM
 40
0.0
  9
$DIMTXT
 40
3.5
  9
$DIMCEN
 40
2.5
  9
$DIMTSZ
 40
0.0
  9
$DIMTOL
 70
     0
  9
$DIMLIM
 70
     0
  9
$DIMTIH
 70
     1
  9
$DIMTOH
 70
     1
  9
$DIMSE1
 70
     0
  9
$DIMSE2
 70
     0
  9
$DIMTAD
 70
     1
  9
$DIMZIN
 70
     0
  9
$DIMBLK
  1

  9
$DIMASO
 70
     1
  9
$DIMSHO
 70
     1
  9
$DIMPOST
  1

  9
$DIMAPOST
  1

  9
$DIMALT
 70
     0
  9
$DIMALTD
 70
     3
  9
$DIMALTF
 40
0.0393700787401575
  9
$DIMLFAC
 40
1.0
  9
$DIMTOFL
 70
     1
  9
$DIMTVP
 40
0.0
  9
$DIMTIX
 70
     0
  9
$DIMSOXD
 70
     0
  9
$DIMSAH
 70
     0
  9
$DIMBLK1
  1

  9
$DIMBLK2
  1

  9
$DIMSTYLE
  2
ISO-25
  9
$DIMCLRD
 70
     0
  9
$DIMCLRE
 70
     0
  9
$DIMCLRT
 70
     0
  9
$DIMTFAC
 40
1.0
  9
$DIMGAP
 40
1.524
  9
$DIMJUST
 70
     0
  9
$DIMSD1
 70
     0
  9
$DIMSD2
 70
     0
  9
$DIMTOLJ
 70
     0
  9
$DIMTZIN
 70
     0
  9
$DIMALTZ
 70
     0
  9
$DIMALTTZ
 70
     0
  9
$DIMUPT
 70
     0
  9
$DIMDEC
 70
     2
  9
$DIMTDEC
 70
     2
  9
$DIMALTU
 70
     2
  9
$DIMALTTD
 70
     3
  9
$DIMTXSTY
  7
Standard
  9
$DIMAUNIT
 70
     0
  9
$DIMADEC
 70
     2
  9
$DIMALTRND
 40
0.0
  9
$DIMAZIN
 70
     0
  9
$DIMDSEP
 70
    44
  9
$DIMATFIT
 70
     3
  9
$DIMFRAC
 70
     0
  9
$DIMLDRBLK
  1

  9
$DIMLUNIT
 70
     2
  9
$DIMLWD
 70
    -2
  9
$DIMLWE
 70
    -2
  9
$DIMTMOVE
 70
     0
  9
$LUNITS
 70
     2
  9
$LUPREC
 70
     2
  9
$SKETCHINC
 40
1.0
  9
$FILLETRAD
 40
10.0
  9
$AUNITS
 70
     0
  9
$AUPREC
 70
     2
  9
$MENU
  1
.
  9
$ELEVATION
 40
0.0
  9
$PELEVATION
 40
0.0
  9
$THICKNESS
 40
0.0
  9
$LIMCHECK
 70
     0
  9
$CHAMFERA
 40
0.0
  9
$CHAMFERB
 40
0.0
  9
$CHAMFERC
 40
0.0
  9
$CHAMFERD
 40
0.0
  9
$SKPOLY
 70
     0
  9
$TDCREATE
 40
2458316.449623391
  9
$TDUCREATE
 40
2458316.074623391
  9
$TDUPDATE
 40
2458323.754860567
  9
$TDUUPDATE
 40
2458323.379860567
  9
$TDINDWG
 40
0.0011240509
  9
$TDUSRTIMER
 40
2458323.378736725
  9
$USRTIMER
 70
     1
  9
$ANGBASE
 50
0.0
  9
$ANGDIR
 70
     0
  9
$PDMODE
 70
     0
  9
$PDSIZE
 40
-1.0
  9
$PLINEWID
 40
0.0
  9
$SPLFRAME
 70
     0
  9
$SPLINETYPE
 70
     6
  9
$SPLINESEGS
 70
     8
  9
$HANDSEED
  5
2C2
  9
$SURFTAB1
 70
     6
  9
$SURFTAB2
 70
     6
  9
$SURFTYPE
 70
     6
  9
$SURFU
 70
     6
  9
$SURFV
 70
     6
  9
$UCSBASE
  2

  9
$UCSNAME
  2

  9
$UCSORG
 10
0.0
 20
0.0
 30
0.0
  9
$UCSXDIR
 10
1.0
 20
0.0
 30
0.0
  9
$UCSYDIR
 10
0.0
 20
1.0
 30
0.0
  9
$UCSORTHOREF
  2

  9
$UCSORTHOVIEW
 70
     0
  9
$UCSORGTOP
 10
0.0
 20
0.0
 30
0.0
  9
$UCSORGBOTTOM
 10
0.0
 20
0.0
 30
0.0
  9
$UCSORGLEFT
 10
0.0
 20
0.0
 30
0.0
  9
$UCSORGRIGHT
 10
0.0
 20
0.0
 30
0.0
  9
$UCSORGFRONT
 10
0.0
 20
0.0
 30
0.0
  9
$UCSORGBACK
 10
0.0
 20
0.0
 30
0.0
  9
$PUCSBASE
  2

  9
$PUCSNAME
  2

  9
$PUCSORG
 10
0.0
 20
0.0
 30
0.0
  9
$PUCSXDIR
 10
1.0
 20
0.0
 30
0.0
  9
$PUCSYDIR
 10
0.0
 20
1.0
 30
0.0
  9
$PUCSORTHOREF
  2

  9
$PUCSORTHOVIEW
 70
     0
  9
$PUCSORGTOP
 10
0.0
 20
0.0
 30
0.0
  9
$PUCSORGBOTTOM
 10
0.0
 20
0.0
 30
0.0
  9
$PUCSORGLEFT
 10
0.0
 20
0.0
 30
0.0
  9
$PUCSORGRIGHT
 10
0.0
 20
0.0
 30
0.0
  9
$PUCSORGFRONT
 10
0.0
 20
0.0
 30
0.0
  9
$PUCSORGBACK
 10
0.0
 20
0.0
 30
0.0
  9
$USERI1
 70
     0
  9
$USERI2
 70
     0
  9
$USERI3
 70
     0
  9
$USERI4
 70
     0
  9
$USERI5
 70
     0
  9
$USERR1
 40
0.0
  9
$USERR2
 40
0.0
  9
$USERR3
 40
0.0
  9
$USERR4
 40
0.0
  9
$USERR5
 40
0.0
  9
$WORLDVIEW
 70
     1
  9
$SHADEDGE
 70
     3
  9
$SHADEDIF
 70
    70
  9
$TILEMODE
 70
     1
  9
$MAXACTVP
 70
    64
  9
$PINSBASE
 10
0.0
 20
0.0
 30
0.0
  9
$PLIMCHECK
 70
     0
  9
$PEXTMIN
 10
1.000000000000000E+20
 20
1.000000000000000E+20
 30
1.000000000000000E+20
  9
$PEXTMAX
 10
-1.000000000000000E+20
 20
-1.000000000000000E+20
 30
-1.000000000000000E+20
  9
$PLIMMIN
 10
0.0
 20
0.0
  9
$PLIMMAX
 10
0.0
 20
0.0
  9
$UNITMODE
 70
     0
  9
$VISRETAIN
 70
     1
  9
$PLINEGEN
 70
     0
  9
$PSLTSCALE
 70
     1
  9
$TREEDEPTH
 70
  3020
  9
$CMLSTYLE
  2
Standard
  9
$CMLJUST
 70
     0
  9
$CMLSCALE
 40
20.0
  9
$PROXYGRAPHICS
 70
     1
  9
$MEASUREMENT
 70
     1
  9
$CELWEIGHT
370
    -1
  9
$ENDCAPS
280
     0
  9
$JOINSTYLE
280
     0
  9
$LWDISPLAY
290
     1
  9
$INSUNITS
 70
     4
  9
$HYPERLINKBASE
  1

  9
$STYLESHEET
  1

  9
$XEDIT
290
     1
  9
$CEPSNTYPE
380
     0
  9
$PSTYLEMODE
290
     1
  9
$FINGERPRINTGUID
  2
{350BF3B0-AFB9-41A0-A21C-C02E1EE9BAC4}
  9
$VERSIONGUID
  2
{FAEB1C32-E019-11D5-929B-00C0DF256EC4}
  9
$EXTNAMES
290
     1
  9
$PSVPSCALE
 40
0.0
  9
$OLESTARTUP
290
     0
  0
ENDSEC
  0
SECTION
  2
CLASSES
  0
CLASS
  1
ACDBDICTIONARYWDFLT
  2
AcDbDictionaryWithDefault
  3
ObjectDBX Classes
 90
        0
280
     0
281
     0
  0
CLASS
  1
VISUALSTYLE
  2
AcDbVisualStyle
  3
ObjectDBX Classes
 90
     4095
280
     0
281
     0
  0
CLASS
  1
MATERIAL
  2
AcDbMaterial
  3
ObjectDBX Classes
 90
     1153
280
     0
281
     0
  0
CLASS
  1
SCALE
  2
AcDbScale
  3
ObjectDBX Classes
 90
     1153
280
     0
281
     0
  0
CLASS
  1
SUN
  2
AcDbSun
  3
SCENEOE
 90
     1153
280
     0
281
     0
  0
CLASS
  1
ACDBPLACEHOLDER
  2
AcDbPlaceHolder
  3
ObjectDBX Classes
 90
        0
280
     0
281
     0
  0
CLASS
  1
LAYOUT
  2
AcDbLayout
  3
ObjectDBX Classes
 90
        0
280
     0
281
     0
  0
CLASS
  1
TABLESTYLE
  2
AcDbTableStyle
  3
ObjectDBX Classes
 90
     4095
280
     0
281
     0
  0
CLASS
  1
MLEADERSTYLE
  2
AcDbMLeaderStyle
  3
ACDB_MLEADERSTYLE_CLASS
 90
     4095
280
     0
281
     0
  0
CLASS
  1
RASTERVARIABLES
  2
AcDbRasterVariables
  3
ISM
 90
        0
280
     0
281
     0
  0
ENDSEC
  0
SECTION
  2
TABLES
  0
TABLE
  2
VPORT
  5
8
330
0
100
AcDbSymbolTable
 70
     1
  0
VPORT
  5
29
330
8
100
AcDbSymbolTableRecord
100
AcDbViewportTableRecord
  2
*Active
 70
     0
 10
0.0
 20
0.0
 11
1.0
 21
1.0
 12
19.55754624311719
 22
2.855626086000051
 13
0.0
 23
0.0
 14
10.0
 24
10.0
 15
10.0
 25
10.0
 16
0.0
 26
0.0
 36
1.0
 17
0.0
 27
0.0
 37
0.0
 40
144.9878379585859
 41
1.970186335403727
 42
50.0
 43
0.0
 44
0.0
 50
0.0
 51
0.0
 71
    16
 72
  2000
 73
     1
 74
     3
 75
     0
 76
     0
 77
     0
 78
     0
281
     0
 65
     1
110
0.0
120
0.0
130
0.0
111
1.0
121
0.0
131
0.0
112
0.0
122
1.0
132
0.0
 79
     0
146
0.0
  0
ENDTAB
  0
TABLE
  2
LTYPE
  5
5
330
0
100
AcDbSymbolTable
 70
     6
  0
LTYPE
  5
14
330
5
100
AcDbSymbolTableRecord
100
AcDbLinetypeTableRecord
  2
ByBlock
 70
     0
  3

 72
    65
 73
     0
 40
0.0
  0
LTYPE
  5
15
330
5
100
AcDbSymbolTableRecord
100
AcDbLinetypeTableRecord
  2
ByLayer
 70
     0
  3

 72
    65
 73
     0
 40
0.0
  0
LTYPE
  5
16
330
5
100
AcDbSymbolTableRecord
100
AcDbLinetypeTableRecord
  2
Continuous
 70
     0
  3
Solid line
 72
    65
 73
     0
 40
0.0
  0
LTYPE
  5
6A
330
5
100
AcDbSymbolTableRecord
100
AcDbLinetypeTableRecord
  2
HIDDEN
 70
     0
  3
Hidden __ __ __ __ __ __ __ __ __ __ __ __ __ __
 72
    65
 73
     2
 40
1.905
 49
1.27
 74
     0
 49
-0.635
 74
     0
  0
LTYPE
  5
6B
330
5
100
AcDbSymbolTableRecord
100
AcDbLinetypeTableRecord
  2
PHANTOM
 70
     0
  3
Phantom ______  __  __  ______  __  __  ______
 72
    65
 73
     6
 40
12.7
 49
6.35
 74
     0
 49
-1.27
 74
     0
 49
1.27
 74
     0
 49
-1.27
 74
     0
 49
1.27
 74
     0
 49
-1.27
 74
     0
  0
LTYPE
  5
6C
330
5
100
AcDbSymbolTableRecord
100
AcDbLinetypeTableRecord
  2
CENTER
 70
     0
  3
Center ____ _ ____ _ ____ _ ____ _ ____ _ ____
 72
    65
 73
     4
 40
10.16
 49
6.35
 74
     0
 49
-1.27
 74
     0
 49
1.27
 74
     0
 49
-1.27
 74
     0
  0
LTYPE
  5
6D
330
5
100
AcDbSymbolTableRecord
100
AcDbLinetypeTableRecord
  2
CENTERX2
 70
     0
  3
Center (2x) ________  __  ________  __  _____
 72
    65
 73
     4
 40
20.32
 49
12.7
 74
     0
 49
-2.54
 74
     0
 49
2.54
 74
     0
 49
-2.54
 74
     0
  0
LTYPE
  5
6E
330
5
100
AcDbSymbolTableRecord
100
AcDbLinetypeTableRecord
  2
DOT2
 70
     0
  3
Dot (.5x) ........................................
 72
    65
 73
     2
 40
0.635
 49
0.0
 74
     0
 49
-0.635
 74
     0
  0
ENDTAB
  0
TABLE
  2
LAYER
  5
2
102
{ACAD_XDICTIONARY
360
214
102
}
330
0
100
AcDbSymbolTable
 70
    18
  0
LAYER
  5
10
330
2
100
AcDbSymbolTableRecord
100
AcDbLayerTableRecord
  2
0
 70
     0
 62
     7
  6
Continuous
370
    -3
390
F
  0
LAYER
  5
6F
330
2
100
AcDbSymbolTableRecord
100
AcDbLayerTableRecord
  2
FORMAT
 70
     0
 62
     2
  6
Continuous
370
    -3
390
F
  0
LAYER
  5
70
330
2
100
AcDbSymbolTableRecord
100
AcDbLayerTableRecord
  2
외형선
 70
     0
 62
     4
  6
Continuous
370
    30
390
F
  0
LAYER
  5
71
330
2
100
AcDbSymbolTableRecord
100
AcDbLayerTableRecord
  2
숨은선
 70
     0
 62
     2
  6
HIDDEN
370
    15
390
F
  0
LAYER
  5
72
330
2
100
AcDbSymbolTableRecord
100
AcDbLayerTableRecord
  2
중심선
 70
     0
 62
     1
  6
CENTERX2
370
    -3
390
F
  0
LAYER
  5
73
330
2
100
AcDbSymbolTableRecord
100
AcDbLayerTableRecord
  2
파단선
 70
     0
 62
     4
  6
Continuous
370
    -3
390
F
  0
LAYER
  5
74
330
2
100
AcDbSymbolTableRecord
100
AcDbLayerTableRecord
  2
해칭선
 70
     0
 62
   100
  6
Continuous
370
    -3
390
F
  0
LAYER
  5
75
330
2
100
AcDbSymbolTableRecord
100
AcDbLayerTableRecord
  2
가는실선
 70
     0
 62
     4
  6
Continuous
370
    -3
390
F
  0
LAYER
  5
76
330
2
100
AcDbSymbolTableRecord
100
AcDbLayerTableRecord
  2
치수_보조선
 70
     0
 62
     4
  6
Continuous
370
    -3
390
F
  0
LAYER
  5
77
330
2
100
AcDbSymbolTableRecord
100
AcDbLayerTableRecord
  2
치수문자_일반주서
 70
     0
 62
     7
  6
Continuous
370
    15
390
F
  0
LAYER
  5
78
330
2
100
AcDbSymbolTableRecord
100
AcDbLayerTableRecord
  2
개별주서
 70
     0
 62
   100
  6
Continuous
370
    30
390
F
  0
LAYER
  5
79
330
2
100
AcDbSymbolTableRecord
100
AcDbLayerTableRecord
  2
중간선
 70
     0
 62
     2
  6
Continuous
370
    15
390
F
  0
LAYER
  5
7A
330
2
100
AcDbSymbolTableRecord
100
AcDbLayerTableRecord
  2
윤곽선
 70
     0
 62
     3
  6
Continuous
370
    40
390
F
  0
LAYER
  5
7B
330
2
100
AcDbSymbolTableRecord
100
AcDbLayerTableRecord
  2
중심마크
 70
     0
 62
   100
  6
Continuous
370
    30
390
F
  0
LAYER
  5
7C
330
2
100
AcDbSymbolTableRecord
100
AcDbLayerTableRecord
  2
가상선
 70
     0
 62
     4
  6
PHANTOM
370
    -3
390
F
  0
LAYER
  5
7D
330
2
100
AcDbSymbolTableRecord
100
AcDbLayerTableRecord
  2
특수지정선
 70
     0
 62
     5
  6
CENTERX2
370
    60
390
F
  0
LAYER
  5
7E
330
2
100
AcDbSymbolTableRecord
100
AcDbLayerTableRecord
  2
참조1
 70
     0
 62
    -4
  6
Continuous
370
    -3
390
F
  0
LAYER
  5
158
330
2
100
AcDbSymbolTableRecord
100
AcDbLayerTableRecord
  2
Defpoints
 70
     0
 62
     7
  6
Continuous
290
     0
370
    -3
390
F
  0
ENDTAB
  0
TABLE
  2
STYLE
  5
3
330
0
100
AcDbSymbolTable
 70
     2
  0
STYLE
  5
11
330
3
100
AcDbSymbolTableRecord
100
AcDbTextStyleTableRecord
  2
Standard
 70
     0
 40
0.0
 41
1.0
 50
0.0
 71
     0
 42
3.5
  3
txt
  4

  0
STYLE
  5
94
330
3
100
AcDbSymbolTableRecord
100
AcDbTextStyleTableRecord
  2
SLDTEXTSTYLE0
 70
     0
 40
0.0
 41
0.75
 50
0.0
 71
     0
 42
3.5
  3
TXT
  4

  0
ENDTAB
  0
TABLE
  2
VIEW
  5
6
330
0
100
AcDbSymbolTable
 70
     0
  0
ENDTAB
  0
TABLE
  2
UCS
  5
7
330
0
100
AcDbSymbolTable
 70
     0
  0
ENDTAB
  0
TABLE
  2
APPID
  5
9
330
0
100
AcDbSymbolTable
 70
     1
  0
APPID
  5
12
330
9
100
AcDbSymbolTableRecord
100
AcDbRegAppTableRecord
  2
ACAD
 70
     0
  0
ENDTAB
  0
TABLE
  2
DIMSTYLE
  5
A
330
0
100
AcDbSymbolTable
 70
     5
100
AcDbDimStyleTable
  0
DIMSTYLE
105
27
330
A
100
AcDbSymbolTableRecord
100
AcDbDimStyleTableRecord
  2
ISO-25
 70
     0
 41
2.5
 42
0.625
 43
3.75
 44
1.25
 73
     0
 74
     0
 77
     1
 78
     8
140
2.5
141
2.5
143
0.03937007874016
147
0.625
171
     3
172
     1
178
     0
271
     2
272
     2
274
     3
278
    44
283
     0
284
     8
340
11
  0
DIMSTYLE
105
D4
330
A
100
AcDbSymbolTableRecord
100
AcDbDimStyleTableRecord
  2
SLDDIMSTYLE0
 70
     0
 41
3.302
 44
0.0
 45
0.000000001
 73
     0
 74
     0
 77
     1
 78
    12
 79
     3
140
3.5
143
0.0393700787401575
147
0.875
148
0.000000001
170
     1
172
     1
173
     1
178
     0
271
     2
272
     2
276
     2
284
    12
289
     0
340
94
  0
DIMSTYLE
105
E9
330
A
100
AcDbSymbolTableRecord
100
AcDbDimStyleTableRecord
  2
SLDDIMSTYLE1
 70
     0
 41
3.302
 44
0.0
 45
0.000000001
 73
     0
 74
     0
 77
     1
 78
    12
 79
     3
140
3.5
143
0.0393700787401575
147
0.875
148
0.000000001
170
     1
173
     1
178
     0
271
     2
272
     2
276
     2
284
    12
340
94
  0
DIMSTYLE
105
FE
102
{ACAD_REACTORS
330
FD
330
1D3
330
1E3
330
1F0
330
1FD
330
D3
330
E8
330
111
102
}
330
A
100
AcDbSymbolTableRecord
100
AcDbDimStyleTableRecord
  2
SLDDIMSTYLE2
 70
     0
 41
3.302
 44
0.0
 45
0.000000001
 73
     0
 74
     0
 77
     1
 78
     4
 79
     1
140
3.5
143
0.0393700787401575
147
0.875
148
0.000000001
170
     1
173
     1
178
     0
271
     2
272
     2
276
     2
284
    12
340
94
  0
DIMSTYLE
105
112
330
A
100
AcDbSymbolTableRecord
100
AcDbDimStyleTableRecord
  2
SLDDIMSTYLE3
 70
     0
 41
3.302
 44
0.0
 45
0.000000001
 73
     0
 74
     0
 77
     1
 78
     4
 79
     1
140
3.5
143
0.0393700787401575
147
0.875
148
0.000000001
170
     1
172
     1
173
     1
178
     0
271
     2
272
     2
276
     2
284
    12
289
     0
340
94
  0
ENDTAB
  0
TABLE
  2
BLOCK_RECORD
  5
1
330
0
100
AcDbSymbolTable
 70
    16
  0
BLOCK_RECORD
  5
1F
330
1
100
AcDbSymbolTableRecord
100
AcDbBlockTableRecord
  2
*Model_Space
340
22
  0
BLOCK_RECORD
  5
1B
330
1
100
AcDbSymbolTableRecord
100
AcDbBlockTableRecord
  2
*Paper_Space
340
1E
  0
BLOCK_RECORD
  5
23
330
1
100
AcDbSymbolTableRecord
100
AcDbBlockTableRecord
  2
*Paper_Space0
340
26
  0
BLOCK_RECORD
  5
7F
330
1
100
AcDbSymbolTableRecord
100
AcDbBlockTableRecord
  2
블럭10
340
0
102
{BLKREFS
331
CC
331
1B6
331
0
102
}
  0
BLOCK_RECORD
  5
D5
330
1
100
AcDbSymbolTableRecord
100
AcDbBlockTableRecord
  2
_D
340
0
  0
BLOCK_RECORD
  5
EA
330
1
100
AcDbSymbolTableRecord
100
AcDbBlockTableRecord
  2
_D_1
340
0
  0
BLOCK_RECORD
  5
FF
330
1
100
AcDbSymbolTableRecord
100
AcDbBlockTableRecord
  2
_D_2
340
0
  0
BLOCK_RECORD
  5
113
330
1
100
AcDbSymbolTableRecord
100
AcDbBlockTableRecord
  2
_D_3
340
0
  0
BLOCK_RECORD
  5
12D
330
1
100
AcDbSymbolTableRecord
100
AcDbBlockTableRecord
  2
SW_DOWELSYMBOL_0
340
0
102
{BLKREFS
331
133
331
20D
331
0
102
}
  0
BLOCK_RECORD
  5
218
330
1
100
AcDbSymbolTableRecord
100
AcDbBlockTableRecord
  2
*D8
340
0
  0
BLOCK_RECORD
  5
225
330
1
100
AcDbSymbolTableRecord
100
AcDbBlockTableRecord
  2
*D9
340
0
  0
BLOCK_RECORD
  5
231
330
1
100
AcDbSymbolTableRecord
100
AcDbBlockTableRecord
  2
*D10
340
0
  0
BLOCK_RECORD
  5
23D
330
1
100
AcDbSymbolTableRecord
100
AcDbBlockTableRecord
  2
*D11
340
0
  0
BLOCK_RECORD
  5
28A
330
1
100
AcDbSymbolTableRecord
100
AcDbBlockTableRecord
  2
*D12
340
0
  0
BLOCK_RECORD
  5
297
330
1
100
AcDbSymbolTableRecord
100
AcDbBlockTableRecord
  2
*D13
340
0
  0
BLOCK_RECORD
  5
2A3
330
1
100
AcDbSymbolTableRecord
100
AcDbBlockTableRecord
  2
*D14
340
0
  0
BLOCK_RECORD
  5
2AF
330
1
100
AcDbSymbolTableRecord
100
AcDbBlockTableRecord
  2
*D15
340
0
  0
ENDTAB
  0
ENDSEC
  0
SECTION
  2
BLOCKS
  0
BLOCK
  5
20
330
1F
100
AcDbEntity
  8
0
100
AcDbBlockBegin
  2
*Model_Space
 70
     0
 10
0.0
 20
0.0
 30
0.0
  3
*Model_Space
  1
*Model_Space
  0
ENDBLK
  5
21
330
1F
100
AcDbEntity
  8
0
100
AcDbBlockEnd
  0
BLOCK
  5
1C
330
1B
100
AcDbEntity
 67
     1
  8
0
100
AcDbBlockBegin
  2
*Paper_Space
 70
     0
 10
0.0
 20
0.0
 30
0.0
  3
*Paper_Space
  1
*Paper_Space
  0
ENDBLK
  5
1D
330
1B
100
AcDbEntity
 67
     1
  8
0
100
AcDbBlockEnd
  0
BLOCK
  5
24
330
23
100
AcDbEntity
  8
0
100
AcDbBlockBegin
  2
*Paper_Space0
 70
     0
 10
0.0
 20
0.0
 30
0.0
  3
*Paper_Space0
  1
*Paper_Space0
  0
ENDBLK
  5
25
330
23
100
AcDbEntity
  8
0
100
AcDbBlockEnd
  0
BLOCK
  5
80
330
7F
100
AcDbEntity
  8
0
100
AcDbBlockBegin
  2
블럭10
 70
     2
 10
0.0
 20
0.0
 30
0.0
  3
블럭10
  1
블럭10
  0
ELLIPSE
  5
82
330
7F
100
AcDbEntity
  8
중심선
100
AcDbEllipse
 10
20.54032771741204
 20
12.0471743016438
 30
0.0
 11
6.600054785286829
 21
-1.261213355974178E-13
 31
0.0
210
0.0
220
0.0
230
1.0
 40
0.636358354079598
 41
0.9219305317359503
 42
6.513795318482858
  0
ELLIPSE
  5
83
330
7F
100
AcDbEntity
  8
중심선
100
AcDbEllipse
 10
20.54032771746488
 20
12.04717430159265
 30
0.0
 11
3.960054785062283
 21
1.540847449632565E-10
 31
0.0
210
0.0
220
0.0
230
1.0
 40
0.3939339440162632
 41
1.131841032648279
 42
5.62031148352944
  0
LINE
  5
84
330
7F
100
AcDbEntity
  8
중심선
100
AcDbLine
 10
2.268634060543552
 20
16.24717430164393
 30
0.0
 11
5.714909304380834
 21
16.24717430164393
 31
0.0
  0
LINE
  5
85
330
7F
100
AcDbEntity
  8
중심선
100
AcDbLine
 10
5.245725140726316
 20
7.84717430164391
 30
0.0
 11
8.692000384563599
 21
7.84717430164391
 31
0.0
  0
LINE
  5
86
330
7F
100
AcDbEntity
  8
중심선
100
AcDbLine
 10
15.74043728645272
 20
16.24717430164393
 30
0.0
 11
8.692000384563599
 21
7.84717430164391
 31
0.0
  0
LINE
  5
87
330
7F
100
AcDbEntity
  8
중심선
100
AcDbLine
 10
0.1404042013395286
 20
13.71084872107135
 30
0.0
 11
3.58671253028996
 21
13.71088815037384
 31
0.0
  0
LINE
  5
88
330
7F
100
AcDbEntity
  8
중심선
100
AcDbLine
 10
2.750260043222114
 20
10.84717430164391
 30
0.0
 11
6.196535287059397
 21
10.84717430164391
 31
0.0
  0
LINE
  5
89
330
7F
100
AcDbEntity
  8
중심선
100
AcDbLine
 10
12.29416204261559
 20
16.24717430164393
 30
0.0
 11
5.245725140726316
 21
7.84717430164391
 31
0.0
  0
LINE
  5
8A
330
7F
100
AcDbEntity
  8
중심선
100
AcDbLine
 10
10.72767329541681
 20
16.24717430164393
 30
0.0
 11
6.196535287059397
 21
10.84717430164391
 31
0.0
  0
LINE
  5
8B
330
7F
100
AcDbEntity
  8
중심선
100
AcDbLine
 10
7.28139805157953
 20
16.24717430164393
 30
0.0
 11
2.750260043222114
 21
10.84717430164391
 31
0.0
  0
LINE
  5
8C
330
7F
100
AcDbEntity
  8
중심선
100
AcDbLine
 10
5.714909304380834
 20
16.24717430164393
 30
0.0
 11
3.58671253028996
 21
13.71088815037384
 31
0.0
  0
LINE
  5
8D
330
7F
100
AcDbEntity
  8
중심선
100
AcDbLine
 10
2.268634060543552
 20
16.24717430164393
 30
0.0
 11
0.1404042013395286
 21
13.71084872107135
 31
0.0
  0
LINE
  5
8E
330
7F
100
AcDbEntity
  8
중심선
100
AcDbLine
 10
7.28139805157953
 20
16.24717430164393
 30
0.0
 11
10.72767329541681
 21
16.24717430164393
 31
0.0
  0
LINE
  5
8F
330
7F
100
AcDbEntity
  8
중심선
100
AcDbLine
 10
12.29416204261559
 20
16.24717430164393
 30
0.0
 11
15.74043728645272
 21
16.24717430164393
 31
0.0
  0
LINE
  5
90
330
7F
100
AcDbEntity
  8
중심선
100
AcDbLine
 10
19.22036997980202
 20
11.08717430171403
 30
0.0
 11
23.66174974927406
 21
11.08717430171406
 31
0.0
  0
LINE
  5
91
330
7F
100
AcDbEntity
  8
중심선
100
AcDbLine
 10
19.22039502424796
 20
13.00717430171391
 30
0.0
 11
19.22036997980202
 21
11.08717430171403
 31
0.0
  0
LINE
  5
92
330
7F
100
AcDbEntity
  8
중심선
100
AcDbLine
 10
19.22039502424796
 20
13.00717430171391
 30
0.0
 11
26.96566020931264
 21
13.00717430171391
 31
0.0
  0
LINE
  5
93
330
7F
100
AcDbEntity
  8
중심선
100
AcDbLine
 10
22.22332737316547
 20
13.45928029700563
 30
0.0
 11
24.52862924686651
 21
15.39360700705356
 31
0.0
  0
ATTDEF
  5
95
330
7F
100
AcDbEntity
  8
FORMAT
 62
     2
100
AcDbText
 10
4.408487351596664
 20
2.075366912832191
 30
0.0
 40
4.233333333333333
  1
E5068902
 41
0.75
  7
SLDTEXTSTYLE0
 11
4.408487351596664
 21
-0.0412997538344756
 31
0.0
100
AcDbAttributeDefinition
  3

  2
AUTOATTR0
 70
     0
 74
     1
  0
ENDBLK
  5
81
330
7F
100
AcDbEntity
  8
0
100
AcDbBlockEnd
  0
BLOCK
  5
D6
330
D5
100
AcDbEntity
  8
0
100
AcDbBlockBegin
  2
_D
 70
     0
 10
0.0
 20
0.0
 30
0.0
  3
_D
  1
_D
  0
LINE
  5
D8
330
D5
100
AcDbEntity
  8
치수문자_일반주서
 62
     0
370
    -2
100
AcDbLine
 10
78.73749999999998
 20
12.65398161372425
 30
0.0
 11
109.4395569820599
 21
12.65398161372436
 31
0.0
  0
LINE
  5
D9
330
D5
100
AcDbEntity
  8
치수문자_일반주서
 62
     0
370
    -2
100
AcDbLine
 10
78.73749999999998
 20
-12.74601838627575
 30
0.0
 11
109.43955698206
 21
-12.74601838627564
 31
0.0
  0
LINE
  5
DA
330
D5
100
AcDbEntity
  8
치수문자_일반주서
 62
     0
370
    -2
100
AcDbLine
 10
109.4395569820599
 20
12.65398161372436
 30
0.0
 11
109.4395569820598
 21
45.40398161372435
 31
0.0
  0
LINE
  5
DB
330
D5
100
AcDbEntity
  8
치수문자_일반주서
 62
     0
370
    -2
100
AcDbLine
 10
109.4395569820599
 20
8.653981613724358
 30
0.0
 11
109.4395569820599
 21
-8.746018386275637
 31
0.0
  0
SOLID
  5
DC
330
D5
100
AcDbEntity
  8
치수문자_일반주서
 62
     0
100
AcDbTrace
 10
110.1062236487266
 20
8.65398161372436
 30
0.0
 11
108.7728903153932
 21
8.653981613724357
 31
0.0
 12
109.4395569820599
 22
12.65398161372436
 32
0.0
 13
109.4395569820599
 23
12.65398161372436
 33
0.0
  0
SOLID
  5
DD
330
D5
100
AcDbEntity
  8
치수문자_일반주서
 62
     0
100
AcDbTrace
 10
108.7728903153933
 20
-8.746018386275638
 30
0.0
 11
110.1062236487266
 21
-8.746018386275635
 31
0.0
 12
109.43955698206
 22
-12.74601838627564
 32
0.0
 13
109.43955698206
 23
-12.74601838627564
 33
0.0
  0
MTEXT
  5
DE
330
D5
100
AcDbEntity
  8
치수문자_일반주서
 62
     0
100
AcDbMText
 10
104.5645569820598
 20
32.77898161372434
 30
0.0
 40
4.0
 41
0.0
 71
     2
 72
     1
  1
\A1;%%c25.40 [1]
  7
SLDTEXTSTYLE0
 11
-3.356894814614647E-15
 21
1.0
 31
0.0
 73
     1
 44
1.0
  0
POINT
  5
DF
330
D5
100
AcDbEntity
  8
Defpoints
 62
     0
100
AcDbPoint
 10
78.67499999999998
 20
12.65398161372425
 30
0.0
  0
POINT
  5
E0
330
D5
100
AcDbEntity
  8
Defpoints
 62
     0
100
AcDbPoint
 10
78.67499999999998
 20
-12.74601838627575
 30
0.0
  0
POINT
  5
E1
330
D5
100
AcDbEntity
  8
Defpoints
 62
     0
100
AcDbPoint
 10
109.4395569820599
 20
-12.74601838627564
 30
0.0
  0
ENDBLK
  5
D7
330
D5
100
AcDbEntity
  8
0
100
AcDbBlockEnd
  0
BLOCK
  5
EB
330
EA
100
AcDbEntity
  8
0
100
AcDbBlockBegin
  2
_D_1
 70
     0
 10
0.0
 20
0.0
 30
0.0
  3
_D_1
  1
_D_1
  0
LINE
  5
ED
330
EA
100
AcDbEntity
  8
치수문자_일반주서
 62
     0
370
    -2
100
AcDbLine
 10
78.67499999999998
 20
12.71648161372425
 30
0.0
 11
78.67499999999998
 21
38.95572817130181
 31
0.0
  0
LINE
  5
EE
330
EA
100
AcDbEntity
  8
치수문자_일반주서
 62
     0
370
    -2
100
AcDbLine
 10
12.0
 20
11.72893698879842
 30
0.0
 11
12.0
 21
38.95572817130181
 31
0.0
  0
LINE
  5
EF
330
EA
100
AcDbEntity
  8
치수문자_일반주서
 62
     0
370
    -2
100
AcDbLine
 10
74.67499999999998
 20
38.95572817130181
 30
0.0
 11
16.0
 21
38.95572817130181
 31
0.0
  0
SOLID
  5
F0
330
EA
100
AcDbEntity
  8
치수문자_일반주서
 62
     0
100
AcDbTrace
 10
74.67499999999998
 20
38.28906150463514
 30
0.0
 11
74.67499999999998
 21
39.62239483796847
 31
0.0
 12
78.67499999999998
 22
38.95572817130181
 32
0.0
 13
78.67499999999998
 23
38.95572817130181
 33
0.0
  0
SOLID
  5
F1
330
EA
100
AcDbEntity
  8
치수문자_일반주서
 62
     0
100
AcDbTrace
 10
16.0
 20
39.62239483796847
 30
0.0
 11
16.0
 21
38.28906150463514
 31
0.0
 12
12.0
 22
38.95572817130181
 32
0.0
 13
12.0
 23
38.95572817130181
 33
0.0
  0
MTEXT
  5
F2
330
EA
100
AcDbEntity
  8
치수문자_일반주서
 62
     0
100
AcDbMText
 10
45.3375
 20
43.83072817130181
 30
0.0
 40
4.0
 41
0.0
 71
     2
 72
     1
  1
\A1;66.68 [2 5/8]
  7
SLDTEXTSTYLE0
 73
     1
 44
1.0
  0
POINT
  5
F3
330
EA
100
AcDbEntity
  8
Defpoints
 62
     0
100
AcDbPoint
 10
78.67499999999998
 20
12.65398161372425
 30
0.0
  0
POINT
  5
F4
330
EA
100
AcDbEntity
  8
Defpoints
 62
     0
100
AcDbPoint
 10
12.0
 20
11.66643698879842
 30
0.0
  0
POINT
  5
F5
330
EA
100
AcDbEntity
  8
Defpoints
 62
     0
100
AcDbPoint
 10
12.0
 20
38.95572817130181
 30
0.0
  0
ENDBLK
  5
EC
330
EA
100
AcDbEntity
  8
0
100
AcDbBlockEnd
  0
BLOCK
  5
100
330
FF
100
AcDbEntity
  8
0
100
AcDbBlockBegin
  2
_D_2
 70
     0
 10
0.0
 20
0.0
 30
0.0
  3
_D_2
  1
_D_2
  0
LINE
  5
102
330
FF
100
AcDbEntity
  8
치수문자_일반주서
 62
     0
370
    -2
100
AcDbLine
 10
78.67499999999998
 20
12.71648161372425
 30
0.0
 11
78.67499999999998
 21
56.17106870114121
 31
0.0
  0
LINE
  5
103
330
FF
100
AcDbEntity
  8
치수문자_일반주서
 62
     0
370
    -2
100
AcDbLine
 10
-73.72500000000002
 20
10.17648161372425
 30
0.0
 11
-73.72500000000002
 21
56.17106870114121
 31
0.0
  0
LINE
  5
104
330
FF
100
AcDbEntity
  8
치수문자_일반주서
 62
     0
370
    -2
100
AcDbLine
 10
74.67499999999998
 20
56.17106870114121
 30
0.0
 11
-69.72500000000002
 21
56.17106870114121
 31
0.0
  0
SOLID
  5
105
330
FF
100
AcDbEntity
  8
치수문자_일반주서
 62
     0
100
AcDbTrace
 10
74.67499999999998
 20
55.50440203447454
 30
0.0
 11
74.67499999999998
 21
56.83773536780787
 31
0.0
 12
78.67499999999998
 22
56.17106870114121
 32
0.0
 13
78.67499999999998
 23
56.17106870114121
 33
0.0
  0
SOLID
  5
106
330
FF
100
AcDbEntity
  8
치수문자_일반주서
 62
     0
100
AcDbTrace
 10
-69.72500000000002
 20
56.83773536780787
 30
0.0
 11
-69.72500000000002
 21
55.50440203447454
 31
0.0
 12
-73.72500000000002
 22
56.17106870114121
 32
0.0
 13
-73.72500000000002
 23
56.17106870114121
 33
0.0
  0
MTEXT
  5
107
330
FF
100
AcDbEntity
  8
치수문자_일반주서
 62
     0
100
AcDbMText
 10
2.474999999999987
 20
61.04606870114121
 30
0.0
 40
4.0
 41
0.0
 71
     2
 72
     1
  1
\A1;152.40 [6]
  7
SLDTEXTSTYLE0
 73
     1
 44
1.0
  0
POINT
  5
108
330
FF
100
AcDbEntity
  8
Defpoints
 62
     0
100
AcDbPoint
 10
78.67499999999998
 20
12.65398161372425
 30
0.0
  0
POINT
  5
109
330
FF
100
AcDbEntity
  8
Defpoints
 62
     0
100
AcDbPoint
 10
-73.72500000000002
 20
10.11398161372425
 30
0.0
  0
POINT
  5
10A
330
FF
100
AcDbEntity
  8
Defpoints
 62
     0
100
AcDbPoint
 10
-73.72500000000002
 20
56.17106870114121
 30
0.0
  0
ENDBLK
  5
101
330
FF
100
AcDbEntity
  8
0
100
AcDbBlockEnd
  0
BLOCK
  5
114
330
113
100
AcDbEntity
  8
0
100
AcDbBlockBegin
  2
_D_3
 70
     0
 10
0.0
 20
0.0
 30
0.0
  3
_D_3
  1
_D_3
  0
LINE
  5
116
330
113
100
AcDbEntity
  8
치수문자_일반주서
 62
     0
370
    -2
100
AcDbLine
 10
-71.24750000000003
 20
12.65398161372424
 30
0.0
 11
-89.29869458096826
 21
12.65398161372417
 31
0.0
  0
LINE
  5
117
330
113
100
AcDbEntity
  8
치수문자_일반주서
 62
     0
370
    -2
100
AcDbLine
 10
-71.24750000000003
 20
-12.74601838627574
 30
0.0
 11
-89.29869458096817
 21
-12.74601838627581
 31
0.0
  0
LINE
  5
118
330
113
100
AcDbEntity
  8
치수문자_일반주서
 62
     0
370
    -2
100
AcDbLine
 10
-89.29869458096826
 20
12.65398161372417
 30
0.0
 11
-89.29869458096837
 21
44.90398161372417
 31
0.0
  0
LINE
  5
119
330
113
100
AcDbEntity
  8
치수문자_일반주서
 62
     0
370
    -2
100
AcDbLine
 10
-89.29869458096825
 20
8.653981613724167
 30
0.0
 11
-89.29869458096819
 21
-8.746018386275814
 31
0.0
  0
SOLID
  5
11A
330
113
100
AcDbEntity
  8
치수문자_일반주서
 62
     0
100
AcDbTrace
 10
-88.63202791430157
 20
8.653981613724168
 30
0.0
 11
-89.96536124763492
 21
8.653981613724165
 31
0.0
 12
-89.29869458096826
 22
12.65398161372417
 32
0.0
 13
-89.29869458096826
 23
12.65398161372417
 33
0.0
  0
SOLID
  5
11B
330
113
100
AcDbEntity
  8
치수문자_일반주서
 62
     0
100
AcDbTrace
 10
-89.96536124763486
 20
-8.746018386275816
 30
0.0
 11
-88.63202791430152
 21
-8.746018386275813
 31
0.0
 12
-89.29869458096817
 22
-12.74601838627581
 32
0.0
 13
-89.29869458096817
 23
-12.74601838627581
 33
0.0
  0
MTEXT
  5
11C
330
113
100
AcDbEntity
  8
치수문자_일반주서
 62
     0
100
AcDbMText
 10
-94.17369458096833
 20
32.27898161372416
 30
0.0
 40
4.0
 41
0.0
 71
     2
 72
     1
  1
\A1;%%c25.40 [1]
  7
SLDTEXTSTYLE0
 11
-3.356894814614650E-15
 21
1.0
 31
0.0
 73
     1
 44
1.0
  0
POINT
  5
11D
330
113
100
AcDbEntity
  8
Defpoints
 62
     0
100
AcDbPoint
 10
-71.18500000000003
 20
12.65398161372424
 30
0.0
  0
POINT
  5
11E
330
113
100
AcDbEntity
  8
Defpoints
 62
     0
100
AcDbPoint
 10
-71.18500000000003
 20
-12.74601838627574
 30
0.0
  0
POINT
  5
2BC
330
113
100
AcDbEntity
  8
Defpoints
 62
     0
100
AcDbPoint
 10
-89.29869458096817
 20
-12.74601838627581
 30
0.0
  0
ENDBLK
  5
115
330
113
100
AcDbEntity
  8
0
100
AcDbBlockEnd
  0
BLOCK
  5
12E
330
12D
100
AcDbEntity
  8
0
100
AcDbBlockBegin
  2
SW_DOWELSYMBOL_0
 70
     0
 10
0.0
 20
0.0
 30
0.0
  3
SW_DOWELSYMBOL_0
  1
SW_DOWELSYMBOL_0
  0
CIRCLE
  5
130
330
12D
100
AcDbEntity
  8
해칭선
 62
     0
100
AcDbCircle
 10
0.0
 20
0.0
 30
0.0
 40
3.000000000000001
  0
HATCH
  5
131
330
12D
100
AcDbEntity
  8
0
  6
Continuous
 62
     0
370
     0
100
AcDbHatch
 10
0.0
 20
0.0
 30
0.0
210
0.0
220
0.0
230
1.0
  2
SOLID
 70
     1
 71
     0
 91
        1
 92
        0
 93
        3
 72
     2
 10
0.0
 20
0.0
 40
3.000000000000001
 50
0.0
 51
90.0
 73
     1
 72
     1
 10
0.0
 20
3.000000000000001
 11
0.0
 21
0.0
 72
     1
 10
0.0
 20
0.0
 11
3.000000000000003
 21
0.0
 97
        0
 75
     0
 76
     1
 98
        1
 10
0.0
 20
0.0
  0
HATCH
  5
132
330
12D
100
AcDbEntity
  8
0
  6
Continuous
 62
     0
370
     0
100
AcDbHatch
 10
0.0
 20
0.0
 30
0.0
210
0.0
220
0.0
230
1.0
  2
SOLID
 70
     1
 71
     0
 91
        1
 92
        0
 93
        3
 72
     2
 10
0.0
 20
0.0
 40
3.000000000000001
 50
180.0
 51
270.0000000000008
 73
     1
 72
     1
 10
0.0
 20
-3.000000000000001
 11
0.0
 21
0.0
 72
     1
 10
0.0
 20
0.0
 11
-3.000000000000003
 21
0.0
 97
        0
 75
     0
 76
     1
 98
        1
 10
0.0
 20
0.0
  0
ENDBLK
  5
12F
330
12D
100
AcDbEntity
  8
0
100
AcDbBlockEnd
  0
BLOCK
  5
219
330
218
100
AcDbEntity
  8
0
100
AcDbBlockBegin
  2
*D8
 70
     1
 10
0.0
 20
0.0
 30
0.0
  3
*D8
  1
*D8
  0
LINE
  5
21B
330
218
100
AcDbEntity
  8
치수문자_일반주서
 62
     0
370
    -2
100
AcDbLine
 10
147.6162573954451
 20
59.450789002536
 30
0.0
 11
163.5996039041343
 21
59.45078900253606
 31
0.0
  0
LINE
  5
21C
330
218
100
AcDbEntity
  8
치수문자_일반주서
 62
     0
370
    -2
100
AcDbLine
 10
147.6162573954451
 20
40.400789002536
 30
0.0
 11
163.5996039041343
 21
40.40078900253606
 31
0.0
  0
LINE
  5
21D
330
218
100
AcDbEntity
  8
치수문자_일반주서
 62
     0
370
    -2
100
AcDbLine
 10
163.5996039041343
 20
59.45078900253606
 30
0.0
 11
163.5996039041341
 21
95.20078900253606
 31
0.0
  0
LINE
  5
21E
330
218
100
AcDbEntity
  8
치수문자_일반주서
 62
     0
370
    -2
100
AcDbLine
 10
163.5996039041343
 20
55.45078900253606
 30
0.0
 11
163.5996039041343
 21
44.40078900253606
 31
0.0
  0
SOLID
  5
21F
330
218
100
AcDbEntity
  8
치수문자_일반주서
 62
     0
100
AcDbTrace
 10
164.2662705708009
 20
55.45078900253606
 30
0.0
 11
162.9329372374676
 21
55.45078900253606
 31
0.0
 12
163.5996039041343
 22
59.45078900253606
 32
0.0
 13
163.5996039041343
 23
59.45078900253606
 33
0.0
  0
SOLID
  5
220
330
218
100
AcDbEntity
  8
치수문자_일반주서
 62
     0
100
AcDbTrace
 10
162.9329372374677
 20
44.40078900253606
 30
0.0
 11
164.266270570801
 21
44.40078900253606
 31
0.0
 12
163.5996039041343
 22
40.40078900253606
 32
0.0
 13
163.5996039041343
 23
40.40078900253606
 33
0.0
  0
MTEXT
  5
221
330
218
100
AcDbEntity
  8
치수문자_일반주서
 62
     0
100
AcDbMText
 10
158.7246039041342
 20
79.32578900253604
 30
0.0
 40
4.0
 41
0.0
 71
     2
 72
     1
  1
\A1;%%c19.05 [0.75]
  7
SLDTEXTSTYLE0
 11
-2.983906501879686E-15
 21
1.0
 31
0.0
 73
     1
 44
1.0
  0
POINT
  5
222
330
218
100
AcDbEntity
  8
Defpoints
 62
     0
100
AcDbPoint
 10
147.5537573954451
 20
59.450789002536
 30
0.0
  0
POINT
  5
223
330
218
100
AcDbEntity
  8
Defpoints
 62
     0
100
AcDbPoint
 10
147.5537573954451
 20
40.400789002536
 30
0.0
  0
POINT
  5
224
330
218
100
AcDbEntity
  8
Defpoints
 62
     0
100
AcDbPoint
 10
163.5996039041343
 20
40.40078900253606
 30
0.0
  0
ENDBLK
  5
21A
330
218
100
AcDbEntity
  8
0
100
AcDbBlockEnd
  0
BLOCK
  5
226
330
225
100
AcDbEntity
  8
0
100
AcDbBlockBegin
  2
*D9
 70
     1
 10
0.0
 20
0.0
 30
0.0
  3
*D9
  1
*D9
  0
LINE
  5
228
330
225
100
AcDbEntity
  8
치수문자_일반주서
 62
     0
370
    -2
100
AcDbLine
 10
147.5537573954451
 20
59.513289002536
 30
0.0
 11
147.5537573954451
 21
85.77570496099221
 31
0.0
  0
LINE
  5
229
330
225
100
AcDbEntity
  8
치수문자_일반주서
 62
     0
370
    -2
100
AcDbLine
 10
90.4037573954451
 20
59.51043887679267
 30
0.0
 11
90.4037573954451
 21
85.77570496099221
 31
0.0
  0
LINE
  5
22A
330
225
100
AcDbEntity
  8
치수문자_일반주서
 62
     0
370
    -2
100
AcDbLine
 10
143.5537573954451
 20
85.77570496099221
 30
0.0
 11
94.4037573954451
 21
85.77570496099221
 31
0.0
  0
SOLID
  5
22B
330
225
100
AcDbEntity
  8
치수문자_일반주서
 62
     0
100
AcDbTrace
 10
143.5537573954451
 20
85.10903829432554
 30
0.0
 11
143.5537573954451
 21
86.44237162765889
 31
0.0
 12
147.5537573954451
 22
85.77570496099221
 32
0.0
 13
147.5537573954451
 23
85.77570496099221
 33
0.0
  0
SOLID
  5
22C
330
225
100
AcDbEntity
  8
치수문자_일반주서
 62
     0
100
AcDbTrace
 10
94.4037573954451
 20
86.44237162765889
 30
0.0
 11
94.4037573954451
 21
85.10903829432554
 31
0.0
 12
90.4037573954451
 22
85.77570496099221
 32
0.0
 13
90.4037573954451
 23
85.77570496099221
 33
0.0
  0
MTEXT
  5
22D
330
225
100
AcDbEntity
  8
치수문자_일반주서
 62
     0
100
AcDbMText
 10
118.9787573954451
 20
90.65070496099221
 30
0.0
 40
4.0
 41
0.0
 71
     2
 72
     1
  1
\A1;57.15 [2.25]
  7
SLDTEXTSTYLE0
 73
     1
 44
1.0
  0
POINT
  5
22E
330
225
100
AcDbEntity
  8
Defpoints
 62
     0
100
AcDbPoint
 10
147.5537573954451
 20
59.450789002536
 30
0.0
  0
POINT
  5
22F
330
225
100
AcDbEntity
  8
Defpoints
 62
     0
100
AcDbPoint
 10
90.4037573954451
 20
59.44793887679267
 30
0.0
  0
POINT
  5
230
330
225
100
AcDbEntity
  8
Defpoints
 62
     0
100
AcDbPoint
 10
90.4037573954451
 20
85.77570496099221
 30
0.0
  0
ENDBLK
  5
227
330
225
100
AcDbEntity
  8
0
100
AcDbBlockEnd
  0
BLOCK
  5
232
330
231
100
AcDbEntity
  8
0
100
AcDbBlockBegin
  2
*D10
 70
     1
 10
0.0
 20
0.0
 30
0.0
  3
*D10
  1
*D10
  0
LINE
  5
234
330
231
100
AcDbEntity
  8
치수문자_일반주서
 62
     0
370
    -2
100
AcDbLine
 10
147.5537573954451
 20
59.513289002536
 30
0.0
 11
147.5537573954451
 21
102.9910454908317
 31
0.0
  0
LINE
  5
235
330
231
100
AcDbEntity
  8
치수문자_일반주서
 62
     0
370
    -2
100
AcDbLine
 10
20.55375739544512
 20
57.608289002536
 30
0.0
 11
20.55375739544512
 21
102.9910454908317
 31
0.0
  0
LINE
  5
236
330
231
100
AcDbEntity
  8
치수문자_일반주서
 62
     0
370
    -2
100
AcDbLine
 10
143.5537573954451
 20
102.9910454908317
 30
0.0
 11
24.55375739544512
 21
102.9910454908317
 31
0.0
  0
SOLID
  5
237
330
231
100
AcDbEntity
  8
치수문자_일반주서
 62
     0
100
AcDbTrace
 10
143.5537573954451
 20
102.324378824165
 30
0.0
 11
143.5537573954451
 21
103.6577121574984
 31
0.0
 12
147.5537573954451
 22
102.9910454908317
 32
0.0
 13
147.5537573954451
 23
102.9910454908317
 33
0.0
  0
SOLID
  5
238
330
231
100
AcDbEntity
  8
치수문자_일반주서
 62
     0
100
AcDbTrace
 10
24.55375739544512
 20
103.6577121574984
 30
0.0
 11
24.55375739544512
 21
102.324378824165
 31
0.0
 12
20.55375739544512
 22
102.9910454908317
 32
0.0
 13
20.55375739544512
 23
102.9910454908317
 33
0.0
  0
MTEXT
  5
239
330
231
100
AcDbEntity
  8
치수문자_일반주서
 62
     0
100
AcDbMText
 10
84.05375739544512
 20
107.8660454908317
 30
0.0
 40
4.0
 41
0.0
 71
     2
 72
     1
  1
\A1;127.00 [5.00]
  7
SLDTEXTSTYLE0
 73
     1
 44
1.0
  0
POINT
  5
23A
330
231
100
AcDbEntity
  8
Defpoints
 62
     0
100
AcDbPoint
 10
147.5537573954451
 20
59.450789002536
 30
0.0
  0
POINT
  5
23B
330
231
100
AcDbEntity
  8
Defpoints
 62
     0
100
AcDbPoint
 10
20.55375739544512
 20
57.545789002536
 30
0.0
  0
POINT
  5
23C
330
231
100
AcDbEntity
  8
Defpoints
 62
     0
100
AcDbPoint
 10
20.55375739544512
 20
102.9910454908317
 30
0.0
  0
ENDBLK
  5
233
330
231
100
AcDbEntity
  8
0
100
AcDbBlockEnd
  0
BLOCK
  5
23E
330
23D
100
AcDbEntity
  8
0
100
AcDbBlockBegin
  2
*D11
 70
     1
 10
0.0
 20
0.0
 30
0.0
  3
*D11
  1
*D11
  0
LINE
  5
240
330
23D
100
AcDbEntity
  8
치수문자_일반주서
 62
     0
370
    -2
100
AcDbLine
 10
22.39625739544511
 20
59.45078900253601
 30
0.0
 11
4.875000000000076
 21
59.45078900253594
 31
0.0
  0
LINE
  5
241
330
23D
100
AcDbEntity
  8
치수문자_일반주서
 62
     0
370
    -2
100
AcDbLine
 10
22.39625739544511
 20
40.40078900253599
 30
0.0
 11
4.875000000000143
 21
40.40078900253593
 31
0.0
  0
LINE
  5
242
330
23D
100
AcDbEntity
  8
치수문자_일반주서
 62
     0
370
    -2
100
AcDbLine
 10
4.875000000000076
 20
59.45078900253594
 30
0.0
 11
4.874999999999951
 21
95.20078900253594
 31
0.0
  0
LINE
  5
243
330
23D
100
AcDbEntity
  8
치수문자_일반주서
 62
     0
370
    -2
100
AcDbLine
 10
4.875000000000091
 20
55.45078900253594
 30
0.0
 11
4.875000000000129
 21
44.40078900253593
 31
0.0
  0
SOLID
  5
244
330
23D
100
AcDbEntity
  8
치수문자_일반주서
 62
     0
100
AcDbTrace
 10
5.541666666666758
 20
55.45078900253594
 30
0.0
 11
4.208333333333424
 21
55.45078900253594
 31
0.0
 12
4.875000000000076
 22
59.45078900253594
 32
0.0
 13
4.875000000000076
 23
59.45078900253594
 33
0.0
  0
SOLID
  5
245
330
23D
100
AcDbEntity
  8
치수문자_일반주서
 62
     0
100
AcDbTrace
 10
4.208333333333462
 20
44.40078900253593
 30
0.0
 11
5.541666666666796
 21
44.40078900253593
 31
0.0
 12
4.875000000000143
 22
40.40078900253593
 32
0.0
 13
4.875000000000143
 23
40.40078900253593
 33
0.0
  0
MTEXT
  5
246
330
23D
100
AcDbEntity
  8
치수문자_일반주서
 62
     0
100
AcDbMText
 10
0.0000000000000062
 20
79.32578900253593
 30
0.0
 40
4.0
 41
0.0
 71
     2
 72
     1
  1
\A1;%%c19.05 [0.75]
  7
SLDTEXTSTYLE0
 11
-3.496765431890255E-15
 21
1.0
 31
0.0
 73
     1
 44
1.0
  0
POINT
  5
247
330
23D
100
AcDbEntity
  8
Defpoints
 62
     0
100
AcDbPoint
 10
22.45875739544511
 20
59.45078900253601
 30
0.0
  0
POINT
  5
248
330
23D
100
AcDbEntity
  8
Defpoints
 62
     0
100
AcDbPoint
 10
22.45875739544511
 20
40.40078900253599
 30
0.0
  0
POINT
  5
249
330
23D
100
AcDbEntity
  8
Defpoints
 62
     0
100
AcDbPoint
 10
4.875000000000135
 20
40.40078900253593
 30
0.0
  0
ENDBLK
  5
23F
330
23D
100
AcDbEntity
  8
0
100
AcDbBlockEnd
  0
BLOCK
  5
28B
330
28A
100
AcDbEntity
  8
0
100
AcDbBlockBegin
  2
*D12
 70
     1
 10
0.0
 20
0.0
 30
0.0
  3
*D12
  1
*D12
  0
LINE
  5
28D
330
28A
100
AcDbEntity
  8
치수문자_일반주서
 62
     0
370
    -2
100
AcDbLine
 10
117.6155743133572
 20
147.3280216068772
 30
0.0
 11
133.5989208220463
 21
147.3280216068773
 31
0.0
  0
LINE
  5
28E
330
28A
100
AcDbEntity
  8
치수문자_일반주서
 62
     0
370
    -2
100
AcDbLine
 10
117.6155743133572
 20
128.2780216068772
 30
0.0
 11
133.5989208220464
 21
128.2780216068772
 31
0.0
  0
LINE
  5
28F
330
28A
100
AcDbEntity
  8
치수문자_일반주서
 62
     0
370
    -2
100
AcDbLine
 10
133.5989208220463
 20
147.3280216068773
 30
0.0
 11
133.5989208220462
 21
183.0780216068773
 31
0.0
  0
LINE
  5
290
330
28A
100
AcDbEntity
  8
치수문자_일반주서
 62
     0
370
    -2
100
AcDbLine
 10
133.5989208220463
 20
143.3280216068773
 30
0.0
 11
133.5989208220464
 21
132.2780216068772
 31
0.0
  0
SOLID
  5
291
330
28A
100
AcDbEntity
  8
치수문자_일반주서
 62
     0
100
AcDbTrace
 10
134.265587488713
 20
143.3280216068773
 30
0.0
 11
132.9322541553796
 21
143.3280216068773
 31
0.0
 12
133.5989208220463
 22
147.3280216068773
 32
0.0
 13
133.5989208220463
 23
147.3280216068773
 33
0.0
  0
SOLID
  5
292
330
28A
100
AcDbEntity
  8
치수문자_일반주서
 62
     0
100
AcDbTrace
 10
132.9322541553797
 20
132.2780216068772
 30
0.0
 11
134.265587488713
 21
132.2780216068772
 31
0.0
 12
133.5989208220464
 22
128.2780216068772
 32
0.0
 13
133.5989208220464
 23
128.2780216068772
 33
0.0
  0
MTEXT
  5
293
330
28A
100
AcDbEntity
  8
치수문자_일반주서
 62
     0
100
AcDbMText
 10
128.7239208220462
 20
167.2030216068773
 30
0.0
 40
4.0
 41
0.0
 71
     2
 72
     1
  1
\A1;%%c19.05 [0.75]
  7
SLDTEXTSTYLE0
 11
-2.983906501879684E-15
 21
1.0
 31
0.0
 73
     1
 44
1.0
  0
POINT
  5
294
330
28A
100
AcDbEntity
  8
Defpoints
 62
     0
100
AcDbPoint
 10
117.5530743133572
 20
147.3280216068772
 30
0.0
  0
POINT
  5
295
330
28A
100
AcDbEntity
  8
Defpoints
 62
     0
100
AcDbPoint
 10
117.5530743133572
 20
128.2780216068772
 30
0.0
  0
POINT
  5
296
330
28A
100
AcDbEntity
  8
Defpoints
 62
     0
100
AcDbPoint
 10
133.5989208220464
 20
128.2780216068772
 30
0.0
  0
ENDBLK
  5
28C
330
28A
100
AcDbEntity
  8
0
100
AcDbBlockEnd
  0
BLOCK
  5
298
330
297
100
AcDbEntity
  8
0
100
AcDbBlockBegin
  2
*D13
 70
     1
 10
0.0
 20
0.0
 30
0.0
  3
*D13
  1
*D13
  0
LINE
  5
29A
330
297
100
AcDbEntity
  8
치수문자_일반주서
 62
     0
370
    -2
100
AcDbLine
 10
117.5530743133572
 20
147.3905216068772
 30
0.0
 11
117.5530743133572
 21
173.6529375653334
 31
0.0
  0
LINE
  5
29B
330
297
100
AcDbEntity
  8
치수문자_일반주서
 62
     0
370
    -2
100
AcDbLine
 10
60.40307431335717
 20
147.3876714811339
 30
0.0
 11
60.40307431335717
 21
173.6529375653334
 31
0.0
  0
LINE
  5
29C
330
297
100
AcDbEntity
  8
치수문자_일반주서
 62
     0
370
    -2
100
AcDbLine
 10
113.5530743133572
 20
173.6529375653334
 30
0.0
 11
64.40307431335717
 21
173.6529375653334
 31
0.0
  0
SOLID
  5
29D
330
297
100
AcDbEntity
  8
치수문자_일반주서
 62
     0
100
AcDbTrace
 10
113.5530743133572
 20
172.9862708986667
 30
0.0
 11
113.5530743133572
 21
174.319604232
 31
0.0
 12
117.5530743133572
 22
173.6529375653334
 32
0.0
 13
117.5530743133572
 23
173.6529375653334
 33
0.0
  0
SOLID
  5
29E
330
297
100
AcDbEntity
  8
치수문자_일반주서
 62
     0
100
AcDbTrace
 10
64.40307431335717
 20
174.319604232
 30
0.0
 11
64.40307431335717
 21
172.9862708986667
 31
0.0
 12
60.40307431335717
 22
173.6529375653334
 32
0.0
 13
60.40307431335717
 23
173.6529375653334
 33
0.0
  0
MTEXT
  5
29F
330
297
100
AcDbEntity
  8
치수문자_일반주서
 62
     0
100
AcDbMText
 10
88.97807431335718
 20
178.5279375653334
 30
0.0
 40
4.0
 41
0.0
 71
     2
 72
     1
  1
\A1;57.15 [2.25]
  7
SLDTEXTSTYLE0
 73
     1
 44
1.0
  0
POINT
  5
2A0
330
297
100
AcDbEntity
  8
Defpoints
 62
     0
100
AcDbPoint
 10
117.5530743133572
 20
147.3280216068772
 30
0.0
  0
POINT
  5
2A1
330
297
100
AcDbEntity
  8
Defpoints
 62
     0
100
AcDbPoint
 10
60.40307431335717
 20
147.3251714811339
 30
0.0
  0
POINT
  5
2A2
330
297
100
AcDbEntity
  8
Defpoints
 62
     0
100
AcDbPoint
 10
60.40307431335717
 20
173.6529375653334
 30
0.0
  0
ENDBLK
  5
299
330
297
100
AcDbEntity
  8
0
100
AcDbBlockEnd
  0
BLOCK
  5
2A4
330
2A3
100
AcDbEntity
  8
0
100
AcDbBlockBegin
  2
*D14
 70
     1
 10
0.0
 20
0.0
 30
0.0
  3
*D14
  1
*D14
  0
LINE
  5
2A6
330
2A3
100
AcDbEntity
  8
치수문자_일반주서
 62
     0
370
    -2
100
AcDbLine
 10
117.5530743133572
 20
147.3905216068772
 30
0.0
 11
117.5530743133572
 21
190.8682780951729
 31
0.0
  0
LINE
  5
2A7
330
2A3
100
AcDbEntity
  8
치수문자_일반주서
 62
     0
370
    -2
100
AcDbLine
 10
-9.446925686642814
 20
145.4855216068772
 30
0.0
 11
-9.446925686642814
 21
190.8682780951729
 31
0.0
  0
LINE
  5
2A8
330
2A3
100
AcDbEntity
  8
치수문자_일반주서
 62
     0
370
    -2
100
AcDbLine
 10
113.5530743133572
 20
190.8682780951729
 30
0.0
 11
-5.446925686642814
 21
190.8682780951729
 31
0.0
  0
SOLID
  5
2A9
330
2A3
100
AcDbEntity
  8
치수문자_일반주서
 62
     0
100
AcDbTrace
 10
113.5530743133572
 20
190.2016114285062
 30
0.0
 11
113.5530743133572
 21
191.5349447618395
 31
0.0
 12
117.5530743133572
 22
190.8682780951729
 32
0.0
 13
117.5530743133572
 23
190.8682780951729
 33
0.0
  0
SOLID
  5
2AA
330
2A3
100
AcDbEntity
  8
치수문자_일반주서
 62
     0
100
AcDbTrace
 10
-5.446925686642814
 20
191.5349447618395
 30
0.0
 11
-5.446925686642814
 21
190.2016114285062
 31
0.0
 12
-9.446925686642814
 22
190.8682780951729
 32
0.0
 13
-9.446925686642814
 23
190.8682780951729
 33
0.0
  0
MTEXT
  5
2AB
330
2A3
100
AcDbEntity
  8
치수문자_일반주서
 62
     0
100
AcDbMText
 10
54.05307431335719
 20
195.7432780951729
 30
0.0
 40
4.0
 41
0.0
 71
     2
 72
     1
  1
\A1;127.00 [5.00]
  7
SLDTEXTSTYLE0
 73
     1
 44
1.0
  0
POINT
  5
2AC
330
2A3
100
AcDbEntity
  8
Defpoints
 62
     0
100
AcDbPoint
 10
117.5530743133572
 20
147.3280216068772
 30
0.0
  0
POINT
  5
2AD
330
2A3
100
AcDbEntity
  8
Defpoints
 62
     0
100
AcDbPoint
 10
-9.446925686642814
 20
145.4230216068772
 30
0.0
  0
POINT
  5
2AE
330
2A3
100
AcDbEntity
  8
Defpoints
 62
     0
100
AcDbPoint
 10
-9.446925686642814
 20
190.8682780951729
 30
0.0
  0
ENDBLK
  5
2A5
330
2A3
100
AcDbEntity
  8
0
100
AcDbBlockEnd
  0
BLOCK
  5
2B0
330
2AF
100
AcDbEntity
  8
0
100
AcDbBlockBegin
  2
*D15
 70
     1
 10
0.0
 20
0.0
 30
0.0
  3
*D15
  1
*D15
  0
LINE
  5
2B2
330
2AF
100
AcDbEntity
  8
치수문자_일반주서
 62
     0
370
    -2
100
AcDbLine
 10
-7.604425686642823
 20
147.3280216068772
 30
0.0
 11
-25.12568308208785
 21
147.3280216068771
 31
0.0
  0
LINE
  5
2B3
330
2AF
100
AcDbEntity
  8
치수문자_일반주서
 62
     0
370
    -2
100
AcDbLine
 10
-7.604425686642823
 20
128.2780216068772
 30
0.0
 11
-25.12568308208779
 21
128.2780216068771
 31
0.0
  0
LINE
  5
2B4
330
2AF
100
AcDbEntity
  8
치수문자_일반주서
 62
     0
370
    -2
100
AcDbLine
 10
-25.12568308208785
 20
147.3280216068771
 30
0.0
 11
-25.12568308208798
 21
183.0780216068771
 31
0.0
  0
LINE
  5
2B5
330
2AF
100
AcDbEntity
  8
치수문자_일반주서
 62
     0
370
    -2
100
AcDbLine
 10
-25.12568308208784
 20
143.3280216068771
 30
0.0
 11
-25.1256830820878
 21
132.2780216068771
 31
0.0
  0
SOLID
  5
2B6
330
2AF
100
AcDbEntity
  8
치수문자_일반주서
 62
     0
100
AcDbTrace
 10
-24.45901641542117
 20
143.3280216068771
 30
0.0
 11
-25.79234974875451
 21
143.3280216068771
 31
0.0
 12
-25.12568308208785
 22
147.3280216068771
 32
0.0
 13
-25.12568308208785
 23
147.3280216068771
 33
0.0
  0
SOLID
  5
2B7
330
2AF
100
AcDbEntity
  8
치수문자_일반주서
 62
     0
100
AcDbTrace
 10
-25.79234974875447
 20
132.2780216068771
 30
0.0
 11
-24.45901641542113
 21
132.2780216068771
 31
0.0
 12
-25.12568308208779
 22
128.2780216068771
 32
0.0
 13
-25.12568308208779
 23
128.2780216068771
 33
0.0
  0
MTEXT
  5
2B8
330
2AF
100
AcDbEntity
  8
치수문자_일반주서
 62
     0
100
AcDbMText
 10
-30.00068308208792
 20
167.2030216068771
 30
0.0
 40
4.0
 41
0.0
 71
     2
 72
     1
  1
\A1;%%c19.05 [0.75]
  7
SLDTEXTSTYLE0
 11
-3.543388970982125E-15
 21
1.0
 31
0.0
 73
     1
 44
1.0
  0
POINT
  5
2B9
330
2AF
100
AcDbEntity
  8
Defpoints
 62
     0
100
AcDbPoint
 10
-7.541925686642823
 20
147.3280216068772
 30
0.0
  0
POINT
  5
2BA
330
2AF
100
AcDbEntity
  8
Defpoints
 62
     0
100
AcDbPoint
 10
-7.541925686642823
 20
128.2780216068772
 30
0.0
  0
POINT
  5
2BB
330
2AF
100
AcDbEntity
  8
Defpoints
 62
     0
100
AcDbPoint
 10
-25.12568308208779
 20
128.2780216068771
 30
0.0
  0
ENDBLK
  5
2B1
330
2AF
100
AcDbEntity
  8
0
100
AcDbBlockEnd
  0
ENDSEC
  0
SECTION
  2
ENTITIES
  0
LINE
  5
96
330
1F
100
AcDbEntity
  8
0
  6
Continuous
 62
     1
370
    15
100
AcDbLine
 10
69.5386022118459
 20
-2.529323060722815
 30
0.0
 11
69.63886263882691
 21
-2.586090673140039
 31
0.0
  0
SPLINE
  5
97
330
1F
100
AcDbEntity
  8
0
  6
Continuous
 62
     1
370
    15
100
AcDbSpline
210
0.0
220
0.0
230
1.0
 70
     8
 71
     3
 72
     9
 73
     5
 74
     0
 42
0.000000001
 43
0.00000001
 40
0.0
 40
0.0
 40
0.0
 40
0.0
 40
0.6028290361917933
 40
1.0
 40
1.0
 40
1.0
 40
1.0
 10
78.67499999999995
 20
2.350460581122552
 30
0.0
 10
78.57588029703513
 20
2.417441916129666
 30
0.0
 10
78.41145606227855
 20
2.528553576294957
 30
0.0
 10
78.2500737003372
 20
2.626176258903217
 30
0.0
 10
78.18597731210329
 20
2.664949153844282
 30
0.0
  0
LINE
  5
98
330
1F
100
AcDbEntity
  8
외형선
  6
Continuous
370
    15
100
AcDbLine
 10
14.23959016474266
 20
-2.521345397648791
 30
0.0
 11
14.31074097424986
 21
-2.561894772967317
 31
0.0
  0
LINE
  5
99
330
1F
100
AcDbEntity
  8
외형선
  6
Continuous
370
    15
100
AcDbLine
 10
12.0
 20
-1.232739526269909
 30
0.0
 11
12.74780570025707
 21
-1.666844699740311
 31
0.0
  0
LINE
  5
9A
330
1F
100
AcDbEntity
  8
0
  6
Continuous
 62
     1
370
    15
100
AcDbLine
 10
30.65579731171008
 20
12.65398161372425
 30
0.0
 11
20.73151995871951
 21
12.65398161372425
 31
0.0
  0
LINE
  5
9B
330
1F
100
AcDbEntity
  8
0
  6
Continuous
 62
     1
370
    15
100
AcDbLine
 10
62.19333172323496
 20
-12.74601838627576
 30
0.0
 11
72.11926539886701
 21
-12.74601838627576
 31
0.0
  0
LINE
  5
9C
330
1F
100
AcDbEntity
  8
0
  6
Continuous
 62
     1
370
    15
100
AcDbLine
 10
34.5524543112606
 20
-12.74601838627576
 30
0.0
 11
44.47727980871915
 21
-12.74601838627576
 31
0.0
  0
LINE
  5
9D
330
1F
100
AcDbEntity
  8
0
  6
Continuous
 62
     1
370
    15
100
AcDbLine
 10
58.29890769307951
 20
12.65398161372425
 30
0.0
 11
48.37321015735959
 21
12.65398161372425
 31
0.0
  0
LINE
  5
9E
330
1F
100
AcDbEntity
  8
0
  6
Continuous
 62
     1
370
    15
100
AcDbLine
 10
12.0
 20
-12.74601838627576
 30
0.0
 11
16.83540511400263
 21
-12.74601838627576
 31
0.0
  0
LINE
  5
9F
330
1F
100
AcDbEntity
  8
0
  6
Continuous
 62
     1
370
    15
100
AcDbLine
 10
78.67499999999998
 20
12.65398161372425
 30
0.0
 11
76.01500650132795
 21
12.65398161372425
 31
0.0
  0
LINE
  5
A0
330
1F
100
AcDbEntity
  8
외형선
  6
Continuous
370
    15
100
AcDbLine
 10
-71.18500000000002
 20
-12.74601838627575
 30
0.0
 11
12.0
 21
-12.74601838627575
 31
0.0
  0
LINE
  5
A1
330
1F
100
AcDbEntity
  8
외형선
  6
Continuous
370
    15
100
AcDbLine
 10
10.99991483311446
 20
12.65398161372425
 30
0.0
 11
-71.18500000000002
 21
12.65398161372425
 31
0.0
  0
LINE
  5
A2
330
1F
100
AcDbEntity
  8
외형선
  6
Continuous
370
    15
100
AcDbLine
 10
-71.18500000000002
 20
12.65398161372425
 30
0.0
 11
-73.72500000000002
 21
10.11398161372425
 31
0.0
  0
LINE
  5
A3
330
1F
100
AcDbEntity
  8
외형선
  6
Continuous
370
    15
100
AcDbLine
 10
-73.72500000000002
 20
-10.20601838627576
 30
0.0
 11
-71.18500000000002
 21
-12.74601838627575
 31
0.0
  0
LINE
  5
A4
330
1F
100
AcDbEntity
  8
0
  6
Continuous
 62
     1
370
    15
100
AcDbLine
 10
78.67499999999998
 20
-12.18628833371999
 30
0.0
 11
78.67499999999998
 21
-11.14573608979731
 31
0.0
  0
SPLINE
  5
A5
330
1F
100
AcDbEntity
  8
0
  6
Continuous
 62
     1
370
    15
100
AcDbSpline
210
0.0
220
0.0
230
1.0
 70
     8
 71
     3
 72
    70
 73
    66
 74
     0
 42
0.000000001
 43
0.00000001
 40
0.0
 40
0.0
 40
0.0
 40
0.0
 40
0.03125
 40
0.03125
 40
0.0625
 40
0.0625
 40
0.09375
 40
0.09375
 40
0.125
 40
0.125
 40
0.15625
 40
0.15625
 40
0.1875
 40
0.1875
 40
0.21875
 40
0.21875
 40
0.25
 40
0.25
 40
0.28125
 40
0.28125
 40
0.3125
 40
0.3125
 40
0.34375
 40
0.34375
 40
0.375
 40
0.375
 40
0.40625
 40
0.40625
 40
0.4375
 40
0.4375
 40
0.46875
 40
0.46875
 40
0.5
 40
0.5
 40
0.53125
 40
0.53125
 40
0.5625
 40
0.5625
 40
0.59375
 40
0.59375
 40
0.625
 40
0.625
 40
0.65625
 40
0.65625
 40
0.6875
 40
0.6875
 40
0.71875
 40
0.71875
 40
0.75
 40
0.75
 40
0.78125
 40
0.78125
 40
0.8125
 40
0.8125
 40
0.84375
 40
0.84375
 40
0.875
 40
0.875
 40
0.90625
 40
0.90625
 40
0.9375
 40
0.9375
 40
0.96875
 40
0.96875
 40
1.0
 40
1.0
 40
1.0
 40
1.0
 10
78.67499999999998
 20
-12.18628833371999
 30
0.0
 10
77.98283129947254
 20
-12.30388800608805
 30
0.0
 10
77.28658670691621
 20
-12.40356418283548
 30
0.0
 10
75.8952802995338
 20
-12.5655473761745
 30
0.0
 10
75.20279058413979
 20
-12.62780907210055
 30
0.0
 10
73.81491203018697
 20
-12.71468236349096
 30
0.0
 10
73.11807879049303
 20
-12.73926795934408
 30
0.0
 10
71.72798516004269
 20
-12.75034644590258
 30
0.0
 10
71.03668892007846
 20
-12.73690843345097
 30
0.0
 10
69.64647204659596
 20
-12.67209753665147
 30
0.0
 10
68.94965997084392
 20
-12.62068344788362
 30
0.0
 10
67.56198837279229
 20
-12.4805975634041
 30
0.0
 10
66.86932074736009
 20
-12.39191791854121
 30
0.0
 10
65.47797516749645
 20
-12.17762749136264
 30
0.0
 10
64.78207359899878
 20
-12.05211339967444
 30
0.0
 10
63.39745187073786
 20
-11.76610484031209
 30
0.0
 10
62.70114677611456
 20
-11.60508407373227
 30
0.0
 10
61.30988538060729
 20
-11.24900533957097
 30
0.0
 10
60.61756124237993
 20
-11.05422614367369
 30
0.0
 10
59.22948152403011
 20
-10.63207203025238
 30
0.0
 10
58.53263005657532
 20
-10.40453611923146
 30
0.0
 10
57.14266549159124
 20
-9.919561239241553
 30
0.0
 10
56.45135690209545
 20
-9.662391991425375
 30
0.0
 10
55.06102260973766
 20
-9.119129867118518
 30
0.0
 10
54.36423463381045
 20
-8.833275027625763
 30
0.0
 10
52.97677578027731
 20
-8.237013127197523
 30
0.0
 10
52.28391791441799
 20
-7.926327084345973
 30
0.0
 10
50.89253900201556
 20
-7.281458863890159
 30
0.0
 10
50.19696817228598
 20
-6.947711045729177
 30
0.0
 10
48.81206786295677
 20
-6.261635153366475
 30
0.0
 10
48.1157051950159
 20
-5.908142031486414
 30
0.0
 10
46.7244946501481
 20
-5.184909625556688
 30
0.0
 10
46.03232375390494
 20
-4.815663578670365
 30
0.0
 10
44.64404866546881
 20
-4.063340744428785
 30
0.0
 10
43.94718190669067
 20
-3.680105399224235
 30
0.0
 10
42.55735222780302
 20
-2.90462309552252
 30
0.0
 10
41.86601893941654
 20
-2.512699223200967
 30
0.0
 10
40.47557305398163
 20
-1.721187803319496
 30
0.0
 10
39.77881211342295
 20
-1.322036248506613
 30
0.0
 10
38.39157179005922
 20
-0.522313649922804
 30
0.0
 10
37.69851135603852
 20
-0.1212503439888117
 30
0.0
 10
36.30710495150576
 20
0.680919416048016
 30
0.0
 10
35.61185257064438
 20
1.081427018715623
 30
0.0
 10
34.2266794302598
 20
1.876862827553553
 30
0.0
 10
33.53026211856058
 20
2.273031208263947
 30
0.0
 10
32.13910826238507
 20
3.056922320972836
 30
0.0
 10
31.44707827080483
 20
3.444147231625009
 30
0.0
 10
30.05861360931919
 20
4.207838360223439
 30
0.0
 10
29.36173449587042
 20
4.584366341935052
 30
0.0
 10
27.97204552182455
 20
5.321716484453765
 30
0.0
 10
27.28067518553328
 20
5.682311908013761
 30
0.0
 10
25.89012353437943
 20
6.386652581636252
 30
0.0
 10
25.19339256435257
 20
6.729947339589055
 30
0.0
 10
23.80637655376163
 20
7.394224332622508
 30
0.0
 10
23.11310122667187
 20
7.715708529144124
 30
0.0
 10
21.72167317080203
 20
8.335238298500938
 30
0.0
 10
21.02672694447021
 20
8.632789323499322
 30
0.0
 10
19.64128672683965
 20
9.200492123555359
 30
0.0
 10
18.94481770170987
 20
9.471445277294904
 30
0.0
 10
17.55372637148641
 20
9.98380290532021
 30
0.0
 10
16.86182494528123
 20
10.22492167856179
 30
0.0
 10
15.47317651042831
 20
10.67633370944561
 30
0.0
 10
14.77628797913568
 20
10.88658808734079
 30
0.0
 10
13.3867455267108
 20
11.27334780024992
 30
0.0
 10
12.69532579401777
 20
11.44980168427992
 30
0.0
 10
11.99999999999997
 20
11.60913914770375
 30
0.0
  0
SPLINE
  5
A6
330
1F
100
AcDbEntity
  8
0
  6
Continuous
 62
     1
370
    15
100
AcDbSpline
210
0.0
220
0.0
230
1.0
 70
     8
 71
     3
 72
    70
 73
    66
 74
     0
 42
0.000000001
 43
0.00000001
 40
0.0
 40
0.0
 40
0.0
 40
0.0
 40
0.0312499999999997
 40
0.0312499999999997
 40
0.0624999999999995
 40
0.0624999999999995
 40
0.0937499999999992
 40
0.0937499999999992
 40
0.1249999999999989
 40
0.1249999999999989
 40
0.1562499999999987
 40
0.1562499999999987
 40
0.1874999999999984
 40
0.1874999999999984
 40
0.2187499999999981
 40
0.2187499999999981
 40
0.2499999999999978
 40
0.2499999999999978
 40
0.2812499999999975
 40
0.2812499999999975
 40
0.3124999999999973
 40
0.3124999999999973
 40
0.343749999999997
 40
0.343749999999997
 40
0.3749999999999967
 40
0.3749999999999967
 40
0.4062499999999964
 40
0.4062499999999964
 40
0.4374999999999966
 40
0.4374999999999966
 40
0.4687499999999968
 40
0.4687499999999968
 40
0.499999999999997
 40
0.499999999999997
 40
0.5312499999999972
 40
0.5312499999999972
 40
0.5624999999999973
 40
0.5624999999999973
 40
0.5937499999999976
 40
0.5937499999999976
 40
0.6249999999999977
 40
0.6249999999999977
 40
0.6562499999999979
 40
0.6562499999999979
 40
0.6874999999999981
 40
0.6874999999999981
 40
0.7187499999999982
 40
0.7187499999999982
 40
0.7499999999999984
 40
0.7499999999999984
 40
0.7812499999999987
 40
0.7812499999999987
 40
0.8124999999999988
 40
0.8124999999999988
 40
0.843749999999999
 40
0.843749999999999
 40
0.8749999999999991
 40
0.8749999999999991
 40
0.9062499999999993
 40
0.9062499999999993
 40
0.9374999999999996
 40
0.9374999999999996
 40
0.9687499999999997
 40
0.9687499999999997
 40
1.0
 40
1.0
 40
1.0
 40
1.0
 10
78.67500000000001
 20
-11.14573608979731
 30
0.0
 10
77.98283129947256
 20
-10.95110023496046
 30
0.0
 10
77.28658670691627
 20
-10.73948496695056
 30
0.0
 10
75.89528029953374
 20
-10.28497469938132
 30
0.0
 10
75.20279058413976
 20
-10.04240819134077
 30
0.0
 10
73.81491203018683
 20
-9.52782836792339
 30
0.0
 10
73.11807879049303
 20
-9.255593493769117
 30
0.0
 10
71.72798516004275
 20
-8.684846855351683
 30
0.0
 10
71.03668892007829
 20
-8.386657153255097
 30
0.0
 10
69.64647204659602
 20
-7.765153146096267
 30
0.0
 10
68.94965997084395
 20
-7.442107252046378
 30
0.0
 10
67.56198837279223
 20
-6.775808965432377
 30
0.0
 10
66.86932074735992
 20
-6.432297377188923
 30
0.0
 10
65.47797516749651
 20
-5.726202150339009
 30
0.0
 10
64.78207359899883
 20
-5.364068179301373
 30
0.0
 10
63.39745187073792
 20
-4.626274633471426
 30
0.0
 10
62.70114677611453
 20
-4.249267824374423
 30
0.0
 10
61.30988538060732
 20
-3.484032809631157
 30
0.0
 10
60.61756124237998
 20
-3.0963080662992
 30
0.0
 10
59.22948152403011
 20
-2.312274735239741
 30
0.0
 10
58.53263005657532
 20
-1.915747842546472
 30
0.0
 10
57.14266549159132
 20
-1.118992709808444
 30
0.0
 10
56.45135690209542
 20
-0.7191191362564331
 30
0.0
 10
55.06102260973763
 20
0.0829245442934556
 30
0.0
 10
54.36423463381042
 20
0.4846642638719619
 30
0.0
 10
52.9767757802774
 20
1.284184474671506
 30
0.0
 10
52.28391791441802
 20
1.68238840018855
 30
0.0
 10
50.89253900201556
 20
2.473515574571766
 30
0.0
 10
50.19696817228598
 20
2.865869412110332
 30
0.0
 10
48.8120678629568
 20
3.639553114755508
 30
0.0
 10
48.11570519501594
 20
4.022188267130947
 30
0.0
 10
46.7244946501481
 20
4.773855395562161
 30
0.0
 10
46.03232375390497
 20
5.142423673060587
 30
0.0
 10
44.64404866546888
 20
5.86366607178175
 30
0.0
 10
43.94718190669069
 20
6.216445148425661
 30
0.0
 10
42.55735222780302
 20
6.901558935504969
 30
0.0
 10
41.86601893941657
 20
7.233663249652181
 30
0.0
 10
40.47557305398168
 20
7.87635965913325
 30
0.0
 10
39.77881211342298
 20
8.186543809572932
 30
0.0
 10
38.39157179005922
 20
8.780472692371328
 30
0.0
 10
37.69851135603857
 20
9.064617605997247
 30
0.0
 10
36.30710495150579
 20
9.605513750569688
 30
0.0
 10
35.61185257064449
 20
9.861837449814505
 30
0.0
 10
34.22667943025989
 20
10.34352716645786
 30
0.0
 10
33.53026211856061
 20
10.56963335764443
 30
0.0
 10
32.13910826238507
 20
10.98919762118821
 30
0.0
 10
31.44707827080486
 20
11.18243595316924
 30
0.0
 10
30.0586136093192
 20
11.53522239664616
 30
0.0
 10
29.36173449587044
 20
11.69475108402056
 30
0.0
 10
27.97204552182458
 20
11.97790533627133
 30
0.0
 10
27.2806751855333
 20
12.10150127978146
 30
0.0
 10
25.89012353437946
 20
12.3124751234084
 30
0.0
 10
25.19339256435257
 20
12.39965794522997
 30
0.0
 10
23.80637655376163
 20
12.53633838984153
 30
0.0
 10
23.11310122667195
 20
12.58597813078261
 30
0.0
 10
21.72167317080206
 20
12.64741940696808
 30
0.0
 10
21.02672694447021
 20
12.65914847284661
 30
0.0
 10
19.64128672683973
 20
12.64466528724064
 30
0.0
 10
18.94481770170993
 20
12.61841272453029
 30
0.0
 10
17.55372637148647
 20
12.52808437879326
 30
0.0
 10
16.86182494528123
 20
12.46413261474295
 30
0.0
 10
15.47317651042834
 20
12.29892095863045
 30
0.0
 10
14.77628797913574
 20
12.19759168870202
 30
0.0
 10
13.38674552671083
 20
11.95882413590278
 30
0.0
 10
12.6953257940178
 20
11.82152603170061
 30
0.0
 10
12.00000000000003
 20
11.66643698879844
 30
0.0
  0
LINE
  5
A7
330
1F
100
AcDbEntity
  8
0
  6
Continuous
 62
     1
370
    15
100
AcDbLine
 10
78.67499999999998
 20
-7.343854412118826
 30
0.0
 11
78.67499999999998
 21
2.393337248538147
 31
0.0
  0
SPLINE
  5
A8
330
1F
100
AcDbEntity
  8
0
  6
Continuous
 62
     1
370
    15
100
AcDbSpline
210
0.0
220
0.0
230
1.0
 70
     8
 71
     3
 72
    21
 73
    17
 74
     0
 42
0.000000001
 43
0.00000001
 40
0.0
 40
0.0
 40
0.0
 40
0.0
 40
0.0469060125500117
 40
0.1153269766896226
 40
0.1837522892005651
 40
0.2521842819750005
 40
0.3206252788134804
 40
0.3890719604149613
 40
0.4654382481767186
 40
0.5418044580170489
 40
0.6181705884938201
 40
0.6945366381656117
 40
0.7709026055917206
 40
0.8472684893321755
 40
0.9236342879477581
 40
1.0
 40
1.0
 40
1.0
 40
1.0
 10
30.65579731171008
 20
12.61757627558602
 30
0.0
 10
31.40658576376725
 20
12.61923312677467
 30
0.0
 10
33.25253594375565
 20
12.6233067972494
 30
0.0
 10
36.19350921367808
 20
12.29210632146667
 30
0.0
 10
39.47912973386187
 20
11.69144750392574
 30
0.0
 10
42.76511014744197
 20
10.81753670455594
 30
0.0
 10
46.05153855532009
 20
9.704770316760436
 30
0.0
 10
49.46502388148132
 20
8.322792106263291
 30
0.0
 10
53.00536540064623
 20
6.675276150967859
 30
0.0
 10
56.67246997478642
 20
4.782495432360275
 30
0.0
 10
60.33957002510316
 20
2.755733766132949
 30
0.0
 10
64.00666540590217
 20
0.6515702743098086
 30
0.0
 10
67.67375605612796
 20
-1.472979766878665
 30
0.0
 10
71.3408418678716
 20
-3.554068515935033
 30
0.0
 10
75.00792283626342
 20
-5.552413016229864
 30
0.0
 10
77.45264140728395
 20
-6.746707505785162
 30
0.0
 10
78.67499999999998
 20
-7.343854412118828
 30
0.0
  0
SPLINE
  5
A9
330
1F
100
AcDbEntity
  8
0
  6
Continuous
 62
     1
370
    15
100
AcDbSpline
210
0.0
220
0.0
230
1.0
 70
     8
 71
     3
 72
    19
 73
    15
 74
     0
 42
0.000000001
 43
0.00000001
 40
0.0
 40
0.0
 40
0.0
 40
0.0
 40
0.0891823831253901
 40
0.1783622185660189
 40
0.2675397371988599
 40
0.3567151704296056
 40
0.4458887501402457
 40
0.5350607086364204
 40
0.6191337115389932
 40
0.7032021841298766
 40
0.7872689993075465
 40
0.8713370319816398
 40
0.9554091555843899
 40
1.0
 40
1.0
 40
1.0
 40
1.0
 10
78.67500000000004
 20
2.39333724853815
 30
0.0
 10
77.51320357628222
 20
3.045644107231054
 30
0.0
 10
75.18964391803641
 20
4.35023919008182
 30
0.0
 10
71.704376602226
 20
6.180656738695946
 30
0.0
 10
68.21921756717506
 20
7.85947539385773
 30
0.0
 10
64.73415219533908
 20
9.339083999393194
 30
0.0
 10
61.24919055324481
 20
10.58395122487406
 30
0.0
 10
57.83064809618489
 20
11.54374021834111
 30
0.0
 10
54.47884064364671
 20
12.21354843379969
 30
0.0
 10
51.1935235990811
 20
12.59599192724864
 30
0.0
 10
47.90830467789966
 20
12.70099316240426
 30
0.0
 10
44.62299246192641
 20
12.50685919944201
 30
0.0
 10
41.85198227231952
 20
12.15540293305423
 30
0.0
 10
40.17583145245664
 20
11.75432412098464
 30
0.0
 10
39.59492630487026
 20
11.61532186429148
 30
0.0
  0
SPLINE
  5
AA
330
1F
100
AcDbEntity
  8
0
  6
Continuous
 62
     1
370
    15
100
AcDbSpline
210
0.0
220
0.0
230
1.0
 70
     8
 71
     3
 72
    20
 73
    16
 74
     0
 42
0.000000001
 43
0.00000001
 40
0.0
 40
0.0
 40
0.0
 40
0.0
 40
0.0842357120687115
 40
0.1684707583302875
 40
0.2527053594795691
 40
0.3369397363133991
 40
0.4211741096800293
 40
0.5054087004285046
 40
0.5848274117290814
 40
0.6642511703430314
 40
0.7436826829827323
 40
0.8231246469683294
 40
0.90257320946591
 40
0.9912143479987202
 40
1.0
 40
1.0
 40
1.0
 40
1.0
 10
12.0
 20
-1.242011643709354
 30
0.0
 10
13.16157915455467
 20
-1.906796107216126
 30
0.0
 10
15.48472828243118
 20
-3.236359779709606
 30
0.0
 10
18.96943412318624
 20
-5.142781512240492
 30
0.0
 10
22.45411698749069
 20
-6.923696909704392
 30
0.0
 10
25.93879385260988
 20
-8.531781289201337
 30
0.0
 10
29.42345088207109
 20
-9.927482411347325
 30
0.0
 10
32.84177609138796
 20
-11.05380048887548
 30
0.0
 10
36.19351079025636
 20
-11.90004932477649
 30
0.0
 10
39.47912931220021
 20
-12.46608001685142
 30
0.0
 10
42.76511025732412
 20
-12.75350620291911
 30
0.0
 10
46.05153853752852
 20
-12.76539603557786
 30
0.0
 10
49.46502384193737
 20
-12.45444560164788
 30
0.0
 10
51.90415199880942
 20
-12.09705546983377
 30
0.0
 10
53.24767639378158
 20
-11.74066641116129
 30
0.0
 10
53.36883134227931
 20
-11.70852832851077
 30
0.0
  0
SPLINE
  5
AB
330
1F
100
AcDbEntity
  8
외형선
  6
Continuous
370
    15
100
AcDbSpline
210
0.0
220
0.0
230
1.0
 70
    24
 71
     3
 72
    22
 73
    18
 74
     0
 42
0.000000001
 43
0.00000001
 40
0.0
 40
0.0
 40
0.0
 40
0.0
 40
0.0553747416437534
 40
0.1117502432308795
 40
0.1812411223424222
 40
0.2527472416558466
 40
0.3222381207673896
 40
0.393744240080814
 40
0.4632351191923571
 40
0.5347412385057816
 40
0.6042321176173261
 40
0.6757382369307499
 40
0.74522911604228
 40
0.8167352353556905
 40
0.8862261144672396
 40
0.9577322337806851
 40
1.0
 40
1.0
 40
1.0
 40
1.0
 10
12.0
 20
8.24304486316286
 30
0.0
 10
12.0
 20
8.126097548915649
 30
0.0
 10
12.00000000000003
 20
7.890089390242862
 30
0.0
 10
12.00000000000011
 20
7.406102395933512
 30
0.0
 10
11.99999999999989
 20
6.799408713474238
 30
0.0
 10
12.00000000000006
 20
6.065598250980959
 30
0.0
 10
12.00000000000003
 20
5.261301773173528
 30
0.0
 10
11.99999999999997
 20
4.423075932348272
 30
0.0
 10
12.00000000000003
 20
3.559746520499771
 30
0.0
 10
11.99999999999997
 20
2.711228799065409
 30
0.0
 10
12.00000000000003
 20
1.886320567826617
 30
0.0
 10
11.99999999999989
 20
1.123068117420206
 30
0.0
 10
12.00000000000009
 20
0.4298850536244697
 30
0.0
 10
11.99999999999989
 20
-0.1631663436433763
 30
0.0
 10
12.00000000000009
 20
-0.6423668618295997
 30
0.0
 10
11.99999999999992
 20
-0.9658162236782935
 30
0.0
 10
12.0
 20
-1.071116733268542
 30
0.0
 10
12.0
 20
-1.110236583147043
 30
0.0
  0
SPLINE
  5
AC
330
1F
100
AcDbEntity
  8
0
  6
Continuous
 62
     1
370
    15
100
AcDbSpline
210
0.0
220
0.0
230
1.0
 70
     8
 71
     3
 72
    22
 73
    18
 74
     0
 42
0.000000001
 43
0.00000001
 40
0.0
 40
0.0
 40
0.0
 40
0.0
 40
0.0188106384036094
 40
0.0882402030852786
 40
0.1536997050570418
 40
0.2191556797140103
 40
0.2846103639038876
 40
0.3500659960402729
 40
0.415524813386455
 40
0.4885840877865903
 40
0.5616434003818417
 40
0.6347027497788443
 40
0.707762134583904
 40
0.7808215534030101
 40
0.8538810048418467
 40
0.9269404875058059
 40
0.9999999999999999
 40
0.9999999999999999
 40
0.9999999999999999
 40
0.9999999999999999
 10
62.19333172323496
 20
-12.71456341363766
 30
0.0
 10
61.8786084369094
 20
-12.72385352107415
 30
0.0
 10
60.4022498941975
 20
-12.76743316729828
 30
0.0
 10
57.83064734648701
 20
-12.53177552368399
 30
0.0
 10
54.47884074198324
 20
-12.02100900929281
 30
0.0
 10
51.19352393855919
 20
-11.23113241606136
 30
0.0
 10
47.90830322167351
 20
-10.19822326833928
 30
0.0
 10
44.62299794756412
 20
-8.93759753567967
 30
0.0
 10
41.2105277995928
 20
-7.42300626940806
 30
0.0
 10
37.67040040288781
 20
-5.663052171069948
 30
0.0
 10
34.0032310949719
 20
-3.68417502961383
 30
0.0
 10
30.33602444591495
 20
-1.60432277950372
 30
0.0
 10
26.6688250754137
 20
0.5184201217823877
 30
0.0
 10
23.00162113590522
 20
2.626697609971813
 30
0.0
 10
19.33441590165193
 20
4.656442380507635
 30
0.0
 10
15.66720862702719
 20
6.572296135191428
 30
0.0
 10
13.22240304204499
 20
7.686128544709312
 30
0.0
 10
12.0
 20
8.243044863162858
 30
0.0
  0
LINE
  5
AD
330
1F
100
AcDbEntity
  8
0
  6
Continuous
 62
     1
370
    15
100
AcDbLine
 10
78.67499999999998
 20
-11.14573608979731
 30
0.0
 11
78.67499999999998
 21
-7.343854412118826
 31
0.0
  0
LINE
  5
AE
330
1F
100
AcDbEntity
  8
외형선
  6
Continuous
370
    15
100
AcDbLine
 10
12.0
 20
8.243044863162856
 30
0.0
 11
11.99999999999997
 21
11.60913914770376
 31
0.0
  0
SPLINE
  5
AF
330
1F
100
AcDbEntity
  8
0
  6
Continuous
 62
     1
370
    15
100
AcDbSpline
210
0.0
220
0.0
230
1.0
 70
     8
 71
     3
 72
    14
 73
    10
 74
     0
 42
0.000000001
 43
0.00000001
 40
0.0
 40
0.0
 40
0.0
 40
0.0
 40
0.0243533890182917
 40
0.1869609708404988
 40
0.3495686314701218
 40
0.5121763678045228
 40
0.6747841767403848
 40
0.8373920551737406
 40
1.0
 40
1.0
 40
1.0
 40
1.0
 10
34.5524543112606
 20
-12.72357721095974
 30
0.0
 10
34.36937814027848
 20
-12.73075879148991
 30
0.0
 10
32.96390235048722
 20
-12.78589178620709
 30
0.0
 10
30.33602599228868
 20
-12.55034952604207
 30
0.0
 10
26.66882466107409
 20
-11.99959167313628
 30
0.0
 10
23.00162124688911
 20
-11.08484521493203
 30
0.0
 10
19.33441587205622
 20
-9.869455906501374
 30
0.0
 10
15.6672086344261
 20
-8.392401990097353
 30
0.0
 10
13.2224030445113
 20
-7.221168035267884
 30
0.0
 10
12.0
 20
-6.635550938299277
 30
0.0
  0
LINE
  5
B0
330
1F
100
AcDbEntity
  8
외형선
  6
Continuous
370
    15
100
AcDbLine
 10
11.99999999999997
 20
-6.635550938299258
 30
0.0
 11
12.0
 21
-1.242011643709371
 31
0.0
  0
SPLINE
  5
B1
330
1F
100
AcDbEntity
  8
0
  6
Continuous
 62
     1
370
    15
100
AcDbSpline
210
0.0
220
0.0
230
1.0
 70
     8
 71
     3
 72
    13
 73
     9
 74
     0
 42
0.000000001
 43
0.00000001
 40
0.0
 40
0.0
 40
0.0
 40
0.0
 40
0.1001498359473044
 40
0.2801202631968714
 40
0.4600904966195916
 40
0.6400605328219104
 40
0.8200303684120506
 40
1.0
 40
1.0
 40
1.0
 40
1.0
 10
58.29890769307951
 20
12.61045002849953
 30
0.0
 10
58.9791288798338
 20
12.61685019918261
 30
0.0
 10
60.8817154998055
 20
12.63475155148431
 30
0.0
 10
64.00666538372411
 20
12.27522064370035
 30
0.0
 10
67.67375606206855
 20
11.57514370900036
 30
0.0
 10
71.3408418662874
 20
10.53205306962552
 30
0.0
 10
75.00792283665942
 20
9.21529803227542
 30
0.0
 10
77.45264140741594
 20
8.127726373874118
 30
0.0
 10
78.67499999999998
 20
7.583940852873903
 30
0.0
  0
LINE
  5
B2
330
1F
100
AcDbEntity
  8
0
  6
Continuous
 62
     1
370
    15
100
AcDbLine
 10
78.67499999999998
 20
2.393337248538147
 30
0.0
 11
78.67499999999998
 21
7.583940852873904
 31
0.0
  0
SPLINE
  5
B3
330
1F
100
AcDbEntity
  8
0
  6
Continuous
 62
     1
370
    15
100
AcDbSpline
210
0.0
220
0.0
230
1.0
 70
     8
 71
     3
 72
    11
 73
     7
 74
     0
 42
0.000000001
 43
0.00000001
 40
0.0
 40
0.0
 40
0.0
 40
0.0
 40
0.2535503728429059
 40
0.5070987415993823
 40
0.7606457705632054
 40
1.0
 40
1.0
 40
1.0
 40
1.0
 10
12.0
 20
-12.44034040366491
 30
0.0
 10
13.16157917431951
 20
-12.55693568252645
 30
0.0
 10
15.48472834172545
 20
-12.79012531866927
 30
0.0
 10
18.96943388601188
 20
-12.73156996796024
 30
0.0
 10
22.38910031984502
 20
-12.40765648466703
 30
0.0
 10
24.64719900496053
 20
-11.93860804763246
 30
0.0
 10
25.74373804103812
 20
-11.71083681495345
 30
0.0
  0
SPLINE
  5
B4
330
1F
100
AcDbEntity
  8
외형선
  6
Continuous
370
    15
100
AcDbSpline
210
0.0
220
0.0
230
1.0
 70
    24
 71
     3
 72
    15
 73
    11
 74
     0
 42
0.000000001
 43
0.00000001
 40
0.0
 40
0.0
 40
0.0
 40
0.0
 40
0.0786647092521676
 40
0.215176058801461
 40
0.3556462467356185
 40
0.4921575962849487
 40
0.6326277842191746
 40
0.7691391337684937
 40
0.9096093217026779
 40
0.9999999999999999
 40
0.9999999999999999
 40
0.9999999999999999
 40
0.9999999999999999
 10
12.0
 20
-6.743713170336456
 30
0.0
 10
12.0
 20
-6.855273374535263
 30
0.0
 10
11.99999999999994
 20
-7.160430353907485
 30
0.0
 10
12.00000000000006
 20
-7.772618466047859
 30
0.0
 10
11.99999999999992
 20
-8.539894059159074
 30
0.0
 10
11.99999999999997
 20
-9.371021073901355
 30
0.0
 10
11.99999999999997
 20
-10.22165695825648
 30
0.0
 10
12.00000000000003
 20
-11.08345758494905
 30
0.0
 10
12.00000000000009
 20
-11.82730433059629
 30
0.0
 10
12.00000000000003
 20
-12.26785019339473
 30
0.0
 10
12.0
 20
-12.44034040366492
 30
0.0
  0
SPLINE
  5
B5
330
1F
100
AcDbEntity
  8
0
  6
Continuous
 62
     1
370
    15
100
AcDbSpline
210
0.0
220
0.0
230
1.0
 70
     8
 71
     3
 72
    11
 73
     7
 74
     0
 42
0.000000001
 43
0.00000001
 40
0.0
 40
0.0
 40
0.0
 40
0.0
 40
0.3032573431190073
 40
0.6065060230459721
 40
0.9097468248590135
 40
0.9999999999999999
 40
0.9999999999999999
 40
0.9999999999999999
 40
0.9999999999999999
 10
78.67500000000001
 20
12.56130401020934
 30
0.0
 10
77.51320349930248
 20
12.61279144169285
 30
0.0
 10
75.1896436870995
 20
12.71576483381171
 30
0.0
 10
71.70437752593278
 20
12.4458145859881
 30
0.0
 10
69.03514578248783
 20
12.07846462846422
 30
0.0
 10
67.52767360410022
 20
11.70010290264081
 30
0.0
 10
67.18191443495269
 20
11.61332051432646
 30
0.0
  0
LINE
  5
B6
330
1F
100
AcDbEntity
  8
0
  6
Continuous
 62
     1
370
    15
100
AcDbLine
 10
78.67499999999998
 20
7.556661108381582
 30
0.0
 11
78.67499999999998
 21
12.56130401020934
 31
0.0
  0
LINE
  5
B7
330
1F
100
AcDbEntity
  8
0
  6
Continuous
 62
     1
370
    15
100
AcDbLine
 10
78.67499999999998
 20
12.56130401020934
 30
0.0
 11
78.67499999999998
 21
12.65398161372425
 31
0.0
  0
LINE
  5
B8
330
1F
100
AcDbEntity
  8
외형선
  6
Continuous
370
    15
100
AcDbLine
 10
12.0
 20
-12.74601838627576
 30
0.0
 11
12.0
 21
-12.44034040366492
 31
0.0
  0
LINE
  5
B9
330
1F
100
AcDbEntity
  8
외형선
  6
Continuous
370
    15
100
AcDbLine
 10
12.0
 20
11.66643698879842
 30
0.0
 11
11.87366333461511
 21
11.6374136443933
 31
0.0
  0
LINE
  5
BA
330
1F
100
AcDbEntity
  8
외형선
  6
Continuous
370
    15
100
AcDbLine
 10
10.99991483311446
 20
11.82615116703019
 30
0.0
 11
10.99991483311446
 21
12.65398161372425
 31
0.0
  0
SPLINE
  5
BB
330
1F
100
AcDbEntity
  8
외형선
  6
Continuous
370
    15
100
AcDbSpline
210
0.0
220
0.0
230
1.0
 70
     8
 71
     3
 72
     8
 73
     4
 74
     0
 42
0.000000001
 43
0.00000001
 40
0.0
 40
0.0
 40
0.0
 40
0.0
 40
1.0
 40
1.0
 40
1.0
 40
1.0
 10
12.0
 20
11.60913914770374
 30
0.0
 10
11.66678205668347
 20
11.68549774436756
 30
0.0
 10
11.33324843888757
 20
11.75787262722999
 30
0.0
 10
10.99991483311446
 20
11.82615048957479
 30
0.0
  0
SPLINE
  5
BC
330
1F
100
AcDbEntity
  8
외형선
  6
Continuous
370
    15
100
AcDbSpline
210
0.0
220
0.0
230
1.0
 70
     8
 71
     3
 72
     8
 73
     4
 74
     0
 42
0.000000001
 43
0.00000001
 40
0.0
 40
0.0
 40
0.0
 40
0.0
 40
1.0
 40
1.0
 40
1.0
 40
1.0
 10
12.0
 20
8.243044863162881
 30
0.0
 10
11.66678205668352
 20
8.388691010907756
 30
0.0
 10
11.3332484388876
 20
8.53153279793892
 30
0.0
 10
10.99991483311449
 20
8.67134835248824
 30
0.0
  0
SPLINE
  5
BD
330
1F
100
AcDbEntity
  8
외형선
  6
Continuous
370
    15
100
AcDbSpline
210
0.0
220
0.0
230
1.0
 70
     8
 71
     3
 72
     8
 73
     4
 74
     0
 42
0.000000001
 43
0.00000001
 40
0.0
 40
0.0
 40
0.0
 40
0.0
 40
1.0
 40
1.0
 40
1.0
 40
1.0
 10
12.0
 20
-1.242011643709372
 30
0.0
 10
11.66678205668347
 20
-1.050627294321832
 30
0.0
 10
11.33324843888757
 20
-0.8587712814879629
 30
0.0
 10
10.99991483311446
 20
-0.6667401390144087
 30
0.0
  0
SPLINE
  5
BE
330
1F
100
AcDbEntity
  8
외형선
  6
Continuous
370
    15
100
AcDbSpline
210
0.0
220
0.0
230
1.0
 70
     8
 71
     3
 72
     8
 73
     4
 74
     0
 42
0.000000001
 43
0.00000001
 40
0.0
 40
0.0
 40
0.0
 40
0.0
 40
1.0
 40
1.0
 40
1.0
 40
1.0
 10
12.0
 20
-6.635550938299248
 30
0.0
 10
11.66678205668352
 20
-6.471214024009518
 30
0.0
 10
11.3332484388876
 20
-6.30455932753422
 30
0.0
 10
10.99991483311449
 20
-6.135843769468198
 30
0.0
  0
LINE
  5
BF
330
1F
100
AcDbEntity
  8
외형선
  6
Continuous
370
    15
100
AcDbLine
 10
10.99991483311446
 20
-12.30181390276555
 30
0.0
 11
10.99991483311446
 21
-6.135840719616469
 31
0.0
  0
SPLINE
  5
C0
330
1F
100
AcDbEntity
  8
외형선
  6
Continuous
370
    15
100
AcDbSpline
210
0.0
220
0.0
230
1.0
 70
     8
 71
     3
 72
     8
 73
     4
 74
     0
 42
0.000000001
 43
0.00000001
 40
0.0
 40
0.0
 40
0.0
 40
0.0
 40
1.0
 40
1.0
 40
1.0
 40
1.0
 10
12.0
 20
-12.44034040366492
 30
0.0
 10
11.66678205668347
 20
-12.39841696749246
 30
0.0
 10
11.33324843888757
 20
-12.35221831347752
 30
0.0
 10
10.99991483311446
 20
-12.30181440287519
 30
0.0
  0
LINE
  5
C1
330
1F
100
AcDbEntity
  8
외형선
  6
Continuous
370
    15
100
AcDbLine
 10
-71.18500000000002
 20
-0.046018386275753
 30
0.0
 11
-71.18500000000002
 21
12.65398161372424
 31
0.0
  0
LINE
  5
C2
330
1F
100
AcDbEntity
  8
외형선
  6
Continuous
370
    15
100
AcDbLine
 10
-71.18500000000002
 20
-12.74601838627573
 30
0.0
 11
-71.18500000000002
 21
-0.046018386275753
 31
0.0
  0
LINE
  5
C3
330
1F
100
AcDbEntity
  8
외형선
  6
Continuous
370
    15
100
AcDbLine
 10
10.99991483311446
 20
-0.6667382336741471
 30
0.0
 11
10.99991483311446
 21
8.671350879917414
 31
0.0
  0
LINE
  5
C4
330
1F
100
AcDbEntity
  8
외형선
  6
Continuous
370
    15
100
AcDbLine
 10
-73.72500000000002
 20
-0.046018386275753
 30
0.0
 11
-73.72500000000002
 21
10.11398161372425
 31
0.0
  0
LINE
  5
C5
330
1F
100
AcDbEntity
  8
외형선
  6
Continuous
370
    15
100
AcDbLine
 10
-73.72500000000002
 20
-10.20601838627575
 30
0.0
 11
-73.72500000000002
 21
-0.046018386275753
 31
0.0
  0
SPLINE
  5
C6
330
1F
100
AcDbEntity
  8
외형선
  6
Continuous
370
    15
100
AcDbSpline
210
0.0
220
0.0
230
1.0
 70
    24
 71
     3
 72
    22
 73
    18
 74
     0
 42
0.000000001
 43
0.00000001
 40
0.0
 40
0.0
 40
0.0
 40
0.0
 40
0.0629695235212066
 40
0.1350553817115039
 40
0.2051096610550251
 40
0.2771955192453223
 40
0.3472497985888427
 40
0.4193356567791396
 40
0.4893899361226616
 40
0.5614757943129592
 40
0.6315300736564778
 40
0.7036159318467722
 40
0.773670211190295
 40
0.845756069380594
 40
0.915810348724115
 40
0.9878962069144126
 40
0.9999999999999999
 40
0.9999999999999999
 40
0.9999999999999999
 40
0.9999999999999999
 10
12.00000000000003
 20
-1.09638612220217
 30
0.0
 10
11.99999999999997
 20
-1.02359273433586
 30
0.0
 10
11.99999999999994
 20
-0.8674673861577505
 30
0.0
 10
12.0
 20
-0.4658966636271294
 30
0.0
 10
11.99999999999997
 20
0.0625213761925938
 30
0.0
 10
12.0
 20
0.6953710309754368
 30
0.0
 10
12.00000000000006
 20
1.421855182080948
 30
0.0
 10
11.99999999999989
 20
2.209478431425368
 30
0.0
 10
12.0
 20
3.04981574699948
 30
0.0
 10
11.99999999999992
 20
3.904040396776143
 30
0.0
 10
12.00000000000011
 20
4.763320655655895
 30
0.0
 10
11.99999999999994
 20
5.587895389545037
 30
0.0
 10
12.00000000000006
 20
6.369188329245749
 30
0.0
 10
12.00000000000003
 20
7.071306847898454
 30
0.0
 10
11.99999999999994
 20
7.685955007563232
 30
0.0
 10
12.00000000000014
 20
8.051340709750683
 30
0.0
 10
12.0
 20
8.218948234125653
 30
0.0
 10
12.0
 20
8.243044863151638
 30
0.0
  0
SPLINE
  5
C7
330
1F
100
AcDbEntity
  8
외형선
  6
Continuous
370
    15
100
AcDbSpline
210
0.0
220
0.0
230
1.0
 70
    24
 71
     3
 72
    16
 73
    12
 74
     0
 42
0.000000001
 43
0.00000001
 40
0.0
 40
0.0
 40
0.0
 40
0.0
 40
0.0092441247202669
 40
0.147937219903975
 40
0.2866303150876827
 40
0.4253234102713923
 40
0.564016505455102
 40
0.7027096006388118
 40
0.8414026958225216
 40
0.9800957910062303
 40
1.0
 40
1.0
 40
1.0
 40
1.0
 10
12.0
 20
-12.44034040366492
 30
0.0
 10
12.0
 20
-12.42295986382313
 30
0.0
 10
11.99999999999994
 20
-12.14481251916574
 30
0.0
 10
12.0
 20
-11.58254253721308
 30
0.0
 10
12.00000000000003
 20
-10.73372342456406
 30
0.0
 10
11.99999999999997
 20
-9.873647520213515
 30
0.0
 10
11.99999999999997
 20
-9.028007865690324
 30
0.0
 10
11.99999999999994
 20
-8.218293498283083
 30
0.0
 10
12.00000000000006
 20
-7.478441257764202
 30
0.0
 10
11.99999999999992
 20
-6.982286825625593
 30
0.0
 10
11.99999999999997
 20
-6.770306972472388
 30
0.0
 10
11.99999999999994
 20
-6.743703170336455
 30
0.0
  0
LINE
  5
C8
330
1F
100
AcDbEntity
  8
중심선
 62
     1
100
AcDbLine
 10
-76.72500000000002
 20
-0.0000000000000073
 30
0.0
 11
81.67499999999998
 21
0.0000000000000086
 31
0.0
  0
LINE
  5
C9
330
1F
100
AcDbEntity
  8
참조1
100
AcDbLine
 10
54.45000000000001
 20
0.0010749287238892
 30
0.0
 11
54.45000000000002
 21
-39.99892507127611
 31
0.0
  0
LINE
  5
CA
330
1F
100
AcDbEntity
  8
참조1
100
AcDbLine
 10
54.45000000000002
 20
-39.99892507127611
 30
0.0
 11
-17.85885681430866
 21
-39.9989250712761
 31
0.0
  0
CIRCLE
  5
CB
330
1F
100
AcDbEntity
  8
해칭선
100
AcDbCircle
 10
0.0
 20
0.0
 30
0.0
 40
3.000000000000004
  0
INSERT
  5
CC
330
1F
100
AcDbEntity
  8
0
  6
Continuous
 62
     7
100
AcDbBlockReference
 66
     1
  2
블럭10
 10
-11.46527293212522
 20
-52.04717430164394
 30
0.0
  0
ATTRIB
  5
CD
330
CC
100
AcDbEntity
  8
FORMAT
 62
     2
100
AcDbText
 10
-20.6465682208665
 20
-49.97180738881175
 30
0.0
 40
4.233333333333333
  1
E5068902 [ 5 FLUTE ]
 41
0.75
  7
SLDTEXTSTYLE0
 11
-20.6465682208665
 21
-52.08847405547842
 31
0.0
100
AcDbAttribute
  2
AUTOATTR0
 70
     0
 74
     1
  0
SEQEND
  5
CE
330
CC
100
AcDbEntity
  8
0
  6
Continuous
 62
     7
  0
HATCH
  5
CF
330
1F
100
AcDbEntity
  8
중심선
100
AcDbHatch
 10
0.0
 20
0.0
 30
0.0
210
0.0
220
0.0
230
1.0
  2
SOLID
 70
     1
 71
     0
 91
        1
 92
        0
 93
        4
 72
     1
 10
-5.75036362774437
 20
-35.8
 11
-9.196638871581655
 21
-35.8
 72
     1
 10
-9.196638871581655
 20
-35.8
 11
-11.32486873078562
 21
-38.33632558057261
 72
     1
 10
-11.32486873078562
 20
-38.33632558057261
 11
-7.878560401835301
 21
-38.33628615127012
 72
     1
 10
-7.878560401835301
 20
-38.33628615127012
 11
-5.75036362774437
 21
-35.8
 97
        0
 75
     0
 76
     1
 98
        1
 10
-51.97500000000003
 20
-0.0010749287239005
  0
HATCH
  5
D0
330
1F
100
AcDbEntity
  8
중심선
100
AcDbHatch
 10
0.0
 20
0.0
 30
0.0
210
0.0
220
0.0
230
1.0
  2
SOLID
 70
     1
 71
     0
 91
        1
 92
        0
 93
        4
 72
     1
 10
-0.7375996367084241
 20
-35.79999999999998
 11
-4.183874880545652
 21
-35.79999999999998
 72
     1
 10
-4.183874880545652
 20
-35.79999999999998
 11
-8.715012888903118
 21
-41.20000000000002
 72
     1
 10
-8.715012888903118
 20
-41.20000000000002
 11
-5.268737645065841
 21
-41.20000000000002
 72
     1
 10
-5.268737645065841
 20
-41.20000000000002
 11
-0.7375996367084241
 21
-35.79999999999998
 97
        0
 75
     0
 76
     1
 98
        1
 10
-51.97500000000003
 20
-0.0010749287239005
  0
HATCH
  5
D1
330
1F
100
AcDbEntity
  8
중심선
100
AcDbHatch
 10
0.0
 20
0.0
 30
0.0
210
0.0
220
0.0
230
1.0
  2
SOLID
 70
     1
 71
     0
 91
        1
 92
        0
 93
        4
 72
     1
 10
4.275164354327529
 20
-35.8
 11
0.8288891104904152
 21
-35.79999999999998
 72
     1
 10
0.8288891104904152
 20
-35.79999999999998
 11
-6.219547791398917
 21
-44.20000000000002
 72
     1
 10
-6.219547791398917
 20
-44.20000000000002
 11
-2.773272547561639
 21
-44.20000000000002
 72
     1
 10
-2.773272547561639
 20
-44.20000000000002
 11
4.275164354327529
 21
-35.8
 97
        0
 75
     0
 76
     1
 98
        1
 10
-51.97500000000003
 20
-0.0010749287239005
  0
HATCH
  5
D2
330
1F
100
AcDbEntity
  8
중심선
100
AcDbHatch
 10
0.0
 20
0.0
 30
0.0
210
0.0
220
0.0
230
1.0
  2
SOLID
 70
     1
 71
     0
 91
        1
 92
        0
 93
        6
 72
     3
 10
9.075054785339674
 20
-40.00000000005128
 11
3.96005478506229
 21
1.540882976769353E-10
 40
0.3939339440162621
 50
17.09539180608447
 51
320.0019657685068
 73
     0
 72
     1
 10
10.75805444104024
 20
-38.58789400463828
 11
13.06335631474122
 21
-36.65356729459039
 72
     3
 10
9.075054785286824
 20
-40.00000000000016
 11
6.600054785286822
 21
-1.278976924368180E-13
 40
0.6363583540795986
 50
39.99873849337471
 51
368.4976242363725
 73
     1
 72
     1
 10
15.50038727718741
 20
-39.03999999993003
 11
7.755122092122718
 21
-39.03999999993003
 72
     1
 10
7.755122092122718
 20
-39.03999999993003
 11
7.755097047676813
 21
-40.95999999992992
 72
     1
 10
7.755097047676813
 20
-40.95999999992992
 11
12.19647681714883
 21
-40.95999999992989
 97
        0
 75
     0
 76
     1
 98
        1
 10
-51.97500000000003
 20
-0.0010749287239005
  0
DIMENSION
  5
D3
330
1F
100
AcDbEntity
  8
치수문자_일반주서
100
AcDbDimension
  2
_D
 10
109.43955698206
 20
-12.74601838627564
 30
0.0
 11
109.4395569820598
 21
32.77898161372435
 31
0.0
 70
   160
  1
%%c<>
 71
     2
 42
25.4
 52
-270.0
  3
SLDDIMSTYLE2
100
AcDbAlignedDimension
 13
78.67499999999998
 23
12.65398161372425
 33
0.0
 14
78.67499999999998
 24
-12.74601838627575
 34
0.0
 50
90.0000000000002
100
AcDbRotatedDimension
1001
ACAD
1000
DSTYLE
1002
{
1070
   171
1070
     6
1070
   273
1070
     5
1070
    41
1040
4.0
1070
   140
1040
4.0
1002
}
  0
DIMENSION
  5
E8
330
1F
100
AcDbEntity
  8
치수문자_일반주서
100
AcDbDimension
  2
_D_1
 10
12.0
 20
38.95572817130181
 30
0.0
 11
45.3375
 21
38.95572817130181
 31
0.0
 70
   160
  1
<>
 71
     2
 42
66.67499999999998
  3
SLDDIMSTYLE2
100
AcDbAlignedDimension
 13
78.67499999999998
 23
12.65398161372425
 33
0.0
 14
12.0
 24
11.66643698879842
 34
0.0
 50
0.0000000000000061
100
AcDbRotatedDimension
1001
ACAD
1000
DSTYLE
1002
{
1070
   171
1070
     6
1070
   273
1070
     5
1070
    41
1040
4.0
1070
   140
1040
4.0
1002
}
  0
DIMENSION
  5
FD
330
1F
100
AcDbEntity
  8
치수문자_일반주서
100
AcDbDimension
  2
_D_2
 10
-73.72500000000002
 20
56.17106870114121
 30
0.0
 11
2.474999999999987
 21
56.17106870114121
 31
0.0
 70
   160
  1
<>
 71
     2
 42
152.4
  3
SLDDIMSTYLE2
100
AcDbAlignedDimension
 13
78.67499999999998
 23
12.65398161372425
 33
0.0
 14
-73.72500000000002
 24
10.11398161372425
 34
0.0
 50
0.0000000000000053
100
AcDbRotatedDimension
1001
ACAD
1000
DSTYLE
1002
{
1070
   171
1070
     6
1070
   273
1070
     5
1070
    41
1040
4.0
1070
   140
1040
4.0
1002
}
  0
DIMENSION
  5
111
330
1F
100
AcDbEntity
  8
치수문자_일반주서
100
AcDbDimension
  2
_D_3
 10
-89.29869458096817
 20
-12.74601838627581
 30
0.0
 11
-89.29869458096833
 21
32.27898161372417
 31
0.0
 70
   160
  1
%%c<>
 71
     2
 42
25.39999999999998
 52
-270.0
  3
SLDDIMSTYLE2
100
AcDbAlignedDimension
 13
-71.18500000000003
 23
12.65398161372424
 33
0.0
 14
-71.18500000000003
 24
-12.74601838627574
 34
0.0
 50
90.0000000000002
100
AcDbRotatedDimension
1001
ACAD
1000
DSTYLE
1002
{
1070
   171
1070
     6
1070
   273
1070
     5
1070
    41
1040
4.0
1070
   140
1040
4.0
1002
}
  0
LINE
  5
126
330
1F
100
AcDbEntity
  8
참조1
100
AcDbLine
 10
80.1134838153456
 20
7.441074928723896
 30
0.0
 11
80.1134838153456
 21
-7.438925071276109
 31
0.0
  0
LINE
  5
127
330
1F
100
AcDbEntity
  8
참조1
100
AcDbLine
 10
92.8134838153456
 20
5.441074928723896
 30
0.0
 11
80.1134838153456
 21
5.441074928723896
 31
0.0
  0
SOLID
  5
128
330
1F
100
AcDbEntity
  8
참조1
100
AcDbTrace
 10
80.1134838153456
 20
5.441074928723896
 30
0.0
 11
86.4634838153456
 21
4.425074928723896
 31
0.0
 12
86.4634838153456
 22
6.457074928723896
 32
0.0
 13
86.4634838153456
 23
6.457074928723896
 33
0.0
  0
LINE
  5
129
330
1F
100
AcDbEntity
  8
참조1
100
AcDbLine
 10
92.8134838153456
 20
-5.438925071276109
 30
0.0
 11
80.1134838153456
 21
-5.438925071276109
 31
0.0
  0
SOLID
  5
12A
330
1F
100
AcDbEntity
  8
참조1
100
AcDbTrace
 10
80.1134838153456
 20
-5.438925071276109
 30
0.0
 11
86.4634838153456
 21
-6.454925071276109
 31
0.0
 12
86.4634838153456
 22
-4.422925071276109
 32
0.0
 13
86.4634838153456
 23
-4.422925071276109
 33
0.0
  0
MTEXT
  5
12B
330
1F
100
AcDbEntity
  8
참조1
100
AcDbMText
 10
89.4978339479716
 20
11.01136670591222
 30
0.0
 40
3.5
 41
0.0
 71
     1
 72
     1
  1
A
  7
SLDTEXTSTYLE0
 73
     1
 44
1.0
  0
MTEXT
  5
12C
330
1F
100
AcDbEntity
  8
참조1
100
AcDbMText
 10
89.4978339479716
 20
0.1313667059122201
 30
0.0
 40
3.5
 41
0.0
 71
     1
 72
     1
  1
A
  7
SLDTEXTSTYLE0
 73
     1
 44
1.0
  0
INSERT
  5
133
330
1F
100
AcDbEntity
  8
해칭선
100
AcDbBlockReference
  2
SW_DOWELSYMBOL_0
 10
0.0
 20
0.0
 30
0.0
  0
ENDSEC
  0
SECTION
  2
OBJECTS
  0
DICTIONARY
  5
C
330
0
100
AcDbDictionary
281
     1
  3
ACAD_GROUP
350
D
  3
ACAD_IMAGE_VARS
350
157
  3
ACAD_LAYOUT
350
1A
  3
ACAD_MLINESTYLE
350
17
  3
ACAD_PLOTSETTINGS
350
19
  3
ACAD_PLOTSTYLENAME
350
E
  3
ACAD_SCALELIST
350
47
  3
APPDATA
350
155
  3
DWGPROPS
350
2C1
  0
DICTIONARY
  5
214
330
2
100
AcDbDictionary
280
     1
281
     1
  3
ACAD_LAYERSTATES
360
215
  0
DICTIONARY
  5
D
102
{ACAD_REACTORS
330
C
102
}
330
C
100
AcDbDictionary
281
     1
  0
RASTERVARIABLES
  5
157
102
{ACAD_REACTORS
330
C
102
}
330
C
100
AcDbRasterVariables
 90
        0
 70
     1
 71
     1
 72
     1
  0
DICTIONARY
  5
1A
102
{ACAD_REACTORS
330
C
102
}
330
C
100
AcDbDictionary
281
     1
  3
Layout1
350
1E
  3
Layout2
350
26
  3
Model
350
22
  0
DICTIONARY
  5
17
102
{ACAD_REACTORS
330
C
102
}
330
C
100
AcDbDictionary
281
     1
  3
Standard
350
18
  0
DICTIONARY
  5
19
102
{ACAD_REACTORS
330
C
102
}
330
C
100
AcDbDictionary
281
     1
  0
ACDBDICTIONARYWDFLT
  5
E
102
{ACAD_REACTORS
330
C
102
}
330
C
100
AcDbDictionary
281
     1
  3
Normal
350
F
100
AcDbDictionaryWithDefault
340
F
  0
DICTIONARY
  5
47
102
{ACAD_REACTORS
330
C
102
}
330
C
100
AcDbDictionary
281
     1
  3
A0
350
48
  3
A1
350
49
  3
A2
350
4A
  3
A3
350
4B
  3
A4
350
4C
  3
A5
350
4D
  3
A6
350
4E
  3
A7
350
4F
  3
A8
350
50
  3
A9
350
51
  3
B0
350
52
  3
B1
350
53
  3
B2
350
54
  3
B3
350
55
  3
B4
350
56
  3
B5
350
57
  3
B6
350
58
  3
B7
350
59
  3
B8
350
5A
  3
B9
350
5B
  3
C0
350
5C
  3
C1
350
5D
  3
C2
350
5E
  3
C3
350
5F
  3
C4
350
60
  3
C5
350
61
  3
C6
350
62
  3
C7
350
63
  3
C8
350
64
  3
C9
350
65
  3
D0
350
66
  3
D1
350
67
  3
D2
350
68
  0
DICTIONARY
  5
155
102
{ACAD_REACTORS
330
C
102
}
330
C
100
AcDbDictionary
281
     1
  0
XRECORD
  5
2C1
102
{ACAD_REACTORS
330
C
102
}
330
C
100
AcDbXrecord
280
     1
  1
DWGPROPS COOKIE
  2

  3

  4

  6

  7

  8
12014074
  9

300
=
301
=
302
=
303
=
304
=
305
=
306
=
307
=
308
=
309
=
 40
0.0
 41
2458316.074623391
 42
2458323.379860567
  1

 90
        0
  0
DICTIONARY
  5
215
102
{ACAD_REACTORS
330
214
102
}
330
214
100
AcDbDictionary
281
     1
  0
LAYOUT
  5
1E
102
{ACAD_REACTORS
330
1A
102
}
330
1A
100
AcDbPlotSettings
  1

  2
none_device
  4

  6

 40
0.0
 41
0.0
 42
0.0
 43
0.0
 44
0.0
 45
0.0
 46
0.0
 47
0.0
 48
0.0
 49
0.0
140
0.0
141
0.0
142
1.0
143
1.0
 70
   688
 72
     1
 73
     0
 74
     5
  7

 75
    16
147
1.0
148
0.0
149
0.0
100
AcDbLayout
  1
Layout1
 70
     1
 71
     1
 10
0.0
 20
0.0
 11
420.0
 21
297.0
 12
0.0
 22
0.0
 32
0.0
 14
1.000000000000000E+20
 24
1.000000000000000E+20
 34
1.000000000000000E+20
 15
-1.000000000000000E+20
 25
-1.000000000000000E+20
 35
-1.000000000000000E+20
146
0.0
 13
0.0
 23
0.0
 33
0.0
 16
1.0
 26
0.0
 36
0.0
 17
0.0
 27
1.0
 37
0.0
 76
     0
330
1B
  0
LAYOUT
  5
26
102
{ACAD_REACTORS
330
1A
102
}
330
1A
100
AcDbPlotSettings
  1

  2
none_device
  4

  6

 40
0.0
 41
0.0
 42
0.0
 43
0.0
 44
0.0
 45
0.0
 46
0.0
 47
0.0
 48
0.0
 49
0.0
140
0.0
141
0.0
142
1.0
143
1.0
 70
   688
 72
     1
 73
     0
 74
     5
  7

 75
    16
147
1.0
148
0.0
149
0.0
100
AcDbLayout
  1
Layout2
 70
     1
 71
     2
 10
0.0
 20
0.0
 11
0.0
 21
0.0
 12
0.0
 22
0.0
 32
0.0
 14
0.0
 24
0.0
 34
0.0
 15
0.0
 25
0.0
 35
0.0
146
0.0
 13
0.0
 23
0.0
 33
0.0
 16
1.0
 26
0.0
 36
0.0
 17
0.0
 27
1.0
 37
0.0
 76
     0
330
23
  0
LAYOUT
  5
22
102
{ACAD_REACTORS
330
1A
102
}
330
1A
100
AcDbPlotSettings
  1

  2
none_device
  4
ANSI_A_(11.00_x_8.50_Inches)
  6

 40
6.35
 41
19.05
 42
6.35000508
 43
19.05000254
 44
279.4
 45
215.9
 46
31.04893216091792
 47
80.87481461903963
 48
0.0
 49
0.0
140
0.0
141
0.0
142
0.0388856331908009
143
1.0
 70
  1696
 72
     0
 73
     0
 74
     0
  7

 75
     0
147
0.0235690232323232
148
0.0
149
0.0
100
AcDbLayout
  1
Model
 70
     1
 71
     0
 10
0.0
 20
0.0
 11
420.0
 21
297.0
 12
0.0
 22
0.0
 32
0.0
 14
1.000000000000000E+20
 24
1.000000000000000E+20
 34
1.000000000000000E+20
 15
-1.000000000000000E+20
 25
-1.000000000000000E+20
 35
-1.000000000000000E+20
146
0.0
 13
0.0
 23
0.0
 33
0.0
 16
1.0
 26
0.0
 36
0.0
 17
0.0
 27
1.0
 37
0.0
 76
     0
330
1F
331
29
  0
MLINESTYLE
  5
18
102
{ACAD_REACTORS
330
17
102
}
330
17
100
AcDbMlineStyle
  2
Standard
 70
     0
  3

 62
   256
 51
90.0
 52
90.0
 71
     2
 49
0.5
 62
   256
  6
BYLAYER
 49
-0.5
 62
   256
  6
BYLAYER
  0
ACDBPLACEHOLDER
  5
F
102
{ACAD_REACTORS
330
E
102
}
330
E
  0
SCALE
  5
48
102
{ACAD_REACTORS
330
47
102
}
330
47
100
AcDbScale
 70
     0
300
1:1
140
1.0
141
1.0
290
     1
  0
SCALE
  5
49
102
{ACAD_REACTORS
330
47
102
}
330
47
100
AcDbScale
 70
     0
300
1:2
140
1.0
141
2.0
290
     0
  0
SCALE
  5
4A
102
{ACAD_REACTORS
330
47
102
}
330
47
100
AcDbScale
 70
     0
300
1:4
140
1.0
141
4.0
290
     0
  0
SCALE
  5
4B
102
{ACAD_REACTORS
330
47
102
}
330
47
100
AcDbScale
 70
     0
300
1:5
140
1.0
141
5.0
290
     0
  0
SCALE
  5
4C
102
{ACAD_REACTORS
330
47
102
}
330
47
100
AcDbScale
 70
     0
300
1:8
140
1.0
141
8.0
290
     0
  0
SCALE
  5
4D
102
{ACAD_REACTORS
330
47
102
}
330
47
100
AcDbScale
 70
     0
300
1:10
140
1.0
141
10.0
290
     0
  0
SCALE
  5
4E
102
{ACAD_REACTORS
330
47
102
}
330
47
100
AcDbScale
 70
     0
300
1:16
140
1.0
141
16.0
290
     0
  0
SCALE
  5
4F
102
{ACAD_REACTORS
330
47
102
}
330
47
100
AcDbScale
 70
     0
300
1:20
140
1.0
141
20.0
290
     0
  0
SCALE
  5
50
102
{ACAD_REACTORS
330
47
102
}
330
47
100
AcDbScale
 70
     0
300
1:30
140
1.0
141
30.0
290
     0
  0
SCALE
  5
51
102
{ACAD_REACTORS
330
47
102
}
330
47
100
AcDbScale
 70
     0
300
1:40
140
1.0
141
40.0
290
     0
  0
SCALE
  5
52
102
{ACAD_REACTORS
330
47
102
}
330
47
100
AcDbScale
 70
     0
300
1:50
140
1.0
141
50.0
290
     0
  0
SCALE
  5
53
102
{ACAD_REACTORS
330
47
102
}
330
47
100
AcDbScale
 70
     0
300
1:100
140
1.0
141
100.0
290
     0
  0
SCALE
  5
54
102
{ACAD_REACTORS
330
47
102
}
330
47
100
AcDbScale
 70
     0
300
2:1
140
2.0
141
1.0
290
     0
  0
SCALE
  5
55
102
{ACAD_REACTORS
330
47
102
}
330
47
100
AcDbScale
 70
     0
300
4:1
140
4.0
141
1.0
290
     0
  0
SCALE
  5
56
102
{ACAD_REACTORS
330
47
102
}
330
47
100
AcDbScale
 70
     0
300
8:1
140
8.0
141
1.0
290
     0
  0
SCALE
  5
57
102
{ACAD_REACTORS
330
47
102
}
330
47
100
AcDbScale
 70
     0
300
10:1
140
10.0
141
1.0
290
     0
  0
SCALE
  5
58
102
{ACAD_REACTORS
330
47
102
}
330
47
100
AcDbScale
 70
     0
300
100:1
140
100.0
141
1.0
290
     0
  0
SCALE
  5
59
102
{ACAD_REACTORS
330
47
102
}
330
47
100
AcDbScale
 70
     0
300
1/128" = 1'-0"
140
0.0078125
141
12.0
290
     0
  0
SCALE
  5
5A
102
{ACAD_REACTORS
330
47
102
}
330
47
100
AcDbScale
 70
     0
300
1/64" = 1'-0"
140
0.015625
141
12.0
290
     0
  0
SCALE
  5
5B
102
{ACAD_REACTORS
330
47
102
}
330
47
100
AcDbScale
 70
     0
300
1/32" = 1'-0"
140
0.03125
141
12.0
290
     0
  0
SCALE
  5
5C
102
{ACAD_REACTORS
330
47
102
}
330
47
100
AcDbScale
 70
     0
300
1/16" = 1'-0"
140
0.0625
141
12.0
290
     0
  0
SCALE
  5
5D
102
{ACAD_REACTORS
330
47
102
}
330
47
100
AcDbScale
 70
     0
300
3/32" = 1'-0"
140
0.09375
141
12.0
290
     0
  0
SCALE
  5
5E
102
{ACAD_REACTORS
330
47
102
}
330
47
100
AcDbScale
 70
     0
300
1/8" = 1'-0"
140
0.125
141
12.0
290
     0
  0
SCALE
  5
5F
102
{ACAD_REACTORS
330
47
102
}
330
47
100
AcDbScale
 70
     0
300
3/16" = 1'-0"
140
0.1875
141
12.0
290
     0
  0
SCALE
  5
60
102
{ACAD_REACTORS
330
47
102
}
330
47
100
AcDbScale
 70
     0
300
1/4" = 1'-0"
140
0.25
141
12.0
290
     0
  0
SCALE
  5
61
102
{ACAD_REACTORS
330
47
102
}
330
47
100
AcDbScale
 70
     0
300
3/8" = 1'-0"
140
0.375
141
12.0
290
     0
  0
SCALE
  5
62
102
{ACAD_REACTORS
330
47
102
}
330
47
100
AcDbScale
 70
     0
300
1/2" = 1'-0"
140
0.5
141
12.0
290
     0
  0
SCALE
  5
63
102
{ACAD_REACTORS
330
47
102
}
330
47
100
AcDbScale
 70
     0
300
3/4" = 1'-0"
140
0.75
141
12.0
290
     0
  0
SCALE
  5
64
102
{ACAD_REACTORS
330
47
102
}
330
47
100
AcDbScale
 70
     0
300
1" = 1'-0"
140
1.0
141
12.0
290
     0
  0
SCALE
  5
65
102
{ACAD_REACTORS
330
47
102
}
330
47
100
AcDbScale
 70
     0
300
1-1/2" = 1'-0"
140
1.5
141
12.0
290
     0
  0
SCALE
  5
66
102
{ACAD_REACTORS
330
47
102
}
330
47
100
AcDbScale
 70
     0
300
3" = 1'-0"
140
3.0
141
12.0
290
     0
  0
SCALE
  5
67
102
{ACAD_REACTORS
330
47
102
}
330
47
100
AcDbScale
 70
     0
300
6" = 1'-0"
140
6.0
141
12.0
290
     0
  0
SCALE
  5
68
102
{ACAD_REACTORS
330
47
102
}
330
47
100
AcDbScale
 70
     0
300
1'-0" = 1'-0"
140
12.0
141
12.0
290
     0
  0
ENDSEC
  0
EOF
