  0
SECTION
  2
HEADER
  9
$ACADVER
  1
AC1015
  9
$ACADMAINTVER
 70
     6
  9
$DWGCODEPAGE
  3
ANSI_949
  9
$INSBASE
 10
0.0
 20
0.0
 30
0.0
  9
$EXTMIN
 10
1.000000000000000E+20
 20
1.000000000000000E+20
 30
1.000000000000000E+20
  9
$EXTMAX
 10
-1.000000000000000E+20
 20
-1.000000000000000E+20
 30
-1.000000000000000E+20
  9
$LIMMIN
 10
0.0
 20
0.0
  9
$LIMMAX
 10
420.0
 20
297.0
  9
$ORTHOMODE
 70
     1
  9
$REGENMODE
 70
     1
  9
$FILLMODE
 70
     1
  9
$QTEXTMODE
 70
     0
  9
$MIRRTEXT
 70
     1
  9
$LTSCALE
 40
1.0
  9
$ATTMODE
 70
     1
  9
$TEXTSIZE
 40
3.5
  9
$TRACEWID
 40
1.0
  9
$TEXTSTYLE
  7
Standard
  9
$CLAYER
  8
0
  9
$CELTYPE
  6
ByLayer
  9
$CECOLOR
 62
   256
  9
$CELTSCALE
 40
1.0
  9
$DISPSILH
 70
     0
  9
$DIMSCALE
 40
1.0
  9
$DIMASZ
 40
3.302
  9
$DIMEXO
 40
1.0
  9
$DIMDLI
 40
3.75
  9
$DIMRND
 40
0.0
  9
$DIMDLE
 40
0.0
  9
$DIMEXE
 40
1.0
  9
$DIMTP
 40
0.0
  9
$DIMTM
 40
0.0
  9
$DIMTXT
 40
3.5
  9
$DIMCEN
 40
2.5
  9
$DIMTSZ
 40
0.0
  9
$DIMTOL
 70
     0
  9
$DIMLIM
 70
     0
  9
$DIMTIH
 70
     1
  9
$DIMTOH
 70
     1
  9
$DIMSE1
 70
     0
  9
$DIMSE2
 70
     0
  9
$DIMTAD
 70
     1
  9
$DIMZIN
 70
     0
  9
$DIMBLK
  1

  9
$DIMASO
 70
     1
  9
$DIMSHO
 70
     1
  9
$DIMPOST
  1

  9
$DIMAPOST
  1

  9
$DIMALT
 70
     0
  9
$DIMALTD
 70
     3
  9
$DIMALTF
 40
0.0393700787401575
  9
$DIMLFAC
 40
1.0
  9
$DIMTOFL
 70
     1
  9
$DIMTVP
 40
0.0
  9
$DIMTIX
 70
     0
  9
$DIMSOXD
 70
     0
  9
$DIMSAH
 70
     0
  9
$DIMBLK1
  1

  9
$DIMBLK2
  1

  9
$DIMSTYLE
  2
ISO-25
  9
$DIMCLRD
 70
     0
  9
$DIMCLRE
 70
     0
  9
$DIMCLRT
 70
     0
  9
$DIMTFAC
 40
1.0
  9
$DIMGAP
 40
1.524
  9
$DIMJUST
 70
     0
  9
$DIMSD1
 70
     0
  9
$DIMSD2
 70
     0
  9
$DIMTOLJ
 70
     0
  9
$DIMTZIN
 70
     0
  9
$DIMALTZ
 70
     0
  9
$DIMALTTZ
 70
     0
  9
$DIMUPT
 70
     0
  9
$DIMDEC
 70
     2
  9
$DIMTDEC
 70
     2
  9
$DIMALTU
 70
     2
  9
$DIMALTTD
 70
     3
  9
$DIMTXSTY
  7
Standard
  9
$DIMAUNIT
 70
     0
  9
$DIMADEC
 70
     2
  9
$DIMALTRND
 40
0.0
  9
$DIMAZIN
 70
     0
  9
$DIMDSEP
 70
    44
  9
$DIMATFIT
 70
     3
  9
$DIMFRAC
 70
     0
  9
$DIMLDRBLK
  1

  9
$DIMLUNIT
 70
     2
  9
$DIMLWD
 70
    -2
  9
$DIMLWE
 70
    -2
  9
$DIMTMOVE
 70
     0
  9
$LUNITS
 70
     2
  9
$LUPREC
 70
     2
  9
$SKETCHINC
 40
1.0
  9
$FILLETRAD
 40
10.0
  9
$AUNITS
 70
     0
  9
$AUPREC
 70
     2
  9
$MENU
  1
.
  9
$ELEVATION
 40
0.0
  9
$PELEVATION
 40
0.0
  9
$THICKNESS
 40
0.0
  9
$LIMCHECK
 70
     0
  9
$CHAMFERA
 40
0.0
  9
$CHAMFERB
 40
0.0
  9
$CHAMFERC
 40
0.0
  9
$CHAMFERD
 40
0.0
  9
$SKPOLY
 70
     0
  9
$TDCREATE
 40
2458324.340700544
  9
$TDUCREATE
 40
2458323.965700544
  9
$TDUPDATE
 40
2458324.571102488
  9
$TDUUPDATE
 40
2458324.196102488
  9
$TDINDWG
 40
0.0011965625
  9
$TDUSRTIMER
 40
2458324.194906273
  9
$USRTIMER
 70
     1
  9
$ANGBASE
 50
0.0
  9
$ANGDIR
 70
     0
  9
$PDMODE
 70
     0
  9
$PDSIZE
 40
-1.0
  9
$PLINEWID
 40
0.0
  9
$SPLFRAME
 70
     0
  9
$SPLINETYPE
 70
     6
  9
$SPLINESEGS
 70
     8
  9
$HANDSEED
  5
2E2
  9
$SURFTAB1
 70
     6
  9
$SURFTAB2
 70
     6
  9
$SURFTYPE
 70
     6
  9
$SURFU
 70
     6
  9
$SURFV
 70
     6
  9
$UCSBASE
  2

  9
$UCSNAME
  2

  9
$UCSORG
 10
0.0
 20
0.0
 30
0.0
  9
$UCSXDIR
 10
1.0
 20
0.0
 30
0.0
  9
$UCSYDIR
 10
0.0
 20
1.0
 30
0.0
  9
$UCSORTHOREF
  2

  9
$UCSORTHOVIEW
 70
     0
  9
$UCSORGTOP
 10
0.0
 20
0.0
 30
0.0
  9
$UCSORGBOTTOM
 10
0.0
 20
0.0
 30
0.0
  9
$UCSORGLEFT
 10
0.0
 20
0.0
 30
0.0
  9
$UCSORGRIGHT
 10
0.0
 20
0.0
 30
0.0
  9
$UCSORGFRONT
 10
0.0
 20
0.0
 30
0.0
  9
$UCSORGBACK
 10
0.0
 20
0.0
 30
0.0
  9
$PUCSBASE
  2

  9
$PUCSNAME
  2

  9
$PUCSORG
 10
0.0
 20
0.0
 30
0.0
  9
$PUCSXDIR
 10
1.0
 20
0.0
 30
0.0
  9
$PUCSYDIR
 10
0.0
 20
1.0
 30
0.0
  9
$PUCSORTHOREF
  2

  9
$PUCSORTHOVIEW
 70
     0
  9
$PUCSORGTOP
 10
0.0
 20
0.0
 30
0.0
  9
$PUCSORGBOTTOM
 10
0.0
 20
0.0
 30
0.0
  9
$PUCSORGLEFT
 10
0.0
 20
0.0
 30
0.0
  9
$PUCSORGRIGHT
 10
0.0
 20
0.0
 30
0.0
  9
$PUCSORGFRONT
 10
0.0
 20
0.0
 30
0.0
  9
$PUCSORGBACK
 10
0.0
 20
0.0
 30
0.0
  9
$USERI1
 70
     0
  9
$USERI2
 70
     0
  9
$USERI3
 70
     0
  9
$USERI4
 70
     0
  9
$USERI5
 70
     0
  9
$USERR1
 40
0.0
  9
$USERR2
 40
0.0
  9
$USERR3
 40
0.0
  9
$USERR4
 40
0.0
  9
$USERR5
 40
0.0
  9
$WORLDVIEW
 70
     1
  9
$SHADEDGE
 70
     3
  9
$SHADEDIF
 70
    70
  9
$TILEMODE
 70
     1
  9
$MAXACTVP
 70
    64
  9
$PINSBASE
 10
0.0
 20
0.0
 30
0.0
  9
$PLIMCHECK
 70
     0
  9
$PEXTMIN
 10
1.000000000000000E+20
 20
1.000000000000000E+20
 30
1.000000000000000E+20
  9
$PEXTMAX
 10
-1.000000000000000E+20
 20
-1.000000000000000E+20
 30
-1.000000000000000E+20
  9
$PLIMMIN
 10
0.0
 20
0.0
  9
$PLIMMAX
 10
0.0
 20
0.0
  9
$UNITMODE
 70
     0
  9
$VISRETAIN
 70
     1
  9
$PLINEGEN
 70
     0
  9
$PSLTSCALE
 70
     1
  9
$TREEDEPTH
 70
  3020
  9
$CMLSTYLE
  2
Standard
  9
$CMLJUST
 70
     0
  9
$CMLSCALE
 40
20.0
  9
$PROXYGRAPHICS
 70
     1
  9
$MEASUREMENT
 70
     1
  9
$CELWEIGHT
370
    -1
  9
$ENDCAPS
280
     0
  9
$JOINSTYLE
280
     0
  9
$LWDISPLAY
290
     1
  9
$INSUNITS
 70
     4
  9
$HYPERLINKBASE
  1

  9
$STYLESHEET
  1

  9
$XEDIT
290
     1
  9
$CEPSNTYPE
380
     0
  9
$PSTYLEMODE
290
     1
  9
$FINGERPRINTGUID
  2
{3F5712EF-30D3-4AD7-ACAC-5B264FCE7FE3}
  9
$VERSIONGUID
  2
{FAEB1C32-E019-11D5-929B-00C0DF256EC4}
  9
$EXTNAMES
290
     1
  9
$PSVPSCALE
 40
0.0
  9
$OLESTARTUP
290
     0
  0
ENDSEC
  0
SECTION
  2
CLASSES
  0
CLASS
  1
ACDBDICTIONARYWDFLT
  2
AcDbDictionaryWithDefault
  3
ObjectDBX Classes
 90
        0
280
     0
281
     0
  0
CLASS
  1
VISUALSTYLE
  2
AcDbVisualStyle
  3
ObjectDBX Classes
 90
     4095
280
     0
281
     0
  0
CLASS
  1
MATERIAL
  2
AcDbMaterial
  3
ObjectDBX Classes
 90
     1153
280
     0
281
     0
  0
CLASS
  1
SCALE
  2
AcDbScale
  3
ObjectDBX Classes
 90
     1153
280
     0
281
     0
  0
CLASS
  1
SUN
  2
AcDbSun
  3
SCENEOE
 90
     1153
280
     0
281
     0
  0
CLASS
  1
ACDBPLACEHOLDER
  2
AcDbPlaceHolder
  3
ObjectDBX Classes
 90
        0
280
     0
281
     0
  0
CLASS
  1
LAYOUT
  2
AcDbLayout
  3
ObjectDBX Classes
 90
        0
280
     0
281
     0
  0
CLASS
  1
TABLESTYLE
  2
AcDbTableStyle
  3
ObjectDBX Classes
 90
     4095
280
     0
281
     0
  0
CLASS
  1
MLEADERSTYLE
  2
AcDbMLeaderStyle
  3
ACDB_MLEADERSTYLE_CLASS
 90
     4095
280
     0
281
     0
  0
CLASS
  1
RASTERVARIABLES
  2
AcDbRasterVariables
  3
ISM
 90
        0
280
     0
281
     0
  0
ENDSEC
  0
SECTION
  2
TABLES
  0
TABLE
  2
VPORT
  5
8
330
0
100
AcDbSymbolTable
 70
     1
  0
VPORT
  5
29
330
8
100
AcDbSymbolTableRecord
100
AcDbViewportTableRecord
  2
*Active
 70
     0
 10
0.0
 20
0.0
 11
1.0
 21
1.0
 12
28.78383964766655
 22
-1.294185932572248
 13
0.0
 23
0.0
 14
10.0
 24
10.0
 15
10.0
 25
10.0
 16
0.0
 26
0.0
 36
1.0
 17
0.0
 27
0.0
 37
0.0
 40
114.1133472743495
 41
1.970186335403727
 42
50.0
 43
0.0
 44
0.0
 50
0.0
 51
0.0
 71
    16
 72
  2000
 73
     1
 74
     3
 75
     0
 76
     0
 77
     0
 78
     0
281
     0
 65
     1
110
0.0
120
0.0
130
0.0
111
1.0
121
0.0
131
0.0
112
0.0
122
1.0
132
0.0
 79
     0
146
0.0
  0
ENDTAB
  0
TABLE
  2
LTYPE
  5
5
330
0
100
AcDbSymbolTable
 70
     6
  0
LTYPE
  5
14
330
5
100
AcDbSymbolTableRecord
100
AcDbLinetypeTableRecord
  2
ByBlock
 70
     0
  3

 72
    65
 73
     0
 40
0.0
  0
LTYPE
  5
15
330
5
100
AcDbSymbolTableRecord
100
AcDbLinetypeTableRecord
  2
ByLayer
 70
     0
  3

 72
    65
 73
     0
 40
0.0
  0
LTYPE
  5
16
330
5
100
AcDbSymbolTableRecord
100
AcDbLinetypeTableRecord
  2
Continuous
 70
     0
  3
Solid line
 72
    65
 73
     0
 40
0.0
  0
LTYPE
  5
6A
330
5
100
AcDbSymbolTableRecord
100
AcDbLinetypeTableRecord
  2
HIDDEN
 70
     0
  3
Hidden __ __ __ __ __ __ __ __ __ __ __ __ __ __
 72
    65
 73
     2
 40
1.905
 49
1.27
 74
     0
 49
-0.635
 74
     0
  0
LTYPE
  5
6B
330
5
100
AcDbSymbolTableRecord
100
AcDbLinetypeTableRecord
  2
PHANTOM
 70
     0
  3
Phantom ______  __  __  ______  __  __  ______
 72
    65
 73
     6
 40
12.7
 49
6.35
 74
     0
 49
-1.27
 74
     0
 49
1.27
 74
     0
 49
-1.27
 74
     0
 49
1.27
 74
     0
 49
-1.27
 74
     0
  0
LTYPE
  5
6C
330
5
100
AcDbSymbolTableRecord
100
AcDbLinetypeTableRecord
  2
CENTER
 70
     0
  3
Center ____ _ ____ _ ____ _ ____ _ ____ _ ____
 72
    65
 73
     4
 40
10.16
 49
6.35
 74
     0
 49
-1.27
 74
     0
 49
1.27
 74
     0
 49
-1.27
 74
     0
  0
LTYPE
  5
6D
330
5
100
AcDbSymbolTableRecord
100
AcDbLinetypeTableRecord
  2
CENTERX2
 70
     0
  3
Center (2x) ________  __  ________  __  _____
 72
    65
 73
     4
 40
20.32
 49
12.7
 74
     0
 49
-2.54
 74
     0
 49
2.54
 74
     0
 49
-2.54
 74
     0
  0
LTYPE
  5
6E
330
5
100
AcDbSymbolTableRecord
100
AcDbLinetypeTableRecord
  2
DOT2
 70
     0
  3
Dot (.5x) ........................................
 72
    65
 73
     2
 40
0.635
 49
0.0
 74
     0
 49
-0.635
 74
     0
  0
ENDTAB
  0
TABLE
  2
LAYER
  5
2
102
{ACAD_XDICTIONARY
360
224
102
}
330
0
100
AcDbSymbolTable
 70
    18
  0
LAYER
  5
10
330
2
100
AcDbSymbolTableRecord
100
AcDbLayerTableRecord
  2
0
 70
     0
 62
     7
  6
Continuous
370
    -3
390
F
  0
LAYER
  5
6F
330
2
100
AcDbSymbolTableRecord
100
AcDbLayerTableRecord
  2
FORMAT
 70
     0
 62
     2
  6
Continuous
370
    -3
390
F
  0
LAYER
  5
70
330
2
100
AcDbSymbolTableRecord
100
AcDbLayerTableRecord
  2
외형선
 70
     0
 62
     4
  6
Continuous
370
    30
390
F
  0
LAYER
  5
71
330
2
100
AcDbSymbolTableRecord
100
AcDbLayerTableRecord
  2
숨은선
 70
     0
 62
     2
  6
HIDDEN
370
    15
390
F
  0
LAYER
  5
72
330
2
100
AcDbSymbolTableRecord
100
AcDbLayerTableRecord
  2
중심선
 70
     0
 62
     1
  6
CENTERX2
370
    -3
390
F
  0
LAYER
  5
73
330
2
100
AcDbSymbolTableRecord
100
AcDbLayerTableRecord
  2
파단선
 70
     0
 62
     4
  6
Continuous
370
    -3
390
F
  0
LAYER
  5
74
330
2
100
AcDbSymbolTableRecord
100
AcDbLayerTableRecord
  2
해칭선
 70
     0
 62
   100
  6
Continuous
370
    -3
390
F
  0
LAYER
  5
75
330
2
100
AcDbSymbolTableRecord
100
AcDbLayerTableRecord
  2
가는실선
 70
     0
 62
     4
  6
Continuous
370
    -3
390
F
  0
LAYER
  5
76
330
2
100
AcDbSymbolTableRecord
100
AcDbLayerTableRecord
  2
치수_보조선
 70
     0
 62
     4
  6
Continuous
370
    -3
390
F
  0
LAYER
  5
77
330
2
100
AcDbSymbolTableRecord
100
AcDbLayerTableRecord
  2
치수문자_일반주서
 70
     0
 62
     7
  6
Continuous
370
    15
390
F
  0
LAYER
  5
78
330
2
100
AcDbSymbolTableRecord
100
AcDbLayerTableRecord
  2
개별주서
 70
     0
 62
   100
  6
Continuous
370
    30
390
F
  0
LAYER
  5
79
330
2
100
AcDbSymbolTableRecord
100
AcDbLayerTableRecord
  2
중간선
 70
     0
 62
     2
  6
Continuous
370
    15
390
F
  0
LAYER
  5
7A
330
2
100
AcDbSymbolTableRecord
100
AcDbLayerTableRecord
  2
윤곽선
 70
     0
 62
     3
  6
Continuous
370
    40
390
F
  0
LAYER
  5
7B
330
2
100
AcDbSymbolTableRecord
100
AcDbLayerTableRecord
  2
중심마크
 70
     0
 62
   100
  6
Continuous
370
    30
390
F
  0
LAYER
  5
7C
330
2
100
AcDbSymbolTableRecord
100
AcDbLayerTableRecord
  2
가상선
 70
     0
 62
     4
  6
PHANTOM
370
    -3
390
F
  0
LAYER
  5
7D
330
2
100
AcDbSymbolTableRecord
100
AcDbLayerTableRecord
  2
특수지정선
 70
     0
 62
     5
  6
CENTERX2
370
    60
390
F
  0
LAYER
  5
7E
330
2
100
AcDbSymbolTableRecord
100
AcDbLayerTableRecord
  2
참조1
 70
     0
 62
    -4
  6
Continuous
370
    -3
390
F
  0
LAYER
  5
16C
330
2
100
AcDbSymbolTableRecord
100
AcDbLayerTableRecord
  2
Defpoints
 70
     0
 62
     7
  6
Continuous
290
     0
370
    -3
390
F
  0
ENDTAB
  0
TABLE
  2
STYLE
  5
3
330
0
100
AcDbSymbolTable
 70
     2
  0
STYLE
  5
11
330
3
100
AcDbSymbolTableRecord
100
AcDbTextStyleTableRecord
  2
Standard
 70
     0
 40
0.0
 41
1.0
 50
0.0
 71
     0
 42
3.5
  3
txt
  4

  0
STYLE
  5
94
330
3
100
AcDbSymbolTableRecord
100
AcDbTextStyleTableRecord
  2
SLDTEXTSTYLE0
 70
     0
 40
0.0
 41
0.75
 50
0.0
 71
     0
 42
3.5
  3
TXT
  4

  0
ENDTAB
  0
TABLE
  2
VIEW
  5
6
330
0
100
AcDbSymbolTable
 70
     0
  0
ENDTAB
  0
TABLE
  2
UCS
  5
7
330
0
100
AcDbSymbolTable
 70
     0
  0
ENDTAB
  0
TABLE
  2
APPID
  5
9
330
0
100
AcDbSymbolTable
 70
     3
  0
APPID
  5
12
330
9
100
AcDbSymbolTableRecord
100
AcDbRegAppTableRecord
  2
ACAD
 70
     0
  0
APPID
  5
178
330
9
100
AcDbSymbolTableRecord
100
AcDbRegAppTableRecord
  2
PE_URL
 70
     0
  0
APPID
  5
179
330
9
100
AcDbSymbolTableRecord
100
AcDbRegAppTableRecord
  2
ACAD_DSTYLE_DIMRADIAL_EXTENSION
 70
     0
  0
ENDTAB
  0
TABLE
  2
DIMSTYLE
  5
A
330
0
100
AcDbSymbolTable
 70
     4
100
AcDbDimStyleTable
  0
DIMSTYLE
105
27
330
A
100
AcDbSymbolTableRecord
100
AcDbDimStyleTableRecord
  2
ISO-25
 70
     0
 41
2.5
 42
0.625
 43
3.75
 44
1.25
 73
     0
 74
     0
 77
     1
 78
     8
140
2.5
141
2.5
143
0.03937007874016
147
0.625
171
     3
172
     1
178
     0
271
     2
272
     2
274
     3
278
    44
283
     0
284
     8
340
11
  0
DIMSTYLE
105
EA
102
{ACAD_REACTORS
330
E9
330
1D8
330
1E5
330
FE
330
112
330
125
102
}
330
A
100
AcDbSymbolTableRecord
100
AcDbDimStyleTableRecord
  2
SLDDIMSTYLE0
 70
     0
 41
3.302
 44
0.0
 45
0.000000001
 73
     0
 74
     0
 77
     1
 78
    12
 79
     3
140
3.5
143
0.0393700787401575
147
0.875
148
0.000000001
170
     1
172
     1
173
     1
178
     0
271
     2
272
     2
276
     2
284
    12
289
     0
340
94
  0
DIMSTYLE
105
FF
102
{ACAD_REACTORS
330
21B
102
}
330
A
100
AcDbSymbolTableRecord
100
AcDbDimStyleTableRecord
  2
SLDDIMSTYLE1
 70
     0
 41
3.302
 44
0.0
 45
0.000000001
 73
     0
 74
     0
 77
     1
 78
    12
 79
     3
140
3.5
143
0.0393700787401575
147
0.875
148
0.000000001
170
     1
173
     1
178
     0
271
     2
272
     2
276
     2
284
    12
340
94
  0
DIMSTYLE
105
126
102
{ACAD_REACTORS
330
1F2
330
201
102
}
330
A
100
AcDbSymbolTableRecord
100
AcDbDimStyleTableRecord
  2
SLDDIMSTYLE2
 70
     0
 41
3.302
 44
0.0
 45
0.000000001
 73
     0
 74
     0
 77
     1
 78
     4
 79
     1
140
3.5
143
0.0393700787401575
147
0.875
148
0.000000001
170
     1
173
     1
178
     0
271
     2
272
     2
276
     2
284
    12
340
94
  0
ENDTAB
  0
TABLE
  2
BLOCK_RECORD
  5
1
330
0
100
AcDbSymbolTable
 70
    18
  0
BLOCK_RECORD
  5
1F
330
1
100
AcDbSymbolTableRecord
100
AcDbBlockTableRecord
  2
*Model_Space
340
22
  0
BLOCK_RECORD
  5
1B
330
1
100
AcDbSymbolTableRecord
100
AcDbBlockTableRecord
  2
*Paper_Space
340
1E
  0
BLOCK_RECORD
  5
23
330
1
100
AcDbSymbolTableRecord
100
AcDbBlockTableRecord
  2
*Paper_Space0
340
26
  0
BLOCK_RECORD
  5
7F
330
1
100
AcDbSymbolTableRecord
100
AcDbBlockTableRecord
  2
블럭10
340
0
102
{BLKREFS
331
E2
102
}
  0
BLOCK_RECORD
  5
EB
330
1
100
AcDbSymbolTableRecord
100
AcDbBlockTableRecord
  2
_D
340
0
  0
BLOCK_RECORD
  5
100
330
1
100
AcDbSymbolTableRecord
100
AcDbBlockTableRecord
  2
_D_1
340
0
  0
BLOCK_RECORD
  5
113
330
1
100
AcDbSymbolTableRecord
100
AcDbBlockTableRecord
  2
_D_2
340
0
  0
BLOCK_RECORD
  5
127
330
1
100
AcDbSymbolTableRecord
100
AcDbBlockTableRecord
  2
_D_3
340
0
  0
BLOCK_RECORD
  5
140
330
1
100
AcDbSymbolTableRecord
100
AcDbBlockTableRecord
  2
SW_DOWELSYMBOL_0
340
0
102
{BLKREFS
331
146
331
210
331
0
102
}
  0
BLOCK_RECORD
  5
202
330
1
100
AcDbSymbolTableRecord
100
AcDbBlockTableRecord
  2
_D_4
340
0
  0
BLOCK_RECORD
  5
21C
330
1
100
AcDbSymbolTableRecord
100
AcDbBlockTableRecord
  2
*D9
340
0
  0
BLOCK_RECORD
  5
228
330
1
100
AcDbSymbolTableRecord
100
AcDbBlockTableRecord
  2
*D10
340
0
  0
BLOCK_RECORD
  5
234
330
1
100
AcDbSymbolTableRecord
100
AcDbBlockTableRecord
  2
*D11
340
0
  0
BLOCK_RECORD
  5
240
330
1
100
AcDbSymbolTableRecord
100
AcDbBlockTableRecord
  2
*D12
340
0
  0
BLOCK_RECORD
  5
29B
330
1
100
AcDbSymbolTableRecord
100
AcDbBlockTableRecord
  2
*D13
340
0
  0
BLOCK_RECORD
  5
2A7
330
1
100
AcDbSymbolTableRecord
100
AcDbBlockTableRecord
  2
*D14
340
0
  0
BLOCK_RECORD
  5
2B3
330
1
100
AcDbSymbolTableRecord
100
AcDbBlockTableRecord
  2
*D15
340
0
  0
BLOCK_RECORD
  5
2C1
330
1
100
AcDbSymbolTableRecord
100
AcDbBlockTableRecord
  2
*D16
340
0
  0
BLOCK_RECORD
  5
2CF
330
1
100
AcDbSymbolTableRecord
100
AcDbBlockTableRecord
  2
*D17
340
0
  0
ENDTAB
  0
ENDSEC
  0
SECTION
  2
BLOCKS
  0
BLOCK
  5
20
330
1F
100
AcDbEntity
  8
0
100
AcDbBlockBegin
  2
*Model_Space
 70
     0
 10
0.0
 20
0.0
 30
0.0
  3
*Model_Space
  1
*Model_Space
  0
ENDBLK
  5
21
330
1F
100
AcDbEntity
  8
0
100
AcDbBlockEnd
  0
BLOCK
  5
1C
330
1B
100
AcDbEntity
 67
     1
  8
0
100
AcDbBlockBegin
  2
*Paper_Space
 70
     0
 10
0.0
 20
0.0
 30
0.0
  3
*Paper_Space
  1
*Paper_Space
  0
ENDBLK
  5
1D
330
1B
100
AcDbEntity
 67
     1
  8
0
100
AcDbBlockEnd
  0
BLOCK
  5
24
330
23
100
AcDbEntity
  8
0
100
AcDbBlockBegin
  2
*Paper_Space0
 70
     0
 10
0.0
 20
0.0
 30
0.0
  3
*Paper_Space0
  1
*Paper_Space0
  0
ENDBLK
  5
25
330
23
100
AcDbEntity
  8
0
100
AcDbBlockEnd
  0
BLOCK
  5
80
330
7F
100
AcDbEntity
  8
0
100
AcDbBlockBegin
  2
블럭10
 70
     2
 10
0.0
 20
0.0
 30
0.0
  3
블럭10
  1
블럭10
  0
ELLIPSE
  5
82
330
7F
100
AcDbEntity
  8
중심선
100
AcDbEllipse
 10
20.54032771741204
 20
12.0471743016438
 30
0.0
 11
6.600054785286829
 21
-1.261213355974178E-13
 31
0.0
210
0.0
220
0.0
230
1.0
 40
0.636358354079598
 41
0.9219305317359503
 42
6.513795318482858
  0
ELLIPSE
  5
83
330
7F
100
AcDbEntity
  8
중심선
100
AcDbEllipse
 10
20.54032771746488
 20
12.04717430159265
 30
0.0
 11
3.960054785062283
 21
1.540847449632565E-10
 31
0.0
210
0.0
220
0.0
230
1.0
 40
0.3939339440162632
 41
1.131841032648279
 42
5.62031148352944
  0
LINE
  5
84
330
7F
100
AcDbEntity
  8
중심선
100
AcDbLine
 10
2.268634060543552
 20
16.24717430164393
 30
0.0
 11
5.714909304380834
 21
16.24717430164393
 31
0.0
  0
LINE
  5
85
330
7F
100
AcDbEntity
  8
중심선
100
AcDbLine
 10
5.245725140726316
 20
7.84717430164391
 30
0.0
 11
8.692000384563599
 21
7.84717430164391
 31
0.0
  0
LINE
  5
86
330
7F
100
AcDbEntity
  8
중심선
100
AcDbLine
 10
15.74043728645272
 20
16.24717430164393
 30
0.0
 11
8.692000384563599
 21
7.84717430164391
 31
0.0
  0
LINE
  5
87
330
7F
100
AcDbEntity
  8
중심선
100
AcDbLine
 10
0.1404042013395286
 20
13.71084872107135
 30
0.0
 11
3.58671253028996
 21
13.71088815037384
 31
0.0
  0
LINE
  5
88
330
7F
100
AcDbEntity
  8
중심선
100
AcDbLine
 10
2.750260043222114
 20
10.84717430164391
 30
0.0
 11
6.196535287059397
 21
10.84717430164391
 31
0.0
  0
LINE
  5
89
330
7F
100
AcDbEntity
  8
중심선
100
AcDbLine
 10
12.29416204261559
 20
16.24717430164393
 30
0.0
 11
5.245725140726316
 21
7.84717430164391
 31
0.0
  0
LINE
  5
8A
330
7F
100
AcDbEntity
  8
중심선
100
AcDbLine
 10
10.72767329541681
 20
16.24717430164393
 30
0.0
 11
6.196535287059397
 21
10.84717430164391
 31
0.0
  0
LINE
  5
8B
330
7F
100
AcDbEntity
  8
중심선
100
AcDbLine
 10
7.28139805157953
 20
16.24717430164393
 30
0.0
 11
2.750260043222114
 21
10.84717430164391
 31
0.0
  0
LINE
  5
8C
330
7F
100
AcDbEntity
  8
중심선
100
AcDbLine
 10
5.714909304380834
 20
16.24717430164393
 30
0.0
 11
3.58671253028996
 21
13.71088815037384
 31
0.0
  0
LINE
  5
8D
330
7F
100
AcDbEntity
  8
중심선
100
AcDbLine
 10
2.268634060543552
 20
16.24717430164393
 30
0.0
 11
0.1404042013395286
 21
13.71084872107135
 31
0.0
  0
LINE
  5
8E
330
7F
100
AcDbEntity
  8
중심선
100
AcDbLine
 10
7.28139805157953
 20
16.24717430164393
 30
0.0
 11
10.72767329541681
 21
16.24717430164393
 31
0.0
  0
LINE
  5
8F
330
7F
100
AcDbEntity
  8
중심선
100
AcDbLine
 10
12.29416204261559
 20
16.24717430164393
 30
0.0
 11
15.74043728645272
 21
16.24717430164393
 31
0.0
  0
LINE
  5
90
330
7F
100
AcDbEntity
  8
중심선
100
AcDbLine
 10
19.22036997980202
 20
11.08717430171403
 30
0.0
 11
23.66174974927406
 21
11.08717430171406
 31
0.0
  0
LINE
  5
91
330
7F
100
AcDbEntity
  8
중심선
100
AcDbLine
 10
19.22039502424796
 20
13.00717430171391
 30
0.0
 11
19.22036997980202
 21
11.08717430171403
 31
0.0
  0
LINE
  5
92
330
7F
100
AcDbEntity
  8
중심선
100
AcDbLine
 10
19.22039502424796
 20
13.00717430171391
 30
0.0
 11
26.96566020931264
 21
13.00717430171391
 31
0.0
  0
LINE
  5
93
330
7F
100
AcDbEntity
  8
중심선
100
AcDbLine
 10
22.22332737316547
 20
13.45928029700563
 30
0.0
 11
24.52862924686651
 21
15.39360700705356
 31
0.0
  0
ATTDEF
  5
95
330
7F
100
AcDbEntity
  8
FORMAT
 62
     2
100
AcDbText
 10
4.408487351596664
 20
2.075366912832191
 30
0.0
 40
4.233333333333333
  1
E5073020
 41
0.75
  7
SLDTEXTSTYLE0
 11
4.408487351596664
 21
-0.0412997538344756
 31
0.0
100
AcDbAttributeDefinition
  3

  2
AUTOATTR0
 70
     0
 74
     1
  0
ENDBLK
  5
81
330
7F
100
AcDbEntity
  8
0
100
AcDbBlockEnd
  0
BLOCK
  5
EC
330
EB
100
AcDbEntity
  8
0
100
AcDbBlockBegin
  2
_D
 70
     0
 10
0.0
 20
0.0
 30
0.0
  3
_D
  1
_D
  0
LINE
  5
EE
330
EB
100
AcDbEntity
  8
치수문자_일반주서
 62
     0
370
    -2
100
AcDbLine
 10
-36.89374999999998
 20
3.947821683520012
 30
0.0
 11
-47.9706952255503
 21
3.947821683519969
 31
0.0
  0
LINE
  5
EF
330
EB
100
AcDbEntity
  8
치수문자_일반주서
 62
     0
370
    -2
100
AcDbLine
 10
-36.89374999999998
 20
-3.989678316479975
 30
0.0
 11
-47.97069522555027
 21
-3.989678316480017
 31
0.0
  0
LINE
  5
F0
330
EB
100
AcDbEntity
  8
치수문자_일반주서
 62
     0
370
    -2
100
AcDbLine
 10
-47.9706952255503
 20
3.947821683519969
 30
0.0
 11
-47.97069522555043
 21
38.55182168351997
 31
0.0
  0
LINE
  5
F1
330
EB
100
AcDbEntity
  8
치수문자_일반주서
 62
     0
370
    -2
100
AcDbLine
 10
-47.9706952255503
 20
3.947821683519969
 30
0.0
 11
-47.97069522555027
 21
-3.989678316480017
 31
0.0
  0
LINE
  5
F2
330
EB
100
AcDbEntity
  8
치수문자_일반주서
 62
     0
370
    -2
100
AcDbLine
 10
-47.97069522555032
 20
7.249821683519968
 30
0.0
 11
-47.97069522555033
 21
10.55182168351997
 31
0.0
  0
LINE
  5
F3
330
EB
100
AcDbEntity
  8
치수문자_일반주서
 62
     0
370
    -2
100
AcDbLine
 10
-47.97069522555026
 20
-7.291678316480017
 30
0.0
 11
-47.97069522555024
 21
-10.59367831648002
 31
0.0
  0
SOLID
  5
F4
330
EB
100
AcDbEntity
  8
치수문자_일반주서
 62
     0
100
AcDbTrace
 10
-48.52102855888365
 20
7.249821683519967
 30
0.0
 11
-47.42036189221698
 21
7.24982168351997
 31
0.0
 12
-47.9706952255503
 22
3.947821683519969
 32
0.0
 13
-47.9706952255503
 23
3.947821683519969
 33
0.0
  0
SOLID
  5
F5
330
EB
100
AcDbEntity
  8
치수문자_일반주서
 62
     0
100
AcDbTrace
 10
-47.42036189221692
 20
-7.291678316480015
 30
0.0
 11
-48.52102855888359
 21
-7.291678316480018
 31
0.0
 12
-47.97069522555027
 22
-3.989678316480017
 32
0.0
 13
-47.97069522555027
 23
-3.989678316480017
 33
0.0
  0
MTEXT
  5
F6
330
EB
100
AcDbEntity
  8
치수문자_일반주서
 62
     0
100
AcDbMText
 10
-52.34569522555038
 20
24.55182168351995
 30
0.0
 40
3.5
 41
0.0
 71
     2
 72
     1
  1
\A1;%%c7.94 [5/16]
  7
SLDTEXTSTYLE0
 11
-3.580687802255629E-15
 21
1.0
 31
0.0
 73
     1
 44
1.0
  0
POINT
  5
2D9
330
EB
100
AcDbEntity
  8
Defpoints
 62
     0
100
AcDbPoint
 10
-36.83124999999998
 20
3.947821683520012
 30
0.0
  0
POINT
  5
2DA
330
EB
100
AcDbEntity
  8
Defpoints
 62
     0
100
AcDbPoint
 10
-36.83124999999998
 20
-3.989678316479974
 30
0.0
  0
POINT
  5
2DB
330
EB
100
AcDbEntity
  8
Defpoints
 62
     0
100
AcDbPoint
 10
-47.97069522555027
 20
-3.989678316480016
 30
0.0
  0
ENDBLK
  5
ED
330
EB
100
AcDbEntity
  8
0
100
AcDbBlockEnd
  0
BLOCK
  5
101
330
100
100
AcDbEntity
  8
0
100
AcDbBlockBegin
  2
_D_1
 70
     0
 10
0.0
 20
0.0
 30
0.0
  3
_D_1
  1
_D_1
  0
LINE
  5
103
330
100
100
AcDbEntity
  8
치수문자_일반주서
 62
     0
370
    -2
100
AcDbLine
 10
64.03750000000001
 20
3.947821683520023
 30
0.0
 11
77.32699845957605
 21
3.947821683520072
 31
0.0
  0
LINE
  5
104
330
100
100
AcDbEntity
  8
치수문자_일반주서
 62
     0
370
    -2
100
AcDbLine
 10
64.03750000000001
 20
-3.989678316479984
 30
0.0
 11
77.32699845957607
 21
-3.989678316479935
 31
0.0
  0
LINE
  5
105
330
100
100
AcDbEntity
  8
치수문자_일반주서
 62
     0
370
    -2
100
AcDbLine
 10
77.32699845957605
 20
3.947821683520072
 30
0.0
 11
77.32699845957592
 21
38.55182168352007
 31
0.0
  0
LINE
  5
106
330
100
100
AcDbEntity
  8
치수문자_일반주서
 62
     0
370
    -2
100
AcDbLine
 10
77.32699845957605
 20
3.947821683520072
 30
0.0
 11
77.32699845957607
 21
-3.989678316479935
 31
0.0
  0
LINE
  5
107
330
100
100
AcDbEntity
  8
치수문자_일반주서
 62
     0
370
    -2
100
AcDbLine
 10
77.32699845957603
 20
7.249821683520072
 30
0.0
 11
77.32699845957602
 21
10.55182168352007
 31
0.0
  0
LINE
  5
108
330
100
100
AcDbEntity
  8
치수문자_일반주서
 62
     0
370
    -2
100
AcDbLine
 10
77.32699845957609
 20
-7.291678316479935
 30
0.0
 11
77.3269984595761
 21
-10.59367831647993
 31
0.0
  0
SOLID
  5
109
330
100
100
AcDbEntity
  8
치수문자_일반주서
 62
     0
100
AcDbTrace
 10
76.7766651262427
 20
7.24982168352007
 30
0.0
 11
77.87733179290936
 21
7.249821683520073
 31
0.0
 12
77.32699845957605
 22
3.947821683520072
 32
0.0
 13
77.32699845957605
 23
3.947821683520072
 33
0.0
  0
SOLID
  5
10A
330
100
100
AcDbEntity
  8
치수문자_일반주서
 62
     0
100
AcDbTrace
 10
77.87733179290942
 20
-7.291678316479933
 30
0.0
 11
76.77666512624276
 21
-7.291678316479937
 31
0.0
 12
77.32699845957607
 22
-3.989678316479935
 32
0.0
 13
77.32699845957607
 23
-3.989678316479935
 33
0.0
  0
MTEXT
  5
10B
330
100
100
AcDbEntity
  8
치수문자_일반주서
 62
     0
100
AcDbMText
 10
72.95199845957598
 20
24.55182168352005
 30
0.0
 40
3.5
 41
0.0
 71
     2
 72
     1
  1
\A1;%%c7.94 [5/16]
  7
SLDTEXTSTYLE0
 11
-3.580687802255620E-15
 21
1.0
 31
0.0
 73
     1
 44
1.0
  0
POINT
  5
10C
330
100
100
AcDbEntity
  8
Defpoints
 62
     0
100
AcDbPoint
 10
63.97500000000001
 20
3.947821683520022
 30
0.0
  0
POINT
  5
10D
330
100
100
AcDbEntity
  8
Defpoints
 62
     0
100
AcDbPoint
 10
63.97500000000001
 20
-3.989678316479984
 30
0.0
  0
POINT
  5
10E
330
100
100
AcDbEntity
  8
Defpoints
 62
     0
100
AcDbPoint
 10
77.32699845957607
 20
-3.989678316479935
 30
0.0
  0
ENDBLK
  5
102
330
100
100
AcDbEntity
  8
0
100
AcDbBlockEnd
  0
BLOCK
  5
114
330
113
100
AcDbEntity
  8
0
100
AcDbBlockBegin
  2
_D_2
 70
     0
 10
0.0
 20
0.0
 30
0.0
  3
_D_2
  1
_D_2
  0
LINE
  5
116
330
113
100
AcDbEntity
  8
치수문자_일반주서
 62
     0
370
    -2
100
AcDbLine
 10
63.97500000000001
 20
3.981359932421612
 30
0.0
 11
63.97500000000001
 21
14.61930875738055
 31
0.0
  0
LINE
  5
117
330
113
100
AcDbEntity
  8
치수문자_일반주서
 62
     0
370
    -2
100
AcDbLine
 10
9.999999999999993
 20
3.937951023301527
 30
0.0
 11
9.999999999999993
 21
14.61930875738055
 31
0.0
  0
LINE
  5
118
330
113
100
AcDbEntity
  8
치수문자_일반주서
 62
     0
370
    -2
100
AcDbLine
 10
60.67300000000001
 20
14.61930875738055
 30
0.0
 11
13.30199999999999
 21
14.61930875738055
 31
0.0
  0
SOLID
  5
119
330
113
100
AcDbEntity
  8
치수문자_일반주서
 62
     0
100
AcDbTrace
 10
60.67300000000001
 20
14.06897542404722
 30
0.0
 11
60.67300000000001
 21
15.16964209071388
 31
0.0
 12
63.97500000000001
 22
14.61930875738055
 32
0.0
 13
63.97500000000001
 23
14.61930875738055
 33
0.0
  0
SOLID
  5
11A
330
113
100
AcDbEntity
  8
치수문자_일반주서
 62
     0
100
AcDbTrace
 10
13.30199999999999
 20
15.16964209071388
 30
0.0
 11
13.30199999999999
 21
14.06897542404722
 31
0.0
 12
9.999999999999993
 22
14.61930875738055
 32
0.0
 13
9.999999999999993
 23
14.61930875738055
 33
0.0
  0
MTEXT
  5
11B
330
113
100
AcDbEntity
  8
치수문자_일반주서
 62
     0
100
AcDbMText
 10
36.98750000000001
 20
18.99430875738055
 30
0.0
 40
3.5
 41
0.0
 71
     2
 72
     1
  1
\A1;53.98 [2 1/8]
  7
SLDTEXTSTYLE0
 73
     1
 44
1.0
  0
POINT
  5
11C
330
113
100
AcDbEntity
  8
Defpoints
 62
     0
100
AcDbPoint
 10
63.97500000000001
 20
3.918859932421612
 30
0.0
  0
POINT
  5
11D
330
113
100
AcDbEntity
  8
Defpoints
 62
     0
100
AcDbPoint
 10
9.999999999999993
 20
3.875451023301527
 30
0.0
  0
POINT
  5
11E
330
113
100
AcDbEntity
  8
Defpoints
 62
     0
100
AcDbPoint
 10
9.999999999999993
 20
14.61930875738055
 30
0.0
  0
ENDBLK
  5
115
330
113
100
AcDbEntity
  8
0
100
AcDbBlockEnd
  0
BLOCK
  5
128
330
127
100
AcDbEntity
  8
0
100
AcDbBlockBegin
  2
_D_3
 70
     0
 10
0.0
 20
0.0
 30
0.0
  3
_D_3
  1
_D_3
  0
LINE
  5
12A
330
127
100
AcDbEntity
  8
치수문자_일반주서
 62
     0
370
    -2
100
AcDbLine
 10
63.97500000000001
 20
3.981359932421612
 30
0.0
 11
63.97500000000001
 21
26.61930875738055
 31
0.0
  0
LINE
  5
12B
330
127
100
AcDbEntity
  8
치수문자_일반주서
 62
     0
370
    -2
100
AcDbLine
 10
-37.625
 20
3.216571683520021
 30
0.0
 11
-37.625
 21
26.61930875738055
 31
0.0
  0
LINE
  5
12C
330
127
100
AcDbEntity
  8
치수문자_일반주서
 62
     0
370
    -2
100
AcDbLine
 10
60.67300000000001
 20
26.61930875738055
 30
0.0
 11
-34.323
 21
26.61930875738055
 31
0.0
  0
SOLID
  5
12D
330
127
100
AcDbEntity
  8
치수문자_일반주서
 62
     0
100
AcDbTrace
 10
60.67300000000001
 20
26.06897542404722
 30
0.0
 11
60.67300000000001
 21
27.16964209071389
 31
0.0
 12
63.97500000000001
 22
26.61930875738055
 32
0.0
 13
63.97500000000001
 23
26.61930875738055
 33
0.0
  0
SOLID
  5
12E
330
127
100
AcDbEntity
  8
치수문자_일반주서
 62
     0
100
AcDbTrace
 10
-34.323
 20
27.16964209071389
 30
0.0
 11
-34.323
 21
26.06897542404722
 31
0.0
 12
-37.625
 22
26.61930875738055
 32
0.0
 13
-37.625
 23
26.61930875738055
 33
0.0
  0
MTEXT
  5
12F
330
127
100
AcDbEntity
  8
치수문자_일반주서
 62
     0
100
AcDbMText
 10
12.264276249493
 20
30.99430875738055
 30
0.0
 40
3.5
 41
0.0
 71
     2
 72
     1
  1
\A1;101.6 [4]
  7
SLDTEXTSTYLE0
 73
     1
 44
1.0
  0
POINT
  5
130
330
127
100
AcDbEntity
  8
Defpoints
 62
     0
100
AcDbPoint
 10
63.97500000000001
 20
3.918859932421612
 30
0.0
  0
POINT
  5
131
330
127
100
AcDbEntity
  8
Defpoints
 62
     0
100
AcDbPoint
 10
-37.625
 20
3.154071683520021
 30
0.0
  0
POINT
  5
132
330
127
100
AcDbEntity
  8
Defpoints
 62
     0
100
AcDbPoint
 10
-37.625
 20
26.61930875738055
 30
0.0
  0
ENDBLK
  5
129
330
127
100
AcDbEntity
  8
0
100
AcDbBlockEnd
  0
BLOCK
  5
141
330
140
100
AcDbEntity
  8
0
100
AcDbBlockBegin
  2
SW_DOWELSYMBOL_0
 70
     0
 10
0.0
 20
0.0
 30
0.0
  3
SW_DOWELSYMBOL_0
  1
SW_DOWELSYMBOL_0
  0
CIRCLE
  5
143
330
140
100
AcDbEntity
  8
해칭선
 62
     0
100
AcDbCircle
 10
0.0
 20
0.0
 30
0.0
 40
3.000000000000001
  0
HATCH
  5
144
330
140
100
AcDbEntity
  8
0
  6
Continuous
 62
     0
370
     0
100
AcDbHatch
 10
0.0
 20
0.0
 30
0.0
210
0.0
220
0.0
230
1.0
  2
SOLID
 70
     1
 71
     0
 91
        1
 92
        0
 93
        3
 72
     2
 10
-0.0000000000000035
 20
0.0
 40
3.000000000000001
 50
0.0
 51
90.0
 73
     1
 72
     1
 10
-0.0000000000000035
 20
3.000000000000001
 11
-0.0000000000000035
 21
0.0
 72
     1
 10
-0.0000000000000035
 20
0.0
 11
2.999999999999998
 21
0.0
 97
        0
 75
     0
 76
     1
 98
        1
 10
0.0
 20
0.0
  0
HATCH
  5
145
330
140
100
AcDbEntity
  8
0
  6
Continuous
 62
     0
370
     0
100
AcDbHatch
 10
0.0
 20
0.0
 30
0.0
210
0.0
220
0.0
230
1.0
  2
SOLID
 70
     1
 71
     0
 91
        1
 92
        0
 93
        3
 72
     2
 10
-0.0000000000000035
 20
0.0
 40
3.000000000000001
 50
180.0
 51
270.0000000000008
 73
     1
 72
     1
 10
-0.0000000000000035
 20
-3.000000000000001
 11
-0.0000000000000035
 21
0.0
 72
     1
 10
-0.0000000000000035
 20
0.0
 11
-3.000000000000005
 21
0.0
 97
        0
 75
     0
 76
     1
 98
        1
 10
0.0
 20
0.0
  0
ENDBLK
  5
142
330
140
100
AcDbEntity
  8
0
100
AcDbBlockEnd
  0
BLOCK
  5
203
330
202
100
AcDbEntity
  8
0
100
AcDbBlockBegin
  2
_D_4
 70
     0
 10
0.0
 20
0.0
 30
0.0
  3
_D_4
  1
_D_4
  0
LINE
  5
204
330
202
100
AcDbEntity
  8
치수문자_일반주서
 62
     0
370
    -2
100
AcDbLine
 10
102.4375000000001
 20
36.22143424691529
 30
0.0
 11
117.3750000000001
 21
36.22143424691535
 31
0.0
  0
LINE
  5
205
330
202
100
AcDbEntity
  8
치수문자_일반주서
 62
     0
370
    -2
100
AcDbLine
 10
102.4375000000001
 20
22.22143424691529
 30
0.0
 11
117.3750000000001
 21
22.22143424691535
 31
0.0
  0
LINE
  5
206
330
202
100
AcDbEntity
  8
치수문자_일반주서
 62
     0
370
    -2
100
AcDbLine
 10
117.3750000000001
 20
36.22143424691535
 30
0.0
 11
117.3750000000001
 21
22.22143424691535
 31
0.0
  0
LINE
  5
207
330
202
100
AcDbEntity
  8
치수문자_일반주서
 62
     0
370
    -2
100
AcDbLine
 10
117.3750000000001
 20
39.52343424691535
 30
0.0
 11
117.375
 21
42.82543424691535
 31
0.0
  0
LINE
  5
208
330
202
100
AcDbEntity
  8
치수문자_일반주서
 62
     0
370
    -2
100
AcDbLine
 10
117.3750000000001
 20
18.91943424691535
 30
0.0
 11
117.3750000000001
 21
15.61743424691535
 31
0.0
  0
SOLID
  5
209
330
202
100
AcDbEntity
  8
치수문자_일반주서
 62
     0
100
AcDbTrace
 10
116.8246666666667
 20
39.52343424691535
 30
0.0
 11
117.9253333333334
 21
39.52343424691535
 31
0.0
 12
117.3750000000001
 22
36.22143424691535
 32
0.0
 13
117.3750000000001
 23
36.22143424691535
 33
0.0
  0
SOLID
  5
20A
330
202
100
AcDbEntity
  8
치수문자_일반주서
 62
     0
100
AcDbTrace
 10
117.9253333333335
 20
18.91943424691535
 30
0.0
 11
116.8246666666668
 21
18.91943424691535
 31
0.0
 12
117.3750000000001
 22
22.22143424691535
 32
0.0
 13
117.3750000000001
 23
22.22143424691535
 33
0.0
  0
MTEXT
  5
20B
330
202
100
AcDbEntity
  8
치수문자_일반주서
 62
     0
100
AcDbMText
 10
113.0000000000001
 20
29.28713862862833
 30
0.0
 40
3.5
 41
0.0
 71
     2
 72
     1
  1
\A1;%%c14.00 [0.55]
  7
SLDTEXTSTYLE0
 11
-3.045183153257572E-15
 21
1.0
 31
0.0
 73
     1
 44
1.0
  0
POINT
  5
20C
330
202
100
AcDbEntity
  8
Defpoints
 62
     0
100
AcDbPoint
 10
102.3750000000001
 20
36.22143424691529
 30
0.0
  0
POINT
  5
20D
330
202
100
AcDbEntity
  8
Defpoints
 62
     0
100
AcDbPoint
 10
102.3750000000001
 20
22.22143424691529
 30
0.0
  0
POINT
  5
20E
330
202
100
AcDbEntity
  8
Defpoints
 62
     0
100
AcDbPoint
 10
117.3750000000001
 20
22.22143424691535
 30
0.0
  0
ENDBLK
  5
20F
330
202
100
AcDbEntity
  8
0
100
AcDbBlockEnd
  0
BLOCK
  5
21D
330
21C
100
AcDbEntity
  8
0
100
AcDbBlockBegin
  2
*D9
 70
     1
 10
0.0
 20
0.0
 30
0.0
  3
*D9
  1
*D8
  0
LINE
  5
21E
330
21C
100
AcDbEntity
  8
치수문자_일반주서
 62
     0
370
    -2
100
AcDbLine
 10
103.8657751816695
 20
19.48229575403651
 30
0.0
 11
119.6194267469468
 21
-6.150060756304035
 31
0.0
  0
MTEXT
  5
21F
330
21C
100
AcDbEntity
  8
치수문자_일반주서
 62
     0
100
AcDbMText
 10
115.6706384014277
 20
5.288158154535728
 30
0.0
 40
3.5
 41
0.0
 71
     5
 72
     1
  1
\A1;R.5 [R0.02]
  7
SLDTEXTSTYLE0
 11
0.5236126201129557
 21
-0.8519564684057781
 31
0.0
 73
     1
 44
1.0
  0
SOLID
  5
220
330
21C
100
AcDbEntity
  8
치수문자_일반주서
 62
     0
100
AcDbTrace
 10
104.3346352247821
 20
19.77045723263868
 30
0.0
 11
103.3969151385569
 21
19.19413427543435
 31
0.0
 12
102.1368063100565
 22
22.29545601271239
 32
0.0
 13
102.1368063100565
 23
22.29545601271239
 33
0.0
  0
LINE
  5
221
330
21C
100
AcDbEntity
  8
치수문자_일반주서
 62
     0
100
AcDbLine
 10
101.785
 20
22.72143424691529
 30
0.0
 11
101.965
 21
22.72143424691529
 31
0.0
  0
LINE
  5
222
330
21C
100
AcDbEntity
  8
치수문자_일반주서
 62
     0
100
AcDbLine
 10
101.875
 20
22.63143424691529
 30
0.0
 11
101.875
 21
22.81143424691529
 31
0.0
  0
POINT
  5
24E
330
21C
100
AcDbEntity
  8
Defpoints
 62
     0
100
AcDbPoint
 10
102.1368063100565
 20
22.29545601271239
 30
0.0
  0
POINT
  5
24F
330
21C
100
AcDbEntity
  8
Defpoints
 62
     0
100
AcDbPoint
 10
101.875
 20
22.72143424691529
 30
0.0
  0
ENDBLK
  5
223
330
21C
100
AcDbEntity
  8
0
100
AcDbBlockEnd
  0
BLOCK
  5
229
330
228
100
AcDbEntity
  8
0
100
AcDbBlockBegin
  2
*D10
 70
     1
 10
0.0
 20
0.0
 30
0.0
  3
*D10
  1
*D10
  0
LINE
  5
22B
330
228
100
AcDbEntity
  8
치수문자_일반주서
 62
     0
370
    -2
100
AcDbLine
 10
19.37500000000004
 20
35.78393424691529
 30
0.0
 11
19.37500000000004
 21
70.88391841499404
 31
0.0
  0
LINE
  5
22C
330
228
100
AcDbEntity
  8
치수문자_일반주서
 62
     0
370
    -2
100
AcDbLine
 10
102.3750000000001
 20
36.34643424691529
 30
0.0
 11
102.3750000000001
 21
70.88391841499404
 31
0.0
  0
LINE
  5
22D
330
228
100
AcDbEntity
  8
치수문자_일반주서
 62
     0
370
    -2
100
AcDbLine
 10
22.67700000000004
 20
70.88391841499404
 30
0.0
 11
99.07300000000006
 21
70.88391841499404
 31
0.0
  0
SOLID
  5
22E
330
228
100
AcDbEntity
  8
치수문자_일반주서
 62
     0
100
AcDbTrace
 10
22.67700000000004
 20
71.43425174832737
 30
0.0
 11
22.67700000000004
 21
70.33358508166071
 31
0.0
 12
19.37500000000004
 22
70.88391841499404
 32
0.0
 13
19.37500000000004
 23
70.88391841499404
 33
0.0
  0
SOLID
  5
22F
330
228
100
AcDbEntity
  8
치수문자_일반주서
 62
     0
100
AcDbTrace
 10
99.07300000000006
 20
70.33358508166071
 30
0.0
 11
99.07300000000006
 21
71.43425174832737
 31
0.0
 12
102.3750000000001
 22
70.88391841499404
 32
0.0
 13
102.3750000000001
 23
70.88391841499404
 33
0.0
  0
MTEXT
  5
230
330
228
100
AcDbEntity
  8
치수문자_일반주서
 62
     0
100
AcDbMText
 10
60.87500000000005
 20
75.25891841499404
 30
0.0
 40
3.5
 41
0.0
 71
     2
 72
     1
  1
\A1;83 [3.27]
  7
SLDTEXTSTYLE0
 73
     1
 44
1.0
  0
POINT
  5
231
330
228
100
AcDbEntity
  8
Defpoints
 62
     0
100
AcDbPoint
 10
19.37500000000004
 20
35.72143424691529
 30
0.0
  0
POINT
  5
232
330
228
100
AcDbEntity
  8
Defpoints
 62
     0
100
AcDbPoint
 10
102.3750000000001
 20
36.28393424691529
 30
0.0
  0
POINT
  5
233
330
228
100
AcDbEntity
  8
Defpoints
 62
     0
100
AcDbPoint
 10
102.3750000000001
 20
70.88391841499404
 30
0.0
  0
ENDBLK
  5
22A
330
228
100
AcDbEntity
  8
0
100
AcDbBlockEnd
  0
BLOCK
  5
235
330
234
100
AcDbEntity
  8
0
100
AcDbBlockBegin
  2
*D11
 70
     1
 10
0.0
 20
0.0
 30
0.0
  3
*D11
  1
*D11
  0
LINE
  5
237
330
234
100
AcDbEntity
  8
치수문자_일반주서
 62
     0
370
    -2
100
AcDbLine
 10
76.37504186422882
 20
28.62038676313042
 30
0.0
 11
76.37504186422882
 21
61.90091383617725
 31
0.0
  0
LINE
  5
238
330
234
100
AcDbEntity
  8
치수문자_일반주서
 62
     0
370
    -2
100
AcDbLine
 10
102.3750000000001
 20
36.28393424691529
 30
0.0
 11
102.3750000000001
 21
61.90091383617725
 31
0.0
  0
LINE
  5
239
330
234
100
AcDbEntity
  8
치수문자_일반주서
 62
     0
370
    -2
100
AcDbLine
 10
79.67704186422881
 20
61.90091383617725
 30
0.0
 11
99.07300000000006
 21
61.90091383617725
 31
0.0
  0
SOLID
  5
23A
330
234
100
AcDbEntity
  8
치수문자_일반주서
 62
     0
100
AcDbTrace
 10
79.67704186422881
 20
62.45124716951059
 30
0.0
 11
79.67704186422881
 21
61.35058050284392
 31
0.0
 12
76.37504186422882
 22
61.90091383617725
 32
0.0
 13
76.37504186422882
 23
61.90091383617725
 33
0.0
  0
SOLID
  5
23B
330
234
100
AcDbEntity
  8
치수문자_일반주서
 62
     0
100
AcDbTrace
 10
99.07300000000006
 20
61.35058050284392
 30
0.0
 11
99.07300000000006
 21
62.45124716951059
 31
0.0
 12
102.3750000000001
 22
61.90091383617725
 32
0.0
 13
102.3750000000001
 23
61.90091383617725
 33
0.0
  0
MTEXT
  5
23C
330
234
100
AcDbEntity
  8
치수문자_일반주서
 62
     0
100
AcDbMText
 10
89.42159572693208
 20
66.27591383617725
 30
0.0
 40
3.5
 41
0.0
 71
     2
 72
     1
  1
\A1;26 [1.02]
  7
SLDTEXTSTYLE0
 73
     1
 44
1.0
  0
POINT
  5
23D
330
234
100
AcDbEntity
  8
Defpoints
 62
     0
100
AcDbPoint
 10
76.37504186422882
 20
28.55788676313042
 30
0.0
  0
POINT
  5
23E
330
234
100
AcDbEntity
  8
Defpoints
 62
     0
100
AcDbPoint
 10
102.3750000000001
 20
36.22143424691529
 30
0.0
  0
POINT
  5
23F
330
234
100
AcDbEntity
  8
Defpoints
 62
     0
100
AcDbPoint
 10
102.3750000000001
 20
61.90091383617725
 30
0.0
  0
ENDBLK
  5
236
330
234
100
AcDbEntity
  8
0
100
AcDbBlockEnd
  0
BLOCK
  5
241
330
240
100
AcDbEntity
  8
0
100
AcDbBlockBegin
  2
*D12
 70
     1
 10
0.0
 20
0.0
 30
0.0
  3
*D12
  1
*D12
  0
LINE
  5
243
330
240
100
AcDbEntity
  8
치수문자_일반주서
 62
     0
370
    -2
100
AcDbLine
 10
19.81250000000005
 20
36.22143424691529
 30
0.0
 11
4.374999999999983
 21
36.22143424691524
 31
0.0
  0
LINE
  5
244
330
240
100
AcDbEntity
  8
치수문자_일반주서
 62
     0
370
    -2
100
AcDbLine
 10
19.81250000000005
 20
22.22143424691529
 30
0.0
 11
4.375000000000032
 21
22.22143424691524
 31
0.0
  0
LINE
  5
245
330
240
100
AcDbEntity
  8
치수문자_일반주서
 62
     0
370
    -2
100
AcDbLine
 10
4.374999999999983
 20
36.22143424691524
 30
0.0
 11
4.375000000000032
 21
22.22143424691524
 31
0.0
  0
LINE
  5
246
330
240
100
AcDbEntity
  8
치수문자_일반주서
 62
     0
370
    -2
100
AcDbLine
 10
4.374999999999972
 20
39.52343424691524
 30
0.0
 11
4.37499999999996
 21
42.82543424691524
 31
0.0
  0
LINE
  5
247
330
240
100
AcDbEntity
  8
치수문자_일반주서
 62
     0
370
    -2
100
AcDbLine
 10
4.375000000000044
 20
18.91943424691524
 30
0.0
 11
4.375000000000055
 21
15.61743424691524
 31
0.0
  0
SOLID
  5
248
330
240
100
AcDbEntity
  8
치수문자_일반주서
 62
     0
100
AcDbTrace
 10
3.824666666666638
 20
39.52343424691524
 30
0.0
 11
4.925333333333305
 21
39.52343424691524
 31
0.0
 12
4.374999999999983
 22
36.22143424691524
 32
0.0
 13
4.374999999999983
 23
36.22143424691524
 33
0.0
  0
SOLID
  5
249
330
240
100
AcDbEntity
  8
치수문자_일반주서
 62
     0
100
AcDbTrace
 10
4.925333333333377
 20
18.91943424691524
 30
0.0
 11
3.82466666666671
 21
18.91943424691523
 31
0.0
 12
4.375000000000032
 22
22.22143424691524
 32
0.0
 13
4.375000000000032
 23
22.22143424691524
 33
0.0
  0
MTEXT
  5
24A
330
240
100
AcDbEntity
  8
치수문자_일반주서
 62
     0
100
AcDbMText
 10
0.0000000000000071
 20
29.22143424691528
 30
0.0
 40
3.5
 41
0.0
 71
     2
 72
     1
  1
\A1;%%c14.00 [0.55]
  7
SLDTEXTSTYLE0
 11
-3.489272363107635E-15
 21
1.0
 31
0.0
 73
     1
 44
1.0
  0
POINT
  5
24B
330
240
100
AcDbEntity
  8
Defpoints
 62
     0
100
AcDbPoint
 10
19.87500000000005
 20
36.22143424691529
 30
0.0
  0
POINT
  5
24C
330
240
100
AcDbEntity
  8
Defpoints
 62
     0
100
AcDbPoint
 10
19.87500000000005
 20
22.22143424691529
 30
0.0
  0
POINT
  5
24D
330
240
100
AcDbEntity
  8
Defpoints
 62
     0
100
AcDbPoint
 10
4.375000000000043
 20
22.22143424691524
 30
0.0
  0
ENDBLK
  5
242
330
240
100
AcDbEntity
  8
0
100
AcDbBlockEnd
  0
BLOCK
  5
29C
330
29B
100
AcDbEntity
  8
0
100
AcDbBlockBegin
  2
*D13
 70
     1
 10
0.0
 20
0.0
 30
0.0
  3
*D13
  1
*D13
  0
LINE
  5
29E
330
29B
100
AcDbEntity
  8
치수문자_일반주서
 62
     0
370
    -2
100
AcDbLine
 10
-27.39142829242809
 20
76.61545794836815
 30
0.0
 11
-27.39142829242809
 21
111.7154421164469
 31
0.0
  0
LINE
  5
29F
330
29B
100
AcDbEntity
  8
치수문자_일반주서
 62
     0
370
    -2
100
AcDbLine
 10
55.60857170757193
 20
77.17795794836816
 30
0.0
 11
55.60857170757193
 21
111.7154421164469
 31
0.0
  0
LINE
  5
2A0
330
29B
100
AcDbEntity
  8
치수문자_일반주서
 62
     0
370
    -2
100
AcDbLine
 10
-24.08942829242809
 20
111.7154421164469
 30
0.0
 11
52.30657170757193
 21
111.7154421164469
 31
0.0
  0
SOLID
  5
2A1
330
29B
100
AcDbEntity
  8
치수문자_일반주서
 62
     0
100
AcDbTrace
 10
-24.08942829242809
 20
112.2657754497802
 30
0.0
 11
-24.08942829242809
 21
111.1651087831136
 31
0.0
 12
-27.39142829242809
 22
111.7154421164469
 32
0.0
 13
-27.39142829242809
 23
111.7154421164469
 33
0.0
  0
SOLID
  5
2A2
330
29B
100
AcDbEntity
  8
치수문자_일반주서
 62
     0
100
AcDbTrace
 10
52.30657170757193
 20
111.1651087831136
 30
0.0
 11
52.30657170757193
 21
112.2657754497802
 31
0.0
 12
55.60857170757193
 22
111.7154421164469
 32
0.0
 13
55.60857170757193
 23
111.7154421164469
 33
0.0
  0
MTEXT
  5
2A3
330
29B
100
AcDbEntity
  8
치수문자_일반주서
 62
     0
100
AcDbMText
 10
14.10857170757192
 20
116.0904421164469
 30
0.0
 40
3.5
 41
0.0
 71
     2
 72
     1
  1
\A1;83 [3.27]
  7
SLDTEXTSTYLE0
 73
     1
 44
1.0
  0
POINT
  5
2A4
330
29B
100
AcDbEntity
  8
Defpoints
 62
     0
100
AcDbPoint
 10
-27.39142829242809
 20
76.55295794836815
 30
0.0
  0
POINT
  5
2A5
330
29B
100
AcDbEntity
  8
Defpoints
 62
     0
100
AcDbPoint
 10
55.60857170757193
 20
77.11545794836816
 30
0.0
  0
POINT
  5
2A6
330
29B
100
AcDbEntity
  8
Defpoints
 62
     0
100
AcDbPoint
 10
55.60857170757193
 20
111.7154421164469
 30
0.0
  0
ENDBLK
  5
29D
330
29B
100
AcDbEntity
  8
0
100
AcDbBlockEnd
  0
BLOCK
  5
2A8
330
2A7
100
AcDbEntity
  8
0
100
AcDbBlockBegin
  2
*D14
 70
     1
 10
0.0
 20
0.0
 30
0.0
  3
*D14
  1
*D14
  0
LINE
  5
2AA
330
2A7
100
AcDbEntity
  8
치수문자_일반주서
 62
     0
370
    -2
100
AcDbLine
 10
29.60861357180069
 20
69.45191046458329
 30
0.0
 11
29.60861357180069
 21
102.7324375376301
 31
0.0
  0
LINE
  5
2AB
330
2A7
100
AcDbEntity
  8
치수문자_일반주서
 62
     0
370
    -2
100
AcDbLine
 10
55.60857170757193
 20
77.11545794836816
 30
0.0
 11
55.60857170757193
 21
102.7324375376301
 31
0.0
  0
LINE
  5
2AC
330
2A7
100
AcDbEntity
  8
치수문자_일반주서
 62
     0
370
    -2
100
AcDbLine
 10
32.91061357180069
 20
102.7324375376301
 30
0.0
 11
52.30657170757193
 21
102.7324375376301
 31
0.0
  0
SOLID
  5
2AD
330
2A7
100
AcDbEntity
  8
치수문자_일반주서
 62
     0
100
AcDbTrace
 10
32.91061357180069
 20
103.2827708709634
 30
0.0
 11
32.91061357180069
 21
102.1821042042968
 31
0.0
 12
29.60861357180069
 22
102.7324375376301
 32
0.0
 13
29.60861357180069
 23
102.7324375376301
 33
0.0
  0
SOLID
  5
2AE
330
2A7
100
AcDbEntity
  8
치수문자_일반주서
 62
     0
100
AcDbTrace
 10
52.30657170757193
 20
102.1821042042968
 30
0.0
 11
52.30657170757193
 21
103.2827708709634
 31
0.0
 12
55.60857170757193
 22
102.7324375376301
 32
0.0
 13
55.60857170757193
 23
102.7324375376301
 33
0.0
  0
MTEXT
  5
2AF
330
2A7
100
AcDbEntity
  8
치수문자_일반주서
 62
     0
100
AcDbMText
 10
42.65516743450395
 20
107.1074375376301
 30
0.0
 40
3.5
 41
0.0
 71
     2
 72
     1
  1
\A1;26 [1.02]
  7
SLDTEXTSTYLE0
 73
     1
 44
1.0
  0
POINT
  5
2B0
330
2A7
100
AcDbEntity
  8
Defpoints
 62
     0
100
AcDbPoint
 10
29.60861357180069
 20
69.38941046458329
 30
0.0
  0
POINT
  5
2B1
330
2A7
100
AcDbEntity
  8
Defpoints
 62
     0
100
AcDbPoint
 10
55.60857170757193
 20
77.05295794836816
 30
0.0
  0
POINT
  5
2B2
330
2A7
100
AcDbEntity
  8
Defpoints
 62
     0
100
AcDbPoint
 10
55.60857170757193
 20
102.7324375376301
 30
0.0
  0
ENDBLK
  5
2A9
330
2A7
100
AcDbEntity
  8
0
100
AcDbBlockEnd
  0
BLOCK
  5
2B4
330
2B3
100
AcDbEntity
  8
0
100
AcDbBlockBegin
  2
*D15
 70
     1
 10
0.0
 20
0.0
 30
0.0
  3
*D15
  1
*D15
  0
LINE
  5
2B6
330
2B3
100
AcDbEntity
  8
치수문자_일반주서
 62
     0
370
    -2
100
AcDbLine
 10
-26.95392829242808
 20
77.05295794836816
 30
0.0
 11
-42.39142829242815
 21
77.0529579483681
 31
0.0
  0
LINE
  5
2B7
330
2B3
100
AcDbEntity
  8
치수문자_일반주서
 62
     0
370
    -2
100
AcDbLine
 10
-26.95392829242808
 20
63.05295794836816
 30
0.0
 11
-42.3914282924281
 21
63.0529579483681
 31
0.0
  0
LINE
  5
2B8
330
2B3
100
AcDbEntity
  8
치수문자_일반주서
 62
     0
370
    -2
100
AcDbLine
 10
-42.39142829242815
 20
77.0529579483681
 30
0.0
 11
-42.3914282924281
 21
63.0529579483681
 31
0.0
  0
LINE
  5
2B9
330
2B3
100
AcDbEntity
  8
치수문자_일반주서
 62
     0
370
    -2
100
AcDbLine
 10
-42.39142829242816
 20
80.35495794836811
 30
0.0
 11
-42.39142829242817
 21
83.6569579483681
 31
0.0
  0
LINE
  5
2BA
330
2B3
100
AcDbEntity
  8
치수문자_일반주서
 62
     0
370
    -2
100
AcDbLine
 10
-42.39142829242808
 20
59.7509579483681
 30
0.0
 11
-42.39142829242807
 21
56.4489579483681
 31
0.0
  0
SOLID
  5
2BB
330
2B3
100
AcDbEntity
  8
치수문자_일반주서
 62
     0
100
AcDbTrace
 10
-42.94176162576149
 20
80.35495794836811
 30
0.0
 11
-41.84109495909482
 21
80.35495794836811
 31
0.0
 12
-42.39142829242815
 22
77.0529579483681
 32
0.0
 13
-42.39142829242815
 23
77.0529579483681
 33
0.0
  0
SOLID
  5
2BC
330
2B3
100
AcDbEntity
  8
치수문자_일반주서
 62
     0
100
AcDbTrace
 10
-41.84109495909475
 20
59.7509579483681
 30
0.0
 11
-42.94176162576142
 21
59.7509579483681
 31
0.0
 12
-42.3914282924281
 22
63.0529579483681
 32
0.0
 13
-42.3914282924281
 23
63.0529579483681
 33
0.0
  0
MTEXT
  5
2BD
330
2B3
100
AcDbEntity
  8
치수문자_일반주서
 62
     0
100
AcDbMText
 10
-46.76642829242812
 20
70.05295794836815
 30
0.0
 40
3.5
 41
0.0
 71
     2
 72
     1
  1
\A1;%%c14.00 [0.55]
  7
SLDTEXTSTYLE0
 11
-3.552713678800501E-15
 21
1.0
 31
0.0
 73
     1
 44
1.0
  0
POINT
  5
2BE
330
2B3
100
AcDbEntity
  8
Defpoints
 62
     0
100
AcDbPoint
 10
-26.89142829242808
 20
77.05295794836816
 30
0.0
  0
POINT
  5
2BF
330
2B3
100
AcDbEntity
  8
Defpoints
 62
     0
100
AcDbPoint
 10
-26.89142829242808
 20
63.05295794836816
 30
0.0
  0
POINT
  5
2C0
330
2B3
100
AcDbEntity
  8
Defpoints
 62
     0
100
AcDbPoint
 10
-42.3914282924281
 20
63.0529579483681
 30
0.0
  0
ENDBLK
  5
2B5
330
2B3
100
AcDbEntity
  8
0
100
AcDbBlockEnd
  0
BLOCK
  5
2C2
330
2C1
100
AcDbEntity
  8
0
100
AcDbBlockBegin
  2
*D16
 70
     1
 10
0.0
 20
0.0
 30
0.0
  3
*D16
  1
*D16
  0
LINE
  5
2C4
330
2C1
100
AcDbEntity
  8
치수문자_일반주서
 62
     0
370
    -2
100
AcDbLine
 10
55.67107170757194
 20
77.05295794836816
 30
0.0
 11
70.60857170757194
 21
77.05295794836822
 31
0.0
  0
LINE
  5
2C5
330
2C1
100
AcDbEntity
  8
치수문자_일반주서
 62
     0
370
    -2
100
AcDbLine
 10
55.67107170757193
 20
63.05295794836816
 30
0.0
 11
70.60857170757198
 21
63.05295794836822
 31
0.0
  0
LINE
  5
2C6
330
2C1
100
AcDbEntity
  8
치수문자_일반주서
 62
     0
370
    -2
100
AcDbLine
 10
70.60857170757194
 20
77.05295794836822
 30
0.0
 11
70.60857170757198
 21
63.05295794836822
 31
0.0
  0
LINE
  5
2C7
330
2C1
100
AcDbEntity
  8
치수문자_일반주서
 62
     0
370
    -2
100
AcDbLine
 10
70.60857170757193
 20
80.35495794836822
 30
0.0
 11
70.60857170757191
 21
83.65695794836822
 31
0.0
  0
LINE
  5
2C8
330
2C1
100
AcDbEntity
  8
치수문자_일반주서
 62
     0
370
    -2
100
AcDbLine
 10
70.608571707572
 20
59.75095794836822
 30
0.0
 11
70.60857170757201
 21
56.44895794836822
 31
0.0
  0
SOLID
  5
2C9
330
2C1
100
AcDbEntity
  8
치수문자_일반주서
 62
     0
100
AcDbTrace
 10
70.0582383742386
 20
80.35495794836822
 30
0.0
 11
71.15890504090525
 21
80.35495794836822
 31
0.0
 12
70.60857170757194
 22
77.05295794836822
 32
0.0
 13
70.60857170757194
 23
77.05295794836822
 33
0.0
  0
SOLID
  5
2CA
330
2C1
100
AcDbEntity
  8
치수문자_일반주서
 62
     0
100
AcDbTrace
 10
71.15890504090532
 20
59.75095794836822
 30
0.0
 11
70.05823837423867
 21
59.75095794836822
 31
0.0
 12
70.60857170757198
 22
63.05295794836822
 32
0.0
 13
70.60857170757198
 23
63.05295794836822
 33
0.0
  0
MTEXT
  5
2CB
330
2C1
100
AcDbEntity
  8
치수문자_일반주서
 62
     0
100
AcDbMText
 10
66.23357170757195
 20
70.1186623300812
 30
0.0
 40
3.5
 41
0.0
 71
     2
 72
     1
  1
\A1;%%c14.00 [0.55]
  7
SLDTEXTSTYLE0
 11
-3.045183153257572E-15
 21
1.0
 31
0.0
 73
     1
 44
1.0
  0
POINT
  5
2CC
330
2C1
100
AcDbEntity
  8
Defpoints
 62
     0
100
AcDbPoint
 10
55.60857170757194
 20
77.05295794836816
 30
0.0
  0
POINT
  5
2CD
330
2C1
100
AcDbEntity
  8
Defpoints
 62
     0
100
AcDbPoint
 10
55.60857170757193
 20
63.05295794836816
 30
0.0
  0
POINT
  5
2CE
330
2C1
100
AcDbEntity
  8
Defpoints
 62
     0
100
AcDbPoint
 10
70.60857170757198
 20
63.05295794836822
 30
0.0
  0
ENDBLK
  5
2C3
330
2C1
100
AcDbEntity
  8
0
100
AcDbBlockEnd
  0
BLOCK
  5
2D0
330
2CF
100
AcDbEntity
  8
0
100
AcDbBlockBegin
  2
*D17
 70
     1
 10
0.0
 20
0.0
 30
0.0
  3
*D17
  1
*D17
  0
LINE
  5
2D2
330
2CF
100
AcDbEntity
  8
치수문자_일반주서
 62
     0
370
    -2
100
AcDbLine
 10
57.09934688924137
 20
60.31381945548938
 30
0.0
 11
72.85299845451867
 21
34.68146294514883
 31
0.0
  0
MTEXT
  5
2D3
330
2CF
100
AcDbEntity
  8
치수문자_일반주서
 62
     0
100
AcDbMText
 10
68.90421010899955
 20
46.1196818559886
 30
0.0
 40
3.5
 41
0.0
 71
     5
 72
     1
  1
\A1;R.5 [R0.02]
  7
SLDTEXTSTYLE0
 11
0.5236126201129557
 21
-0.8519564684057781
 31
0.0
 73
     1
 44
1.0
  0
SOLID
  5
2D4
330
2CF
100
AcDbEntity
  8
치수문자_일반주서
 62
     0
100
AcDbTrace
 10
57.56820693235402
 20
60.60198093409154
 30
0.0
 11
56.63048684612873
 21
60.02565797688722
 31
0.0
 12
55.3703780176284
 22
63.12697971416526
 32
0.0
 13
55.3703780176284
 23
63.12697971416526
 33
0.0
  0
LINE
  5
2D5
330
2CF
100
AcDbEntity
  8
치수문자_일반주서
 62
     0
100
AcDbLine
 10
55.01857170757191
 20
63.55295794836816
 30
0.0
 11
55.19857170757192
 21
63.55295794836816
 31
0.0
  0
LINE
  5
2D6
330
2CF
100
AcDbEntity
  8
치수문자_일반주서
 62
     0
100
AcDbLine
 10
55.10857170757191
 20
63.46295794836816
 30
0.0
 11
55.10857170757191
 21
63.64295794836816
 31
0.0
  0
POINT
  5
2D7
330
2CF
100
AcDbEntity
  8
Defpoints
 62
     0
100
AcDbPoint
 10
55.3703780176284
 20
63.12697971416526
 30
0.0
  0
POINT
  5
2D8
330
2CF
100
AcDbEntity
  8
Defpoints
 62
     0
100
AcDbPoint
 10
55.10857170757191
 20
63.55295794836816
 30
0.0
  0
ENDBLK
  5
2D1
330
2CF
100
AcDbEntity
  8
0
100
AcDbBlockEnd
  0
ENDSEC
  0
SECTION
  2
ENTITIES
  0
LINE
  5
96
330
1F
100
AcDbEntity
  8
외형선
  6
Continuous
370
    15
100
AcDbLine
 10
-36.83125
 20
-3.989678316479981
 30
0.0
 11
10.0
 21
-3.989678316479981
 31
0.0
  0
LINE
  5
97
330
1F
100
AcDbEntity
  8
외형선
  6
Continuous
370
    15
100
AcDbLine
 10
9.00011327135809
 20
3.947821683520019
 30
0.0
 11
-36.83125
 21
3.947821683520019
 31
0.0
  0
LINE
  5
98
330
1F
100
AcDbEntity
  8
외형선
  6
Continuous
370
    15
100
AcDbLine
 10
-36.83125
 20
3.947821683520019
 30
0.0
 11
-37.625
 21
3.154071683520021
 31
0.0
  0
LINE
  5
99
330
1F
100
AcDbEntity
  8
외형선
  6
Continuous
370
    15
100
AcDbLine
 10
-37.625
 20
-3.195928316479983
 30
0.0
 11
-36.83125
 21
-3.989678316479981
 31
0.0
  0
LINE
  5
9A
330
1F
100
AcDbEntity
  8
0
  6
Continuous
 62
     1
370
    15
100
AcDbLine
 10
24.27145160539644
 20
-3.989678316479984
 30
0.0
 11
27.37391581610711
 21
-3.989678316479984
 31
0.0
  0
LINE
  5
9B
330
1F
100
AcDbEntity
  8
0
  6
Continuous
 62
     1
370
    15
100
AcDbLine
 10
48.96942095851479
 20
3.947821683520022
 30
0.0
 11
45.86742254971129
 21
3.947821683520022
 31
0.0
  0
LINE
  5
9C
330
1F
100
AcDbEntity
  8
외형선
  6
Continuous
370
    15
100
AcDbLine
 10
55.35100057395576
 20
0.734398388505541
 30
0.0
 11
55.2821895410946
 21
0.7727142033488704
 31
0.0
  0
LINE
  5
9D
330
1F
100
AcDbEntity
  8
0
  6
Continuous
 62
     1
370
    15
100
AcDbLine
 10
52.44372978885261
 20
-0.7763201311492927
 30
0.0
 11
52.51233450010042
 21
-0.8146727634928843
 31
0.0
  0
LINE
  5
9E
330
1F
100
AcDbEntity
  8
외형선
  6
Continuous
370
    15
100
AcDbLine
 10
46.92439389203098
 20
0.614940728196042
 30
0.0
 11
46.64323117556906
 21
0.772844901764217
 31
0.0
  0
LINE
  5
9F
330
1F
100
AcDbEntity
  8
0
  6
Continuous
 62
     1
370
    15
100
AcDbLine
 10
43.80771024027555
 20
-0.7772792058357371
 30
0.0
 11
43.87549785588386
 21
-0.8147959182523437
 31
0.0
  0
LINE
  5
A0
330
1F
100
AcDbEntity
  8
0
  6
Continuous
 62
     1
370
    15
100
AcDbLine
 10
58.82463289503947
 20
-3.989678316479984
 30
0.0
 11
61.92633675966886
 21
-3.989678316479984
 31
0.0
  0
LINE
  5
A1
330
1F
100
AcDbEntity
  8
0
  6
Continuous
 62
     1
370
    15
100
AcDbLine
 10
15.633454729131
 20
-3.989678316479984
 30
0.0
 11
18.73468926171426
 21
-3.989678316479984
 31
0.0
  0
LINE
  5
A2
330
1F
100
AcDbEntity
  8
0
  6
Continuous
 62
     1
370
    15
100
AcDbLine
 10
40.33027513443838
 20
3.947821683520022
 30
0.0
 11
37.22900753974281
 21
3.947821683520022
 31
0.0
  0
LINE
  5
A3
330
1F
100
AcDbEntity
  8
0
  6
Continuous
 62
     1
370
    15
100
AcDbLine
 10
32.91123236288526
 20
-3.989678316479984
 30
0.0
 11
36.01230640208819
 21
-3.989678316479984
 31
0.0
  0
LINE
  5
A4
330
1F
100
AcDbEntity
  8
0
  6
Continuous
 62
     1
370
    15
100
AcDbLine
 10
14.41662079655563
 20
3.947821683520022
 30
0.0
 11
11.31529043698423
 21
3.947821683520022
 31
0.0
  0
LINE
  5
A5
330
1F
100
AcDbEntity
  8
0
  6
Continuous
 62
     1
370
    15
100
AcDbLine
 10
57.60759119637154
 20
3.947821683520022
 30
0.0
 11
54.50628029954891
 21
3.947821683520022
 31
0.0
  0
LINE
  5
A6
330
1F
100
AcDbEntity
  8
0
  6
Continuous
 62
     1
370
    15
100
AcDbLine
 10
26.53376285075164
 20
-0.7785068026701876
 30
0.0
 11
26.598345327104
 21
-0.8147210921583652
 31
0.0
  0
LINE
  5
A7
330
1F
100
AcDbEntity
  8
외형선
  6
Continuous
370
    15
100
AcDbLine
 10
29.44475240350203
 20
0.7290079956658486
 30
0.0
 11
29.36578149954375
 21
0.7728430247753728
 31
0.0
  0
LINE
  5
A8
330
1F
100
AcDbEntity
  8
0
  6
Continuous
 62
     1
370
    15
100
AcDbLine
 10
34.99712605437766
 20
-0.6784079348173969
 30
0.0
 11
35.23715528896678
 21
-0.8146705912892362
 31
0.0
  0
LINE
  5
A9
330
1F
100
AcDbEntity
  8
0
  6
Continuous
 62
     1
370
    15
100
AcDbLine
 10
50.18761381792946
 20
-3.989678316479984
 30
0.0
 11
53.28873739979755
 21
-3.989678316479984
 31
0.0
  0
LINE
  5
AA
330
1F
100
AcDbEntity
  8
외형선
  6
Continuous
370
    15
100
AcDbLine
 10
10.0
 20
-3.989678316479984
 30
0.0
 11
10.09689974325158
 21
-3.989678316479984
 31
0.0
  0
LINE
  5
AB
330
1F
100
AcDbEntity
  8
0
  6
Continuous
 62
     1
370
    15
100
AcDbLine
 10
31.69408463071492
 20
3.947821683520022
 30
0.0
 11
28.59241400939258
 21
3.947821683520022
 31
0.0
  0
LINE
  5
AC
330
1F
100
AcDbEntity
  8
0
  6
Continuous
 62
     1
370
    15
100
AcDbLine
 10
41.54737788244698
 20
-3.989678316479984
 30
0.0
 11
44.64925939449353
 21
-3.989678316479984
 31
0.0
  0
LINE
  5
AD
330
1F
100
AcDbEntity
  8
0
  6
Continuous
 62
     1
370
    15
100
AcDbLine
 10
23.0532137663924
 20
3.947821683520022
 30
0.0
 11
19.95151978540028
 21
3.947821683520022
 31
0.0
  0
LINE
  5
AE
330
1F
100
AcDbEntity
  8
0
  6
Continuous
 62
     1
370
    15
100
AcDbLine
 10
63.97500000000001
 20
3.947821683520022
 30
0.0
 11
63.14366110860651
 21
3.947821683520022
 31
0.0
  0
LINE
  5
AF
330
1F
100
AcDbEntity
  8
외형선
  6
Continuous
370
    15
100
AcDbLine
 10
9.00011327135809
 20
3.519932733286617
 30
0.0
 11
9.00011327135809
 21
3.947821683520019
 31
0.0
  0
SPLINE
  5
B0
330
1F
100
AcDbEntity
  8
외형선
  6
Continuous
370
    15
100
AcDbSpline
210
0.0
220
0.0
230
1.0
 70
     8
 71
     3
 72
     8
 73
     4
 74
     0
 42
0.000000001
 43
0.00000001
 40
0.0
 40
0.0
 40
0.0
 40
0.0
 40
1.0
 40
1.0
 40
1.0
 40
1.0
 10
10.00000000000001
 20
3.222544336671715
 30
0.0
 10
9.66522217126537
 20
3.333659292807727
 30
0.0
 10
9.332479628352539
 20
3.433055887857681
 30
0.0
 10
9.000113271358105
 20
3.519934634300244
 30
0.0
  0
LINE
  5
B1
330
1F
100
AcDbEntity
  8
외형선
  6
Continuous
370
    15
100
AcDbLine
 10
9.999999999999952
 20
1.900649881980466
 30
0.0
 11
10.00000000000001
 21
3.222544336671715
 31
0.0
  0
SPLINE
  5
B2
330
1F
100
AcDbEntity
  8
외형선
  6
Continuous
370
    15
100
AcDbSpline
210
0.0
220
0.0
230
1.0
 70
     8
 71
     3
 72
     8
 73
     4
 74
     0
 42
0.000000001
 43
0.00000001
 40
0.0
 40
0.0
 40
0.0
 40
0.0
 40
1.0
 40
1.0
 40
1.0
 40
1.0
 10
9.999999999999979
 20
1.900649881986236
 30
0.0
 10
9.665222171265356
 20
2.069356761282406
 30
0.0
 10
9.332479628352594
 20
2.230910551450668
 30
0.0
 10
9.00011327135809
 20
2.383926461412492
 30
0.0
  0
SPLINE
  5
B3
330
1F
100
AcDbEntity
  8
외형선
  6
Continuous
370
    15
100
AcDbSpline
210
0.0
220
0.0
230
1.0
 70
     8
 71
     3
 72
     8
 73
     4
 74
     0
 42
0.000000001
 43
0.00000001
 40
0.0
 40
0.0
 40
0.0
 40
0.0
 40
1.0
 40
1.0
 40
1.0
 40
1.0
 10
10.00000000000001
 20
-1.193808843919364
 30
0.0
 10
9.66522217126537
 20
-1.009606658429381
 30
0.0
 10
9.332479628352539
 20
-0.8216263170582108
 30
0.0
 10
9.000113271358105
 20
-0.6315659720914784
 30
0.0
  0
LINE
  5
B4
330
1F
100
AcDbEntity
  8
외형선
  6
Continuous
370
    15
100
AcDbLine
 10
9.999999999999952
 20
-2.72970701755281
 30
0.0
 11
10.00000000000001
 21
-1.193808843919364
 31
0.0
  0
SPLINE
  5
B5
330
1F
100
AcDbEntity
  8
외형선
  6
Continuous
370
    15
100
AcDbSpline
210
0.0
220
0.0
230
1.0
 70
     8
 71
     3
 72
     8
 73
     4
 74
     0
 42
0.000000001
 43
0.00000001
 40
0.0
 40
0.0
 40
0.0
 40
0.0
 40
1.0
 40
1.0
 40
1.0
 40
1.0
 10
9.999999999999979
 20
-2.729707017568514
 30
0.0
 10
9.665222171265356
 20
-2.588786539547739
 30
0.0
 10
9.332479628352594
 20
-2.438557960904471
 30
0.0
 10
9.00011327135809
 20
-2.280423525517322
 30
0.0
  0
LINE
  5
B6
330
1F
100
AcDbEntity
  8
외형선
  6
Continuous
370
    15
100
AcDbLine
 10
9.00011327135809
 20
-3.939186762473252
 30
0.0
 11
9.00011327135809
 21
-2.28041578988553
 31
0.0
  0
SPLINE
  5
B7
330
1F
100
AcDbEntity
  8
외형선
  6
Continuous
370
    15
100
AcDbSpline
210
0.0
220
0.0
230
1.0
 70
     8
 71
     3
 72
     8
 73
     4
 74
     0
 42
0.000000001
 43
0.00000001
 40
0.0
 40
0.0
 40
0.0
 40
0.0
 40
1.0
 40
1.0
 40
1.0
 40
1.0
 10
10.00000000000001
 20
-3.989281000332114
 30
0.0
 10
9.66522217126537
 20
-3.986552745033306
 30
0.0
 10
9.332479628352539
 20
-3.96977109989907
 30
0.0
 10
9.000113271358105
 20
-3.939186093238662
 30
0.0
  0
LINE
  5
B8
330
1F
100
AcDbEntity
  8
외형선
  6
Continuous
370
    15
100
AcDbLine
 10
10.0
 20
-3.989678316479981
 30
0.0
 11
10.00000000000001
 21
-3.989281000332114
 31
0.0
  0
SPLINE
  5
B9
330
1F
100
AcDbEntity
  8
외형선
  6
Continuous
370
    15
100
AcDbSpline
210
0.0
220
0.0
230
1.0
 70
     8
 71
     3
 72
     8
 73
     4
 74
     0
 42
0.000000001
 43
0.00000001
 40
0.0
 40
0.0
 40
0.0
 40
0.0
 40
1.0
 40
1.0
 40
1.0
 40
1.0
 10
9.999999999999979
 20
3.875451023301454
 30
0.0
 10
9.665222171265356
 20
3.838797130821638
 30
0.0
 10
9.332479628352594
 20
3.788414285513725
 30
0.0
 10
9.00011327135809
 20
3.724848883302474
 30
0.0
  0
LINE
  5
BA
330
1F
100
AcDbEntity
  8
외형선
  6
Continuous
370
    15
100
AcDbLine
 10
-36.83125
 20
-0.0209283164799812
 30
0.0
 11
-36.83125
 21
3.947821683520019
 31
0.0
  0
LINE
  5
BB
330
1F
100
AcDbEntity
  8
외형선
  6
Continuous
370
    15
100
AcDbLine
 10
-36.83125
 20
-3.989678316479981
 30
0.0
 11
-36.83125
 21
-0.0209283164799812
 31
0.0
  0
LINE
  5
BC
330
1F
100
AcDbEntity
  8
외형선
  6
Continuous
370
    15
100
AcDbLine
 10
9.00011327135809
 20
-0.6315701308404527
 30
0.0
 11
9.00011327135809
 21
2.383933946642983
 31
0.0
  0
LINE
  5
BD
330
1F
100
AcDbEntity
  8
외형선
  6
Continuous
370
    15
100
AcDbLine
 10
-37.625
 20
-0.0209283164799812
 30
0.0
 11
-37.625
 21
3.154071683520021
 31
0.0
  0
LINE
  5
BE
330
1F
100
AcDbEntity
  8
외형선
  6
Continuous
370
    15
100
AcDbLine
 10
-37.625
 20
-3.195928316479983
 30
0.0
 11
-37.625
 21
-0.0209283164799812
 31
0.0
  0
SPLINE
  5
BF
330
1F
100
AcDbEntity
  8
외형선
  6
Continuous
370
    15
100
AcDbSpline
210
0.0
220
0.0
230
1.0
 70
    24
 71
     3
 72
    24
 73
    20
 74
     0
 42
0.000000001
 43
0.00000001
 40
0.0
 40
0.0
 40
0.0
 40
0.0
 40
0.1249999999999999
 40
0.1249999999999999
 40
0.2499999999999999
 40
0.2499999999999999
 40
0.3749999999999998
 40
0.3749999999999998
 40
0.4999999999999998
 40
0.4999999999999998
 40
0.6249999999999998
 40
0.6249999999999998
 40
0.7499999999999997
 40
0.7499999999999997
 40
0.8124999999999997
 40
0.8124999999999997
 40
0.8749999999999996
 40
0.8749999999999996
 40
1.0
 40
1.0
 40
1.0
 40
1.0
 10
10.00000000000002
 20
-1.193808843919371
 30
0.0
 10
10.00000000000002
 20
-1.175068032234514
 30
0.0
 10
10.00000000000003
 20
-1.119588876219017
 30
0.0
 10
10.00000000000001
 20
-0.9172887598121634
 30
0.0
 10
9.999999999999993
 20
-0.7698594843370599
 30
0.0
 10
10.00000000000001
 20
-0.4088871664809304
 30
0.0
 10
10.00000000000001
 20
-0.1967044338949173
 30
0.0
 10
10.00000000000001
 20
0.2315559733967226
 30
0.0
 10
10.00000000000002
 20
0.4462065757772863
 30
0.0
 10
10.00000000000001
 20
0.831690762718417
 30
0.0
 10
10.00000000000003
 20
1.002649794401349
 30
0.0
 10
10.00000000000004
 20
1.289990147544868
 30
0.0
 10
10.00000000000004
 20
1.407011320538487
 30
0.0
 10
10.00000000000004
 20
1.549147682748726
 30
0.0
 10
10.00000000000001
 20
1.591049502305427
 30
0.0
 10
10.00000000000001
 20
1.665534409608322
 30
0.0
 10
10.00000000000003
 20
1.697853050957898
 30
0.0
 10
10.00000000000001
 20
1.795108590953397
 30
0.0
 10
10.0
 20
1.85554652611717
 30
0.0
 10
10.00000000000001
 20
1.900649881980476
 30
0.0
  0
SPLINE
  5
C0
330
1F
100
AcDbEntity
  8
외형선
  6
Continuous
370
    15
100
AcDbSpline
210
0.0
220
0.0
230
1.0
 70
    24
 71
     3
 72
    10
 73
     6
 74
     0
 42
0.000000001
 43
0.00000001
 40
0.0
 40
0.0
 40
0.0
 40
0.0
 40
0.3610105717900376
 40
0.7879314355439354
 40
1.0
 40
1.0
 40
1.0
 40
1.0
 10
10.00000000000001
 20
-3.989281000332114
 30
0.0
 10
10.00000000000001
 20
-3.840146794921014
 30
0.0
 10
10.00000000000001
 20
-3.514650707713313
 30
0.0
 10
10.00000000000001
 20
-3.088617361463669
 30
0.0
 10
10.00000000000001
 20
-2.871617013273552
 30
0.0
 10
10.0
 20
-2.799598681990576
 30
0.0
  0
SPLINE
  5
C1
330
1F
100
AcDbEntity
  8
외형선
  6
Continuous
370
    15
100
AcDbSpline
210
0.0
220
0.0
230
1.0
 70
    24
 71
     3
 72
     9
 73
     5
 74
     0
 42
0.000000001
 43
0.00000001
 40
0.0
 40
0.0
 40
0.0
 40
0.0
 40
0.7544796287712195
 40
1.0
 40
1.0
 40
1.0
 40
1.0
 10
10.00000000000004
 20
3.292446001093775
 30
0.0
 10
10.00000000000006
 20
3.43619804300034
 30
0.0
 10
10.0000000000001
 20
3.626729419096851
 30
0.0
 10
9.999999999999979
 20
3.826422342577463
 30
0.0
 10
9.999999999999952
 20
3.875451023282184
 30
0.0
  0
LINE
  5
C2
330
1F
100
AcDbEntity
  8
0
  6
Continuous
 62
     1
370
    15
100
AcDbLine
 10
63.97500000000001
 20
-3.48959009883047
 30
0.0
 11
63.97500000000001
 21
-2.301502074555944
 31
0.0
  0
SPLINE
  5
C3
330
1F
100
AcDbEntity
  8
0
  6
Continuous
 62
     1
370
    15
100
AcDbSpline
210
0.0
220
0.0
230
1.0
 70
     8
 71
     3
 72
    21
 73
    17
 74
     0
 42
0.000000001
 43
0.00000001
 40
0.0
 40
0.0
 40
0.0
 40
0.0
 40
0.0737837859991908
 40
0.1475542628533126
 40
0.2213136899749789
 40
0.295064343256581
 40
0.3688085117079781
 40
0.4412288774216891
 40
0.5136471995226339
 40
0.5860677259521819
 40
0.6584946996923258
 40
0.7322475126210288
 40
0.8060097196809456
 40
0.8797835926141858
 40
0.9535702360065218
 40
1.0
 40
1.0
 40
1.0
 40
1.0
 10
63.97499999999999
 20
-3.48959009883047
 30
0.0
 10
63.46165473131065
 20
-3.328808077003041
 30
0.0
 10
62.43505679133067
 20
-3.007273035265393
 30
0.0
 10
60.89535619952643
 20
-2.329367432697844
 30
0.0
 10
59.35592601863796
 20
-1.548656847258637
 30
0.0
 10
57.81672242015905
 20
-0.6883620691330181
 30
0.0
 10
56.28683970393367
 20
0.1990041067811245
 30
0.0
 10
54.76632065109989
 20
1.070269177567926
 30
0.0
 10
53.25500060286646
 20
1.883659624635448
 30
0.0
 10
51.74362656046418
 20
2.605300569695862
 30
0.0
 10
50.22295471798944
 20
3.204203457282853
 30
0.0
 10
48.69285222993308
 20
3.647688217349677
 30
0.0
 10
47.15335682395397
 20
3.91268807006176
 30
0.0
 10
45.61358083074789
 20
3.97361525260518
 30
0.0
 10
44.2638836729446
 20
3.877092034377767
 30
0.0
 10
43.42750662291509
 20
3.684463655065239
 30
0.0
 10
43.10448258745373
 20
3.610067069903418
 30
0.0
  0
SPLINE
  5
C4
330
1F
100
AcDbEntity
  8
0
  6
Continuous
 62
     1
370
    15
100
AcDbSpline
210
0.0
220
0.0
230
1.0
 70
     8
 71
     3
 72
    17
 73
    13
 74
     0
 42
0.000000001
 43
0.00000001
 40
0.0
 40
0.0
 40
0.0
 40
0.0
 40
0.0012068929672283
 40
0.1071646332230884
 40
0.2187790010185161
 40
0.3303893467783843
 40
0.4419962587809814
 40
0.5536003269241675
 40
0.665202142448426
 40
0.776802297658549
 40
0.888401385644253
 40
1.0
 40
1.0
 40
1.0
 40
1.0
 10
24.27145160539643
 20
-3.988601570591992
 30
0.0
 10
24.26570994267824
 20
-3.988960022002597
 30
0.0
 10
23.75588579422901
 20
-4.020788290945048
 30
0.0
 10
22.7151738090268
 20
-3.906184852168419
 30
0.0
 10
21.14914213500351
 20
-3.623565642288562
 30
0.0
 10
19.55628970838651
 20
-3.11860403371916
 30
0.0
 10
17.96348461241328
 20
-2.454697160376041
 30
0.0
 10
16.37073128357783
 20
-1.659055033880391
 30
0.0
 10
14.77801570672352
 20
-0.7758054861310705
 30
0.0
 10
13.18532877512669
 20
0.145941355634758
 30
0.0
 10
11.59266008496892
 20
1.066105318413628
 30
0.0
 10
10.53088594395437
 20
1.622468754333451
 30
0.0
 10
9.999999999999986
 20
1.900649881986232
 30
0.0
  0
SPLINE
  5
C5
330
1F
100
AcDbEntity
  8
0
  6
Continuous
 62
     1
370
    15
100
AcDbSpline
210
0.0
220
0.0
230
1.0
 70
     8
 71
     3
 72
    20
 73
    16
 74
     0
 42
0.000000001
 43
0.00000001
 40
0.0
 40
0.0
 40
0.0
 40
0.0
 40
0.0791130012637855
 40
0.158226338287003
 40
0.2373404318727216
 40
0.3164557024661938
 40
0.3955725699562319
 40
0.4746914534771538
 40
0.553812771211483
 40
0.6329369401936188
 40
0.7094112203866704
 40
0.7858982561458068
 40
0.8623954309292575
 40
0.9388809761897857
 40
1.0
 40
1.0
 40
1.0
 40
1.0
 10
9.999999999999993
 20
3.222544336671715
 30
0.0
 10
10.53088594439751
 20
3.029062522593847
 30
0.0
 10
11.59266008629839
 20
2.642098073291863
 30
0.0
 10
13.18532876980876
 20
1.872851315811055
 30
0.0
 10
14.77801572666618
 20
1.01482195130861
 30
0.0
 10
16.3707312091234
 20
0.098087303011007
 30
0.0
 10
17.96348489029708
 20
-0.8241206492611657
 30
0.0
 10
19.55628867126606
 20
-1.703651708412167
 30
0.0
 10
21.14914600577841
 20
-2.493145100278599
 30
0.0
 10
22.72428715264123
 20
-3.143280585575448
 30
0.0
 10
24.28169279036907
 20
-3.624829077173592
 30
0.0
 10
25.82154609865425
 20
-3.922373519608729
 30
0.0
 10
27.36153421040044
 20
-4.019516439701245
 30
0.0
 10
28.79832241844857
 20
-3.943079723727493
 30
0.0
 10
29.72172054309235
 20
-3.746843622769963
 30
0.0
 10
30.13186093557742
 20
-3.659682571303127
 30
0.0
  0
SPLINE
  5
C6
330
1F
100
AcDbEntity
  8
0
  6
Continuous
 62
     1
370
    15
100
AcDbSpline
210
0.0
220
0.0
230
1.0
 70
     8
 71
     3
 72
    17
 73
    13
 74
     0
 42
0.000000001
 43
0.00000001
 40
0.0
 40
0.0
 40
0.0
 40
0.0
 40
0.0841516965486851
 40
0.1867187761888886
 40
0.2892791632929694
 40
0.3918360618063331
 40
0.4943926809098388
 40
0.5969522302038015
 40
0.6976856966228071
 40
0.7984342574953397
 40
0.8992037588877801
 40
1.0
 40
1.0
 40
1.0
 40
1.0
 10
48.96942095851479
 20
3.9346462968776
 30
0.0
 10
49.39033452208427
 20
3.927024565711525
 30
0.0
 10
50.32427250187926
 20
3.910113197621079
 30
0.0
 10
51.77120335228011
 20
3.649928626777496
 30
0.0
 10
53.31016527094698
 20
3.210341920722596
 30
0.0
 10
54.84906801363358
 20
2.603961876209019
 30
0.0
 10
56.38796011852737
 20
1.867953916776377
 30
0.0
 10
57.91775938750651
 20
1.042337254693185
 30
0.0
 10
59.43846495908544
 20
0.169413832483254
 30
0.0
 10
60.95028506250087
 20
-0.7053694687480586
 30
0.0
 10
62.46246952972731
 20
-1.555138847127951
 30
0.0
 10
63.47077858913521
 20
-2.052692330258028
 30
0.0
 10
63.97500000000004
 20
-2.301502074555945
 30
0.0
  0
LINE
  5
C7
330
1F
100
AcDbEntity
  8
0
  6
Continuous
 62
     1
370
    15
100
AcDbLine
 10
63.97500000000001
 20
-2.301502074555944
 30
0.0
 11
63.97500000000001
 21
0.6963307032028486
 31
0.0
  0
SPLINE
  5
C8
330
1F
100
AcDbEntity
  8
외형선
  6
Continuous
370
    15
100
AcDbSpline
210
0.0
220
0.0
230
1.0
 70
    24
 71
     3
 72
     9
 73
     5
 74
     0
 42
0.000000001
 43
0.00000001
 40
0.0
 40
0.0
 40
0.0
 40
0.0
 40
0.8552281825065204
 40
1.0
 40
1.0
 40
1.0
 40
1.0
 10
9.999999999999993
 20
3.875451023301527
 30
0.0
 10
9.999999999999979
 20
3.69921317539336
 30
0.0
 10
9.999999999999979
 20
3.493142033781019
 30
0.0
 10
9.999999999999986
 20
3.317817982629325
 30
0.0
 10
9.999999999999986
 20
3.292436001093774
 30
0.0
  0
SPLINE
  5
C9
330
1F
100
AcDbEntity
  8
0
  6
Continuous
 62
     1
370
    15
100
AcDbSpline
210
0.0
220
0.0
230
1.0
 70
     8
 71
     3
 72
    16
 73
    12
 74
     0
 42
0.000000001
 43
0.00000001
 40
0.0
 40
0.0
 40
0.0
 40
0.0
 40
0.1258005955158673
 40
0.2515784990764111
 40
0.3773375629568766
 40
0.5030816675303603
 40
0.6288147155351066
 40
0.752290693500803
 40
0.8757631871277723
 40
0.9992394391123163
 40
1.0
 40
1.0
 40
1.0
 40
1.0
 10
63.97499999999999
 20
0.7413703193993633
 30
0.0
 10
63.46165473093615
 20
1.0284343819589
 30
0.0
 10
62.43505679020734
 20
1.602510726362183
 30
0.0
 10
60.89535620401878
 20
2.372419488909191
 30
0.0
 10
59.35592600179517
 20
3.025370987866526
 30
0.0
 10
57.81672248302836
 20
3.525854334100639
 30
0.0
 10
56.28683947109833
 20
3.845959905869178
 30
0.0
 10
54.76632150270025
 20
3.980549916478301
 30
0.0
 10
53.25499742278909
 20
3.900835603339263
 30
0.0
 10
52.24435672406366
 20
3.773079119808251
 30
0.0
 10
51.73746271426845
 20
3.629844613220456
 30
0.0
 10
51.73435957801487
 20
3.628967751033163
 30
0.0
  0
SPLINE
  5
CA
330
1F
100
AcDbEntity
  8
0
  6
Continuous
 62
     1
370
    15
100
AcDbSpline
210
0.0
220
0.0
230
1.0
 70
     8
 71
     3
 72
    22
 73
    18
 74
     0
 42
0.000000001
 43
0.00000001
 40
0.0
 40
0.0
 40
0.0
 40
0.0
 40
0.045444547125789
 40
0.1126246370815348
 40
0.179811769660257
 40
0.2458128778646265
 40
0.311831484133123
 40
0.3778502511413843
 40
0.4438514890610677
 40
0.5133762488977013
 40
0.5828985034022539
 40
0.6524186190141683
 40
0.7219369631817205
 40
0.791453904189509
 40
0.8609698109850917
 40
0.9304850530049569
 40
1.0
 40
1.0
 40
1.0
 40
1.0
 10
32.91123236288526
 20
-3.967936172252413
 30
0.0
 10
32.56418952970959
 20
-3.967766759742819
 30
0.0
 10
31.70411773649817
 20
-3.967346906897611
 30
0.0
 10
30.33094171368397
 20
-3.73963800417549
 30
0.0
 10
28.80074092472536
 20
-3.329335083267782
 30
0.0
 10
27.27940504159323
 20
-2.752319765588061
 30
0.0
 10
25.76687527416135
 20
-2.049173243846999
 30
0.0
 10
24.25433634210379
 20
-1.247772407327418
 30
0.0
 10
22.71516632967961
 20
-0.3720042526137079
 30
0.0
 10
21.14914418287576
 20
0.5379858350790258
 30
0.0
 10
19.55628915968752
 20
1.433661378680934
 30
0.0
 10
17.96348475943048
 20
2.251660958842356
 30
0.0
 10
16.37073124418699
 20
2.947880698756675
 30
0.0
 10
14.77801571727437
 20
3.486476134055173
 30
0.0
 10
13.18532877231319
 20
3.833580660062504
 30
0.0
 10
11.59266008567227
 20
3.989604504694755
 30
0.0
 10
10.53088594418881
 20
3.91350212993564
 30
0.0
 10
9.999999999999986
 20
3.875451023301458
 30
0.0
  0
LINE
  5
CB
330
1F
100
AcDbEntity
  8
0
  6
Continuous
 62
     1
370
    15
100
AcDbLine
 10
63.97500000000001
 20
-3.814762675056311
 30
0.0
 11
63.97500000000001
 21
-3.48959009883047
 31
0.0
  0
SPLINE
  5
CC
330
1F
100
AcDbEntity
  8
0
  6
Continuous
 62
     1
370
    15
100
AcDbSpline
210
0.0
220
0.0
230
1.0
 70
     8
 71
     3
 72
    15
 73
    11
 74
     0
 42
0.000000001
 43
0.00000001
 40
0.0
 40
0.0
 40
0.0
 40
0.0
 40
0.1384407904666153
 40
0.2768821684826905
 40
0.4153248704165672
 40
0.5537696320104387
 40
0.6922171880327779
 40
0.830668271931758
 40
0.9691236154899961
 40
1.0
 40
1.0
 40
1.0
 40
1.0
 10
9.999999999999993
 20
-1.19380884391937
 30
0.0
 10
10.53088594449948
 20
-1.480568900944003
 30
0.0
 10
11.59266008660424
 20
-2.054090232016921
 30
0.0
 10
13.18532876858533
 20
-2.788821290641311
 30
0.0
 10
14.77801573125414
 20
-3.380412369322261
 30
0.0
 10
16.37073119199458
 20
-3.790074751369743
 30
0.0
 10
17.96348495422641
 20
-4.002885922654738
 30
0.0
 10
19.55628843266841
 20
-3.986716035231306
 30
0.0
 10
20.73658137779292
 20
-3.862027125653646
 30
0.0
 10
21.38594517377594
 20
-3.68712159488146
 30
0.0
 10
21.50435184499094
 20
-3.655228868794876
 30
0.0
  0
SPLINE
  5
CD
330
1F
100
AcDbEntity
  8
0
  6
Continuous
 62
     1
370
    15
100
AcDbSpline
210
0.0
220
0.0
230
1.0
 70
     8
 71
     3
 72
    23
 73
    19
 74
     0
 42
0.000000001
 43
0.00000001
 40
0.0
 40
0.0
 40
0.0
 40
0.0
 40
0.0327208636561588
 40
0.0978246039185963
 40
0.1629377487164673
 40
0.2269077815574695
 40
0.2908762719569573
 40
0.3548279461197746
 40
0.4187664858604629
 40
0.4838596065330115
 40
0.5489484798577465
 40
0.614035139184995
 40
0.6791216211877094
 40
0.7442099628050457
 40
0.8081394000901672
 40
0.8720784169118061
 40
0.936030723414638
 40
1.0
 40
1.0
 40
1.0
 40
1.0
 10
40.33027513443838
 20
3.922973355728359
 30
0.0
 10
40.58816228570747
 20
3.927703238049054
 30
0.0
 10
41.35915991870687
 20
3.941844028141452
 30
0.0
 10
42.64337953757148
 20
3.750215410010282
 30
0.0
 10
44.17392466951172
 20
3.372852724547374
 30
0.0
 10
45.69560537716178
 20
2.821760063428513
 30
0.0
 10
47.20812436537146
 20
2.139692850356944
 30
0.0
 10
48.72029623818129
 20
1.352770053520174
 30
0.0
 10
50.24125791745342
 20
0.4947531706776992
 30
0.0
 10
51.77120425022166
 20
-0.3940690896404386
 30
0.0
 10
53.31016503035923
 20
-1.269537533045205
 30
0.0
 10
54.84906807810044
 20
-2.082639583315335
 30
0.0
 10
56.38796010124274
 20
-2.792873149271649
 30
0.0
 10
57.91775939204609
 20
-3.361049748302347
 30
0.0
 10
59.43846495787851
 20
-3.763321725433611
 30
0.0
 10
60.95028506282281
 20
-3.979386970236212
 30
0.0
 10
62.46246952964678
 20
-4.017856547398145
 30
0.0
 10
63.47077858910838
 20
-3.882466619448079
 30
0.0
 10
63.97500000000004
 20
-3.814762675056311
 30
0.0
  0
SPLINE
  5
CE
330
1F
100
AcDbEntity
  8
외형선
  6
Continuous
370
    15
100
AcDbSpline
210
0.0
220
0.0
230
1.0
 70
    24
 71
     3
 72
    24
 73
    20
 74
     0
 42
0.000000001
 43
0.00000001
 40
0.0
 40
0.0
 40
0.0
 40
0.0
 40
0.125
 40
0.125
 40
0.1875
 40
0.1875
 40
0.25
 40
0.25
 40
0.375
 40
0.375
 40
0.5
 40
0.5
 40
0.625
 40
0.625
 40
0.75
 40
0.75
 40
0.875
 40
0.875
 40
1.0
 40
1.0
 40
1.0
 40
1.0
 10
10.0000000000001
 20
1.900649881986195
 30
0.0
 10
10.0000000000001
 20
1.855546526123999
 30
0.0
 10
10.00000000000011
 20
1.795108590960585
 30
0.0
 10
10.0000000000001
 20
1.697853050965119
 30
0.0
 10
10.00000000000011
 20
1.665534409615572
 30
0.0
 10
10.0000000000001
 20
1.591049502313572
 30
0.0
 10
10.00000000000009
 20
1.549147682757327
 30
0.0
 10
10.0000000000001
 20
1.407011320548433
 30
0.0
 10
10.0000000000001
 20
1.289990147555692
 30
0.0
 10
10.0000000000001
 20
1.002649794413438
 30
0.0
 10
10.00000000000011
 20
0.8316907627308779
 30
0.0
 10
10.00000000000012
 20
0.4462065757894522
 30
0.0
 10
10.00000000000012
 20
0.2315559734081906
 30
0.0
 10
10.00000000000012
 20
-0.1967044338858368
 30
0.0
 10
10.00000000000011
 20
-0.4088871664735243
 30
0.0
 10
10.0000000000001
 20
-0.769859484332905
 30
0.0
 10
10.00000000000009
 20
-0.9172887598095326
 30
0.0
 10
10.0000000000001
 20
-1.119588876218423
 30
0.0
 10
10.0000000000001
 20
-1.175068032234438
 30
0.0
 10
10.0000000000001
 20
-1.193808843919406
 30
0.0
  0
SPLINE
  5
CF
330
1F
100
AcDbEntity
  8
0
  6
Continuous
 62
     1
370
    15
100
AcDbSpline
210
0.0
220
0.0
230
1.0
 70
     8
 71
     3
 72
     9
 73
     5
 74
     0
 42
0.000000001
 43
0.00000001
 40
0.0
 40
0.0
 40
0.0
 40
0.0
 40
0.5561150275078309
 40
1.0
 40
1.0
 40
1.0
 40
1.0
 10
9.999999999999993
 20
-3.989281000332118
 30
0.0
 10
10.53088588945845
 20
-3.977425601546346
 30
0.0
 10
11.48551912754514
 20
-3.956107352264537
 30
0.0
 10
12.44015358147792
 20
-3.748554624052929
 30
0.0
 10
12.86390146980194
 20
-3.656425087000044
 30
0.0
  0
SPLINE
  5
D0
330
1F
100
AcDbEntity
  8
0
  6
Continuous
 62
     1
370
    15
100
AcDbSpline
210
0.0
220
0.0
230
1.0
 70
     8
 71
     3
 72
    24
 73
    20
 74
     0
 42
0.000000001
 43
0.00000001
 40
0.0
 40
0.0
 40
0.0
 40
0.0
 40
0.010621224580518
 40
0.0726938401146868
 40
0.1347610825472169
 40
0.1968265886327782
 40
0.2600243892888612
 40
0.3232254340318902
 40
0.3864316941120171
 40
0.4496451329653753
 40
0.5128677032914135
 40
0.5749803521675199
 40
0.6370915033872403
 40
0.6991863266334183
 40
0.7612683968183009
 40
0.8244715244238969
 40
0.8876705280043566
 40
0.9508673818712337
 40
0.9999999999999999
 40
0.9999999999999999
 40
0.9999999999999999
 40
0.9999999999999999
 10
31.69408463071494
 20
3.934241469355765
 30
0.0
 10
31.78029795942593
 20
3.938539926699535
 30
0.0
 10
32.37035966893623
 20
3.96795945064605
 30
0.0
 10
33.46417915695254
 20
3.836958745769956
 30
0.0
 10
34.9755549131628
 20
3.535303460970915
 30
0.0
 10
36.49602963950581
 20
3.041926118545333
 30
0.0
 10
38.02579566283164
 20
2.39949090490775
 30
0.0
 10
39.56481466013408
 20
1.631040742590216
 30
0.0
 10
41.10399145924369
 20
0.7804217000558951
 30
0.0
 10
42.64337845736854
 20
-0.1103365260538042
 30
0.0
 10
44.17392495343209
 20
-0.9914559626478087
 30
0.0
 10
45.69560530123935
 20
-1.819470376051199
 30
0.0
 10
47.20812438727036
 20
-2.555854307116218
 30
0.0
 10
48.72029622648989
 20
-3.170220508270094
 30
0.0
 10
50.24125794254249
 20
-3.635205068551239
 30
0.0
 10
51.77120415993754
 20
-3.92680578337372
 30
0.0
 10
53.31016536569193
 20
-4.019340011448929
 30
0.0
 10
54.73491039420976
 20
-3.940131527245533
 30
0.0
 10
55.64667652427622
 20
-3.744240564844779
 30
0.0
 10
56.04548065195019
 20
-3.658558368716534
 30
0.0
  0
SPLINE
  5
D1
330
1F
100
AcDbEntity
  8
외형선
  6
Continuous
370
    15
100
AcDbSpline
210
0.0
220
0.0
230
1.0
 70
    24
 71
     3
 72
    11
 73
     7
 74
     0
 42
0.000000001
 43
0.00000001
 40
0.0
 40
0.0
 40
0.0
 40
0.0
 40
0.0743036201709976
 40
0.5031319355099945
 40
0.9319602508489964
 40
1.0
 40
1.0
 40
1.0
 40
1.0
 10
9.999999999999979
 20
-2.799598681990576
 30
0.0
 10
9.999999999999986
 20
-2.823137191988661
 30
0.0
 10
9.999999999999917
 20
-2.982523451596234
 30
0.0
 10
10.00000000000002
 20
-3.373862784439626
 30
0.0
 10
10.00000000000008
 20
-3.759645814767599
 30
0.0
 10
10.0
 20
-3.961622823113164
 30
0.0
 10
9.999999999999993
 20
-3.989281000332117
 30
0.0
  0
SPLINE
  5
D2
330
1F
100
AcDbEntity
  8
0
  6
Continuous
 62
     1
370
    15
100
AcDbSpline
210
0.0
220
0.0
230
1.0
 70
     8
 71
     3
 72
    24
 73
    20
 74
     0
 42
0.000000001
 43
0.00000001
 40
0.0
 40
0.0
 40
0.0
 40
0.0
 40
0.0413699010162263
 40
0.1045381234736155
 40
0.1665723950359048
 40
0.2286049160681042
 40
0.2906393252973298
 40
0.3526792572025653
 40
0.4158548843982131
 40
0.4790385584751639
 40
0.5422322253759095
 40
0.6054368312731616
 40
0.6686356989477493
 40
0.7306975822722173
 40
0.7927467044129938
 40
0.8547866668112
 40
0.9168210914628974
 40
0.9799840383280316
 40
0.9999999999999999
 40
0.9999999999999999
 40
0.9999999999999999
 40
0.9999999999999999
 10
58.82463289503951
 20
-3.967219322373499
 30
0.0
 10
58.48864750084714
 20
-3.967862219481869
 30
0.0
 10
57.63964178024754
 20
-3.969486764275181
 30
0.0
 10
56.28684038525397
 20
-3.74797908682283
 30
0.0
 10
54.76632046935957
 20
-3.345812313743028
 30
0.0
 10
53.25500065375719
 20
-2.778281497514539
 30
0.0
 10
51.74362653864284
 20
-2.079976667490775
 30
0.0
 10
50.22295475473702
 20
-1.277089776418313
 30
0.0
 10
48.69285210255765
 20
-0.4074309953741072
 30
0.0
 10
47.15335729581477
 20
0.4868318446622537
 30
0.0
 10
45.61357907027536
 20
1.355779638675063
 30
0.0
 10
44.0735999841224
 20
2.155925770260241
 30
0.0
 10
42.54285236352662
 20
2.843231348772444
 30
0.0
 10
41.02157694929942
 20
3.386329355631585
 30
0.0
 10
39.50977568089506
 20
3.761099871835251
 30
0.0
 10
37.99823678184518
 20
3.957012761302493
 30
0.0
 10
36.47770103744251
 20
3.948723294504381
 30
0.0
 10
35.29838208461368
 20
3.828575579890273
 30
0.0
 10
34.6228682155605
 20
3.652839216967509
 30
0.0
 10
34.46031427070051
 20
3.610550464127428
 30
0.0
  0
SPLINE
  5
D3
330
1F
100
AcDbEntity
  8
0
  6
Continuous
 62
     1
370
    15
100
AcDbSpline
210
0.0
220
0.0
230
1.0
 70
     8
 71
     3
 72
    11
 73
     7
 74
     0
 42
0.000000001
 43
0.00000001
 40
0.0
 40
0.0
 40
0.0
 40
0.0
 40
0.1518504800953281
 40
0.4345691890947481
 40
0.7172851944750787
 40
1.0
 40
1.0
 40
1.0
 40
1.0
 10
15.63345472913101
 20
-3.963218361011356
 30
0.0
 10
15.3483058931839
 20
-3.967606191523473
 30
0.0
 10
14.53226040994899
 20
-3.980163385589234
 30
0.0
 10
13.18532893651893
 20
-3.765798860309527
 30
0.0
 10
11.59266004462122
 20
-3.361264215752554
 30
0.0
 10
10.53088593050515
 20
-2.940225785812562
 30
0.0
 10
9.999999999999986
 20
-2.729707017568521
 30
0.0
  0
SPLINE
  5
D4
330
1F
100
AcDbEntity
  8
0
  6
Continuous
 62
     1
370
    15
100
AcDbSpline
210
0.0
220
0.0
230
1.0
 70
     8
 71
     3
 72
    24
 73
    20
 74
     0
 42
0.000000001
 43
0.00000001
 40
0.0
 40
0.0
 40
0.0
 40
0.0
 40
0.0148344916983602
 40
0.0802130491875578
 40
0.1455929263056115
 40
0.2109744694129242
 40
0.2763580240833651
 40
0.3417439349420263
 40
0.4049400548129609
 40
0.4681467155125412
 40
0.5313617548067854
 40
0.5945671838016869
 40
0.6577622810667638
 40
0.7198205475535117
 40
0.7818698196465492
 40
0.8439137206585925
 40
0.9059558859766492
 40
0.9691299200469916
 40
1.0
 40
1.0
 40
1.0
 40
1.0
 10
14.41662079655563
 20
3.929171037832583
 30
0.0
 10
14.53708338147132
 20
3.934872358823191
 30
0.0
 10
15.18844855431182
 20
3.965700536178549
 30
0.0
 10
16.37073142389696
 20
3.811588131790216
 30
0.0
 10
17.96348483327707
 20
3.464854165139097
 30
0.0
 10
19.5562886845653
 20
2.91416543246205
 30
0.0
 10
21.14914600960399
 20
2.211300115796738
 30
0.0
 10
22.72428712439973
 20
1.397001336678023
 30
0.0
 10
24.28169289540908
 20
0.5199101112533063
 30
0.0
 10
25.82154570512055
 20
-0.3742784486361752
 30
0.0
 10
27.36153567958409
 20
-1.250719818426657
 30
0.0
 10
28.90135427264045
 20
-2.065831943251304
 30
0.0
 10
30.43174739911375
 20
-2.774469423875326
 30
0.0
 10
31.9526571405232
 20
-3.344139962289677
 30
0.0
 10
33.46418250069895
 20
-3.749607779356192
 30
0.0
 10
34.97555392012485
 20
-3.977985850754638
 30
0.0
 10
36.49603027798638
 20
-4.006489170698644
 30
0.0
 10
37.76345814428456
 20
-3.897643977632162
 30
0.0
 10
38.52710180801715
 20
-3.711024142570321
 30
0.0
 10
38.77776864878486
 20
-3.649765984215553
 30
0.0
  0
SPLINE
  5
D5
330
1F
100
AcDbEntity
  8
0
  6
Continuous
 62
     1
370
    15
100
AcDbSpline
210
0.0
220
0.0
230
1.0
 70
     8
 71
     3
 72
    12
 73
     8
 74
     0
 42
0.000000001
 43
0.00000001
 40
0.0
 40
0.0
 40
0.0
 40
0.0
 40
0.050147085387115
 40
0.287543205270208
 40
0.5249748978862415
 40
0.7624559405182246
 40
1.0
 40
1.0
 40
1.0
 40
1.0
 10
57.60759119637154
 20
3.931496996595608
 30
0.0
 10
57.71402249994303
 20
3.936560361107241
 30
0.0
 10
58.32429920762762
 20
3.965593674806074
 30
0.0
 10
59.43846386914421
 20
3.828674453575153
 30
0.0
 10
60.95028535323515
 20
3.517304187091967
 30
0.0
 10
62.46246945701493
 20
3.027109948760268
 30
0.0
 10
63.47077856489562
 20
2.584678844399181
 30
0.0
 10
63.97500000000005
 20
2.36343394575429
 30
0.0
  0
LINE
  5
D6
330
1F
100
AcDbEntity
  8
0
  6
Continuous
 62
     1
370
    15
100
AcDbLine
 10
63.97500000000001
 20
0.7413703193993635
 30
0.0
 11
63.97500000000001
 21
2.36343394575429
 31
0.0
  0
LINE
  5
D7
330
1F
100
AcDbEntity
  8
0
  6
Continuous
 62
     1
370
    15
100
AcDbLine
 10
63.97500000000001
 20
2.351241208689203
 30
0.0
 11
63.97500000000001
 21
3.918859932421612
 31
0.0
  0
SPLINE
  5
D8
330
1F
100
AcDbEntity
  8
0
  6
Continuous
 62
     1
370
    15
100
AcDbSpline
210
0.0
220
0.0
230
1.0
 70
     8
 71
     3
 72
    10
 73
     6
 74
     0
 42
0.000000001
 43
0.00000001
 40
0.0
 40
0.0
 40
0.0
 40
0.0
 40
0.4275913102087482
 40
0.8551054913477323
 40
1.0
 40
1.0
 40
1.0
 40
1.0
 10
63.97499999999999
 20
3.918859932421612
 30
0.0
 10
63.46165528251868
 20
3.933173233151081
 30
0.0
 10
62.43505844485533
 20
3.961797252771835
 30
0.0
 10
61.23455780923052
 20
3.831366161711013
 30
0.0
 10
60.54740459313713
 20
3.654475783001108
 30
0.0
 10
60.37346466282095
 20
3.609699306044003
 30
0.0
  0
SPLINE
  5
D9
330
1F
100
AcDbEntity
  8
0
  6
Continuous
 62
     1
370
    15
100
AcDbSpline
210
0.0
220
0.0
230
1.0
 70
     8
 71
     3
 72
    24
 73
    20
 74
     0
 42
0.000000001
 43
0.00000001
 40
0.0
 40
0.0
 40
0.0
 40
0.0
 40
0.0215850228842753
 40
0.0836375255182409
 40
0.1456808679106049
 40
0.2077186722547586
 40
0.2708850602952763
 40
0.3340521580466191
 40
0.3972219415197484
 40
0.4603963826958358
 40
0.5235774465747393
 40
0.5856432034166874
 40
0.6477254149913341
 40
0.709807777721551
 40
0.771873656544468
 40
0.8372529654062798
 40
0.9026299183177754
 40
0.9680048598692498
 40
1.0
 40
1.0
 40
1.0
 40
1.0
 10
41.54737788244698
 20
-3.967931156994895
 30
0.0
 10
41.37207891803129
 20
-3.973819616348914
 30
0.0
 10
40.69283147464223
 20
-3.996636185602756
 30
0.0
 10
39.50977873697106
 20
-3.83913858758828
 30
0.0
 10
37.9982359865957
 20
-3.502282477181604
 30
0.0
 10
36.47770116844188
 20
-2.981663478210373
 30
0.0
 10
34.94796762556166
 20
-2.315623169721801
 30
0.0
 10
33.40905977321498
 20
-1.530054644201194
 30
0.0
 10
31.87006693053435
 20
-0.6693798851734409
 30
0.0
 10
30.33094217091552
 20
0.2237659376277764
 30
0.0
 10
28.8007408046991
 20
1.099496549383355
 30
0.0
 10
27.27940507320171
 20
1.915000394950965
 30
0.0
 10
25.76687526688552
 20
2.632228804927638
 30
0.0
 10
24.25433633959473
 20
3.221807009664391
 30
0.0
 10
22.71516634733668
 20
3.662209838242575
 30
0.0
 10
21.14914411065845
 20
3.924694952791201
 30
0.0
 10
19.55628942934124
 20
3.970346392539648
 30
0.0
 10
18.23456004478012
 20
3.863317151100034
 30
0.0
 10
17.44378732790195
 20
3.669530778570221
 30
0.0
 10
17.18394484393791
 20
3.605853907426618
 30
0.0
  0
SPLINE
  5
DA
330
1F
100
AcDbEntity
  8
0
  6
Continuous
 62
     1
370
    15
100
AcDbSpline
210
0.0
220
0.0
230
1.0
 70
     8
 71
     3
 72
    24
 73
    20
 74
     0
 42
0.000000001
 43
0.00000001
 40
0.0
 40
0.0
 40
0.0
 40
0.0
 40
0.0504005223308092
 40
0.1135779769359684
 40
0.1767638062642685
 40
0.2399400297338865
 40
0.3031059262476936
 40
0.3651355172820356
 40
0.4271561180787343
 40
0.4891713502762703
 40
0.5511848475818373
 40
0.6143296906336446
 40
0.6774777750539636
 40
0.7406310704411054
 40
0.8037915385859111
 40
0.8669611305515339
 40
0.9290217311435932
 40
0.9910808353342515
 40
1.0
 40
1.0
 40
1.0
 40
1.0
 10
23.0532137663924
 20
3.93180814903835
 30
0.0
 10
23.46268006853463
 20
3.926026980310637
 30
0.0
 10
24.38541562900198
 20
3.912999070716579
 30
0.0
 10
25.8215453658254
 20
3.657459393739479
 30
0.0
 10
27.36153577035267
 20
3.222078327076797
 30
0.0
 10
28.90135424883065
 20
2.618713701498387
 30
0.0
 10
30.431747403437
 20
1.889510993915244
 30
0.0
 10
31.95265714641325
 20
1.071114011460498
 30
0.0
 10
33.46418247281248
 20
0.2051724329464956
 30
0.0
 10
34.97555402577095
 20
-0.6716566381852713
 30
0.0
 10
36.496029880254
 20
-1.522258611963799
 30
0.0
 10
38.02579560491772
 20
-2.304386526554495
 30
0.0
 10
39.56481464923327
 20
-2.977130290628338
 30
0.0
 10
41.1039915607813
 20
-3.502608412151732
 30
0.0
 10
42.64337806204712
 20
-3.853032400552669
 30
0.0
 10
44.173926422419
 20
-4.015655538780972
 30
0.0
 10
45.69559992489714
 20
-3.965288286192693
 30
0.0
 10
46.77652234954799
 20
-3.837667141442611
 30
0.0
 10
47.35316311679806
 20
-3.679905198331603
 30
0.0
 10
47.42562408321714
 20
-3.660080753874636
 30
0.0
  0
SPLINE
  5
DB
330
1F
100
AcDbEntity
  8
외형선
  6
Continuous
370
    15
100
AcDbSpline
210
0.0
220
0.0
230
1.0
 70
    24
 71
     3
 72
    10
 73
     6
 74
     0
 42
0.000000001
 43
0.00000001
 40
0.0
 40
0.0
 40
0.0
 40
0.0
 40
0.2206755221248753
 40
0.8932814447708826
 40
1.0
 40
1.0
 40
1.0
 40
1.0
 10
9.999999999999993
 20
-1.103600511521734
 30
0.0
 10
10.0
 20
-1.099677301912987
 30
0.0
 10
10.00000000000004
 20
-1.083796381756114
 30
0.0
 10
10.00000000000007
 20
-1.186754677367397
 30
0.0
 10
10.0
 20
-1.286909676316458
 30
0.0
 10
9.999999999999993
 20
-1.300624627008062
 30
0.0
  0
SPLINE
  5
DC
330
1F
100
AcDbEntity
  8
0
  6
Continuous
 62
     1
370
    15
100
AcDbSpline
210
0.0
220
0.0
230
1.0
 70
     8
 71
     3
 72
    23
 73
    19
 74
     0
 42
0.000000001
 43
0.00000001
 40
0.0
 40
0.0
 40
0.0
 40
0.0
 40
0.0613645233362745
 40
0.1245660059105588
 40
0.1877774841251439
 40
0.2509999044194224
 40
0.3142165848737022
 40
0.3762959605156058
 40
0.4383625713770423
 40
0.500420019914209
 40
0.5624719291440374
 40
0.625652678664482
 40
0.6888341380571114
 40
0.7520182837821515
 40
0.8152070882691229
 40
0.8784025169646449
 40
0.9404823850475343
 40
0.9999999999999999
 40
0.9999999999999999
 40
0.9999999999999999
 40
0.9999999999999999
 10
50.18761381792946
 20
-3.986892555538631
 30
0.0
 10
49.68938305827831
 20
-3.969906609721987
 30
0.0
 10
48.67800690187234
 20
-3.935426240414831
 30
0.0
 10
47.15335607572926
 20
-3.636885852462299
 30
0.0
 10
45.61357939726381
 20
-3.170084645684555
 30
0.0
 10
44.07359989657701
 20
-2.541954175222482
 30
0.0
 10
42.54285238606388
 20
-1.793428312959112
 30
0.0
 10
41.02157694495233
 20
-0.9627026967379976
 30
0.0
 10
39.50977567591605
 20
-0.091698360162733
 30
0.0
 10
37.99823680610261
 20
0.782674621566931
 30
0.0
 10
36.47770094469422
 20
1.623393005501099
 30
0.0
 10
34.94796768489778
 20
2.388478811194078
 30
0.0
 10
33.40905976131592
 20
3.037938986266859
 30
0.0
 10
31.87006691879075
 20
3.534405018091789
 30
0.0
 10
30.33094222979754
 20
3.85439528146904
 30
0.0
 10
28.80074058255369
 20
3.976295854387027
 30
0.0
 10
27.30034333411174
 20
3.916870940102305
 30
0.0
 10
26.31297370860477
 20
3.723098401373691
 30
0.0
 10
25.82969162315571
 20
3.628253680409703
 30
0.0
  0
LINE
  5
DD
330
1F
100
AcDbEntity
  8
0
  6
Continuous
 62
     1
370
    15
100
AcDbLine
 10
63.97500000000001
 20
3.918859932421612
 30
0.0
 11
63.97500000000001
 21
3.947821683520022
 31
0.0
  0
LINE
  5
DE
330
1F
100
AcDbEntity
  8
중심선
 62
     1
100
AcDbLine
 10
-40.625
 20
-0.0000000000000006
 30
0.0
 11
66.97500000000001
 21
-0.0000000000000006
 31
0.0
  0
LINE
  5
DF
330
1F
100
AcDbEntity
  8
참조1
100
AcDbLine
 10
15.17448663244379
 20
-2.498925071276081
 30
0.0
 11
15.1744866324438
 21
-39.9989250712761
 31
0.0
  0
LINE
  5
E0
330
1F
100
AcDbEntity
  8
참조1
100
AcDbLine
 10
15.1744866324438
 20
-39.9989250712761
 30
0.0
 11
0.0161431856913457
 21
-39.9989250712761
 31
0.0
  0
CIRCLE
  5
E1
330
1F
100
AcDbEntity
  8
해칭선
100
AcDbCircle
 10
0.0
 20
0.0
 30
0.0
 40
3.000000000000001
  0
INSERT
  5
E2
330
1F
100
AcDbEntity
  8
0
  6
Continuous
 62
     7
100
AcDbBlockReference
 66
     1
  2
블럭10
 10
-0.765786299681416
 20
-52.04717430164393
 30
0.0
  0
ATTRIB
  5
E3
330
E2
100
AcDbEntity
  8
FORMAT
 62
     2
100
AcDbText
 10
-9.947081588422696
 20
-49.97180738881174
 30
0.0
 40
4.233333333333333
  1
E5073020 [ 5 FLUTE ]
 41
0.75
  7
SLDTEXTSTYLE0
 11
-9.947081588422696
 21
-52.08847405547841
 31
0.0
100
AcDbAttribute
  2
AUTOATTR0
 70
     0
 74
     1
  0
SEQEND
  5
E4
330
E2
100
AcDbEntity
  8
0
  6
Continuous
 62
     7
  0
HATCH
  5
E5
330
1F
100
AcDbEntity
  8
중심선
100
AcDbHatch
 10
0.0
 20
0.0
 30
0.0
210
0.0
220
0.0
230
1.0
  2
SOLID
 70
     1
 71
     0
 91
        1
 92
        0
 93
        4
 72
     1
 10
4.949123004699433
 20
-35.79999999999999
 11
1.502847760862151
 21
-35.79999999999999
 72
     1
 10
1.502847760862151
 20
-35.79999999999999
 11
-0.6253820983418716
 21
-38.33632558057259
 72
     1
 10
-0.6253820983418719
 20
-38.33632558057259
 11
2.82092623060856
 21
-38.3362861512701
 72
     1
 10
2.82092623060856
 20
-38.3362861512701
 11
4.949123004699433
 21
-35.79999999999999
 97
        0
 75
     0
 76
     1
 98
        1
 10
-2.000000000000004
 20
-0.0010749287238898
  0
HATCH
  5
E6
330
1F
100
AcDbEntity
  8
중심선
100
AcDbHatch
 10
0.0
 20
0.0
 30
0.0
210
0.0
220
0.0
230
1.0
  2
SOLID
 70
     1
 71
     0
 91
        1
 92
        0
 93
        4
 72
     1
 10
9.961886995735384
 20
-35.79999999999999
 11
6.515611751898103
 21
-35.79999999999999
 72
     1
 10
6.515611751898103
 20
-35.79999999999999
 11
1.984473743540714
 21
-41.20000000000001
 72
     1
 10
1.984473743540714
 20
-41.20000000000001
 11
5.430748987377996
 21
-41.20000000000001
 72
     1
 10
5.430748987377996
 20
-41.20000000000001
 11
9.961886995735384
 21
-35.79999999999999
 97
        0
 75
     0
 76
     1
 98
        1
 10
-2.000000000000004
 20
-0.0010749287238898
  0
HATCH
  5
E7
330
1F
100
AcDbEntity
  8
중심선
100
AcDbHatch
 10
0.0
 20
0.0
 30
0.0
210
0.0
220
0.0
230
1.0
  2
SOLID
 70
     1
 71
     0
 91
        1
 92
        0
 93
        4
 72
     1
 10
14.97465098677128
 20
-35.80000000000002
 11
11.52837574293416
 21
-35.79999999999999
 72
     1
 10
11.52837574293416
 20
-35.79999999999999
 11
4.479938841044915
 21
-44.20000000000001
 72
     1
 10
4.479938841044915
 20
-44.20000000000001
 11
7.926214084882197
 21
-44.20000000000001
 72
     1
 10
7.926214084882197
 20
-44.20000000000001
 11
14.97465098677128
 21
-35.80000000000002
 97
        0
 75
     0
 76
     1
 98
        1
 10
-2.000000000000004
 20
-0.0010749287238898
  0
HATCH
  5
E8
330
1F
100
AcDbEntity
  8
중심선
100
AcDbHatch
 10
0.0
 20
0.0
 30
0.0
210
0.0
220
0.0
230
1.0
  2
SOLID
 70
     1
 71
     0
 91
        1
 92
        0
 93
        6
 72
     3
 10
19.77454141778348
 20
-40.00000000005127
 11
3.960054785062283
 21
1.540882976769353E-10
 40
0.3939339440162628
 50
17.09539180608437
 51
320.0019657685081
 73
     0
 72
     1
 10
21.45754107348408
 20
-38.58789400463829
 11
23.76284294718511
 21
-36.65356729459037
 72
     3
 10
19.77454141773063
 20
-40.00000000000014
 11
6.600054785286829
 21
-1.278976924368180E-13
 40
0.636358354079598
 50
39.99873849337408
 51
368.4976242363725
 73
     1
 72
     1
 10
26.19987390963124
 20
-39.03999999993002
 11
18.45460872456655
 21
-39.03999999992999
 72
     1
 10
18.45460872456655
 20
-39.03999999992999
 11
18.45458368012062
 21
-40.95999999992991
 72
     1
 10
18.45458368012062
 20
-40.95999999992991
 11
22.89596344959266
 21
-40.95999999992988
 97
        0
 75
     0
 76
     1
 98
        1
 10
-2.000000000000004
 20
-0.0010749287238898
  0
DIMENSION
  5
E9
330
1F
100
AcDbEntity
  8
치수문자_일반주서
100
AcDbDimension
  2
_D
 10
-47.97069522555027
 20
-3.989678316480017
 30
0.0
 11
-47.97069522555038
 21
24.55182168351997
 31
0.0
 70
   160
  1
%%c<>
 71
     2
 42
7.937499999999986
 52
-270.0
  3
SLDDIMSTYLE0
100
AcDbAlignedDimension
 13
-36.83124999999998
 23
3.947821683520012
 33
0.0
 14
-36.83124999999998
 24
-3.989678316479974
 34
0.0
 50
90.0000000000002
100
AcDbRotatedDimension
1001
ACAD
1000
DSTYLE
1002
{
1070
   171
1070
     6
1070
   273
1070
     5
1002
}
  0
DIMENSION
  5
FE
330
1F
100
AcDbEntity
  8
치수문자_일반주서
100
AcDbDimension
  2
_D_1
 10
77.32699845957607
 20
-3.989678316479935
 30
0.0
 11
77.32699845957598
 21
24.55182168352007
 31
0.0
 70
   160
  1
%%c<>
 71
     2
 42
7.937500000000007
 52
-270.0
  3
SLDDIMSTYLE0
100
AcDbAlignedDimension
 13
63.97500000000001
 23
3.947821683520022
 33
0.0
 14
63.97500000000001
 24
-3.989678316479984
 34
0.0
 50
90.0000000000002
100
AcDbRotatedDimension
1001
ACAD
1000
DSTYLE
1002
{
1070
   171
1070
     6
1070
   273
1070
     5
1002
}
  0
DIMENSION
  5
112
330
1F
100
AcDbEntity
  8
치수문자_일반주서
100
AcDbDimension
  2
_D_2
 10
9.999999999999993
 20
14.61930875738055
 30
0.0
 11
36.98750000000001
 21
14.61930875738055
 31
0.0
 70
   160
  1
<>
 71
     2
 42
53.97500000000002
  3
SLDDIMSTYLE0
100
AcDbAlignedDimension
 13
63.97500000000001
 23
3.918859932421612
 33
0.0
 14
9.999999999999993
 24
3.875451023301527
 34
0.0
 50
0.0000000000000038
100
AcDbRotatedDimension
1001
ACAD
1000
DSTYLE
1002
{
1070
   171
1070
     6
1070
   273
1070
     5
1002
}
  0
DIMENSION
  5
125
330
1F
100
AcDbEntity
  8
치수문자_일반주서
100
AcDbDimension
  2
_D_3
 10
-37.625
 20
26.61930875738055
 30
0.0
 11
12.264276249493
 21
26.61930875738055
 31
0.0
 70
   160
  1
<>
 71
     2
 42
101.6
  3
SLDDIMSTYLE0
100
AcDbAlignedDimension
 13
63.97500000000001
 23
3.918859932421612
 33
0.0
 14
-37.625
 24
3.154071683520021
 34
0.0
 50
0.000000000000004
100
AcDbRotatedDimension
1001
ACAD
1000
DSTYLE
1002
{
1070
   171
1070
     6
1070
   273
1070
     5
1002
}
  0
LINE
  5
139
330
1F
100
AcDbEntity
  8
참조1
100
AcDbLine
 10
97.98848381534562
 20
7.441074928723896
 30
0.0
 11
97.98848381534562
 21
-7.438925071276109
 31
0.0
  0
LINE
  5
13A
330
1F
100
AcDbEntity
  8
참조1
100
AcDbLine
 10
110.6884838153456
 20
5.441074928723896
 30
0.0
 11
97.98848381534562
 21
5.441074928723896
 31
0.0
  0
SOLID
  5
13B
330
1F
100
AcDbEntity
  8
참조1
100
AcDbTrace
 10
97.98848381534562
 20
5.441074928723896
 30
0.0
 11
104.3384838153456
 21
4.425074928723896
 31
0.0
 12
104.3384838153456
 22
6.457074928723896
 32
0.0
 13
104.3384838153456
 23
6.457074928723896
 33
0.0
  0
LINE
  5
13C
330
1F
100
AcDbEntity
  8
참조1
100
AcDbLine
 10
110.6884838153456
 20
-5.438925071276109
 30
0.0
 11
97.98848381534562
 21
-5.438925071276109
 31
0.0
  0
SOLID
  5
13D
330
1F
100
AcDbEntity
  8
참조1
100
AcDbTrace
 10
97.98848381534562
 20
-5.438925071276109
 30
0.0
 11
104.3384838153456
 21
-6.454925071276109
 31
0.0
 12
104.3384838153456
 22
-4.422925071276109
 32
0.0
 13
104.3384838153456
 23
-4.422925071276109
 33
0.0
  0
MTEXT
  5
13E
330
1F
100
AcDbEntity
  8
참조1
100
AcDbMText
 10
107.5885986259082
 20
11.06679249473997
 30
0.0
 40
3.5
 41
0.0
 71
     1
 72
     1
  1
A
  7
SLDTEXTSTYLE0
 73
     1
 44
1.0
  0
MTEXT
  5
13F
330
1F
100
AcDbEntity
  8
참조1
100
AcDbMText
 10
107.5885986259082
 20
0.1867924947399659
 30
0.0
 40
3.5
 41
0.0
 71
     1
 72
     1
  1
A
  7
SLDTEXTSTYLE0
 73
     1
 44
1.0
  0
INSERT
  5
146
330
1F
100
AcDbEntity
  8
해칭선
100
AcDbBlockReference
  2
SW_DOWELSYMBOL_0
 10
0.0
 20
0.0
 30
0.0
  0
ENDSEC
  0
SECTION
  2
OBJECTS
  0
DICTIONARY
  5
C
330
0
100
AcDbDictionary
281
     1
  3
ACAD_GROUP
350
D
  3
ACAD_IMAGE_VARS
350
16A
  3
ACAD_LAYOUT
350
1A
  3
ACAD_MLINESTYLE
350
17
  3
ACAD_PLOTSETTINGS
350
19
  3
ACAD_PLOTSTYLENAME
350
E
  3
ACAD_SCALELIST
350
47
  3
APPDATA
350
168
  3
DWGPROPS
350
2E1
  0
DICTIONARY
  5
224
330
2
100
AcDbDictionary
280
     1
281
     1
  3
ACAD_LAYERSTATES
360
225
  0
DICTIONARY
  5
D
102
{ACAD_REACTORS
330
C
102
}
330
C
100
AcDbDictionary
281
     1
  0
RASTERVARIABLES
  5
16A
102
{ACAD_REACTORS
330
C
102
}
330
C
100
AcDbRasterVariables
 90
        0
 70
     1
 71
     1
 72
     1
  0
DICTIONARY
  5
1A
102
{ACAD_REACTORS
330
C
102
}
330
C
100
AcDbDictionary
281
     1
  3
Layout1
350
1E
  3
Layout2
350
26
  3
Model
350
22
  0
DICTIONARY
  5
17
102
{ACAD_REACTORS
330
C
102
}
330
C
100
AcDbDictionary
281
     1
  3
Standard
350
18
  0
DICTIONARY
  5
19
102
{ACAD_REACTORS
330
C
102
}
330
C
100
AcDbDictionary
281
     1
  0
ACDBDICTIONARYWDFLT
  5
E
102
{ACAD_REACTORS
330
C
102
}
330
C
100
AcDbDictionary
281
     1
  3
Normal
350
F
100
AcDbDictionaryWithDefault
340
F
  0
DICTIONARY
  5
47
102
{ACAD_REACTORS
330
C
102
}
330
C
100
AcDbDictionary
281
     1
  3
A0
350
48
  3
A1
350
49
  3
A2
350
4A
  3
A3
350
4B
  3
A4
350
4C
  3
A5
350
4D
  3
A6
350
4E
  3
A7
350
4F
  3
A8
350
50
  3
A9
350
51
  3
B0
350
52
  3
B1
350
53
  3
B2
350
54
  3
B3
350
55
  3
B4
350
56
  3
B5
350
57
  3
B6
350
58
  3
B7
350
59
  3
B8
350
5A
  3
B9
350
5B
  3
C0
350
5C
  3
C1
350
5D
  3
C2
350
5E
  3
C3
350
5F
  3
C4
350
60
  3
C5
350
61
  3
C6
350
62
  3
C7
350
63
  3
C8
350
64
  3
C9
350
65
  3
D0
350
66
  3
D1
350
67
  3
D2
350
68
  0
DICTIONARY
  5
168
102
{ACAD_REACTORS
330
C
102
}
330
C
100
AcDbDictionary
281
     1
  0
XRECORD
  5
2E1
102
{ACAD_REACTORS
330
C
102
}
330
C
100
AcDbXrecord
280
     1
  1
DWGPROPS COOKIE
  2

  3

  4

  6

  7

  8
12014074
  9

300
=
301
=
302
=
303
=
304
=
305
=
306
=
307
=
308
=
309
=
 40
0.0
 41
2458323.965700544
 42
2458324.196102488
  1

 90
        0
  0
DICTIONARY
  5
225
102
{ACAD_REACTORS
330
224
102
}
330
224
100
AcDbDictionary
281
     1
  0
LAYOUT
  5
1E
102
{ACAD_REACTORS
330
1A
102
}
330
1A
100
AcDbPlotSettings
  1

  2
none_device
  4

  6

 40
0.0
 41
0.0
 42
0.0
 43
0.0
 44
0.0
 45
0.0
 46
0.0
 47
0.0
 48
0.0
 49
0.0
140
0.0
141
0.0
142
1.0
143
1.0
 70
   688
 72
     1
 73
     0
 74
     5
  7

 75
    16
147
1.0
148
0.0
149
0.0
100
AcDbLayout
  1
Layout1
 70
     1
 71
     1
 10
0.0
 20
0.0
 11
420.0
 21
297.0
 12
0.0
 22
0.0
 32
0.0
 14
1.000000000000000E+20
 24
1.000000000000000E+20
 34
1.000000000000000E+20
 15
-1.000000000000000E+20
 25
-1.000000000000000E+20
 35
-1.000000000000000E+20
146
0.0
 13
0.0
 23
0.0
 33
0.0
 16
1.0
 26
0.0
 36
0.0
 17
0.0
 27
1.0
 37
0.0
 76
     0
330
1B
  0
LAYOUT
  5
26
102
{ACAD_REACTORS
330
1A
102
}
330
1A
100
AcDbPlotSettings
  1

  2
none_device
  4

  6

 40
0.0
 41
0.0
 42
0.0
 43
0.0
 44
0.0
 45
0.0
 46
0.0
 47
0.0
 48
0.0
 49
0.0
140
0.0
141
0.0
142
1.0
143
1.0
 70
   688
 72
     1
 73
     0
 74
     5
  7

 75
    16
147
1.0
148
0.0
149
0.0
100
AcDbLayout
  1
Layout2
 70
     1
 71
     2
 10
0.0
 20
0.0
 11
0.0
 21
0.0
 12
0.0
 22
0.0
 32
0.0
 14
0.0
 24
0.0
 34
0.0
 15
0.0
 25
0.0
 35
0.0
146
0.0
 13
0.0
 23
0.0
 33
0.0
 16
1.0
 26
0.0
 36
0.0
 17
0.0
 27
1.0
 37
0.0
 76
     0
330
23
  0
LAYOUT
  5
22
102
{ACAD_REACTORS
330
1A
102
}
330
1A
100
AcDbPlotSettings
  1

  2
none_device
  4
ANSI_A_(11.00_x_8.50_Inches)
  6

 40
6.35
 41
19.05
 42
6.35000508
 43
19.05000254
 44
279.4
 45
215.9
 46
91.66503135077197
 47
99.71457380020874
 48
0.0
 49
0.0
140
0.0
141
0.0
142
0.0640187682923045
143
1.0
 70
  1696
 72
     0
 73
     0
 74
     0
  7

 75
     0
147
0.0235690232323232
148
0.0
149
0.0
100
AcDbLayout
  1
Model
 70
     1
 71
     0
 10
0.0
 20
0.0
 11
420.0
 21
297.0
 12
0.0
 22
0.0
 32
0.0
 14
1.000000000000000E+20
 24
1.000000000000000E+20
 34
1.000000000000000E+20
 15
-1.000000000000000E+20
 25
-1.000000000000000E+20
 35
-1.000000000000000E+20
146
0.0
 13
0.0
 23
0.0
 33
0.0
 16
1.0
 26
0.0
 36
0.0
 17
0.0
 27
1.0
 37
0.0
 76
     0
330
1F
331
29
  0
MLINESTYLE
  5
18
102
{ACAD_REACTORS
330
17
102
}
330
17
100
AcDbMlineStyle
  2
Standard
 70
     0
  3

 62
   256
 51
90.0
 52
90.0
 71
     2
 49
0.5
 62
   256
  6
BYLAYER
 49
-0.5
 62
   256
  6
BYLAYER
  0
ACDBPLACEHOLDER
  5
F
102
{ACAD_REACTORS
330
E
102
}
330
E
  0
SCALE
  5
48
102
{ACAD_REACTORS
330
47
102
}
330
47
100
AcDbScale
 70
     0
300
1:1
140
1.0
141
1.0
290
     1
  0
SCALE
  5
49
102
{ACAD_REACTORS
330
47
102
}
330
47
100
AcDbScale
 70
     0
300
1:2
140
1.0
141
2.0
290
     0
  0
SCALE
  5
4A
102
{ACAD_REACTORS
330
47
102
}
330
47
100
AcDbScale
 70
     0
300
1:4
140
1.0
141
4.0
290
     0
  0
SCALE
  5
4B
102
{ACAD_REACTORS
330
47
102
}
330
47
100
AcDbScale
 70
     0
300
1:5
140
1.0
141
5.0
290
     0
  0
SCALE
  5
4C
102
{ACAD_REACTORS
330
47
102
}
330
47
100
AcDbScale
 70
     0
300
1:8
140
1.0
141
8.0
290
     0
  0
SCALE
  5
4D
102
{ACAD_REACTORS
330
47
102
}
330
47
100
AcDbScale
 70
     0
300
1:10
140
1.0
141
10.0
290
     0
  0
SCALE
  5
4E
102
{ACAD_REACTORS
330
47
102
}
330
47
100
AcDbScale
 70
     0
300
1:16
140
1.0
141
16.0
290
     0
  0
SCALE
  5
4F
102
{ACAD_REACTORS
330
47
102
}
330
47
100
AcDbScale
 70
     0
300
1:20
140
1.0
141
20.0
290
     0
  0
SCALE
  5
50
102
{ACAD_REACTORS
330
47
102
}
330
47
100
AcDbScale
 70
     0
300
1:30
140
1.0
141
30.0
290
     0
  0
SCALE
  5
51
102
{ACAD_REACTORS
330
47
102
}
330
47
100
AcDbScale
 70
     0
300
1:40
140
1.0
141
40.0
290
     0
  0
SCALE
  5
52
102
{ACAD_REACTORS
330
47
102
}
330
47
100
AcDbScale
 70
     0
300
1:50
140
1.0
141
50.0
290
     0
  0
SCALE
  5
53
102
{ACAD_REACTORS
330
47
102
}
330
47
100
AcDbScale
 70
     0
300
1:100
140
1.0
141
100.0
290
     0
  0
SCALE
  5
54
102
{ACAD_REACTORS
330
47
102
}
330
47
100
AcDbScale
 70
     0
300
2:1
140
2.0
141
1.0
290
     0
  0
SCALE
  5
55
102
{ACAD_REACTORS
330
47
102
}
330
47
100
AcDbScale
 70
     0
300
4:1
140
4.0
141
1.0
290
     0
  0
SCALE
  5
56
102
{ACAD_REACTORS
330
47
102
}
330
47
100
AcDbScale
 70
     0
300
8:1
140
8.0
141
1.0
290
     0
  0
SCALE
  5
57
102
{ACAD_REACTORS
330
47
102
}
330
47
100
AcDbScale
 70
     0
300
10:1
140
10.0
141
1.0
290
     0
  0
SCALE
  5
58
102
{ACAD_REACTORS
330
47
102
}
330
47
100
AcDbScale
 70
     0
300
100:1
140
100.0
141
1.0
290
     0
  0
SCALE
  5
59
102
{ACAD_REACTORS
330
47
102
}
330
47
100
AcDbScale
 70
     0
300
1/128" = 1'-0"
140
0.0078125
141
12.0
290
     0
  0
SCALE
  5
5A
102
{ACAD_REACTORS
330
47
102
}
330
47
100
AcDbScale
 70
     0
300
1/64" = 1'-0"
140
0.015625
141
12.0
290
     0
  0
SCALE
  5
5B
102
{ACAD_REACTORS
330
47
102
}
330
47
100
AcDbScale
 70
     0
300
1/32" = 1'-0"
140
0.03125
141
12.0
290
     0
  0
SCALE
  5
5C
102
{ACAD_REACTORS
330
47
102
}
330
47
100
AcDbScale
 70
     0
300
1/16" = 1'-0"
140
0.0625
141
12.0
290
     0
  0
SCALE
  5
5D
102
{ACAD_REACTORS
330
47
102
}
330
47
100
AcDbScale
 70
     0
300
3/32" = 1'-0"
140
0.09375
141
12.0
290
     0
  0
SCALE
  5
5E
102
{ACAD_REACTORS
330
47
102
}
330
47
100
AcDbScale
 70
     0
300
1/8" = 1'-0"
140
0.125
141
12.0
290
     0
  0
SCALE
  5
5F
102
{ACAD_REACTORS
330
47
102
}
330
47
100
AcDbScale
 70
     0
300
3/16" = 1'-0"
140
0.1875
141
12.0
290
     0
  0
SCALE
  5
60
102
{ACAD_REACTORS
330
47
102
}
330
47
100
AcDbScale
 70
     0
300
1/4" = 1'-0"
140
0.25
141
12.0
290
     0
  0
SCALE
  5
61
102
{ACAD_REACTORS
330
47
102
}
330
47
100
AcDbScale
 70
     0
300
3/8" = 1'-0"
140
0.375
141
12.0
290
     0
  0
SCALE
  5
62
102
{ACAD_REACTORS
330
47
102
}
330
47
100
AcDbScale
 70
     0
300
1/2" = 1'-0"
140
0.5
141
12.0
290
     0
  0
SCALE
  5
63
102
{ACAD_REACTORS
330
47
102
}
330
47
100
AcDbScale
 70
     0
300
3/4" = 1'-0"
140
0.75
141
12.0
290
     0
  0
SCALE
  5
64
102
{ACAD_REACTORS
330
47
102
}
330
47
100
AcDbScale
 70
     0
300
1" = 1'-0"
140
1.0
141
12.0
290
     0
  0
SCALE
  5
65
102
{ACAD_REACTORS
330
47
102
}
330
47
100
AcDbScale
 70
     0
300
1-1/2" = 1'-0"
140
1.5
141
12.0
290
     0
  0
SCALE
  5
66
102
{ACAD_REACTORS
330
47
102
}
330
47
100
AcDbScale
 70
     0
300
3" = 1'-0"
140
3.0
141
12.0
290
     0
  0
SCALE
  5
67
102
{ACAD_REACTORS
330
47
102
}
330
47
100
AcDbScale
 70
     0
300
6" = 1'-0"
140
6.0
141
12.0
290
     0
  0
SCALE
  5
68
102
{ACAD_REACTORS
330
47
102
}
330
47
100
AcDbScale
 70
     0
300
1'-0" = 1'-0"
140
12.0
141
12.0
290
     0
  0
ENDSEC
  0
EOF
