  0
SECTION
  2
HEADER
  9
$ACADVER
  1
AC1015
  9
$ACADMAINTVER
 70
     6
  9
$DWGCODEPAGE
  3
ANSI_949
  9
$INSBASE
 10
0.0
 20
0.0
 30
0.0
  9
$EXTMIN
 10
1.000000000000000E+20
 20
1.000000000000000E+20
 30
1.000000000000000E+20
  9
$EXTMAX
 10
-1.000000000000000E+20
 20
-1.000000000000000E+20
 30
-1.000000000000000E+20
  9
$LIMMIN
 10
0.0
 20
0.0
  9
$LIMMAX
 10
420.0
 20
297.0
  9
$ORTHOMODE
 70
     0
  9
$REGENMODE
 70
     1
  9
$FILLMODE
 70
     1
  9
$QTEXTMODE
 70
     0
  9
$MIRRTEXT
 70
     1
  9
$LTSCALE
 40
1.0
  9
$ATTMODE
 70
     1
  9
$TEXTSIZE
 40
3.5
  9
$TRACEWID
 40
1.0
  9
$TEXTSTYLE
  7
Standard
  9
$CLAYER
  8
0
  9
$CELTYPE
  6
ByLayer
  9
$CECOLOR
 62
   256
  9
$CELTSCALE
 40
1.0
  9
$DISPSILH
 70
     0
  9
$DIMSCALE
 40
1.0
  9
$DIMASZ
 40
3.302
  9
$DIMEXO
 40
1.0
  9
$DIMDLI
 40
3.75
  9
$DIMRND
 40
0.0
  9
$DIMDLE
 40
0.0
  9
$DIMEXE
 40
1.0
  9
$DIMTP
 40
0.0
  9
$DIMTM
 40
0.0
  9
$DIMTXT
 40
3.5
  9
$DIMCEN
 40
2.5
  9
$DIMTSZ
 40
0.0
  9
$DIMTOL
 70
     0
  9
$DIMLIM
 70
     0
  9
$DIMTIH
 70
     1
  9
$DIMTOH
 70
     1
  9
$DIMSE1
 70
     0
  9
$DIMSE2
 70
     0
  9
$DIMTAD
 70
     1
  9
$DIMZIN
 70
     0
  9
$DIMBLK
  1

  9
$DIMASO
 70
     1
  9
$DIMSHO
 70
     1
  9
$DIMPOST
  1

  9
$DIMAPOST
  1

  9
$DIMALT
 70
     0
  9
$DIMALTD
 70
     3
  9
$DIMALTF
 40
0.0393700787401575
  9
$DIMLFAC
 40
1.0
  9
$DIMTOFL
 70
     1
  9
$DIMTVP
 40
0.0
  9
$DIMTIX
 70
     0
  9
$DIMSOXD
 70
     0
  9
$DIMSAH
 70
     0
  9
$DIMBLK1
  1

  9
$DIMBLK2
  1

  9
$DIMSTYLE
  2
ISO-25
  9
$DIMCLRD
 70
     0
  9
$DIMCLRE
 70
     0
  9
$DIMCLRT
 70
     0
  9
$DIMTFAC
 40
1.0
  9
$DIMGAP
 40
1.524
  9
$DIMJUST
 70
     0
  9
$DIMSD1
 70
     0
  9
$DIMSD2
 70
     0
  9
$DIMTOLJ
 70
     0
  9
$DIMTZIN
 70
     0
  9
$DIMALTZ
 70
     0
  9
$DIMALTTZ
 70
     0
  9
$DIMUPT
 70
     0
  9
$DIMDEC
 70
     2
  9
$DIMTDEC
 70
     2
  9
$DIMALTU
 70
     2
  9
$DIMALTTD
 70
     3
  9
$DIMTXSTY
  7
Standard
  9
$DIMAUNIT
 70
     0
  9
$DIMADEC
 70
     2
  9
$DIMALTRND
 40
0.0
  9
$DIMAZIN
 70
     0
  9
$DIMDSEP
 70
    44
  9
$DIMATFIT
 70
     3
  9
$DIMFRAC
 70
     0
  9
$DIMLDRBLK
  1

  9
$DIMLUNIT
 70
     2
  9
$DIMLWD
 70
    -2
  9
$DIMLWE
 70
    -2
  9
$DIMTMOVE
 70
     0
  9
$LUNITS
 70
     2
  9
$LUPREC
 70
     2
  9
$SKETCHINC
 40
1.0
  9
$FILLETRAD
 40
10.0
  9
$AUNITS
 70
     0
  9
$AUPREC
 70
     2
  9
$MENU
  1
.
  9
$ELEVATION
 40
0.0
  9
$PELEVATION
 40
0.0
  9
$THICKNESS
 40
0.0
  9
$LIMCHECK
 70
     0
  9
$CHAMFERA
 40
0.0
  9
$CHAMFERB
 40
0.0
  9
$CHAMFERC
 40
0.0
  9
$CHAMFERD
 40
0.0
  9
$SKPOLY
 70
     0
  9
$TDCREATE
 40
2458324.340911412
  9
$TDUCREATE
 40
2458323.965911412
  9
$TDUPDATE
 40
2458324.572417407
  9
$TDUUPDATE
 40
2458324.197417407
  9
$TDINDWG
 40
0.0012651736
  9
$TDUSRTIMER
 40
2458324.196152384
  9
$USRTIMER
 70
     1
  9
$ANGBASE
 50
0.0
  9
$ANGDIR
 70
     0
  9
$PDMODE
 70
     0
  9
$PDSIZE
 40
-1.0
  9
$PLINEWID
 40
0.0
  9
$SPLFRAME
 70
     0
  9
$SPLINETYPE
 70
     6
  9
$SPLINESEGS
 70
     8
  9
$HANDSEED
  5
2E0
  9
$SURFTAB1
 70
     6
  9
$SURFTAB2
 70
     6
  9
$SURFTYPE
 70
     6
  9
$SURFU
 70
     6
  9
$SURFV
 70
     6
  9
$UCSBASE
  2

  9
$UCSNAME
  2

  9
$UCSORG
 10
0.0
 20
0.0
 30
0.0
  9
$UCSXDIR
 10
1.0
 20
0.0
 30
0.0
  9
$UCSYDIR
 10
0.0
 20
1.0
 30
0.0
  9
$UCSORTHOREF
  2

  9
$UCSORTHOVIEW
 70
     0
  9
$UCSORGTOP
 10
0.0
 20
0.0
 30
0.0
  9
$UCSORGBOTTOM
 10
0.0
 20
0.0
 30
0.0
  9
$UCSORGLEFT
 10
0.0
 20
0.0
 30
0.0
  9
$UCSORGRIGHT
 10
0.0
 20
0.0
 30
0.0
  9
$UCSORGFRONT
 10
0.0
 20
0.0
 30
0.0
  9
$UCSORGBACK
 10
0.0
 20
0.0
 30
0.0
  9
$PUCSBASE
  2

  9
$PUCSNAME
  2

  9
$PUCSORG
 10
0.0
 20
0.0
 30
0.0
  9
$PUCSXDIR
 10
1.0
 20
0.0
 30
0.0
  9
$PUCSYDIR
 10
0.0
 20
1.0
 30
0.0
  9
$PUCSORTHOREF
  2

  9
$PUCSORTHOVIEW
 70
     0
  9
$PUCSORGTOP
 10
0.0
 20
0.0
 30
0.0
  9
$PUCSORGBOTTOM
 10
0.0
 20
0.0
 30
0.0
  9
$PUCSORGLEFT
 10
0.0
 20
0.0
 30
0.0
  9
$PUCSORGRIGHT
 10
0.0
 20
0.0
 30
0.0
  9
$PUCSORGFRONT
 10
0.0
 20
0.0
 30
0.0
  9
$PUCSORGBACK
 10
0.0
 20
0.0
 30
0.0
  9
$USERI1
 70
     0
  9
$USERI2
 70
     0
  9
$USERI3
 70
     0
  9
$USERI4
 70
     0
  9
$USERI5
 70
     0
  9
$USERR1
 40
0.0
  9
$USERR2
 40
0.0
  9
$USERR3
 40
0.0
  9
$USERR4
 40
0.0
  9
$USERR5
 40
0.0
  9
$WORLDVIEW
 70
     1
  9
$SHADEDGE
 70
     3
  9
$SHADEDIF
 70
    70
  9
$TILEMODE
 70
     1
  9
$MAXACTVP
 70
    64
  9
$PINSBASE
 10
0.0
 20
0.0
 30
0.0
  9
$PLIMCHECK
 70
     0
  9
$PEXTMIN
 10
1.000000000000000E+20
 20
1.000000000000000E+20
 30
1.000000000000000E+20
  9
$PEXTMAX
 10
-1.000000000000000E+20
 20
-1.000000000000000E+20
 30
-1.000000000000000E+20
  9
$PLIMMIN
 10
0.0
 20
0.0
  9
$PLIMMAX
 10
0.0
 20
0.0
  9
$UNITMODE
 70
     0
  9
$VISRETAIN
 70
     1
  9
$PLINEGEN
 70
     0
  9
$PSLTSCALE
 70
     1
  9
$TREEDEPTH
 70
  3020
  9
$CMLSTYLE
  2
Standard
  9
$CMLJUST
 70
     0
  9
$CMLSCALE
 40
20.0
  9
$PROXYGRAPHICS
 70
     1
  9
$MEASUREMENT
 70
     1
  9
$CELWEIGHT
370
    -1
  9
$ENDCAPS
280
     0
  9
$JOINSTYLE
280
     0
  9
$LWDISPLAY
290
     1
  9
$INSUNITS
 70
     4
  9
$HYPERLINKBASE
  1

  9
$STYLESHEET
  1

  9
$XEDIT
290
     1
  9
$CEPSNTYPE
380
     0
  9
$PSTYLEMODE
290
     1
  9
$FINGERPRINTGUID
  2
{573A298A-95E8-4370-B2CA-1F4D53AAD17B}
  9
$VERSIONGUID
  2
{FAEB1C32-E019-11D5-929B-00C0DF256EC4}
  9
$EXTNAMES
290
     1
  9
$PSVPSCALE
 40
0.0
  9
$OLESTARTUP
290
     0
  0
ENDSEC
  0
SECTION
  2
CLASSES
  0
CLASS
  1
ACDBDICTIONARYWDFLT
  2
AcDbDictionaryWithDefault
  3
ObjectDBX Classes
 90
        0
280
     0
281
     0
  0
CLASS
  1
VISUALSTYLE
  2
AcDbVisualStyle
  3
ObjectDBX Classes
 90
     4095
280
     0
281
     0
  0
CLASS
  1
MATERIAL
  2
AcDbMaterial
  3
ObjectDBX Classes
 90
     1153
280
     0
281
     0
  0
CLASS
  1
SCALE
  2
AcDbScale
  3
ObjectDBX Classes
 90
     1153
280
     0
281
     0
  0
CLASS
  1
SUN
  2
AcDbSun
  3
SCENEOE
 90
     1153
280
     0
281
     0
  0
CLASS
  1
ACDBPLACEHOLDER
  2
AcDbPlaceHolder
  3
ObjectDBX Classes
 90
        0
280
     0
281
     0
  0
CLASS
  1
LAYOUT
  2
AcDbLayout
  3
ObjectDBX Classes
 90
        0
280
     0
281
     0
  0
CLASS
  1
TABLESTYLE
  2
AcDbTableStyle
  3
ObjectDBX Classes
 90
     4095
280
     0
281
     0
  0
CLASS
  1
MLEADERSTYLE
  2
AcDbMLeaderStyle
  3
ACDB_MLEADERSTYLE_CLASS
 90
     4095
280
     0
281
     0
  0
CLASS
  1
RASTERVARIABLES
  2
AcDbRasterVariables
  3
ISM
 90
        0
280
     0
281
     0
  0
ENDSEC
  0
SECTION
  2
TABLES
  0
TABLE
  2
VPORT
  5
8
330
0
100
AcDbSymbolTable
 70
     1
  0
VPORT
  5
29
330
8
100
AcDbSymbolTableRecord
100
AcDbViewportTableRecord
  2
*Active
 70
     0
 10
0.0
 20
0.0
 11
1.0
 21
1.0
 12
5.206753951776491
 22
0.1442325031126952
 13
0.0
 23
0.0
 14
10.0
 24
10.0
 15
10.0
 25
10.0
 16
0.0
 26
0.0
 36
1.0
 17
0.0
 27
0.0
 37
0.0
 40
136.570086343035
 41
1.970186335403727
 42
50.0
 43
0.0
 44
0.0
 50
0.0
 51
0.0
 71
    16
 72
  2000
 73
     1
 74
     3
 75
     0
 76
     0
 77
     0
 78
     0
281
     0
 65
     1
110
0.0
120
0.0
130
0.0
111
1.0
121
0.0
131
0.0
112
0.0
122
1.0
132
0.0
 79
     0
146
0.0
  0
ENDTAB
  0
TABLE
  2
LTYPE
  5
5
330
0
100
AcDbSymbolTable
 70
     6
  0
LTYPE
  5
14
330
5
100
AcDbSymbolTableRecord
100
AcDbLinetypeTableRecord
  2
ByBlock
 70
     0
  3

 72
    65
 73
     0
 40
0.0
  0
LTYPE
  5
15
330
5
100
AcDbSymbolTableRecord
100
AcDbLinetypeTableRecord
  2
ByLayer
 70
     0
  3

 72
    65
 73
     0
 40
0.0
  0
LTYPE
  5
16
330
5
100
AcDbSymbolTableRecord
100
AcDbLinetypeTableRecord
  2
Continuous
 70
     0
  3
Solid line
 72
    65
 73
     0
 40
0.0
  0
LTYPE
  5
6A
330
5
100
AcDbSymbolTableRecord
100
AcDbLinetypeTableRecord
  2
HIDDEN
 70
     0
  3
Hidden __ __ __ __ __ __ __ __ __ __ __ __ __ __
 72
    65
 73
     2
 40
1.905
 49
1.27
 74
     0
 49
-0.635
 74
     0
  0
LTYPE
  5
6B
330
5
100
AcDbSymbolTableRecord
100
AcDbLinetypeTableRecord
  2
PHANTOM
 70
     0
  3
Phantom ______  __  __  ______  __  __  ______
 72
    65
 73
     6
 40
12.7
 49
6.35
 74
     0
 49
-1.27
 74
     0
 49
1.27
 74
     0
 49
-1.27
 74
     0
 49
1.27
 74
     0
 49
-1.27
 74
     0
  0
LTYPE
  5
6C
330
5
100
AcDbSymbolTableRecord
100
AcDbLinetypeTableRecord
  2
CENTER
 70
     0
  3
Center ____ _ ____ _ ____ _ ____ _ ____ _ ____
 72
    65
 73
     4
 40
10.16
 49
6.35
 74
     0
 49
-1.27
 74
     0
 49
1.27
 74
     0
 49
-1.27
 74
     0
  0
LTYPE
  5
6D
330
5
100
AcDbSymbolTableRecord
100
AcDbLinetypeTableRecord
  2
CENTERX2
 70
     0
  3
Center (2x) ________  __  ________  __  _____
 72
    65
 73
     4
 40
20.32
 49
12.7
 74
     0
 49
-2.54
 74
     0
 49
2.54
 74
     0
 49
-2.54
 74
     0
  0
LTYPE
  5
6E
330
5
100
AcDbSymbolTableRecord
100
AcDbLinetypeTableRecord
  2
DOT2
 70
     0
  3
Dot (.5x) ........................................
 72
    65
 73
     2
 40
0.635
 49
0.0
 74
     0
 49
-0.635
 74
     0
  0
ENDTAB
  0
TABLE
  2
LAYER
  5
2
102
{ACAD_XDICTIONARY
360
223
102
}
330
0
100
AcDbSymbolTable
 70
    18
  0
LAYER
  5
10
330
2
100
AcDbSymbolTableRecord
100
AcDbLayerTableRecord
  2
0
 70
     0
 62
     7
  6
Continuous
370
    -3
390
F
  0
LAYER
  5
6F
330
2
100
AcDbSymbolTableRecord
100
AcDbLayerTableRecord
  2
FORMAT
 70
     0
 62
     2
  6
Continuous
370
    -3
390
F
  0
LAYER
  5
70
330
2
100
AcDbSymbolTableRecord
100
AcDbLayerTableRecord
  2
외형선
 70
     0
 62
     4
  6
Continuous
370
    30
390
F
  0
LAYER
  5
71
330
2
100
AcDbSymbolTableRecord
100
AcDbLayerTableRecord
  2
숨은선
 70
     0
 62
     2
  6
HIDDEN
370
    15
390
F
  0
LAYER
  5
72
330
2
100
AcDbSymbolTableRecord
100
AcDbLayerTableRecord
  2
중심선
 70
     0
 62
     1
  6
CENTERX2
370
    -3
390
F
  0
LAYER
  5
73
330
2
100
AcDbSymbolTableRecord
100
AcDbLayerTableRecord
  2
파단선
 70
     0
 62
     4
  6
Continuous
370
    -3
390
F
  0
LAYER
  5
74
330
2
100
AcDbSymbolTableRecord
100
AcDbLayerTableRecord
  2
해칭선
 70
     0
 62
   100
  6
Continuous
370
    -3
390
F
  0
LAYER
  5
75
330
2
100
AcDbSymbolTableRecord
100
AcDbLayerTableRecord
  2
가는실선
 70
     0
 62
     4
  6
Continuous
370
    -3
390
F
  0
LAYER
  5
76
330
2
100
AcDbSymbolTableRecord
100
AcDbLayerTableRecord
  2
치수_보조선
 70
     0
 62
     4
  6
Continuous
370
    -3
390
F
  0
LAYER
  5
77
330
2
100
AcDbSymbolTableRecord
100
AcDbLayerTableRecord
  2
치수문자_일반주서
 70
     0
 62
     7
  6
Continuous
370
    15
390
F
  0
LAYER
  5
78
330
2
100
AcDbSymbolTableRecord
100
AcDbLayerTableRecord
  2
개별주서
 70
     0
 62
   100
  6
Continuous
370
    30
390
F
  0
LAYER
  5
79
330
2
100
AcDbSymbolTableRecord
100
AcDbLayerTableRecord
  2
중간선
 70
     0
 62
     2
  6
Continuous
370
    15
390
F
  0
LAYER
  5
7A
330
2
100
AcDbSymbolTableRecord
100
AcDbLayerTableRecord
  2
윤곽선
 70
     0
 62
     3
  6
Continuous
370
    40
390
F
  0
LAYER
  5
7B
330
2
100
AcDbSymbolTableRecord
100
AcDbLayerTableRecord
  2
중심마크
 70
     0
 62
   100
  6
Continuous
370
    30
390
F
  0
LAYER
  5
7C
330
2
100
AcDbSymbolTableRecord
100
AcDbLayerTableRecord
  2
가상선
 70
     0
 62
     4
  6
PHANTOM
370
    -3
390
F
  0
LAYER
  5
7D
330
2
100
AcDbSymbolTableRecord
100
AcDbLayerTableRecord
  2
특수지정선
 70
     0
 62
     5
  6
CENTERX2
370
    60
390
F
  0
LAYER
  5
7E
330
2
100
AcDbSymbolTableRecord
100
AcDbLayerTableRecord
  2
참조1
 70
     0
 62
    -4
  6
Continuous
370
    -3
390
F
  0
LAYER
  5
16B
330
2
100
AcDbSymbolTableRecord
100
AcDbLayerTableRecord
  2
Defpoints
 70
     0
 62
     7
  6
Continuous
290
     0
370
    -3
390
F
  0
ENDTAB
  0
TABLE
  2
STYLE
  5
3
330
0
100
AcDbSymbolTable
 70
     2
  0
STYLE
  5
11
330
3
100
AcDbSymbolTableRecord
100
AcDbTextStyleTableRecord
  2
Standard
 70
     0
 40
0.0
 41
1.0
 50
0.0
 71
     0
 42
3.5
  3
txt
  4

  0
STYLE
  5
94
330
3
100
AcDbSymbolTableRecord
100
AcDbTextStyleTableRecord
  2
SLDTEXTSTYLE0
 70
     0
 40
0.0
 41
0.75
 50
0.0
 71
     0
 42
3.5
  3
TXT
  4

  0
ENDTAB
  0
TABLE
  2
VIEW
  5
6
330
0
100
AcDbSymbolTable
 70
     0
  0
ENDTAB
  0
TABLE
  2
UCS
  5
7
330
0
100
AcDbSymbolTable
 70
     0
  0
ENDTAB
  0
TABLE
  2
APPID
  5
9
330
0
100
AcDbSymbolTable
 70
     3
  0
APPID
  5
12
330
9
100
AcDbSymbolTableRecord
100
AcDbRegAppTableRecord
  2
ACAD
 70
     0
  0
APPID
  5
177
330
9
100
AcDbSymbolTableRecord
100
AcDbRegAppTableRecord
  2
PE_URL
 70
     0
  0
APPID
  5
178
330
9
100
AcDbSymbolTableRecord
100
AcDbRegAppTableRecord
  2
ACAD_DSTYLE_DIMRADIAL_EXTENSION
 70
     0
  0
ENDTAB
  0
TABLE
  2
DIMSTYLE
  5
A
330
0
100
AcDbSymbolTable
 70
     4
100
AcDbDimStyleTable
  0
DIMSTYLE
105
27
330
A
100
AcDbSymbolTableRecord
100
AcDbDimStyleTableRecord
  2
ISO-25
 70
     0
 41
2.5
 42
0.625
 43
3.75
 44
1.25
 73
     0
 74
     0
 77
     1
 78
     8
140
2.5
141
2.5
143
0.03937007874016
147
0.625
171
     3
172
     1
178
     0
271
     2
272
     2
274
     3
278
    44
283
     0
284
     8
340
11
  0
DIMSTYLE
105
E9
102
{ACAD_REACTORS
330
E8
330
1D7
330
1E4
330
FD
330
111
330
125
102
}
330
A
100
AcDbSymbolTableRecord
100
AcDbDimStyleTableRecord
  2
SLDDIMSTYLE0
 70
     0
 41
3.302
 44
0.0
 45
0.000000001
 73
     0
 74
     0
 77
     1
 78
    12
 79
     3
140
3.5
143
0.0393700787401575
147
0.875
148
0.000000001
170
     1
172
     1
173
     1
178
     0
271
     2
272
     2
276
     2
284
    12
289
     0
340
94
  0
DIMSTYLE
105
FE
102
{ACAD_REACTORS
330
21A
102
}
330
A
100
AcDbSymbolTableRecord
100
AcDbDimStyleTableRecord
  2
SLDDIMSTYLE1
 70
     0
 41
3.302
 44
0.0
 45
0.000000001
 73
     0
 74
     0
 77
     1
 78
    12
 79
     3
140
3.5
143
0.0393700787401575
147
0.875
148
0.000000001
170
     1
173
     1
178
     0
271
     2
272
     2
276
     2
284
    12
340
94
  0
DIMSTYLE
105
112
102
{ACAD_REACTORS
330
1F1
330
200
102
}
330
A
100
AcDbSymbolTableRecord
100
AcDbDimStyleTableRecord
  2
SLDDIMSTYLE2
 70
     0
 41
3.302
 44
0.0
 45
0.000000001
 73
     0
 74
     0
 77
     1
 78
     4
 79
     1
140
3.5
143
0.0393700787401575
147
0.875
148
0.000000001
170
     1
173
     1
178
     0
271
     2
272
     2
276
     2
284
    12
340
94
  0
ENDTAB
  0
TABLE
  2
BLOCK_RECORD
  5
1
330
0
100
AcDbSymbolTable
 70
    18
  0
BLOCK_RECORD
  5
1F
330
1
100
AcDbSymbolTableRecord
100
AcDbBlockTableRecord
  2
*Model_Space
340
22
  0
BLOCK_RECORD
  5
1B
330
1
100
AcDbSymbolTableRecord
100
AcDbBlockTableRecord
  2
*Paper_Space
340
1E
  0
BLOCK_RECORD
  5
23
330
1
100
AcDbSymbolTableRecord
100
AcDbBlockTableRecord
  2
*Paper_Space0
340
26
  0
BLOCK_RECORD
  5
7F
330
1
100
AcDbSymbolTableRecord
100
AcDbBlockTableRecord
  2
블럭10
340
0
102
{BLKREFS
331
E1
102
}
  0
BLOCK_RECORD
  5
EA
330
1
100
AcDbSymbolTableRecord
100
AcDbBlockTableRecord
  2
_D
340
0
  0
BLOCK_RECORD
  5
FF
330
1
100
AcDbSymbolTableRecord
100
AcDbBlockTableRecord
  2
_D_1
340
0
  0
BLOCK_RECORD
  5
113
330
1
100
AcDbSymbolTableRecord
100
AcDbBlockTableRecord
  2
_D_2
340
0
  0
BLOCK_RECORD
  5
126
330
1
100
AcDbSymbolTableRecord
100
AcDbBlockTableRecord
  2
_D_3
340
0
  0
BLOCK_RECORD
  5
13F
330
1
100
AcDbSymbolTableRecord
100
AcDbBlockTableRecord
  2
SW_DOWELSYMBOL_0
340
0
102
{BLKREFS
331
145
331
20F
331
0
102
}
  0
BLOCK_RECORD
  5
201
330
1
100
AcDbSymbolTableRecord
100
AcDbBlockTableRecord
  2
_D_4
340
0
  0
BLOCK_RECORD
  5
21B
330
1
100
AcDbSymbolTableRecord
100
AcDbBlockTableRecord
  2
*D9
340
0
  0
BLOCK_RECORD
  5
227
330
1
100
AcDbSymbolTableRecord
100
AcDbBlockTableRecord
  2
*D10
340
0
  0
BLOCK_RECORD
  5
233
330
1
100
AcDbSymbolTableRecord
100
AcDbBlockTableRecord
  2
*D11
340
0
  0
BLOCK_RECORD
  5
23F
330
1
100
AcDbSymbolTableRecord
100
AcDbBlockTableRecord
  2
*D12
340
0
  0
BLOCK_RECORD
  5
29A
330
1
100
AcDbSymbolTableRecord
100
AcDbBlockTableRecord
  2
*D13
340
0
  0
BLOCK_RECORD
  5
2A6
330
1
100
AcDbSymbolTableRecord
100
AcDbBlockTableRecord
  2
*D14
340
0
  0
BLOCK_RECORD
  5
2B2
330
1
100
AcDbSymbolTableRecord
100
AcDbBlockTableRecord
  2
*D15
340
0
  0
BLOCK_RECORD
  5
2C0
330
1
100
AcDbSymbolTableRecord
100
AcDbBlockTableRecord
  2
*D16
340
0
  0
BLOCK_RECORD
  5
2CE
330
1
100
AcDbSymbolTableRecord
100
AcDbBlockTableRecord
  2
*D17
340
0
  0
ENDTAB
  0
ENDSEC
  0
SECTION
  2
BLOCKS
  0
BLOCK
  5
20
330
1F
100
AcDbEntity
  8
0
100
AcDbBlockBegin
  2
*Model_Space
 70
     0
 10
0.0
 20
0.0
 30
0.0
  3
*Model_Space
  1
*Model_Space
  0
ENDBLK
  5
21
330
1F
100
AcDbEntity
  8
0
100
AcDbBlockEnd
  0
BLOCK
  5
1C
330
1B
100
AcDbEntity
 67
     1
  8
0
100
AcDbBlockBegin
  2
*Paper_Space
 70
     0
 10
0.0
 20
0.0
 30
0.0
  3
*Paper_Space
  1
*Paper_Space
  0
ENDBLK
  5
1D
330
1B
100
AcDbEntity
 67
     1
  8
0
100
AcDbBlockEnd
  0
BLOCK
  5
24
330
23
100
AcDbEntity
  8
0
100
AcDbBlockBegin
  2
*Paper_Space0
 70
     0
 10
0.0
 20
0.0
 30
0.0
  3
*Paper_Space0
  1
*Paper_Space0
  0
ENDBLK
  5
25
330
23
100
AcDbEntity
  8
0
100
AcDbBlockEnd
  0
BLOCK
  5
80
330
7F
100
AcDbEntity
  8
0
100
AcDbBlockBegin
  2
블럭10
 70
     2
 10
0.0
 20
0.0
 30
0.0
  3
블럭10
  1
블럭10
  0
ELLIPSE
  5
82
330
7F
100
AcDbEntity
  8
중심선
100
AcDbEllipse
 10
20.54032771741204
 20
12.0471743016438
 30
0.0
 11
6.600054785286829
 21
-1.261213355974178E-13
 31
0.0
210
0.0
220
0.0
230
1.0
 40
0.636358354079598
 41
0.9219305317359503
 42
6.513795318482858
  0
ELLIPSE
  5
83
330
7F
100
AcDbEntity
  8
중심선
100
AcDbEllipse
 10
20.54032771746488
 20
12.04717430159265
 30
0.0
 11
3.960054785062283
 21
1.540847449632565E-10
 31
0.0
210
0.0
220
0.0
230
1.0
 40
0.3939339440162632
 41
1.131841032648279
 42
5.62031148352944
  0
LINE
  5
84
330
7F
100
AcDbEntity
  8
중심선
100
AcDbLine
 10
2.268634060543552
 20
16.24717430164393
 30
0.0
 11
5.714909304380834
 21
16.24717430164393
 31
0.0
  0
LINE
  5
85
330
7F
100
AcDbEntity
  8
중심선
100
AcDbLine
 10
5.245725140726316
 20
7.84717430164391
 30
0.0
 11
8.692000384563599
 21
7.84717430164391
 31
0.0
  0
LINE
  5
86
330
7F
100
AcDbEntity
  8
중심선
100
AcDbLine
 10
15.74043728645272
 20
16.24717430164393
 30
0.0
 11
8.692000384563599
 21
7.84717430164391
 31
0.0
  0
LINE
  5
87
330
7F
100
AcDbEntity
  8
중심선
100
AcDbLine
 10
0.1404042013395286
 20
13.71084872107135
 30
0.0
 11
3.58671253028996
 21
13.71088815037384
 31
0.0
  0
LINE
  5
88
330
7F
100
AcDbEntity
  8
중심선
100
AcDbLine
 10
2.750260043222114
 20
10.84717430164391
 30
0.0
 11
6.196535287059397
 21
10.84717430164391
 31
0.0
  0
LINE
  5
89
330
7F
100
AcDbEntity
  8
중심선
100
AcDbLine
 10
12.29416204261559
 20
16.24717430164393
 30
0.0
 11
5.245725140726316
 21
7.84717430164391
 31
0.0
  0
LINE
  5
8A
330
7F
100
AcDbEntity
  8
중심선
100
AcDbLine
 10
10.72767329541681
 20
16.24717430164393
 30
0.0
 11
6.196535287059397
 21
10.84717430164391
 31
0.0
  0
LINE
  5
8B
330
7F
100
AcDbEntity
  8
중심선
100
AcDbLine
 10
7.28139805157953
 20
16.24717430164393
 30
0.0
 11
2.750260043222114
 21
10.84717430164391
 31
0.0
  0
LINE
  5
8C
330
7F
100
AcDbEntity
  8
중심선
100
AcDbLine
 10
5.714909304380834
 20
16.24717430164393
 30
0.0
 11
3.58671253028996
 21
13.71088815037384
 31
0.0
  0
LINE
  5
8D
330
7F
100
AcDbEntity
  8
중심선
100
AcDbLine
 10
2.268634060543552
 20
16.24717430164393
 30
0.0
 11
0.1404042013395286
 21
13.71084872107135
 31
0.0
  0
LINE
  5
8E
330
7F
100
AcDbEntity
  8
중심선
100
AcDbLine
 10
7.28139805157953
 20
16.24717430164393
 30
0.0
 11
10.72767329541681
 21
16.24717430164393
 31
0.0
  0
LINE
  5
8F
330
7F
100
AcDbEntity
  8
중심선
100
AcDbLine
 10
12.29416204261559
 20
16.24717430164393
 30
0.0
 11
15.74043728645272
 21
16.24717430164393
 31
0.0
  0
LINE
  5
90
330
7F
100
AcDbEntity
  8
중심선
100
AcDbLine
 10
19.22036997980202
 20
11.08717430171403
 30
0.0
 11
23.66174974927406
 21
11.08717430171406
 31
0.0
  0
LINE
  5
91
330
7F
100
AcDbEntity
  8
중심선
100
AcDbLine
 10
19.22039502424796
 20
13.00717430171391
 30
0.0
 11
19.22036997980202
 21
11.08717430171403
 31
0.0
  0
LINE
  5
92
330
7F
100
AcDbEntity
  8
중심선
100
AcDbLine
 10
19.22039502424796
 20
13.00717430171391
 30
0.0
 11
26.96566020931264
 21
13.00717430171391
 31
0.0
  0
LINE
  5
93
330
7F
100
AcDbEntity
  8
중심선
100
AcDbLine
 10
22.22332737316547
 20
13.45928029700563
 30
0.0
 11
24.52862924686651
 21
15.39360700705356
 31
0.0
  0
ATTDEF
  5
95
330
7F
100
AcDbEntity
  8
FORMAT
 62
     2
100
AcDbText
 10
4.408487351596664
 20
2.075366912832191
 30
0.0
 40
4.233333333333333
  1
E5073024
 41
0.75
  7
SLDTEXTSTYLE0
 11
4.408487351596664
 21
-0.0412997538344756
 31
0.0
100
AcDbAttributeDefinition
  3

  2
AUTOATTR0
 70
     0
 74
     1
  0
ENDBLK
  5
81
330
7F
100
AcDbEntity
  8
0
100
AcDbBlockEnd
  0
BLOCK
  5
EB
330
EA
100
AcDbEntity
  8
0
100
AcDbBlockBegin
  2
_D
 70
     0
 10
0.0
 20
0.0
 30
0.0
  3
_D
  1
_D
  0
LINE
  5
ED
330
EA
100
AcDbEntity
  8
치수문자_일반주서
 62
     0
370
    -2
100
AcDbLine
 10
-78.00999999999995
 20
4.741571683520023
 30
0.0
 11
-92.61624999999998
 21
4.741571683519965
 31
0.0
  0
LINE
  5
EE
330
EA
100
AcDbEntity
  8
치수문자_일반주서
 62
     0
370
    -2
100
AcDbLine
 10
-78.00999999999995
 20
-4.783428316479982
 30
0.0
 11
-92.61624999999995
 21
-4.783428316480041
 31
0.0
  0
LINE
  5
EF
330
EA
100
AcDbEntity
  8
치수문자_일반주서
 62
     0
370
    -2
100
AcDbLine
 10
-92.61624999999998
 20
4.741571683519965
 30
0.0
 11
-92.61625000000008
 21
37.81432168351997
 31
0.0
  0
LINE
  5
F0
330
EA
100
AcDbEntity
  8
치수문자_일반주서
 62
     0
370
    -2
100
AcDbLine
 10
-92.61624999999998
 20
4.741571683519965
 30
0.0
 11
-92.61624999999995
 21
-4.783428316480041
 31
0.0
  0
LINE
  5
F1
330
EA
100
AcDbEntity
  8
치수문자_일반주서
 62
     0
370
    -2
100
AcDbLine
 10
-92.61625
 20
8.043571683519964
 30
0.0
 11
-92.61625000000001
 21
11.34557168351996
 31
0.0
  0
LINE
  5
F2
330
EA
100
AcDbEntity
  8
치수문자_일반주서
 62
     0
370
    -2
100
AcDbLine
 10
-92.61624999999994
 20
-8.08542831648004
 30
0.0
 11
-92.61624999999992
 21
-11.38742831648004
 31
0.0
  0
SOLID
  5
F3
330
EA
100
AcDbEntity
  8
치수문자_일반주서
 62
     0
100
AcDbTrace
 10
-93.16658333333332
 20
8.043571683519962
 30
0.0
 11
-92.06591666666667
 21
8.043571683519966
 31
0.0
 12
-92.61624999999998
 22
4.741571683519965
 32
0.0
 13
-92.61624999999998
 23
4.741571683519965
 33
0.0
  0
SOLID
  5
F4
330
EA
100
AcDbEntity
  8
치수문자_일반주서
 62
     0
100
AcDbTrace
 10
-92.06591666666661
 20
-8.085428316480039
 30
0.0
 11
-93.16658333333326
 21
-8.085428316480042
 31
0.0
 12
-92.61624999999995
 22
-4.783428316480041
 32
0.0
 13
-92.61624999999995
 23
-4.783428316480041
 33
0.0
  0
MTEXT
  5
F5
330
EA
100
AcDbEntity
  8
치수문자_일반주서
 62
     0
100
AcDbMText
 10
-96.99125000000004
 20
24.68932168351996
 30
0.0
 40
3.5
 41
0.0
 71
     2
 72
     1
  1
\A1;%%c9.53 [3/8]
  7
SLDTEXTSTYLE0
 11
-2.983906501879684E-15
 21
1.0
 31
0.0
 73
     1
 44
1.0
  0
POINT
  5
2D8
330
EA
100
AcDbEntity
  8
Defpoints
 62
     0
100
AcDbPoint
 10
-77.94749999999995
 20
4.741571683520023
 30
0.0
  0
POINT
  5
2D9
330
EA
100
AcDbEntity
  8
Defpoints
 62
     0
100
AcDbPoint
 10
-77.94749999999995
 20
-4.783428316479982
 30
0.0
  0
POINT
  5
2DA
330
EA
100
AcDbEntity
  8
Defpoints
 62
     0
100
AcDbPoint
 10
-92.61624999999995
 20
-4.783428316480038
 30
0.0
  0
ENDBLK
  5
EC
330
EA
100
AcDbEntity
  8
0
100
AcDbBlockEnd
  0
BLOCK
  5
100
330
FF
100
AcDbEntity
  8
0
100
AcDbBlockBegin
  2
_D_1
 70
     0
 10
0.0
 20
0.0
 30
0.0
  3
_D_1
  1
_D_1
  0
LINE
  5
102
330
FF
100
AcDbEntity
  8
치수문자_일반주서
 62
     0
370
    -2
100
AcDbLine
 10
73.56250000000004
 20
4.741571683520022
 30
0.0
 11
91.45108507376335
 21
4.741571683520089
 31
0.0
  0
LINE
  5
103
330
FF
100
AcDbEntity
  8
치수문자_일반주서
 62
     0
370
    -2
100
AcDbLine
 10
73.56250000000007
 20
-4.783428316479937
 30
0.0
 11
91.45108507376338
 21
-4.783428316479871
 31
0.0
  0
LINE
  5
104
330
FF
100
AcDbEntity
  8
치수문자_일반주서
 62
     0
370
    -2
100
AcDbLine
 10
91.45108507376335
 20
4.741571683520089
 30
0.0
 11
91.45108507376325
 21
37.81432168352009
 31
0.0
  0
LINE
  5
105
330
FF
100
AcDbEntity
  8
치수문자_일반주서
 62
     0
370
    -2
100
AcDbLine
 10
91.45108507376335
 20
4.741571683520089
 30
0.0
 11
91.45108507376338
 21
-4.783428316479871
 31
0.0
  0
LINE
  5
106
330
FF
100
AcDbEntity
  8
치수문자_일반주서
 62
     0
370
    -2
100
AcDbLine
 10
91.45108507376334
 20
8.043571683520089
 30
0.0
 11
91.45108507376332
 21
11.34557168352009
 31
0.0
  0
LINE
  5
107
330
FF
100
AcDbEntity
  8
치수문자_일반주서
 62
     0
370
    -2
100
AcDbLine
 10
91.4510850737634
 20
-8.08542831647987
 30
0.0
 11
91.45108507376341
 21
-11.38742831647987
 31
0.0
  0
SOLID
  5
108
330
FF
100
AcDbEntity
  8
치수문자_일반주서
 62
     0
100
AcDbTrace
 10
90.90075174043001
 20
8.043571683520087
 30
0.0
 11
92.00141840709666
 21
8.04357168352009
 31
0.0
 12
91.45108507376335
 22
4.741571683520089
 32
0.0
 13
91.45108507376335
 23
4.741571683520089
 33
0.0
  0
SOLID
  5
109
330
FF
100
AcDbEntity
  8
치수문자_일반주서
 62
     0
100
AcDbTrace
 10
92.00141840709672
 20
-8.085428316479868
 30
0.0
 11
90.90075174043007
 21
-8.085428316479872
 31
0.0
 12
91.45108507376338
 22
-4.783428316479871
 32
0.0
 13
91.45108507376338
 23
-4.783428316479871
 33
0.0
  0
MTEXT
  5
10A
330
FF
100
AcDbEntity
  8
치수문자_일반주서
 62
     0
100
AcDbMText
 10
87.0760850737633
 20
24.68932168352007
 30
0.0
 40
3.5
 41
0.0
 71
     2
 72
     1
  1
\A1;%%c9.53 [3/8]
  7
SLDTEXTSTYLE0
 11
-2.983906501879698E-15
 21
1.0
 31
0.0
 73
     1
 44
1.0
  0
POINT
  5
10B
330
FF
100
AcDbEntity
  8
Defpoints
 62
     0
100
AcDbPoint
 10
73.50000000000004
 20
4.741571683520022
 30
0.0
  0
POINT
  5
10C
330
FF
100
AcDbEntity
  8
Defpoints
 62
     0
100
AcDbPoint
 10
73.50000000000007
 20
-4.783428316479937
 30
0.0
  0
POINT
  5
10D
330
FF
100
AcDbEntity
  8
Defpoints
 62
     0
100
AcDbPoint
 10
91.45108507376338
 20
-4.78342831647987
 30
0.0
  0
ENDBLK
  5
101
330
FF
100
AcDbEntity
  8
0
100
AcDbBlockEnd
  0
BLOCK
  5
114
330
113
100
AcDbEntity
  8
0
100
AcDbBlockBegin
  2
_D_2
 70
     0
 10
0.0
 20
0.0
 30
0.0
  3
_D_2
  1
_D_2
  0
LINE
  5
116
330
113
100
AcDbEntity
  8
치수문자_일반주서
 62
     0
370
    -2
100
AcDbLine
 10
73.50000000000004
 20
4.769317582201931
 30
0.0
 11
73.50000000000004
 21
15.40726640716087
 31
0.0
  0
LINE
  5
117
330
113
100
AcDbEntity
  8
치수문자_일반주서
 62
     0
370
    -2
100
AcDbLine
 10
10.00000000000007
 20
4.800745516100472
 30
0.0
 11
10.00000000000007
 21
15.40726640716087
 31
0.0
  0
LINE
  5
118
330
113
100
AcDbEntity
  8
치수문자_일반주서
 62
     0
370
    -2
100
AcDbLine
 10
70.19800000000004
 20
15.40726640716087
 30
0.0
 11
13.30200000000007
 21
15.40726640716087
 31
0.0
  0
SOLID
  5
119
330
113
100
AcDbEntity
  8
치수문자_일반주서
 62
     0
100
AcDbTrace
 10
70.19800000000004
 20
14.85693307382753
 30
0.0
 11
70.19800000000004
 21
15.9575997404942
 31
0.0
 12
73.50000000000004
 22
15.40726640716087
 32
0.0
 13
73.50000000000004
 23
15.40726640716087
 33
0.0
  0
SOLID
  5
11A
330
113
100
AcDbEntity
  8
치수문자_일반주서
 62
     0
100
AcDbTrace
 10
13.30200000000007
 20
15.9575997404942
 30
0.0
 11
13.30200000000007
 21
14.85693307382753
 31
0.0
 12
10.00000000000007
 22
15.40726640716087
 32
0.0
 13
10.00000000000007
 23
15.40726640716087
 33
0.0
  0
MTEXT
  5
11B
330
113
100
AcDbEntity
  8
치수문자_일반주서
 62
     0
100
AcDbMText
 10
41.75000000000007
 20
19.78226640716087
 30
0.0
 40
3.5
 41
0.0
 71
     2
 72
     1
  1
\A1;63.5 [2 1/2]
  7
SLDTEXTSTYLE0
 73
     1
 44
1.0
  0
POINT
  5
11C
330
113
100
AcDbEntity
  8
Defpoints
 62
     0
100
AcDbPoint
 10
73.50000000000004
 20
4.706817582201931
 30
0.0
  0
POINT
  5
11D
330
113
100
AcDbEntity
  8
Defpoints
 62
     0
100
AcDbPoint
 10
10.00000000000007
 20
4.738245516100472
 30
0.0
  0
POINT
  5
11E
330
113
100
AcDbEntity
  8
Defpoints
 62
     0
100
AcDbPoint
 10
10.00000000000007
 20
15.40726640716087
 30
0.0
  0
ENDBLK
  5
115
330
113
100
AcDbEntity
  8
0
100
AcDbBlockEnd
  0
BLOCK
  5
127
330
126
100
AcDbEntity
  8
0
100
AcDbBlockBegin
  2
_D_3
 70
     0
 10
0.0
 20
0.0
 30
0.0
  3
_D_3
  1
_D_3
  0
LINE
  5
129
330
126
100
AcDbEntity
  8
치수문자_일반주서
 62
     0
370
    -2
100
AcDbLine
 10
73.50000000000004
 20
4.769317582201931
 30
0.0
 11
73.50000000000004
 21
27.40726640716087
 31
0.0
  0
LINE
  5
12A
330
126
100
AcDbEntity
  8
치수문자_일반주서
 62
     0
370
    -2
100
AcDbLine
 10
-78.89999999999993
 20
3.851571683520024
 30
0.0
 11
-78.89999999999993
 21
27.40726640716087
 31
0.0
  0
LINE
  5
12B
330
126
100
AcDbEntity
  8
치수문자_일반주서
 62
     0
370
    -2
100
AcDbLine
 10
70.19800000000004
 20
27.40726640716087
 30
0.0
 11
-75.59799999999993
 21
27.40726640716087
 31
0.0
  0
SOLID
  5
12C
330
126
100
AcDbEntity
  8
치수문자_일반주서
 62
     0
100
AcDbTrace
 10
70.19800000000004
 20
26.85693307382754
 30
0.0
 11
70.19800000000004
 21
27.95759974049421
 31
0.0
 12
73.50000000000004
 22
27.40726640716087
 32
0.0
 13
73.50000000000004
 23
27.40726640716087
 33
0.0
  0
SOLID
  5
12D
330
126
100
AcDbEntity
  8
치수문자_일반주서
 62
     0
100
AcDbTrace
 10
-75.59799999999993
 20
27.95759974049421
 30
0.0
 11
-75.59799999999993
 21
26.85693307382754
 31
0.0
 12
-78.89999999999993
 22
27.40726640716087
 32
0.0
 13
-78.89999999999993
 23
27.40726640716087
 33
0.0
  0
MTEXT
  5
12E
330
126
100
AcDbEntity
  8
치수문자_일반주서
 62
     0
100
AcDbMText
 10
-4.06608562576045
 20
31.78226640716087
 30
0.0
 40
3.5
 41
0.0
 71
     2
 72
     1
  1
\A1;152.4 [6]
  7
SLDTEXTSTYLE0
 73
     1
 44
1.0
  0
POINT
  5
12F
330
126
100
AcDbEntity
  8
Defpoints
 62
     0
100
AcDbPoint
 10
73.50000000000004
 20
4.706817582201931
 30
0.0
  0
POINT
  5
130
330
126
100
AcDbEntity
  8
Defpoints
 62
     0
100
AcDbPoint
 10
-78.89999999999993
 20
3.789071683520024
 30
0.0
  0
POINT
  5
131
330
126
100
AcDbEntity
  8
Defpoints
 62
     0
100
AcDbPoint
 10
-78.89999999999993
 20
27.40726640716087
 30
0.0
  0
ENDBLK
  5
128
330
126
100
AcDbEntity
  8
0
100
AcDbBlockEnd
  0
BLOCK
  5
140
330
13F
100
AcDbEntity
  8
0
100
AcDbBlockBegin
  2
SW_DOWELSYMBOL_0
 70
     0
 10
0.0
 20
0.0
 30
0.0
  3
SW_DOWELSYMBOL_0
  1
SW_DOWELSYMBOL_0
  0
CIRCLE
  5
142
330
13F
100
AcDbEntity
  8
해칭선
 62
     0
100
AcDbCircle
 10
0.0
 20
0.0
 30
0.0
 40
3.000000000000004
  0
HATCH
  5
143
330
13F
100
AcDbEntity
  8
0
  6
Continuous
 62
     0
370
     0
100
AcDbHatch
 10
0.0
 20
0.0
 30
0.0
210
0.0
220
0.0
230
1.0
  2
SOLID
 70
     1
 71
     0
 91
        1
 92
        0
 93
        3
 72
     2
 10
-0.0000000000000035
 20
0.0
 40
3.000000000000004
 50
0.0
 51
90.0
 73
     1
 72
     1
 10
-0.0000000000000035
 20
3.000000000000004
 11
-0.0000000000000035
 21
0.0
 72
     1
 10
-0.0000000000000035
 20
0.0
 11
3.000000000000001
 21
0.0
 97
        0
 75
     0
 76
     1
 98
        1
 10
0.0
 20
0.0
  0
HATCH
  5
144
330
13F
100
AcDbEntity
  8
0
  6
Continuous
 62
     0
370
     0
100
AcDbHatch
 10
0.0
 20
0.0
 30
0.0
210
0.0
220
0.0
230
1.0
  2
SOLID
 70
     1
 71
     0
 91
        1
 92
        0
 93
        3
 72
     2
 10
-0.0000000000000035
 20
0.0
 40
3.000000000000004
 50
180.0
 51
270.0000000000008
 73
     1
 72
     1
 10
-0.0000000000000035
 20
-3.000000000000004
 11
-0.0000000000000035
 21
0.0
 72
     1
 10
-0.0000000000000035
 20
0.0
 11
-3.000000000000008
 21
0.0
 97
        0
 75
     0
 76
     1
 98
        1
 10
0.0
 20
0.0
  0
ENDBLK
  5
141
330
13F
100
AcDbEntity
  8
0
100
AcDbBlockEnd
  0
BLOCK
  5
202
330
201
100
AcDbEntity
  8
0
100
AcDbBlockBegin
  2
_D_4
 70
     0
 10
0.0
 20
0.0
 30
0.0
  3
_D_4
  1
_D_4
  0
LINE
  5
203
330
201
100
AcDbEntity
  8
치수문자_일반주서
 62
     0
370
    -2
100
AcDbLine
 10
102.4375000000001
 20
36.22143424691529
 30
0.0
 11
117.3750000000001
 21
36.22143424691535
 31
0.0
  0
LINE
  5
204
330
201
100
AcDbEntity
  8
치수문자_일반주서
 62
     0
370
    -2
100
AcDbLine
 10
102.4375000000001
 20
22.22143424691529
 30
0.0
 11
117.3750000000001
 21
22.22143424691535
 31
0.0
  0
LINE
  5
205
330
201
100
AcDbEntity
  8
치수문자_일반주서
 62
     0
370
    -2
100
AcDbLine
 10
117.3750000000001
 20
36.22143424691535
 30
0.0
 11
117.3750000000001
 21
22.22143424691535
 31
0.0
  0
LINE
  5
206
330
201
100
AcDbEntity
  8
치수문자_일반주서
 62
     0
370
    -2
100
AcDbLine
 10
117.3750000000001
 20
39.52343424691535
 30
0.0
 11
117.375
 21
42.82543424691535
 31
0.0
  0
LINE
  5
207
330
201
100
AcDbEntity
  8
치수문자_일반주서
 62
     0
370
    -2
100
AcDbLine
 10
117.3750000000001
 20
18.91943424691535
 30
0.0
 11
117.3750000000001
 21
15.61743424691535
 31
0.0
  0
SOLID
  5
208
330
201
100
AcDbEntity
  8
치수문자_일반주서
 62
     0
100
AcDbTrace
 10
116.8246666666667
 20
39.52343424691535
 30
0.0
 11
117.9253333333334
 21
39.52343424691535
 31
0.0
 12
117.3750000000001
 22
36.22143424691535
 32
0.0
 13
117.3750000000001
 23
36.22143424691535
 33
0.0
  0
SOLID
  5
209
330
201
100
AcDbEntity
  8
치수문자_일반주서
 62
     0
100
AcDbTrace
 10
117.9253333333335
 20
18.91943424691535
 30
0.0
 11
116.8246666666668
 21
18.91943424691535
 31
0.0
 12
117.3750000000001
 22
22.22143424691535
 32
0.0
 13
117.3750000000001
 23
22.22143424691535
 33
0.0
  0
MTEXT
  5
20A
330
201
100
AcDbEntity
  8
치수문자_일반주서
 62
     0
100
AcDbMText
 10
113.0000000000001
 20
29.28713862862833
 30
0.0
 40
3.5
 41
0.0
 71
     2
 72
     1
  1
\A1;%%c14.00 [0.55]
  7
SLDTEXTSTYLE0
 11
-3.045183153257572E-15
 21
1.0
 31
0.0
 73
     1
 44
1.0
  0
POINT
  5
20B
330
201
100
AcDbEntity
  8
Defpoints
 62
     0
100
AcDbPoint
 10
102.3750000000001
 20
36.22143424691529
 30
0.0
  0
POINT
  5
20C
330
201
100
AcDbEntity
  8
Defpoints
 62
     0
100
AcDbPoint
 10
102.3750000000001
 20
22.22143424691529
 30
0.0
  0
POINT
  5
20D
330
201
100
AcDbEntity
  8
Defpoints
 62
     0
100
AcDbPoint
 10
117.3750000000001
 20
22.22143424691535
 30
0.0
  0
ENDBLK
  5
20E
330
201
100
AcDbEntity
  8
0
100
AcDbBlockEnd
  0
BLOCK
  5
21C
330
21B
100
AcDbEntity
  8
0
100
AcDbBlockBegin
  2
*D9
 70
     1
 10
0.0
 20
0.0
 30
0.0
  3
*D9
  1
*D8
  0
LINE
  5
21D
330
21B
100
AcDbEntity
  8
치수문자_일반주서
 62
     0
370
    -2
100
AcDbLine
 10
103.8657751816695
 20
19.48229575403651
 30
0.0
 11
119.6194267469468
 21
-6.150060756304035
 31
0.0
  0
MTEXT
  5
21E
330
21B
100
AcDbEntity
  8
치수문자_일반주서
 62
     0
100
AcDbMText
 10
115.6706384014277
 20
5.288158154535728
 30
0.0
 40
3.5
 41
0.0
 71
     5
 72
     1
  1
\A1;R.5 [R0.02]
  7
SLDTEXTSTYLE0
 11
0.5236126201129557
 21
-0.8519564684057781
 31
0.0
 73
     1
 44
1.0
  0
SOLID
  5
21F
330
21B
100
AcDbEntity
  8
치수문자_일반주서
 62
     0
100
AcDbTrace
 10
104.3346352247821
 20
19.77045723263868
 30
0.0
 11
103.3969151385569
 21
19.19413427543435
 31
0.0
 12
102.1368063100565
 22
22.29545601271239
 32
0.0
 13
102.1368063100565
 23
22.29545601271239
 33
0.0
  0
LINE
  5
220
330
21B
100
AcDbEntity
  8
치수문자_일반주서
 62
     0
100
AcDbLine
 10
101.785
 20
22.72143424691529
 30
0.0
 11
101.965
 21
22.72143424691529
 31
0.0
  0
LINE
  5
221
330
21B
100
AcDbEntity
  8
치수문자_일반주서
 62
     0
100
AcDbLine
 10
101.875
 20
22.63143424691529
 30
0.0
 11
101.875
 21
22.81143424691529
 31
0.0
  0
POINT
  5
24D
330
21B
100
AcDbEntity
  8
Defpoints
 62
     0
100
AcDbPoint
 10
102.1368063100565
 20
22.29545601271239
 30
0.0
  0
POINT
  5
24E
330
21B
100
AcDbEntity
  8
Defpoints
 62
     0
100
AcDbPoint
 10
101.875
 20
22.72143424691529
 30
0.0
  0
ENDBLK
  5
222
330
21B
100
AcDbEntity
  8
0
100
AcDbBlockEnd
  0
BLOCK
  5
228
330
227
100
AcDbEntity
  8
0
100
AcDbBlockBegin
  2
*D10
 70
     1
 10
0.0
 20
0.0
 30
0.0
  3
*D10
  1
*D10
  0
LINE
  5
22A
330
227
100
AcDbEntity
  8
치수문자_일반주서
 62
     0
370
    -2
100
AcDbLine
 10
19.37500000000004
 20
35.78393424691529
 30
0.0
 11
19.37500000000004
 21
70.88391841499404
 31
0.0
  0
LINE
  5
22B
330
227
100
AcDbEntity
  8
치수문자_일반주서
 62
     0
370
    -2
100
AcDbLine
 10
102.3750000000001
 20
36.34643424691529
 30
0.0
 11
102.3750000000001
 21
70.88391841499404
 31
0.0
  0
LINE
  5
22C
330
227
100
AcDbEntity
  8
치수문자_일반주서
 62
     0
370
    -2
100
AcDbLine
 10
22.67700000000004
 20
70.88391841499404
 30
0.0
 11
99.07300000000006
 21
70.88391841499404
 31
0.0
  0
SOLID
  5
22D
330
227
100
AcDbEntity
  8
치수문자_일반주서
 62
     0
100
AcDbTrace
 10
22.67700000000004
 20
71.43425174832737
 30
0.0
 11
22.67700000000004
 21
70.33358508166071
 31
0.0
 12
19.37500000000004
 22
70.88391841499404
 32
0.0
 13
19.37500000000004
 23
70.88391841499404
 33
0.0
  0
SOLID
  5
22E
330
227
100
AcDbEntity
  8
치수문자_일반주서
 62
     0
100
AcDbTrace
 10
99.07300000000006
 20
70.33358508166071
 30
0.0
 11
99.07300000000006
 21
71.43425174832737
 31
0.0
 12
102.3750000000001
 22
70.88391841499404
 32
0.0
 13
102.3750000000001
 23
70.88391841499404
 33
0.0
  0
MTEXT
  5
22F
330
227
100
AcDbEntity
  8
치수문자_일반주서
 62
     0
100
AcDbMText
 10
60.87500000000005
 20
75.25891841499404
 30
0.0
 40
3.5
 41
0.0
 71
     2
 72
     1
  1
\A1;83 [3.27]
  7
SLDTEXTSTYLE0
 73
     1
 44
1.0
  0
POINT
  5
230
330
227
100
AcDbEntity
  8
Defpoints
 62
     0
100
AcDbPoint
 10
19.37500000000004
 20
35.72143424691529
 30
0.0
  0
POINT
  5
231
330
227
100
AcDbEntity
  8
Defpoints
 62
     0
100
AcDbPoint
 10
102.3750000000001
 20
36.28393424691529
 30
0.0
  0
POINT
  5
232
330
227
100
AcDbEntity
  8
Defpoints
 62
     0
100
AcDbPoint
 10
102.3750000000001
 20
70.88391841499404
 30
0.0
  0
ENDBLK
  5
229
330
227
100
AcDbEntity
  8
0
100
AcDbBlockEnd
  0
BLOCK
  5
234
330
233
100
AcDbEntity
  8
0
100
AcDbBlockBegin
  2
*D11
 70
     1
 10
0.0
 20
0.0
 30
0.0
  3
*D11
  1
*D11
  0
LINE
  5
236
330
233
100
AcDbEntity
  8
치수문자_일반주서
 62
     0
370
    -2
100
AcDbLine
 10
76.37504186422882
 20
28.62038676313042
 30
0.0
 11
76.37504186422882
 21
61.90091383617725
 31
0.0
  0
LINE
  5
237
330
233
100
AcDbEntity
  8
치수문자_일반주서
 62
     0
370
    -2
100
AcDbLine
 10
102.3750000000001
 20
36.28393424691529
 30
0.0
 11
102.3750000000001
 21
61.90091383617725
 31
0.0
  0
LINE
  5
238
330
233
100
AcDbEntity
  8
치수문자_일반주서
 62
     0
370
    -2
100
AcDbLine
 10
79.67704186422881
 20
61.90091383617725
 30
0.0
 11
99.07300000000006
 21
61.90091383617725
 31
0.0
  0
SOLID
  5
239
330
233
100
AcDbEntity
  8
치수문자_일반주서
 62
     0
100
AcDbTrace
 10
79.67704186422881
 20
62.45124716951059
 30
0.0
 11
79.67704186422881
 21
61.35058050284392
 31
0.0
 12
76.37504186422882
 22
61.90091383617725
 32
0.0
 13
76.37504186422882
 23
61.90091383617725
 33
0.0
  0
SOLID
  5
23A
330
233
100
AcDbEntity
  8
치수문자_일반주서
 62
     0
100
AcDbTrace
 10
99.07300000000006
 20
61.35058050284392
 30
0.0
 11
99.07300000000006
 21
62.45124716951059
 31
0.0
 12
102.3750000000001
 22
61.90091383617725
 32
0.0
 13
102.3750000000001
 23
61.90091383617725
 33
0.0
  0
MTEXT
  5
23B
330
233
100
AcDbEntity
  8
치수문자_일반주서
 62
     0
100
AcDbMText
 10
89.42159572693208
 20
66.27591383617725
 30
0.0
 40
3.5
 41
0.0
 71
     2
 72
     1
  1
\A1;26 [1.02]
  7
SLDTEXTSTYLE0
 73
     1
 44
1.0
  0
POINT
  5
23C
330
233
100
AcDbEntity
  8
Defpoints
 62
     0
100
AcDbPoint
 10
76.37504186422882
 20
28.55788676313042
 30
0.0
  0
POINT
  5
23D
330
233
100
AcDbEntity
  8
Defpoints
 62
     0
100
AcDbPoint
 10
102.3750000000001
 20
36.22143424691529
 30
0.0
  0
POINT
  5
23E
330
233
100
AcDbEntity
  8
Defpoints
 62
     0
100
AcDbPoint
 10
102.3750000000001
 20
61.90091383617725
 30
0.0
  0
ENDBLK
  5
235
330
233
100
AcDbEntity
  8
0
100
AcDbBlockEnd
  0
BLOCK
  5
240
330
23F
100
AcDbEntity
  8
0
100
AcDbBlockBegin
  2
*D12
 70
     1
 10
0.0
 20
0.0
 30
0.0
  3
*D12
  1
*D12
  0
LINE
  5
242
330
23F
100
AcDbEntity
  8
치수문자_일반주서
 62
     0
370
    -2
100
AcDbLine
 10
19.81250000000005
 20
36.22143424691529
 30
0.0
 11
4.374999999999983
 21
36.22143424691524
 31
0.0
  0
LINE
  5
243
330
23F
100
AcDbEntity
  8
치수문자_일반주서
 62
     0
370
    -2
100
AcDbLine
 10
19.81250000000005
 20
22.22143424691529
 30
0.0
 11
4.375000000000032
 21
22.22143424691524
 31
0.0
  0
LINE
  5
244
330
23F
100
AcDbEntity
  8
치수문자_일반주서
 62
     0
370
    -2
100
AcDbLine
 10
4.374999999999983
 20
36.22143424691524
 30
0.0
 11
4.375000000000032
 21
22.22143424691524
 31
0.0
  0
LINE
  5
245
330
23F
100
AcDbEntity
  8
치수문자_일반주서
 62
     0
370
    -2
100
AcDbLine
 10
4.374999999999972
 20
39.52343424691524
 30
0.0
 11
4.37499999999996
 21
42.82543424691524
 31
0.0
  0
LINE
  5
246
330
23F
100
AcDbEntity
  8
치수문자_일반주서
 62
     0
370
    -2
100
AcDbLine
 10
4.375000000000044
 20
18.91943424691524
 30
0.0
 11
4.375000000000055
 21
15.61743424691524
 31
0.0
  0
SOLID
  5
247
330
23F
100
AcDbEntity
  8
치수문자_일반주서
 62
     0
100
AcDbTrace
 10
3.824666666666638
 20
39.52343424691524
 30
0.0
 11
4.925333333333305
 21
39.52343424691524
 31
0.0
 12
4.374999999999983
 22
36.22143424691524
 32
0.0
 13
4.374999999999983
 23
36.22143424691524
 33
0.0
  0
SOLID
  5
248
330
23F
100
AcDbEntity
  8
치수문자_일반주서
 62
     0
100
AcDbTrace
 10
4.925333333333377
 20
18.91943424691524
 30
0.0
 11
3.82466666666671
 21
18.91943424691523
 31
0.0
 12
4.375000000000032
 22
22.22143424691524
 32
0.0
 13
4.375000000000032
 23
22.22143424691524
 33
0.0
  0
MTEXT
  5
249
330
23F
100
AcDbEntity
  8
치수문자_일반주서
 62
     0
100
AcDbMText
 10
0.0000000000000071
 20
29.22143424691528
 30
0.0
 40
3.5
 41
0.0
 71
     2
 72
     1
  1
\A1;%%c14.00 [0.55]
  7
SLDTEXTSTYLE0
 11
-3.489272363107635E-15
 21
1.0
 31
0.0
 73
     1
 44
1.0
  0
POINT
  5
24A
330
23F
100
AcDbEntity
  8
Defpoints
 62
     0
100
AcDbPoint
 10
19.87500000000005
 20
36.22143424691529
 30
0.0
  0
POINT
  5
24B
330
23F
100
AcDbEntity
  8
Defpoints
 62
     0
100
AcDbPoint
 10
19.87500000000005
 20
22.22143424691529
 30
0.0
  0
POINT
  5
24C
330
23F
100
AcDbEntity
  8
Defpoints
 62
     0
100
AcDbPoint
 10
4.375000000000043
 20
22.22143424691524
 30
0.0
  0
ENDBLK
  5
241
330
23F
100
AcDbEntity
  8
0
100
AcDbBlockEnd
  0
BLOCK
  5
29B
330
29A
100
AcDbEntity
  8
0
100
AcDbBlockBegin
  2
*D13
 70
     1
 10
0.0
 20
0.0
 30
0.0
  3
*D13
  1
*D13
  0
LINE
  5
29D
330
29A
100
AcDbEntity
  8
치수문자_일반주서
 62
     0
370
    -2
100
AcDbLine
 10
-88.62200250416325
 20
81.87414930370392
 30
0.0
 11
-88.62200250416325
 21
116.9741334717827
 31
0.0
  0
LINE
  5
29E
330
29A
100
AcDbEntity
  8
치수문자_일반주서
 62
     0
370
    -2
100
AcDbLine
 10
-5.622002504163234
 20
82.43664930370392
 30
0.0
 11
-5.622002504163234
 21
116.9741334717827
 31
0.0
  0
LINE
  5
29F
330
29A
100
AcDbEntity
  8
치수문자_일반주서
 62
     0
370
    -2
100
AcDbLine
 10
-85.32000250416326
 20
116.9741334717827
 30
0.0
 11
-8.924002504163234
 21
116.9741334717827
 31
0.0
  0
SOLID
  5
2A0
330
29A
100
AcDbEntity
  8
치수문자_일반주서
 62
     0
100
AcDbTrace
 10
-85.32000250416326
 20
117.524466805116
 30
0.0
 11
-85.32000250416326
 21
116.4238001384493
 31
0.0
 12
-88.62200250416325
 22
116.9741334717827
 32
0.0
 13
-88.62200250416325
 23
116.9741334717827
 33
0.0
  0
SOLID
  5
2A1
330
29A
100
AcDbEntity
  8
치수문자_일반주서
 62
     0
100
AcDbTrace
 10
-8.924002504163234
 20
116.4238001384493
 30
0.0
 11
-8.924002504163234
 21
117.524466805116
 31
0.0
 12
-5.622002504163234
 22
116.9741334717827
 32
0.0
 13
-5.622002504163234
 23
116.9741334717827
 33
0.0
  0
MTEXT
  5
2A2
330
29A
100
AcDbEntity
  8
치수문자_일반주서
 62
     0
100
AcDbMText
 10
-47.12200250416324
 20
121.3491334717827
 30
0.0
 40
3.5
 41
0.0
 71
     2
 72
     1
  1
\A1;83 [3.27]
  7
SLDTEXTSTYLE0
 73
     1
 44
1.0
  0
POINT
  5
2A3
330
29A
100
AcDbEntity
  8
Defpoints
 62
     0
100
AcDbPoint
 10
-88.62200250416325
 20
81.81164930370392
 30
0.0
  0
POINT
  5
2A4
330
29A
100
AcDbEntity
  8
Defpoints
 62
     0
100
AcDbPoint
 10
-5.622002504163234
 20
82.37414930370392
 30
0.0
  0
POINT
  5
2A5
330
29A
100
AcDbEntity
  8
Defpoints
 62
     0
100
AcDbPoint
 10
-5.622002504163234
 20
116.9741334717827
 30
0.0
  0
ENDBLK
  5
29C
330
29A
100
AcDbEntity
  8
0
100
AcDbBlockEnd
  0
BLOCK
  5
2A7
330
2A6
100
AcDbEntity
  8
0
100
AcDbBlockBegin
  2
*D14
 70
     1
 10
0.0
 20
0.0
 30
0.0
  3
*D14
  1
*D14
  0
LINE
  5
2A9
330
2A6
100
AcDbEntity
  8
치수문자_일반주서
 62
     0
370
    -2
100
AcDbLine
 10
-31.62196063993447
 20
74.71060181991905
 30
0.0
 11
-31.62196063993447
 21
107.9911288929659
 31
0.0
  0
LINE
  5
2AA
330
2A6
100
AcDbEntity
  8
치수문자_일반주서
 62
     0
370
    -2
100
AcDbLine
 10
-5.622002504163234
 20
82.37414930370392
 30
0.0
 11
-5.622002504163234
 21
107.9911288929659
 31
0.0
  0
LINE
  5
2AB
330
2A6
100
AcDbEntity
  8
치수문자_일반주서
 62
     0
370
    -2
100
AcDbLine
 10
-28.31996063993447
 20
107.9911288929659
 30
0.0
 11
-8.924002504163234
 21
107.9911288929659
 31
0.0
  0
SOLID
  5
2AC
330
2A6
100
AcDbEntity
  8
치수문자_일반주서
 62
     0
100
AcDbTrace
 10
-28.31996063993447
 20
108.5414622262992
 30
0.0
 11
-28.31996063993447
 21
107.4407955596326
 31
0.0
 12
-31.62196063993447
 22
107.9911288929659
 32
0.0
 13
-31.62196063993447
 23
107.9911288929659
 33
0.0
  0
SOLID
  5
2AD
330
2A6
100
AcDbEntity
  8
치수문자_일반주서
 62
     0
100
AcDbTrace
 10
-8.924002504163234
 20
107.4407955596326
 30
0.0
 11
-8.924002504163234
 21
108.5414622262992
 31
0.0
 12
-5.622002504163234
 22
107.9911288929659
 32
0.0
 13
-5.622002504163234
 23
107.9911288929659
 33
0.0
  0
MTEXT
  5
2AE
330
2A6
100
AcDbEntity
  8
치수문자_일반주서
 62
     0
100
AcDbMText
 10
-18.57540677723121
 20
112.3661288929659
 30
0.0
 40
3.5
 41
0.0
 71
     2
 72
     1
  1
\A1;26 [1.02]
  7
SLDTEXTSTYLE0
 73
     1
 44
1.0
  0
POINT
  5
2AF
330
2A6
100
AcDbEntity
  8
Defpoints
 62
     0
100
AcDbPoint
 10
-31.62196063993447
 20
74.64810181991905
 30
0.0
  0
POINT
  5
2B0
330
2A6
100
AcDbEntity
  8
Defpoints
 62
     0
100
AcDbPoint
 10
-5.622002504163234
 20
82.31164930370392
 30
0.0
  0
POINT
  5
2B1
330
2A6
100
AcDbEntity
  8
Defpoints
 62
     0
100
AcDbPoint
 10
-5.622002504163234
 20
107.9911288929659
 30
0.0
  0
ENDBLK
  5
2A8
330
2A6
100
AcDbEntity
  8
0
100
AcDbBlockEnd
  0
BLOCK
  5
2B3
330
2B2
100
AcDbEntity
  8
0
100
AcDbBlockBegin
  2
*D15
 70
     1
 10
0.0
 20
0.0
 30
0.0
  3
*D15
  1
*D15
  0
LINE
  5
2B5
330
2B2
100
AcDbEntity
  8
치수문자_일반주서
 62
     0
370
    -2
100
AcDbLine
 10
-88.18450250416325
 20
82.31164930370392
 30
0.0
 11
-103.6220025041633
 21
82.31164930370386
 31
0.0
  0
LINE
  5
2B6
330
2B2
100
AcDbEntity
  8
치수문자_일반주서
 62
     0
370
    -2
100
AcDbLine
 10
-88.18450250416325
 20
68.31164930370392
 30
0.0
 11
-103.6220025041632
 21
68.31164930370386
 31
0.0
  0
LINE
  5
2B7
330
2B2
100
AcDbEntity
  8
치수문자_일반주서
 62
     0
370
    -2
100
AcDbLine
 10
-103.6220025041633
 20
82.31164930370386
 30
0.0
 11
-103.6220025041632
 21
68.31164930370386
 31
0.0
  0
LINE
  5
2B8
330
2B2
100
AcDbEntity
  8
치수문자_일반주서
 62
     0
370
    -2
100
AcDbLine
 10
-103.6220025041633
 20
85.61364930370385
 30
0.0
 11
-103.6220025041633
 21
88.91564930370384
 31
0.0
  0
LINE
  5
2B9
330
2B2
100
AcDbEntity
  8
치수문자_일반주서
 62
     0
370
    -2
100
AcDbLine
 10
-103.6220025041632
 20
65.00964930370387
 30
0.0
 11
-103.6220025041632
 21
61.70764930370387
 31
0.0
  0
SOLID
  5
2BA
330
2B2
100
AcDbEntity
  8
치수문자_일반주서
 62
     0
100
AcDbTrace
 10
-104.1723358374966
 20
85.61364930370385
 30
0.0
 11
-103.07166917083
 21
85.61364930370385
 31
0.0
 12
-103.6220025041633
 22
82.31164930370386
 32
0.0
 13
-103.6220025041633
 23
82.31164930370386
 33
0.0
  0
SOLID
  5
2BB
330
2B2
100
AcDbEntity
  8
치수문자_일반주서
 62
     0
100
AcDbTrace
 10
-103.0716691708299
 20
65.00964930370387
 30
0.0
 11
-104.1723358374966
 21
65.00964930370387
 31
0.0
 12
-103.6220025041632
 22
68.31164930370386
 32
0.0
 13
-103.6220025041632
 23
68.31164930370386
 33
0.0
  0
MTEXT
  5
2BC
330
2B2
100
AcDbEntity
  8
치수문자_일반주서
 62
     0
100
AcDbMText
 10
-107.9970025041633
 20
75.3116493037039
 30
0.0
 40
3.5
 41
0.0
 71
     2
 72
     1
  1
\A1;%%c14.00 [0.55]
  7
SLDTEXTSTYLE0
 11
-3.045183153257572E-15
 21
1.0
 31
0.0
 73
     1
 44
1.0
  0
POINT
  5
2BD
330
2B2
100
AcDbEntity
  8
Defpoints
 62
     0
100
AcDbPoint
 10
-88.12200250416325
 20
82.31164930370392
 30
0.0
  0
POINT
  5
2BE
330
2B2
100
AcDbEntity
  8
Defpoints
 62
     0
100
AcDbPoint
 10
-88.12200250416325
 20
68.31164930370392
 30
0.0
  0
POINT
  5
2BF
330
2B2
100
AcDbEntity
  8
Defpoints
 62
     0
100
AcDbPoint
 10
-103.6220025041633
 20
68.31164930370386
 30
0.0
  0
ENDBLK
  5
2B4
330
2B2
100
AcDbEntity
  8
0
100
AcDbBlockEnd
  0
BLOCK
  5
2C1
330
2C0
100
AcDbEntity
  8
0
100
AcDbBlockBegin
  2
*D16
 70
     1
 10
0.0
 20
0.0
 30
0.0
  3
*D16
  1
*D16
  0
LINE
  5
2C3
330
2C0
100
AcDbEntity
  8
치수문자_일반주서
 62
     0
370
    -2
100
AcDbLine
 10
-5.55950250416322
 20
82.31164930370392
 30
0.0
 11
9.37799749583677
 21
82.31164930370397
 31
0.0
  0
LINE
  5
2C4
330
2C0
100
AcDbEntity
  8
치수문자_일반주서
 62
     0
370
    -2
100
AcDbLine
 10
-5.559502504163234
 20
68.31164930370392
 30
0.0
 11
9.37799749583682
 21
68.31164930370397
 31
0.0
  0
LINE
  5
2C5
330
2C0
100
AcDbEntity
  8
치수문자_일반주서
 62
     0
370
    -2
100
AcDbLine
 10
9.37799749583677
 20
82.31164930370397
 30
0.0
 11
9.37799749583682
 21
68.31164930370397
 31
0.0
  0
LINE
  5
2C6
330
2C0
100
AcDbEntity
  8
치수문자_일반주서
 62
     0
370
    -2
100
AcDbLine
 10
9.377997495836757
 20
85.61364930370397
 30
0.0
 11
9.377997495836745
 21
88.91564930370396
 31
0.0
  0
LINE
  5
2C7
330
2C0
100
AcDbEntity
  8
치수문자_일반주서
 62
     0
370
    -2
100
AcDbLine
 10
9.377997495836832
 20
65.00964930370398
 30
0.0
 11
9.377997495836844
 21
61.70764930370398
 31
0.0
  0
SOLID
  5
2C8
330
2C0
100
AcDbEntity
  8
치수문자_일반주서
 62
     0
100
AcDbTrace
 10
8.827664162503424
 20
85.61364930370397
 30
0.0
 11
9.92833082917009
 21
85.61364930370397
 31
0.0
 12
9.37799749583677
 22
82.31164930370397
 32
0.0
 13
9.37799749583677
 23
82.31164930370397
 33
0.0
  0
SOLID
  5
2C9
330
2C0
100
AcDbEntity
  8
치수문자_일반주서
 62
     0
100
AcDbTrace
 10
9.928330829170164
 20
65.00964930370398
 30
0.0
 11
8.827664162503499
 21
65.00964930370398
 31
0.0
 12
9.37799749583682
 22
68.31164930370397
 32
0.0
 13
9.37799749583682
 23
68.31164930370397
 33
0.0
  0
MTEXT
  5
2CA
330
2C0
100
AcDbEntity
  8
치수문자_일반주서
 62
     0
100
AcDbMText
 10
5.002997495836794
 20
75.37735368541696
 30
0.0
 40
3.5
 41
0.0
 71
     2
 72
     1
  1
\A1;%%c14.00 [0.55]
  7
SLDTEXTSTYLE0
 11
-3.552713678800501E-15
 21
1.0
 31
0.0
 73
     1
 44
1.0
  0
POINT
  5
2CB
330
2C0
100
AcDbEntity
  8
Defpoints
 62
     0
100
AcDbPoint
 10
-5.62200250416322
 20
82.31164930370392
 30
0.0
  0
POINT
  5
2CC
330
2C0
100
AcDbEntity
  8
Defpoints
 62
     0
100
AcDbPoint
 10
-5.622002504163234
 20
68.31164930370392
 30
0.0
  0
POINT
  5
2CD
330
2C0
100
AcDbEntity
  8
Defpoints
 62
     0
100
AcDbPoint
 10
9.377997495836823
 20
68.31164930370397
 30
0.0
  0
ENDBLK
  5
2C2
330
2C0
100
AcDbEntity
  8
0
100
AcDbBlockEnd
  0
BLOCK
  5
2CF
330
2CE
100
AcDbEntity
  8
0
100
AcDbBlockBegin
  2
*D17
 70
     1
 10
0.0
 20
0.0
 30
0.0
  3
*D17
  1
*D17
  0
LINE
  5
2D1
330
2CE
100
AcDbEntity
  8
치수문자_일반주서
 62
     0
370
    -2
100
AcDbLine
 10
-4.131227322493741
 20
65.57251081082518
 30
0.0
 11
11.62242424278393
 21
39.94015430048485
 31
0.0
  0
MTEXT
  5
2D2
330
2CE
100
AcDbEntity
  8
치수문자_일반주서
 62
     0
100
AcDbMText
 10
7.673635897264635
 20
51.37837321132456
 30
0.0
 40
3.5
 41
0.0
 71
     5
 72
     1
  1
\A1;R.5 [R0.02]
  7
SLDTEXTSTYLE0
 11
0.5236126201129684
 21
-0.8519564684057703
 31
0.0
 73
     1
 44
1.0
  0
SOLID
  5
2D3
330
2CE
100
AcDbEntity
  8
치수문자_일반주서
 62
     0
100
AcDbTrace
 10
-3.662367279381099
 20
65.86067228942736
 30
0.0
 11
-4.600087365606383
 21
65.284349332223
 31
0.0
 12
-5.860196194106763
 22
68.38567106950103
 32
0.0
 13
-5.860196194106763
 23
68.38567106950103
 33
0.0
  0
LINE
  5
2D4
330
2CE
100
AcDbEntity
  8
치수문자_일반주서
 62
     0
100
AcDbLine
 10
-6.212002504163248
 20
68.81164930370392
 30
0.0
 11
-6.032002504163248
 21
68.81164930370392
 31
0.0
  0
LINE
  5
2D5
330
2CE
100
AcDbEntity
  8
치수문자_일반주서
 62
     0
100
AcDbLine
 10
-6.122002504163248
 20
68.72164930370391
 30
0.0
 11
-6.122002504163248
 21
68.90164930370392
 31
0.0
  0
POINT
  5
2D6
330
2CE
100
AcDbEntity
  8
Defpoints
 62
     0
100
AcDbPoint
 10
-5.860196194106763
 20
68.38567106950103
 30
0.0
  0
POINT
  5
2D7
330
2CE
100
AcDbEntity
  8
Defpoints
 62
     0
100
AcDbPoint
 10
-6.122002504163248
 20
68.81164930370392
 30
0.0
  0
ENDBLK
  5
2D0
330
2CE
100
AcDbEntity
  8
0
100
AcDbBlockEnd
  0
ENDSEC
  0
SECTION
  2
ENTITIES
  0
LINE
  5
96
330
1F
100
AcDbEntity
  8
외형선
  6
Continuous
370
    15
100
AcDbLine
 10
42.46423789568026
 20
0.8599183925198496
 30
0.0
 11
42.33436004638406
 21
0.9319505315445764
 31
0.0
  0
LINE
  5
97
330
1F
100
AcDbEntity
  8
0
  6
Continuous
 62
     1
370
    15
100
AcDbLine
 10
28.47070096638927
 20
-0.874796663829775
 30
0.0
 11
28.64874807191713
 21
-0.9734745207341653
 31
0.0
  0
LINE
  5
98
330
1F
100
AcDbEntity
  8
0
  6
Continuous
 62
     1
370
    15
100
AcDbLine
 10
46.58651854270935
 20
-4.783428316479982
 30
0.0
 11
50.31110574568185
 21
-4.783428316479982
 31
0.0
  0
LINE
  5
99
330
1F
100
AcDbEntity
  8
0
  6
Continuous
 62
     1
370
    15
100
AcDbLine
 10
24.39703126328401
 20
4.741571683520022
 30
0.0
 11
20.67423584748811
 21
4.741571683520022
 31
0.0
  0
LINE
  5
9A
330
1F
100
AcDbEntity
  8
0
  6
Continuous
 62
     1
370
    15
100
AcDbLine
 10
73.50000000000004
 20
4.741571683520022
 30
0.0
 11
72.50366125157079
 21
4.741571683520022
 31
0.0
  0
LINE
  5
9B
330
1F
100
AcDbEntity
  8
0
  6
Continuous
 62
     1
370
    15
100
AcDbLine
 10
49.23001079674453
 20
-0.8910094361464288
 30
0.0
 11
49.37975539055343
 21
-0.9733652575330988
 31
0.0
  0
LINE
  5
9C
330
1F
100
AcDbEntity
  8
외형선
  6
Continuous
370
    15
100
AcDbLine
 10
11.2724620220681
 20
0.9118830455242184
 30
0.0
 11
11.17963886241318
 21
0.964323125783401
 31
0.0
  0
LINE
  5
9D
330
1F
100
AcDbEntity
  8
외형선
  6
Continuous
370
    15
100
AcDbLine
 10
63.21026330515339
 20
0.8521935329818191
 30
0.0
 11
63.06658299262585
 21
0.9317973795982514
 31
0.0
  0
LINE
  5
9E
330
1F
100
AcDbEntity
  8
0
  6
Continuous
 62
     1
370
    15
100
AcDbLine
 10
18.16847434121991
 20
-0.9105848178502328
 30
0.0
 11
18.2809135006688
 21
-0.9731890978616982
 31
0.0
  0
LINE
  5
9F
330
1F
100
AcDbEntity
  8
외형선
  6
Continuous
370
    15
100
AcDbLine
 10
21.73512551651101
 20
0.8594802381868046
 30
0.0
 11
21.60442254397834
 21
0.9314848098609416
 31
0.0
  0
SPLINE
  5
A0
330
1F
100
AcDbEntity
  8
0
  6
Continuous
 62
     1
370
    15
100
AcDbSpline
210
0.0
220
0.0
230
1.0
 70
     8
 71
     3
 72
     9
 73
     5
 74
     0
 42
0.000000001
 43
0.00000001
 40
0.0
 40
0.0
 40
0.0
 40
0.0
 40
0.6038617137554657
 40
1.0
 40
1.0
 40
1.0
 40
1.0
 10
73.50000000000004
 20
0.8338905747686362
 30
0.0
 10
73.4127118162535
 20
0.8967280576338228
 30
0.0
 10
73.26816186092745
 20
1.000787449765832
 30
0.0
 10
73.12738008489106
 20
1.091116308985026
 30
0.0
 10
73.07161103339755
 20
1.126899028474541
 30
0.0
  0
LINE
  5
A1
330
1F
100
AcDbEntity
  8
0
  6
Continuous
 62
     1
370
    15
100
AcDbLine
 10
69.97157849534352
 20
-0.8959536563351354
 30
0.0
 11
70.109961741614
 21
-0.9730370566592822
 31
0.0
  0
LINE
  5
A2
330
1F
100
AcDbEntity
  8
0
  6
Continuous
 62
     1
370
    15
100
AcDbLine
 10
25.85553900490416
 20
-4.783428316479982
 30
0.0
 11
29.57869861379763
 21
-4.783428316479982
 31
0.0
  0
LINE
  5
A3
330
1F
100
AcDbEntity
  8
0
  6
Continuous
 62
     1
370
    15
100
AcDbLine
 10
55.49127767220138
 20
4.741571683520022
 30
0.0
 11
51.77213305395734
 21
4.741571683520022
 31
0.0
  0
LINE
  5
A4
330
1F
100
AcDbEntity
  8
0
  6
Continuous
 62
     1
370
    15
100
AcDbLine
 10
36.22345353158131
 20
-4.783428316479982
 30
0.0
 11
39.94357908738712
 21
-4.783428316479982
 31
0.0
  0
LINE
  5
A5
330
1F
100
AcDbEntity
  8
0
  6
Continuous
 62
     1
370
    15
100
AcDbLine
 10
14.03057705496579
 20
4.741571683520022
 30
0.0
 11
10.30723381942346
 21
4.741571683520022
 31
0.0
  0
LINE
  5
A6
330
1F
100
AcDbEntity
  8
0
  6
Continuous
 62
     1
370
    15
100
AcDbLine
 10
65.85958293962189
 20
4.741571683520022
 30
0.0
 11
62.13686155933327
 21
4.741571683520022
 31
0.0
  0
LINE
  5
A7
330
1F
100
AcDbEntity
  8
0
  6
Continuous
 62
     1
370
    15
100
AcDbLine
 10
67.3182582328501
 20
-4.783428316479982
 30
0.0
 11
71.04336503867512
 21
-4.783428316479982
 31
0.0
  0
LINE
  5
A8
330
1F
100
AcDbEntity
  8
0
  6
Continuous
 62
     1
370
    15
100
AcDbLine
 10
15.49035639428052
 20
-4.783428316479982
 30
0.0
 11
19.21108080872436
 21
-4.783428316479982
 31
0.0
  0
LINE
  5
A9
330
1F
100
AcDbEntity
  8
0
  6
Continuous
 62
     1
370
    15
100
AcDbLine
 10
45.12833774835897
 20
4.741571683520022
 30
0.0
 11
41.40477084505315
 21
4.741571683520022
 31
0.0
  0
LINE
  5
AA
330
1F
100
AcDbEntity
  8
0
  6
Continuous
 62
     1
370
    15
100
AcDbLine
 10
56.95486875850553
 20
-4.783428316479982
 30
0.0
 11
60.6759003953504
 21
-4.783428316479982
 31
0.0
  0
LINE
  5
AB
330
1F
100
AcDbEntity
  8
0
  6
Continuous
 62
     1
370
    15
100
AcDbLine
 10
34.76040154265137
 20
4.741571683520022
 30
0.0
 11
31.03988053354448
 21
4.741571683520022
 31
0.0
  0
LINE
  5
AC
330
1F
100
AcDbEntity
  8
외형선
  6
Continuous
370
    15
100
AcDbLine
 10
-77.94749999999995
 20
-4.783428316479978
 30
0.0
 11
8.999857793066381
 21
-4.783428316479978
 31
0.0
  0
LINE
  5
AD
330
1F
100
AcDbEntity
  8
외형선
  6
Continuous
370
    15
100
AcDbLine
 10
8.999857793066381
 20
4.741571683520019
 30
0.0
 11
-77.94749999999995
 21
4.741571683520019
 31
0.0
  0
LINE
  5
AE
330
1F
100
AcDbEntity
  8
외형선
  6
Continuous
370
    15
100
AcDbLine
 10
-77.94749999999995
 20
4.74157168352002
 30
0.0
 11
-78.89999999999993
 21
3.789071683520024
 31
0.0
  0
LINE
  5
AF
330
1F
100
AcDbEntity
  8
외형선
  6
Continuous
370
    15
100
AcDbLine
 10
-78.89999999999993
 20
-3.830928316479982
 30
0.0
 11
-77.94749999999995
 21
-4.783428316479979
 31
0.0
  0
SPLINE
  5
B0
330
1F
100
AcDbEntity
  8
0
  6
Continuous
 62
     1
370
    15
100
AcDbSpline
210
0.0
220
0.0
230
1.0
 70
     8
 71
     3
 72
    21
 73
    17
 74
     0
 42
0.000000001
 43
0.00000001
 40
0.0
 40
0.0
 40
0.0
 40
0.0
 40
0.024958220197367
 40
0.1036921598301804
 40
0.1824832350145333
 40
0.2613088561296703
 40
0.3401106050302983
 40
0.4188460379273372
 40
0.4976310951353327
 40
0.5764559895237548
 40
0.655262313629135
 40
0.7340007218015931
 40
0.8127792838800407
 40
0.8916029695593213
 40
0.9704133891405468
 40
1.0
 40
1.0
 40
1.0
 40
1.0
 10
24.397031263284
 20
4.70509283548655
 30
0.0
 10
24.64024735212577
 20
4.715012897628055
 30
0.0
 10
25.65072010851708
 20
4.756227081210378
 30
0.0
 10
27.42879195028559
 20
4.465885894428493
 30
0.0
 10
29.7322949385975
 20
3.832691535763826
 30
0.0
 10
32.03664099739568
 20
2.876793214735895
 30
0.0
 10
34.34036517357423
 20
1.703080817047329
 30
0.0
 10
36.6429945184701
 20
0.3931487147719261
 30
0.0
 10
38.9464037300758
 20
-0.9476576603470372
 30
0.0
 10
41.25072477293148
 20
-2.216683527984815
 30
0.0
 10
43.55454810084812
 20
-3.315904537362916
 30
0.0
 10
45.85722124081171
 20
-4.15889714355861
 30
0.0
 10
48.1605219534553
 20
-4.686608344863942
 30
0.0
 10
50.46479642730515
 20
-4.831204060877603
 30
0.0
 10
52.28963221889211
 20
-4.714769008483128
 30
0.0
 10
53.34590020306574
 20
-4.437995701563568
 30
0.0
 10
53.63420505499747
 20
-4.362451343062027
 30
0.0
  0
SPLINE
  5
B1
330
1F
100
AcDbEntity
  8
0
  6
Continuous
 62
     1
370
    15
100
AcDbSpline
210
0.0
220
0.0
230
1.0
 70
     8
 71
     3
 72
    20
 73
    16
 74
     0
 42
0.000000001
 43
0.00000001
 40
0.0
 40
0.0
 40
0.0
 40
0.0
 40
0.0644320405483233
 40
0.1431796723372798
 40
0.2219948626704087
 40
0.3008233199046512
 40
0.379606650806523
 40
0.4583498253717083
 40
0.5371609199810744
 40
0.6159905859976273
 40
0.6947804124222284
 40
0.7735206115318866
 40
0.8523271306595435
 40
0.9311575234468028
 40
1.0
 40
1.0
 40
1.0
 40
1.0
 10
56.95486875850553
 20
-4.755875332922481
 30
0.0
 10
56.32697470102499
 20
-4.743026572253802
 30
0.0
 10
54.93168030017235
 20
-4.714474297223775
 30
0.0
 10
52.76872945042902
 20
-4.23086070142573
 30
0.0
 10
50.46480382438337
 20
-3.429891154797352
 30
0.0
 10
48.16051997178977
 20
-2.354170748218285
 30
0.0
 10
45.8572217740258
 20
-1.100475257058723
 30
0.0
 10
43.55454794789267
 20
0.2383142577438618
 30
0.0
 10
41.25072485121624
 20
1.555856951697282
 30
0.0
 10
38.94640356999665
 20
2.75165837701539
 30
0.0
 10
36.64299508004623
 20
3.732072716271532
 30
0.0
 10
34.34036308789976
 20
4.424445729047259
 30
0.0
 10
32.03664878716585
 20
4.76312324767594
 30
0.0
 10
29.82927599074974
 20
4.764160951408041
 30
0.0
 10
28.39019661249958
 20
4.476091500829765
 30
0.0
 10
27.71932329096225
 20
4.341798624381305
 30
0.0
  0
LINE
  5
B2
330
1F
100
AcDbEntity
  8
0
  6
Continuous
 62
     1
370
    15
100
AcDbLine
 10
73.50000000000004
 20
2.825675113723039
 30
0.0
 11
73.50000000000004
 21
4.706817582201931
 31
0.0
  0
SPLINE
  5
B3
330
1F
100
AcDbEntity
  8
0
  6
Continuous
 62
     1
370
    15
100
AcDbSpline
210
0.0
220
0.0
230
1.0
 70
     8
 71
     3
 72
    21
 73
    17
 74
     0
 42
0.000000001
 43
0.00000001
 40
0.0
 40
0.0
 40
0.0
 40
0.0
 40
0.0099232481332396
 40
0.0838246388670112
 40
0.1577599349282717
 40
0.2317104583191495
 40
0.3056574265076837
 40
0.3795820813882642
 40
0.4583229523662162
 40
0.5371209639256378
 40
0.6159535244570957
 40
0.6947622106724535
 40
0.7735045750460904
 40
0.8522965680993619
 40
0.9311284018401276
 40
1.0
 40
1.0
 40
1.0
 40
1.0
 10
14.03057705496579
 20
4.722649694382939
 30
0.0
 10
14.12725895135636
 20
4.72874194432027
 30
0.0
 10
14.94395978772566
 20
4.78020499795225
 30
0.0
 10
16.48105648386626
 20
4.565178848643059
 30
0.0
 10
18.64223725600076
 20
4.067790265186426
 30
0.0
 10
20.80393684724039
 20
3.259802455704269
 30
0.0
 10
22.96551792869253
 20
2.236352182503228
 30
0.0
 10
25.17363632096755
 20
1.031135245452799
 30
0.0
 10
27.42880029627385
 20
-0.2798049577366562
 30
0.0
 10
29.73229265689502
 20
-1.597540279111121
 30
0.0
 10
32.03664177146501
 20
-2.793353397166325
 30
0.0
 10
34.34036435937323
 20
-3.773709235379387
 30
0.0
 10
36.64299700037854
 20
-4.46617060812598
 30
0.0
 10
38.9463946076584
 20
-4.804964008952344
 30
0.0
 10
41.15386530764557
 20
-4.806037162422355
 30
0.0
 10
42.59326850514559
 20
-4.517987507440409
 30
0.0
 10
43.26443773481487
 20
-4.383674852461938
 30
0.0
  0
SPLINE
  5
B4
330
1F
100
AcDbEntity
  8
0
  6
Continuous
 62
     1
370
    15
100
AcDbSpline
210
0.0
220
0.0
230
1.0
 70
     8
 71
     3
 72
    11
 73
     7
 74
     0
 42
0.000000001
 43
0.00000001
 40
0.0
 40
0.0
 40
0.0
 40
0.0
 40
0.0953863935453071
 40
0.3970087752283291
 40
0.6986210025169963
 40
1.0
 40
1.0
 40
1.0
 40
1.0
 10
65.85958293962189
 20
4.701503266904861
 30
0.0
 10
66.10249052948411
 20
4.712808670011714
 30
0.0
 10
67.11349892555124
 20
4.759863014704831
 30
0.0
 10
68.89297601868239
 20
4.461929012711986
 30
0.0
 10
71.19705366297117
 20
3.842933092204161
 30
0.0
 10
72.73254919143565
 20
3.174429106415695
 30
0.0
 10
73.50000000000007
 20
2.840306398201144
 30
0.0
  0
SPLINE
  5
B5
330
1F
100
AcDbEntity
  8
0
  6
Continuous
 62
     1
370
    15
100
AcDbSpline
210
0.0
220
0.0
230
1.0
 70
     8
 71
     3
 72
     9
 73
     5
 74
     0
 42
0.000000001
 43
0.00000001
 40
0.0
 40
0.0
 40
0.0
 40
0.0
 40
0.5334412184209884
 40
1.0
 40
1.0
 40
1.0
 40
1.0
 10
73.50000000000004
 20
4.706817582201931
 30
0.0
 10
72.73255241977847
 20
4.730920167811231
 30
0.0
 10
71.29387922820688
 20
4.776103375964219
 30
0.0
 10
69.8548726670116
 20
4.47998419753208
 30
0.0
 10
69.18349151913608
 20
4.341827194440602
 30
0.0
  0
SPLINE
  5
B6
330
1F
100
AcDbEntity
  8
0
  6
Continuous
 62
     1
370
    15
100
AcDbSpline
210
0.0
220
0.0
230
1.0
 70
     8
 71
     3
 72
    21
 73
    17
 74
     0
 42
0.000000001
 43
0.00000001
 40
0.0
 40
0.0
 40
0.0
 40
0.0
 40
0.0249572562760766
 40
0.1037015275216944
 40
0.1825137197574362
 40
0.2613444836590146
 40
0.340135407413783
 40
0.4188767031624334
 40
0.4976843198527421
 40
0.5765158105351488
 40
0.6553127527143872
 40
0.7340525550876212
 40
0.8079762067251081
 40
0.8819221713677313
 40
0.955871691164449
 40
1.0
 40
1.0
 40
1.0
 40
1.0
 10
46.58651854270935
 20
-4.743332823419156
 30
0.0
 10
46.34330979872328
 20
-4.754613630502827
 30
0.0
 10
45.33273724303073
 20
-4.801487249674486
 30
0.0
 10
43.55456506311953
 20
-4.50633001643455
 30
0.0
 10
41.25072022780351
 20
-3.874772347448517
 30
0.0
 10
38.94640493683415
 20
-2.918406915890639
 30
0.0
 10
36.64299423481668
 20
-1.744640832973109
 30
0.0
 10
34.34036510267909
 20
-0.4346514825531003
 30
0.0
 10
32.03664156548565
 20
0.9059791878475989
 30
0.0
 10
29.73229273696381
 20
2.175030016436995
 30
0.0
 10
27.42880018200682
 20
3.274191388253828
 30
0.0
 10
25.17363668773469
 20
4.100137988695094
 30
0.0
 10
22.96551666404769
 20
4.613907978516099
 30
0.0
 10
20.80394157536879
 20
4.787461914107451
 30
0.0
 10
18.93267768409855
 20
4.69628922375872
 30
0.0
 10
17.78209088846364
 20
4.425608443679059
 30
0.0
 10
17.35209103118299
 20
4.324449020292284
 30
0.0
  0
LINE
  5
B7
330
1F
100
AcDbEntity
  8
0
  6
Continuous
 62
     1
370
    15
100
AcDbLine
 10
73.50000000000004
 20
4.706817582201931
 30
0.0
 11
73.50000000000004
 21
4.741571683520022
 31
0.0
  0
SPLINE
  5
B8
330
1F
100
AcDbEntity
  8
0
  6
Continuous
 62
     1
370
    15
100
AcDbSpline
210
0.0
220
0.0
230
1.0
 70
     8
 71
     3
 72
     9
 73
     5
 74
     0
 42
0.000000001
 43
0.00000001
 40
0.0
 40
0.0
 40
0.0
 40
0.0
 40
0.996121900427623
 40
0.9999999999999999
 40
0.9999999999999999
 40
0.9999999999999999
 40
0.9999999999999999
 10
10.0
 20
-4.737006632208302
 30
0.0
 10
10.72036758173091
 20
-4.675793549968072
 30
0.0
 10
11.44353969693256
 20
-4.614342153091894
 30
0.0
 10
12.16659836913816
 20
-4.402669378169743
 30
0.0
 10
12.16940246266563
 20
-4.401848490071832
 30
0.0
  0
SPLINE
  5
B9
330
1F
100
AcDbEntity
  8
0
  6
Continuous
 62
     1
370
    15
100
AcDbSpline
210
0.0
220
0.0
230
1.0
 70
     8
 71
     3
 72
    20
 73
    16
 74
     0
 42
0.000000001
 43
0.00000001
 40
0.0
 40
0.0
 40
0.0
 40
0.0
 40
0.0643899319872676
 40
0.1431807731957957
 40
0.2220114545093947
 40
0.3008235641766156
 40
0.3795677529248699
 40
0.4583520985270103
 40
0.5371815710427305
 40
0.6159977764864656
 40
0.694746422515897
 40
0.7735237961090627
 40
0.852351577955905
 40
0.9311713989153554
 40
1.0
 40
1.0
 40
1.0
 40
1.0
 10
34.76040154265138
 20
4.71400877318918
 30
0.0
 10
35.38778703641208
 20
4.701157229300649
 30
0.0
 10
36.7828737730504
 20
4.672579873587902
 30
0.0
 10
38.94639711741066
 20
4.1891905679393
 30
0.0
 10
41.25072658832366
 20
3.388214167195838
 30
0.0
 10
43.55454745243313
 20
2.312672308747465
 30
0.0
 10
45.85722202055609
 20
1.058350257712897
 30
0.0
 10
48.16051948077702
 20
-0.2797694460633818
 30
0.0
 10
50.46480554263758
 20
-1.59747469694889
 30
0.0
 10
52.76872307231712
 20
-2.793178323038121
 30
0.0
 10
55.07146431848467
 20
-3.77409693013091
 30
0.0
 10
57.37464680513175
 20
-4.466145624205656
 30
0.0
 10
59.67888413887016
 20
-4.804957146374959
 30
0.0
 10
61.88615134932585
 20
-4.806047830711924
 30
0.0
 10
63.32479693854579
 20
-4.517984385496009
 30
0.0
 10
63.99544388479647
 20
-4.383699144358022
 30
0.0
  0
SPLINE
  5
BA
330
1F
100
AcDbEntity
  8
외형선
  6
Continuous
370
    15
100
AcDbSpline
210
0.0
220
0.0
230
1.0
 70
    24
 71
     3
 72
     9
 73
     5
 74
     0
 42
0.000000001
 43
0.00000001
 40
0.0
 40
0.0
 40
0.0
 40
0.0
 40
0.6814660980029839
 40
1.0
 40
1.0
 40
1.0
 40
1.0
 10
10.0000000000001
 20
-3.87117477384748
 30
0.0
 10
10.00000000000011
 20
-4.063567516733537
 30
0.0
 10
10.0000000000001
 20
-4.345889327678877
 30
0.0
 10
10.00000000000008
 20
-4.642519777557364
 30
0.0
 10
10.00000000000007
 20
-4.737006632208288
 30
0.0
  0
SPLINE
  5
BB
330
1F
100
AcDbEntity
  8
0
  6
Continuous
 62
     1
370
    15
100
AcDbSpline
210
0.0
220
0.0
230
1.0
 70
     8
 71
     3
 72
    21
 73
    17
 74
     0
 42
0.000000001
 43
0.00000001
 40
0.0
 40
0.0
 40
0.0
 40
0.0
 40
0.0249640448487231
 40
0.1037283736584422
 40
0.1824773621336364
 40
0.261291582333089
 40
0.3401137628542498
 40
0.4188855387036303
 40
0.4976285890305958
 40
0.5764391939712421
 40
0.6552630650411464
 40
0.7340418124040871
 40
0.8127804057665985
 40
0.8915869152217673
 40
0.9704119950036562
 40
1.0
 40
1.0
 40
1.0
 40
1.0
 10
67.31825823285013
 20
-4.743319959554326
 30
0.0
 10
67.07494112930357
 20
-4.754604192261828
 30
0.0
 10
66.06393159190247
 20
-4.801491430040223
 30
0.0
 10
64.28573460548263
 20
-4.506546653597361
 30
0.0
 10
61.98288930894481
 20
-3.874647378345957
 30
0.0
 10
59.67888467431745
 20
-2.918350005815085
 30
0.0
 10
57.37464666054121
 20
-1.744617650072861
 30
0.0
 10
55.07146436172086
 20
-0.4352609642123511
 30
0.0
 10
52.768723043853
 20
0.9062144852103343
 30
0.0
 10
50.46480561329948
 20
2.175052321621875
 30
0.0
 10
48.16051922663975
 20
3.274331525826639
 30
0.0
 10
45.85722296563689
 20
4.116897881235534
 30
0.0
 10
43.55454392667935
 20
4.644869161047017
 30
0.0
 10
41.25073976062119
 20
4.789334269890272
 30
0.0
 10
39.42588111881059
 20
4.672871275029864
 30
0.0
 10
38.36933705178681
 20
4.396117004405296
 30
0.0
 10
38.08098596208298
 20
4.320585469086017
 30
0.0
  0
SPLINE
  5
BC
330
1F
100
AcDbEntity
  8
0
  6
Continuous
 62
     1
370
    15
100
AcDbSpline
210
0.0
220
0.0
230
1.0
 70
     8
 71
     3
 72
    10
 73
     6
 74
     0
 42
0.000000001
 43
0.00000001
 40
0.0
 40
0.0
 40
0.0
 40
0.0
 40
0.2130545030817464
 40
0.6064242236463785
 40
1.0
 40
1.0
 40
1.0
 40
1.0
 10
15.49035639428052
 20
-4.74292426383321
 30
0.0
 10
15.10044040535587
 20
-4.74901371948492
 30
0.0
 10
13.99060936470326
 20
-4.766346342652244
 30
0.0
 10
12.16068206392034
 20
-4.453311519021989
 30
0.0
 10
10.72035306776297
 20
-3.9955284913096
 30
0.0
 10
10.00000000000006
 20
-3.766577043923491
 30
0.0
  0
LINE
  5
BD
330
1F
100
AcDbEntity
  8
0
  6
Continuous
 62
     1
370
    15
100
AcDbLine
 10
73.50000000000004
 20
-4.573529546771573
 30
0.0
 11
73.50000000000004
 21
-4.183322455300565
 31
0.0
  0
SPLINE
  5
BE
330
1F
100
AcDbEntity
  8
0
  6
Continuous
 62
     1
370
    15
100
AcDbSpline
210
0.0
220
0.0
230
1.0
 70
     8
 71
     3
 72
    13
 73
     9
 74
     0
 42
0.000000001
 43
0.00000001
 40
0.0
 40
0.0
 40
0.0
 40
0.0
 40
0.1724276941659458
 40
0.344765114166912
 40
0.5171365680126505
 40
0.6895871044106165
 40
0.8620731578254921
 40
1.0
 40
1.0
 40
1.0
 40
1.0
 10
10.0
 20
-2.109144480892957
 30
0.0
 10
10.72035118409291
 20
-2.469043925888929
 30
0.0
 10
12.16067641389646
 20
-3.188654391265962
 30
0.0
 10
14.32073784839784
 20
-4.013652877567887
 30
0.0
 10
16.48105916182296
 20
-4.578661195632827
 30
0.0
 10
18.64223472097142
 20
-4.820913919790282
 30
0.0
 10
20.65959374692282
 20
-4.773543880752818
 30
0.0
 10
21.95643811962169
 20
-4.499968524992106
 30
0.0
 10
22.53266949293018
 20
-4.378409835089103
 30
0.0
  0
SPLINE
  5
BF
330
1F
100
AcDbEntity
  8
0
  6
Continuous
 62
     1
370
    15
100
AcDbSpline
210
0.0
220
0.0
230
1.0
 70
     8
 71
     3
 72
    20
 73
    16
 74
     0
 42
0.000000001
 43
0.00000001
 40
0.0
 40
0.0
 40
0.0
 40
0.0
 40
0.0256826634823472
 40
0.1068649056054675
 40
0.1880936481341761
 40
0.2693087197915723
 40
0.350454175782458
 40
0.4316292336951068
 40
0.5128562340973922
 40
0.5940750313130826
 40
0.6752266066217236
 40
0.7563939902897651
 40
0.8376187522398589
 40
0.9188407796837814
 40
1.0
 40
1.0
 40
1.0
 40
1.0
 10
45.12833774835897
 20
4.701510200358477
 30
0.0
 10
45.37119159461502
 20
4.712780111829346
 30
0.0
 10
46.38170023496372
 20
4.759673925095415
 30
0.0
 10
48.16051807542701
 20
4.464596664467097
 30
0.0
 10
50.46480591786163
 20
3.83306772300035
 30
0.0
 10
52.76872297698793
 20
2.876894609710596
 30
0.0
 10
55.07146432498481
 20
1.702541773489517
 30
0.0
 10
57.37464687451477
 20
0.3931464241027646
 30
0.0
 10
59.67888385464052
 20
-0.9475469119384665
 30
0.0
 10
61.98289237205149
 20
-2.216647422019699
 30
0.0
 10
64.28572318191031
 20
-3.315729493901078
 30
0.0
 10
66.58878735912977
 20
-4.161048374376743
 30
0.0
 10
68.89296130258447
 20
-4.678637317227112
 30
0.0
 10
71.1970573386252
 20
-4.860863436532926
 30
0.0
 10
72.73255041633765
 20
-4.669282809659062
 30
0.0
 10
73.50000000000007
 20
-4.573529546771574
 30
0.0
  0
SPLINE
  5
C0
330
1F
100
AcDbEntity
  8
외형선
  6
Continuous
370
    15
100
AcDbSpline
210
0.0
220
0.0
230
1.0
 70
    24
 71
     3
 72
    24
 73
    20
 74
     0
 42
0.000000001
 43
0.00000001
 40
0.0
 40
0.0
 40
0.0
 40
0.0
 40
0.1250000000000001
 40
0.1250000000000001
 40
0.1875000000000003
 40
0.1875000000000003
 40
0.2500000000000004
 40
0.2500000000000004
 40
0.3750000000000003
 40
0.3750000000000003
 40
0.5000000000000003
 40
0.5000000000000003
 40
0.6250000000000002
 40
0.6250000000000002
 40
0.7500000000000002
 40
0.7500000000000002
 40
0.8750000000000001
 40
0.8750000000000001
 40
1.0
 40
1.0
 40
1.0
 40
1.0
 10
10.00000000000006
 20
1.618989752082844
 30
0.0
 10
10.00000000000006
 20
1.591943422023468
 30
0.0
 10
10.00000000000006
 20
1.54274244737443
 30
0.0
 10
10.00000000000006
 20
1.455894193244008
 30
0.0
 10
10.00000000000006
 20
1.425940044359454
 30
0.0
 10
10.00000000000007
 20
1.354835745528573
 30
0.0
 10
10.00000000000008
 20
1.313842013012654
 30
0.0
 10
10.00000000000008
 20
1.171127080758379
 30
0.0
 10
10.00000000000007
 20
1.049342209014047
 30
0.0
 10
10.00000000000007
 20
0.7374454008288831
 30
0.0
 10
10.0000000000001
 20
0.5465178555822832
 30
0.0
 10
10.00000000000007
 20
0.1008485377963308
 30
0.0
 10
10.00000000000006
 20
-0.1542567614822362
 30
0.0
 10
10.00000000000008
 20
-0.6808974017863069
 30
0.0
 10
10.00000000000004
 20
-0.9508896513378249
 30
0.0
 10
10.00000000000006
 20
-1.430639771565718
 30
0.0
 10
10.00000000000008
 20
-1.638561057447051
 30
0.0
 10
10.00000000000007
 20
-1.949060360328653
 30
0.0
 10
10.0000000000001
 20
-2.052092202732495
 30
0.0
 10
10.00000000000006
 20
-2.109144480892969
 30
0.0
  0
SPLINE
  5
C1
330
1F
100
AcDbEntity
  8
0
  6
Continuous
 62
     1
370
    15
100
AcDbSpline
210
0.0
220
0.0
230
1.0
 70
     8
 71
     3
 72
    18
 73
    14
 74
     0
 42
0.000000001
 43
0.00000001
 40
0.0
 40
0.0
 40
0.0
 40
0.0
 40
0.0919255575183451
 40
0.183922253968382
 40
0.2759220476759289
 40
0.3678568514717125
 40
0.4597737498188492
 40
0.5517667875283291
 40
0.6437691166343771
 40
0.735712612716891
 40
0.8276225799760523
 40
0.9196113979059181
 40
0.9999999999999999
 40
0.9999999999999999
 40
0.9999999999999999
 40
0.9999999999999999
 10
73.50000000000004
 20
-4.183322455300565
 30
0.0
 10
72.73255041636817
 20
-3.9364691309005
 30
0.0
 10
71.19705733871676
 20
-3.442571448374212
 30
0.0
 10
68.89296130221776
 20
-2.3506538302863
 30
0.0
 10
66.5887873605045
 20
-1.101466953868648
 30
0.0
 10
64.2857231767827
 20
0.2380296638219593
 30
0.0
 10
61.9828923911914
 20
1.556003439872248
 30
0.0
 10
59.6788837831396
 20
2.751730166719437
 30
0.0
 10
57.37464714131033
 20
3.73206407428976
 30
0.0
 10
55.0714633301577
 20
4.424213597100406
 30
0.0
 10
52.76872668964944
 20
4.763180771335205
 30
0.0
 10
50.56178920129432
 20
4.764121961672229
 30
0.0
 10
49.12238319055873
 20
4.47611408033565
 30
0.0
 10
48.45111292190766
 20
4.341800949477157
 30
0.0
  0
SPLINE
  5
C2
330
1F
100
AcDbEntity
  8
0
  6
Continuous
 62
     1
370
    15
100
AcDbSpline
210
0.0
220
0.0
230
1.0
 70
     8
 71
     3
 72
    15
 73
    11
 74
     0
 42
0.000000001
 43
0.00000001
 40
0.0
 40
0.0
 40
0.0
 40
0.0
 40
0.0459709282424303
 40
0.1822611772126337
 40
0.3185925638290162
 40
0.4549305049489428
 40
0.5912403723964526
 40
0.727487730718523
 40
0.8637081877101257
 40
1.0
 40
1.0
 40
1.0
 40
1.0
 10
25.85553900490416
 20
-4.743358347826475
 30
0.0
 10
25.61258433786718
 20
-4.754723559990754
 30
0.0
 10
24.64934071159227
 20
-4.79978327550072
 30
0.0
 10
22.96552117662065
 20
-4.529987813704089
 30
0.0
 10
20.80393612040689
 20
-3.966493596998518
 30
0.0
 10
18.64223691477907
 20
-3.109632249552254
 30
0.0
 10
16.48105857454398
 20
-2.048027206481243
 30
0.0
 10
14.32073800493804
 20
-0.8484854824925826
 30
0.0
 10
12.16067637474078
 20
0.415314597877587
 30
0.0
 10
10.72035117103877
 20
1.217694668275585
 30
0.0
 10
10.00000000000007
 20
1.618989752082857
 30
0.0
  0
LINE
  5
C3
330
1F
100
AcDbEntity
  8
0
  6
Continuous
 62
     1
370
    15
100
AcDbLine
 10
73.50000000000004
 20
-2.757616826171135
 30
0.0
 11
73.50000000000004
 21
0.8938300465752336
 31
0.0
  0
SPLINE
  5
C4
330
1F
100
AcDbEntity
  8
0
  6
Continuous
 62
     1
370
    15
100
AcDbSpline
210
0.0
220
0.0
230
1.0
 70
     8
 71
     3
 72
    18
 73
    14
 74
     0
 42
0.000000001
 43
0.00000001
 40
0.0
 40
0.0
 40
0.0
 40
0.0
 40
0.0943582415759923
 40
0.1886670820884925
 40
0.2829945470671044
 40
0.3773652886817798
 40
0.4717554664043132
 40
0.5661411062795707
 40
0.6604982655301282
 40
0.7610028254012057
 40
0.8615803193015881
 40
0.9622019113835802
 40
1.0
 40
1.0
 40
1.0
 40
1.0
 10
10.00000000000004
 20
3.404561433784177
 30
0.0
 10
10.72035117233655
 20
3.092927604395638
 30
0.0
 10
12.16067637863347
 20
2.469823100869601
 30
0.0
 10
14.32073798937535
 20
1.302104277305987
 30
0.0
 10
16.48105863292911
 20
0.0610738574891134
 30
0.0
 10
18.6422366966786
 20
-1.190020539554627
 30
0.0
 10
20.8039369345464
 20
-2.360152165280746
 30
0.0
 10
22.96551813877937
 20
-3.371333966668649
 30
0.0
 10
25.17363536897166
 20
-4.169385707329524
 30
0.0
 10
27.42880415335556
 20
-4.686669318737668
 30
0.0
 10
29.73227826668204
 20
-4.831199897989726
 30
0.0
 10
31.55721889185052
 20
-4.714757354139595
 30
0.0
 10
32.61403912614244
 20
-4.438000240113951
 30
0.0
 10
32.90262370216402
 20
-4.362426522067613
 30
0.0
  0
SPLINE
  5
C5
330
1F
100
AcDbEntity
  8
0
  6
Continuous
 62
     1
370
    15
100
AcDbSpline
210
0.0
220
0.0
230
1.0
 70
     8
 71
     3
 72
    15
 73
    11
 74
     0
 42
0.000000001
 43
0.00000001
 40
0.0
 40
0.0
 40
0.0
 40
0.0
 40
0.104561789329031
 40
0.2325306508720889
 40
0.3604865887266638
 40
0.4883366220067345
 40
0.616211560524538
 40
0.7441768955040499
 40
0.8721379224130935
 40
1.0
 40
1.0
 40
1.0
 40
1.0
 10
55.49127767220138
 20
4.713983292395129
 30
0.0
 10
56.11890523931843
 20
4.701137228794701
 30
0.0
 10
57.51466030073716
 20
4.67256939776082
 30
0.0
 10
59.67888996038567
 20
4.189229264635402
 30
0.0
 10
61.9828907376154
 20
3.38832980517455
 30
0.0
 10
64.28572361977686
 20
2.312395940535354
 30
0.0
 10
66.58878724174176
 20
1.057578577057512
 30
0.0
 10
68.89296133389686
 20
-0.2770946347617499
 30
0.0
 10
71.19705733080428
 20
-1.606930037834302
 30
0.0
 10
72.73255041373139
 20
-2.374153481014428
 30
0.0
 10
73.50000000000007
 20
-2.757616826171135
 30
0.0
  0
SPLINE
  5
C6
330
1F
100
AcDbEntity
  8
외형선
  6
Continuous
370
    15
100
AcDbSpline
210
0.0
220
0.0
230
1.0
 70
    24
 71
     3
 72
    10
 73
     6
 74
     0
 42
0.000000001
 43
0.00000001
 40
0.0
 40
0.0
 40
0.0
 40
0.0
 40
0.3403836659341651
 40
0.8403236540743833
 40
1.0
 40
1.0
 40
1.0
 40
1.0
 10
10.00000000000011
 20
4.738245516100431
 30
0.0
 10
10.00000000000006
 20
4.594046168702534
 30
0.0
 10
9.999999999999957
 20
4.238053403338824
 30
0.0
 10
10.00000000000012
 20
3.797216076012512
 30
0.0
 10
10.00000000000012
 20
3.565308171824749
 30
0.0
 10
10.0000000000001
 20
3.509169163708138
 30
0.0
  0
SPLINE
  5
C7
330
1F
100
AcDbEntity
  8
0
  6
Continuous
 62
     1
370
    15
100
AcDbSpline
210
0.0
220
0.0
230
1.0
 70
     8
 71
     3
 72
    14
 73
    10
 74
     0
 42
0.000000001
 43
0.00000001
 40
0.0
 40
0.0
 40
0.0
 40
0.0
 40
0.1567809964504706
 40
0.3136833218642692
 40
0.4705909297167258
 40
0.6273876958903224
 40
0.7841539239398483
 40
0.9410500092936922
 40
1.0
 40
1.0
 40
1.0
 40
1.0
 10
73.50000000000004
 20
0.8938300465752338
 30
0.0
 10
72.73255042645313
 20
1.321922057529449
 30
0.0
 10
71.19705736897936
 20
2.178437369333171
 30
0.0
 10
68.89296118105636
 20
3.273535706682699
 30
0.0
 10
66.58878781472954
 20
4.117072540554053
 30
0.0
 10
64.28572148248719
 20
4.644675629163304
 30
0.0
 10
61.98289871553403
 20
4.78938738677208
 30
0.0
 10
60.15850410777116
 20
4.672831882334354
 30
0.0
 10
59.10171545817314
 20
4.39613402775344
 30
0.0
 10
58.81309459366888
 20
4.320564732013941
 30
0.0
  0
SPLINE
  5
C8
330
1F
100
AcDbEntity
  8
0
  6
Continuous
 62
     1
370
    15
100
AcDbSpline
210
0.0
220
0.0
230
1.0
 70
     8
 71
     3
 72
    19
 73
    15
 74
     0
 42
0.000000001
 43
0.00000001
 40
0.0
 40
0.0
 40
0.0
 40
0.0
 40
0.0717939592853554
 40
0.1596467035377243
 40
0.2475260619145923
 40
0.3353669064911374
 40
0.4231440530525114
 40
0.5055522761945771
 40
0.5879853733122317
 40
0.6704224336260408
 40
0.7528425191270632
 40
0.8352248083367401
 40
0.9175908315929776
 40
0.9999999999999999
 40
0.9999999999999999
 40
0.9999999999999999
 40
0.9999999999999999
 10
36.22345353158133
 20
-4.755883686942688
 30
0.0
 10
35.59595660688898
 20
-4.743009819525097
 30
0.0
 10
34.20060501318426
 20
-4.714382473778208
 30
0.0
 10
32.03664557258377
 20
-4.230953521575713
 30
0.0
 10
29.73229163939083
 20
-3.429926744605241
 30
0.0
 10
27.42880056617938
 20
-2.354272346591609
 30
0.0
 10
25.17363626464235
 20
-1.125694962409824
 30
0.0
 10
22.96551790513806
 20
0.1543426065080754
 30
0.0
 10
20.80393699716217
 20
1.395236600280457
 30
0.0
 10
18.64223667990438
 20
2.539073282061411
 30
0.0
 10
16.48105863741963
 20
3.509795318301109
 30
0.0
 10
14.32073798817842
 20
4.233423024811252
 30
0.0
 10
12.16067637893289
 20
4.690091976351289
 30
0.0
 10
10.72035117243638
 20
4.722191534507695
 30
0.0
 10
10.00000000000006
 20
4.738245516100435
 30
0.0
  0
LINE
  5
C9
330
1F
100
AcDbEntity
  8
0
  6
Continuous
 62
     1
370
    15
100
AcDbLine
 10
73.50000000000004
 20
-4.183322455300565
 30
0.0
 11
73.50000000000004
 21
-2.757616826171135
 31
0.0
  0
LINE
  5
CA
330
1F
100
AcDbEntity
  8
외형선
  6
Continuous
370
    15
100
AcDbLine
 10
10.00000000000007
 20
1.618989752082838
 30
0.0
 11
10.0000000000001
 21
3.404561433784151
 31
0.0
  0
LINE
  5
CB
330
1F
100
AcDbEntity
  8
0
  6
Continuous
 62
     1
370
    15
100
AcDbLine
 10
73.50000000000004
 20
0.8938300465752336
 30
0.0
 11
73.50000000000004
 21
2.840306398201144
 31
0.0
  0
LINE
  5
CC
330
1F
100
AcDbEntity
  8
외형선
  6
Continuous
370
    15
100
AcDbLine
 10
10.00000000000007
 20
-3.766577043923497
 30
0.0
 11
10.00000000000007
 21
-2.109144480893004
 31
0.0
  0
LINE
  5
CD
330
1F
100
AcDbEntity
  8
외형선
  6
Continuous
370
    15
100
AcDbLine
 10
8.999857793066381
 20
3.779119471359799
 30
0.0
 11
8.999857793066381
 21
4.741571683520019
 31
0.0
  0
SPLINE
  5
CE
330
1F
100
AcDbEntity
  8
외형선
  6
Continuous
370
    15
100
AcDbSpline
210
0.0
220
0.0
230
1.0
 70
     8
 71
     3
 72
     8
 73
     4
 74
     0
 42
0.000000001
 43
0.00000001
 40
0.0
 40
0.0
 40
0.0
 40
0.0
 40
1.0
 40
1.0
 40
1.0
 40
1.0
 10
10.0
 20
3.404561433784183
 30
0.0
 10
9.66672039772636
 20
3.538089440721883
 30
0.0
 10
9.332118546376089
 20
3.663393359652568
 30
0.0
 10
8.999857793066367
 20
3.779127856545375
 30
0.0
  0
SPLINE
  5
CF
330
1F
100
AcDbEntity
  8
외형선
  6
Continuous
370
    15
100
AcDbSpline
210
0.0
220
0.0
230
1.0
 70
     8
 71
     3
 72
     8
 73
     4
 74
     0
 42
0.000000001
 43
0.00000001
 40
0.0
 40
0.0
 40
0.0
 40
0.0
 40
1.0
 40
1.0
 40
1.0
 40
1.0
 10
9.999999999999972
 20
1.618989752082894
 30
0.0
 10
9.66672039772636
 20
1.799434933475884
 30
0.0
 10
9.332118546376101
 20
1.976095629147074
 30
0.0
 10
8.999857793066395
 20
2.147051335799336
 30
0.0
  0
SPLINE
  5
D0
330
1F
100
AcDbEntity
  8
외형선
  6
Continuous
370
    15
100
AcDbSpline
210
0.0
220
0.0
230
1.0
 70
     8
 71
     3
 72
     8
 73
     4
 74
     0
 42
0.000000001
 43
0.00000001
 40
0.0
 40
0.0
 40
0.0
 40
0.0
 40
1.0
 40
1.0
 40
1.0
 40
1.0
 10
10.0
 20
-2.109144480892967
 30
0.0
 10
9.66672039772636
 20
-1.936406400101389
 30
0.0
 10
9.332118546376089
 20
-1.758321749472025
 30
0.0
 10
8.999857793066367
 20
-1.576854399130638
 30
0.0
  0
SPLINE
  5
D1
330
1F
100
AcDbEntity
  8
외형선
  6
Continuous
370
    15
100
AcDbSpline
210
0.0
220
0.0
230
1.0
 70
     8
 71
     3
 72
     8
 73
     4
 74
     0
 42
0.000000001
 43
0.00000001
 40
0.0
 40
0.0
 40
0.0
 40
0.0
 40
1.0
 40
1.0
 40
1.0
 40
1.0
 10
9.999999999999972
 20
-3.766577043923462
 30
0.0
 10
9.66672039772636
 20
-3.647873794416851
 30
0.0
 10
9.332118546376101
 20
-3.519830870516684
 30
0.0
 10
8.999857793066395
 20
-3.383877023189489
 30
0.0
  0
LINE
  5
D2
330
1F
100
AcDbEntity
  8
외형선
  6
Continuous
370
    15
100
AcDbLine
 10
8.999857793066381
 20
-4.783428316479978
 30
0.0
 11
8.999857793066381
 21
-3.383863970815696
 31
0.0
  0
SPLINE
  5
D3
330
1F
100
AcDbEntity
  8
외형선
  6
Continuous
370
    15
100
AcDbSpline
210
0.0
220
0.0
230
1.0
 70
     8
 71
     3
 72
     8
 73
     4
 74
     0
 42
0.000000001
 43
0.00000001
 40
0.0
 40
0.0
 40
0.0
 40
0.0
 40
1.0
 40
1.0
 40
1.0
 40
1.0
 10
10.0
 20
-4.737006632208296
 30
0.0
 10
9.66672039772636
 20
-4.763776634065377
 30
0.0
 10
9.332118546376089
 20
-4.779018186032465
 30
0.0
 10
8.999857793066367
 20
-4.782599692565912
 30
0.0
  0
SPLINE
  5
D4
330
1F
100
AcDbEntity
  8
외형선
  6
Continuous
370
    15
100
AcDbSpline
210
0.0
220
0.0
230
1.0
 70
     8
 71
     3
 72
     8
 73
     4
 74
     0
 42
0.000000001
 43
0.00000001
 40
0.0
 40
0.0
 40
0.0
 40
0.0
 40
1.0
 40
1.0
 40
1.0
 40
1.0
 10
9.999999999999972
 20
4.73824551610043
 30
0.0
 10
9.66672039772636
 20
4.731063521800826
 30
0.0
 10
9.332118546376101
 20
4.712202912301655
 30
0.0
 10
8.999857793066395
 20
4.681905502256313
 30
0.0
  0
LINE
  5
D5
330
1F
100
AcDbEntity
  8
외형선
  6
Continuous
370
    15
100
AcDbLine
 10
-77.94749999999995
 20
-0.0209283164799794
 30
0.0
 11
-77.94749999999995
 21
4.741571683520019
 31
0.0
  0
LINE
  5
D6
330
1F
100
AcDbEntity
  8
외형선
  6
Continuous
370
    15
100
AcDbLine
 10
-77.94749999999995
 20
-4.783428316479978
 30
0.0
 11
-77.94749999999995
 21
-0.0209283164799794
 31
0.0
  0
LINE
  5
D7
330
1F
100
AcDbEntity
  8
외형선
  6
Continuous
370
    15
100
AcDbLine
 10
8.999857793066381
 20
-1.576867546755066
 30
0.0
 11
8.999857793066381
 21
2.147067748510818
 31
0.0
  0
LINE
  5
D8
330
1F
100
AcDbEntity
  8
외형선
  6
Continuous
370
    15
100
AcDbLine
 10
-78.89999999999993
 20
-0.0209283164799794
 30
0.0
 11
-78.89999999999993
 21
3.789071683520024
 31
0.0
  0
LINE
  5
D9
330
1F
100
AcDbEntity
  8
외형선
  6
Continuous
370
    15
100
AcDbLine
 10
-78.89999999999993
 20
-3.830928316479982
 30
0.0
 11
-78.89999999999993
 21
-0.0209283164799794
 31
0.0
  0
SPLINE
  5
DA
330
1F
100
AcDbEntity
  8
외형선
  6
Continuous
370
    15
100
AcDbSpline
210
0.0
220
0.0
230
1.0
 70
    24
 71
     3
 72
    24
 73
    20
 74
     0
 42
0.000000001
 43
0.00000001
 40
0.0
 40
0.0
 40
0.0
 40
0.0
 40
0.1249999999999999
 40
0.1249999999999999
 40
0.2499999999999998
 40
0.2499999999999998
 40
0.3749999999999998
 40
0.3749999999999998
 40
0.4999999999999997
 40
0.4999999999999997
 40
0.6249999999999996
 40
0.6249999999999996
 40
0.7499999999999996
 40
0.7499999999999996
 40
0.8124999999999994
 40
0.8124999999999994
 40
0.8749999999999994
 40
0.8749999999999994
 40
1.0
 40
1.0
 40
1.0
 40
1.0
 10
10.00000000000007
 20
-2.109144480892968
 30
0.0
 10
10.00000000000008
 20
-2.052092202732494
 30
0.0
 10
10.00000000000006
 20
-1.94906036032865
 30
0.0
 10
10.00000000000007
 20
-1.638561057447043
 30
0.0
 10
10.00000000000007
 20
-1.430639771565707
 30
0.0
 10
10.00000000000006
 20
-0.9508896513378075
 30
0.0
 10
10.00000000000006
 20
-0.6808974017862841
 30
0.0
 10
10.00000000000004
 20
-0.1542567614822095
 30
0.0
 10
10.00000000000008
 20
0.1008485377963571
 30
0.0
 10
10.00000000000014
 20
0.5465178555823085
 30
0.0
 10
10.00000000000004
 20
0.7374454008289083
 30
0.0
 10
10.00000000000003
 20
1.049342209014069
 30
0.0
 10
10.00000000000003
 20
1.171127080758396
 30
0.0
 10
10.00000000000006
 20
1.313842013012668
 30
0.0
 10
10.00000000000003
 20
1.354835745528586
 30
0.0
 10
10.00000000000008
 20
1.425940044359466
 30
0.0
 10
10.00000000000007
 20
1.45589419324402
 30
0.0
 10
10.00000000000007
 20
1.542742447374441
 30
0.0
 10
10.00000000000007
 20
1.591943422023477
 30
0.0
 10
10.00000000000007
 20
1.618989752082849
 30
0.0
  0
SPLINE
  5
DB
330
1F
100
AcDbEntity
  8
외형선
  6
Continuous
370
    15
100
AcDbSpline
210
0.0
220
0.0
230
1.0
 70
    24
 71
     3
 72
    12
 73
     8
 74
     0
 42
0.000000001
 43
0.00000001
 40
0.0
 40
0.0
 40
0.0
 40
0.0
 40
0.1287805056594487
 40
0.2580263657794697
 40
0.6149392413515401
 40
0.9822026144939283
 40
0.9999999999999999
 40
0.9999999999999999
 40
0.9999999999999999
 40
0.9999999999999999
 10
10.00000000000007
 20
-4.73700663220829
 30
0.0
 10
10.00000000000007
 20
-4.698986593603254
 30
0.0
 10
10.00000000000007
 20
-4.622809129181775
 30
0.0
 10
10.0000000000001
 20
-4.440909770190368
 30
0.0
 10
10.00000000000007
 20
-4.191842398601879
 30
0.0
 10
10.00000000000006
 20
-3.976639023252613
 30
0.0
 10
10.00000000000014
 20
-3.875833952099197
 30
0.0
 10
10.00000000000011
 20
-3.87117477384748
 30
0.0
  0
SPLINE
  5
DC
330
1F
100
AcDbEntity
  8
외형선
  6
Continuous
370
    15
100
AcDbSpline
210
0.0
220
0.0
230
1.0
 70
    24
 71
     3
 72
    12
 73
     8
 74
     0
 42
0.000000001
 43
0.00000001
 40
0.0
 40
0.0
 40
0.0
 40
0.0
 40
0.1110323524871465
 40
0.359576976159477
 40
0.615329410755915
 40
0.8060698232510525
 40
1.0
 40
1.0
 40
1.0
 40
1.0
 10
10.00000000000004
 20
3.509159163708134
 30
0.0
 10
10.00000000000003
 20
3.549651186604196
 30
0.0
 10
10.00000000000006
 20
3.680784129619447
 30
0.0
 10
10.00000000000003
 20
3.931140322848151
 30
0.0
 10
10.00000000000011
 20
4.221541853082191
 30
0.0
 10
10.0000000000001
 20
4.494396511443398
 30
0.0
 10
10.00000000000008
 20
4.656514410038004
 30
0.0
 10
10.00000000000007
 20
4.738245516100472
 30
0.0
  0
LINE
  5
DD
330
1F
100
AcDbEntity
  8
중심선
 62
     1
100
AcDbLine
 10
-81.89999999999993
 20
0.0000000000000012
 30
0.0
 11
76.50000000000004
 21
0.0000000000000011
 31
0.0
  0
LINE
  5
DE
330
1F
100
AcDbEntity
  8
참조1
100
AcDbLine
 10
-26.10051336755627
 20
-2.498925071276081
 30
0.0
 11
-26.10051336755626
 21
-39.9989250712761
 31
0.0
  0
LINE
  5
DF
330
1F
100
AcDbEntity
  8
참조1
100
AcDbLine
 10
-26.10051336755626
 20
-39.9989250712761
 30
0.0
 11
-41.25885681430871
 21
-39.9989250712761
 31
0.0
  0
CIRCLE
  5
E0
330
1F
100
AcDbEntity
  8
해칭선
100
AcDbCircle
 10
0.0
 20
0.0
 30
0.0
 40
3.000000000000005
  0
INSERT
  5
E1
330
1F
100
AcDbEntity
  8
0
  6
Continuous
 62
     7
100
AcDbBlockReference
 66
     1
  2
블럭10
 10
-15.06607359341731
 20
-36.60881671503997
 30
0.0
  0
ATTRIB
  5
E2
330
E1
100
AcDbEntity
  8
FORMAT
 62
     2
100
AcDbText
 10
-24.24736888215858
 20
-34.53344980220778
 30
0.0
 40
4.233333333333333
  1
E5073024 [ 5 FLUTE ]
 41
0.75
  7
SLDTEXTSTYLE0
 11
-24.24736888215858
 21
-36.65011646887445
 31
0.0
100
AcDbAttribute
  2
AUTOATTR0
 70
     0
 74
     1
  0
SEQEND
  5
E3
330
E1
100
AcDbEntity
  8
0
  6
Continuous
 62
     7
  0
HATCH
  5
E4
330
1F
100
AcDbEntity
  8
중심선
100
AcDbHatch
 10
0.0
 20
0.0
 30
0.0
210
0.0
220
0.0
230
1.0
  2
SOLID
 70
     1
 71
     0
 91
        1
 92
        0
 93
        4
 72
     1
 10
-9.351164289036454
 20
-20.36164241339603
 11
-12.79743953287374
 21
-20.36164241339603
 72
     1
 10
-12.79743953287374
 20
-20.36164241339603
 11
-14.92566939207776
 21
-22.89796799396863
 72
     1
 10
-14.92566939207776
 20
-22.89796799396863
 11
-11.47936106312733
 21
-22.89792856466615
 72
     1
 10
-11.47936106312733
 20
-22.89792856466615
 11
-9.351164289036454
 21
-20.36164241339603
 97
        0
 75
     0
 76
     1
 98
        1
 10
24.97471270626417
 20
15.43728265788007
  0
HATCH
  5
E5
330
1F
100
AcDbEntity
  8
중심선
100
AcDbHatch
 10
0.0
 20
0.0
 30
0.0
210
0.0
220
0.0
230
1.0
  2
SOLID
 70
     1
 71
     0
 91
        1
 92
        0
 93
        4
 72
     1
 10
-4.338400298000504
 20
-20.36164241339603
 11
-7.784675541837785
 21
-20.36164241339603
 72
     1
 10
-7.784675541837785
 20
-20.36164241339603
 11
-12.31581355019517
 21
-25.76164241339605
 72
     1
 10
-12.31581355019517
 20
-25.76164241339605
 11
-8.869538306357889
 21
-25.76164241339605
 72
     1
 10
-8.869538306357889
 20
-25.76164241339605
 11
-4.338400298000504
 21
-20.36164241339603
 97
        0
 75
     0
 76
     1
 98
        1
 10
24.97471270626417
 20
15.43728265788007
  0
HATCH
  5
E6
330
1F
100
AcDbEntity
  8
중심선
100
AcDbHatch
 10
0.0
 20
0.0
 30
0.0
210
0.0
220
0.0
230
1.0
  2
SOLID
 70
     1
 71
     0
 91
        1
 92
        0
 93
        4
 72
     1
 10
0.6743636930353922
 20
-20.36164241339606
 11
-2.771911550801722
 21
-20.36164241339603
 72
     1
 10
-2.771911550801722
 20
-20.36164241339603
 11
-9.820348452690972
 21
-28.76164241339605
 72
     1
 10
-9.820348452690972
 20
-28.76164241339605
 11
-6.374073208853691
 21
-28.76164241339605
 72
     1
 10
-6.374073208853687
 20
-28.76164241339605
 11
0.6743636930353958
 21
-20.36164241339606
 97
        0
 75
     0
 76
     1
 98
        1
 10
24.97471270626417
 20
15.43728265788007
  0
HATCH
  5
E7
330
1F
100
AcDbEntity
  8
중심선
100
AcDbHatch
 10
0.0
 20
0.0
 30
0.0
210
0.0
220
0.0
230
1.0
  2
SOLID
 70
     1
 71
     0
 91
        1
 92
        0
 93
        6
 72
     3
 10
5.474254124047594
 20
-24.56164241344731
 11
3.960054785062283
 21
1.540882976769353E-10
 40
0.3939339440162628
 50
17.09539180608439
 51
320.0019657685081
 73
     0
 72
     1
 10
7.157253779748189
 20
-23.14953641803434
 11
9.462555653449225
 21
-21.21520970798642
 72
     3
 10
5.474254123994747
 20
-24.56164241339619
 11
6.600054785286829
 21
-1.278976924368180E-13
 40
0.636358354079598
 50
39.99873849337413
 51
368.4976242363725
 73
     1
 72
     1
 10
11.89958661589536
 20
-23.60164241332606
 11
4.154321430830667
 21
-23.60164241332603
 72
     1
 10
4.154321430830667
 20
-23.60164241332603
 11
4.154296386384733
 21
-25.52164241332595
 72
     1
 10
4.154296386384733
 20
-25.52164241332595
 11
8.595676155856772
 21
-25.52164241332592
 97
        0
 75
     0
 76
     1
 98
        1
 10
24.97471270626417
 20
15.43728265788007
  0
DIMENSION
  5
E8
330
1F
100
AcDbEntity
  8
치수문자_일반주서
100
AcDbDimension
  2
_D
 10
-92.61624999999995
 20
-4.783428316480041
 30
0.0
 11
-92.61625000000004
 21
24.68932168351997
 31
0.0
 70
   160
  1
%%c<>
 71
     2
 42
9.525000000000006
 52
-270.0
  3
SLDDIMSTYLE0
100
AcDbAlignedDimension
 13
-77.94749999999995
 23
4.741571683520023
 33
0.0
 14
-77.94749999999995
 24
-4.783428316479982
 34
0.0
 50
90.0000000000002
100
AcDbRotatedDimension
1001
ACAD
1000
DSTYLE
1002
{
1070
   171
1070
     6
1070
   273
1070
     5
1002
}
  0
DIMENSION
  5
FD
330
1F
100
AcDbEntity
  8
치수문자_일반주서
100
AcDbDimension
  2
_D_1
 10
91.45108507376338
 20
-4.783428316479871
 30
0.0
 11
91.4510850737633
 21
24.68932168352009
 31
0.0
 70
   160
  1
%%c<>
 71
     2
 42
9.52499999999996
 52
-270.0
  3
SLDDIMSTYLE0
100
AcDbAlignedDimension
 13
73.50000000000004
 23
4.741571683520022
 33
0.0
 14
73.50000000000007
 24
-4.783428316479937
 34
0.0
 50
90.0000000000002
100
AcDbRotatedDimension
1001
ACAD
1000
DSTYLE
1002
{
1070
   171
1070
     6
1070
   273
1070
     5
1002
}
  0
DIMENSION
  5
111
330
1F
100
AcDbEntity
  8
치수문자_일반주서
100
AcDbDimension
  2
_D_2
 10
10.00000000000007
 20
15.40726640716087
 30
0.0
 11
41.75000000000007
 21
15.40726640716087
 31
0.0
 70
   160
  1
<>
 71
     2
 42
63.49999999999997
  3
SLDDIMSTYLE0
100
AcDbAlignedDimension
 13
73.50000000000004
 23
4.706817582201931
 33
0.0
 14
10.00000000000007
 24
4.738245516100472
 34
0.0
 50
0.0000000000000032
100
AcDbRotatedDimension
1001
ACAD
1000
DSTYLE
1002
{
1070
   171
1070
     6
1070
   273
1070
     5
1002
}
  0
DIMENSION
  5
125
330
1F
100
AcDbEntity
  8
치수문자_일반주서
100
AcDbDimension
  2
_D_3
 10
-78.89999999999993
 20
27.40726640716087
 30
0.0
 11
-4.06608562576045
 21
27.40726640716087
 31
0.0
 70
   160
  1
<>
 71
     2
 42
152.4
  3
SLDDIMSTYLE0
100
AcDbAlignedDimension
 13
73.50000000000004
 23
4.706817582201931
 33
0.0
 14
-78.89999999999993
 24
3.789071683520024
 34
0.0
 50
0.0000000000000027
100
AcDbRotatedDimension
1001
ACAD
1000
DSTYLE
1002
{
1070
   171
1070
     6
1070
   273
1070
     5
1002
}
  0
LINE
  5
138
330
1F
100
AcDbEntity
  8
참조1
100
AcDbLine
 10
56.71348381534555
 20
7.441074928723896
 30
0.0
 11
56.71348381534555
 21
-7.438925071276109
 31
0.0
  0
LINE
  5
139
330
1F
100
AcDbEntity
  8
참조1
100
AcDbLine
 10
69.41348381534556
 20
5.441074928723896
 30
0.0
 11
56.71348381534555
 21
5.441074928723896
 31
0.0
  0
SOLID
  5
13A
330
1F
100
AcDbEntity
  8
참조1
100
AcDbTrace
 10
56.71348381534555
 20
5.441074928723896
 30
0.0
 11
63.06348381534555
 21
4.425074928723896
 31
0.0
 12
63.06348381534555
 22
6.457074928723896
 32
0.0
 13
63.06348381534555
 23
6.457074928723896
 33
0.0
  0
LINE
  5
13B
330
1F
100
AcDbEntity
  8
참조1
100
AcDbLine
 10
69.41348381534556
 20
-5.438925071276109
 30
0.0
 11
56.71348381534555
 21
-5.438925071276109
 31
0.0
  0
SOLID
  5
13C
330
1F
100
AcDbEntity
  8
참조1
100
AcDbTrace
 10
56.71348381534555
 20
-5.438925071276109
 30
0.0
 11
63.06348381534555
 21
-6.454925071276109
 31
0.0
 12
63.06348381534555
 22
-4.422925071276109
 32
0.0
 13
63.06348381534555
 23
-4.422925071276109
 33
0.0
  0
MTEXT
  5
13D
330
1F
100
AcDbEntity
  8
참조1
100
AcDbMText
 10
66.31359862590811
 20
11.06679249473997
 30
0.0
 40
3.5
 41
0.0
 71
     1
 72
     1
  1
A
  7
SLDTEXTSTYLE0
 73
     1
 44
1.0
  0
MTEXT
  5
13E
330
1F
100
AcDbEntity
  8
참조1
100
AcDbMText
 10
66.31359862590811
 20
0.1867924947399659
 30
0.0
 40
3.5
 41
0.0
 71
     1
 72
     1
  1
A
  7
SLDTEXTSTYLE0
 73
     1
 44
1.0
  0
INSERT
  5
145
330
1F
100
AcDbEntity
  8
해칭선
100
AcDbBlockReference
  2
SW_DOWELSYMBOL_0
 10
0.0
 20
0.0
 30
0.0
  0
ENDSEC
  0
SECTION
  2
OBJECTS
  0
DICTIONARY
  5
C
330
0
100
AcDbDictionary
281
     1
  3
ACAD_GROUP
350
D
  3
ACAD_IMAGE_VARS
350
169
  3
ACAD_LAYOUT
350
1A
  3
ACAD_MLINESTYLE
350
17
  3
ACAD_PLOTSETTINGS
350
19
  3
ACAD_PLOTSTYLENAME
350
E
  3
ACAD_SCALELIST
350
47
  3
APPDATA
350
167
  3
DWGPROPS
350
2DF
  0
DICTIONARY
  5
223
330
2
100
AcDbDictionary
280
     1
281
     1
  3
ACAD_LAYERSTATES
360
224
  0
DICTIONARY
  5
D
102
{ACAD_REACTORS
330
C
102
}
330
C
100
AcDbDictionary
281
     1
  0
RASTERVARIABLES
  5
169
102
{ACAD_REACTORS
330
C
102
}
330
C
100
AcDbRasterVariables
 90
        0
 70
     1
 71
     1
 72
     1
  0
DICTIONARY
  5
1A
102
{ACAD_REACTORS
330
C
102
}
330
C
100
AcDbDictionary
281
     1
  3
Layout1
350
1E
  3
Layout2
350
26
  3
Model
350
22
  0
DICTIONARY
  5
17
102
{ACAD_REACTORS
330
C
102
}
330
C
100
AcDbDictionary
281
     1
  3
Standard
350
18
  0
DICTIONARY
  5
19
102
{ACAD_REACTORS
330
C
102
}
330
C
100
AcDbDictionary
281
     1
  0
ACDBDICTIONARYWDFLT
  5
E
102
{ACAD_REACTORS
330
C
102
}
330
C
100
AcDbDictionary
281
     1
  3
Normal
350
F
100
AcDbDictionaryWithDefault
340
F
  0
DICTIONARY
  5
47
102
{ACAD_REACTORS
330
C
102
}
330
C
100
AcDbDictionary
281
     1
  3
A0
350
48
  3
A1
350
49
  3
A2
350
4A
  3
A3
350
4B
  3
A4
350
4C
  3
A5
350
4D
  3
A6
350
4E
  3
A7
350
4F
  3
A8
350
50
  3
A9
350
51
  3
B0
350
52
  3
B1
350
53
  3
B2
350
54
  3
B3
350
55
  3
B4
350
56
  3
B5
350
57
  3
B6
350
58
  3
B7
350
59
  3
B8
350
5A
  3
B9
350
5B
  3
C0
350
5C
  3
C1
350
5D
  3
C2
350
5E
  3
C3
350
5F
  3
C4
350
60
  3
C5
350
61
  3
C6
350
62
  3
C7
350
63
  3
C8
350
64
  3
C9
350
65
  3
D0
350
66
  3
D1
350
67
  3
D2
350
68
  0
DICTIONARY
  5
167
102
{ACAD_REACTORS
330
C
102
}
330
C
100
AcDbDictionary
281
     1
  0
XRECORD
  5
2DF
102
{ACAD_REACTORS
330
C
102
}
330
C
100
AcDbXrecord
280
     1
  1
DWGPROPS COOKIE
  2

  3

  4

  6

  7

  8
12014074
  9

300
=
301
=
302
=
303
=
304
=
305
=
306
=
307
=
308
=
309
=
 40
0.0
 41
2458323.965911412
 42
2458324.197417407
  1

 90
        0
  0
DICTIONARY
  5
224
102
{ACAD_REACTORS
330
223
102
}
330
223
100
AcDbDictionary
281
     1
  0
LAYOUT
  5
1E
102
{ACAD_REACTORS
330
1A
102
}
330
1A
100
AcDbPlotSettings
  1

  2
none_device
  4

  6

 40
0.0
 41
0.0
 42
0.0
 43
0.0
 44
0.0
 45
0.0
 46
0.0
 47
0.0
 48
0.0
 49
0.0
140
0.0
141
0.0
142
1.0
143
1.0
 70
   688
 72
     1
 73
     0
 74
     5
  7

 75
    16
147
1.0
148
0.0
149
0.0
100
AcDbLayout
  1
Layout1
 70
     1
 71
     1
 10
0.0
 20
0.0
 11
420.0
 21
297.0
 12
0.0
 22
0.0
 32
0.0
 14
1.000000000000000E+20
 24
1.000000000000000E+20
 34
1.000000000000000E+20
 15
-1.000000000000000E+20
 25
-1.000000000000000E+20
 35
-1.000000000000000E+20
146
0.0
 13
0.0
 23
0.0
 33
0.0
 16
1.0
 26
0.0
 36
0.0
 17
0.0
 27
1.0
 37
0.0
 76
     0
330
1B
  0
LAYOUT
  5
26
102
{ACAD_REACTORS
330
1A
102
}
330
1A
100
AcDbPlotSettings
  1

  2
none_device
  4

  6

 40
0.0
 41
0.0
 42
0.0
 43
0.0
 44
0.0
 45
0.0
 46
0.0
 47
0.0
 48
0.0
 49
0.0
140
0.0
141
0.0
142
1.0
143
1.0
 70
   688
 72
     1
 73
     0
 74
     5
  7

 75
    16
147
1.0
148
0.0
149
0.0
100
AcDbLayout
  1
Layout2
 70
     1
 71
     2
 10
0.0
 20
0.0
 11
0.0
 21
0.0
 12
0.0
 22
0.0
 32
0.0
 14
0.0
 24
0.0
 34
0.0
 15
0.0
 25
0.0
 35
0.0
146
0.0
 13
0.0
 23
0.0
 33
0.0
 16
1.0
 26
0.0
 36
0.0
 17
0.0
 27
1.0
 37
0.0
 76
     0
330
23
  0
LAYOUT
  5
22
102
{ACAD_REACTORS
330
1A
102
}
330
1A
100
AcDbPlotSettings
  1

  2
none_device
  4
ANSI_A_(11.00_x_8.50_Inches)
  6

 40
6.35
 41
19.05
 42
6.35000508
 43
19.05000254
 44
279.4
 45
215.9
 46
126.8187815373989
 47
97.10081031933417
 48
0.0
 49
0.0
140
0.0
141
0.0
142
0.0516030270148577
143
1.0
 70
  1696
 72
     0
 73
     0
 74
     0
  7

 75
     0
147
0.0235690232323232
148
0.0
149
0.0
100
AcDbLayout
  1
Model
 70
     1
 71
     0
 10
0.0
 20
0.0
 11
420.0
 21
297.0
 12
0.0
 22
0.0
 32
0.0
 14
1.000000000000000E+20
 24
1.000000000000000E+20
 34
1.000000000000000E+20
 15
-1.000000000000000E+20
 25
-1.000000000000000E+20
 35
-1.000000000000000E+20
146
0.0
 13
0.0
 23
0.0
 33
0.0
 16
1.0
 26
0.0
 36
0.0
 17
0.0
 27
1.0
 37
0.0
 76
     0
330
1F
331
29
  0
MLINESTYLE
  5
18
102
{ACAD_REACTORS
330
17
102
}
330
17
100
AcDbMlineStyle
  2
Standard
 70
     0
  3

 62
   256
 51
90.0
 52
90.0
 71
     2
 49
0.5
 62
   256
  6
BYLAYER
 49
-0.5
 62
   256
  6
BYLAYER
  0
ACDBPLACEHOLDER
  5
F
102
{ACAD_REACTORS
330
E
102
}
330
E
  0
SCALE
  5
48
102
{ACAD_REACTORS
330
47
102
}
330
47
100
AcDbScale
 70
     0
300
1:1
140
1.0
141
1.0
290
     1
  0
SCALE
  5
49
102
{ACAD_REACTORS
330
47
102
}
330
47
100
AcDbScale
 70
     0
300
1:2
140
1.0
141
2.0
290
     0
  0
SCALE
  5
4A
102
{ACAD_REACTORS
330
47
102
}
330
47
100
AcDbScale
 70
     0
300
1:4
140
1.0
141
4.0
290
     0
  0
SCALE
  5
4B
102
{ACAD_REACTORS
330
47
102
}
330
47
100
AcDbScale
 70
     0
300
1:5
140
1.0
141
5.0
290
     0
  0
SCALE
  5
4C
102
{ACAD_REACTORS
330
47
102
}
330
47
100
AcDbScale
 70
     0
300
1:8
140
1.0
141
8.0
290
     0
  0
SCALE
  5
4D
102
{ACAD_REACTORS
330
47
102
}
330
47
100
AcDbScale
 70
     0
300
1:10
140
1.0
141
10.0
290
     0
  0
SCALE
  5
4E
102
{ACAD_REACTORS
330
47
102
}
330
47
100
AcDbScale
 70
     0
300
1:16
140
1.0
141
16.0
290
     0
  0
SCALE
  5
4F
102
{ACAD_REACTORS
330
47
102
}
330
47
100
AcDbScale
 70
     0
300
1:20
140
1.0
141
20.0
290
     0
  0
SCALE
  5
50
102
{ACAD_REACTORS
330
47
102
}
330
47
100
AcDbScale
 70
     0
300
1:30
140
1.0
141
30.0
290
     0
  0
SCALE
  5
51
102
{ACAD_REACTORS
330
47
102
}
330
47
100
AcDbScale
 70
     0
300
1:40
140
1.0
141
40.0
290
     0
  0
SCALE
  5
52
102
{ACAD_REACTORS
330
47
102
}
330
47
100
AcDbScale
 70
     0
300
1:50
140
1.0
141
50.0
290
     0
  0
SCALE
  5
53
102
{ACAD_REACTORS
330
47
102
}
330
47
100
AcDbScale
 70
     0
300
1:100
140
1.0
141
100.0
290
     0
  0
SCALE
  5
54
102
{ACAD_REACTORS
330
47
102
}
330
47
100
AcDbScale
 70
     0
300
2:1
140
2.0
141
1.0
290
     0
  0
SCALE
  5
55
102
{ACAD_REACTORS
330
47
102
}
330
47
100
AcDbScale
 70
     0
300
4:1
140
4.0
141
1.0
290
     0
  0
SCALE
  5
56
102
{ACAD_REACTORS
330
47
102
}
330
47
100
AcDbScale
 70
     0
300
8:1
140
8.0
141
1.0
290
     0
  0
SCALE
  5
57
102
{ACAD_REACTORS
330
47
102
}
330
47
100
AcDbScale
 70
     0
300
10:1
140
10.0
141
1.0
290
     0
  0
SCALE
  5
58
102
{ACAD_REACTORS
330
47
102
}
330
47
100
AcDbScale
 70
     0
300
100:1
140
100.0
141
1.0
290
     0
  0
SCALE
  5
59
102
{ACAD_REACTORS
330
47
102
}
330
47
100
AcDbScale
 70
     0
300
1/128" = 1'-0"
140
0.0078125
141
12.0
290
     0
  0
SCALE
  5
5A
102
{ACAD_REACTORS
330
47
102
}
330
47
100
AcDbScale
 70
     0
300
1/64" = 1'-0"
140
0.015625
141
12.0
290
     0
  0
SCALE
  5
5B
102
{ACAD_REACTORS
330
47
102
}
330
47
100
AcDbScale
 70
     0
300
1/32" = 1'-0"
140
0.03125
141
12.0
290
     0
  0
SCALE
  5
5C
102
{ACAD_REACTORS
330
47
102
}
330
47
100
AcDbScale
 70
     0
300
1/16" = 1'-0"
140
0.0625
141
12.0
290
     0
  0
SCALE
  5
5D
102
{ACAD_REACTORS
330
47
102
}
330
47
100
AcDbScale
 70
     0
300
3/32" = 1'-0"
140
0.09375
141
12.0
290
     0
  0
SCALE
  5
5E
102
{ACAD_REACTORS
330
47
102
}
330
47
100
AcDbScale
 70
     0
300
1/8" = 1'-0"
140
0.125
141
12.0
290
     0
  0
SCALE
  5
5F
102
{ACAD_REACTORS
330
47
102
}
330
47
100
AcDbScale
 70
     0
300
3/16" = 1'-0"
140
0.1875
141
12.0
290
     0
  0
SCALE
  5
60
102
{ACAD_REACTORS
330
47
102
}
330
47
100
AcDbScale
 70
     0
300
1/4" = 1'-0"
140
0.25
141
12.0
290
     0
  0
SCALE
  5
61
102
{ACAD_REACTORS
330
47
102
}
330
47
100
AcDbScale
 70
     0
300
3/8" = 1'-0"
140
0.375
141
12.0
290
     0
  0
SCALE
  5
62
102
{ACAD_REACTORS
330
47
102
}
330
47
100
AcDbScale
 70
     0
300
1/2" = 1'-0"
140
0.5
141
12.0
290
     0
  0
SCALE
  5
63
102
{ACAD_REACTORS
330
47
102
}
330
47
100
AcDbScale
 70
     0
300
3/4" = 1'-0"
140
0.75
141
12.0
290
     0
  0
SCALE
  5
64
102
{ACAD_REACTORS
330
47
102
}
330
47
100
AcDbScale
 70
     0
300
1" = 1'-0"
140
1.0
141
12.0
290
     0
  0
SCALE
  5
65
102
{ACAD_REACTORS
330
47
102
}
330
47
100
AcDbScale
 70
     0
300
1-1/2" = 1'-0"
140
1.5
141
12.0
290
     0
  0
SCALE
  5
66
102
{ACAD_REACTORS
330
47
102
}
330
47
100
AcDbScale
 70
     0
300
3" = 1'-0"
140
3.0
141
12.0
290
     0
  0
SCALE
  5
67
102
{ACAD_REACTORS
330
47
102
}
330
47
100
AcDbScale
 70
     0
300
6" = 1'-0"
140
6.0
141
12.0
290
     0
  0
SCALE
  5
68
102
{ACAD_REACTORS
330
47
102
}
330
47
100
AcDbScale
 70
     0
300
1'-0" = 1'-0"
140
12.0
141
12.0
290
     0
  0
ENDSEC
  0
EOF
