  0
SECTION
  2
HEADER
  9
$ACADVER
  1
AC1015
  9
$ACADMAINTVER
 70
     6
  9
$DWGCODEPAGE
  3
ANSI_949
  9
$INSBASE
 10
0.0
 20
0.0
 30
0.0
  9
$EXTMIN
 10
1.000000000000000E+20
 20
1.000000000000000E+20
 30
1.000000000000000E+20
  9
$EXTMAX
 10
-1.000000000000000E+20
 20
-1.000000000000000E+20
 30
-1.000000000000000E+20
  9
$LIMMIN
 10
0.0
 20
0.0
  9
$LIMMAX
 10
420.0
 20
297.0
  9
$ORTHOMODE
 70
     0
  9
$REGENMODE
 70
     1
  9
$FILLMODE
 70
     1
  9
$QTEXTMODE
 70
     0
  9
$MIRRTEXT
 70
     1
  9
$LTSCALE
 40
1.0
  9
$ATTMODE
 70
     1
  9
$TEXTSIZE
 40
3.5
  9
$TRACEWID
 40
1.0
  9
$TEXTSTYLE
  7
Standard
  9
$CLAYER
  8
0
  9
$CELTYPE
  6
ByLayer
  9
$CECOLOR
 62
   256
  9
$CELTSCALE
 40
1.0
  9
$DISPSILH
 70
     0
  9
$DIMSCALE
 40
1.0
  9
$DIMASZ
 40
3.302
  9
$DIMEXO
 40
1.0
  9
$DIMDLI
 40
3.75
  9
$DIMRND
 40
0.0
  9
$DIMDLE
 40
0.0
  9
$DIMEXE
 40
1.0
  9
$DIMTP
 40
0.0
  9
$DIMTM
 40
0.0
  9
$DIMTXT
 40
3.5
  9
$DIMCEN
 40
2.5
  9
$DIMTSZ
 40
0.0
  9
$DIMTOL
 70
     0
  9
$DIMLIM
 70
     0
  9
$DIMTIH
 70
     1
  9
$DIMTOH
 70
     1
  9
$DIMSE1
 70
     0
  9
$DIMSE2
 70
     0
  9
$DIMTAD
 70
     1
  9
$DIMZIN
 70
     0
  9
$DIMBLK
  1

  9
$DIMASO
 70
     1
  9
$DIMSHO
 70
     1
  9
$DIMPOST
  1

  9
$DIMAPOST
  1

  9
$DIMALT
 70
     0
  9
$DIMALTD
 70
     3
  9
$DIMALTF
 40
0.0393700787401575
  9
$DIMLFAC
 40
1.0
  9
$DIMTOFL
 70
     1
  9
$DIMTVP
 40
0.0
  9
$DIMTIX
 70
     0
  9
$DIMSOXD
 70
     0
  9
$DIMSAH
 70
     0
  9
$DIMBLK1
  1

  9
$DIMBLK2
  1

  9
$DIMSTYLE
  2
ISO-25
  9
$DIMCLRD
 70
     0
  9
$DIMCLRE
 70
     0
  9
$DIMCLRT
 70
     0
  9
$DIMTFAC
 40
1.0
  9
$DIMGAP
 40
1.524
  9
$DIMJUST
 70
     0
  9
$DIMSD1
 70
     0
  9
$DIMSD2
 70
     0
  9
$DIMTOLJ
 70
     0
  9
$DIMTZIN
 70
     0
  9
$DIMALTZ
 70
     0
  9
$DIMALTTZ
 70
     0
  9
$DIMUPT
 70
     0
  9
$DIMDEC
 70
     2
  9
$DIMTDEC
 70
     2
  9
$DIMALTU
 70
     2
  9
$DIMALTTD
 70
     3
  9
$DIMTXSTY
  7
Standard
  9
$DIMAUNIT
 70
     0
  9
$DIMADEC
 70
     2
  9
$DIMALTRND
 40
0.0
  9
$DIMAZIN
 70
     0
  9
$DIMDSEP
 70
    44
  9
$DIMATFIT
 70
     3
  9
$DIMFRAC
 70
     0
  9
$DIMLDRBLK
  1

  9
$DIMLUNIT
 70
     2
  9
$DIMLWD
 70
    -2
  9
$DIMLWE
 70
    -2
  9
$DIMTMOVE
 70
     0
  9
$LUNITS
 70
     2
  9
$LUPREC
 70
     2
  9
$SKETCHINC
 40
1.0
  9
$FILLETRAD
 40
10.0
  9
$AUNITS
 70
     0
  9
$AUPREC
 70
     2
  9
$MENU
  1
.
  9
$ELEVATION
 40
0.0
  9
$PELEVATION
 40
0.0
  9
$THICKNESS
 40
0.0
  9
$LIMCHECK
 70
     0
  9
$CHAMFERA
 40
0.0
  9
$CHAMFERB
 40
0.0
  9
$CHAMFERC
 40
0.0
  9
$CHAMFERD
 40
0.0
  9
$SKPOLY
 70
     0
  9
$TDCREATE
 40
2458324.340986481
  9
$TDUCREATE
 40
2458323.965986481
  9
$TDUPDATE
 40
2458324.5734461
  9
$TDUUPDATE
 40
2458324.1984461
  9
$TDINDWG
 40
0.0009859606
  9
$TDUSRTIMER
 40
2458324.197460498
  9
$USRTIMER
 70
     1
  9
$ANGBASE
 50
0.0
  9
$ANGDIR
 70
     0
  9
$PDMODE
 70
     0
  9
$PDSIZE
 40
-1.0
  9
$PLINEWID
 40
0.0
  9
$SPLFRAME
 70
     0
  9
$SPLINETYPE
 70
     6
  9
$SPLINESEGS
 70
     8
  9
$HANDSEED
  5
2D9
  9
$SURFTAB1
 70
     6
  9
$SURFTAB2
 70
     6
  9
$SURFTYPE
 70
     6
  9
$SURFU
 70
     6
  9
$SURFV
 70
     6
  9
$UCSBASE
  2

  9
$UCSNAME
  2

  9
$UCSORG
 10
0.0
 20
0.0
 30
0.0
  9
$UCSXDIR
 10
1.0
 20
0.0
 30
0.0
  9
$UCSYDIR
 10
0.0
 20
1.0
 30
0.0
  9
$UCSORTHOREF
  2

  9
$UCSORTHOVIEW
 70
     0
  9
$UCSORGTOP
 10
0.0
 20
0.0
 30
0.0
  9
$UCSORGBOTTOM
 10
0.0
 20
0.0
 30
0.0
  9
$UCSORGLEFT
 10
0.0
 20
0.0
 30
0.0
  9
$UCSORGRIGHT
 10
0.0
 20
0.0
 30
0.0
  9
$UCSORGFRONT
 10
0.0
 20
0.0
 30
0.0
  9
$UCSORGBACK
 10
0.0
 20
0.0
 30
0.0
  9
$PUCSBASE
  2

  9
$PUCSNAME
  2

  9
$PUCSORG
 10
0.0
 20
0.0
 30
0.0
  9
$PUCSXDIR
 10
1.0
 20
0.0
 30
0.0
  9
$PUCSYDIR
 10
0.0
 20
1.0
 30
0.0
  9
$PUCSORTHOREF
  2

  9
$PUCSORTHOVIEW
 70
     0
  9
$PUCSORGTOP
 10
0.0
 20
0.0
 30
0.0
  9
$PUCSORGBOTTOM
 10
0.0
 20
0.0
 30
0.0
  9
$PUCSORGLEFT
 10
0.0
 20
0.0
 30
0.0
  9
$PUCSORGRIGHT
 10
0.0
 20
0.0
 30
0.0
  9
$PUCSORGFRONT
 10
0.0
 20
0.0
 30
0.0
  9
$PUCSORGBACK
 10
0.0
 20
0.0
 30
0.0
  9
$USERI1
 70
     0
  9
$USERI2
 70
     0
  9
$USERI3
 70
     0
  9
$USERI4
 70
     0
  9
$USERI5
 70
     0
  9
$USERR1
 40
0.0
  9
$USERR2
 40
0.0
  9
$USERR3
 40
0.0
  9
$USERR4
 40
0.0
  9
$USERR5
 40
0.0
  9
$WORLDVIEW
 70
     1
  9
$SHADEDGE
 70
     3
  9
$SHADEDIF
 70
    70
  9
$TILEMODE
 70
     1
  9
$MAXACTVP
 70
    64
  9
$PINSBASE
 10
0.0
 20
0.0
 30
0.0
  9
$PLIMCHECK
 70
     0
  9
$PEXTMIN
 10
1.000000000000000E+20
 20
1.000000000000000E+20
 30
1.000000000000000E+20
  9
$PEXTMAX
 10
-1.000000000000000E+20
 20
-1.000000000000000E+20
 30
-1.000000000000000E+20
  9
$PLIMMIN
 10
0.0
 20
0.0
  9
$PLIMMAX
 10
0.0
 20
0.0
  9
$UNITMODE
 70
     0
  9
$VISRETAIN
 70
     1
  9
$PLINEGEN
 70
     0
  9
$PSLTSCALE
 70
     1
  9
$TREEDEPTH
 70
  3020
  9
$CMLSTYLE
  2
Standard
  9
$CMLJUST
 70
     0
  9
$CMLSCALE
 40
20.0
  9
$PROXYGRAPHICS
 70
     1
  9
$MEASUREMENT
 70
     1
  9
$CELWEIGHT
370
    -1
  9
$ENDCAPS
280
     0
  9
$JOINSTYLE
280
     0
  9
$LWDISPLAY
290
     1
  9
$INSUNITS
 70
     4
  9
$HYPERLINKBASE
  1

  9
$STYLESHEET
  1

  9
$XEDIT
290
     1
  9
$CEPSNTYPE
380
     0
  9
$PSTYLEMODE
290
     1
  9
$FINGERPRINTGUID
  2
{68570BDB-08AE-407B-98FE-A23DF24227D0}
  9
$VERSIONGUID
  2
{FAEB1C32-E019-11D5-929B-00C0DF256EC4}
  9
$EXTNAMES
290
     1
  9
$PSVPSCALE
 40
0.0
  9
$OLESTARTUP
290
     0
  0
ENDSEC
  0
SECTION
  2
CLASSES
  0
CLASS
  1
ACDBDICTIONARYWDFLT
  2
AcDbDictionaryWithDefault
  3
ObjectDBX Classes
 90
        0
280
     0
281
     0
  0
CLASS
  1
VISUALSTYLE
  2
AcDbVisualStyle
  3
ObjectDBX Classes
 90
     4095
280
     0
281
     0
  0
CLASS
  1
MATERIAL
  2
AcDbMaterial
  3
ObjectDBX Classes
 90
     1153
280
     0
281
     0
  0
CLASS
  1
SCALE
  2
AcDbScale
  3
ObjectDBX Classes
 90
     1153
280
     0
281
     0
  0
CLASS
  1
SUN
  2
AcDbSun
  3
SCENEOE
 90
     1153
280
     0
281
     0
  0
CLASS
  1
ACDBPLACEHOLDER
  2
AcDbPlaceHolder
  3
ObjectDBX Classes
 90
        0
280
     0
281
     0
  0
CLASS
  1
LAYOUT
  2
AcDbLayout
  3
ObjectDBX Classes
 90
        0
280
     0
281
     0
  0
CLASS
  1
TABLESTYLE
  2
AcDbTableStyle
  3
ObjectDBX Classes
 90
     4095
280
     0
281
     0
  0
CLASS
  1
MLEADERSTYLE
  2
AcDbMLeaderStyle
  3
ACDB_MLEADERSTYLE_CLASS
 90
     4095
280
     0
281
     0
  0
CLASS
  1
RASTERVARIABLES
  2
AcDbRasterVariables
  3
ISM
 90
        0
280
     0
281
     0
  0
ENDSEC
  0
SECTION
  2
TABLES
  0
TABLE
  2
VPORT
  5
8
330
0
100
AcDbSymbolTable
 70
     1
  0
VPORT
  5
29
330
8
100
AcDbSymbolTableRecord
100
AcDbViewportTableRecord
  2
*Active
 70
     0
 10
0.0
 20
0.0
 11
1.0
 21
1.0
 12
11.36368435945626
 22
7.318463713447098
 13
0.0
 23
0.0
 14
10.0
 24
10.0
 15
10.0
 25
10.0
 16
0.0
 26
0.0
 36
1.0
 17
0.0
 27
0.0
 37
0.0
 40
136.364617198962
 41
1.970186335403727
 42
50.0
 43
0.0
 44
0.0
 50
0.0
 51
0.0
 71
    16
 72
  2000
 73
     1
 74
     3
 75
     0
 76
     0
 77
     0
 78
     0
281
     0
 65
     1
110
0.0
120
0.0
130
0.0
111
1.0
121
0.0
131
0.0
112
0.0
122
1.0
132
0.0
 79
     0
146
0.0
  0
ENDTAB
  0
TABLE
  2
LTYPE
  5
5
330
0
100
AcDbSymbolTable
 70
     6
  0
LTYPE
  5
14
330
5
100
AcDbSymbolTableRecord
100
AcDbLinetypeTableRecord
  2
ByBlock
 70
     0
  3

 72
    65
 73
     0
 40
0.0
  0
LTYPE
  5
15
330
5
100
AcDbSymbolTableRecord
100
AcDbLinetypeTableRecord
  2
ByLayer
 70
     0
  3

 72
    65
 73
     0
 40
0.0
  0
LTYPE
  5
16
330
5
100
AcDbSymbolTableRecord
100
AcDbLinetypeTableRecord
  2
Continuous
 70
     0
  3
Solid line
 72
    65
 73
     0
 40
0.0
  0
LTYPE
  5
6A
330
5
100
AcDbSymbolTableRecord
100
AcDbLinetypeTableRecord
  2
HIDDEN
 70
     0
  3
Hidden __ __ __ __ __ __ __ __ __ __ __ __ __ __
 72
    65
 73
     2
 40
1.905
 49
1.27
 74
     0
 49
-0.635
 74
     0
  0
LTYPE
  5
6B
330
5
100
AcDbSymbolTableRecord
100
AcDbLinetypeTableRecord
  2
PHANTOM
 70
     0
  3
Phantom ______  __  __  ______  __  __  ______
 72
    65
 73
     6
 40
12.7
 49
6.35
 74
     0
 49
-1.27
 74
     0
 49
1.27
 74
     0
 49
-1.27
 74
     0
 49
1.27
 74
     0
 49
-1.27
 74
     0
  0
LTYPE
  5
6C
330
5
100
AcDbSymbolTableRecord
100
AcDbLinetypeTableRecord
  2
CENTER
 70
     0
  3
Center ____ _ ____ _ ____ _ ____ _ ____ _ ____
 72
    65
 73
     4
 40
10.16
 49
6.35
 74
     0
 49
-1.27
 74
     0
 49
1.27
 74
     0
 49
-1.27
 74
     0
  0
LTYPE
  5
6D
330
5
100
AcDbSymbolTableRecord
100
AcDbLinetypeTableRecord
  2
CENTERX2
 70
     0
  3
Center (2x) ________  __  ________  __  _____
 72
    65
 73
     4
 40
20.32
 49
12.7
 74
     0
 49
-2.54
 74
     0
 49
2.54
 74
     0
 49
-2.54
 74
     0
  0
LTYPE
  5
6E
330
5
100
AcDbSymbolTableRecord
100
AcDbLinetypeTableRecord
  2
DOT2
 70
     0
  3
Dot (.5x) ........................................
 72
    65
 73
     2
 40
0.635
 49
0.0
 74
     0
 49
-0.635
 74
     0
  0
ENDTAB
  0
TABLE
  2
LAYER
  5
2
102
{ACAD_XDICTIONARY
360
21C
102
}
330
0
100
AcDbSymbolTable
 70
    18
  0
LAYER
  5
10
330
2
100
AcDbSymbolTableRecord
100
AcDbLayerTableRecord
  2
0
 70
     0
 62
     7
  6
Continuous
370
    -3
390
F
  0
LAYER
  5
6F
330
2
100
AcDbSymbolTableRecord
100
AcDbLayerTableRecord
  2
FORMAT
 70
     0
 62
     2
  6
Continuous
370
    -3
390
F
  0
LAYER
  5
70
330
2
100
AcDbSymbolTableRecord
100
AcDbLayerTableRecord
  2
외형선
 70
     0
 62
     4
  6
Continuous
370
    30
390
F
  0
LAYER
  5
71
330
2
100
AcDbSymbolTableRecord
100
AcDbLayerTableRecord
  2
숨은선
 70
     0
 62
     2
  6
HIDDEN
370
    15
390
F
  0
LAYER
  5
72
330
2
100
AcDbSymbolTableRecord
100
AcDbLayerTableRecord
  2
중심선
 70
     0
 62
     1
  6
CENTERX2
370
    -3
390
F
  0
LAYER
  5
73
330
2
100
AcDbSymbolTableRecord
100
AcDbLayerTableRecord
  2
파단선
 70
     0
 62
     4
  6
Continuous
370
    -3
390
F
  0
LAYER
  5
74
330
2
100
AcDbSymbolTableRecord
100
AcDbLayerTableRecord
  2
해칭선
 70
     0
 62
   100
  6
Continuous
370
    -3
390
F
  0
LAYER
  5
75
330
2
100
AcDbSymbolTableRecord
100
AcDbLayerTableRecord
  2
가는실선
 70
     0
 62
     4
  6
Continuous
370
    -3
390
F
  0
LAYER
  5
76
330
2
100
AcDbSymbolTableRecord
100
AcDbLayerTableRecord
  2
치수_보조선
 70
     0
 62
     4
  6
Continuous
370
    -3
390
F
  0
LAYER
  5
77
330
2
100
AcDbSymbolTableRecord
100
AcDbLayerTableRecord
  2
치수문자_일반주서
 70
     0
 62
     7
  6
Continuous
370
    15
390
F
  0
LAYER
  5
78
330
2
100
AcDbSymbolTableRecord
100
AcDbLayerTableRecord
  2
개별주서
 70
     0
 62
   100
  6
Continuous
370
    30
390
F
  0
LAYER
  5
79
330
2
100
AcDbSymbolTableRecord
100
AcDbLayerTableRecord
  2
중간선
 70
     0
 62
     2
  6
Continuous
370
    15
390
F
  0
LAYER
  5
7A
330
2
100
AcDbSymbolTableRecord
100
AcDbLayerTableRecord
  2
윤곽선
 70
     0
 62
     3
  6
Continuous
370
    40
390
F
  0
LAYER
  5
7B
330
2
100
AcDbSymbolTableRecord
100
AcDbLayerTableRecord
  2
중심마크
 70
     0
 62
   100
  6
Continuous
370
    30
390
F
  0
LAYER
  5
7C
330
2
100
AcDbSymbolTableRecord
100
AcDbLayerTableRecord
  2
가상선
 70
     0
 62
     4
  6
PHANTOM
370
    -3
390
F
  0
LAYER
  5
7D
330
2
100
AcDbSymbolTableRecord
100
AcDbLayerTableRecord
  2
특수지정선
 70
     0
 62
     5
  6
CENTERX2
370
    60
390
F
  0
LAYER
  5
7E
330
2
100
AcDbSymbolTableRecord
100
AcDbLayerTableRecord
  2
참조1
 70
     0
 62
    -4
  6
Continuous
370
    -3
390
F
  0
LAYER
  5
164
330
2
100
AcDbSymbolTableRecord
100
AcDbLayerTableRecord
  2
Defpoints
 70
     0
 62
     7
  6
Continuous
290
     0
370
    -3
390
F
  0
ENDTAB
  0
TABLE
  2
STYLE
  5
3
330
0
100
AcDbSymbolTable
 70
     2
  0
STYLE
  5
11
330
3
100
AcDbSymbolTableRecord
100
AcDbTextStyleTableRecord
  2
Standard
 70
     0
 40
0.0
 41
1.0
 50
0.0
 71
     0
 42
3.5
  3
txt
  4

  0
STYLE
  5
94
330
3
100
AcDbSymbolTableRecord
100
AcDbTextStyleTableRecord
  2
SLDTEXTSTYLE0
 70
     0
 40
0.0
 41
0.75
 50
0.0
 71
     0
 42
3.5
  3
TXT
  4

  0
ENDTAB
  0
TABLE
  2
VIEW
  5
6
330
0
100
AcDbSymbolTable
 70
     0
  0
ENDTAB
  0
TABLE
  2
UCS
  5
7
330
0
100
AcDbSymbolTable
 70
     0
  0
ENDTAB
  0
TABLE
  2
APPID
  5
9
330
0
100
AcDbSymbolTable
 70
     3
  0
APPID
  5
12
330
9
100
AcDbSymbolTableRecord
100
AcDbRegAppTableRecord
  2
ACAD
 70
     0
  0
APPID
  5
170
330
9
100
AcDbSymbolTableRecord
100
AcDbRegAppTableRecord
  2
PE_URL
 70
     0
  0
APPID
  5
171
330
9
100
AcDbSymbolTableRecord
100
AcDbRegAppTableRecord
  2
ACAD_DSTYLE_DIMRADIAL_EXTENSION
 70
     0
  0
ENDTAB
  0
TABLE
  2
DIMSTYLE
  5
A
330
0
100
AcDbSymbolTable
 70
     4
100
AcDbDimStyleTable
  0
DIMSTYLE
105
27
330
A
100
AcDbSymbolTableRecord
100
AcDbDimStyleTableRecord
  2
ISO-25
 70
     0
 41
2.5
 42
0.625
 43
3.75
 44
1.25
 73
     0
 74
     0
 77
     1
 78
     8
140
2.5
141
2.5
143
0.03937007874016
147
0.625
171
     3
172
     1
178
     0
271
     2
272
     2
274
     3
278
    44
283
     0
284
     8
340
11
  0
DIMSTYLE
105
E2
102
{ACAD_REACTORS
330
E1
330
1D0
330
1DD
330
F6
330
10A
330
11E
102
}
330
A
100
AcDbSymbolTableRecord
100
AcDbDimStyleTableRecord
  2
SLDDIMSTYLE0
 70
     0
 41
3.302
 44
0.0
 45
0.000000001
 73
     0
 74
     0
 77
     1
 78
     4
 79
     1
140
3.5
143
0.0393700787401575
147
0.875
148
0.000000001
170
     1
172
     1
173
     1
178
     0
271
     2
272
     2
276
     2
284
    12
289
     0
340
94
  0
DIMSTYLE
105
F7
102
{ACAD_REACTORS
330
213
102
}
330
A
100
AcDbSymbolTableRecord
100
AcDbDimStyleTableRecord
  2
SLDDIMSTYLE1
 70
     0
 41
3.302
 44
0.0
 45
0.000000001
 73
     0
 74
     0
 77
     1
 78
     4
 79
     1
140
3.5
143
0.0393700787401575
147
0.875
148
0.000000001
170
     1
173
     1
178
     0
271
     2
272
     2
276
     2
284
    12
340
94
  0
DIMSTYLE
105
10B
102
{ACAD_REACTORS
330
1EA
330
1F9
102
}
330
A
100
AcDbSymbolTableRecord
100
AcDbDimStyleTableRecord
  2
SLDDIMSTYLE2
 70
     0
 41
3.302
 44
0.0
 45
0.000000001
 73
     0
 74
     0
 77
     1
 78
    12
 79
     3
140
3.5
143
0.0393700787401575
147
0.875
148
0.000000001
170
     1
173
     1
178
     0
271
     2
272
     2
276
     2
284
    12
340
94
  0
ENDTAB
  0
TABLE
  2
BLOCK_RECORD
  5
1
330
0
100
AcDbSymbolTable
 70
    18
  0
BLOCK_RECORD
  5
1F
330
1
100
AcDbSymbolTableRecord
100
AcDbBlockTableRecord
  2
*Model_Space
340
22
  0
BLOCK_RECORD
  5
1B
330
1
100
AcDbSymbolTableRecord
100
AcDbBlockTableRecord
  2
*Paper_Space
340
1E
  0
BLOCK_RECORD
  5
23
330
1
100
AcDbSymbolTableRecord
100
AcDbBlockTableRecord
  2
*Paper_Space0
340
26
  0
BLOCK_RECORD
  5
7F
330
1
100
AcDbSymbolTableRecord
100
AcDbBlockTableRecord
  2
블럭10
340
0
102
{BLKREFS
331
DA
102
}
  0
BLOCK_RECORD
  5
E3
330
1
100
AcDbSymbolTableRecord
100
AcDbBlockTableRecord
  2
_D
340
0
  0
BLOCK_RECORD
  5
F8
330
1
100
AcDbSymbolTableRecord
100
AcDbBlockTableRecord
  2
_D_1
340
0
  0
BLOCK_RECORD
  5
10C
330
1
100
AcDbSymbolTableRecord
100
AcDbBlockTableRecord
  2
_D_2
340
0
  0
BLOCK_RECORD
  5
11F
330
1
100
AcDbSymbolTableRecord
100
AcDbBlockTableRecord
  2
_D_3
340
0
  0
BLOCK_RECORD
  5
138
330
1
100
AcDbSymbolTableRecord
100
AcDbBlockTableRecord
  2
SW_DOWELSYMBOL_0
340
0
102
{BLKREFS
331
13E
331
208
331
0
102
}
  0
BLOCK_RECORD
  5
1FA
330
1
100
AcDbSymbolTableRecord
100
AcDbBlockTableRecord
  2
_D_4
340
0
  0
BLOCK_RECORD
  5
214
330
1
100
AcDbSymbolTableRecord
100
AcDbBlockTableRecord
  2
*D9
340
0
  0
BLOCK_RECORD
  5
220
330
1
100
AcDbSymbolTableRecord
100
AcDbBlockTableRecord
  2
*D10
340
0
  0
BLOCK_RECORD
  5
22C
330
1
100
AcDbSymbolTableRecord
100
AcDbBlockTableRecord
  2
*D11
340
0
  0
BLOCK_RECORD
  5
238
330
1
100
AcDbSymbolTableRecord
100
AcDbBlockTableRecord
  2
*D12
340
0
  0
BLOCK_RECORD
  5
293
330
1
100
AcDbSymbolTableRecord
100
AcDbBlockTableRecord
  2
*D13
340
0
  0
BLOCK_RECORD
  5
29F
330
1
100
AcDbSymbolTableRecord
100
AcDbBlockTableRecord
  2
*D14
340
0
  0
BLOCK_RECORD
  5
2AB
330
1
100
AcDbSymbolTableRecord
100
AcDbBlockTableRecord
  2
*D15
340
0
  0
BLOCK_RECORD
  5
2B9
330
1
100
AcDbSymbolTableRecord
100
AcDbBlockTableRecord
  2
*D16
340
0
  0
BLOCK_RECORD
  5
2C7
330
1
100
AcDbSymbolTableRecord
100
AcDbBlockTableRecord
  2
*D17
340
0
  0
ENDTAB
  0
ENDSEC
  0
SECTION
  2
BLOCKS
  0
BLOCK
  5
20
330
1F
100
AcDbEntity
  8
0
100
AcDbBlockBegin
  2
*Model_Space
 70
     0
 10
0.0
 20
0.0
 30
0.0
  3
*Model_Space
  1
*Model_Space
  0
ENDBLK
  5
21
330
1F
100
AcDbEntity
  8
0
100
AcDbBlockEnd
  0
BLOCK
  5
1C
330
1B
100
AcDbEntity
 67
     1
  8
0
100
AcDbBlockBegin
  2
*Paper_Space
 70
     0
 10
0.0
 20
0.0
 30
0.0
  3
*Paper_Space
  1
*Paper_Space
  0
ENDBLK
  5
1D
330
1B
100
AcDbEntity
 67
     1
  8
0
100
AcDbBlockEnd
  0
BLOCK
  5
24
330
23
100
AcDbEntity
  8
0
100
AcDbBlockBegin
  2
*Paper_Space0
 70
     0
 10
0.0
 20
0.0
 30
0.0
  3
*Paper_Space0
  1
*Paper_Space0
  0
ENDBLK
  5
25
330
23
100
AcDbEntity
  8
0
100
AcDbBlockEnd
  0
BLOCK
  5
80
330
7F
100
AcDbEntity
  8
0
100
AcDbBlockBegin
  2
블럭10
 70
     2
 10
0.0
 20
0.0
 30
0.0
  3
블럭10
  1
블럭10
  0
ELLIPSE
  5
82
330
7F
100
AcDbEntity
  8
중심선
100
AcDbEllipse
 10
20.54032771741204
 20
12.0471743016438
 30
0.0
 11
6.600054785286829
 21
-1.261213355974178E-13
 31
0.0
210
0.0
220
0.0
230
1.0
 40
0.636358354079598
 41
0.9219305317359503
 42
6.513795318482858
  0
ELLIPSE
  5
83
330
7F
100
AcDbEntity
  8
중심선
100
AcDbEllipse
 10
20.54032771746488
 20
12.04717430159265
 30
0.0
 11
3.960054785062283
 21
1.540847449632565E-10
 31
0.0
210
0.0
220
0.0
230
1.0
 40
0.3939339440162632
 41
1.131841032648279
 42
5.62031148352944
  0
LINE
  5
84
330
7F
100
AcDbEntity
  8
중심선
100
AcDbLine
 10
2.268634060543552
 20
16.24717430164393
 30
0.0
 11
5.714909304380834
 21
16.24717430164393
 31
0.0
  0
LINE
  5
85
330
7F
100
AcDbEntity
  8
중심선
100
AcDbLine
 10
5.245725140726316
 20
7.84717430164391
 30
0.0
 11
8.692000384563599
 21
7.84717430164391
 31
0.0
  0
LINE
  5
86
330
7F
100
AcDbEntity
  8
중심선
100
AcDbLine
 10
15.74043728645272
 20
16.24717430164393
 30
0.0
 11
8.692000384563599
 21
7.84717430164391
 31
0.0
  0
LINE
  5
87
330
7F
100
AcDbEntity
  8
중심선
100
AcDbLine
 10
0.1404042013395286
 20
13.71084872107135
 30
0.0
 11
3.58671253028996
 21
13.71088815037384
 31
0.0
  0
LINE
  5
88
330
7F
100
AcDbEntity
  8
중심선
100
AcDbLine
 10
2.750260043222114
 20
10.84717430164391
 30
0.0
 11
6.196535287059397
 21
10.84717430164391
 31
0.0
  0
LINE
  5
89
330
7F
100
AcDbEntity
  8
중심선
100
AcDbLine
 10
12.29416204261559
 20
16.24717430164393
 30
0.0
 11
5.245725140726316
 21
7.84717430164391
 31
0.0
  0
LINE
  5
8A
330
7F
100
AcDbEntity
  8
중심선
100
AcDbLine
 10
10.72767329541681
 20
16.24717430164393
 30
0.0
 11
6.196535287059397
 21
10.84717430164391
 31
0.0
  0
LINE
  5
8B
330
7F
100
AcDbEntity
  8
중심선
100
AcDbLine
 10
7.28139805157953
 20
16.24717430164393
 30
0.0
 11
2.750260043222114
 21
10.84717430164391
 31
0.0
  0
LINE
  5
8C
330
7F
100
AcDbEntity
  8
중심선
100
AcDbLine
 10
5.714909304380834
 20
16.24717430164393
 30
0.0
 11
3.58671253028996
 21
13.71088815037384
 31
0.0
  0
LINE
  5
8D
330
7F
100
AcDbEntity
  8
중심선
100
AcDbLine
 10
2.268634060543552
 20
16.24717430164393
 30
0.0
 11
0.1404042013395286
 21
13.71084872107135
 31
0.0
  0
LINE
  5
8E
330
7F
100
AcDbEntity
  8
중심선
100
AcDbLine
 10
7.28139805157953
 20
16.24717430164393
 30
0.0
 11
10.72767329541681
 21
16.24717430164393
 31
0.0
  0
LINE
  5
8F
330
7F
100
AcDbEntity
  8
중심선
100
AcDbLine
 10
12.29416204261559
 20
16.24717430164393
 30
0.0
 11
15.74043728645272
 21
16.24717430164393
 31
0.0
  0
LINE
  5
90
330
7F
100
AcDbEntity
  8
중심선
100
AcDbLine
 10
19.22036997980202
 20
11.08717430171403
 30
0.0
 11
23.66174974927406
 21
11.08717430171406
 31
0.0
  0
LINE
  5
91
330
7F
100
AcDbEntity
  8
중심선
100
AcDbLine
 10
19.22039502424796
 20
13.00717430171391
 30
0.0
 11
19.22036997980202
 21
11.08717430171403
 31
0.0
  0
LINE
  5
92
330
7F
100
AcDbEntity
  8
중심선
100
AcDbLine
 10
19.22039502424796
 20
13.00717430171391
 30
0.0
 11
26.96566020931264
 21
13.00717430171391
 31
0.0
  0
LINE
  5
93
330
7F
100
AcDbEntity
  8
중심선
100
AcDbLine
 10
22.22332737316547
 20
13.45928029700563
 30
0.0
 11
24.52862924686651
 21
15.39360700705356
 31
0.0
  0
ATTDEF
  5
95
330
7F
100
AcDbEntity
  8
FORMAT
 62
     2
100
AcDbText
 10
4.408487351596664
 20
2.075366912832191
 30
0.0
 40
4.233333333333333
  1
E5073032
 41
0.75
  7
SLDTEXTSTYLE0
 11
4.408487351596664
 21
-0.0412997538344756
 31
0.0
100
AcDbAttributeDefinition
  3

  2
AUTOATTR0
 70
     0
 74
     1
  0
ENDBLK
  5
81
330
7F
100
AcDbEntity
  8
0
100
AcDbBlockEnd
  0
BLOCK
  5
E4
330
E3
100
AcDbEntity
  8
0
100
AcDbBlockBegin
  2
_D
 70
     0
 10
0.0
 20
0.0
 30
0.0
  3
_D
  1
_D
  0
LINE
  5
E6
330
E3
100
AcDbEntity
  8
치수문자_일반주서
 62
     0
370
    -2
100
AcDbLine
 10
-61.81749999999998
 20
6.329071683520013
 30
0.0
 11
-75.3213744185031
 21
6.32907168351996
 31
0.0
  0
LINE
  5
E7
330
E3
100
AcDbEntity
  8
치수문자_일반주서
 62
     0
370
    -2
100
AcDbLine
 10
-61.81749999999998
 20
-6.370928316479976
 30
0.0
 11
-75.32137441850305
 21
-6.370928316480025
 31
0.0
  0
LINE
  5
E8
330
E3
100
AcDbEntity
  8
치수문자_일반주서
 62
     0
370
    -2
100
AcDbLine
 10
-75.3213744185031
 20
6.32907168351996
 30
0.0
 11
-75.32137441850321
 21
40.05807168351996
 31
0.0
  0
LINE
  5
E9
330
E3
100
AcDbEntity
  8
치수문자_일반주서
 62
     0
370
    -2
100
AcDbLine
 10
-75.3213744185031
 20
6.32907168351996
 30
0.0
 11
-75.32137441850305
 21
-6.370928316480025
 31
0.0
  0
LINE
  5
EA
330
E3
100
AcDbEntity
  8
치수문자_일반주서
 62
     0
370
    -2
100
AcDbLine
 10
-75.32137441850311
 20
9.63107168351996
 30
0.0
 11
-75.32137441850313
 21
12.93307168351996
 31
0.0
  0
LINE
  5
EB
330
E3
100
AcDbEntity
  8
치수문자_일반주서
 62
     0
370
    -2
100
AcDbLine
 10
-75.32137441850304
 20
-9.672928316480025
 30
0.0
 11
-75.32137441850303
 21
-12.97492831648002
 31
0.0
  0
SOLID
  5
EC
330
E3
100
AcDbEntity
  8
치수문자_일반주서
 62
     0
100
AcDbTrace
 10
-75.87170775183644
 20
9.631071683519957
 30
0.0
 11
-74.77104108516978
 21
9.631071683519961
 31
0.0
 12
-75.3213744185031
 22
6.32907168351996
 32
0.0
 13
-75.3213744185031
 23
6.32907168351996
 33
0.0
  0
SOLID
  5
ED
330
E3
100
AcDbEntity
  8
치수문자_일반주서
 62
     0
100
AcDbTrace
 10
-74.77104108516971
 20
-9.672928316480023
 30
0.0
 11
-75.87170775183637
 21
-9.672928316480027
 31
0.0
 12
-75.32137441850305
 22
-6.370928316480025
 32
0.0
 13
-75.32137441850305
 23
-6.370928316480025
 33
0.0
  0
MTEXT
  5
EE
330
E3
100
AcDbEntity
  8
치수문자_일반주서
 62
     0
100
AcDbMText
 10
-79.69637441850317
 20
26.71432168351995
 30
0.0
 40
3.5
 41
0.0
 71
     2
 72
     1
  1
\A1;%%c12.70 [1/2]
  7
SLDTEXTSTYLE0
 11
-3.356894814614650E-15
 21
1.0
 31
0.0
 73
     1
 44
1.0
  0
POINT
  5
2D1
330
E3
100
AcDbEntity
  8
Defpoints
 62
     0
100
AcDbPoint
 10
-61.75499999999998
 20
6.329071683520013
 30
0.0
  0
POINT
  5
2D2
330
E3
100
AcDbEntity
  8
Defpoints
 62
     0
100
AcDbPoint
 10
-61.75499999999998
 20
-6.370928316479976
 30
0.0
  0
POINT
  5
2D3
330
E3
100
AcDbEntity
  8
Defpoints
 62
     0
100
AcDbPoint
 10
-75.32137441850305
 20
-6.370928316480026
 30
0.0
  0
ENDBLK
  5
E5
330
E3
100
AcDbEntity
  8
0
100
AcDbBlockEnd
  0
BLOCK
  5
F9
330
F8
100
AcDbEntity
  8
0
100
AcDbBlockBegin
  2
_D_1
 70
     0
 10
0.0
 20
0.0
 30
0.0
  3
_D_1
  1
_D_1
  0
LINE
  5
FB
330
F8
100
AcDbEntity
  8
치수문자_일반주서
 62
     0
370
    -2
100
AcDbLine
 10
89.43750000000003
 20
6.329071683520021
 30
0.0
 11
109.878291949087
 21
6.329071683520095
 31
0.0
  0
LINE
  5
FC
330
F8
100
AcDbEntity
  8
치수문자_일반주서
 62
     0
370
    -2
100
AcDbLine
 10
89.43750000000003
 20
-6.370928316479924
 30
0.0
 11
109.8782919490871
 21
-6.370928316479844
 31
0.0
  0
LINE
  5
FD
330
F8
100
AcDbEntity
  8
치수문자_일반주서
 62
     0
370
    -2
100
AcDbLine
 10
109.878291949087
 20
6.329071683520095
 30
0.0
 11
109.8782919490869
 21
40.0580716835201
 31
0.0
  0
LINE
  5
FE
330
F8
100
AcDbEntity
  8
치수문자_일반주서
 62
     0
370
    -2
100
AcDbLine
 10
109.878291949087
 20
6.329071683520095
 30
0.0
 11
109.8782919490871
 21
-6.370928316479844
 31
0.0
  0
LINE
  5
FF
330
F8
100
AcDbEntity
  8
치수문자_일반주서
 62
     0
370
    -2
100
AcDbLine
 10
109.878291949087
 20
9.631071683520094
 30
0.0
 11
109.878291949087
 21
12.93307168352009
 31
0.0
  0
LINE
  5
100
330
F8
100
AcDbEntity
  8
치수문자_일반주서
 62
     0
370
    -2
100
AcDbLine
 10
109.8782919490871
 20
-9.672928316479844
 30
0.0
 11
109.8782919490871
 21
-12.97492831647984
 31
0.0
  0
SOLID
  5
101
330
F8
100
AcDbEntity
  8
치수문자_일반주서
 62
     0
100
AcDbTrace
 10
109.3279586157537
 20
9.631071683520092
 30
0.0
 11
110.4286252824203
 21
9.631071683520096
 31
0.0
 12
109.878291949087
 22
6.329071683520095
 32
0.0
 13
109.878291949087
 23
6.329071683520095
 33
0.0
  0
SOLID
  5
102
330
F8
100
AcDbEntity
  8
치수문자_일반주서
 62
     0
100
AcDbTrace
 10
110.4286252824204
 20
-9.672928316479842
 30
0.0
 11
109.3279586157538
 21
-9.672928316479846
 31
0.0
 12
109.8782919490871
 22
-6.370928316479844
 32
0.0
 13
109.8782919490871
 23
-6.370928316479844
 33
0.0
  0
MTEXT
  5
103
330
F8
100
AcDbEntity
  8
치수문자_일반주서
 62
     0
100
AcDbMText
 10
105.503291949087
 20
26.71432168352008
 30
0.0
 40
3.5
 41
0.0
 71
     2
 72
     1
  1
\A1;%%c12.70 [1/2]
  7
SLDTEXTSTYLE0
 11
-3.356894814614661E-15
 21
1.0
 31
0.0
 73
     1
 44
1.0
  0
POINT
  5
104
330
F8
100
AcDbEntity
  8
Defpoints
 62
     0
100
AcDbPoint
 10
89.37500000000003
 20
6.329071683520021
 30
0.0
  0
POINT
  5
105
330
F8
100
AcDbEntity
  8
Defpoints
 62
     0
100
AcDbPoint
 10
89.37500000000003
 20
-6.370928316479924
 30
0.0
  0
POINT
  5
106
330
F8
100
AcDbEntity
  8
Defpoints
 62
     0
100
AcDbPoint
 10
109.8782919490871
 20
-6.370928316479848
 30
0.0
  0
ENDBLK
  5
FA
330
F8
100
AcDbEntity
  8
0
100
AcDbBlockEnd
  0
BLOCK
  5
10D
330
10C
100
AcDbEntity
  8
0
100
AcDbBlockBegin
  2
_D_2
 70
     0
 10
0.0
 20
0.0
 30
0.0
  3
_D_2
  1
_D_2
  0
LINE
  5
10F
330
10C
100
AcDbEntity
  8
치수문자_일반주서
 62
     0
370
    -2
100
AcDbLine
 10
89.37500000000003
 20
6.345232881762566
 30
0.0
 11
89.37500000000003
 21
16.98318170672141
 31
0.0
  0
LINE
  5
110
330
10C
100
AcDbEntity
  8
치수문자_일반주서
 62
     0
370
    -2
100
AcDbLine
 10
10.00000000000003
 20
6.391571683520018
 30
0.0
 11
10.00000000000003
 21
16.98318170672141
 31
0.0
  0
LINE
  5
111
330
10C
100
AcDbEntity
  8
치수문자_일반주서
 62
     0
370
    -2
100
AcDbLine
 10
86.07300000000004
 20
16.98318170672141
 30
0.0
 11
13.30200000000003
 21
16.98318170672141
 31
0.0
  0
SOLID
  5
112
330
10C
100
AcDbEntity
  8
치수문자_일반주서
 62
     0
100
AcDbTrace
 10
86.07300000000004
 20
16.43284837338808
 30
0.0
 11
86.07300000000004
 21
17.53351504005474
 31
0.0
 12
89.37500000000003
 22
16.98318170672141
 32
0.0
 13
89.37500000000003
 23
16.98318170672141
 33
0.0
  0
SOLID
  5
113
330
10C
100
AcDbEntity
  8
치수문자_일반주서
 62
     0
100
AcDbTrace
 10
13.30200000000003
 20
17.53351504005474
 30
0.0
 11
13.30200000000003
 21
16.43284837338808
 31
0.0
 12
10.00000000000003
 22
16.98318170672141
 32
0.0
 13
10.00000000000003
 23
16.98318170672141
 33
0.0
  0
MTEXT
  5
114
330
10C
100
AcDbEntity
  8
치수문자_일반주서
 62
     0
100
AcDbMText
 10
49.68750000000001
 20
21.35818170672141
 30
0.0
 40
3.5
 41
0.0
 71
     2
 72
     1
  1
\A1;79.38 [3 1/8]
  7
SLDTEXTSTYLE0
 73
     1
 44
1.0
  0
POINT
  5
115
330
10C
100
AcDbEntity
  8
Defpoints
 62
     0
100
AcDbPoint
 10
89.37500000000003
 20
6.282732881762566
 30
0.0
  0
POINT
  5
116
330
10C
100
AcDbEntity
  8
Defpoints
 62
     0
100
AcDbPoint
 10
10.00000000000003
 20
6.329071683520018
 30
0.0
  0
POINT
  5
117
330
10C
100
AcDbEntity
  8
Defpoints
 62
     0
100
AcDbPoint
 10
10.00000000000003
 20
16.98318170672141
 30
0.0
  0
ENDBLK
  5
10E
330
10C
100
AcDbEntity
  8
0
100
AcDbBlockEnd
  0
BLOCK
  5
120
330
11F
100
AcDbEntity
  8
0
100
AcDbBlockBegin
  2
_D_3
 70
     0
 10
0.0
 20
0.0
 30
0.0
  3
_D_3
  1
_D_3
  0
LINE
  5
122
330
11F
100
AcDbEntity
  8
치수문자_일반주서
 62
     0
370
    -2
100
AcDbLine
 10
89.37500000000003
 20
6.345232881762566
 30
0.0
 11
89.37500000000003
 21
28.98318170672151
 31
0.0
  0
LINE
  5
123
330
11F
100
AcDbEntity
  8
치수문자_일반주서
 62
     0
370
    -2
100
AcDbLine
 10
-63.02499999999998
 20
5.121571683520021
 30
0.0
 11
-63.02499999999998
 21
28.98318170672151
 31
0.0
  0
LINE
  5
124
330
11F
100
AcDbEntity
  8
치수문자_일반주서
 62
     0
370
    -2
100
AcDbLine
 10
86.07300000000004
 20
28.98318170672151
 30
0.0
 11
-59.72299999999998
 21
28.98318170672151
 31
0.0
  0
SOLID
  5
125
330
11F
100
AcDbEntity
  8
치수문자_일반주서
 62
     0
100
AcDbTrace
 10
86.07300000000004
 20
28.43284837338818
 30
0.0
 11
86.07300000000004
 21
29.53351504005484
 31
0.0
 12
89.37500000000003
 22
28.98318170672151
 32
0.0
 13
89.37500000000003
 23
28.98318170672151
 33
0.0
  0
SOLID
  5
126
330
11F
100
AcDbEntity
  8
치수문자_일반주서
 62
     0
100
AcDbTrace
 10
-59.72299999999998
 20
29.53351504005484
 30
0.0
 11
-59.72299999999998
 21
28.43284837338818
 31
0.0
 12
-63.02499999999998
 22
28.98318170672151
 32
0.0
 13
-63.02499999999998
 23
28.98318170672151
 33
0.0
  0
MTEXT
  5
127
330
11F
100
AcDbEntity
  8
치수문자_일반주서
 62
     0
100
AcDbMText
 10
11.80891437423952
 20
33.35818170672151
 30
0.0
 40
3.5
 41
0.0
 71
     2
 72
     1
  1
\A1;152.40 [6]
  7
SLDTEXTSTYLE0
 73
     1
 44
1.0
  0
POINT
  5
128
330
11F
100
AcDbEntity
  8
Defpoints
 62
     0
100
AcDbPoint
 10
89.37500000000003
 20
6.282732881762566
 30
0.0
  0
POINT
  5
129
330
11F
100
AcDbEntity
  8
Defpoints
 62
     0
100
AcDbPoint
 10
-63.02499999999998
 20
5.059071683520021
 30
0.0
  0
POINT
  5
12A
330
11F
100
AcDbEntity
  8
Defpoints
 62
     0
100
AcDbPoint
 10
-63.02499999999998
 20
28.98318170672151
 30
0.0
  0
ENDBLK
  5
121
330
11F
100
AcDbEntity
  8
0
100
AcDbBlockEnd
  0
BLOCK
  5
139
330
138
100
AcDbEntity
  8
0
100
AcDbBlockBegin
  2
SW_DOWELSYMBOL_0
 70
     0
 10
0.0
 20
0.0
 30
0.0
  3
SW_DOWELSYMBOL_0
  1
SW_DOWELSYMBOL_0
  0
CIRCLE
  5
13B
330
138
100
AcDbEntity
  8
해칭선
 62
     0
100
AcDbCircle
 10
0.0
 20
0.0
 30
0.0
 40
3.000000000000004
  0
HATCH
  5
13C
330
138
100
AcDbEntity
  8
0
  6
Continuous
 62
     0
370
     0
100
AcDbHatch
 10
0.0
 20
0.0
 30
0.0
210
0.0
220
0.0
230
1.0
  2
SOLID
 70
     1
 71
     0
 91
        1
 92
        0
 93
        3
 72
     2
 10
0.0
 20
0.0
 40
3.000000000000004
 50
0.0
 51
90.0
 73
     1
 72
     1
 10
0.0
 20
3.000000000000004
 11
0.0
 21
0.0
 72
     1
 10
0.0
 20
0.0
 11
3.000000000000004
 21
0.0
 97
        0
 75
     0
 76
     1
 98
        1
 10
0.0
 20
0.0
  0
HATCH
  5
13D
330
138
100
AcDbEntity
  8
0
  6
Continuous
 62
     0
370
     0
100
AcDbHatch
 10
0.0
 20
0.0
 30
0.0
210
0.0
220
0.0
230
1.0
  2
SOLID
 70
     1
 71
     0
 91
        1
 92
        0
 93
        3
 72
     2
 10
0.0
 20
0.0
 40
3.000000000000004
 50
180.0
 51
270.0000000000008
 73
     1
 72
     1
 10
0.0
 20
-3.000000000000004
 11
0.0
 21
0.0
 72
     1
 10
0.0
 20
0.0
 11
-3.000000000000006
 21
0.0
 97
        0
 75
     0
 76
     1
 98
        1
 10
0.0
 20
0.0
  0
ENDBLK
  5
13A
330
138
100
AcDbEntity
  8
0
100
AcDbBlockEnd
  0
BLOCK
  5
1FB
330
1FA
100
AcDbEntity
  8
0
100
AcDbBlockBegin
  2
_D_4
 70
     0
 10
0.0
 20
0.0
 30
0.0
  3
_D_4
  1
_D_4
  0
LINE
  5
1FC
330
1FA
100
AcDbEntity
  8
치수문자_일반주서
 62
     0
370
    -2
100
AcDbLine
 10
102.4375000000001
 20
36.22143424691529
 30
0.0
 11
117.3750000000001
 21
36.22143424691535
 31
0.0
  0
LINE
  5
1FD
330
1FA
100
AcDbEntity
  8
치수문자_일반주서
 62
     0
370
    -2
100
AcDbLine
 10
102.4375000000001
 20
22.22143424691529
 30
0.0
 11
117.3750000000001
 21
22.22143424691535
 31
0.0
  0
LINE
  5
1FE
330
1FA
100
AcDbEntity
  8
치수문자_일반주서
 62
     0
370
    -2
100
AcDbLine
 10
117.3750000000001
 20
36.22143424691535
 30
0.0
 11
117.3750000000001
 21
22.22143424691535
 31
0.0
  0
LINE
  5
1FF
330
1FA
100
AcDbEntity
  8
치수문자_일반주서
 62
     0
370
    -2
100
AcDbLine
 10
117.3750000000001
 20
39.52343424691535
 30
0.0
 11
117.375
 21
42.82543424691535
 31
0.0
  0
LINE
  5
200
330
1FA
100
AcDbEntity
  8
치수문자_일반주서
 62
     0
370
    -2
100
AcDbLine
 10
117.3750000000001
 20
18.91943424691535
 30
0.0
 11
117.3750000000001
 21
15.61743424691535
 31
0.0
  0
SOLID
  5
201
330
1FA
100
AcDbEntity
  8
치수문자_일반주서
 62
     0
100
AcDbTrace
 10
116.8246666666667
 20
39.52343424691535
 30
0.0
 11
117.9253333333334
 21
39.52343424691535
 31
0.0
 12
117.3750000000001
 22
36.22143424691535
 32
0.0
 13
117.3750000000001
 23
36.22143424691535
 33
0.0
  0
SOLID
  5
202
330
1FA
100
AcDbEntity
  8
치수문자_일반주서
 62
     0
100
AcDbTrace
 10
117.9253333333335
 20
18.91943424691535
 30
0.0
 11
116.8246666666668
 21
18.91943424691535
 31
0.0
 12
117.3750000000001
 22
22.22143424691535
 32
0.0
 13
117.3750000000001
 23
22.22143424691535
 33
0.0
  0
MTEXT
  5
203
330
1FA
100
AcDbEntity
  8
치수문자_일반주서
 62
     0
100
AcDbMText
 10
113.0000000000001
 20
29.28713862862833
 30
0.0
 40
3.5
 41
0.0
 71
     2
 72
     1
  1
\A1;%%c14 [0.55]
  7
SLDTEXTSTYLE0
 11
-3.045183153257572E-15
 21
1.0
 31
0.0
 73
     1
 44
1.0
  0
POINT
  5
204
330
1FA
100
AcDbEntity
  8
Defpoints
 62
     0
100
AcDbPoint
 10
102.3750000000001
 20
36.22143424691529
 30
0.0
  0
POINT
  5
205
330
1FA
100
AcDbEntity
  8
Defpoints
 62
     0
100
AcDbPoint
 10
102.3750000000001
 20
22.22143424691529
 30
0.0
  0
POINT
  5
206
330
1FA
100
AcDbEntity
  8
Defpoints
 62
     0
100
AcDbPoint
 10
117.3750000000001
 20
22.22143424691535
 30
0.0
  0
ENDBLK
  5
207
330
1FA
100
AcDbEntity
  8
0
100
AcDbBlockEnd
  0
BLOCK
  5
215
330
214
100
AcDbEntity
  8
0
100
AcDbBlockBegin
  2
*D9
 70
     1
 10
0.0
 20
0.0
 30
0.0
  3
*D9
  1
*D8
  0
LINE
  5
216
330
214
100
AcDbEntity
  8
치수문자_일반주서
 62
     0
370
    -2
100
AcDbLine
 10
103.8657751816695
 20
19.48229575403651
 30
0.0
 11
120.1921280501954
 21
-7.081888143622854
 31
0.0
  0
MTEXT
  5
217
330
214
100
AcDbEntity
  8
치수문자_일반주서
 62
     0
100
AcDbMText
 10
115.6706384014277
 20
5.288158154535728
 30
0.0
 40
3.5
 41
0.0
 71
     5
 72
     1
  1
\A1;R.50 [R0.02]
  7
SLDTEXTSTYLE0
 11
0.5236126201129557
 21
-0.8519564684057781
 31
0.0
 73
     1
 44
1.0
  0
SOLID
  5
218
330
214
100
AcDbEntity
  8
치수문자_일반주서
 62
     0
100
AcDbTrace
 10
104.3346352247821
 20
19.77045723263868
 30
0.0
 11
103.3969151385569
 21
19.19413427543435
 31
0.0
 12
102.1368063100565
 22
22.29545601271239
 32
0.0
 13
102.1368063100565
 23
22.29545601271239
 33
0.0
  0
LINE
  5
219
330
214
100
AcDbEntity
  8
치수문자_일반주서
 62
     0
100
AcDbLine
 10
101.785
 20
22.72143424691529
 30
0.0
 11
101.965
 21
22.72143424691529
 31
0.0
  0
LINE
  5
21A
330
214
100
AcDbEntity
  8
치수문자_일반주서
 62
     0
100
AcDbLine
 10
101.875
 20
22.63143424691529
 30
0.0
 11
101.875
 21
22.81143424691529
 31
0.0
  0
POINT
  5
246
330
214
100
AcDbEntity
  8
Defpoints
 62
     0
100
AcDbPoint
 10
102.1368063100565
 20
22.29545601271239
 30
0.0
  0
POINT
  5
247
330
214
100
AcDbEntity
  8
Defpoints
 62
     0
100
AcDbPoint
 10
101.875
 20
22.72143424691529
 30
0.0
  0
ENDBLK
  5
21B
330
214
100
AcDbEntity
  8
0
100
AcDbBlockEnd
  0
BLOCK
  5
221
330
220
100
AcDbEntity
  8
0
100
AcDbBlockBegin
  2
*D10
 70
     1
 10
0.0
 20
0.0
 30
0.0
  3
*D10
  1
*D10
  0
LINE
  5
223
330
220
100
AcDbEntity
  8
치수문자_일반주서
 62
     0
370
    -2
100
AcDbLine
 10
19.37500000000004
 20
35.78393424691529
 30
0.0
 11
19.37500000000004
 21
70.88391841499404
 31
0.0
  0
LINE
  5
224
330
220
100
AcDbEntity
  8
치수문자_일반주서
 62
     0
370
    -2
100
AcDbLine
 10
102.3750000000001
 20
36.34643424691529
 30
0.0
 11
102.3750000000001
 21
70.88391841499404
 31
0.0
  0
LINE
  5
225
330
220
100
AcDbEntity
  8
치수문자_일반주서
 62
     0
370
    -2
100
AcDbLine
 10
22.67700000000004
 20
70.88391841499404
 30
0.0
 11
99.07300000000006
 21
70.88391841499404
 31
0.0
  0
SOLID
  5
226
330
220
100
AcDbEntity
  8
치수문자_일반주서
 62
     0
100
AcDbTrace
 10
22.67700000000004
 20
71.43425174832737
 30
0.0
 11
22.67700000000004
 21
70.33358508166071
 31
0.0
 12
19.37500000000004
 22
70.88391841499404
 32
0.0
 13
19.37500000000004
 23
70.88391841499404
 33
0.0
  0
SOLID
  5
227
330
220
100
AcDbEntity
  8
치수문자_일반주서
 62
     0
100
AcDbTrace
 10
99.07300000000006
 20
70.33358508166071
 30
0.0
 11
99.07300000000006
 21
71.43425174832737
 31
0.0
 12
102.3750000000001
 22
70.88391841499404
 32
0.0
 13
102.3750000000001
 23
70.88391841499404
 33
0.0
  0
MTEXT
  5
228
330
220
100
AcDbEntity
  8
치수문자_일반주서
 62
     0
100
AcDbMText
 10
60.87500000000005
 20
75.25891841499404
 30
0.0
 40
3.5
 41
0.0
 71
     2
 72
     1
  1
\A1;83.00 [3.27]
  7
SLDTEXTSTYLE0
 73
     1
 44
1.0
  0
POINT
  5
229
330
220
100
AcDbEntity
  8
Defpoints
 62
     0
100
AcDbPoint
 10
19.37500000000004
 20
35.72143424691529
 30
0.0
  0
POINT
  5
22A
330
220
100
AcDbEntity
  8
Defpoints
 62
     0
100
AcDbPoint
 10
102.3750000000001
 20
36.28393424691529
 30
0.0
  0
POINT
  5
22B
330
220
100
AcDbEntity
  8
Defpoints
 62
     0
100
AcDbPoint
 10
102.3750000000001
 20
70.88391841499404
 30
0.0
  0
ENDBLK
  5
222
330
220
100
AcDbEntity
  8
0
100
AcDbBlockEnd
  0
BLOCK
  5
22D
330
22C
100
AcDbEntity
  8
0
100
AcDbBlockBegin
  2
*D11
 70
     1
 10
0.0
 20
0.0
 30
0.0
  3
*D11
  1
*D11
  0
LINE
  5
22F
330
22C
100
AcDbEntity
  8
치수문자_일반주서
 62
     0
370
    -2
100
AcDbLine
 10
76.37504186422882
 20
28.62038676313042
 30
0.0
 11
76.37504186422882
 21
61.90091383617725
 31
0.0
  0
LINE
  5
230
330
22C
100
AcDbEntity
  8
치수문자_일반주서
 62
     0
370
    -2
100
AcDbLine
 10
102.3750000000001
 20
36.28393424691529
 30
0.0
 11
102.3750000000001
 21
61.90091383617725
 31
0.0
  0
LINE
  5
231
330
22C
100
AcDbEntity
  8
치수문자_일반주서
 62
     0
370
    -2
100
AcDbLine
 10
79.67704186422881
 20
61.90091383617725
 30
0.0
 11
99.07300000000006
 21
61.90091383617725
 31
0.0
  0
SOLID
  5
232
330
22C
100
AcDbEntity
  8
치수문자_일반주서
 62
     0
100
AcDbTrace
 10
79.67704186422881
 20
62.45124716951059
 30
0.0
 11
79.67704186422881
 21
61.35058050284392
 31
0.0
 12
76.37504186422882
 22
61.90091383617725
 32
0.0
 13
76.37504186422882
 23
61.90091383617725
 33
0.0
  0
SOLID
  5
233
330
22C
100
AcDbEntity
  8
치수문자_일반주서
 62
     0
100
AcDbTrace
 10
99.07300000000006
 20
61.35058050284392
 30
0.0
 11
99.07300000000006
 21
62.45124716951059
 31
0.0
 12
102.3750000000001
 22
61.90091383617725
 32
0.0
 13
102.3750000000001
 23
61.90091383617725
 33
0.0
  0
MTEXT
  5
234
330
22C
100
AcDbEntity
  8
치수문자_일반주서
 62
     0
100
AcDbMText
 10
89.42159572693208
 20
66.27591383617725
 30
0.0
 40
3.5
 41
0.0
 71
     2
 72
     1
  1
\A1;26.00 [1.02]
  7
SLDTEXTSTYLE0
 73
     1
 44
1.0
  0
POINT
  5
235
330
22C
100
AcDbEntity
  8
Defpoints
 62
     0
100
AcDbPoint
 10
76.37504186422882
 20
28.55788676313042
 30
0.0
  0
POINT
  5
236
330
22C
100
AcDbEntity
  8
Defpoints
 62
     0
100
AcDbPoint
 10
102.3750000000001
 20
36.22143424691529
 30
0.0
  0
POINT
  5
237
330
22C
100
AcDbEntity
  8
Defpoints
 62
     0
100
AcDbPoint
 10
102.3750000000001
 20
61.90091383617725
 30
0.0
  0
ENDBLK
  5
22E
330
22C
100
AcDbEntity
  8
0
100
AcDbBlockEnd
  0
BLOCK
  5
239
330
238
100
AcDbEntity
  8
0
100
AcDbBlockBegin
  2
*D12
 70
     1
 10
0.0
 20
0.0
 30
0.0
  3
*D12
  1
*D12
  0
LINE
  5
23B
330
238
100
AcDbEntity
  8
치수문자_일반주서
 62
     0
370
    -2
100
AcDbLine
 10
19.81250000000005
 20
36.22143424691529
 30
0.0
 11
4.374999999999983
 21
36.22143424691524
 31
0.0
  0
LINE
  5
23C
330
238
100
AcDbEntity
  8
치수문자_일반주서
 62
     0
370
    -2
100
AcDbLine
 10
19.81250000000005
 20
22.22143424691529
 30
0.0
 11
4.375000000000032
 21
22.22143424691524
 31
0.0
  0
LINE
  5
23D
330
238
100
AcDbEntity
  8
치수문자_일반주서
 62
     0
370
    -2
100
AcDbLine
 10
4.374999999999983
 20
36.22143424691524
 30
0.0
 11
4.375000000000032
 21
22.22143424691524
 31
0.0
  0
LINE
  5
23E
330
238
100
AcDbEntity
  8
치수문자_일반주서
 62
     0
370
    -2
100
AcDbLine
 10
4.374999999999972
 20
39.52343424691524
 30
0.0
 11
4.37499999999996
 21
42.82543424691524
 31
0.0
  0
LINE
  5
23F
330
238
100
AcDbEntity
  8
치수문자_일반주서
 62
     0
370
    -2
100
AcDbLine
 10
4.375000000000044
 20
18.91943424691524
 30
0.0
 11
4.375000000000055
 21
15.61743424691524
 31
0.0
  0
SOLID
  5
240
330
238
100
AcDbEntity
  8
치수문자_일반주서
 62
     0
100
AcDbTrace
 10
3.824666666666638
 20
39.52343424691524
 30
0.0
 11
4.925333333333305
 21
39.52343424691524
 31
0.0
 12
4.374999999999983
 22
36.22143424691524
 32
0.0
 13
4.374999999999983
 23
36.22143424691524
 33
0.0
  0
SOLID
  5
241
330
238
100
AcDbEntity
  8
치수문자_일반주서
 62
     0
100
AcDbTrace
 10
4.925333333333377
 20
18.91943424691524
 30
0.0
 11
3.82466666666671
 21
18.91943424691523
 31
0.0
 12
4.375000000000032
 22
22.22143424691524
 32
0.0
 13
4.375000000000032
 23
22.22143424691524
 33
0.0
  0
MTEXT
  5
242
330
238
100
AcDbEntity
  8
치수문자_일반주서
 62
     0
100
AcDbMText
 10
0.0000000000000071
 20
29.22143424691528
 30
0.0
 40
3.5
 41
0.0
 71
     2
 72
     1
  1
\A1;%%c14 [0.55]
  7
SLDTEXTSTYLE0
 11
-3.489272363107635E-15
 21
1.0
 31
0.0
 73
     1
 44
1.0
  0
POINT
  5
243
330
238
100
AcDbEntity
  8
Defpoints
 62
     0
100
AcDbPoint
 10
19.87500000000005
 20
36.22143424691529
 30
0.0
  0
POINT
  5
244
330
238
100
AcDbEntity
  8
Defpoints
 62
     0
100
AcDbPoint
 10
19.87500000000005
 20
22.22143424691529
 30
0.0
  0
POINT
  5
245
330
238
100
AcDbEntity
  8
Defpoints
 62
     0
100
AcDbPoint
 10
4.375000000000043
 20
22.22143424691524
 30
0.0
  0
ENDBLK
  5
23A
330
238
100
AcDbEntity
  8
0
100
AcDbBlockEnd
  0
BLOCK
  5
294
330
293
100
AcDbEntity
  8
0
100
AcDbBlockBegin
  2
*D13
 70
     1
 10
0.0
 20
0.0
 30
0.0
  3
*D13
  1
*D13
  0
LINE
  5
296
330
293
100
AcDbEntity
  8
치수문자_일반주서
 62
     0
370
    -2
100
AcDbLine
 10
-56.56309159040414
 20
87.30849597884298
 30
0.0
 11
-56.56309159040414
 21
122.4084801469217
 31
0.0
  0
LINE
  5
297
330
293
100
AcDbEntity
  8
치수문자_일반주서
 62
     0
370
    -2
100
AcDbLine
 10
26.43690840959587
 20
87.87099597884298
 30
0.0
 11
26.43690840959587
 21
122.4084801469217
 31
0.0
  0
LINE
  5
298
330
293
100
AcDbEntity
  8
치수문자_일반주서
 62
     0
370
    -2
100
AcDbLine
 10
-53.26109159040414
 20
122.4084801469217
 30
0.0
 11
23.13490840959587
 21
122.4084801469217
 31
0.0
  0
SOLID
  5
299
330
293
100
AcDbEntity
  8
치수문자_일반주서
 62
     0
100
AcDbTrace
 10
-53.26109159040414
 20
122.9588134802551
 30
0.0
 11
-53.26109159040414
 21
121.8581468135884
 31
0.0
 12
-56.56309159040414
 22
122.4084801469217
 32
0.0
 13
-56.56309159040414
 23
122.4084801469217
 33
0.0
  0
SOLID
  5
29A
330
293
100
AcDbEntity
  8
치수문자_일반주서
 62
     0
100
AcDbTrace
 10
23.13490840959587
 20
121.8581468135884
 30
0.0
 11
23.13490840959587
 21
122.9588134802551
 31
0.0
 12
26.43690840959587
 22
122.4084801469217
 32
0.0
 13
26.43690840959587
 23
122.4084801469217
 33
0.0
  0
MTEXT
  5
29B
330
293
100
AcDbEntity
  8
치수문자_일반주서
 62
     0
100
AcDbMText
 10
-15.06309159040413
 20
126.7834801469217
 30
0.0
 40
3.5
 41
0.0
 71
     2
 72
     1
  1
\A1;83.00 [3.27]
  7
SLDTEXTSTYLE0
 73
     1
 44
1.0
  0
POINT
  5
29C
330
293
100
AcDbEntity
  8
Defpoints
 62
     0
100
AcDbPoint
 10
-56.56309159040414
 20
87.24599597884298
 30
0.0
  0
POINT
  5
29D
330
293
100
AcDbEntity
  8
Defpoints
 62
     0
100
AcDbPoint
 10
26.43690840959587
 20
87.80849597884298
 30
0.0
  0
POINT
  5
29E
330
293
100
AcDbEntity
  8
Defpoints
 62
     0
100
AcDbPoint
 10
26.43690840959587
 20
122.4084801469217
 30
0.0
  0
ENDBLK
  5
295
330
293
100
AcDbEntity
  8
0
100
AcDbBlockEnd
  0
BLOCK
  5
2A0
330
29F
100
AcDbEntity
  8
0
100
AcDbBlockBegin
  2
*D14
 70
     1
 10
0.0
 20
0.0
 30
0.0
  3
*D14
  1
*D14
  0
LINE
  5
2A2
330
29F
100
AcDbEntity
  8
치수문자_일반주서
 62
     0
370
    -2
100
AcDbLine
 10
0.4369502738246354
 20
80.14494849505812
 30
0.0
 11
0.4369502738246354
 21
113.4254755681049
 31
0.0
  0
LINE
  5
2A3
330
29F
100
AcDbEntity
  8
치수문자_일반주서
 62
     0
370
    -2
100
AcDbLine
 10
26.43690840959587
 20
87.80849597884298
 30
0.0
 11
26.43690840959587
 21
113.4254755681049
 31
0.0
  0
LINE
  5
2A4
330
29F
100
AcDbEntity
  8
치수문자_일반주서
 62
     0
370
    -2
100
AcDbLine
 10
3.738950273824635
 20
113.4254755681049
 30
0.0
 11
23.13490840959587
 21
113.4254755681049
 31
0.0
  0
SOLID
  5
2A5
330
29F
100
AcDbEntity
  8
치수문자_일반주서
 62
     0
100
AcDbTrace
 10
3.738950273824635
 20
113.9758089014383
 30
0.0
 11
3.738950273824635
 21
112.8751422347716
 31
0.0
 12
0.4369502738246354
 22
113.4254755681049
 32
0.0
 13
0.4369502738246354
 23
113.4254755681049
 33
0.0
  0
SOLID
  5
2A6
330
29F
100
AcDbEntity
  8
치수문자_일반주서
 62
     0
100
AcDbTrace
 10
23.13490840959587
 20
112.8751422347716
 30
0.0
 11
23.13490840959587
 21
113.9758089014383
 31
0.0
 12
26.43690840959587
 22
113.4254755681049
 32
0.0
 13
26.43690840959587
 23
113.4254755681049
 33
0.0
  0
MTEXT
  5
2A7
330
29F
100
AcDbEntity
  8
치수문자_일반주서
 62
     0
100
AcDbMText
 10
13.4835041365279
 20
117.8004755681049
 30
0.0
 40
3.5
 41
0.0
 71
     2
 72
     1
  1
\A1;26.00 [1.02]
  7
SLDTEXTSTYLE0
 73
     1
 44
1.0
  0
POINT
  5
2A8
330
29F
100
AcDbEntity
  8
Defpoints
 62
     0
100
AcDbPoint
 10
0.4369502738246354
 20
80.08244849505812
 30
0.0
  0
POINT
  5
2A9
330
29F
100
AcDbEntity
  8
Defpoints
 62
     0
100
AcDbPoint
 10
26.43690840959587
 20
87.74599597884298
 30
0.0
  0
POINT
  5
2AA
330
29F
100
AcDbEntity
  8
Defpoints
 62
     0
100
AcDbPoint
 10
26.43690840959587
 20
113.4254755681049
 30
0.0
  0
ENDBLK
  5
2A1
330
29F
100
AcDbEntity
  8
0
100
AcDbBlockEnd
  0
BLOCK
  5
2AC
330
2AB
100
AcDbEntity
  8
0
100
AcDbBlockBegin
  2
*D15
 70
     1
 10
0.0
 20
0.0
 30
0.0
  3
*D15
  1
*D15
  0
LINE
  5
2AE
330
2AB
100
AcDbEntity
  8
치수문자_일반주서
 62
     0
370
    -2
100
AcDbLine
 10
-56.12559159040413
 20
87.74599597884298
 30
0.0
 11
-71.5630915904042
 21
87.74599597884293
 31
0.0
  0
LINE
  5
2AF
330
2AB
100
AcDbEntity
  8
치수문자_일반주서
 62
     0
370
    -2
100
AcDbLine
 10
-56.12559159040413
 20
73.74599597884298
 30
0.0
 11
-71.56309159040416
 21
73.74599597884293
 31
0.0
  0
LINE
  5
2B0
330
2AB
100
AcDbEntity
  8
치수문자_일반주서
 62
     0
370
    -2
100
AcDbLine
 10
-71.5630915904042
 20
87.74599597884293
 30
0.0
 11
-71.56309159040416
 21
73.74599597884293
 31
0.0
  0
LINE
  5
2B1
330
2AB
100
AcDbEntity
  8
치수문자_일반주서
 62
     0
370
    -2
100
AcDbLine
 10
-71.56309159040421
 20
91.04799597884292
 30
0.0
 11
-71.56309159040423
 21
94.34999597884291
 31
0.0
  0
LINE
  5
2B2
330
2AB
100
AcDbEntity
  8
치수문자_일반주서
 62
     0
370
    -2
100
AcDbLine
 10
-71.56309159040414
 20
70.44399597884293
 30
0.0
 11
-71.56309159040413
 21
67.14199597884294
 31
0.0
  0
SOLID
  5
2B3
330
2AB
100
AcDbEntity
  8
치수문자_일반주서
 62
     0
100
AcDbTrace
 10
-72.11342492373754
 20
91.04799597884292
 30
0.0
 11
-71.01275825707089
 21
91.04799597884292
 31
0.0
 12
-71.5630915904042
 22
87.74599597884293
 32
0.0
 13
-71.5630915904042
 23
87.74599597884293
 33
0.0
  0
SOLID
  5
2B4
330
2AB
100
AcDbEntity
  8
치수문자_일반주서
 62
     0
100
AcDbTrace
 10
-71.01275825707081
 20
70.44399597884293
 30
0.0
 11
-72.11342492373747
 21
70.44399597884293
 31
0.0
 12
-71.56309159040416
 22
73.74599597884293
 32
0.0
 13
-71.56309159040416
 23
73.74599597884293
 33
0.0
  0
MTEXT
  5
2B5
330
2AB
100
AcDbEntity
  8
치수문자_일반주서
 62
     0
100
AcDbMText
 10
-75.93809159040418
 20
80.74599597884297
 30
0.0
 40
3.5
 41
0.0
 71
     2
 72
     1
  1
\A1;%%c14 [0.55]
  7
SLDTEXTSTYLE0
 11
-3.045183153257572E-15
 21
1.0
 31
0.0
 73
     1
 44
1.0
  0
POINT
  5
2B6
330
2AB
100
AcDbEntity
  8
Defpoints
 62
     0
100
AcDbPoint
 10
-56.06309159040413
 20
87.74599597884298
 30
0.0
  0
POINT
  5
2B7
330
2AB
100
AcDbEntity
  8
Defpoints
 62
     0
100
AcDbPoint
 10
-56.06309159040413
 20
73.74599597884298
 30
0.0
  0
POINT
  5
2B8
330
2AB
100
AcDbEntity
  8
Defpoints
 62
     0
100
AcDbPoint
 10
-71.56309159040416
 20
73.74599597884293
 30
0.0
  0
ENDBLK
  5
2AD
330
2AB
100
AcDbEntity
  8
0
100
AcDbBlockEnd
  0
BLOCK
  5
2BA
330
2B9
100
AcDbEntity
  8
0
100
AcDbBlockBegin
  2
*D16
 70
     1
 10
0.0
 20
0.0
 30
0.0
  3
*D16
  1
*D16
  0
LINE
  5
2BC
330
2B9
100
AcDbEntity
  8
치수문자_일반주서
 62
     0
370
    -2
100
AcDbLine
 10
26.49940840959589
 20
87.74599597884298
 30
0.0
 11
41.43690840959588
 21
87.74599597884304
 31
0.0
  0
LINE
  5
2BD
330
2B9
100
AcDbEntity
  8
치수문자_일반주서
 62
     0
370
    -2
100
AcDbLine
 10
26.49940840959587
 20
73.74599597884298
 30
0.0
 11
41.43690840959593
 21
73.74599597884304
 31
0.0
  0
LINE
  5
2BE
330
2B9
100
AcDbEntity
  8
치수문자_일반주서
 62
     0
370
    -2
100
AcDbLine
 10
41.43690840959588
 20
87.74599597884304
 30
0.0
 11
41.43690840959593
 21
73.74599597884304
 31
0.0
  0
LINE
  5
2BF
330
2B9
100
AcDbEntity
  8
치수문자_일반주서
 62
     0
370
    -2
100
AcDbLine
 10
41.43690840959587
 20
91.04799597884303
 30
0.0
 11
41.43690840959585
 21
94.34999597884303
 31
0.0
  0
LINE
  5
2C0
330
2B9
100
AcDbEntity
  8
치수문자_일반주서
 62
     0
370
    -2
100
AcDbLine
 10
41.43690840959594
 20
70.44399597884305
 30
0.0
 11
41.43690840959596
 21
67.14199597884306
 31
0.0
  0
SOLID
  5
2C1
330
2B9
100
AcDbEntity
  8
치수문자_일반주서
 62
     0
100
AcDbTrace
 10
40.88657507626253
 20
91.04799597884303
 30
0.0
 11
41.9872417429292
 21
91.04799597884303
 31
0.0
 12
41.43690840959588
 22
87.74599597884304
 32
0.0
 13
41.43690840959588
 23
87.74599597884304
 33
0.0
  0
SOLID
  5
2C2
330
2B9
100
AcDbEntity
  8
치수문자_일반주서
 62
     0
100
AcDbTrace
 10
41.98724174292928
 20
70.44399597884305
 30
0.0
 11
40.88657507626261
 21
70.44399597884305
 31
0.0
 12
41.43690840959593
 22
73.74599597884304
 32
0.0
 13
41.43690840959593
 23
73.74599597884304
 33
0.0
  0
MTEXT
  5
2C3
330
2B9
100
AcDbEntity
  8
치수문자_일반주서
 62
     0
100
AcDbMText
 10
37.0619084095959
 20
80.81170036055602
 30
0.0
 40
3.5
 41
0.0
 71
     2
 72
     1
  1
\A1;%%c14 [0.55]
  7
SLDTEXTSTYLE0
 11
-3.552713678800501E-15
 21
1.0
 31
0.0
 73
     1
 44
1.0
  0
POINT
  5
2C4
330
2B9
100
AcDbEntity
  8
Defpoints
 62
     0
100
AcDbPoint
 10
26.43690840959589
 20
87.74599597884298
 30
0.0
  0
POINT
  5
2C5
330
2B9
100
AcDbEntity
  8
Defpoints
 62
     0
100
AcDbPoint
 10
26.43690840959587
 20
73.74599597884298
 30
0.0
  0
POINT
  5
2C6
330
2B9
100
AcDbEntity
  8
Defpoints
 62
     0
100
AcDbPoint
 10
41.43690840959593
 20
73.74599597884304
 30
0.0
  0
ENDBLK
  5
2BB
330
2B9
100
AcDbEntity
  8
0
100
AcDbBlockEnd
  0
BLOCK
  5
2C8
330
2C7
100
AcDbEntity
  8
0
100
AcDbBlockBegin
  2
*D17
 70
     1
 10
0.0
 20
0.0
 30
0.0
  3
*D17
  1
*D17
  0
LINE
  5
2CA
330
2C7
100
AcDbEntity
  8
치수문자_일반주서
 62
     0
370
    -2
100
AcDbLine
 10
27.92768359126532
 20
71.0068574859642
 30
0.0
 11
44.25403645979115
 21
44.44267358830483
 31
0.0
  0
MTEXT
  5
2CB
330
2C7
100
AcDbEntity
  8
치수문자_일반주서
 62
     0
100
AcDbMText
 10
39.73254681102348
 20
56.81271988646341
 30
0.0
 40
3.5
 41
0.0
 71
     5
 72
     1
  1
\A1;R.50 [R0.02]
  7
SLDTEXTSTYLE0
 11
0.5236126201129557
 21
-0.8519564684057781
 31
0.0
 73
     1
 44
1.0
  0
SOLID
  5
2CC
330
2C7
100
AcDbEntity
  8
치수문자_일반주서
 62
     0
100
AcDbTrace
 10
28.39654363437797
 20
71.29501896456637
 30
0.0
 11
27.45882354815268
 21
70.71869600736204
 31
0.0
 12
26.19871471965234
 22
73.82001774464008
 32
0.0
 13
26.19871471965234
 23
73.82001774464008
 33
0.0
  0
LINE
  5
2CD
330
2C7
100
AcDbEntity
  8
치수문자_일반주서
 62
     0
100
AcDbLine
 10
25.84690840959586
 20
74.24599597884298
 30
0.0
 11
26.02690840959586
 21
74.24599597884298
 31
0.0
  0
LINE
  5
2CE
330
2C7
100
AcDbEntity
  8
치수문자_일반주서
 62
     0
100
AcDbLine
 10
25.93690840959586
 20
74.15599597884298
 30
0.0
 11
25.93690840959586
 21
74.33599597884299
 31
0.0
  0
POINT
  5
2CF
330
2C7
100
AcDbEntity
  8
Defpoints
 62
     0
100
AcDbPoint
 10
26.19871471965234
 20
73.82001774464008
 30
0.0
  0
POINT
  5
2D0
330
2C7
100
AcDbEntity
  8
Defpoints
 62
     0
100
AcDbPoint
 10
25.93690840959586
 20
74.24599597884298
 30
0.0
  0
ENDBLK
  5
2C9
330
2C7
100
AcDbEntity
  8
0
100
AcDbBlockEnd
  0
ENDSEC
  0
SECTION
  2
ENTITIES
  0
LINE
  5
96
330
1F
100
AcDbEntity
  8
외형선
  6
Continuous
370
    15
100
AcDbLine
 10
47.93981878126497
 20
1.183727492193098
 30
0.0
 11
47.82295600556447
 21
1.249067988489605
 31
0.0
  0
LINE
  5
97
330
1F
100
AcDbEntity
  8
외형선
  6
Continuous
370
    15
100
AcDbLine
 10
43.27568466299863
 20
-1.225544857454354
 30
0.0
 11
43.39315167514696
 21
-1.290961495095654
 31
0.0
  0
LINE
  5
98
330
1F
100
AcDbEntity
  8
0
  6
Continuous
 62
     1
370
    15
100
AcDbLine
 10
53.49425396353828
 20
-6.370928316479984
 30
0.0
 11
58.45668627580827
 21
-6.370928316479984
 31
0.0
  0
LINE
  5
99
330
1F
100
AcDbEntity
  8
0
  6
Continuous
 62
     1
370
    15
100
AcDbLine
 10
23.90123006834733
 20
6.329071683520021
 30
0.0
 11
18.93783089736699
 21
6.329071683520021
 31
0.0
  0
LINE
  5
9A
330
1F
100
AcDbEntity
  8
0
  6
Continuous
 62
     1
370
    15
100
AcDbLine
 10
89.37500000000003
 20
6.329071683520021
 30
0.0
 11
88.04560647174871
 21
6.329071683520021
 31
0.0
  0
LINE
  5
9B
330
1F
100
AcDbEntity
  8
0
  6
Continuous
 62
     1
370
    15
100
AcDbLine
 10
67.31189703372367
 20
-6.370928316479984
 30
0.0
 11
72.27483303597037
 21
-6.370928316479984
 31
0.0
  0
LINE
  5
9C
330
1F
100
AcDbEntity
  8
0
  6
Continuous
 62
     1
370
    15
100
AcDbLine
 10
37.72241059386038
 20
6.329071683520021
 30
0.0
 11
32.76087614234284
 21
6.329071683520021
 31
0.0
  0
LINE
  5
9D
330
1F
100
AcDbEntity
  8
외형선
  6
Continuous
370
    15
100
AcDbLine
 10
61.70346348265783
 20
1.215893988952164
 30
0.0
 11
61.64404242635725
 21
1.249104712378815
 31
0.0
  0
LINE
  5
9E
330
1F
100
AcDbEntity
  8
0
  6
Continuous
 62
     1
370
    15
100
AcDbLine
 10
81.1365587695861
 20
-6.370928316479984
 30
0.0
 11
86.09902382660496
 21
-6.370928316479984
 31
0.0
  0
LINE
  5
9F
330
1F
100
AcDbEntity
  8
0
  6
Continuous
 62
     1
370
    15
100
AcDbLine
 10
12.03104604703665
 20
-6.370928316479984
 30
0.0
 11
16.99208063896038
 21
-6.370928316479984
 31
0.0
  0
LINE
  5
A0
330
1F
100
AcDbEntity
  8
0
  6
Continuous
 62
     1
370
    15
100
AcDbLine
 10
51.54569889172851
 20
6.329071683520021
 30
0.0
 11
46.5822122588902
 21
6.329071683520021
 31
0.0
  0
LINE
  5
A1
330
1F
100
AcDbEntity
  8
외형선
  6
Continuous
370
    15
100
AcDbLine
 10
75.60247636777586
 20
1.17245955689311
 30
0.0
 11
75.46543781816716
 21
1.248966157099147
 31
0.0
  0
LINE
  5
A2
330
1F
100
AcDbEntity
  8
외형선
  6
Continuous
370
    15
100
AcDbLine
 10
70.88865628570431
 20
-1.209454455526367
 30
0.0
 11
71.03520662577836
 21
-1.29082116759244
 31
0.0
  0
LINE
  5
A3
330
1F
100
AcDbEntity
  8
0
  6
Continuous
 62
     1
370
    15
100
AcDbLine
 10
25.85205200016253
 20
-6.370928316479984
 30
0.0
 11
30.81434682882252
 21
-6.370928316479984
 31
0.0
  0
LINE
  5
A4
330
1F
100
AcDbEntity
  8
0
  6
Continuous
 62
     1
370
    15
100
AcDbLine
 10
65.36475498055275
 20
6.329071683520021
 30
0.0
 11
60.40324111095936
 21
6.329071683520021
 31
0.0
  0
LINE
  5
A5
330
1F
100
AcDbEntity
  8
0
  6
Continuous
 62
     1
370
    15
100
AcDbLine
 10
39.66959300608008
 20
-6.370928316479984
 30
0.0
 11
44.63255433411311
 21
-6.370928316479984
 31
0.0
  0
LINE
  5
A6
330
1F
100
AcDbEntity
  8
0
  6
Continuous
 62
     1
370
    15
100
AcDbLine
 10
79.18794399900732
 20
6.329071683520021
 30
0.0
 11
74.2244444243442
 21
6.329071683520021
 31
0.0
  0
SPLINE
  5
A7
330
1F
100
AcDbEntity
  8
0
  6
Continuous
 62
     1
370
    15
100
AcDbSpline
210
0.0
220
0.0
230
1.0
 70
     8
 71
     3
 72
     9
 73
     5
 74
     0
 42
0.000000001
 43
0.00000001
 40
0.0
 40
0.0
 40
0.0
 40
0.0
 40
0.5416549886643748
 40
1.0
 40
1.0
 40
1.0
 40
1.0
 10
89.375
 20
1.118830184239275
 30
0.0
 10
89.31669412162537
 20
1.172370403656011
 30
0.0
 10
89.20905017927302
 20
1.271216016707147
 30
0.0
 10
89.1096826268118
 20
1.338594555653175
 30
0.0
 10
89.06413800485257
 20
1.369477172850169
 30
0.0
  0
LINE
  5
A8
330
1F
100
AcDbEntity
  8
외형선
  6
Continuous
370
    15
100
AcDbLine
 10
-61.75499999999998
 20
-6.370928316479979
 30
0.0
 11
8.999871139928997
 21
-6.370928316479979
 31
0.0
  0
LINE
  5
A9
330
1F
100
AcDbEntity
  8
외형선
  6
Continuous
370
    15
100
AcDbLine
 10
10.00000000000003
 20
6.329071683520016
 30
0.0
 11
-61.75499999999998
 21
6.329071683520016
 31
0.0
  0
LINE
  5
AA
330
1F
100
AcDbEntity
  8
외형선
  6
Continuous
370
    15
100
AcDbLine
 10
-61.75499999999998
 20
6.329071683520018
 30
0.0
 11
-63.02499999999998
 21
5.059071683520021
 31
0.0
  0
LINE
  5
AB
330
1F
100
AcDbEntity
  8
외형선
  6
Continuous
370
    15
100
AcDbLine
 10
-63.02499999999998
 20
-5.100928316479984
 30
0.0
 11
-61.75499999999998
 21
-6.370928316479981
 31
0.0
  0
LINE
  5
AC
330
1F
100
AcDbEntity
  8
0
  6
Continuous
 62
     1
370
    15
100
AcDbLine
 10
89.37500000000003
 20
3.774542923790698
 30
0.0
 11
89.37500000000003
 21
6.282732881762566
 31
0.0
  0
SPLINE
  5
AD
330
1F
100
AcDbEntity
  8
0
  6
Continuous
 62
     1
370
    15
100
AcDbSpline
210
0.0
220
0.0
230
1.0
 70
     8
 71
     3
 72
    22
 73
    18
 74
     0
 42
0.000000001
 43
0.00000001
 40
0.0
 40
0.0
 40
0.0
 40
0.0
 40
0.069846848618688
 40
0.1396688498124939
 40
0.2094602834243682
 40
0.2792831495379842
 40
0.3491303597025416
 40
0.4189816705902648
 40
0.4888168091481623
 40
0.5531104468115613
 40
0.6173932008449274
 40
0.6816788761386885
 40
0.7459750432406616
 40
0.8102793367271239
 40
0.8745893771224336
 40
0.9389027749941772
 40
1.0
 40
1.0
 40
1.0
 40
1.0
 10
10.00000000000003
 20
6.328898085517939
 30
0.0
 10
10.90957000517726
 20
6.294999434305297
 30
0.0
 10
12.72838644370529
 20
6.227214191038105
 30
0.0
 10
15.45586513983219
 20
5.639151003878397
 30
0.0
 10
18.18261299896693
 20
4.732287811757888
 30
0.0
 10
20.91011823137553
 20
3.52739270845284
 30
0.0
 10
23.63857698696043
 20
2.107259325699306
 30
0.0
 10
26.36721075946294
 20
0.5563472275458811
 30
0.0
 10
29.02348208062882
 20
-0.9880497722524453
 30
0.0
 10
31.60669126760443
 20
-2.434150559981983
 30
0.0
 10
34.11764761746483
 20
-3.714710576555624
 30
0.0
 10
36.62864491149493
 20
-4.803561066636479
 30
0.0
 10
39.1400292084394
 20
-5.64362911021568
 30
0.0
 10
41.65178761696599
 20
-6.193565216495627
 30
0.0
 10
44.16381681756602
 20
-6.416381042541529
 30
0.0
 10
46.63411423121787
 20
-6.333160861366362
 30
0.0
 10
48.26705238406696
 20
-6.012119449690091
 30
0.0
 10
49.06258299747132
 20
-5.855715319678542
 30
0.0
  0
SPLINE
  5
AE
330
1F
100
AcDbEntity
  8
0
  6
Continuous
 62
     1
370
    15
100
AcDbSpline
210
0.0
220
0.0
230
1.0
 70
     8
 71
     3
 72
    12
 73
     8
 74
     0
 42
0.000000001
 43
0.00000001
 40
0.0
 40
0.0
 40
0.0
 40
0.0
 40
0.0138496052474954
 40
0.2604311629348068
 40
0.5069894835893506
 40
0.7535154497787621
 40
0.9999999999999999
 40
0.9999999999999999
 40
0.9999999999999999
 40
0.9999999999999999
 10
79.18794399900732
 20
6.320325285466842
 30
0.0
 10
79.23497509254933
 20
6.323213839744253
 30
0.0
 10
80.11935859419815
 20
6.377530878838367
 30
0.0
 10
81.84099299785062
 20
6.176644074509195
 30
0.0
 10
84.35270945901404
 20
5.694839214135705
 30
0.0
 10
86.86403556004753
 20
4.894025534193184
 30
0.0
 10
88.53805872948944
 20
4.160688845170825
 30
0.0
 10
89.37500000000006
 20
3.794051303094851
 30
0.0
  0
SPLINE
  5
AF
330
1F
100
AcDbEntity
  8
0
  6
Continuous
 62
     1
370
    15
100
AcDbSpline
210
0.0
220
0.0
230
1.0
 70
     8
 71
     3
 72
    10
 73
     6
 74
     0
 42
0.000000001
 43
0.00000001
 40
0.0
 40
0.0
 40
0.0
 40
0.0
 40
0.4359272612706205
 40
0.87192776992961
 40
1.0
 40
1.0
 40
1.0
 40
1.0
 10
89.37500000000006
 20
6.282732881762566
 30
0.0
 10
88.53805797981315
 20
6.305106267606393
 30
0.0
 10
86.86403331089267
 20
6.349856798618658
 30
0.0
 10
84.94404654268516
 20
6.137773568728663
 30
0.0
 10
83.86100228564426
 20
5.853961911674997
 30
0.0
 10
83.6150980187999
 20
5.789522719097257
 30
0.0
  0
SPLINE
  5
B0
330
1F
100
AcDbEntity
  8
0
  6
Continuous
 62
     1
370
    15
100
AcDbSpline
210
0.0
220
0.0
230
1.0
 70
     8
 71
     3
 72
    23
 73
    19
 74
     0
 42
0.000000001
 43
0.00000001
 40
0.0
 40
0.0
 40
0.0
 40
0.0
 40
0.0460133960795391
 40
0.1104533822824688
 40
0.1748948060273318
 40
0.2393352656515556
 40
0.3037723611660962
 40
0.3682036984178209
 40
0.4326268932300408
 40
0.4970395755057454
 40
0.5614493307496217
 40
0.625869991125944
 40
0.6958431005481337
 40
0.7658324142512598
 40
0.8358176191295652
 40
0.9057784318612304
 40
0.975707749991048
 40
1.0
 40
1.0
 40
1.0
 40
1.0
 10
53.49425396353828
 20
-6.337176688609078
 30
0.0
 10
52.89631858804901
 20
-6.334327674151549
 30
0.0
 10
51.4609977850601
 20
-6.327488724849435
 30
0.0
 10
49.18823358887824
 20
-5.934671900618111
 30
0.0
 10
46.67600337662585
 20
-5.237044933009238
 30
0.0
 10
44.1638168797269
 20
-4.256840890592347
 30
0.0
 10
41.65178760039077
 20
-3.059826918688876
 30
0.0
 10
39.14002921258626
 20
-1.70421755705584
 30
0.0
 10
36.62864491148007
 20
-0.2615104745877453
 30
0.0
 10
34.11764761337949
 20
1.193746569049843
 30
0.0
 10
31.60669128396135
 20
2.585997531952451
 30
0.0
 10
29.0234820170424
 20
3.8787642255941
 30
0.0
 10
26.36721101977201
 20
4.986920367789858
 30
0.0
 10
23.63857601789169
 20
5.81675310169506
 30
0.0
 10
20.91012184648407
 20
6.295768727815064
 30
0.0
 10
18.18259951516949
 20
6.364289448288274
 30
0.0
 10
16.04929802335326
 20
6.182062042603455
 30
0.0
 10
14.82481349373505
 20
5.862742847968664
 30
0.0
 10
14.50911630345086
 20
5.780415819646431
 30
0.0
  0
SPLINE
  5
B1
330
1F
100
AcDbEntity
  8
0
  6
Continuous
 62
     1
370
    15
100
AcDbSpline
210
0.0
220
0.0
230
1.0
 70
     8
 71
     3
 72
    23
 73
    19
 74
     0
 42
0.000000001
 43
0.00000001
 40
0.0
 40
0.0
 40
0.0
 40
0.0
 40
0.0632527519469198
 40
0.1332271365982582
 40
0.1976489710127859
 40
0.2620599000961286
 40
0.326473756264643
 40
0.3908981251612579
 40
0.4553306366457709
 40
0.5197689064980417
 40
0.5842105405213058
 40
0.6486531386827791
 40
0.7130942992761197
 40
0.777531623090163
 40
0.8419627175683003
 40
0.906385200942952
 40
0.9707967632252316
 40
1.0
 40
1.0
 40
1.0
 40
1.0
 10
23.90123006834733
 20
6.312140222947038
 30
0.0
 10
24.72329330860794
 20
6.288241986473476
 30
0.0
 10
26.45477736632166
 20
6.237905937572515
 30
0.0
 10
29.02348216127564
 20
5.701665930025944
 30
0.0
 10
31.60669124659131
 20
4.877778882945371
 30
0.0
 10
34.11764762372442
 20
3.814225107227744
 30
0.0
 10
36.62864490746853
 20
2.553792926066992
 30
0.0
 10
39.14002921828655
 20
1.15910044703887
 30
0.0
 10
41.65178758159853
 20
-0.2967844670045591
 30
0.0
 10
44.16381694920236
 20
-1.738432042487885
 30
0.0
 10
46.67600311750245
 20
-3.090932609305877
 30
0.0
 10
49.18823455589745
 20
-4.283927154955697
 30
0.0
 10
51.70039850913223
 20
-5.255859381189912
 30
0.0
 10
54.21238396265905
 20
-5.954696752065509
 30
0.0
 10
56.72407488680176
 20
-6.3499832775736
 30
0.0
 10
59.23537623447852
 20
-6.399529301513557
 30
0.0
 10
61.28881690580222
 20
-6.221456851472396
 30
0.0
 10
62.50521536333527
 20
-5.919440574652066
 30
0.0
 10
62.88467216424289
 20
-5.825226273807992
 30
0.0
  0
SPLINE
  5
B2
330
1F
100
AcDbEntity
  8
0
  6
Continuous
 62
     1
370
    15
100
AcDbSpline
210
0.0
220
0.0
230
1.0
 70
     8
 71
     3
 72
    24
 73
    20
 74
     0
 42
0.000000001
 43
0.00000001
 40
0.0
 40
0.0
 40
0.0
 40
0.0
 40
0.0139379210367771
 40
0.0783626722379809
 40
0.1427767553789581
 40
0.2071893180527215
 40
0.2716128019884732
 40
0.3360448971614524
 40
0.4004832217670864
 40
0.4649253832116089
 40
0.5293689822465906
 40
0.5938116171283879
 40
0.6582508877869432
 40
0.722684399988306
 40
0.7871097694753071
 40
0.8515246260709308
 40
0.9159365555359211
 40
0.980359390501472
 40
1.0
 40
1.0
 40
1.0
 40
1.0
 10
67.31189703372367
 20
-6.342917785472461
 30
0.0
 10
67.13078470750946
 20
-6.351544566181327
 30
0.0
 10
66.11252338862747
 20
-6.400046605142092
 30
0.0
 10
64.25730719990521
 20
-6.163227228624524
 30
0.0
 10
61.7463195981824
 20
-5.627784293696673
 30
0.0
 10
59.23537428010098
 20
-4.773339330854947
 30
0.0
 10
56.72407541056113
 20
-3.679666181212686
 30
0.0
 10
54.21238382240075
 20
-2.393953963955989
 30
0.0
 10
51.7003985463254
 20
-0.9855062671197563
 30
0.0
 10
49.18823454739773
 20
0.4732124301169863
 30
0.0
 10
46.67600311430638
 20
1.906235458883896
 30
0.0
 10
44.1638169704854
 20
3.239214273485599
 30
0.0
 10
41.6517874996705
 20
4.402741414479515
 30
0.0
 10
39.14002952467161
 20
5.336989324058392
 30
0.0
 10
36.62864376408054
 20
5.991267474639907
 30
0.0
 10
34.11765189011661
 20
6.339868236688999
 30
0.0
 10
31.60667532376063
 20
6.334093746210081
 30
0.0
 10
29.67754213416187
 20
6.14534344812042
 30
0.0
 10
28.58506389868123
 20
5.853137185357856
 30
0.0
 10
28.32981694151084
 20
5.78486602258869
 30
0.0
  0
LINE
  5
B3
330
1F
100
AcDbEntity
  8
0
  6
Continuous
 62
     1
370
    15
100
AcDbLine
 10
89.37500000000003
 20
6.282732881762566
 30
0.0
 11
89.37500000000003
 21
6.329071683520021
 31
0.0
  0
SPLINE
  5
B4
330
1F
100
AcDbEntity
  8
0
  6
Continuous
 62
     1
370
    15
100
AcDbSpline
210
0.0
220
0.0
230
1.0
 70
     8
 71
     3
 72
    23
 73
    19
 74
     0
 42
0.000000001
 43
0.00000001
 40
0.0
 40
0.0
 40
0.0
 40
0.0
 40
0.0363639004585577
 40
0.100797518599928
 40
0.1652368952079585
 40
0.2296796360447635
 40
0.2941233410363372
 40
0.3585656084350873
 40
0.4230040389886418
 40
0.4874362400992985
 40
0.5518598299585702
 40
0.6162724985378953
 40
0.6806866875869347
 40
0.745111544713743
 40
0.809544700805215
 40
0.8739837724000856
 40
0.9384263657893236
 40
1.0
 40
1.0
 40
1.0
 40
1.0
 10
37.72241059386038
 20
6.288413571629619
 30
0.0
 10
38.19491605167637
 20
6.294077965223867
 30
0.0
 10
39.50465942552195
 20
6.309779163705699
 30
0.0
 10
41.65179001902725
 20
5.970452017212005
 30
0.0
 10
44.16381629529007
 20
5.319780835895798
 30
0.0
 10
46.67600329549723
 20
4.376365795802386
 30
0.0
 10
49.18823449785713
 20
3.208711419499791
 30
0.0
 10
51.70039856329858
 20
1.872245610744383
 30
0.0
 10
54.21238380404696
 20
0.4377985652179518
 30
0.0
 10
56.72407546699603
 20
-1.020491779471206
 30
0.0
 10
59.23537407275703
 20
-2.426781677350635
 30
0.0
 10
61.74632037100102
 20
-3.708195859413017
 30
0.0
 10
64.25730431564352
 20
-4.798263273837826
 30
0.0
 10
66.76865903181907
 20
-5.639813386448359
 30
0.0
 10
69.2803960150434
 20
-6.191411963338618
 30
0.0
 10
71.79241092643572
 20
-6.41608995394049
 30
0.0
 10
74.26729529659464
 20
-6.334247050676344
 30
0.0
 10
75.90482578923427
 20
-6.013293130182027
 30
0.0
 10
76.70495054683882
 20
-5.856469682318293
 30
0.0
  0
SPLINE
  5
B5
330
1F
100
AcDbEntity
  8
0
  6
Continuous
 62
     1
370
    15
100
AcDbSpline
210
0.0
220
0.0
230
1.0
 70
     8
 71
     3
 72
    23
 73
    19
 74
     0
 42
0.000000001
 43
0.00000001
 40
0.0
 40
0.0
 40
0.0
 40
0.0
 40
0.0463669933637813
 40
0.1108098414539484
 40
0.1752539693416477
 40
0.2396969752459039
 40
0.30413645933325
 40
0.36857002787933
 40
0.4329952974076207
 40
0.4974098987898554
 40
0.5618229796926432
 40
0.626246981945286
 40
0.6906795955044378
 40
0.7551184385463631
 40
0.8195611184580459
 40
0.884005235971754
 40
0.9484483893245208
 40
0.9999999999999999
 40
0.9999999999999999
 40
0.9999999999999999
 40
0.9999999999999999
 10
81.13655876958613
 20
-6.337568551243223
 30
0.0
 10
80.53405299495019
 20
-6.334323065279047
 30
0.0
 10
79.09415869689452
 20
-6.326566862880721
 30
0.0
 10
76.81682131728128
 20
-5.931701944405618
 30
0.0
 10
74.30459057948305
 20
-5.23238965257216
 30
0.0
 10
71.7924109752949
 20
-4.250863954176227
 30
0.0
 10
69.28039600194926
 20
-3.052808277165909
 30
0.0
 10
66.76865903534156
 20
-1.696531417100844
 30
0.0
 10
64.25730431464576
 20
-0.2535592104005934
 30
0.0
 10
61.74632037147033
 20
1.201573308468083
 30
0.0
 10
59.23537407187747
 20
2.593253948721605
 30
0.0
 10
56.72407547004553
 20
3.849103949069574
 30
0.0
 10
54.21238379272663
 20
4.90427020424575
 30
0.0
 10
51.70039860553537
 20
5.703064541164573
 30
0.0
 10
49.1882343402205
 20
6.207092865075241
 30
0.0
 10
46.67600388381373
 20
6.378518487553658
 30
0.0
 10
44.33128962120433
 20
6.260313606563833
 30
0.0
 10
42.82401800285567
 20
5.939382386262509
 30
0.0
 10
42.15414052776218
 20
5.796750764385583
 30
0.0
  0
LINE
  5
B6
330
1F
100
AcDbEntity
  8
0
  6
Continuous
 62
     1
370
    15
100
AcDbLine
 10
12.03104604703665
 20
-6.333836055838111
 30
0.0
 11
10.0
 21
-6.263147988521022
 31
0.0
  0
LINE
  5
B7
330
1F
100
AcDbEntity
  8
외형선
  6
Continuous
370
    15
100
AcDbLine
 10
10.00000000000003
 20
-6.263147988521023
 30
0.0
 11
10.00000000000001
 21
-5.130447003577118
 31
0.0
  0
SPLINE
  5
B8
330
1F
100
AcDbEntity
  8
0
  6
Continuous
 62
     1
370
    15
100
AcDbSpline
210
0.0
220
0.0
230
1.0
 70
     8
 71
     3
 72
    12
 73
     8
 74
     0
 42
0.000000001
 43
0.00000001
 40
0.0
 40
0.0
 40
0.0
 40
0.0
 40
0.2388580363313534
 40
0.4776311009391108
 40
0.7162996323755036
 40
0.9550756547838113
 40
1.0
 40
1.0
 40
1.0
 40
1.0
 10
10.00000000000001
 20
-5.130447003577124
 30
0.0
 10
10.90957014520432
 20
-5.411328991188945
 30
0.0
 10
12.72838686373673
 20
-5.972993045024216
 30
0.0
 10
15.45586346070995
 20
-6.375252729753775
 30
0.0
 10
18.1826192938682
 20
-6.380324126525517
 30
0.0
 10
20.17164724541625
 20
-6.180003581412613
 30
0.0
 10
21.25196932517338
 20
-5.882647935199516
 30
0.0
 10
21.42303981923742
 20
-5.835561257750647
 30
0.0
  0
SPLINE
  5
B9
330
1F
100
AcDbEntity
  8
0
  6
Continuous
 62
     1
370
    15
100
AcDbSpline
210
0.0
220
0.0
230
1.0
 70
     8
 71
     3
 72
    23
 73
    19
 74
     0
 42
0.000000001
 43
0.00000001
 40
0.0
 40
0.0
 40
0.0
 40
0.0
 40
0.0040904527437667
 40
0.0704926990660862
 40
0.1368885260979577
 40
0.2032754794432619
 40
0.2696511786733597
 40
0.3360284447107747
 40
0.4024167039446674
 40
0.4688135150612037
 40
0.5352164219611167
 40
0.6016229579850643
 40
0.6680306501784485
 40
0.7344370235798293
 40
0.8008396055168358
 40
0.8672359298935169
 40
0.9336235414530591
 40
1.0
 40
1.0
 40
1.0
 40
1.0
 10
51.54569889172851
 20
6.319533654274068
 30
0.0
 10
51.59728045199201
 20
6.322680026892461
 30
0.0
 10
52.48620977908292
 20
6.376902948420216
 30
0.0
 10
54.21238221096611
 20
6.174265429653963
 30
0.0
 10
56.72407589382152
 20
5.693605637116452
 30
0.0
 10
59.23537395827073
 20
4.879878256800343
 30
0.0
 10
61.74632040222424
 20
3.821415684498537
 30
0.0
 10
64.25730430522924
 20
2.560860111986773
 30
0.0
 10
66.76865904224937
 20
1.166985488092768
 30
0.0
 10
69.2803959837333
 20
-0.2888361978397917
 30
0.0
 10
71.79241104125788
 20
-1.730756180232184
 30
0.0
 10
74.30459033383352
 20
-3.083899479166727
 30
0.0
 10
76.81682223392035
 20
-4.278101704966413
 30
0.0
 10
79.32899412547297
 20
-5.250781671792722
 30
0.0
 10
81.84099452886461
 20
-5.953485029863136
 30
0.0
 10
84.35270905081745
 20
-6.342045687828298
 30
0.0
 10
86.86403566207106
 20
-6.425028862099759
 30
0.0
 10
88.53805876349537
 20
-6.202378912838365
 30
0.0
 10
89.37500000000003
 20
-6.091063290202104
 30
0.0
  0
LINE
  5
BA
330
1F
100
AcDbEntity
  8
0
  6
Continuous
 62
     1
370
    15
100
AcDbLine
 10
89.37500000000003
 20
-6.091063290202104
 30
0.0
 11
89.37500000000003
 21
-5.570787168240762
 31
0.0
  0
SPLINE
  5
BB
330
1F
100
AcDbEntity
  8
외형선
  6
Continuous
370
    15
100
AcDbSpline
210
0.0
220
0.0
230
1.0
 70
    24
 71
     3
 72
    15
 73
    11
 74
     0
 42
0.000000001
 43
0.00000001
 40
0.0
 40
0.0
 40
0.0
 40
0.0
 40
0.0612676248547146
 40
0.2050836718010891
 40
0.3488997187474654
 40
0.4927157656938412
 40
0.6365318126402153
 40
0.7803478595865935
 40
0.9241639065329673
 40
1.0
 40
1.0
 40
1.0
 40
1.0
 10
10.00000000000004
 20
-0.744233443624702
 30
0.0
 10
10.00000000000004
 20
-0.7435072717068596
 30
0.0
 10
10.00000000000007
 20
-0.7410765262091664
 30
0.0
 10
10.00000000000006
 20
-1.03936853452095
 30
0.0
 10
10.00000000000003
 20
-1.594051558381685
 30
0.0
 10
10.00000000000001
 20
-2.351360116785549
 30
0.0
 10
10.00000000000007
 20
-3.205639526876066
 30
0.0
 10
9.999999999999917
 20
-4.062326174596978
 30
0.0
 10
10.00000000000007
 20
-4.715875216861395
 30
0.0
 10
10.00000000000004
 20
-5.024048503869379
 30
0.0
 10
10.00000000000001
 20
-5.130447003577118
 30
0.0
  0
SPLINE
  5
BC
330
1F
100
AcDbEntity
  8
0
  6
Continuous
 62
     1
370
    15
100
AcDbSpline
210
0.0
220
0.0
230
1.0
 70
     8
 71
     3
 72
    21
 73
    17
 74
     0
 42
0.000000001
 43
0.00000001
 40
0.0
 40
0.0
 40
0.0
 40
0.0
 40
0.0751738207779246
 40
0.1503602727595726
 40
0.2255565923323572
 40
0.3007599988261481
 40
0.3759676992950868
 40
0.4511768933452734
 40
0.526384777990348
 40
0.6015885525167806
 40
0.6767854233406482
 40
0.7519726088377096
 40
0.8271473441287833
 40
0.9023203049519962
 40
0.9775060114814115
 40
1.0
 40
1.0
 40
1.0
 40
1.0
 10
89.37500000000009
 20
-5.570787168240763
 30
0.0
 10
88.53805876349581
 20
-5.307953041026332
 30
0.0
 10
86.86403566207228
 20
-4.782240623464987
 30
0.0
 10
84.35270905081276
 20
-3.669310370814904
 30
0.0
 10
81.84099452888192
 20
-2.387573765321549
 30
0.0
 10
79.32899412540847
 20
-0.9773512129007892
 30
0.0
 10
76.81682223416111
 20
0.4810873875229177
 30
0.0
 10
74.30459033293504
 20
1.913857464697433
 30
0.0
 10
71.79241104461097
 20
3.246066298086004
 30
0.0
 10
69.28039597122056
 20
4.408509019897746
 30
0.0
 10
66.76865908894035
 20
5.34132451944174
 30
0.0
 10
64.25730413101255
 20
5.994098542769918
 30
0.0
 10
61.74632105228662
 20
6.34049298221419
 30
0.0
 10
59.23537153208061
 20
6.334564491178239
 30
0.0
 10
57.31085793491313
 20
6.140172358642897
 30
0.0
 10
56.22327555495641
 20
5.854882848824184
 30
0.0
 10
55.97282365135716
 20
5.78918547993721
 30
0.0
  0
SPLINE
  5
BD
330
1F
100
AcDbEntity
  8
0
  6
Continuous
 62
     1
370
    15
100
AcDbSpline
210
0.0
220
0.0
230
1.0
 70
     8
 71
     3
 72
    13
 73
     9
 74
     0
 42
0.000000001
 43
0.00000001
 40
0.0
 40
0.0
 40
0.0
 40
0.0
 40
0.1396278804616225
 40
0.3117543959108203
 40
0.4838209196058631
 40
0.6558099832708767
 40
0.8278743755188268
 40
1.0
 40
1.0
 40
1.0
 40
1.0
 10
25.85205200016253
 20
-6.341085341212787
 30
0.0
 10
25.11420988674035
 20
-6.328311305534759
 30
0.0
 10
23.46679160905104
 20
-6.299790054886387
 30
0.0
 10
20.91011773985294
 20
-5.793025094922139
 30
0.0
 10
18.18261313053736
 20
-4.941864890605157
 30
0.0
 10
15.4558651047366
 20
-3.776823896797359
 30
0.0
 10
12.72838645248441
 20
-2.388961511559395
 30
0.0
 10
10.90957000810395
 20
-1.357656505768524
 30
0.0
 10
10.0
 20
-0.8419122670504777
 30
0.0
  0
LINE
  5
BE
330
1F
100
AcDbEntity
  8
0
  6
Continuous
 62
     1
370
    15
100
AcDbLine
 10
89.37500000000003
 20
-5.570787168240762
 30
0.0
 11
89.37500000000003
 21
-3.66984632940152
 31
0.0
  0
LINE
  5
BF
330
1F
100
AcDbEntity
  8
외형선
  6
Continuous
370
    15
100
AcDbLine
 10
10.00000000000001
 20
-0.8419122670504956
 30
0.0
 11
10.00000000000001
 21
1.985931722738212
 31
0.0
  0
SPLINE
  5
C0
330
1F
100
AcDbEntity
  8
0
  6
Continuous
 62
     1
370
    15
100
AcDbSpline
210
0.0
220
0.0
230
1.0
 70
     8
 71
     3
 72
    17
 73
    13
 74
     0
 42
0.000000001
 43
0.00000001
 40
0.0
 40
0.0
 40
0.0
 40
0.0
 40
0.1080901910002128
 40
0.2161419298303661
 40
0.3241463643678433
 40
0.432199441688555
 40
0.5402901921923524
 40
0.648387288693986
 40
0.7564593580075021
 40
0.8559557807176306
 40
0.9554353606686039
 40
1.0
 40
1.0
 40
1.0
 40
1.0
 10
10.00000000000001
 20
1.985931722738205
 30
0.0
 10
10.90957000510919
 20
1.475906361818158
 30
0.0
 10
12.72838644350108
 20
0.4560370771809357
 30
0.0
 10
15.45586514064846
 20
-1.135851423398403
 30
0.0
 10
18.18261299590663
 20
-2.651231543978563
 30
0.0
 10
20.91011824280824
 20
-4.007391436454901
 30
0.0
 10
23.63857694427467
 20
-5.119496847264342
 30
0.0
 10
26.36721091876152
 20
-5.918363949822101
 30
0.0
 10
29.02348150620611
 20
-6.349793586699803
 30
0.0
 10
31.60669322279157
 20
-6.398888845830736
 30
0.0
 10
33.65560246302997
 20
-6.220099582975687
 30
0.0
 10
34.86746569356299
 20
-5.918589252463794
 30
0.0
 10
35.24239394862759
 20
-5.825307486622067
 30
0.0
  0
SPLINE
  5
C1
330
1F
100
AcDbEntity
  8
0
  6
Continuous
 62
     1
370
    15
100
AcDbSpline
210
0.0
220
0.0
230
1.0
 70
     8
 71
     3
 72
    17
 73
    13
 74
     0
 42
0.000000001
 43
0.00000001
 40
0.0
 40
0.0
 40
0.0
 40
0.0
 40
0.058468598007957
 40
0.163081098174904
 40
0.2677032026455638
 40
0.3723310250374954
 40
0.4769606690496729
 40
0.5815882352191595
 40
0.6862098276895959
 40
0.7908215609662013
 40
0.8954195666319609
 40
1.0
 40
1.0
 40
1.0
 40
1.0
 10
65.36475498055275
 20
6.288302191009831
 30
0.0
 10
65.83268835108984
 20
6.294191617027776
 30
0.0
 10
67.13785198661078
 20
6.310618452890943
 30
0.0
 10
69.2803984378073
 20
5.973141121740454
 30
0.0
 10
71.79241038362554
 20
5.324204338778709
 30
0.0
 10
74.30459051005322
 20
4.38216389444827
 30
0.0
 10
76.81682218670309
 20
3.215551955743746
 30
0.0
 10
79.32899413812363
 20
1.880022921503099
 30
0.0
 10
81.84099452547649
 20
0.4451333368505565
 30
0.0
 10
84.35270905172081
 20
-1.010338412890482
 30
0.0
 10
86.86403566184529
 20
-2.427935535881735
 30
0.0
 10
88.53805876342012
 20
-3.255899249605782
 30
0.0
 10
89.37500000000006
 20
-3.669846329401521
 30
0.0
  0
LINE
  5
C2
330
1F
100
AcDbEntity
  8
외형선
  6
Continuous
370
    15
100
AcDbLine
 10
10.00000000000003
 20
5.713895369890322
 30
0.0
 11
10.00000000000003
 21
6.328898085517933
 31
0.0
  0
LINE
  5
C3
330
1F
100
AcDbEntity
  8
0
  6
Continuous
 62
     1
370
    15
100
AcDbLine
 10
89.37500000000003
 20
1.198749500926969
 30
0.0
 11
89.37500000000003
 21
3.794051303094851
 31
0.0
  0
SPLINE
  5
C4
330
1F
100
AcDbEntity
  8
0
  6
Continuous
 62
     1
370
    15
100
AcDbSpline
210
0.0
220
0.0
230
1.0
 70
     8
 71
     3
 72
    15
 73
    11
 74
     0
 42
0.000000001
 43
0.00000001
 40
0.0
 40
0.0
 40
0.0
 40
0.0
 40
0.128252842487409
 40
0.2565272348676503
 40
0.3848184621858883
 40
0.5131217803856878
 40
0.6414324244671915
 40
0.7697456167235592
 40
0.898056575024996
 40
0.9999999999999999
 40
0.9999999999999999
 40
0.9999999999999999
 40
0.9999999999999999
 10
89.37500000000006
 20
1.19874950092697
 30
0.0
 10
88.53805876315798
 20
1.666929923534463
 30
0.0
 10
86.86403566105876
 20
2.603369435527806
 30
0.0
 10
84.3527090548677
 20
3.854682490163518
 30
0.0
 10
81.8409945136731
 20
4.909567343228059
 30
0.0
 10
79.32899418219509
 20
5.706577505514487
 30
0.0
 10
76.81682202221079
 20
6.208991277333686
 30
0.0
 10
74.30459112395587
 20
6.378514163925758
 30
0.0
 10
71.96444659649903
 20
6.259141638029447
 30
0.0
 10
70.4617453870912
 20
5.938305207000272
 30
0.0
 10
69.79643554229573
 20
5.796257250429547
 30
0.0
  0
SPLINE
  5
C5
330
1F
100
AcDbEntity
  8
0
  6
Continuous
 62
     1
370
    15
100
AcDbSpline
210
0.0
220
0.0
230
1.0
 70
     8
 71
     3
 72
    19
 73
    15
 74
     0
 42
0.000000001
 43
0.00000001
 40
0.0
 40
0.0
 40
0.0
 40
0.0
 40
0.017852811077653
 40
0.102504838447572
 40
0.187143052352769
 40
0.2717774201404431
 40
0.3564261172635839
 40
0.448370728070777
 40
0.54033663129039
 40
0.6322971355174168
 40
0.7242255884829214
 40
0.8161126575663419
 40
0.9080399717825441
 40
1.0
 40
1.0
 40
1.0
 40
1.0
 10
39.66959300608008
 20
-6.343434240732341
 30
0.0
 10
39.49303933411236
 20
-6.351932949070487
 30
0.0
 10
38.47932751339926
 20
-6.400729674775219
 30
0.0
 10
36.62864773480899
 20
-6.16524174086365
 30
0.0
 10
34.11764686120445
 20
-5.631688588161798
 30
0.0
 10
31.60669146971996
 20
-4.778653776853504
 30
0.0
 10
29.02348202124847
 20
-3.654882238180877
 30
0.0
 10
26.36721077593027
 20
-2.287434405039199
 30
0.0
 10
23.63857698254786
 20
-0.7448157130094354
 30
0.0
 10
20.91011823255737
 20
0.8417752372888132
 30
0.0
 10
18.18261299865054
 20
2.377189836675534
 30
0.0
 10
15.45586513991654
 20
3.759590868899985
 30
0.0
 10
12.72838644368417
 20
4.935352371087689
 30
0.0
 10
10.90957000517022
 20
5.454350259964506
 30
0.0
 10
10.0
 20
5.713895369890331
 30
0.0
  0
LINE
  5
C6
330
1F
100
AcDbEntity
  8
0
  6
Continuous
 62
     1
370
    15
100
AcDbLine
 10
89.37500000000003
 20
-3.66984632940152
 30
0.0
 11
89.37500000000003
 21
1.198749500926969
 31
0.0
  0
SPLINE
  5
C7
330
1F
100
AcDbEntity
  8
외형선
  6
Continuous
370
    15
100
AcDbSpline
210
0.0
220
0.0
230
1.0
 70
    24
 71
     3
 72
    15
 73
    11
 74
     0
 42
0.000000001
 43
0.00000001
 40
0.0
 40
0.0
 40
0.0
 40
0.0
 40
0.0897029741009449
 40
0.2405491264573503
 40
0.3913952788136854
 40
0.5422414311700222
 40
0.6930875835263586
 40
0.8439337358826934
 40
0.9947798882390324
 40
1.0
 40
1.0
 40
1.0
 40
1.0
 10
10.0
 20
5.713895369890319
 30
0.0
 10
10.0
 20
5.572586038800005
 30
0.0
 10
10.00000000000003
 20
5.193648367059095
 30
0.0
 10
10.00000000000007
 20
4.463358330602271
 30
0.0
 10
10.00000000000006
 20
3.597502221893278
 30
0.0
 10
10.00000000000003
 20
2.797628838794665
 30
0.0
 10
10.00000000000003
 20
2.146302701821465
 30
0.0
 10
10.00000000000001
 20
1.757571149990258
 30
0.0
 10
10.00000000000004
 20
1.596731290289952
 30
0.0
 10
9.999999999999972
 20
1.650007899623621
 30
0.0
 10
9.999999999999972
 20
1.65178989816469
 30
0.0
  0
LINE
  5
C8
330
1F
100
AcDbEntity
  8
외형선
  6
Continuous
370
    15
100
AcDbLine
 10
8.999871139928997
 20
2.524259050623702
 30
0.0
 11
8.999871139928997
 21
5.937643633099776
 31
0.0
  0
SPLINE
  5
C9
330
1F
100
AcDbEntity
  8
외형선
  6
Continuous
370
    15
100
AcDbSpline
210
0.0
220
0.0
230
1.0
 70
     8
 71
     3
 72
     8
 73
     4
 74
     0
 42
0.000000001
 43
0.00000001
 40
0.0
 40
0.0
 40
0.0
 40
0.0
 40
1.0
 40
1.0
 40
1.0
 40
1.0
 10
10.00000000000004
 20
1.985931722738192
 30
0.0
 10
9.666134394882416
 20
2.168482400293096
 30
0.0
 10
9.332071344654057
 20
2.348298506818437
 30
0.0
 10
8.999871139928997
 20
2.524285183469837
 30
0.0
  0
SPLINE
  5
CA
330
1F
100
AcDbEntity
  8
외형선
  6
Continuous
370
    15
100
AcDbSpline
210
0.0
220
0.0
230
1.0
 70
     8
 71
     3
 72
     8
 73
     4
 74
     0
 42
0.000000001
 43
0.00000001
 40
0.0
 40
0.0
 40
0.0
 40
0.0
 40
1.0
 40
1.0
 40
1.0
 40
1.0
 10
10.00000000000003
 20
-0.8419122670505024
 30
0.0
 10
9.666134394882402
 20
-0.6511145065167802
 30
0.0
 10
9.332071344654072
 20
-0.4591470911586507
 30
0.0
 10
8.99987113992901
 20
-0.2671992099042522
 30
0.0
  0
SPLINE
  5
CB
330
1F
100
AcDbEntity
  8
외형선
  6
Continuous
370
    15
100
AcDbSpline
210
0.0
220
0.0
230
1.0
 70
     8
 71
     3
 72
     8
 73
     4
 74
     0
 42
0.000000001
 43
0.00000001
 40
0.0
 40
0.0
 40
0.0
 40
0.0
 40
1.0
 40
1.0
 40
1.0
 40
1.0
 10
10.00000000000004
 20
-5.130447003577125
 30
0.0
 10
9.666134394882416
 20
-5.016201721557567
 30
0.0
 10
9.332071344654057
 20
-4.894882974972598
 30
0.0
 10
8.999871139928997
 20
-4.767273816439266
 30
0.0
  0
SPLINE
  5
CC
330
1F
100
AcDbEntity
  8
외형선
  6
Continuous
370
    15
100
AcDbSpline
210
0.0
220
0.0
230
1.0
 70
     8
 71
     3
 72
     8
 73
     4
 74
     0
 42
0.000000001
 43
0.00000001
 40
0.0
 40
0.0
 40
0.0
 40
0.0
 40
1.0
 40
1.0
 40
1.0
 40
1.0
 10
10.00000000000003
 20
-6.26314798852102
 30
0.0
 10
9.666134394882402
 20
-6.227847487577546
 30
0.0
 10
9.332071344654072
 20
-6.183925465164523
 30
0.0
 10
8.99987113992901
 20
-6.131695569057833
 30
0.0
  0
LINE
  5
CD
330
1F
100
AcDbEntity
  8
외형선
  6
Continuous
370
    15
100
AcDbLine
 10
8.999871139928997
 20
-6.370928316479979
 30
0.0
 11
8.999871139928997
 21
-6.131688899027245
 31
0.0
  0
SPLINE
  5
CE
330
1F
100
AcDbEntity
  8
외형선
  6
Continuous
370
    15
100
AcDbSpline
210
0.0
220
0.0
230
1.0
 70
     8
 71
     3
 72
     8
 73
     4
 74
     0
 42
0.000000001
 43
0.00000001
 40
0.0
 40
0.0
 40
0.0
 40
0.0
 40
1.0
 40
1.0
 40
1.0
 40
1.0
 10
10.00000000000003
 20
5.713895369890316
 30
0.0
 10
9.666134394882402
 20
5.796514369934045
 30
0.0
 10
9.332071344654072
 20
5.871234734944811
 30
0.0
 10
8.99987113992901
 20
5.937635153521868
 30
0.0
  0
LINE
  5
CF
330
1F
100
AcDbEntity
  8
외형선
  6
Continuous
370
    15
100
AcDbLine
 10
-61.75499999999998
 20
-0.0209283164799812
 30
0.0
 11
-61.75499999999998
 21
6.329071683520018
 31
0.0
  0
LINE
  5
D0
330
1F
100
AcDbEntity
  8
외형선
  6
Continuous
370
    15
100
AcDbLine
 10
-61.75499999999998
 20
-6.370928316479985
 30
0.0
 11
-61.75499999999998
 21
-0.0209283164799812
 31
0.0
  0
LINE
  5
D1
330
1F
100
AcDbEntity
  8
외형선
  6
Continuous
370
    15
100
AcDbLine
 10
8.999871139928997
 20
-4.767292765480551
 30
0.0
 11
8.999871139928997
 21
-0.2671746973227893
 31
0.0
  0
LINE
  5
D2
330
1F
100
AcDbEntity
  8
외형선
  6
Continuous
370
    15
100
AcDbLine
 10
-63.02499999999998
 20
-0.0209283164799812
 30
0.0
 11
-63.02499999999998
 21
5.059071683520021
 31
0.0
  0
LINE
  5
D3
330
1F
100
AcDbEntity
  8
외형선
  6
Continuous
370
    15
100
AcDbLine
 10
-63.02499999999998
 20
-5.100928316479984
 30
0.0
 11
-63.02499999999998
 21
-0.0209283164799812
 31
0.0
  0
SPLINE
  5
D4
330
1F
100
AcDbEntity
  8
외형선
  6
Continuous
370
    15
100
AcDbSpline
210
0.0
220
0.0
230
1.0
 70
    24
 71
     3
 72
    14
 73
    10
 74
     0
 42
0.000000001
 43
0.00000001
 40
0.0
 40
0.0
 40
0.0
 40
0.0
 40
0.1470260562166794
 40
0.2906305947393876
 40
0.434235133262096
 40
0.5778396717848048
 40
0.7214442103075132
 40
0.8650487488302205
 40
0.9999999999999999
 40
0.9999999999999999
 40
0.9999999999999999
 40
0.9999999999999999
 10
10.00000000000006
 20
-5.130447003577125
 30
0.0
 10
10.00000000000001
 20
-4.912725970291217
 30
0.0
 10
9.999999999999986
 20
-4.482350599969755
 30
0.0
 10
10.00000000000003
 20
-3.63896139740649
 30
0.0
 10
10.00000000000003
 20
-2.773541497527371
 30
0.0
 10
10.0
 20
-1.955344877286454
 30
0.0
 10
9.999999999999986
 20
-1.289869598772197
 30
0.0
 10
10.00000000000003
 20
-0.8302243326954521
 30
0.0
 10
10.00000000000006
 20
-0.7535689805194115
 30
0.0
 10
10.00000000000006
 20
-0.7164319470496103
 30
0.0
  0
SPLINE
  5
D5
330
1F
100
AcDbEntity
  8
외형선
  6
Continuous
370
    15
100
AcDbSpline
210
0.0
220
0.0
230
1.0
 70
    24
 71
     3
 72
    15
 73
    11
 74
     0
 42
0.000000001
 43
0.00000001
 40
0.0
 40
0.0
 40
0.0
 40
0.0
 40
0.0808861705737872
 40
0.2316910430041945
 40
0.382495915434602
 40
0.5333007878650092
 40
0.6841056602954155
 40
0.8349105327258256
 40
0.9857154051562302
 40
1.0
 40
1.0
 40
1.0
 40
1.0
 10
10.0
 20
1.682926733664054
 30
0.0
 10
10.00000000000001
 20
1.673829890027831
 30
0.0
 10
10.00000000000004
 20
1.647772812839339
 30
0.0
 10
10.00000000000004
 20
1.920259633146369
 30
0.0
 10
9.999999999999972
 20
2.446111455854668
 30
0.0
 10
10.00000000000001
 20
3.182013356655975
 30
0.0
 10
10.0
 20
4.027777256067831
 30
0.0
 10
10.00000000000017
 20
4.891152215156503
 30
0.0
 10
9.999999999999876
 20
5.441685517328819
 30
0.0
 10
10.00000000000006
 20
5.692217723688789
 30
0.0
 10
10.00000000000006
 20
5.713895369890315
 30
0.0
  0
LINE
  5
D6
330
1F
100
AcDbEntity
  8
중심선
 62
     1
100
AcDbLine
 10
-66.02499999999998
 20
-0.0000000000000006
 30
0.0
 11
92.375
 21
-0.0000000000000006
 31
0.0
  0
LINE
  5
D7
330
1F
100
AcDbEntity
  8
참조1
100
AcDbLine
 10
-26.10051336755627
 20
-2.498925071276081
 30
0.0
 11
-26.10051336755626
 21
-39.9989250712761
 31
0.0
  0
LINE
  5
D8
330
1F
100
AcDbEntity
  8
참조1
100
AcDbLine
 10
-26.10051336755626
 20
-39.9989250712761
 30
0.0
 11
-41.25885681430871
 21
-39.9989250712761
 31
0.0
  0
CIRCLE
  5
D9
330
1F
100
AcDbEntity
  8
해칭선
100
AcDbCircle
 10
0.0
 20
0.0
 30
0.0
 40
3.000000000000004
  0
INSERT
  5
DA
330
1F
100
AcDbEntity
  8
0
  6
Continuous
 62
     7
100
AcDbBlockReference
 66
     1
  2
블럭10
 10
-8.040303019819369
 20
-34.76867622177545
 30
0.0
  0
ATTRIB
  5
DB
330
DA
100
AcDbEntity
  8
FORMAT
 62
     2
100
AcDbText
 10
-17.22159830856064
 20
-32.69330930894326
 30
0.0
 40
4.233333333333333
  1
E5073032 [ 5 FLUTE ]
 41
0.75
  7
SLDTEXTSTYLE0
 11
-17.22159830856064
 21
-34.80997597560993
 31
0.0
100
AcDbAttribute
  2
AUTOATTR0
 70
     0
 74
     1
  0
SEQEND
  5
DC
330
DA
100
AcDbEntity
  8
0
  6
Continuous
 62
     7
  0
HATCH
  5
DD
330
1F
100
AcDbEntity
  8
중심선
100
AcDbHatch
 10
0.0
 20
0.0
 30
0.0
210
0.0
220
0.0
230
1.0
  2
SOLID
 70
     1
 71
     0
 91
        1
 92
        0
 93
        4
 72
     1
 10
-2.325393715438516
 20
-18.52150192013152
 11
-5.7716689592758
 21
-18.52150192013152
 72
     1
 10
-5.7716689592758
 20
-18.52150192013152
 11
-7.899898818479819
 21
-21.05782750070412
 72
     1
 10
-7.899898818479819
 20
-21.05782750070412
 11
-4.45359048952939
 21
-21.05778807140163
 72
     1
 10
-4.45359048952939
 20
-21.05778807140163
 11
-2.325393715438516
 21
-18.52150192013152
 97
        0
 75
     0
 76
     1
 98
        1
 10
32.00048327986211
 20
17.27742315114458
  0
HATCH
  5
DE
330
1F
100
AcDbEntity
  8
중심선
100
AcDbHatch
 10
0.0
 20
0.0
 30
0.0
210
0.0
220
0.0
230
1.0
  2
SOLID
 70
     1
 71
     0
 91
        1
 92
        0
 93
        4
 72
     1
 10
2.687370275597436
 20
-18.52150192013152
 11
-0.758904968239845
 21
-18.52150192013152
 72
     1
 10
-0.7589049682398468
 20
-18.52150192013152
 11
-5.290042976597235
 21
-23.92150192013154
 72
     1
 10
-5.290042976597235
 20
-23.92150192013154
 11
-1.84376773275995
 21
-23.92150192013154
 72
     1
 10
-1.84376773275995
 20
-23.92150192013154
 11
2.687370275597434
 21
-18.52150192013152
 97
        0
 75
     0
 76
     1
 98
        1
 10
32.00048327986211
 20
17.27742315114458
  0
HATCH
  5
DF
330
1F
100
AcDbEntity
  8
중심선
100
AcDbHatch
 10
0.0
 20
0.0
 30
0.0
210
0.0
220
0.0
230
1.0
  2
SOLID
 70
     1
 71
     0
 91
        1
 92
        0
 93
        4
 72
     1
 10
7.700134266633333
 20
-18.52150192013154
 11
4.253859022796219
 21
-18.52150192013152
 72
     1
 10
4.253859022796219
 20
-18.52150192013152
 11
-2.794577879093032
 21
-26.92150192013154
 72
     1
 10
-2.794577879093033
 20
-26.92150192013154
 11
0.6516973647442477
 21
-26.92150192013154
 72
     1
 10
0.6516973647442512
 20
-26.92150192013154
 11
7.700134266633334
 21
-18.52150192013154
 97
        0
 75
     0
 76
     1
 98
        1
 10
32.00048327986211
 20
17.27742315114458
  0
HATCH
  5
E0
330
1F
100
AcDbEntity
  8
중심선
100
AcDbHatch
 10
0.0
 20
0.0
 30
0.0
210
0.0
220
0.0
230
1.0
  2
SOLID
 70
     1
 71
     0
 91
        1
 92
        0
 93
        6
 72
     3
 10
12.50002469764553
 20
-22.72150192018279
 11
3.960054785062285
 21
1.540882976769353E-10
 40
0.3939339440162626
 50
17.0953918060844
 51
320.0019657685081
 73
     0
 72
     1
 10
14.18302435334613
 20
-21.30939592476982
 11
16.48832622704717
 21
-19.3750692147219
 72
     3
 10
12.50002469759269
 20
-22.72150192013167
 11
6.600054785286828
 21
-1.278976924368180E-13
 40
0.6363583540795982
 50
39.99873849337415
 51
368.4976242363725
 73
     1
 72
     1
 10
18.9253571894933
 20
-21.76150192006154
 11
11.18009200442861
 21
-21.76150192006152
 72
     1
 10
11.18009200442861
 20
-21.76150192006152
 11
11.18006695998267
 21
-23.68150192006143
 72
     1
 10
11.18006695998267
 20
-23.68150192006143
 11
15.62144672945471
 21
-23.6815019200614
 97
        0
 75
     0
 76
     1
 98
        1
 10
32.00048327986211
 20
17.27742315114458
  0
DIMENSION
  5
E1
330
1F
100
AcDbEntity
  8
치수문자_일반주서
100
AcDbDimension
  2
_D
 10
-75.32137441850305
 20
-6.370928316480025
 30
0.0
 11
-75.32137441850317
 21
26.71432168351996
 31
0.0
 70
   160
  1
%%c<>
 71
     2
 42
12.69999999999999
 52
-270.0
  3
SLDDIMSTYLE0
100
AcDbAlignedDimension
 13
-61.75499999999998
 23
6.329071683520013
 33
0.0
 14
-61.75499999999998
 24
-6.370928316479976
 34
0.0
 50
90.0000000000002
100
AcDbRotatedDimension
1001
ACAD
1000
DSTYLE
1002
{
1070
   171
1070
     6
1070
   273
1070
     5
1002
}
  0
DIMENSION
  5
F6
330
1F
100
AcDbEntity
  8
치수문자_일반주서
100
AcDbDimension
  2
_D_1
 10
109.8782919490871
 20
-6.370928316479844
 30
0.0
 11
109.878291949087
 21
26.71432168352009
 31
0.0
 70
   160
  1
%%c<>
 71
     2
 42
12.69999999999995
 52
-270.0
  3
SLDDIMSTYLE0
100
AcDbAlignedDimension
 13
89.37500000000003
 23
6.329071683520021
 33
0.0
 14
89.37500000000003
 24
-6.370928316479924
 34
0.0
 50
90.0000000000002
100
AcDbRotatedDimension
1001
ACAD
1000
DSTYLE
1002
{
1070
   171
1070
     6
1070
   273
1070
     5
1002
}
  0
DIMENSION
  5
10A
330
1F
100
AcDbEntity
  8
치수문자_일반주서
100
AcDbDimension
  2
_D_2
 10
10.00000000000003
 20
16.98318170672141
 30
0.0
 11
49.68750000000001
 21
16.98318170672141
 31
0.0
 70
   160
  1
<>
 71
     2
 42
79.375
  3
SLDDIMSTYLE0
100
AcDbAlignedDimension
 13
89.37500000000003
 23
6.282732881762566
 33
0.0
 14
10.00000000000003
 24
6.329071683520018
 34
0.0
 50
0.0000000000001282
100
AcDbRotatedDimension
1001
ACAD
1000
DSTYLE
1002
{
1070
   171
1070
     6
1070
   273
1070
     5
1002
}
  0
DIMENSION
  5
11E
330
1F
100
AcDbEntity
  8
치수문자_일반주서
100
AcDbDimension
  2
_D_3
 10
-63.02499999999998
 20
28.98318170672151
 30
0.0
 11
11.80891437423952
 21
28.98318170672151
 31
0.0
 70
   160
  1
<>
 71
     2
 42
152.4
  3
SLDDIMSTYLE0
100
AcDbAlignedDimension
 13
89.37500000000003
 23
6.282732881762566
 33
0.0
 14
-63.02499999999998
 24
5.059071683520021
 34
0.0
 50
0.0000000000000013
100
AcDbRotatedDimension
1001
ACAD
1000
DSTYLE
1002
{
1070
   171
1070
     6
1070
   273
1070
     5
1002
}
  0
LINE
  5
131
330
1F
100
AcDbEntity
  8
참조1
100
AcDbLine
 10
56.71348381534555
 20
7.441074928723896
 30
0.0
 11
56.71348381534555
 21
-7.438925071276109
 31
0.0
  0
LINE
  5
132
330
1F
100
AcDbEntity
  8
참조1
100
AcDbLine
 10
69.41348381534556
 20
5.441074928723896
 30
0.0
 11
56.71348381534555
 21
5.441074928723896
 31
0.0
  0
SOLID
  5
133
330
1F
100
AcDbEntity
  8
참조1
100
AcDbTrace
 10
56.71348381534555
 20
5.441074928723896
 30
0.0
 11
63.06348381534555
 21
4.425074928723896
 31
0.0
 12
63.06348381534555
 22
6.457074928723896
 32
0.0
 13
63.06348381534555
 23
6.457074928723896
 33
0.0
  0
LINE
  5
134
330
1F
100
AcDbEntity
  8
참조1
100
AcDbLine
 10
69.41348381534556
 20
-5.438925071276109
 30
0.0
 11
56.71348381534555
 21
-5.438925071276109
 31
0.0
  0
SOLID
  5
135
330
1F
100
AcDbEntity
  8
참조1
100
AcDbTrace
 10
56.71348381534555
 20
-5.438925071276109
 30
0.0
 11
63.06348381534555
 21
-6.454925071276109
 31
0.0
 12
63.06348381534555
 22
-4.422925071276109
 32
0.0
 13
63.06348381534555
 23
-4.422925071276109
 33
0.0
  0
MTEXT
  5
136
330
1F
100
AcDbEntity
  8
참조1
100
AcDbMText
 10
66.31359862590811
 20
11.06679249473997
 30
0.0
 40
3.5
 41
0.0
 71
     1
 72
     1
  1
A
  7
SLDTEXTSTYLE0
 73
     1
 44
1.0
  0
MTEXT
  5
137
330
1F
100
AcDbEntity
  8
참조1
100
AcDbMText
 10
66.31359862590811
 20
0.1867924947399659
 30
0.0
 40
3.5
 41
0.0
 71
     1
 72
     1
  1
A
  7
SLDTEXTSTYLE0
 73
     1
 44
1.0
  0
INSERT
  5
13E
330
1F
100
AcDbEntity
  8
해칭선
100
AcDbBlockReference
  2
SW_DOWELSYMBOL_0
 10
0.0
 20
0.0
 30
0.0
  0
ENDSEC
  0
SECTION
  2
OBJECTS
  0
DICTIONARY
  5
C
330
0
100
AcDbDictionary
281
     1
  3
ACAD_GROUP
350
D
  3
ACAD_IMAGE_VARS
350
162
  3
ACAD_LAYOUT
350
1A
  3
ACAD_MLINESTYLE
350
17
  3
ACAD_PLOTSETTINGS
350
19
  3
ACAD_PLOTSTYLENAME
350
E
  3
ACAD_SCALELIST
350
47
  3
APPDATA
350
160
  3
DWGPROPS
350
2D8
  0
DICTIONARY
  5
21C
330
2
100
AcDbDictionary
280
     1
281
     1
  3
ACAD_LAYERSTATES
360
21D
  0
DICTIONARY
  5
D
102
{ACAD_REACTORS
330
C
102
}
330
C
100
AcDbDictionary
281
     1
  0
RASTERVARIABLES
  5
162
102
{ACAD_REACTORS
330
C
102
}
330
C
100
AcDbRasterVariables
 90
        0
 70
     1
 71
     1
 72
     1
  0
DICTIONARY
  5
1A
102
{ACAD_REACTORS
330
C
102
}
330
C
100
AcDbDictionary
281
     1
  3
Layout1
350
1E
  3
Layout2
350
26
  3
Model
350
22
  0
DICTIONARY
  5
17
102
{ACAD_REACTORS
330
C
102
}
330
C
100
AcDbDictionary
281
     1
  3
Standard
350
18
  0
DICTIONARY
  5
19
102
{ACAD_REACTORS
330
C
102
}
330
C
100
AcDbDictionary
281
     1
  0
ACDBDICTIONARYWDFLT
  5
E
102
{ACAD_REACTORS
330
C
102
}
330
C
100
AcDbDictionary
281
     1
  3
Normal
350
F
100
AcDbDictionaryWithDefault
340
F
  0
DICTIONARY
  5
47
102
{ACAD_REACTORS
330
C
102
}
330
C
100
AcDbDictionary
281
     1
  3
A0
350
48
  3
A1
350
49
  3
A2
350
4A
  3
A3
350
4B
  3
A4
350
4C
  3
A5
350
4D
  3
A6
350
4E
  3
A7
350
4F
  3
A8
350
50
  3
A9
350
51
  3
B0
350
52
  3
B1
350
53
  3
B2
350
54
  3
B3
350
55
  3
B4
350
56
  3
B5
350
57
  3
B6
350
58
  3
B7
350
59
  3
B8
350
5A
  3
B9
350
5B
  3
C0
350
5C
  3
C1
350
5D
  3
C2
350
5E
  3
C3
350
5F
  3
C4
350
60
  3
C5
350
61
  3
C6
350
62
  3
C7
350
63
  3
C8
350
64
  3
C9
350
65
  3
D0
350
66
  3
D1
350
67
  3
D2
350
68
  0
DICTIONARY
  5
160
102
{ACAD_REACTORS
330
C
102
}
330
C
100
AcDbDictionary
281
     1
  0
XRECORD
  5
2D8
102
{ACAD_REACTORS
330
C
102
}
330
C
100
AcDbXrecord
280
     1
  1
DWGPROPS COOKIE
  2

  3

  4

  6

  7

  8
12014074
  9

300
=
301
=
302
=
303
=
304
=
305
=
306
=
307
=
308
=
309
=
 40
0.0
 41
2458323.965986481
 42
2458324.1984461
  1

 90
        0
  0
DICTIONARY
  5
21D
102
{ACAD_REACTORS
330
21C
102
}
330
21C
100
AcDbDictionary
281
     1
  0
LAYOUT
  5
1E
102
{ACAD_REACTORS
330
1A
102
}
330
1A
100
AcDbPlotSettings
  1

  2
none_device
  4

  6

 40
0.0
 41
0.0
 42
0.0
 43
0.0
 44
0.0
 45
0.0
 46
0.0
 47
0.0
 48
0.0
 49
0.0
140
0.0
141
0.0
142
1.0
143
1.0
 70
   688
 72
     1
 73
     0
 74
     5
  7

 75
    16
147
1.0
148
0.0
149
0.0
100
AcDbLayout
  1
Layout1
 70
     1
 71
     1
 10
0.0
 20
0.0
 11
420.0
 21
297.0
 12
0.0
 22
0.0
 32
0.0
 14
1.000000000000000E+20
 24
1.000000000000000E+20
 34
1.000000000000000E+20
 15
-1.000000000000000E+20
 25
-1.000000000000000E+20
 35
-1.000000000000000E+20
146
0.0
 13
0.0
 23
0.0
 33
0.0
 16
1.0
 26
0.0
 36
0.0
 17
0.0
 27
1.0
 37
0.0
 76
     0
330
1B
  0
LAYOUT
  5
26
102
{ACAD_REACTORS
330
1A
102
}
330
1A
100
AcDbPlotSettings
  1

  2
none_device
  4

  6

 40
0.0
 41
0.0
 42
0.0
 43
0.0
 44
0.0
 45
0.0
 46
0.0
 47
0.0
 48
0.0
 49
0.0
140
0.0
141
0.0
142
1.0
143
1.0
 70
   688
 72
     1
 73
     0
 74
     5
  7

 75
    16
147
1.0
148
0.0
149
0.0
100
AcDbLayout
  1
Layout2
 70
     1
 71
     2
 10
0.0
 20
0.0
 11
0.0
 21
0.0
 12
0.0
 22
0.0
 32
0.0
 14
0.0
 24
0.0
 34
0.0
 15
0.0
 25
0.0
 35
0.0
146
0.0
 13
0.0
 23
0.0
 33
0.0
 16
1.0
 26
0.0
 36
0.0
 17
0.0
 27
1.0
 37
0.0
 76
     0
330
23
  0
LAYOUT
  5
22
102
{ACAD_REACTORS
330
1A
102
}
330
1A
100
AcDbPlotSettings
  1

  2
none_device
  4
ANSI_A_(11.00_x_8.50_Inches)
  6

 40
6.35
 41
19.05
 42
6.35000508
 43
19.05000254
 44
279.4
 45
215.9
 46
126.6005507163149
 47
96.07882143197516
 48
0.0
 49
0.0
140
0.0
141
0.0
142
0.0516807805407365
143
1.0
 70
  1696
 72
     0
 73
     0
 74
     0
  7

 75
     0
147
0.0235690232323232
148
0.0
149
0.0
100
AcDbLayout
  1
Model
 70
     1
 71
     0
 10
0.0
 20
0.0
 11
420.0
 21
297.0
 12
0.0
 22
0.0
 32
0.0
 14
1.000000000000000E+20
 24
1.000000000000000E+20
 34
1.000000000000000E+20
 15
-1.000000000000000E+20
 25
-1.000000000000000E+20
 35
-1.000000000000000E+20
146
0.0
 13
0.0
 23
0.0
 33
0.0
 16
1.0
 26
0.0
 36
0.0
 17
0.0
 27
1.0
 37
0.0
 76
     0
330
1F
331
29
  0
MLINESTYLE
  5
18
102
{ACAD_REACTORS
330
17
102
}
330
17
100
AcDbMlineStyle
  2
Standard
 70
     0
  3

 62
   256
 51
90.0
 52
90.0
 71
     2
 49
0.5
 62
   256
  6
BYLAYER
 49
-0.5
 62
   256
  6
BYLAYER
  0
ACDBPLACEHOLDER
  5
F
102
{ACAD_REACTORS
330
E
102
}
330
E
  0
SCALE
  5
48
102
{ACAD_REACTORS
330
47
102
}
330
47
100
AcDbScale
 70
     0
300
1:1
140
1.0
141
1.0
290
     1
  0
SCALE
  5
49
102
{ACAD_REACTORS
330
47
102
}
330
47
100
AcDbScale
 70
     0
300
1:2
140
1.0
141
2.0
290
     0
  0
SCALE
  5
4A
102
{ACAD_REACTORS
330
47
102
}
330
47
100
AcDbScale
 70
     0
300
1:4
140
1.0
141
4.0
290
     0
  0
SCALE
  5
4B
102
{ACAD_REACTORS
330
47
102
}
330
47
100
AcDbScale
 70
     0
300
1:5
140
1.0
141
5.0
290
     0
  0
SCALE
  5
4C
102
{ACAD_REACTORS
330
47
102
}
330
47
100
AcDbScale
 70
     0
300
1:8
140
1.0
141
8.0
290
     0
  0
SCALE
  5
4D
102
{ACAD_REACTORS
330
47
102
}
330
47
100
AcDbScale
 70
     0
300
1:10
140
1.0
141
10.0
290
     0
  0
SCALE
  5
4E
102
{ACAD_REACTORS
330
47
102
}
330
47
100
AcDbScale
 70
     0
300
1:16
140
1.0
141
16.0
290
     0
  0
SCALE
  5
4F
102
{ACAD_REACTORS
330
47
102
}
330
47
100
AcDbScale
 70
     0
300
1:20
140
1.0
141
20.0
290
     0
  0
SCALE
  5
50
102
{ACAD_REACTORS
330
47
102
}
330
47
100
AcDbScale
 70
     0
300
1:30
140
1.0
141
30.0
290
     0
  0
SCALE
  5
51
102
{ACAD_REACTORS
330
47
102
}
330
47
100
AcDbScale
 70
     0
300
1:40
140
1.0
141
40.0
290
     0
  0
SCALE
  5
52
102
{ACAD_REACTORS
330
47
102
}
330
47
100
AcDbScale
 70
     0
300
1:50
140
1.0
141
50.0
290
     0
  0
SCALE
  5
53
102
{ACAD_REACTORS
330
47
102
}
330
47
100
AcDbScale
 70
     0
300
1:100
140
1.0
141
100.0
290
     0
  0
SCALE
  5
54
102
{ACAD_REACTORS
330
47
102
}
330
47
100
AcDbScale
 70
     0
300
2:1
140
2.0
141
1.0
290
     0
  0
SCALE
  5
55
102
{ACAD_REACTORS
330
47
102
}
330
47
100
AcDbScale
 70
     0
300
4:1
140
4.0
141
1.0
290
     0
  0
SCALE
  5
56
102
{ACAD_REACTORS
330
47
102
}
330
47
100
AcDbScale
 70
     0
300
8:1
140
8.0
141
1.0
290
     0
  0
SCALE
  5
57
102
{ACAD_REACTORS
330
47
102
}
330
47
100
AcDbScale
 70
     0
300
10:1
140
10.0
141
1.0
290
     0
  0
SCALE
  5
58
102
{ACAD_REACTORS
330
47
102
}
330
47
100
AcDbScale
 70
     0
300
100:1
140
100.0
141
1.0
290
     0
  0
SCALE
  5
59
102
{ACAD_REACTORS
330
47
102
}
330
47
100
AcDbScale
 70
     0
300
1/128" = 1'-0"
140
0.0078125
141
12.0
290
     0
  0
SCALE
  5
5A
102
{ACAD_REACTORS
330
47
102
}
330
47
100
AcDbScale
 70
     0
300
1/64" = 1'-0"
140
0.015625
141
12.0
290
     0
  0
SCALE
  5
5B
102
{ACAD_REACTORS
330
47
102
}
330
47
100
AcDbScale
 70
     0
300
1/32" = 1'-0"
140
0.03125
141
12.0
290
     0
  0
SCALE
  5
5C
102
{ACAD_REACTORS
330
47
102
}
330
47
100
AcDbScale
 70
     0
300
1/16" = 1'-0"
140
0.0625
141
12.0
290
     0
  0
SCALE
  5
5D
102
{ACAD_REACTORS
330
47
102
}
330
47
100
AcDbScale
 70
     0
300
3/32" = 1'-0"
140
0.09375
141
12.0
290
     0
  0
SCALE
  5
5E
102
{ACAD_REACTORS
330
47
102
}
330
47
100
AcDbScale
 70
     0
300
1/8" = 1'-0"
140
0.125
141
12.0
290
     0
  0
SCALE
  5
5F
102
{ACAD_REACTORS
330
47
102
}
330
47
100
AcDbScale
 70
     0
300
3/16" = 1'-0"
140
0.1875
141
12.0
290
     0
  0
SCALE
  5
60
102
{ACAD_REACTORS
330
47
102
}
330
47
100
AcDbScale
 70
     0
300
1/4" = 1'-0"
140
0.25
141
12.0
290
     0
  0
SCALE
  5
61
102
{ACAD_REACTORS
330
47
102
}
330
47
100
AcDbScale
 70
     0
300
3/8" = 1'-0"
140
0.375
141
12.0
290
     0
  0
SCALE
  5
62
102
{ACAD_REACTORS
330
47
102
}
330
47
100
AcDbScale
 70
     0
300
1/2" = 1'-0"
140
0.5
141
12.0
290
     0
  0
SCALE
  5
63
102
{ACAD_REACTORS
330
47
102
}
330
47
100
AcDbScale
 70
     0
300
3/4" = 1'-0"
140
0.75
141
12.0
290
     0
  0
SCALE
  5
64
102
{ACAD_REACTORS
330
47
102
}
330
47
100
AcDbScale
 70
     0
300
1" = 1'-0"
140
1.0
141
12.0
290
     0
  0
SCALE
  5
65
102
{ACAD_REACTORS
330
47
102
}
330
47
100
AcDbScale
 70
     0
300
1-1/2" = 1'-0"
140
1.5
141
12.0
290
     0
  0
SCALE
  5
66
102
{ACAD_REACTORS
330
47
102
}
330
47
100
AcDbScale
 70
     0
300
3" = 1'-0"
140
3.0
141
12.0
290
     0
  0
SCALE
  5
67
102
{ACAD_REACTORS
330
47
102
}
330
47
100
AcDbScale
 70
     0
300
6" = 1'-0"
140
6.0
141
12.0
290
     0
  0
SCALE
  5
68
102
{ACAD_REACTORS
330
47
102
}
330
47
100
AcDbScale
 70
     0
300
1'-0" = 1'-0"
140
12.0
141
12.0
290
     0
  0
ENDSEC
  0
EOF
