  0
SECTION
  2
HEADER
  9
$ACADVER
  1
AC1015
  9
$ACADMAINTVER
 70
     6
  9
$DWGCODEPAGE
  3
ANSI_949
  9
$INSBASE
 10
0.0
 20
0.0
 30
0.0
  9
$EXTMIN
 10
1.000000000000000E+20
 20
1.000000000000000E+20
 30
1.000000000000000E+20
  9
$EXTMAX
 10
-1.000000000000000E+20
 20
-1.000000000000000E+20
 30
-1.000000000000000E+20
  9
$LIMMIN
 10
0.0
 20
0.0
  9
$LIMMAX
 10
420.0
 20
297.0
  9
$ORTHOMODE
 70
     1
  9
$REGENMODE
 70
     1
  9
$FILLMODE
 70
     1
  9
$QTEXTMODE
 70
     0
  9
$MIRRTEXT
 70
     1
  9
$LTSCALE
 40
1.0
  9
$ATTMODE
 70
     1
  9
$TEXTSIZE
 40
3.5
  9
$TRACEWID
 40
1.0
  9
$TEXTSTYLE
  7
Standard
  9
$CLAYER
  8
0
  9
$CELTYPE
  6
ByLayer
  9
$CECOLOR
 62
   256
  9
$CELTSCALE
 40
1.0
  9
$DISPSILH
 70
     0
  9
$DIMSCALE
 40
1.0
  9
$DIMASZ
 40
3.302
  9
$DIMEXO
 40
1.0
  9
$DIMDLI
 40
3.75
  9
$DIMRND
 40
0.0
  9
$DIMDLE
 40
0.0
  9
$DIMEXE
 40
1.0
  9
$DIMTP
 40
0.0
  9
$DIMTM
 40
0.0
  9
$DIMTXT
 40
3.5
  9
$DIMCEN
 40
2.5
  9
$DIMTSZ
 40
0.0
  9
$DIMTOL
 70
     0
  9
$DIMLIM
 70
     0
  9
$DIMTIH
 70
     1
  9
$DIMTOH
 70
     1
  9
$DIMSE1
 70
     0
  9
$DIMSE2
 70
     0
  9
$DIMTAD
 70
     1
  9
$DIMZIN
 70
     0
  9
$DIMBLK
  1

  9
$DIMASO
 70
     1
  9
$DIMSHO
 70
     1
  9
$DIMPOST
  1

  9
$DIMAPOST
  1

  9
$DIMALT
 70
     0
  9
$DIMALTD
 70
     3
  9
$DIMALTF
 40
0.0393700787401575
  9
$DIMLFAC
 40
1.0
  9
$DIMTOFL
 70
     1
  9
$DIMTVP
 40
0.0
  9
$DIMTIX
 70
     0
  9
$DIMSOXD
 70
     0
  9
$DIMSAH
 70
     0
  9
$DIMBLK1
  1

  9
$DIMBLK2
  1

  9
$DIMSTYLE
  2
ISO-25
  9
$DIMCLRD
 70
     0
  9
$DIMCLRE
 70
     0
  9
$DIMCLRT
 70
     0
  9
$DIMTFAC
 40
1.0
  9
$DIMGAP
 40
1.524
  9
$DIMJUST
 70
     0
  9
$DIMSD1
 70
     0
  9
$DIMSD2
 70
     0
  9
$DIMTOLJ
 70
     0
  9
$DIMTZIN
 70
     0
  9
$DIMALTZ
 70
     0
  9
$DIMALTTZ
 70
     0
  9
$DIMUPT
 70
     0
  9
$DIMDEC
 70
     2
  9
$DIMTDEC
 70
     2
  9
$DIMALTU
 70
     2
  9
$DIMALTTD
 70
     3
  9
$DIMTXSTY
  7
Standard
  9
$DIMAUNIT
 70
     0
  9
$DIMADEC
 70
     2
  9
$DIMALTRND
 40
0.0
  9
$DIMAZIN
 70
     0
  9
$DIMDSEP
 70
    44
  9
$DIMATFIT
 70
     3
  9
$DIMFRAC
 70
     0
  9
$DIMLDRBLK
  1

  9
$DIMLUNIT
 70
     2
  9
$DIMLWD
 70
    -2
  9
$DIMLWE
 70
    -2
  9
$DIMTMOVE
 70
     0
  9
$LUNITS
 70
     2
  9
$LUPREC
 70
     2
  9
$SKETCHINC
 40
1.0
  9
$FILLETRAD
 40
10.0
  9
$AUNITS
 70
     0
  9
$AUPREC
 70
     2
  9
$MENU
  1
.
  9
$ELEVATION
 40
0.0
  9
$PELEVATION
 40
0.0
  9
$THICKNESS
 40
0.0
  9
$LIMCHECK
 70
     0
  9
$CHAMFERA
 40
0.0
  9
$CHAMFERB
 40
0.0
  9
$CHAMFERC
 40
0.0
  9
$CHAMFERD
 40
0.0
  9
$SKPOLY
 70
     0
  9
$TDCREATE
 40
2458324.341174803
  9
$TDUCREATE
 40
2458323.966174803
  9
$TDUPDATE
 40
2458324.576315833
  9
$TDUUPDATE
 40
2458324.201315833
  9
$TDINDWG
 40
0.0009223264
  9
$TDUSRTIMER
 40
2458324.200393854
  9
$USRTIMER
 70
     1
  9
$ANGBASE
 50
0.0
  9
$ANGDIR
 70
     0
  9
$PDMODE
 70
     0
  9
$PDSIZE
 40
-1.0
  9
$PLINEWID
 40
0.0
  9
$SPLFRAME
 70
     0
  9
$SPLINETYPE
 70
     6
  9
$SPLINESEGS
 70
     8
  9
$HANDSEED
  5
2CE
  9
$SURFTAB1
 70
     6
  9
$SURFTAB2
 70
     6
  9
$SURFTYPE
 70
     6
  9
$SURFU
 70
     6
  9
$SURFV
 70
     6
  9
$UCSBASE
  2

  9
$UCSNAME
  2

  9
$UCSORG
 10
0.0
 20
0.0
 30
0.0
  9
$UCSXDIR
 10
1.0
 20
0.0
 30
0.0
  9
$UCSYDIR
 10
0.0
 20
1.0
 30
0.0
  9
$UCSORTHOREF
  2

  9
$UCSORTHOVIEW
 70
     0
  9
$UCSORGTOP
 10
0.0
 20
0.0
 30
0.0
  9
$UCSORGBOTTOM
 10
0.0
 20
0.0
 30
0.0
  9
$UCSORGLEFT
 10
0.0
 20
0.0
 30
0.0
  9
$UCSORGRIGHT
 10
0.0
 20
0.0
 30
0.0
  9
$UCSORGFRONT
 10
0.0
 20
0.0
 30
0.0
  9
$UCSORGBACK
 10
0.0
 20
0.0
 30
0.0
  9
$PUCSBASE
  2

  9
$PUCSNAME
  2

  9
$PUCSORG
 10
0.0
 20
0.0
 30
0.0
  9
$PUCSXDIR
 10
1.0
 20
0.0
 30
0.0
  9
$PUCSYDIR
 10
0.0
 20
1.0
 30
0.0
  9
$PUCSORTHOREF
  2

  9
$PUCSORTHOVIEW
 70
     0
  9
$PUCSORGTOP
 10
0.0
 20
0.0
 30
0.0
  9
$PUCSORGBOTTOM
 10
0.0
 20
0.0
 30
0.0
  9
$PUCSORGLEFT
 10
0.0
 20
0.0
 30
0.0
  9
$PUCSORGRIGHT
 10
0.0
 20
0.0
 30
0.0
  9
$PUCSORGFRONT
 10
0.0
 20
0.0
 30
0.0
  9
$PUCSORGBACK
 10
0.0
 20
0.0
 30
0.0
  9
$USERI1
 70
     0
  9
$USERI2
 70
     0
  9
$USERI3
 70
     0
  9
$USERI4
 70
     0
  9
$USERI5
 70
     0
  9
$USERR1
 40
0.0
  9
$USERR2
 40
0.0
  9
$USERR3
 40
0.0
  9
$USERR4
 40
0.0
  9
$USERR5
 40
0.0
  9
$WORLDVIEW
 70
     1
  9
$SHADEDGE
 70
     3
  9
$SHADEDIF
 70
    70
  9
$TILEMODE
 70
     1
  9
$MAXACTVP
 70
    64
  9
$PINSBASE
 10
0.0
 20
0.0
 30
0.0
  9
$PLIMCHECK
 70
     0
  9
$PEXTMIN
 10
1.000000000000000E+20
 20
1.000000000000000E+20
 30
1.000000000000000E+20
  9
$PEXTMAX
 10
-1.000000000000000E+20
 20
-1.000000000000000E+20
 30
-1.000000000000000E+20
  9
$PLIMMIN
 10
0.0
 20
0.0
  9
$PLIMMAX
 10
0.0
 20
0.0
  9
$UNITMODE
 70
     0
  9
$VISRETAIN
 70
     1
  9
$PLINEGEN
 70
     0
  9
$PSLTSCALE
 70
     1
  9
$TREEDEPTH
 70
  3020
  9
$CMLSTYLE
  2
Standard
  9
$CMLJUST
 70
     0
  9
$CMLSCALE
 40
20.0
  9
$PROXYGRAPHICS
 70
     1
  9
$MEASUREMENT
 70
     1
  9
$CELWEIGHT
370
    -1
  9
$ENDCAPS
280
     0
  9
$JOINSTYLE
280
     0
  9
$LWDISPLAY
290
     1
  9
$INSUNITS
 70
     4
  9
$HYPERLINKBASE
  1

  9
$STYLESHEET
  1

  9
$XEDIT
290
     1
  9
$CEPSNTYPE
380
     0
  9
$PSTYLEMODE
290
     1
  9
$FINGERPRINTGUID
  2
{722E11E3-8944-4395-AC0A-D567DD2E4772}
  9
$VERSIONGUID
  2
{FAEB1C32-E019-11D5-929B-00C0DF256EC4}
  9
$EXTNAMES
290
     1
  9
$PSVPSCALE
 40
0.0
  9
$OLESTARTUP
290
     0
  0
ENDSEC
  0
SECTION
  2
CLASSES
  0
CLASS
  1
ACDBDICTIONARYWDFLT
  2
AcDbDictionaryWithDefault
  3
ObjectDBX Classes
 90
        0
280
     0
281
     0
  0
CLASS
  1
VISUALSTYLE
  2
AcDbVisualStyle
  3
ObjectDBX Classes
 90
     4095
280
     0
281
     0
  0
CLASS
  1
MATERIAL
  2
AcDbMaterial
  3
ObjectDBX Classes
 90
     1153
280
     0
281
     0
  0
CLASS
  1
SCALE
  2
AcDbScale
  3
ObjectDBX Classes
 90
     1153
280
     0
281
     0
  0
CLASS
  1
SUN
  2
AcDbSun
  3
SCENEOE
 90
     1153
280
     0
281
     0
  0
CLASS
  1
ACDBPLACEHOLDER
  2
AcDbPlaceHolder
  3
ObjectDBX Classes
 90
        0
280
     0
281
     0
  0
CLASS
  1
LAYOUT
  2
AcDbLayout
  3
ObjectDBX Classes
 90
        0
280
     0
281
     0
  0
CLASS
  1
TABLESTYLE
  2
AcDbTableStyle
  3
ObjectDBX Classes
 90
     4095
280
     0
281
     0
  0
CLASS
  1
MLEADERSTYLE
  2
AcDbMLeaderStyle
  3
ACDB_MLEADERSTYLE_CLASS
 90
     4095
280
     0
281
     0
  0
CLASS
  1
RASTERVARIABLES
  2
AcDbRasterVariables
  3
ISM
 90
        0
280
     0
281
     0
  0
ENDSEC
  0
SECTION
  2
TABLES
  0
TABLE
  2
VPORT
  5
8
330
0
100
AcDbSymbolTable
 70
     1
  0
VPORT
  5
29
330
8
100
AcDbSymbolTableRecord
100
AcDbViewportTableRecord
  2
*Active
 70
     0
 10
0.0
 20
0.0
 11
1.0
 21
1.0
 12
73.85088216739426
 22
-24.05280818697591
 13
0.0
 23
0.0
 14
10.0
 24
10.0
 15
10.0
 25
10.0
 16
0.0
 26
0.0
 36
1.0
 17
0.0
 27
0.0
 37
0.0
 40
211.7855322229205
 41
1.970186335403727
 42
50.0
 43
0.0
 44
0.0
 50
0.0
 51
0.0
 71
    16
 72
  2000
 73
     1
 74
     3
 75
     0
 76
     0
 77
     0
 78
     0
281
     0
 65
     1
110
0.0
120
0.0
130
0.0
111
1.0
121
0.0
131
0.0
112
0.0
122
1.0
132
0.0
 79
     0
146
0.0
  0
ENDTAB
  0
TABLE
  2
LTYPE
  5
5
330
0
100
AcDbSymbolTable
 70
     6
  0
LTYPE
  5
14
330
5
100
AcDbSymbolTableRecord
100
AcDbLinetypeTableRecord
  2
ByBlock
 70
     0
  3

 72
    65
 73
     0
 40
0.0
  0
LTYPE
  5
15
330
5
100
AcDbSymbolTableRecord
100
AcDbLinetypeTableRecord
  2
ByLayer
 70
     0
  3

 72
    65
 73
     0
 40
0.0
  0
LTYPE
  5
16
330
5
100
AcDbSymbolTableRecord
100
AcDbLinetypeTableRecord
  2
Continuous
 70
     0
  3
Solid line
 72
    65
 73
     0
 40
0.0
  0
LTYPE
  5
6A
330
5
100
AcDbSymbolTableRecord
100
AcDbLinetypeTableRecord
  2
HIDDEN
 70
     0
  3
Hidden __ __ __ __ __ __ __ __ __ __ __ __ __ __
 72
    65
 73
     2
 40
1.905
 49
1.27
 74
     0
 49
-0.635
 74
     0
  0
LTYPE
  5
6B
330
5
100
AcDbSymbolTableRecord
100
AcDbLinetypeTableRecord
  2
PHANTOM
 70
     0
  3
Phantom ______  __  __  ______  __  __  ______
 72
    65
 73
     6
 40
12.7
 49
6.35
 74
     0
 49
-1.27
 74
     0
 49
1.27
 74
     0
 49
-1.27
 74
     0
 49
1.27
 74
     0
 49
-1.27
 74
     0
  0
LTYPE
  5
6C
330
5
100
AcDbSymbolTableRecord
100
AcDbLinetypeTableRecord
  2
CENTER
 70
     0
  3
Center ____ _ ____ _ ____ _ ____ _ ____ _ ____
 72
    65
 73
     4
 40
10.16
 49
6.35
 74
     0
 49
-1.27
 74
     0
 49
1.27
 74
     0
 49
-1.27
 74
     0
  0
LTYPE
  5
6D
330
5
100
AcDbSymbolTableRecord
100
AcDbLinetypeTableRecord
  2
CENTERX2
 70
     0
  3
Center (2x) ________  __  ________  __  _____
 72
    65
 73
     4
 40
20.32
 49
12.7
 74
     0
 49
-2.54
 74
     0
 49
2.54
 74
     0
 49
-2.54
 74
     0
  0
LTYPE
  5
6E
330
5
100
AcDbSymbolTableRecord
100
AcDbLinetypeTableRecord
  2
DOT2
 70
     0
  3
Dot (.5x) ........................................
 72
    65
 73
     2
 40
0.635
 49
0.0
 74
     0
 49
-0.635
 74
     0
  0
ENDTAB
  0
TABLE
  2
LAYER
  5
2
102
{ACAD_XDICTIONARY
360
212
102
}
330
0
100
AcDbSymbolTable
 70
    18
  0
LAYER
  5
10
330
2
100
AcDbSymbolTableRecord
100
AcDbLayerTableRecord
  2
0
 70
     0
 62
     7
  6
Continuous
370
    -3
390
F
  0
LAYER
  5
6F
330
2
100
AcDbSymbolTableRecord
100
AcDbLayerTableRecord
  2
FORMAT
 70
     0
 62
     2
  6
Continuous
370
    -3
390
F
  0
LAYER
  5
70
330
2
100
AcDbSymbolTableRecord
100
AcDbLayerTableRecord
  2
외형선
 70
     0
 62
     4
  6
Continuous
370
    30
390
F
  0
LAYER
  5
71
330
2
100
AcDbSymbolTableRecord
100
AcDbLayerTableRecord
  2
숨은선
 70
     0
 62
     2
  6
HIDDEN
370
    15
390
F
  0
LAYER
  5
72
330
2
100
AcDbSymbolTableRecord
100
AcDbLayerTableRecord
  2
중심선
 70
     0
 62
     1
  6
CENTERX2
370
    -3
390
F
  0
LAYER
  5
73
330
2
100
AcDbSymbolTableRecord
100
AcDbLayerTableRecord
  2
파단선
 70
     0
 62
     4
  6
Continuous
370
    -3
390
F
  0
LAYER
  5
74
330
2
100
AcDbSymbolTableRecord
100
AcDbLayerTableRecord
  2
해칭선
 70
     0
 62
   100
  6
Continuous
370
    -3
390
F
  0
LAYER
  5
75
330
2
100
AcDbSymbolTableRecord
100
AcDbLayerTableRecord
  2
가는실선
 70
     0
 62
     4
  6
Continuous
370
    -3
390
F
  0
LAYER
  5
76
330
2
100
AcDbSymbolTableRecord
100
AcDbLayerTableRecord
  2
치수_보조선
 70
     0
 62
     4
  6
Continuous
370
    -3
390
F
  0
LAYER
  5
77
330
2
100
AcDbSymbolTableRecord
100
AcDbLayerTableRecord
  2
치수문자_일반주서
 70
     0
 62
     7
  6
Continuous
370
    15
390
F
  0
LAYER
  5
78
330
2
100
AcDbSymbolTableRecord
100
AcDbLayerTableRecord
  2
개별주서
 70
     0
 62
   100
  6
Continuous
370
    30
390
F
  0
LAYER
  5
79
330
2
100
AcDbSymbolTableRecord
100
AcDbLayerTableRecord
  2
중간선
 70
     0
 62
     2
  6
Continuous
370
    15
390
F
  0
LAYER
  5
7A
330
2
100
AcDbSymbolTableRecord
100
AcDbLayerTableRecord
  2
윤곽선
 70
     0
 62
     3
  6
Continuous
370
    40
390
F
  0
LAYER
  5
7B
330
2
100
AcDbSymbolTableRecord
100
AcDbLayerTableRecord
  2
중심마크
 70
     0
 62
   100
  6
Continuous
370
    30
390
F
  0
LAYER
  5
7C
330
2
100
AcDbSymbolTableRecord
100
AcDbLayerTableRecord
  2
가상선
 70
     0
 62
     4
  6
PHANTOM
370
    -3
390
F
  0
LAYER
  5
7D
330
2
100
AcDbSymbolTableRecord
100
AcDbLayerTableRecord
  2
특수지정선
 70
     0
 62
     5
  6
CENTERX2
370
    60
390
F
  0
LAYER
  5
7E
330
2
100
AcDbSymbolTableRecord
100
AcDbLayerTableRecord
  2
참조1
 70
     0
 62
    -4
  6
Continuous
370
    -3
390
F
  0
LAYER
  5
15A
330
2
100
AcDbSymbolTableRecord
100
AcDbLayerTableRecord
  2
Defpoints
 70
     0
 62
     7
  6
Continuous
290
     0
370
    -3
390
F
  0
ENDTAB
  0
TABLE
  2
STYLE
  5
3
330
0
100
AcDbSymbolTable
 70
     2
  0
STYLE
  5
11
330
3
100
AcDbSymbolTableRecord
100
AcDbTextStyleTableRecord
  2
Standard
 70
     0
 40
0.0
 41
1.0
 50
0.0
 71
     0
 42
3.5
  3
txt
  4

  0
STYLE
  5
94
330
3
100
AcDbSymbolTableRecord
100
AcDbTextStyleTableRecord
  2
SLDTEXTSTYLE0
 70
     0
 40
0.0
 41
0.75
 50
0.0
 71
     0
 42
3.5
  3
TXT
  4

  0
ENDTAB
  0
TABLE
  2
VIEW
  5
6
330
0
100
AcDbSymbolTable
 70
     0
  0
ENDTAB
  0
TABLE
  2
UCS
  5
7
330
0
100
AcDbSymbolTable
 70
     0
  0
ENDTAB
  0
TABLE
  2
APPID
  5
9
330
0
100
AcDbSymbolTable
 70
     3
  0
APPID
  5
12
330
9
100
AcDbSymbolTableRecord
100
AcDbRegAppTableRecord
  2
ACAD
 70
     0
  0
APPID
  5
164
330
9
100
AcDbSymbolTableRecord
100
AcDbRegAppTableRecord
  2
PE_URL
 70
     0
  0
APPID
  5
165
330
9
100
AcDbSymbolTableRecord
100
AcDbRegAppTableRecord
  2
ACAD_DSTYLE_DIMRADIAL_EXTENSION
 70
     0
  0
ENDTAB
  0
TABLE
  2
DIMSTYLE
  5
A
330
0
100
AcDbSymbolTable
 70
     4
100
AcDbDimStyleTable
  0
DIMSTYLE
105
27
330
A
100
AcDbSymbolTableRecord
100
AcDbDimStyleTableRecord
  2
ISO-25
 70
     0
 41
2.5
 42
0.625
 43
3.75
 44
1.25
 73
     0
 74
     0
 77
     1
 78
     8
140
2.5
141
2.5
143
0.03937007874016
147
0.625
171
     3
172
     1
178
     0
271
     2
272
     2
274
     3
278
    44
283
     0
284
     8
340
11
  0
DIMSTYLE
105
D8
330
A
100
AcDbSymbolTableRecord
100
AcDbDimStyleTableRecord
  2
SLDDIMSTYLE0
 70
     0
 41
3.302
 44
0.0
 45
0.000000001
 73
     0
 74
     0
 77
     1
 78
     4
 79
     1
140
3.5
143
0.0393700787401575
147
0.875
148
0.000000001
170
     1
172
     1
173
     1
178
     0
271
     2
272
     2
276
     2
284
    12
289
     0
340
94
  0
DIMSTYLE
105
ED
330
A
100
AcDbSymbolTableRecord
100
AcDbDimStyleTableRecord
  2
SLDDIMSTYLE1
 70
     0
 41
3.302
 44
0.0
 45
0.000000001
 73
     0
 74
     0
 77
     1
 78
    12
 79
     3
140
3.5
143
0.0393700787401575
147
0.875
148
0.000000001
170
     1
173
     1
178
     0
271
     2
272
     2
276
     2
284
    12
340
94
  0
DIMSTYLE
105
114
102
{ACAD_REACTORS
330
113
330
1C4
330
1D1
330
1DE
330
1F8
330
203
330
EC
330
100
330
D7
102
}
330
A
100
AcDbSymbolTableRecord
100
AcDbDimStyleTableRecord
  2
SLDDIMSTYLE2
 70
     0
 41
3.302
 44
0.0
 45
0.000000001
 73
     0
 74
     0
 77
     1
 78
     4
 79
     1
140
3.5
143
0.0393700787401575
147
0.875
148
0.000000001
170
     1
173
     1
178
     0
271
     2
272
     2
276
     2
284
    12
340
94
  0
ENDTAB
  0
TABLE
  2
BLOCK_RECORD
  5
1
330
0
100
AcDbSymbolTable
 70
    18
  0
BLOCK_RECORD
  5
1F
330
1
100
AcDbSymbolTableRecord
100
AcDbBlockTableRecord
  2
*Model_Space
340
22
  0
BLOCK_RECORD
  5
1B
330
1
100
AcDbSymbolTableRecord
100
AcDbBlockTableRecord
  2
*Paper_Space
340
1E
  0
BLOCK_RECORD
  5
23
330
1
100
AcDbSymbolTableRecord
100
AcDbBlockTableRecord
  2
*Paper_Space0
340
26
  0
BLOCK_RECORD
  5
7F
330
1
100
AcDbSymbolTableRecord
100
AcDbBlockTableRecord
  2
블럭10
340
0
102
{BLKREFS
331
D0
102
}
  0
BLOCK_RECORD
  5
D9
330
1
100
AcDbSymbolTableRecord
100
AcDbBlockTableRecord
  2
_D
340
0
  0
BLOCK_RECORD
  5
EE
330
1
100
AcDbSymbolTableRecord
100
AcDbBlockTableRecord
  2
_D_1
340
0
  0
BLOCK_RECORD
  5
101
330
1
100
AcDbSymbolTableRecord
100
AcDbBlockTableRecord
  2
_D_2
340
0
  0
BLOCK_RECORD
  5
115
330
1
100
AcDbSymbolTableRecord
100
AcDbBlockTableRecord
  2
_D_3
340
0
  0
BLOCK_RECORD
  5
12E
330
1
100
AcDbSymbolTableRecord
100
AcDbBlockTableRecord
  2
SW_DOWELSYMBOL_0
340
0
102
{BLKREFS
331
134
331
1ED
331
0
102
}
  0
BLOCK_RECORD
  5
1F9
330
1
100
AcDbSymbolTableRecord
100
AcDbBlockTableRecord
  2
*D8
340
0
  0
BLOCK_RECORD
  5
204
330
1
100
AcDbSymbolTableRecord
100
AcDbBlockTableRecord
  2
*D9
340
0
  0
BLOCK_RECORD
  5
216
330
1
100
AcDbSymbolTableRecord
100
AcDbBlockTableRecord
  2
*D10
340
0
  0
BLOCK_RECORD
  5
222
330
1
100
AcDbSymbolTableRecord
100
AcDbBlockTableRecord
  2
*D11
340
0
  0
BLOCK_RECORD
  5
22E
330
1
100
AcDbSymbolTableRecord
100
AcDbBlockTableRecord
  2
*D12
340
0
  0
BLOCK_RECORD
  5
289
330
1
100
AcDbSymbolTableRecord
100
AcDbBlockTableRecord
  2
*D13
340
0
  0
BLOCK_RECORD
  5
295
330
1
100
AcDbSymbolTableRecord
100
AcDbBlockTableRecord
  2
*D14
340
0
  0
BLOCK_RECORD
  5
2A1
330
1
100
AcDbSymbolTableRecord
100
AcDbBlockTableRecord
  2
*D15
340
0
  0
BLOCK_RECORD
  5
2AF
330
1
100
AcDbSymbolTableRecord
100
AcDbBlockTableRecord
  2
*D16
340
0
  0
BLOCK_RECORD
  5
2B9
330
1
100
AcDbSymbolTableRecord
100
AcDbBlockTableRecord
  2
*D17
340
0
  0
ENDTAB
  0
ENDSEC
  0
SECTION
  2
BLOCKS
  0
BLOCK
  5
20
330
1F
100
AcDbEntity
  8
0
100
AcDbBlockBegin
  2
*Model_Space
 70
     0
 10
0.0
 20
0.0
 30
0.0
  3
*Model_Space
  1
*Model_Space
  0
ENDBLK
  5
21
330
1F
100
AcDbEntity
  8
0
100
AcDbBlockEnd
  0
BLOCK
  5
1C
330
1B
100
AcDbEntity
 67
     1
  8
0
100
AcDbBlockBegin
  2
*Paper_Space
 70
     0
 10
0.0
 20
0.0
 30
0.0
  3
*Paper_Space
  1
*Paper_Space
  0
ENDBLK
  5
1D
330
1B
100
AcDbEntity
 67
     1
  8
0
100
AcDbBlockEnd
  0
BLOCK
  5
24
330
23
100
AcDbEntity
  8
0
100
AcDbBlockBegin
  2
*Paper_Space0
 70
     0
 10
0.0
 20
0.0
 30
0.0
  3
*Paper_Space0
  1
*Paper_Space0
  0
ENDBLK
  5
25
330
23
100
AcDbEntity
  8
0
100
AcDbBlockEnd
  0
BLOCK
  5
80
330
7F
100
AcDbEntity
  8
0
100
AcDbBlockBegin
  2
블럭10
 70
     2
 10
0.0
 20
0.0
 30
0.0
  3
블럭10
  1
블럭10
  0
ELLIPSE
  5
82
330
7F
100
AcDbEntity
  8
중심선
100
AcDbEllipse
 10
20.54032771741204
 20
12.0471743016438
 30
0.0
 11
6.600054785286829
 21
-1.261213355974178E-13
 31
0.0
210
0.0
220
0.0
230
1.0
 40
0.636358354079598
 41
0.9219305317359503
 42
6.513795318482858
  0
ELLIPSE
  5
83
330
7F
100
AcDbEntity
  8
중심선
100
AcDbEllipse
 10
20.54032771746488
 20
12.04717430159265
 30
0.0
 11
3.960054785062283
 21
1.540847449632565E-10
 31
0.0
210
0.0
220
0.0
230
1.0
 40
0.3939339440162632
 41
1.131841032648279
 42
5.62031148352944
  0
LINE
  5
84
330
7F
100
AcDbEntity
  8
중심선
100
AcDbLine
 10
2.268634060543552
 20
16.24717430164393
 30
0.0
 11
5.714909304380834
 21
16.24717430164393
 31
0.0
  0
LINE
  5
85
330
7F
100
AcDbEntity
  8
중심선
100
AcDbLine
 10
5.245725140726316
 20
7.84717430164391
 30
0.0
 11
8.692000384563599
 21
7.84717430164391
 31
0.0
  0
LINE
  5
86
330
7F
100
AcDbEntity
  8
중심선
100
AcDbLine
 10
15.74043728645272
 20
16.24717430164393
 30
0.0
 11
8.692000384563599
 21
7.84717430164391
 31
0.0
  0
LINE
  5
87
330
7F
100
AcDbEntity
  8
중심선
100
AcDbLine
 10
0.1404042013395286
 20
13.71084872107135
 30
0.0
 11
3.58671253028996
 21
13.71088815037384
 31
0.0
  0
LINE
  5
88
330
7F
100
AcDbEntity
  8
중심선
100
AcDbLine
 10
2.750260043222114
 20
10.84717430164391
 30
0.0
 11
6.196535287059397
 21
10.84717430164391
 31
0.0
  0
LINE
  5
89
330
7F
100
AcDbEntity
  8
중심선
100
AcDbLine
 10
12.29416204261559
 20
16.24717430164393
 30
0.0
 11
5.245725140726316
 21
7.84717430164391
 31
0.0
  0
LINE
  5
8A
330
7F
100
AcDbEntity
  8
중심선
100
AcDbLine
 10
10.72767329541681
 20
16.24717430164393
 30
0.0
 11
6.196535287059397
 21
10.84717430164391
 31
0.0
  0
LINE
  5
8B
330
7F
100
AcDbEntity
  8
중심선
100
AcDbLine
 10
7.28139805157953
 20
16.24717430164393
 30
0.0
 11
2.750260043222114
 21
10.84717430164391
 31
0.0
  0
LINE
  5
8C
330
7F
100
AcDbEntity
  8
중심선
100
AcDbLine
 10
5.714909304380834
 20
16.24717430164393
 30
0.0
 11
3.58671253028996
 21
13.71088815037384
 31
0.0
  0
LINE
  5
8D
330
7F
100
AcDbEntity
  8
중심선
100
AcDbLine
 10
2.268634060543552
 20
16.24717430164393
 30
0.0
 11
0.1404042013395286
 21
13.71084872107135
 31
0.0
  0
LINE
  5
8E
330
7F
100
AcDbEntity
  8
중심선
100
AcDbLine
 10
7.28139805157953
 20
16.24717430164393
 30
0.0
 11
10.72767329541681
 21
16.24717430164393
 31
0.0
  0
LINE
  5
8F
330
7F
100
AcDbEntity
  8
중심선
100
AcDbLine
 10
12.29416204261559
 20
16.24717430164393
 30
0.0
 11
15.74043728645272
 21
16.24717430164393
 31
0.0
  0
LINE
  5
90
330
7F
100
AcDbEntity
  8
중심선
100
AcDbLine
 10
19.22036997980202
 20
11.08717430171403
 30
0.0
 11
23.66174974927406
 21
11.08717430171406
 31
0.0
  0
LINE
  5
91
330
7F
100
AcDbEntity
  8
중심선
100
AcDbLine
 10
19.22039502424796
 20
13.00717430171391
 30
0.0
 11
19.22036997980202
 21
11.08717430171403
 31
0.0
  0
LINE
  5
92
330
7F
100
AcDbEntity
  8
중심선
100
AcDbLine
 10
19.22039502424796
 20
13.00717430171391
 30
0.0
 11
26.96566020931264
 21
13.00717430171391
 31
0.0
  0
LINE
  5
93
330
7F
100
AcDbEntity
  8
중심선
100
AcDbLine
 10
22.22332737316547
 20
13.45928029700563
 30
0.0
 11
24.52862924686651
 21
15.39360700705356
 31
0.0
  0
ATTDEF
  5
95
330
7F
100
AcDbEntity
  8
FORMAT
 62
     2
100
AcDbText
 10
4.408487351596664
 20
2.075366912832191
 30
0.0
 40
4.233333333333333
  1
E5073064
 41
0.75
  7
SLDTEXTSTYLE0
 11
4.408487351596664
 21
-0.0412997538344756
 31
0.0
100
AcDbAttributeDefinition
  3

  2
AUTOATTR0
 70
     0
 74
     1
  0
ENDBLK
  5
81
330
7F
100
AcDbEntity
  8
0
100
AcDbBlockEnd
  0
BLOCK
  5
DA
330
D9
100
AcDbEntity
  8
0
100
AcDbBlockBegin
  2
_D
 70
     0
 10
0.0
 20
0.0
 30
0.0
  3
_D
  1
_D
  0
LINE
  5
DC
330
D9
100
AcDbEntity
  8
치수문자_일반주서
 62
     0
370
    -2
100
AcDbLine
 10
-58.54750000000001
 20
12.67907168352001
 30
0.0
 11
-72.27874999999996
 21
12.67907168351995
 31
0.0
  0
LINE
  5
DD
330
D9
100
AcDbEntity
  8
치수문자_일반주서
 62
     0
370
    -2
100
AcDbLine
 10
-58.54750000000001
 20
-12.72092831647997
 30
0.0
 11
-72.27874999999987
 21
-12.72092831648003
 31
0.0
  0
LINE
  5
DE
330
D9
100
AcDbEntity
  8
치수문자_일반주서
 62
     0
370
    -2
100
AcDbLine
 10
-72.27874999999996
 20
12.67907168351995
 30
0.0
 11
-72.27875000000007
 21
44.92907168351996
 31
0.0
  0
LINE
  5
DF
330
D9
100
AcDbEntity
  8
치수문자_일반주서
 62
     0
370
    -2
100
AcDbLine
 10
-72.27874999999995
 20
8.67907168351995
 30
0.0
 11
-72.27874999999989
 21
-8.720928316480027
 31
0.0
  0
SOLID
  5
E0
330
D9
100
AcDbEntity
  8
치수문자_일반주서
 62
     0
100
AcDbTrace
 10
-71.61208333333327
 20
8.679071683519952
 30
0.0
 11
-72.94541666666662
 21
8.679071683519949
 31
0.0
 12
-72.27874999999996
 22
12.67907168351995
 32
0.0
 13
-72.27874999999996
 23
12.67907168351995
 33
0.0
  0
SOLID
  5
E1
330
D9
100
AcDbEntity
  8
치수문자_일반주서
 62
     0
100
AcDbTrace
 10
-72.94541666666656
 20
-8.720928316480029
 30
0.0
 11
-71.61208333333322
 21
-8.720928316480025
 31
0.0
 12
-72.27874999999987
 22
-12.72092831648003
 32
0.0
 13
-72.27874999999987
 23
-12.72092831648003
 33
0.0
  0
MTEXT
  5
E2
330
D9
100
AcDbEntity
  8
치수문자_일반주서
 62
     0
100
AcDbMText
 10
-77.15375000000003
 20
32.30407168351994
 30
0.0
 40
4.0
 41
0.0
 71
     2
 72
     1
  1
\A1;%%c25.40 [1]
  7
SLDTEXTSTYLE0
 11
-3.356894814614650E-15
 21
1.0
 31
0.0
 73
     1
 44
1.0
  0
POINT
  5
E3
330
D9
100
AcDbEntity
  8
Defpoints
 62
     0
100
AcDbPoint
 10
-58.48500000000001
 20
12.67907168352001
 30
0.0
  0
POINT
  5
E4
330
D9
100
AcDbEntity
  8
Defpoints
 62
     0
100
AcDbPoint
 10
-58.48500000000001
 20
-12.72092831647997
 30
0.0
  0
POINT
  5
2CA
330
D9
100
AcDbEntity
  8
Defpoints
 62
     0
100
AcDbPoint
 10
-72.27874999999987
 20
-12.72092831648002
 30
0.0
  0
ENDBLK
  5
DB
330
D9
100
AcDbEntity
  8
0
100
AcDbBlockEnd
  0
BLOCK
  5
EF
330
EE
100
AcDbEntity
  8
0
100
AcDbBlockBegin
  2
_D_1
 70
     0
 10
0.0
 20
0.0
 30
0.0
  3
_D_1
  1
_D_1
  0
LINE
  5
F1
330
EE
100
AcDbEntity
  8
치수문자_일반주서
 62
     0
370
    -2
100
AcDbLine
 10
116.8375
 20
12.67907168352002
 30
0.0
 11
142.8848716828625
 21
12.67907168352011
 31
0.0
  0
LINE
  5
F2
330
EE
100
AcDbEntity
  8
치수문자_일반주서
 62
     0
370
    -2
100
AcDbLine
 10
116.8375
 20
-12.72092831647998
 30
0.0
 11
142.8848716828626
 21
-12.72092831647988
 31
0.0
  0
LINE
  5
F3
330
EE
100
AcDbEntity
  8
치수문자_일반주서
 62
     0
370
    -2
100
AcDbLine
 10
142.8848716828625
 20
12.67907168352011
 30
0.0
 11
142.8848716828624
 21
45.92907168352005
 31
0.0
  0
LINE
  5
F4
330
EE
100
AcDbEntity
  8
치수문자_일반주서
 62
     0
370
    -2
100
AcDbLine
 10
142.8848716828625
 20
8.679071683520114
 30
0.0
 11
142.8848716828626
 21
-8.720928316479885
 31
0.0
  0
SOLID
  5
F5
330
EE
100
AcDbEntity
  8
치수문자_일반주서
 62
     0
100
AcDbTrace
 10
143.5515383495291
 20
8.679071683520116
 30
0.0
 11
142.2182050161958
 21
8.679071683520112
 31
0.0
 12
142.8848716828625
 22
12.67907168352011
 32
0.0
 13
142.8848716828625
 23
12.67907168352011
 33
0.0
  0
SOLID
  5
F6
330
EE
100
AcDbEntity
  8
치수문자_일반주서
 62
     0
100
AcDbTrace
 10
142.2182050161959
 20
-8.720928316479887
 30
0.0
 11
143.5515383495292
 21
-8.720928316479883
 31
0.0
 12
142.8848716828626
 22
-12.72092831647988
 32
0.0
 13
142.8848716828626
 23
-12.72092831647988
 33
0.0
  0
MTEXT
  5
F7
330
EE
100
AcDbEntity
  8
치수문자_일반주서
 62
     0
100
AcDbMText
 10
138.0098716828624
 20
33.30407168352004
 30
0.0
 40
4.0
 41
0.0
 71
     2
 72
     1
  1
\A1;%%c25.40 [1]
  7
SLDTEXTSTYLE0
 11
-3.356894814614647E-15
 21
1.0
 31
0.0
 73
     1
 44
1.0
  0
POINT
  5
F8
330
EE
100
AcDbEntity
  8
Defpoints
 62
     0
100
AcDbPoint
 10
116.775
 20
12.67907168352002
 30
0.0
  0
POINT
  5
F9
330
EE
100
AcDbEntity
  8
Defpoints
 62
     0
100
AcDbPoint
 10
116.775
 20
-12.72092831647998
 30
0.0
  0
POINT
  5
FA
330
EE
100
AcDbEntity
  8
Defpoints
 62
     0
100
AcDbPoint
 10
142.8848716828626
 20
-12.72092831647988
 30
0.0
  0
ENDBLK
  5
F0
330
EE
100
AcDbEntity
  8
0
100
AcDbBlockEnd
  0
BLOCK
  5
102
330
101
100
AcDbEntity
  8
0
100
AcDbBlockBegin
  2
_D_2
 70
     0
 10
0.0
 20
0.0
 30
0.0
  3
_D_2
  1
_D_2
  0
LINE
  5
104
330
101
100
AcDbEntity
  8
치수문자_일반주서
 62
     0
370
    -2
100
AcDbLine
 10
116.775
 20
12.64889408000511
 30
0.0
 11
116.775
 21
23.28684290496399
 31
0.0
  0
LINE
  5
105
330
101
100
AcDbEntity
  8
치수문자_일반주서
 62
     0
370
    -2
100
AcDbLine
 10
12.00000000000001
 20
12.74157168352002
 30
0.0
 11
12.00000000000001
 21
23.28684290496399
 31
0.0
  0
LINE
  5
106
330
101
100
AcDbEntity
  8
치수문자_일반주서
 62
     0
370
    -2
100
AcDbLine
 10
112.775
 20
23.28684290496399
 30
0.0
 11
16.00000000000001
 21
23.28684290496399
 31
0.0
  0
SOLID
  5
107
330
101
100
AcDbEntity
  8
치수문자_일반주서
 62
     0
100
AcDbTrace
 10
112.775
 20
22.62017623829732
 30
0.0
 11
112.775
 21
23.95350957163066
 31
0.0
 12
116.775
 22
23.28684290496399
 32
0.0
 13
116.775
 23
23.28684290496399
 33
0.0
  0
SOLID
  5
108
330
101
100
AcDbEntity
  8
치수문자_일반주서
 62
     0
100
AcDbTrace
 10
16.00000000000001
 20
23.95350957163066
 30
0.0
 11
16.00000000000001
 21
22.62017623829732
 31
0.0
 12
12.00000000000001
 22
23.28684290496399
 32
0.0
 13
12.00000000000001
 23
23.28684290496399
 33
0.0
  0
MTEXT
  5
109
330
101
100
AcDbEntity
  8
치수문자_일반주서
 62
     0
100
AcDbMText
 10
64.38750000000005
 20
28.16184290496399
 30
0.0
 40
4.0
 41
0.0
 71
     2
 72
     1
  1
\A1;104.78 [4 1/8]
  7
SLDTEXTSTYLE0
 73
     1
 44
1.0
  0
POINT
  5
10A
330
101
100
AcDbEntity
  8
Defpoints
 62
     0
100
AcDbPoint
 10
116.775
 20
12.58639408000511
 30
0.0
  0
POINT
  5
10B
330
101
100
AcDbEntity
  8
Defpoints
 62
     0
100
AcDbPoint
 10
12.00000000000001
 20
12.67907168352002
 30
0.0
  0
POINT
  5
10C
330
101
100
AcDbEntity
  8
Defpoints
 62
     0
100
AcDbPoint
 10
12.00000000000001
 20
23.28684290496399
 30
0.0
  0
ENDBLK
  5
103
330
101
100
AcDbEntity
  8
0
100
AcDbBlockEnd
  0
BLOCK
  5
116
330
115
100
AcDbEntity
  8
0
100
AcDbBlockBegin
  2
_D_3
 70
     0
 10
0.0
 20
0.0
 30
0.0
  3
_D_3
  1
_D_3
  0
LINE
  5
118
330
115
100
AcDbEntity
  8
치수문자_일반주서
 62
     0
370
    -2
100
AcDbLine
 10
116.775
 20
12.64889408000511
 30
0.0
 11
116.775
 21
35.28684290496405
 31
0.0
  0
LINE
  5
119
330
115
100
AcDbEntity
  8
치수문자_일반주서
 62
     0
370
    -2
100
AcDbLine
 10
-61.02499999999999
 20
10.20157168352002
 30
0.0
 11
-61.02499999999999
 21
35.28684290496405
 31
0.0
  0
LINE
  5
11A
330
115
100
AcDbEntity
  8
치수문자_일반주서
 62
     0
370
    -2
100
AcDbLine
 10
112.775
 20
35.28684290496405
 30
0.0
 11
-57.02499999999999
 21
35.28684290496405
 31
0.0
  0
SOLID
  5
11B
330
115
100
AcDbEntity
  8
치수문자_일반주서
 62
     0
100
AcDbTrace
 10
112.775
 20
34.62017623829739
 30
0.0
 11
112.775
 21
35.95350957163072
 31
0.0
 12
116.775
 22
35.28684290496405
 32
0.0
 13
116.775
 23
35.28684290496405
 33
0.0
  0
SOLID
  5
11C
330
115
100
AcDbEntity
  8
치수문자_일반주서
 62
     0
100
AcDbTrace
 10
-57.02499999999999
 20
35.95350957163072
 30
0.0
 11
-57.02499999999999
 21
34.62017623829739
 31
0.0
 12
-61.02499999999999
 22
35.28684290496405
 32
0.0
 13
-61.02499999999999
 23
35.28684290496405
 33
0.0
  0
MTEXT
  5
11D
330
115
100
AcDbEntity
  8
치수문자_일반주서
 62
     0
100
AcDbMText
 10
26.28123343661277
 20
40.16184290496405
 30
0.0
 40
4.0
 41
0.0
 71
     2
 72
     1
  1
\A1;177.80 [7]
  7
SLDTEXTSTYLE0
 73
     1
 44
1.0
  0
POINT
  5
11E
330
115
100
AcDbEntity
  8
Defpoints
 62
     0
100
AcDbPoint
 10
116.775
 20
12.58639408000511
 30
0.0
  0
POINT
  5
11F
330
115
100
AcDbEntity
  8
Defpoints
 62
     0
100
AcDbPoint
 10
-61.02499999999999
 20
10.13907168352002
 30
0.0
  0
POINT
  5
120
330
115
100
AcDbEntity
  8
Defpoints
 62
     0
100
AcDbPoint
 10
-61.02499999999999
 20
35.28684290496405
 30
0.0
  0
ENDBLK
  5
117
330
115
100
AcDbEntity
  8
0
100
AcDbBlockEnd
  0
BLOCK
  5
12F
330
12E
100
AcDbEntity
  8
0
100
AcDbBlockBegin
  2
SW_DOWELSYMBOL_0
 70
     0
 10
0.0
 20
0.0
 30
0.0
  3
SW_DOWELSYMBOL_0
  1
SW_DOWELSYMBOL_0
  0
CIRCLE
  5
131
330
12E
100
AcDbEntity
  8
해칭선
 62
     0
100
AcDbCircle
 10
0.0
 20
0.0
 30
0.0
 40
3.000000000000004
  0
HATCH
  5
132
330
12E
100
AcDbEntity
  8
0
  6
Continuous
 62
     0
370
     0
100
AcDbHatch
 10
0.0
 20
0.0
 30
0.0
210
0.0
220
0.0
230
1.0
  2
SOLID
 70
     1
 71
     0
 91
        1
 92
        0
 93
        3
 72
     2
 10
0.0
 20
0.0
 40
3.000000000000004
 50
0.0
 51
90.0
 73
     1
 72
     1
 10
0.0
 20
3.000000000000004
 11
0.0
 21
0.0
 72
     1
 10
0.0
 20
0.0
 11
3.000000000000004
 21
0.0
 97
        0
 75
     0
 76
     1
 98
        1
 10
0.0
 20
0.0
  0
HATCH
  5
133
330
12E
100
AcDbEntity
  8
0
  6
Continuous
 62
     0
370
     0
100
AcDbHatch
 10
0.0
 20
0.0
 30
0.0
210
0.0
220
0.0
230
1.0
  2
SOLID
 70
     1
 71
     0
 91
        1
 92
        0
 93
        3
 72
     2
 10
0.0
 20
0.0
 40
3.000000000000004
 50
180.0
 51
270.0000000000008
 73
     1
 72
     1
 10
0.0
 20
-3.000000000000004
 11
0.0
 21
0.0
 72
     1
 10
0.0
 20
0.0
 11
-3.000000000000006
 21
0.0
 97
        0
 75
     0
 76
     1
 98
        1
 10
0.0
 20
0.0
  0
ENDBLK
  5
130
330
12E
100
AcDbEntity
  8
0
100
AcDbBlockEnd
  0
BLOCK
  5
1FA
330
1F9
100
AcDbEntity
  8
0
100
AcDbBlockBegin
  2
*D8
 70
     1
 10
0.0
 20
0.0
 30
0.0
  3
*D8
  1
*D19
  0
LINE
  5
1FB
330
1F9
100
AcDbEntity
  8
치수문자_일반주서
 62
     0
370
    -2
100
AcDbLine
 10
122.2075719207232
 20
21.09418497419865
 30
0.0
 11
147.6180318575932
 21
-9.6328211867206
 31
0.0
  0
MTEXT
  5
1FC
330
1F9
100
AcDbEntity
  8
치수문자_일반주서
 62
     0
100
AcDbMText
 10
140.03527720752
 20
4.047751970745924
 30
0.0
 40
4.0
 41
0.0
 71
     5
 72
     1
  1
\A1;R1.00 [R0.04]
  7
SLDTEXTSTYLE0
 11
0.6372880340174896
 21
-0.7706256949376417
 31
0.0
 73
     1
 44
1.0
  0
SOLID
  5
1FD
330
1F9
100
AcDbEntity
  8
치수문자_일반주서
 62
     0
100
AcDbTrace
 10
122.7213223840149
 20
21.51904366354364
 30
0.0
 11
121.6938214574314
 21
20.66932628485365
 31
0.0
 12
119.6584197846532
 22
24.17668775394921
 32
0.0
 13
119.6584197846532
 23
24.17668775394921
 33
0.0
  0
LINE
  5
1FE
330
1F9
100
AcDbEntity
  8
치수문자_일반주서
 62
     0
100
AcDbLine
 10
118.9311317506357
 20
24.94731344888685
 30
0.0
 11
119.1111317506357
 21
24.94731344888685
 31
0.0
  0
LINE
  5
1FF
330
1F9
100
AcDbEntity
  8
치수문자_일반주서
 62
     0
100
AcDbLine
 10
119.0211317506357
 20
24.85731344888685
 30
0.0
 11
119.0211317506357
 21
25.03731344888685
 31
0.0
  0
POINT
  5
200
330
1F9
100
AcDbEntity
  8
Defpoints
 62
     0
100
AcDbPoint
 10
119.6584197846532
 20
24.17668775394921
 30
0.0
  0
POINT
  5
23C
330
1F9
100
AcDbEntity
  8
Defpoints
 62
     0
100
AcDbPoint
 10
119.0211317506357
 20
24.94731344888685
 30
0.0
  0
ENDBLK
  5
201
330
1F9
100
AcDbEntity
  8
0
100
AcDbBlockEnd
  0
BLOCK
  5
205
330
204
100
AcDbEntity
  8
0
100
AcDbBlockBegin
  2
*D9
 70
     1
 10
0.0
 20
0.0
 30
0.0
  3
*D9
  1
*D20
  0
LINE
  5
206
330
204
100
AcDbEntity
  8
치수문자_일반주서
 62
     0
370
    -2
100
AcDbLine
 10
120.0836317506357
 20
43.94731344888685
 30
0.0
 11
136.2577258430566
 21
43.94731344888685
 31
0.0
  0
LINE
  5
207
330
204
100
AcDbEntity
  8
치수문자_일반주서
 62
     0
370
    -2
100
AcDbLine
 10
120.0836317506357
 20
23.94731344888685
 30
0.0
 11
136.2577258430566
 21
23.94731344888685
 31
0.0
  0
LINE
  5
208
330
204
100
AcDbEntity
  8
치수문자_일반주서
 62
     0
370
    -2
100
AcDbLine
 10
136.2577258430566
 20
43.94731344888685
 30
0.0
 11
136.2577258430566
 21
23.94731344888685
 31
0.0
  0
LINE
  5
209
330
204
100
AcDbEntity
  8
치수문자_일반주서
 62
     0
370
    -2
100
AcDbLine
 10
136.2577258430566
 20
47.94731344888685
 30
0.0
 11
136.2577258430566
 21
51.94731344888685
 31
0.0
  0
LINE
  5
20A
330
204
100
AcDbEntity
  8
치수문자_일반주서
 62
     0
370
    -2
100
AcDbLine
 10
136.2577258430566
 20
19.94731344888685
 30
0.0
 11
136.2577258430566
 21
15.94731344888685
 31
0.0
  0
SOLID
  5
20B
330
204
100
AcDbEntity
  8
치수문자_일반주서
 62
     0
100
AcDbTrace
 10
135.59105917639
 20
47.94731344888685
 30
0.0
 11
136.9243925097233
 21
47.94731344888685
 31
0.0
 12
136.2577258430566
 22
43.94731344888685
 32
0.0
 13
136.2577258430566
 23
43.94731344888685
 33
0.0
  0
SOLID
  5
20C
330
204
100
AcDbEntity
  8
치수문자_일반주서
 62
     0
100
AcDbTrace
 10
136.9243925097233
 20
19.94731344888685
 30
0.0
 11
135.59105917639
 21
19.94731344888685
 31
0.0
 12
136.2577258430566
 22
23.94731344888685
 32
0.0
 13
136.2577258430566
 23
23.94731344888685
 33
0.0
  0
MTEXT
  5
20D
330
204
100
AcDbEntity
  8
치수문자_일반주서
 62
     0
100
AcDbMText
 10
133.3827258430566
 20
33.94731344888685
 30
0.0
 40
4.0
 41
0.0
 71
     5
 72
     1
  1
\A1;{%%c20.00}
  7
SLDTEXTSTYLE0
 11
0.0
 21
1.0
 31
0.0
 73
     1
 44
1.0
  0
POINT
  5
20E
330
204
100
AcDbEntity
  8
Defpoints
 62
     0
100
AcDbPoint
 10
120.0211317506357
 20
43.94731344888685
 30
0.0
  0
POINT
  5
20F
330
204
100
AcDbEntity
  8
Defpoints
 62
     0
100
AcDbPoint
 10
120.0211317506357
 20
23.94731344888685
 30
0.0
  0
POINT
  5
210
330
204
100
AcDbEntity
  8
Defpoints
 62
     0
100
AcDbPoint
 10
136.2577258430566
 20
23.94731344888685
 30
0.0
  0
ENDBLK
  5
211
330
204
100
AcDbEntity
  8
0
100
AcDbBlockEnd
  0
BLOCK
  5
217
330
216
100
AcDbEntity
  8
0
100
AcDbBlockBegin
  2
*D10
 70
     1
 10
0.0
 20
0.0
 30
0.0
  3
*D10
  1
*D10
  0
LINE
  5
219
330
216
100
AcDbEntity
  8
치수문자_일반주서
 62
     0
370
    -2
100
AcDbLine
 10
16.02113175063572
 20
43.50981344888685
 30
0.0
 11
16.02113175063573
 21
78.60979761696561
 31
0.0
  0
LINE
  5
21A
330
216
100
AcDbEntity
  8
치수문자_일반주서
 62
     0
370
    -2
100
AcDbLine
 10
120.0211317506357
 20
44.00981344888685
 30
0.0
 11
120.0211317506357
 21
78.60979761696561
 31
0.0
  0
LINE
  5
21B
330
216
100
AcDbEntity
  8
치수문자_일반주서
 62
     0
370
    -2
100
AcDbLine
 10
20.02113175063573
 20
78.60979761696561
 30
0.0
 11
116.0211317506357
 21
78.60979761696561
 31
0.0
  0
SOLID
  5
21C
330
216
100
AcDbEntity
  8
치수문자_일반주서
 62
     0
100
AcDbTrace
 10
20.02113175063573
 20
79.27646428363228
 30
0.0
 11
20.02113175063573
 21
77.94313095029894
 31
0.0
 12
16.02113175063573
 22
78.60979761696561
 32
0.0
 13
16.02113175063573
 23
78.60979761696561
 33
0.0
  0
SOLID
  5
21D
330
216
100
AcDbEntity
  8
치수문자_일반주서
 62
     0
100
AcDbTrace
 10
116.0211317506357
 20
77.94313095029894
 30
0.0
 11
116.0211317506357
 21
79.27646428363228
 31
0.0
 12
120.0211317506357
 22
78.60979761696561
 32
0.0
 13
120.0211317506357
 23
78.60979761696561
 33
0.0
  0
MTEXT
  5
21E
330
216
100
AcDbEntity
  8
치수문자_일반주서
 62
     0
100
AcDbMText
 10
68.02113175063575
 20
83.48479761696561
 30
0.0
 40
4.0
 41
0.0
 71
     2
 72
     1
  1
\A1;104.00 [4.09]
  7
SLDTEXTSTYLE0
 73
     1
 44
1.0
  0
POINT
  5
21F
330
216
100
AcDbEntity
  8
Defpoints
 62
     0
100
AcDbPoint
 10
16.02113175063572
 20
43.44731344888685
 30
0.0
  0
POINT
  5
220
330
216
100
AcDbEntity
  8
Defpoints
 62
     0
100
AcDbPoint
 10
120.0211317506357
 20
43.94731344888685
 30
0.0
  0
POINT
  5
221
330
216
100
AcDbEntity
  8
Defpoints
 62
     0
100
AcDbPoint
 10
120.0211317506357
 20
78.60979761696561
 30
0.0
  0
ENDBLK
  5
218
330
216
100
AcDbEntity
  8
0
100
AcDbBlockEnd
  0
BLOCK
  5
223
330
222
100
AcDbEntity
  8
0
100
AcDbBlockBegin
  2
*D11
 70
     1
 10
0.0
 20
0.0
 30
0.0
  3
*D11
  1
*D11
  0
LINE
  5
225
330
222
100
AcDbEntity
  8
치수문자_일반주서
 62
     0
370
    -2
100
AcDbLine
 10
82.02101279996386
 20
33.65694216895067
 30
0.0
 11
82.02101279996386
 21
65.23491305159995
 31
0.0
  0
LINE
  5
226
330
222
100
AcDbEntity
  8
치수문자_일반주서
 62
     0
370
    -2
100
AcDbLine
 10
120.0211317506357
 20
44.07231344888685
 30
0.0
 11
120.0211317506357
 21
65.23491305159995
 31
0.0
  0
LINE
  5
227
330
222
100
AcDbEntity
  8
치수문자_일반주서
 62
     0
370
    -2
100
AcDbLine
 10
86.02101279996386
 20
65.23491305159995
 30
0.0
 11
116.0211317506357
 21
65.23491305159995
 31
0.0
  0
SOLID
  5
228
330
222
100
AcDbEntity
  8
치수문자_일반주서
 62
     0
100
AcDbTrace
 10
86.02101279996386
 20
65.90157971826662
 30
0.0
 11
86.02101279996386
 21
64.56824638493327
 31
0.0
 12
82.02101279996386
 22
65.23491305159995
 32
0.0
 13
82.02101279996386
 23
65.23491305159995
 33
0.0
  0
SOLID
  5
229
330
222
100
AcDbEntity
  8
치수문자_일반주서
 62
     0
100
AcDbTrace
 10
116.0211317506357
 20
64.56824638493327
 30
0.0
 11
116.0211317506357
 21
65.90157971826662
 31
0.0
 12
120.0211317506357
 22
65.23491305159995
 32
0.0
 13
120.0211317506357
 23
65.23491305159995
 33
0.0
  0
MTEXT
  5
22A
330
222
100
AcDbEntity
  8
치수문자_일반주서
 62
     0
100
AcDbMText
 10
101.0891571575877
 20
70.10991305159995
 30
0.0
 40
4.0
 41
0.0
 71
     2
 72
     1
  1
\A1;38.00 [1.50]
  7
SLDTEXTSTYLE0
 73
     1
 44
1.0
  0
POINT
  5
22B
330
222
100
AcDbEntity
  8
Defpoints
 62
     0
100
AcDbPoint
 10
82.02101279996386
 20
33.59444216895067
 30
0.0
  0
POINT
  5
22C
330
222
100
AcDbEntity
  8
Defpoints
 62
     0
100
AcDbPoint
 10
120.0211317506357
 20
44.00981344888685
 30
0.0
  0
POINT
  5
22D
330
222
100
AcDbEntity
  8
Defpoints
 62
     0
100
AcDbPoint
 10
120.0211317506357
 20
65.23491305159995
 30
0.0
  0
ENDBLK
  5
224
330
222
100
AcDbEntity
  8
0
100
AcDbBlockEnd
  0
BLOCK
  5
22F
330
22E
100
AcDbEntity
  8
0
100
AcDbBlockBegin
  2
*D12
 70
     1
 10
0.0
 20
0.0
 30
0.0
  3
*D12
  1
*D12
  0
LINE
  5
231
330
22E
100
AcDbEntity
  8
치수문자_일반주서
 62
     0
370
    -2
100
AcDbLine
 10
16.45863175063572
 20
43.94731344888685
 30
0.0
 11
4.87499999999998
 21
43.94731344888681
 31
0.0
  0
LINE
  5
232
330
22E
100
AcDbEntity
  8
치수문자_일반주서
 62
     0
370
    -2
100
AcDbLine
 10
16.45863175063572
 20
23.94731344888685
 30
0.0
 11
4.87500000000005
 21
23.94731344888681
 31
0.0
  0
LINE
  5
233
330
22E
100
AcDbEntity
  8
치수문자_일반주서
 62
     0
370
    -2
100
AcDbLine
 10
4.87499999999998
 20
43.94731344888681
 30
0.0
 11
4.87500000000005
 21
23.94731344888681
 31
0.0
  0
LINE
  5
234
330
22E
100
AcDbEntity
  8
치수문자_일반주서
 62
     0
370
    -2
100
AcDbLine
 10
4.874999999999965
 20
47.94731344888681
 30
0.0
 11
4.874999999999951
 21
51.94731344888681
 31
0.0
  0
LINE
  5
235
330
22E
100
AcDbEntity
  8
치수문자_일반주서
 62
     0
370
    -2
100
AcDbLine
 10
4.875000000000064
 20
19.94731344888681
 30
0.0
 11
4.875000000000078
 21
15.94731344888681
 31
0.0
  0
SOLID
  5
236
330
22E
100
AcDbEntity
  8
치수문자_일반주서
 62
     0
100
AcDbTrace
 10
4.208333333333298
 20
47.94731344888681
 30
0.0
 11
5.541666666666632
 21
47.94731344888681
 31
0.0
 12
4.87499999999998
 22
43.94731344888681
 32
0.0
 13
4.87499999999998
 23
43.94731344888681
 33
0.0
  0
SOLID
  5
237
330
22E
100
AcDbEntity
  8
치수문자_일반주서
 62
     0
100
AcDbTrace
 10
5.541666666666731
 20
19.94731344888681
 30
0.0
 11
4.208333333333397
 21
19.94731344888681
 31
0.0
 12
4.87500000000005
 22
23.94731344888681
 32
0.0
 13
4.87500000000005
 23
23.94731344888681
 33
0.0
  0
MTEXT
  5
238
330
22E
100
AcDbEntity
  8
치수문자_일반주서
 62
     0
100
AcDbMText
 10
0.0000000000000142
 20
33.94731344888684
 30
0.0
 40
4.0
 41
0.0
 71
     2
 72
     1
  1
\A1;%%c20.00 [0.79]
  7
SLDTEXTSTYLE0
 11
-3.508304757815495E-15
 21
1.0
 31
0.0
 73
     1
 44
1.0
  0
POINT
  5
239
330
22E
100
AcDbEntity
  8
Defpoints
 62
     0
100
AcDbPoint
 10
16.52113175063572
 20
43.94731344888685
 30
0.0
  0
POINT
  5
23A
330
22E
100
AcDbEntity
  8
Defpoints
 62
     0
100
AcDbPoint
 10
16.52113175063572
 20
23.94731344888685
 30
0.0
  0
POINT
  5
23B
330
22E
100
AcDbEntity
  8
Defpoints
 62
     0
100
AcDbPoint
 10
4.875000000000057
 20
23.94731344888681
 30
0.0
  0
ENDBLK
  5
230
330
22E
100
AcDbEntity
  8
0
100
AcDbBlockEnd
  0
BLOCK
  5
28A
330
289
100
AcDbEntity
  8
0
100
AcDbBlockBegin
  2
*D13
 70
     1
 10
0.0
 20
0.0
 30
0.0
  3
*D13
  1
*D13
  0
LINE
  5
28C
330
289
100
AcDbEntity
  8
치수문자_일반주서
 62
     0
370
    -2
100
AcDbLine
 10
-47.56681303131906
 20
105.43232829901
 30
0.0
 11
-47.56681303131906
 21
140.5323124670888
 31
0.0
  0
LINE
  5
28D
330
289
100
AcDbEntity
  8
치수문자_일반주서
 62
     0
370
    -2
100
AcDbLine
 10
56.43318696868094
 20
105.9323282990101
 30
0.0
 11
56.43318696868095
 21
140.5323124670888
 31
0.0
  0
LINE
  5
28E
330
289
100
AcDbEntity
  8
치수문자_일반주서
 62
     0
370
    -2
100
AcDbLine
 10
-43.56681303131906
 20
140.5323124670888
 30
0.0
 11
52.43318696868095
 21
140.5323124670888
 31
0.0
  0
SOLID
  5
28F
330
289
100
AcDbEntity
  8
치수문자_일반주서
 62
     0
100
AcDbTrace
 10
-43.56681303131906
 20
141.1989791337555
 30
0.0
 11
-43.56681303131906
 21
139.8656458004222
 31
0.0
 12
-47.56681303131906
 22
140.5323124670888
 32
0.0
 13
-47.56681303131906
 23
140.5323124670888
 33
0.0
  0
SOLID
  5
290
330
289
100
AcDbEntity
  8
치수문자_일반주서
 62
     0
100
AcDbTrace
 10
52.43318696868095
 20
139.8656458004222
 30
0.0
 11
52.43318696868095
 21
141.1989791337555
 31
0.0
 12
56.43318696868095
 22
140.5323124670888
 32
0.0
 13
56.43318696868095
 23
140.5323124670888
 33
0.0
  0
MTEXT
  5
291
330
289
100
AcDbEntity
  8
치수문자_일반주서
 62
     0
100
AcDbMText
 10
4.433186968680957
 20
145.4073124670888
 30
0.0
 40
4.0
 41
0.0
 71
     2
 72
     1
  1
\A1;104.00 [4.09]
  7
SLDTEXTSTYLE0
 73
     1
 44
1.0
  0
POINT
  5
292
330
289
100
AcDbEntity
  8
Defpoints
 62
     0
100
AcDbPoint
 10
-47.56681303131906
 20
105.36982829901
 30
0.0
  0
POINT
  5
293
330
289
100
AcDbEntity
  8
Defpoints
 62
     0
100
AcDbPoint
 10
56.43318696868094
 20
105.8698282990101
 30
0.0
  0
POINT
  5
294
330
289
100
AcDbEntity
  8
Defpoints
 62
     0
100
AcDbPoint
 10
56.43318696868094
 20
140.5323124670888
 30
0.0
  0
ENDBLK
  5
28B
330
289
100
AcDbEntity
  8
0
100
AcDbBlockEnd
  0
BLOCK
  5
296
330
295
100
AcDbEntity
  8
0
100
AcDbBlockBegin
  2
*D14
 70
     1
 10
0.0
 20
0.0
 30
0.0
  3
*D14
  1
*D14
  0
LINE
  5
298
330
295
100
AcDbEntity
  8
치수문자_일반주서
 62
     0
370
    -2
100
AcDbLine
 10
18.43306801800907
 20
95.57945701907387
 30
0.0
 11
18.43306801800907
 21
127.1574279017231
 31
0.0
  0
LINE
  5
299
330
295
100
AcDbEntity
  8
치수문자_일반주서
 62
     0
370
    -2
100
AcDbLine
 10
56.43318696868094
 20
105.9948282990101
 30
0.0
 11
56.43318696868094
 21
127.1574279017231
 31
0.0
  0
LINE
  5
29A
330
295
100
AcDbEntity
  8
치수문자_일반주서
 62
     0
370
    -2
100
AcDbLine
 10
22.43306801800907
 20
127.1574279017231
 30
0.0
 11
52.43318696868094
 21
127.1574279017231
 31
0.0
  0
SOLID
  5
29B
330
295
100
AcDbEntity
  8
치수문자_일반주서
 62
     0
100
AcDbTrace
 10
22.43306801800907
 20
127.8240945683898
 30
0.0
 11
22.43306801800907
 21
126.4907612350565
 31
0.0
 12
18.43306801800907
 22
127.1574279017231
 32
0.0
 13
18.43306801800907
 23
127.1574279017231
 33
0.0
  0
SOLID
  5
29C
330
295
100
AcDbEntity
  8
치수문자_일반주서
 62
     0
100
AcDbTrace
 10
52.43318696868094
 20
126.4907612350565
 30
0.0
 11
52.43318696868094
 21
127.8240945683898
 31
0.0
 12
56.43318696868094
 22
127.1574279017231
 32
0.0
 13
56.43318696868094
 23
127.1574279017231
 33
0.0
  0
MTEXT
  5
29D
330
295
100
AcDbEntity
  8
치수문자_일반주서
 62
     0
100
AcDbMText
 10
37.50121237563293
 20
132.0324279017231
 30
0.0
 40
4.0
 41
0.0
 71
     2
 72
     1
  1
\A1;38.00 [1.50]
  7
SLDTEXTSTYLE0
 73
     1
 44
1.0
  0
POINT
  5
29E
330
295
100
AcDbEntity
  8
Defpoints
 62
     0
100
AcDbPoint
 10
18.43306801800907
 20
95.51695701907387
 30
0.0
  0
POINT
  5
29F
330
295
100
AcDbEntity
  8
Defpoints
 62
     0
100
AcDbPoint
 10
56.43318696868094
 20
105.9323282990101
 30
0.0
  0
POINT
  5
2A0
330
295
100
AcDbEntity
  8
Defpoints
 62
     0
100
AcDbPoint
 10
56.43318696868094
 20
127.1574279017231
 30
0.0
  0
ENDBLK
  5
297
330
295
100
AcDbEntity
  8
0
100
AcDbBlockEnd
  0
BLOCK
  5
2A2
330
2A1
100
AcDbEntity
  8
0
100
AcDbBlockBegin
  2
*D15
 70
     1
 10
0.0
 20
0.0
 30
0.0
  3
*D15
  1
*D15
  0
LINE
  5
2A4
330
2A1
100
AcDbEntity
  8
치수문자_일반주서
 62
     0
370
    -2
100
AcDbLine
 10
-47.12931303131906
 20
105.8698282990101
 30
0.0
 11
-58.71294478195481
 21
105.86982829901
 31
0.0
  0
LINE
  5
2A5
330
2A1
100
AcDbEntity
  8
치수문자_일반주서
 62
     0
370
    -2
100
AcDbLine
 10
-47.12931303131906
 20
85.86982829901005
 30
0.0
 11
-58.71294478195474
 21
85.86982829901001
 31
0.0
  0
LINE
  5
2A6
330
2A1
100
AcDbEntity
  8
치수문자_일반주서
 62
     0
370
    -2
100
AcDbLine
 10
-58.71294478195481
 20
105.86982829901
 30
0.0
 11
-58.71294478195474
 21
85.86982829901001
 31
0.0
  0
LINE
  5
2A7
330
2A1
100
AcDbEntity
  8
치수문자_일반주서
 62
     0
370
    -2
100
AcDbLine
 10
-58.71294478195482
 20
109.86982829901
 30
0.0
 11
-58.71294478195484
 21
113.86982829901
 31
0.0
  0
LINE
  5
2A8
330
2A1
100
AcDbEntity
  8
치수문자_일반주서
 62
     0
370
    -2
100
AcDbLine
 10
-58.71294478195473
 20
81.86982829901001
 30
0.0
 11
-58.71294478195471
 21
77.86982829901001
 31
0.0
  0
SOLID
  5
2A9
330
2A1
100
AcDbEntity
  8
치수문자_일반주서
 62
     0
100
AcDbTrace
 10
-59.37961144862149
 20
109.86982829901
 30
0.0
 11
-58.04627811528816
 21
109.86982829901
 31
0.0
 12
-58.71294478195481
 22
105.86982829901
 32
0.0
 13
-58.71294478195481
 23
105.86982829901
 33
0.0
  0
SOLID
  5
2AA
330
2A1
100
AcDbEntity
  8
치수문자_일반주서
 62
     0
100
AcDbTrace
 10
-58.04627811528806
 20
81.86982829901001
 30
0.0
 11
-59.37961144862139
 21
81.86982829901001
 31
0.0
 12
-58.71294478195474
 22
85.86982829901001
 32
0.0
 13
-58.71294478195474
 23
85.86982829901001
 33
0.0
  0
MTEXT
  5
2AB
330
2A1
100
AcDbEntity
  8
치수문자_일반주서
 62
     0
100
AcDbMText
 10
-63.58794478195477
 20
95.86982829901004
 30
0.0
 40
4.0
 41
0.0
 71
     2
 72
     1
  1
\A1;%%c20.00 [0.79]
  7
SLDTEXTSTYLE0
 11
-3.552713678800501E-15
 21
1.0
 31
0.0
 73
     1
 44
1.0
  0
POINT
  5
2AC
330
2A1
100
AcDbEntity
  8
Defpoints
 62
     0
100
AcDbPoint
 10
-47.06681303131906
 20
105.8698282990101
 30
0.0
  0
POINT
  5
2AD
330
2A1
100
AcDbEntity
  8
Defpoints
 62
     0
100
AcDbPoint
 10
-47.06681303131906
 20
85.86982829901005
 30
0.0
  0
POINT
  5
2AE
330
2A1
100
AcDbEntity
  8
Defpoints
 62
     0
100
AcDbPoint
 10
-58.71294478195474
 20
85.86982829901001
 30
0.0
  0
ENDBLK
  5
2A3
330
2A1
100
AcDbEntity
  8
0
100
AcDbBlockEnd
  0
BLOCK
  5
2B0
330
2AF
100
AcDbEntity
  8
0
100
AcDbBlockBegin
  2
*D16
 70
     1
 10
0.0
 20
0.0
 30
0.0
  3
*D16
  1
*D16
  0
LINE
  5
2B2
330
2AF
100
AcDbEntity
  8
치수문자_일반주서
 62
     0
370
    -2
100
AcDbLine
 10
58.61962713876839
 20
83.01669982432186
 30
0.0
 11
84.03008707563843
 21
52.28969366340267
 31
0.0
  0
MTEXT
  5
2B3
330
2AF
100
AcDbEntity
  8
치수문자_일반주서
 62
     0
100
AcDbMText
 10
76.44733242556522
 20
65.97026682086917
 30
0.0
 40
4.0
 41
0.0
 71
     5
 72
     1
  1
\A1;R1.00 [R0.04]
  7
SLDTEXTSTYLE0
 11
0.6372880340174913
 21
-0.7706256949376402
 31
0.0
 73
     1
 44
1.0
  0
SOLID
  5
2B4
330
2AF
100
AcDbEntity
  8
치수문자_일반주서
 62
     0
100
AcDbTrace
 10
59.13337760206015
 20
83.44155851366686
 30
0.0
 11
58.10587667547664
 21
82.59184113497686
 31
0.0
 12
56.07047500269843
 22
86.09920260407242
 32
0.0
 13
56.07047500269843
 23
86.09920260407242
 33
0.0
  0
LINE
  5
2B5
330
2AF
100
AcDbEntity
  8
치수문자_일반주서
 62
     0
100
AcDbLine
 10
55.34318696868094
 20
86.86982829901005
 30
0.0
 11
55.52318696868095
 21
86.86982829901005
 31
0.0
  0
LINE
  5
2B6
330
2AF
100
AcDbEntity
  8
치수문자_일반주서
 62
     0
100
AcDbLine
 10
55.43318696868094
 20
86.77982829901005
 30
0.0
 11
55.43318696868094
 21
86.95982829901006
 31
0.0
  0
POINT
  5
2B7
330
2AF
100
AcDbEntity
  8
Defpoints
 62
     0
100
AcDbPoint
 10
56.07047500269843
 20
86.09920260407242
 30
0.0
  0
POINT
  5
2B8
330
2AF
100
AcDbEntity
  8
Defpoints
 62
     0
100
AcDbPoint
 10
55.43318696868094
 20
86.86982829901005
 30
0.0
  0
ENDBLK
  5
2B1
330
2AF
100
AcDbEntity
  8
0
100
AcDbBlockEnd
  0
BLOCK
  5
2BA
330
2B9
100
AcDbEntity
  8
0
100
AcDbBlockBegin
  2
*D17
 70
     1
 10
0.0
 20
0.0
 30
0.0
  3
*D17
  1
*D17
  0
LINE
  5
2BC
330
2B9
100
AcDbEntity
  8
치수문자_일반주서
 62
     0
370
    -2
100
AcDbLine
 10
56.49568696868094
 20
105.8698282990101
 30
0.0
 11
72.66978106110183
 21
105.8698282990101
 31
0.0
  0
LINE
  5
2BD
330
2B9
100
AcDbEntity
  8
치수문자_일반주서
 62
     0
370
    -2
100
AcDbLine
 10
56.49568696868094
 20
85.86982829901005
 30
0.0
 11
72.66978106110183
 21
85.86982829901005
 31
0.0
  0
LINE
  5
2BE
330
2B9
100
AcDbEntity
  8
치수문자_일반주서
 62
     0
370
    -2
100
AcDbLine
 10
72.66978106110183
 20
105.8698282990101
 30
0.0
 11
72.66978106110183
 21
85.86982829901005
 31
0.0
  0
LINE
  5
2BF
330
2B9
100
AcDbEntity
  8
치수문자_일반주서
 62
     0
370
    -2
100
AcDbLine
 10
72.66978106110183
 20
109.8698282990101
 30
0.0
 11
72.66978106110183
 21
113.8698282990101
 31
0.0
  0
LINE
  5
2C0
330
2B9
100
AcDbEntity
  8
치수문자_일반주서
 62
     0
370
    -2
100
AcDbLine
 10
72.66978106110183
 20
81.86982829901005
 30
0.0
 11
72.66978106110183
 21
77.86982829901005
 31
0.0
  0
SOLID
  5
2C1
330
2B9
100
AcDbEntity
  8
치수문자_일반주서
 62
     0
100
AcDbTrace
 10
72.00311439443516
 20
109.8698282990101
 30
0.0
 11
73.3364477277685
 21
109.8698282990101
 31
0.0
 12
72.66978106110183
 22
105.8698282990101
 32
0.0
 13
72.66978106110183
 23
105.8698282990101
 33
0.0
  0
SOLID
  5
2C2
330
2B9
100
AcDbEntity
  8
치수문자_일반주서
 62
     0
100
AcDbTrace
 10
73.3364477277685
 20
81.86982829901005
 30
0.0
 11
72.00311439443516
 21
81.86982829901005
 31
0.0
 12
72.66978106110183
 22
85.86982829901005
 32
0.0
 13
72.66978106110183
 23
85.86982829901005
 33
0.0
  0
MTEXT
  5
2C3
330
2B9
100
AcDbEntity
  8
치수문자_일반주서
 62
     0
100
AcDbMText
 10
69.79478106110183
 20
95.86982829901005
 30
0.0
 40
4.0
 41
0.0
 71
     5
 72
     1
  1
\A1;{%%c20.00}
  7
SLDTEXTSTYLE0
 11
0.0
 21
1.0
 31
0.0
 73
     1
 44
1.0
  0
POINT
  5
2C4
330
2B9
100
AcDbEntity
  8
Defpoints
 62
     0
100
AcDbPoint
 10
56.43318696868094
 20
105.8698282990101
 30
0.0
  0
POINT
  5
2C5
330
2B9
100
AcDbEntity
  8
Defpoints
 62
     0
100
AcDbPoint
 10
56.43318696868094
 20
85.86982829901005
 30
0.0
  0
POINT
  5
2C6
330
2B9
100
AcDbEntity
  8
Defpoints
 62
     0
100
AcDbPoint
 10
72.66978106110183
 20
85.86982829901005
 30
0.0
  0
ENDBLK
  5
2BB
330
2B9
100
AcDbEntity
  8
0
100
AcDbBlockEnd
  0
ENDSEC
  0
SECTION
  2
ENTITIES
  0
LINE
  5
96
330
1F
100
AcDbEntity
  8
외형선
  6
Continuous
370
    15
100
AcDbLine
 10
89.0799942608492
 20
2.448686609735611
 30
0.0
 11
88.95436916466181
 21
2.519068776485921
 31
0.0
  0
SPLINE
  5
97
330
1F
100
AcDbEntity
  8
외형선
  6
Continuous
370
    15
100
AcDbSpline
210
0.0
220
0.0
230
1.0
 70
     8
 71
     3
 72
     9
 73
     5
 74
     0
 42
0.000000001
 43
0.00000001
 40
0.0
 40
0.0
 40
0.0
 40
0.0
 40
0.5995905070390816
 40
1.0
 40
1.0
 40
1.0
 40
1.0
 10
116.775
 20
2.375550650918324
 30
0.0
 10
116.6942819611909
 20
2.43257923395818
 30
0.0
 10
116.5596600186126
 20
2.527691785558565
 30
0.0
 10
116.4286338022355
 20
2.607548459291635
 30
0.0
 10
116.3761696613714
 20
2.63952382953064
 30
0.0
  0
LINE
  5
98
330
1F
100
AcDbEntity
  8
0
  6
Continuous
 62
     1
370
    15
100
AcDbLine
 10
107.5801213313507
 20
-2.472215729893577
 30
0.0
 11
107.7387224258771
 21
-2.560921377024985
 31
0.0
  0
LINE
  5
99
330
1F
100
AcDbEntity
  8
0
  6
Continuous
 62
     1
370
    15
100
AcDbLine
 10
100.296136249955
 20
-12.72092831647998
 30
0.0
 11
110.2195581790874
 21
-12.72092831647998
 31
0.0
  0
LINE
  5
9A
330
1F
100
AcDbEntity
  8
0
  6
Continuous
 62
     1
370
    15
100
AcDbLine
 10
41.11365630599684
 20
12.67907168352002
 30
0.0
 11
31.18944274896064
 21
12.67907168352002
 31
0.0
  0
LINE
  5
9B
330
1F
100
AcDbEntity
  8
0
  6
Continuous
 62
     1
370
    15
100
AcDbLine
 10
45.00938983769107
 20
-12.72092831647998
 30
0.0
 11
54.93541775487104
 21
-12.72092831647998
 31
0.0
  0
LINE
  5
9C
330
1F
100
AcDbEntity
  8
0
  6
Continuous
 62
     1
370
    15
100
AcDbLine
 10
116.775
 20
12.67907168352002
 30
0.0
 11
114.115342831643
 21
12.67907168352002
 31
0.0
  0
LINE
  5
9D
330
1F
100
AcDbEntity
  8
0
  6
Continuous
 62
     1
370
    15
100
AcDbLine
 10
68.75574343411562
 20
12.67907168352002
 30
0.0
 11
58.83163090656119
 21
12.67907168352002
 31
0.0
  0
LINE
  5
9E
330
1F
100
AcDbEntity
  8
0
  6
Continuous
 62
     1
370
    15
100
AcDbLine
 10
72.65195088277216
 20
-12.72092831647998
 30
0.0
 11
82.57864407458587
 21
-12.72092831647998
 31
0.0
  0
LINE
  5
9F
330
1F
100
AcDbEntity
  8
0
  6
Continuous
 62
     1
370
    15
100
AcDbLine
 10
13.47029211228324
 20
12.67907168352002
 30
0.0
 11
12.00000000000001
 21
12.67907168352002
 31
0.0
  0
LINE
  5
A0
330
1F
100
AcDbEntity
  8
0
  6
Continuous
 62
     1
370
    15
100
AcDbLine
 10
17.36630510750311
 20
-12.72092831647998
 30
0.0
 11
27.29443255420598
 21
-12.72092831647998
 31
0.0
  0
LINE
  5
A1
330
1F
100
AcDbEntity
  8
0
  6
Continuous
 62
     1
370
    15
100
AcDbLine
 10
96.4000788497899
 20
12.67907168352002
 30
0.0
 11
86.47448895736187
 21
12.67907168352002
 31
0.0
  0
LINE
  5
A2
330
1F
100
AcDbEntity
  8
외형선
  6
Continuous
370
    15
100
AcDbLine
 10
-58.485
 20
-12.72092831647998
 30
0.0
 11
11.00010556036603
 21
-12.72092831647998
 31
0.0
  0
LINE
  5
A3
330
1F
100
AcDbEntity
  8
외형선
  6
Continuous
370
    15
100
AcDbLine
 10
12.00000000000001
 20
12.67907168352001
 30
0.0
 11
-58.485
 21
12.67907168352001
 31
0.0
  0
LINE
  5
A4
330
1F
100
AcDbEntity
  8
외형선
  6
Continuous
370
    15
100
AcDbLine
 10
-58.485
 20
12.67907168352002
 30
0.0
 11
-61.02499999999999
 21
10.13907168352002
 31
0.0
  0
LINE
  5
A5
330
1F
100
AcDbEntity
  8
외형선
  6
Continuous
370
    15
100
AcDbLine
 10
-61.02499999999999
 20
-10.18092831647999
 30
0.0
 11
-58.485
 21
-12.72092831647998
 31
0.0
  0
SPLINE
  5
A6
330
1F
100
AcDbEntity
  8
0
  6
Continuous
 62
     1
370
    15
100
AcDbSpline
210
0.0
220
0.0
230
1.0
 70
     8
 71
     3
 72
    20
 73
    16
 74
     0
 42
0.000000001
 43
0.00000001
 40
0.0
 40
0.0
 40
0.0
 40
0.0
 40
0.0818735325821201
 40
0.1637563763609124
 40
0.2456375604946643
 40
0.3275061202142242
 40
0.4093517486995206
 40
0.4912042633038463
 40
0.5641452620276841
 40
0.6370872400788351
 40
0.710030059138548
 40
0.7829735807226845
 40
0.8559176662088928
 40
0.9288621768638434
 40
1.0
 40
1.0
 40
1.0
 40
1.0
 10
12.00000000000001
 20
4.701991044194155
 30
0.0
 10
13.4135664803732
 20
3.927491499493638
 30
0.0
 10
16.24086020119785
 20
2.378404328909886
 30
0.0
 10
20.4820081749883
 20
-0.0807770273415959
 30
0.0
 10
24.72302597821362
 20
-2.525192257603761
 30
0.0
 10
28.963319735862
 20
-4.880012669948539
 30
0.0
 10
33.20270486921123
 20
-7.054235419503141
 30
0.0
 10
37.28826800634359
 20
-8.898396217427027
 30
0.0
 10
41.21975371951789
 20
-10.38217678031349
 30
0.0
 10
44.99752762066355
 20
-11.50334076879863
 30
0.0
 10
48.77532978799773
 20
-12.28613357705773
 30
0.0
 10
52.55318203416265
 20
-12.70996243458543
 30
0.0
 10
56.33106763358177
 20
-12.75341194788304
 30
0.0
 10
60.07778462169977
 20
-12.451040887473
 30
0.0
 10
62.56520617970647
 20
-11.94876433542666
 30
0.0
 10
63.79332173143742
 20
-11.70077515046028
 30
0.0
  0
SPLINE
  5
A7
330
1F
100
AcDbEntity
  8
0
  6
Continuous
 62
     1
370
    15
100
AcDbSpline
210
0.0
220
0.0
230
1.0
 70
     8
 71
     3
 72
    23
 73
    19
 74
     0
 42
0.000000001
 43
0.00000001
 40
0.0
 40
0.0
 40
0.0
 40
0.0
 40
0.0199365811171981
 40
0.0822271404691802
 40
0.1445176924979019
 40
0.2068081185891072
 40
0.2690983001533402
 40
0.3313881186492908
 40
0.3936774556071228
 40
0.4559661926517675
 40
0.5182542115261813
 40
0.5805413941145529
 40
0.6504384699933732
 40
0.7203296655447932
 40
0.7902404429774676
 40
0.8601620008930749
 40
0.9300849760447425
 40
1.0
 40
1.0
 40
1.0
 40
1.0
 10
72.65195088277216
 20
-12.68020445412773
 30
0.0
 10
72.2488977410317
 20
-12.69162945330544
 30
0.0
 10
70.58653110416385
 20
-12.73875112410361
 30
0.0
 10
67.66484943809051
 20
-12.44022566131873
 30
0.0
 10
63.88691022166672
 20
-11.78803713202415
 30
0.0
 10
60.10898006360146
 20
-10.76304536354408
 30
0.0
 10
56.33106761462287
 20
-9.429122658936624
 30
0.0
 10
52.5531820392426
 20
-7.816486495262712
 30
0.0
 10
48.77532978663654
 20
-5.975003205780534
 30
0.0
 10
44.9975276210282
 20
-3.958224174941689
 30
0.0
 10
41.21975371942061
 20
-1.825601552490818
 30
0.0
 10
37.28826800637322
 20
0.4489492132686839
 30
0.0
 10
33.2027048692029
 20
2.800369126262872
 30
0.0
 10
28.96331973586421
 20
5.135522869344935
 30
0.0
 10
24.72302597821304
 20
7.281614036735858
 30
0.0
 10
20.48200817498848
 20
9.14897048088713
 30
0.0
 10
16.24086020119781
 20
10.70792786657881
 30
0.0
 10
13.41356648037316
 20
11.40440022322055
 30
0.0
 10
12.0
 20
11.75261660081294
 30
0.0
  0
SPLINE
  5
A8
330
1F
100
AcDbEntity
  8
외형선
  6
Continuous
370
    15
100
AcDbSpline
210
0.0
220
0.0
230
1.0
 70
    24
 71
     3
 72
    17
 73
    13
 74
     0
 42
0.000000001
 43
0.00000001
 40
0.0
 40
0.0
 40
0.0
 40
0.0
 40
0.1089792702039081
 40
0.2211489309041281
 40
0.3296403915617495
 40
0.4412781119281758
 40
0.5497695725857977
 40
0.6614072929522242
 40
0.7698987536098459
 40
0.8815364739762724
 40
0.9900279346338944
 40
1.0
 40
1.0
 40
1.0
 40
1.0
 10
12.0
 20
11.75261660081296
 30
0.0
 10
12.00000000000004
 20
11.50937553011978
 30
0.0
 10
12.00000000000011
 20
11.01577245647908
 30
0.0
 10
11.99999999999999
 20
10.19955923271684
 30
0.0
 10
12.0
 20
9.347026275185673
 30
0.0
 10
12.00000000000006
 20
8.49071862014949
 30
0.0
 10
11.99999999999999
 20
7.639720454918352
 30
0.0
 10
12.00000000000008
 20
6.834097268906043
 30
0.0
 10
11.99999999999999
 20
6.077877248350824
 30
0.0
 10
12.00000000000006
 20
5.42248211260954
 30
0.0
 10
12.00000000000004
 20
4.999893597492523
 30
0.0
 10
12.00000000000003
 20
4.840064494534888
 30
0.0
 10
12.00000000000001
 20
4.826610342733089
 30
0.0
  0
LINE
  5
A9
330
1F
100
AcDbEntity
  8
0
  6
Continuous
 62
     1
370
    15
100
AcDbLine
 10
116.775
 20
-12.16119826392422
 30
0.0
 11
116.775
 21
-11.12064602000154
 31
0.0
  0
SPLINE
  5
AA
330
1F
100
AcDbEntity
  8
0
  6
Continuous
 62
     1
370
    15
100
AcDbSpline
210
0.0
220
0.0
230
1.0
 70
     8
 71
     3
 72
    28
 73
    24
 74
     0
 42
0.000000001
 43
0.00000001
 40
0.0
 40
0.0
 40
0.0
 40
0.0
 40
0.0014022673577947
 40
0.0513320967224763
 40
0.1012625017695718
 40
0.1511933877047036
 40
0.2011246596388854
 40
0.2510562226071647
 40
0.3009879815872978
 40
0.3509198415184446
 40
0.4008517073198887
 40
0.4507834839097553
 40
0.5007150762237393
 40
0.5506463892338178
 40
0.6005773279669531
 40
0.6505077975237706
 40
0.7004377030972019
 40
0.7503669499910957
 40
0.8002954436387775
 40
0.8502230896215517
 40
0.9001497936871475
 40
0.9500754617680911
 40
1.0
 40
1.0
 40
1.0
 40
1.0
 10
41.11365630599684
 20
12.67397103936045
 30
0.0
 10
41.14902201268691
 20
12.67566520270876
 30
0.0
 10
42.44363667114111
 20
12.73768258931886
 30
0.0
 10
44.9975244024075
 20
12.51573987728522
 30
0.0
 10
48.77533064896507
 20
11.98263051695931
 30
0.0
 10
52.55318180859578
 20
11.05239701728282
 30
0.0
 10
56.33106767487166
 20
9.808139371400525
 30
0.0
 10
60.10898005325527
 20
8.271530622515378
 30
0.0
 10
63.88691020280198
 20
6.491782328596147
 30
0.0
 10
67.66484952389592
 20
4.520187043179933
 30
0.0
 10
71.44278937620386
 20
2.415042257434175
 30
0.0
 10
75.22072112969569
 20
0.2382108487408104
 30
0.0
 10
78.99863615319248
 20
-1.946237224444502
 30
0.0
 10
82.7765258197378
 20
-4.074035605142426
 30
0.0
 10
86.55438150714345
 20
-6.08257447375823
 30
0.0
 10
90.3321946010052
 20
-7.912771270811673
 30
0.0
 10
94.10995649265203
 20
-9.510734719199933
 30
0.0
 10
97.88765859487125
 20
-10.82962072373113
 30
0.0
 10
101.6652922915779
 20
-11.83000470807913
 30
0.0
 10
105.442849133897
 20
-12.48479498899375
 30
0.0
 10
109.2203201166428
 20
-12.76602169166591
 30
0.0
 10
112.997698386667
 20
-12.69793587527417
 30
0.0
 10
115.5159089604427
 20
-12.34010945138637
 30
0.0
 10
116.775
 20
-12.16119826392422
 30
0.0
  0
SPLINE
  5
AB
330
1F
100
AcDbEntity
  8
0
  6
Continuous
 62
     1
370
    15
100
AcDbSpline
210
0.0
220
0.0
230
1.0
 70
     8
 71
     3
 72
    25
 73
    21
 74
     0
 42
0.000000001
 43
0.00000001
 40
0.0
 40
0.0
 40
0.0
 40
0.0
 40
0.0565460652463036
 40
0.1130934101943228
 40
0.1696419285303751
 40
0.2261915137107507
 40
0.2827420589824342
 40
0.3392934574039111
 40
0.3958456018660607
 40
0.4523983851131126
 40
0.508951699763673
 40
0.5655054383317929
 40
0.6220594932480943
 40
0.6786137568809195
 40
0.7351681215575169
 40
0.791722479585236
 40
0.8482767232727357
 40
0.9048307449511908
 40
0.9613844369954886
 40
1.0
 40
1.0
 40
1.0
 40
1.0
 10
116.775
 20
-11.12064602000154
 30
0.0
 10
115.5159089604427
 20
-10.73579724010618
 30
0.0
 10
112.997698386667
 20
-9.966090970750217
 30
0.0
 10
109.2203201166428
 20
-8.431460775211239
 30
0.0
 10
105.442849133897
 20
-6.672826641405193
 30
0.0
 10
101.6652922915779
 20
-4.712196539323086
 30
0.0
 10
97.8876585948712
 20
-2.61521626383639
 30
0.0
 10
94.10995649265233
 20
-0.4414456304634691
 30
0.0
 10
90.33219460100398
 20
1.744587979165785
 30
0.0
 10
86.5543815071481
 20
3.878719285702957
 30
0.0
 10
82.77652581972062
 20
5.898116539625558
 30
0.0
 10
78.99863615325667
 20
7.74336717546833
 30
0.0
 10
75.22072112945628
 20
9.360197049864592
 30
0.0
 10
71.44278937709728
 20
10.70094840664432
 30
0.0
 10
67.66484952056167
 20
11.72648926474958
 30
0.0
 10
63.88691021524571
 20
12.40545737792055
 30
0.0
 10
60.10898000681476
 20
12.72230733875348
 30
0.0
 10
56.33106784818885
 20
12.65117938354697
 30
0.0
 10
52.95260459886633
 20
12.29768280398072
 30
0.0
 10
50.83344947921437
 20
11.81972201869631
 30
0.0
 10
49.97358808808247
 20
11.62578622705467
 30
0.0
  0
LINE
  5
AC
330
1F
100
AcDbEntity
  8
0
  6
Continuous
 62
     1
370
    15
100
AcDbLine
 10
116.775
 20
-7.318764342323054
 30
0.0
 11
116.775
 21
2.418427318333919
 31
0.0
  0
SPLINE
  5
AD
330
1F
100
AcDbEntity
  8
0
  6
Continuous
 62
     1
370
    15
100
AcDbSpline
210
0.0
220
0.0
230
1.0
 70
     8
 71
     3
 72
    20
 73
    16
 74
     0
 42
0.000000001
 43
0.00000001
 40
0.0
 40
0.0
 40
0.0
 40
0.0
 40
0.055957116013513
 40
0.1346316928258911
 40
0.2133059792855506
 40
0.2919798256623995
 40
0.3706530823129837
 40
0.4493255997099145
 40
0.5279972284712455
 40
0.6066678193897959
 40
0.6853372234623932
 40
0.7640052919190273
 40
0.8426718762519139
 40
0.9213368282444421
 40
1.0
 40
1.0
 40
1.0
 40
1.0
 10
68.75574343411562
 20
12.64064286349246
 30
0.0
 10
69.651426133928
 20
12.63766223999321
 30
0.0
 10
71.80642064939747
 20
12.63049091995441
 30
0.0
 10
75.22072111989684
 20
12.18623012130598
 30
0.0
 10
78.99863615581812
 20
11.38538685850234
 30
0.0
 10
82.77652581903428
 20
10.23557862224261
 30
0.0
 10
86.55438150733202
 20
8.7875913180757
 30
0.0
 10
90.33219460095471
 20
7.079482223384763
 30
0.0
 10
94.10995649266557
 20
5.16275492357817
 30
0.0
 10
97.88765859486753
 20
3.093379467403992
 30
0.0
 10
101.665292291579
 20
0.9327061300942268
 30
0.0
 10
105.4428491338968
 20
-1.257120366750451
 30
0.0
 10
109.2203201166429
 20
-3.406429992258996
 30
0.0
 10
112.997698386667
 20
-5.471535334803463
 30
0.0
 10
115.5159089604427
 20
-6.703025984769446
 30
0.0
 10
116.775
 20
-7.318764342323057
 30
0.0
  0
SPLINE
  5
AE
330
1F
100
AcDbEntity
  8
0
  6
Continuous
 62
     1
370
    15
100
AcDbSpline
210
0.0
220
0.0
230
1.0
 70
     8
 71
     3
 72
    18
 73
    14
 74
     0
 42
0.000000001
 43
0.00000001
 40
0.0
 40
0.0
 40
0.0
 40
0.0
 40
0.0964574004955192
 40
0.1929169839316259
 40
0.2893785689563305
 40
0.3858419738252578
 40
0.4823070164369952
 40
0.5787735143685847
 40
0.6752412849111621
 40
0.7717101451057051
 40
0.868179911778901
 40
0.9646504015790843
 40
0.9999999999999999
 40
0.9999999999999999
 40
0.9999999999999999
 40
0.9999999999999999
 10
116.775
 20
2.418427318333921
 30
0.0
 10
115.5159089604415
 20
3.124941694086261
 30
0.0
 10
112.9976983866634
 20
4.537986434814147
 30
0.0
 10
109.2203201166573
 20
6.504191843260507
 30
0.0
 10
105.4428491338425
 20
8.283592853977316
 30
0.0
 10
101.6652922917817
 20
9.817336285169512
 30
0.0
 10
97.88765859411089
 20
11.06189643764126
 30
0.0
 10
94.10995649548995
 20
11.9807298933496
 30
0.0
 10
90.33219459041355
 20
12.54487534342031
 30
0.0
 10
86.55438154667267
 20
12.74533702355651
 30
0.0
 10
82.77652567221108
 20
12.54770193989653
 30
0.0
 10
79.79649771058784
 20
12.16632427005818
 30
0.0
 10
78.07575508773039
 20
11.73796896760912
 30
0.0
 10
77.61431130078842
 20
11.62309885845211
 30
0.0
  0
SPLINE
  5
AF
330
1F
100
AcDbEntity
  8
0
  6
Continuous
 62
     1
370
    15
100
AcDbSpline
210
0.0
220
0.0
230
1.0
 70
     8
 71
     3
 72
     9
 73
     5
 74
     0
 42
0.000000001
 43
0.00000001
 40
0.0
 40
0.0
 40
0.0
 40
0.0
 40
0.2097457163004872
 40
1.0
 40
1.0
 40
1.0
 40
1.0
 10
17.36630510750312
 20
-12.67497768735071
 30
0.0
 10
16.99111097147198
 20
-12.68910320911877
 30
0.0
 10
15.202306209931
 20
-12.75644914598556
 30
0.0
 10
13.4135624325311
 20
-12.52649581678564
 30
0.0
 10
12.0
 20
-12.34477421333444
 30
0.0
  0
SPLINE
  5
B0
330
1F
100
AcDbEntity
  8
0
  6
Continuous
 62
     1
370
    15
100
AcDbSpline
210
0.0
220
0.0
230
1.0
 70
     8
 71
     3
 72
    28
 73
    24
 74
     0
 42
0.000000001
 43
0.00000001
 40
0.0
 40
0.0
 40
0.0
 40
0.0
 40
0.0355304907154443
 40
0.0899234953084964
 40
0.1443153974351936
 40
0.1986989134362087
 40
0.2530671967135779
 40
0.3074400542910902
 40
0.3558931843426762
 40
0.4043469649402444
 40
0.452801304201636
 40
0.5012561101348288
 40
0.5497112906559887
 40
0.5981667536075611
 40
0.6466224067763942
 40
0.6950781579118801
 40
0.743533914744123
 40
0.7919895850021024
 40
0.8404450764318482
 40
0.8889002968146001
 40
0.9373551539849574
 40
0.9858095558490046
 40
0.9999999999999999
 40
0.9999999999999999
 40
0.9999999999999999
 40
0.9999999999999999
 10
13.47029211228324
 20
12.62567510763697
 30
0.0
 10
14.39376533635555
 20
12.6273303475567
 30
0.0
 10
16.73096751004494
 20
12.63151956521621
 30
0.0
 10
20.48200976142125
 20
12.1028354544083
 30
0.0
 10
24.72302555319392
 20
11.12587289674616
 30
0.0
 10
28.96331984973605
 20
9.717358101112724
 30
0.0
 10
33.20270483857406
 20
7.952916077229048
 30
0.0
 10
37.28826801359446
 20
5.966734333469926
 30
0.0
 10
41.21975371757266
 20
3.8642237193185
 30
0.0
 10
44.99752762155342
 20
1.729488649114958
 30
0.0
 10
48.77532978638359
 20
-0.4567051369468087
 30
0.0
 10
52.55318203972944
 20
-2.630099973048705
 30
0.0
 10
56.33106761292851
 20
-4.726730206964616
 30
0.0
 10
60.10898006989204
 20
-6.684914103721165
 30
0.0
 10
63.88691019819838
 20
-8.447022023075055
 30
0.0
 10
67.6648495256735
 20
-9.961251429916128
 30
0.0
 10
71.44278937369705
 20
-11.18288270046566
 30
0.0
 10
75.22072113794538
 20
-12.07659123223158
 30
0.0
 10
78.99863612270065
 20
-12.61377164341084
 30
0.0
 10
82.77652593345478
 20
-12.78724481693377
 30
0.0
 10
86.55438108277222
 20
-12.55972366754873
 30
0.0
 10
89.44173074225539
 20
-12.17627937934078
 30
0.0
 10
91.06979104672038
 20
-11.7629146651762
 30
0.0
 10
91.43858273980577
 20
-11.66927840834932
 30
0.0
  0
SPLINE
  5
B1
330
1F
100
AcDbEntity
  8
0
  6
Continuous
 62
     1
370
    15
100
AcDbSpline
210
0.0
220
0.0
230
1.0
 70
     8
 71
     3
 72
    28
 73
    24
 74
     0
 42
0.000000001
 43
0.00000001
 40
0.0
 40
0.0
 40
0.0
 40
0.0
 40
0.0308923735426438
 40
0.079347349552594
 40
0.1278029647931186
 40
0.1762591273641775
 40
0.2247157452580928
 40
0.2731727263776002
 40
0.3216299785539508
 40
0.370087409565033
 40
0.4185449271535244
 40
0.4670024390450525
 40
0.515459852966367
 40
0.5639170766635097
 40
0.6123740179199765
 40
0.6608305845748649
 40
0.7092866845409945
 40
0.7577422258230001
 40
0.8061971165353844
 40
0.8605719498812061
 40
0.9149422087606659
 40
0.9693277009172896
 40
1.0
 40
1.0
 40
1.0
 40
1.0
 10
100.296136249955
 20
-12.67768423608838
 30
0.0
 10
99.49331647851473
 20
-12.68003556894757
 30
0.0
 10
97.43126640831623
 20
-12.68607498932541
 30
0.0
 10
94.10995618077392
 20
-12.27264340267805
 30
0.0
 10
90.33219468457457
 20
-11.49915575692428
 30
0.0
 10
86.55438148474937
 20
-10.37262467973642
 30
0.0
 10
82.77652582574405
 20
-8.945631803319976
 30
0.0
 10
78.9986361515619
 20
-7.254951026014118
 30
0.0
 10
75.22072113021176
 20
-5.351720855764455
 30
0.0
 10
71.44278937577003
 20
-3.291564872596048
 30
0.0
 10
67.66484952511523
 20
-1.135198941931491
 30
0.0
 10
63.88691019835863
 20
1.053957104243869
 30
0.0
 10
60.10898006980944
 20
3.211483812986055
 30
0.0
 10
56.33106761309877
 20
5.273904532424312
 30
0.0
 10
52.55318203913133
 20
7.18052903219708
 30
0.0
 10
48.77532978860605
 20
8.875290574890812
 30
0.0
 10
44.99752761326187
 20
10.3082159289997
 30
0.0
 10
41.21975374851594
 20
11.43756421128979
 30
0.0
 10
37.28826789215118
 20
12.26077867930647
 30
0.0
 10
33.20270535385313
 20
12.70787546792247
 30
0.0
 10
28.96331793398792
 20
12.67984620957808
 30
0.0
 10
25.3395603870974
 20
12.31859559273492
 30
0.0
 10
23.12884497930584
 20
11.79759706954131
 30
0.0
 10
22.33164905890222
 20
11.60972218715599
 30
0.0
  0
LINE
  5
B2
330
1F
100
AcDbEntity
  8
0
  6
Continuous
 62
     1
370
    15
100
AcDbLine
 10
116.775
 20
12.58639408000511
 30
0.0
 11
116.775
 21
12.67907168352002
 31
0.0
  0
SPLINE
  5
B3
330
1F
100
AcDbEntity
  8
0
  6
Continuous
 62
     1
370
    15
100
AcDbSpline
210
0.0
220
0.0
230
1.0
 70
     8
 71
     3
 72
    11
 73
     7
 74
     0
 42
0.000000001
 43
0.00000001
 40
0.0
 40
0.0
 40
0.0
 40
0.0
 40
0.3279541311271897
 40
0.6559156842290546
 40
0.983884042710767
 40
1.0
 40
1.0
 40
1.0
 40
1.0
 10
116.775
 20
12.58639408000511
 30
0.0
 10
115.5159090423024
 20
12.64019267349636
 30
0.0
 10
112.997698632248
 20
12.74779107800217
 30
0.0
 10
109.2203191342842
 20
12.39837945312337
 30
0.0
 10
106.6401594314081
 20
12.02609536570073
 30
0.0
 10
105.3191230976506
 20
11.67164011204322
 30
0.0
 10
105.2572494110088
 20
11.65503840871916
 30
0.0
  0
SPLINE
  5
B4
330
1F
100
AcDbEntity
  8
0
  6
Continuous
 62
     1
370
    15
100
AcDbSpline
210
0.0
220
0.0
230
1.0
 70
     8
 71
     3
 72
    16
 73
    12
 74
     0
 42
0.000000001
 43
0.00000001
 40
0.0
 40
0.0
 40
0.0
 40
0.0
 40
0.0003598964249324
 40
0.1148116102671367
 40
0.2292617874675834
 40
0.3576948356115448
 40
0.4861170788918893
 40
0.6145753030865466
 40
0.7430533359822993
 40
0.8715339729919563
 40
1.0
 40
1.0
 40
1.0
 40
1.0
 10
45.00938983769107
 20
-12.72034267260756
 30
0.0
 10
45.0054300763595
 20
-12.72053782651204
 30
0.0
 10
43.74221504210194
 20
-12.78279444389505
 30
0.0
 10
41.21975329025764
 20
-12.56595717564546
 30
0.0
 10
37.28826813710554
 20
-12.02173954087796
 30
0.0
 10
33.20270483248748
 20
-11.00028041397621
 30
0.0
 10
28.96331974570449
 20
-9.54793748282207
 30
0.0
 10
24.72302597557652
 20
-7.739161606088873
 30
0.0
 10
20.48200817569161
 20
-5.644733118924292
 30
0.0
 10
16.24086020102209
 20
-3.344067678817805
 30
0.0
 10
13.4135664803146
 20
-1.72221449035374
 30
0.0
 10
12.0
 20
-0.9113340054529775
 30
0.0
  0
LINE
  5
B5
330
1F
100
AcDbEntity
  8
외형선
  6
Continuous
370
    15
100
AcDbLine
 10
12.00000000000001
 20
-0.91133400545299
 30
0.0
 11
12.00000000000001
 21
4.701991044194156
 31
0.0
  0
LINE
  5
B6
330
1F
100
AcDbEntity
  8
0
  6
Continuous
 62
     1
370
    15
100
AcDbLine
 10
116.775
 20
-11.12064602000154
 30
0.0
 11
116.775
 21
-7.318764342323054
 31
0.0
  0
LINE
  5
B7
330
1F
100
AcDbEntity
  8
외형선
  6
Continuous
370
    15
100
AcDbLine
 10
12.00000000000001
 20
11.75261660081294
 30
0.0
 11
12.00000000000001
 21
12.67907168352002
 31
0.0
  0
LINE
  5
B8
330
1F
100
AcDbEntity
  8
0
  6
Continuous
 62
     1
370
    15
100
AcDbLine
 10
116.775
 20
7.571612764477865
 30
0.0
 11
116.775
 21
12.58639408000511
 31
0.0
  0
SPLINE
  5
B9
330
1F
100
AcDbEntity
  8
0
  6
Continuous
 62
     1
370
    15
100
AcDbSpline
210
0.0
220
0.0
230
1.0
 70
     8
 71
     3
 72
    13
 73
     9
 74
     0
 42
0.000000001
 43
0.00000001
 40
0.0
 40
0.0
 40
0.0
 40
0.0
 40
0.1756055377318525
 40
0.3512310464805525
 40
0.5268529955580059
 40
0.7024478673007847
 40
0.8779935552402428
 40
1.0
 40
1.0
 40
1.0
 40
1.0
 10
12.00000000000001
 20
-9.773612891247295
 30
0.0
 10
13.41356649877589
 20
-10.26141927579908
 30
0.0
 10
16.24086025640803
 20
-11.2370875214534
 30
0.0
 10
20.48200795412016
 20
-12.18703954117649
 30
0.0
 10
24.72302680639343
 20
-12.71651252269631
 30
0.0
 10
28.96331664488611
 20
-12.75268777762406
 30
0.0
 10
32.77166185419069
 20
-12.41694897333228
 30
0.0
 10
35.16676571474233
 20
-11.87938521720037
 30
0.0
 10
36.14883935745308
 20
-11.65896588388087
 30
0.0
  0
SPLINE
  5
BA
330
1F
100
AcDbEntity
  8
0
  6
Continuous
 62
     1
370
    15
100
AcDbSpline
210
0.0
220
0.0
230
1.0
 70
     8
 71
     3
 72
    13
 73
     9
 74
     0
 42
0.000000001
 43
0.00000001
 40
0.0
 40
0.0
 40
0.0
 40
0.0
 40
0.0730104560032681
 40
0.2584153595497231
 40
0.4438171153699208
 40
0.6292153734666578
 40
0.8146097845289564
 40
1.0
 40
1.0
 40
1.0
 40
1.0
 10
96.4000788497899
 20
12.63439478101387
 30
0.0
 10
96.89594464260506
 20
12.6456651970787
 30
0.0
 10
98.65102664254479
 20
12.68555603983056
 30
0.0
 10
101.6652918697754
 20
12.36285196211952
 30
0.0
 10
105.4428492468768
 20
11.68286024463259
 30
0.0
 10
109.2203200865157
 20
10.63076182800625
 30
0.0
 10
112.9976983941985
 20
9.28768086801239
 30
0.0
 10
115.5159089629532
 20
8.168576683398433
 30
0.0
 10
116.775
 20
7.609030922669675
 30
0.0
  0
SPLINE
  5
BB
330
1F
100
AcDbEntity
  8
외형선
  6
Continuous
370
    15
100
AcDbSpline
210
0.0
220
0.0
230
1.0
 70
    24
 71
     3
 72
    22
 73
    18
 74
     0
 42
0.000000001
 43
0.00000001
 40
0.0
 40
0.0
 40
0.0
 40
0.0
 40
0.0606603286705141
 40
0.131673611942873
 40
0.2026868952152318
 40
0.2737001784875907
 40
0.3447134617599495
 40
0.4157267450323084
 40
0.4867400283046672
 40
0.5577533115770261
 40
0.6287665948493845
 40
0.699779878121743
 40
0.7707931613941019
 40
0.8418064446664609
 40
0.9128197279388195
 40
0.9838330112111779
 40
0.9999999999999999
 40
0.9999999999999999
 40
0.9999999999999999
 40
0.9999999999999999
 10
11.99999999999999
 20
-0.7556896697910908
 30
0.0
 10
12.0
 20
-0.7848681478808269
 30
0.0
 10
12.00000000000003
 20
-0.8482050220006515
 30
0.0
 10
12.00000000000006
 20
-1.115513974858797
 30
0.0
 10
12.00000000000003
 20
-1.517791605674496
 30
0.0
 10
12.00000000000004
 20
-2.043169782975446
 30
0.0
 10
12.00000000000004
 20
-2.676495832107952
 30
0.0
 10
12.00000000000004
 20
-3.397087544363703
 30
0.0
 10
12.00000000000003
 20
-4.18737143362715
 30
0.0
 10
12.00000000000007
 20
-5.022656442320153
 30
0.0
 10
12.0
 20
-5.880603485293286
 30
0.0
 10
11.99999999999999
 20
-6.736473422401848
 30
0.0
 10
11.99999999999999
 20
-7.565298049230535
 30
0.0
 10
12.0
 20
-8.345430587087147
 30
0.0
 10
11.99999999999999
 20
-9.051065596027522
 30
0.0
 10
12.00000000000011
 20
-9.510531651264259
 30
0.0
 10
12.00000000000001
 20
-9.73245813375906
 30
0.0
 10
12.00000000000001
 20
-9.773612891247295
 30
0.0
  0
LINE
  5
BC
330
1F
100
AcDbEntity
  8
0
  6
Continuous
 62
     1
370
    15
100
AcDbLine
 10
116.775
 20
2.418427318333919
 30
0.0
 11
116.775
 21
7.609030922669676
 31
0.0
  0
LINE
  5
BD
330
1F
100
AcDbEntity
  8
외형선
  6
Continuous
370
    15
100
AcDbLine
 10
12.00000000000001
 20
-12.34477421333444
 30
0.0
 11
12.00000000000001
 21
-9.773612891247295
 31
0.0
  0
LINE
  5
BE
330
1F
100
AcDbEntity
  8
외형선
  6
Continuous
370
    15
100
AcDbLine
 10
11.00010556036603
 20
-12.72092831647998
 30
0.0
 11
11.00010556036603
 21
-12.19241404010771
 31
0.0
  0
SPLINE
  5
BF
330
1F
100
AcDbEntity
  8
외형선
  6
Continuous
370
    15
100
AcDbSpline
210
0.0
220
0.0
230
1.0
 70
     8
 71
     3
 72
     8
 73
     4
 74
     0
 42
0.000000001
 43
0.00000001
 40
0.0
 40
0.0
 40
0.0
 40
0.0
 40
1.0
 40
1.0
 40
1.0
 40
1.0
 10
12.00000000000004
 20
11.75261660081293
 30
0.0
 10
11.66611805549428
 20
11.82490242015659
 30
0.0
 10
11.33343526302951
 20
11.89303608732361
 30
0.0
 10
11.00010556036602
 20
11.95707947476785
 30
0.0
  0
SPLINE
  5
C0
330
1F
100
AcDbEntity
  8
외형선
  6
Continuous
370
    15
100
AcDbSpline
210
0.0
220
0.0
230
1.0
 70
     8
 71
     3
 72
     8
 73
     4
 74
     0
 42
0.000000001
 43
0.00000001
 40
0.0
 40
0.0
 40
0.0
 40
0.0
 40
1.0
 40
1.0
 40
1.0
 40
1.0
 10
12.00000000000001
 20
4.701991044194154
 30
0.0
 10
11.66611805549427
 20
4.8809588601742
 30
0.0
 10
11.33343526302941
 20
5.05808148336622
 30
0.0
 10
11.00010556036603
 20
5.233504963125355
 30
0.0
  0
SPLINE
  5
C1
330
1F
100
AcDbEntity
  8
외형선
  6
Continuous
370
    15
100
AcDbSpline
210
0.0
220
0.0
230
1.0
 70
     8
 71
     3
 72
     8
 73
     4
 74
     0
 42
0.000000001
 43
0.00000001
 40
0.0
 40
0.0
 40
0.0
 40
0.0
 40
1.0
 40
1.0
 40
1.0
 40
1.0
 10
12.00000000000004
 20
-0.9113340054530019
 30
0.0
 10
11.66611805549428
 20
-0.7190132378297222
 30
0.0
 10
11.33343526302951
 20
-0.5266152777050642
 30
0.0
 10
11.00010556036602
 20
-0.3339849218499998
 30
0.0
  0
LINE
  5
C2
330
1F
100
AcDbEntity
  8
외형선
  6
Continuous
370
    15
100
AcDbLine
 10
11.00010556036603
 20
-9.393388997045676
 30
0.0
 11
11.00010556036603
 21
-0.3339790032922831
 31
0.0
  0
SPLINE
  5
C3
330
1F
100
AcDbEntity
  8
외형선
  6
Continuous
370
    15
100
AcDbSpline
210
0.0
220
0.0
230
1.0
 70
     8
 71
     3
 72
     8
 73
     4
 74
     0
 42
0.000000001
 43
0.00000001
 40
0.0
 40
0.0
 40
0.0
 40
0.0
 40
1.0
 40
1.0
 40
1.0
 40
1.0
 10
12.00000000000001
 20
-9.773612891247293
 30
0.0
 10
11.66611805549427
 20
-9.650120576835878
 30
0.0
 10
11.33343526302941
 20
-9.523408365673609
 30
0.0
 10
11.00010556036603
 20
-9.3933792816224
 30
0.0
  0
SPLINE
  5
C4
330
1F
100
AcDbEntity
  8
외형선
  6
Continuous
370
    15
100
AcDbSpline
210
0.0
220
0.0
230
1.0
 70
     8
 71
     3
 72
     8
 73
     4
 74
     0
 42
0.000000001
 43
0.00000001
 40
0.0
 40
0.0
 40
0.0
 40
0.0
 40
1.0
 40
1.0
 40
1.0
 40
1.0
 10
12.00000000000004
 20
-12.34477421333443
 30
0.0
 10
11.66611805549428
 20
-12.29819926154444
 30
0.0
 10
11.33343526302951
 20
-12.24742444998828
 30
0.0
 10
11.00010556036602
 20
-12.1924157302491
 30
0.0
  0
LINE
  5
C5
330
1F
100
AcDbEntity
  8
외형선
  6
Continuous
370
    15
100
AcDbLine
 10
-58.485
 20
-0.0209283164799812
 30
0.0
 11
-58.485
 21
12.67907168352001
 31
0.0
  0
LINE
  5
C6
330
1F
100
AcDbEntity
  8
외형선
  6
Continuous
370
    15
100
AcDbLine
 10
-58.485
 20
-12.72092831647998
 30
0.0
 11
-58.485
 21
-0.0209283164799812
 31
0.0
  0
LINE
  5
C7
330
1F
100
AcDbEntity
  8
외형선
  6
Continuous
370
    15
100
AcDbLine
 10
11.00010556036603
 20
5.233491855943484
 30
0.0
 11
11.00010556036603
 21
11.95708144249631
 31
0.0
  0
LINE
  5
C8
330
1F
100
AcDbEntity
  8
외형선
  6
Continuous
370
    15
100
AcDbLine
 10
-61.02499999999999
 20
-0.0209283164799812
 30
0.0
 11
-61.02499999999999
 21
10.13907168352003
 31
0.0
  0
LINE
  5
C9
330
1F
100
AcDbEntity
  8
외형선
  6
Continuous
370
    15
100
AcDbLine
 10
-61.02499999999999
 20
-10.18092831647999
 30
0.0
 11
-61.02499999999999
 21
-0.0209283164799812
 31
0.0
  0
SPLINE
  5
CA
330
1F
100
AcDbEntity
  8
외형선
  6
Continuous
370
    15
100
AcDbSpline
210
0.0
220
0.0
230
1.0
 70
    24
 71
     3
 72
    22
 73
    18
 74
     0
 42
0.000000001
 43
0.00000001
 40
0.0
 40
0.0
 40
0.0
 40
0.0
 40
0.0286033463041933
 40
0.0995829260655392
 40
0.1705625058268853
 40
0.2415420855882311
 40
0.3125216653495769
 40
0.3835012451109225
 40
0.454480824872268
 40
0.5254604046336141
 40
0.59643998439496
 40
0.6674195641563064
 40
0.7383991439176527
 40
0.8093787236789948
 40
0.8803583034403366
 40
0.9513378832016853
 40
1.0
 40
1.0
 40
1.0
 40
1.0
 10
12.00000000000001
 20
-9.773612891247293
 30
0.0
 10
12.00000000000001
 20
-9.699980206370597
 30
0.0
 10
12.00000000000001
 20
-9.443627046285677
 30
0.0
 10
12.0
 20
-8.933077068449972
 30
0.0
 10
12.00000000000006
 20
-8.213575984900494
 30
0.0
 10
11.99999999999997
 20
-7.422999588302643
 30
0.0
 10
12.00000000000004
 20
-6.587793980240959
 30
0.0
 10
12.00000000000001
 20
-5.729821842076969
 30
0.0
 10
12.00000000000007
 20
-4.873972885100504
 30
0.0
 10
12.00000000000003
 20
-4.045089432934284
 30
0.0
 10
11.99999999999997
 20
-3.265171216295704
 30
0.0
 10
12.0
 20
-2.558737747820706
 30
0.0
 10
12.00000000000007
 20
-1.942952617867298
 30
0.0
 10
12.00000000000003
 20
-1.437613236874479
 30
0.0
 10
12.00000000000007
 20
-1.059117455898318
 30
0.0
 10
12.00000000000001
 20
-0.8252967581418574
 30
0.0
 10
12.00000000000001
 20
-0.7801729358392577
 30
0.0
 10
12.00000000000001
 20
-0.7618196294718537
 30
0.0
  0
SPLINE
  5
CB
330
1F
100
AcDbEntity
  8
외형선
  6
Continuous
370
    15
100
AcDbSpline
210
0.0
220
0.0
230
1.0
 70
    24
 71
     3
 72
    16
 73
    12
 74
     0
 42
0.000000001
 43
0.00000001
 40
0.0
 40
0.0
 40
0.0
 40
0.0
 40
0.0291610571498962
 40
0.1391203610787674
 40
0.2490796650076388
 40
0.3590389689365103
 40
0.4689982728653749
 40
0.5789575767942396
 40
0.6889168807231151
 40
0.7988761846519903
 40
0.9999999999999999
 40
0.9999999999999999
 40
0.9999999999999999
 40
0.9999999999999999
 10
12.00000000000003
 20
4.826620342733087
 30
0.0
 10
12.00000000000001
 20
4.86730077629869
 30
0.0
 10
12.0
 20
5.061377300253085
 30
0.0
 10
11.99999999999996
 20
5.52416696453929
 30
0.0
 10
12.00000000000001
 20
6.201529120575551
 30
0.0
 10
12.00000000000003
 20
6.964469362477938
 30
0.0
 10
12.00000000000006
 20
7.782162954618028
 30
0.0
 10
12.00000000000004
 20
8.633309857271207
 30
0.0
 10
12.00000000000003
 20
9.491541001689772
 30
0.0
 10
12.00000000000003
 20
10.57595917826079
 30
0.0
 10
12.00000000000003
 20
11.2905888261189
 30
0.0
 10
12.00000000000004
 20
11.75261660079252
 30
0.0
  0
LINE
  5
CC
330
1F
100
AcDbEntity
  8
중심선
 62
     1
100
AcDbLine
 10
-64.02499999999999
 20
-0.0000000000000006
 30
0.0
 11
119.775
 21
-0.0000000000000006
 31
0.0
  0
LINE
  5
CD
330
1F
100
AcDbEntity
  8
참조1
100
AcDbLine
 10
-26.10051336755627
 20
-2.498925071276081
 30
0.0
 11
-26.10051336755626
 21
-39.9989250712761
 31
0.0
  0
LINE
  5
CE
330
1F
100
AcDbEntity
  8
참조1
100
AcDbLine
 10
-26.10051336755626
 20
-39.9989250712761
 30
0.0
 11
-41.25885681430871
 21
-39.9989250712761
 31
0.0
  0
CIRCLE
  5
CF
330
1F
100
AcDbEntity
  8
해칭선
100
AcDbCircle
 10
0.0
 20
0.0
 30
0.0
 40
3.000000000000004
  0
INSERT
  5
D0
330
1F
100
AcDbEntity
  8
0
  6
Continuous
 62
     7
100
AcDbBlockReference
 66
     1
  2
블럭10
 10
15.82353158588865
 20
-52.04717430164393
 30
0.0
  0
ATTRIB
  5
D1
330
D0
100
AcDbEntity
  8
FORMAT
 62
     2
100
AcDbText
 10
6.642236297147377
 20
-49.97180738881174
 30
0.0
 40
4.233333333333333
  1
E5073064 [ 5 FLUTE ]
 41
0.75
  7
SLDTEXTSTYLE0
 11
6.642236297147377
 21
-52.08847405547841
 31
0.0
100
AcDbAttribute
  2
AUTOATTR0
 70
     0
 74
     1
  0
SEQEND
  5
D2
330
D0
100
AcDbEntity
  8
0
  6
Continuous
 62
     7
  0
HATCH
  5
D3
330
1F
100
AcDbEntity
  8
중심선
100
AcDbHatch
 10
0.0
 20
0.0
 30
0.0
210
0.0
220
0.0
230
1.0
  2
SOLID
 70
     1
 71
     0
 91
        1
 92
        0
 93
        4
 72
     1
 10
21.53844089026951
 20
-35.79999999999999
 11
18.09216564643222
 21
-35.79999999999999
 72
     1
 10
18.09216564643222
 20
-35.79999999999999
 11
15.9639357872282
 21
-38.33632558057259
 72
     1
 10
15.9639357872282
 20
-38.33632558057259
 11
19.41024411617863
 21
-38.3362861512701
 72
     1
 10
19.41024411617863
 20
-38.3362861512701
 11
21.53844089026951
 21
-35.79999999999999
 97
        0
 75
     0
 76
     1
 98
        1
 10
55.86431788557013
 20
-0.0010749287238898
  0
HATCH
  5
D4
330
1F
100
AcDbEntity
  8
중심선
100
AcDbHatch
 10
0.0
 20
0.0
 30
0.0
210
0.0
220
0.0
230
1.0
  2
SOLID
 70
     1
 71
     0
 91
        1
 92
        0
 93
        4
 72
     1
 10
26.55120488130546
 20
-35.79999999999999
 11
23.10492963746818
 21
-35.79999999999999
 72
     1
 10
23.10492963746817
 20
-35.79999999999999
 11
18.57379162911079
 21
-41.20000000000001
 72
     1
 10
18.57379162911079
 20
-41.20000000000001
 11
22.02006687294807
 21
-41.20000000000001
 72
     1
 10
22.02006687294807
 20
-41.20000000000001
 11
26.55120488130546
 21
-35.79999999999999
 97
        0
 75
     0
 76
     1
 98
        1
 10
55.86431788557013
 20
-0.0010749287238898
  0
HATCH
  5
D5
330
1F
100
AcDbEntity
  8
중심선
100
AcDbHatch
 10
0.0
 20
0.0
 30
0.0
210
0.0
220
0.0
230
1.0
  2
SOLID
 70
     1
 71
     0
 91
        1
 92
        0
 93
        4
 72
     1
 10
31.56396887234136
 20
-35.80000000000002
 11
28.11769362850424
 21
-35.79999999999999
 72
     1
 10
28.11769362850424
 20
-35.79999999999999
 11
21.06925672661499
 21
-44.20000000000001
 72
     1
 10
21.06925672661499
 20
-44.20000000000001
 11
24.51553197045227
 21
-44.20000000000001
 72
     1
 10
24.51553197045227
 20
-44.20000000000001
 11
31.56396887234136
 21
-35.80000000000002
 97
        0
 75
     0
 76
     1
 98
        1
 10
55.86431788557013
 20
-0.0010749287238898
  0
HATCH
  5
D6
330
1F
100
AcDbEntity
  8
중심선
100
AcDbHatch
 10
0.0
 20
0.0
 30
0.0
210
0.0
220
0.0
230
1.0
  2
SOLID
 70
     1
 71
     0
 91
        1
 92
        0
 93
        6
 72
     3
 10
36.36385930335356
 20
-40.00000000005127
 11
3.960054785062283
 21
1.540882976769353E-10
 40
0.3939339440162628
 50
17.09539180608439
 51
320.0019657685081
 73
     0
 72
     1
 10
38.04685895905415
 20
-38.58789400463829
 11
40.35216083275519
 21
-36.65356729459037
 72
     3
 10
36.36385930330071
 20
-40.00000000000014
 11
6.600054785286829
 21
-1.278976924368180E-13
 40
0.636358354079598
 50
39.99873849337413
 51
368.4976242363725
 73
     1
 72
     1
 10
42.78919179520132
 20
-39.03999999993002
 11
35.04392661013663
 21
-39.03999999992999
 72
     1
 10
35.04392661013663
 20
-39.03999999992999
 11
35.0439015656907
 21
-40.95999999992991
 72
     1
 10
35.0439015656907
 20
-40.95999999992991
 11
39.48528133516274
 21
-40.95999999992988
 97
        0
 75
     0
 76
     1
 98
        1
 10
55.86431788557013
 20
-0.0010749287238898
  0
DIMENSION
  5
D7
330
1F
100
AcDbEntity
  8
치수문자_일반주서
100
AcDbDimension
  2
_D
 10
-72.27874999999987
 20
-12.72092831648003
 30
0.0
 11
-72.27875000000003
 21
32.30407168351996
 31
0.0
 70
   160
  1
%%c<>
 71
     2
 42
25.39999999999998
 52
-270.0
  3
SLDDIMSTYLE2
100
AcDbAlignedDimension
 13
-58.48500000000001
 23
12.67907168352001
 33
0.0
 14
-58.48500000000001
 24
-12.72092831647997
 34
0.0
 50
90.0000000000002
100
AcDbRotatedDimension
1001
ACAD
1000
DSTYLE
1002
{
1070
   171
1070
     6
1070
   273
1070
     5
1070
    41
1040
4.0
1070
   140
1040
4.0
1002
}
  0
DIMENSION
  5
EC
330
1F
100
AcDbEntity
  8
치수문자_일반주서
100
AcDbDimension
  2
_D_1
 10
142.8848716828626
 20
-12.72092831647988
 30
0.0
 11
142.8848716828624
 21
33.30407168352005
 31
0.0
 70
   160
  1
%%c<>
 71
     2
 42
25.4
 52
-270.0
  3
SLDDIMSTYLE2
100
AcDbAlignedDimension
 13
116.775
 23
12.67907168352002
 33
0.0
 14
116.775
 24
-12.72092831647998
 34
0.0
 50
90.0000000000002
100
AcDbRotatedDimension
1001
ACAD
1000
DSTYLE
1002
{
1070
   171
1070
     6
1070
   273
1070
     5
1070
    41
1040
4.0
1070
   140
1040
4.0
1002
}
  0
DIMENSION
  5
100
330
1F
100
AcDbEntity
  8
치수문자_일반주서
100
AcDbDimension
  2
_D_2
 10
12.00000000000001
 20
23.28684290496399
 30
0.0
 11
64.38750000000005
 21
23.28684290496399
 31
0.0
 70
   160
  1
<>
 71
     2
 42
104.775
  3
SLDDIMSTYLE2
100
AcDbAlignedDimension
 13
116.775
 23
12.58639408000511
 33
0.0
 14
12.00000000000001
 24
12.67907168352002
 34
0.0
 50
0.0000000000000661
100
AcDbRotatedDimension
1001
ACAD
1000
DSTYLE
1002
{
1070
   171
1070
     6
1070
   273
1070
     5
1070
    41
1040
4.0
1070
   140
1040
4.0
1002
}
  0
DIMENSION
  5
113
330
1F
100
AcDbEntity
  8
치수문자_일반주서
100
AcDbDimension
  2
_D_3
 10
-61.02499999999999
 20
35.28684290496405
 30
0.0
 11
26.28123343661277
 21
35.28684290496405
 31
0.0
 70
   160
  1
<>
 71
     2
 42
177.8
  3
SLDDIMSTYLE2
100
AcDbAlignedDimension
 13
116.775
 23
12.58639408000511
 33
0.0
 14
-61.02499999999999
 24
10.13907168352002
 34
0.0
 50
0.0000000000000046
100
AcDbRotatedDimension
1001
ACAD
1000
DSTYLE
1002
{
1070
   171
1070
     6
1070
   273
1070
     5
1070
    41
1040
4.0
1070
   140
1040
4.0
1002
}
  0
LINE
  5
127
330
1F
100
AcDbEntity
  8
참조1
100
AcDbLine
 10
56.71348381534555
 20
7.441074928723896
 30
0.0
 11
56.71348381534555
 21
-7.438925071276109
 31
0.0
  0
LINE
  5
128
330
1F
100
AcDbEntity
  8
참조1
100
AcDbLine
 10
69.41348381534556
 20
5.441074928723896
 30
0.0
 11
56.71348381534555
 21
5.441074928723896
 31
0.0
  0
SOLID
  5
129
330
1F
100
AcDbEntity
  8
참조1
100
AcDbTrace
 10
56.71348381534555
 20
5.441074928723896
 30
0.0
 11
63.06348381534555
 21
4.425074928723896
 31
0.0
 12
63.06348381534555
 22
6.457074928723896
 32
0.0
 13
63.06348381534555
 23
6.457074928723896
 33
0.0
  0
LINE
  5
12A
330
1F
100
AcDbEntity
  8
참조1
100
AcDbLine
 10
69.41348381534556
 20
-5.438925071276109
 30
0.0
 11
56.71348381534555
 21
-5.438925071276109
 31
0.0
  0
SOLID
  5
12B
330
1F
100
AcDbEntity
  8
참조1
100
AcDbTrace
 10
56.71348381534555
 20
-5.438925071276109
 30
0.0
 11
63.06348381534555
 21
-6.454925071276109
 31
0.0
 12
63.06348381534555
 22
-4.422925071276109
 32
0.0
 13
63.06348381534555
 23
-4.422925071276109
 33
0.0
  0
MTEXT
  5
12C
330
1F
100
AcDbEntity
  8
참조1
100
AcDbMText
 10
66.31359862590811
 20
11.06679249473997
 30
0.0
 40
3.5
 41
0.0
 71
     1
 72
     1
  1
A
  7
SLDTEXTSTYLE0
 73
     1
 44
1.0
  0
MTEXT
  5
12D
330
1F
100
AcDbEntity
  8
참조1
100
AcDbMText
 10
66.31359862590811
 20
0.1867924947399659
 30
0.0
 40
3.5
 41
0.0
 71
     1
 72
     1
  1
A
  7
SLDTEXTSTYLE0
 73
     1
 44
1.0
  0
INSERT
  5
134
330
1F
100
AcDbEntity
  8
해칭선
100
AcDbBlockReference
  2
SW_DOWELSYMBOL_0
 10
0.0
 20
0.0
 30
0.0
  0
ENDSEC
  0
SECTION
  2
OBJECTS
  0
DICTIONARY
  5
C
330
0
100
AcDbDictionary
281
     1
  3
ACAD_GROUP
350
D
  3
ACAD_IMAGE_VARS
350
158
  3
ACAD_LAYOUT
350
1A
  3
ACAD_MLINESTYLE
350
17
  3
ACAD_PLOTSETTINGS
350
19
  3
ACAD_PLOTSTYLENAME
350
E
  3
ACAD_SCALELIST
350
47
  3
APPDATA
350
156
  3
DWGPROPS
350
2CD
  0
DICTIONARY
  5
212
330
2
100
AcDbDictionary
280
     1
281
     1
  3
ACAD_LAYERSTATES
360
213
  0
DICTIONARY
  5
D
102
{ACAD_REACTORS
330
C
102
}
330
C
100
AcDbDictionary
281
     1
  0
RASTERVARIABLES
  5
158
102
{ACAD_REACTORS
330
C
102
}
330
C
100
AcDbRasterVariables
 90
        0
 70
     1
 71
     1
 72
     1
  0
DICTIONARY
  5
1A
102
{ACAD_REACTORS
330
C
102
}
330
C
100
AcDbDictionary
281
     1
  3
Layout1
350
1E
  3
Layout2
350
26
  3
Model
350
22
  0
DICTIONARY
  5
17
102
{ACAD_REACTORS
330
C
102
}
330
C
100
AcDbDictionary
281
     1
  3
Standard
350
18
  0
DICTIONARY
  5
19
102
{ACAD_REACTORS
330
C
102
}
330
C
100
AcDbDictionary
281
     1
  0
ACDBDICTIONARYWDFLT
  5
E
102
{ACAD_REACTORS
330
C
102
}
330
C
100
AcDbDictionary
281
     1
  3
Normal
350
F
100
AcDbDictionaryWithDefault
340
F
  0
DICTIONARY
  5
47
102
{ACAD_REACTORS
330
C
102
}
330
C
100
AcDbDictionary
281
     1
  3
A0
350
48
  3
A1
350
49
  3
A2
350
4A
  3
A3
350
4B
  3
A4
350
4C
  3
A5
350
4D
  3
A6
350
4E
  3
A7
350
4F
  3
A8
350
50
  3
A9
350
51
  3
B0
350
52
  3
B1
350
53
  3
B2
350
54
  3
B3
350
55
  3
B4
350
56
  3
B5
350
57
  3
B6
350
58
  3
B7
350
59
  3
B8
350
5A
  3
B9
350
5B
  3
C0
350
5C
  3
C1
350
5D
  3
C2
350
5E
  3
C3
350
5F
  3
C4
350
60
  3
C5
350
61
  3
C6
350
62
  3
C7
350
63
  3
C8
350
64
  3
C9
350
65
  3
D0
350
66
  3
D1
350
67
  3
D2
350
68
  0
DICTIONARY
  5
156
102
{ACAD_REACTORS
330
C
102
}
330
C
100
AcDbDictionary
281
     1
  0
XRECORD
  5
2CD
102
{ACAD_REACTORS
330
C
102
}
330
C
100
AcDbXrecord
280
     1
  1
DWGPROPS COOKIE
  2

  3

  4

  6

  7

  8
12014074
  9

300
=
301
=
302
=
303
=
304
=
305
=
306
=
307
=
308
=
309
=
 40
0.0
 41
2458323.966174803
 42
2458324.201315833
  1

 90
        0
  0
DICTIONARY
  5
213
102
{ACAD_REACTORS
330
212
102
}
330
212
100
AcDbDictionary
281
     1
  0
LAYOUT
  5
1E
102
{ACAD_REACTORS
330
1A
102
}
330
1A
100
AcDbPlotSettings
  1

  2
none_device
  4

  6

 40
0.0
 41
0.0
 42
0.0
 43
0.0
 44
0.0
 45
0.0
 46
0.0
 47
0.0
 48
0.0
 49
0.0
140
0.0
141
0.0
142
1.0
143
1.0
 70
   688
 72
     1
 73
     0
 74
     5
  7

 75
    16
147
1.0
148
0.0
149
0.0
100
AcDbLayout
  1
Layout1
 70
     1
 71
     1
 10
0.0
 20
0.0
 11
420.0
 21
297.0
 12
0.0
 22
0.0
 32
0.0
 14
1.000000000000000E+20
 24
1.000000000000000E+20
 34
1.000000000000000E+20
 15
-1.000000000000000E+20
 25
-1.000000000000000E+20
 35
-1.000000000000000E+20
146
0.0
 13
0.0
 23
0.0
 33
0.0
 16
1.0
 26
0.0
 36
0.0
 17
0.0
 27
1.0
 37
0.0
 76
     0
330
1B
  0
LAYOUT
  5
26
102
{ACAD_REACTORS
330
1A
102
}
330
1A
100
AcDbPlotSettings
  1

  2
none_device
  4

  6

 40
0.0
 41
0.0
 42
0.0
 43
0.0
 44
0.0
 45
0.0
 46
0.0
 47
0.0
 48
0.0
 49
0.0
140
0.0
141
0.0
142
1.0
143
1.0
 70
   688
 72
     1
 73
     0
 74
     5
  7

 75
    16
147
1.0
148
0.0
149
0.0
100
AcDbLayout
  1
Layout2
 70
     1
 71
     2
 10
0.0
 20
0.0
 11
0.0
 21
0.0
 12
0.0
 22
0.0
 32
0.0
 14
0.0
 24
0.0
 34
0.0
 15
0.0
 25
0.0
 35
0.0
146
0.0
 13
0.0
 23
0.0
 33
0.0
 16
1.0
 26
0.0
 36
0.0
 17
0.0
 27
1.0
 37
0.0
 76
     0
330
23
  0
LAYOUT
  5
22
102
{ACAD_REACTORS
330
1A
102
}
330
1A
100
AcDbPlotSettings
  1

  2
none_device
  4
ANSI_A_(11.00_x_8.50_Inches)
  6

 40
6.35
 41
19.05
 42
6.35000508
 43
19.05000254
 44
279.4
 45
215.9
 46
125.7210111130511
 47
91.9598812379947
 48
0.0
 49
0.0
140
0.0
141
0.0
142
0.0519941519745427
143
1.0
 70
  1696
 72
     0
 73
     0
 74
     0
  7

 75
     0
147
0.0235690232323232
148
0.0
149
0.0
100
AcDbLayout
  1
Model
 70
     1
 71
     0
 10
0.0
 20
0.0
 11
420.0
 21
297.0
 12
0.0
 22
0.0
 32
0.0
 14
1.000000000000000E+20
 24
1.000000000000000E+20
 34
1.000000000000000E+20
 15
-1.000000000000000E+20
 25
-1.000000000000000E+20
 35
-1.000000000000000E+20
146
0.0
 13
0.0
 23
0.0
 33
0.0
 16
1.0
 26
0.0
 36
0.0
 17
0.0
 27
1.0
 37
0.0
 76
     0
330
1F
331
29
  0
MLINESTYLE
  5
18
102
{ACAD_REACTORS
330
17
102
}
330
17
100
AcDbMlineStyle
  2
Standard
 70
     0
  3

 62
   256
 51
90.0
 52
90.0
 71
     2
 49
0.5
 62
   256
  6
BYLAYER
 49
-0.5
 62
   256
  6
BYLAYER
  0
ACDBPLACEHOLDER
  5
F
102
{ACAD_REACTORS
330
E
102
}
330
E
  0
SCALE
  5
48
102
{ACAD_REACTORS
330
47
102
}
330
47
100
AcDbScale
 70
     0
300
1:1
140
1.0
141
1.0
290
     1
  0
SCALE
  5
49
102
{ACAD_REACTORS
330
47
102
}
330
47
100
AcDbScale
 70
     0
300
1:2
140
1.0
141
2.0
290
     0
  0
SCALE
  5
4A
102
{ACAD_REACTORS
330
47
102
}
330
47
100
AcDbScale
 70
     0
300
1:4
140
1.0
141
4.0
290
     0
  0
SCALE
  5
4B
102
{ACAD_REACTORS
330
47
102
}
330
47
100
AcDbScale
 70
     0
300
1:5
140
1.0
141
5.0
290
     0
  0
SCALE
  5
4C
102
{ACAD_REACTORS
330
47
102
}
330
47
100
AcDbScale
 70
     0
300
1:8
140
1.0
141
8.0
290
     0
  0
SCALE
  5
4D
102
{ACAD_REACTORS
330
47
102
}
330
47
100
AcDbScale
 70
     0
300
1:10
140
1.0
141
10.0
290
     0
  0
SCALE
  5
4E
102
{ACAD_REACTORS
330
47
102
}
330
47
100
AcDbScale
 70
     0
300
1:16
140
1.0
141
16.0
290
     0
  0
SCALE
  5
4F
102
{ACAD_REACTORS
330
47
102
}
330
47
100
AcDbScale
 70
     0
300
1:20
140
1.0
141
20.0
290
     0
  0
SCALE
  5
50
102
{ACAD_REACTORS
330
47
102
}
330
47
100
AcDbScale
 70
     0
300
1:30
140
1.0
141
30.0
290
     0
  0
SCALE
  5
51
102
{ACAD_REACTORS
330
47
102
}
330
47
100
AcDbScale
 70
     0
300
1:40
140
1.0
141
40.0
290
     0
  0
SCALE
  5
52
102
{ACAD_REACTORS
330
47
102
}
330
47
100
AcDbScale
 70
     0
300
1:50
140
1.0
141
50.0
290
     0
  0
SCALE
  5
53
102
{ACAD_REACTORS
330
47
102
}
330
47
100
AcDbScale
 70
     0
300
1:100
140
1.0
141
100.0
290
     0
  0
SCALE
  5
54
102
{ACAD_REACTORS
330
47
102
}
330
47
100
AcDbScale
 70
     0
300
2:1
140
2.0
141
1.0
290
     0
  0
SCALE
  5
55
102
{ACAD_REACTORS
330
47
102
}
330
47
100
AcDbScale
 70
     0
300
4:1
140
4.0
141
1.0
290
     0
  0
SCALE
  5
56
102
{ACAD_REACTORS
330
47
102
}
330
47
100
AcDbScale
 70
     0
300
8:1
140
8.0
141
1.0
290
     0
  0
SCALE
  5
57
102
{ACAD_REACTORS
330
47
102
}
330
47
100
AcDbScale
 70
     0
300
10:1
140
10.0
141
1.0
290
     0
  0
SCALE
  5
58
102
{ACAD_REACTORS
330
47
102
}
330
47
100
AcDbScale
 70
     0
300
100:1
140
100.0
141
1.0
290
     0
  0
SCALE
  5
59
102
{ACAD_REACTORS
330
47
102
}
330
47
100
AcDbScale
 70
     0
300
1/128" = 1'-0"
140
0.0078125
141
12.0
290
     0
  0
SCALE
  5
5A
102
{ACAD_REACTORS
330
47
102
}
330
47
100
AcDbScale
 70
     0
300
1/64" = 1'-0"
140
0.015625
141
12.0
290
     0
  0
SCALE
  5
5B
102
{ACAD_REACTORS
330
47
102
}
330
47
100
AcDbScale
 70
     0
300
1/32" = 1'-0"
140
0.03125
141
12.0
290
     0
  0
SCALE
  5
5C
102
{ACAD_REACTORS
330
47
102
}
330
47
100
AcDbScale
 70
     0
300
1/16" = 1'-0"
140
0.0625
141
12.0
290
     0
  0
SCALE
  5
5D
102
{ACAD_REACTORS
330
47
102
}
330
47
100
AcDbScale
 70
     0
300
3/32" = 1'-0"
140
0.09375
141
12.0
290
     0
  0
SCALE
  5
5E
102
{ACAD_REACTORS
330
47
102
}
330
47
100
AcDbScale
 70
     0
300
1/8" = 1'-0"
140
0.125
141
12.0
290
     0
  0
SCALE
  5
5F
102
{ACAD_REACTORS
330
47
102
}
330
47
100
AcDbScale
 70
     0
300
3/16" = 1'-0"
140
0.1875
141
12.0
290
     0
  0
SCALE
  5
60
102
{ACAD_REACTORS
330
47
102
}
330
47
100
AcDbScale
 70
     0
300
1/4" = 1'-0"
140
0.25
141
12.0
290
     0
  0
SCALE
  5
61
102
{ACAD_REACTORS
330
47
102
}
330
47
100
AcDbScale
 70
     0
300
3/8" = 1'-0"
140
0.375
141
12.0
290
     0
  0
SCALE
  5
62
102
{ACAD_REACTORS
330
47
102
}
330
47
100
AcDbScale
 70
     0
300
1/2" = 1'-0"
140
0.5
141
12.0
290
     0
  0
SCALE
  5
63
102
{ACAD_REACTORS
330
47
102
}
330
47
100
AcDbScale
 70
     0
300
3/4" = 1'-0"
140
0.75
141
12.0
290
     0
  0
SCALE
  5
64
102
{ACAD_REACTORS
330
47
102
}
330
47
100
AcDbScale
 70
     0
300
1" = 1'-0"
140
1.0
141
12.0
290
     0
  0
SCALE
  5
65
102
{ACAD_REACTORS
330
47
102
}
330
47
100
AcDbScale
 70
     0
300
1-1/2" = 1'-0"
140
1.5
141
12.0
290
     0
  0
SCALE
  5
66
102
{ACAD_REACTORS
330
47
102
}
330
47
100
AcDbScale
 70
     0
300
3" = 1'-0"
140
3.0
141
12.0
290
     0
  0
SCALE
  5
67
102
{ACAD_REACTORS
330
47
102
}
330
47
100
AcDbScale
 70
     0
300
6" = 1'-0"
140
6.0
141
12.0
290
     0
  0
SCALE
  5
68
102
{ACAD_REACTORS
330
47
102
}
330
47
100
AcDbScale
 70
     0
300
1'-0" = 1'-0"
140
12.0
141
12.0
290
     0
  0
ENDSEC
  0
EOF
