  0
SECTION
  2
HEADER
  9
$ACADVER
  1
AC1015
  9
$ACADMAINTVER
 70
     6
  9
$DWGCODEPAGE
  3
ANSI_949
  9
$INSBASE
 10
0.0
 20
0.0
 30
0.0
  9
$EXTMIN
 10
-74.01831122566855
 20
-49.97180738881174
 30
0.0
  9
$EXTMAX
 10
38.24079578692614
 20
44.24128320781314
 30
0.0
  9
$LIMMIN
 10
0.0
 20
0.0
  9
$LIMMAX
 10
420.0
 20
297.0
  9
$ORTHOMODE
 70
     0
  9
$REGENMODE
 70
     1
  9
$FILLMODE
 70
     1
  9
$QTEXTMODE
 70
     0
  9
$MIRRTEXT
 70
     1
  9
$LTSCALE
 40
1.0
  9
$ATTMODE
 70
     1
  9
$TEXTSIZE
 40
3.5
  9
$TRACEWID
 40
1.0
  9
$TEXTSTYLE
  7
Standard
  9
$CLAYER
  8
0
  9
$CELTYPE
  6
ByLayer
  9
$CECOLOR
 62
   256
  9
$CELTSCALE
 40
1.0
  9
$DISPSILH
 70
     0
  9
$DIMSCALE
 40
1.0
  9
$DIMASZ
 40
3.302
  9
$DIMEXO
 40
1.0
  9
$DIMDLI
 40
3.75
  9
$DIMRND
 40
0.0
  9
$DIMDLE
 40
0.0
  9
$DIMEXE
 40
1.0
  9
$DIMTP
 40
0.0
  9
$DIMTM
 40
0.0
  9
$DIMTXT
 40
3.5
  9
$DIMCEN
 40
2.5
  9
$DIMTSZ
 40
0.0
  9
$DIMTOL
 70
     0
  9
$DIMLIM
 70
     0
  9
$DIMTIH
 70
     1
  9
$DIMTOH
 70
     1
  9
$DIMSE1
 70
     0
  9
$DIMSE2
 70
     0
  9
$DIMTAD
 70
     1
  9
$DIMZIN
 70
     0
  9
$DIMBLK
  1

  9
$DIMASO
 70
     1
  9
$DIMSHO
 70
     1
  9
$DIMPOST
  1

  9
$DIMAPOST
  1

  9
$DIMALT
 70
     0
  9
$DIMALTD
 70
     3
  9
$DIMALTF
 40
0.0393700787401575
  9
$DIMLFAC
 40
1.0
  9
$DIMTOFL
 70
     1
  9
$DIMTVP
 40
0.0
  9
$DIMTIX
 70
     0
  9
$DIMSOXD
 70
     0
  9
$DIMSAH
 70
     0
  9
$DIMBLK1
  1

  9
$DIMBLK2
  1

  9
$DIMSTYLE
  2
ISO-25
  9
$DIMCLRD
 70
     0
  9
$DIMCLRE
 70
     0
  9
$DIMCLRT
 70
     0
  9
$DIMTFAC
 40
1.0
  9
$DIMGAP
 40
1.524
  9
$DIMJUST
 70
     0
  9
$DIMSD1
 70
     0
  9
$DIMSD2
 70
     0
  9
$DIMTOLJ
 70
     0
  9
$DIMTZIN
 70
     0
  9
$DIMALTZ
 70
     0
  9
$DIMALTTZ
 70
     0
  9
$DIMUPT
 70
     0
  9
$DIMDEC
 70
     2
  9
$DIMTDEC
 70
     2
  9
$DIMALTU
 70
     2
  9
$DIMALTTD
 70
     3
  9
$DIMTXSTY
  7
Standard
  9
$DIMAUNIT
 70
     0
  9
$DIMADEC
 70
     2
  9
$DIMALTRND
 40
0.0
  9
$DIMAZIN
 70
     0
  9
$DIMDSEP
 70
    44
  9
$DIMATFIT
 70
     3
  9
$DIMFRAC
 70
     0
  9
$DIMLDRBLK
  1

  9
$DIMLUNIT
 70
     2
  9
$DIMLWD
 70
    -2
  9
$DIMLWE
 70
    -2
  9
$DIMTMOVE
 70
     0
  9
$LUNITS
 70
     2
  9
$LUPREC
 70
     2
  9
$SKETCHINC
 40
1.0
  9
$FILLETRAD
 40
10.0
  9
$AUNITS
 70
     0
  9
$AUPREC
 70
     2
  9
$MENU
  1
.
  9
$ELEVATION
 40
0.0
  9
$PELEVATION
 40
0.0
  9
$THICKNESS
 40
0.0
  9
$LIMCHECK
 70
     0
  9
$CHAMFERA
 40
0.0
  9
$CHAMFERB
 40
0.0
  9
$CHAMFERC
 40
0.0
  9
$CHAMFERD
 40
0.0
  9
$SKPOLY
 70
     0
  9
$TDCREATE
 40
2458333.731125498
  9
$TDUCREATE
 40
2458333.356125498
  9
$TDUPDATE
 40
2458339.621577268
  9
$TDUUPDATE
 40
2458339.246577268
  9
$TDINDWG
 40
0.0013583333
  9
$TDUSRTIMER
 40
2458339.244537419
  9
$USRTIMER
 70
     1
  9
$ANGBASE
 50
0.0
  9
$ANGDIR
 70
     0
  9
$PDMODE
 70
     0
  9
$PDSIZE
 40
-1.0
  9
$PLINEWID
 40
0.0
  9
$SPLFRAME
 70
     0
  9
$SPLINETYPE
 70
     6
  9
$SPLINESEGS
 70
     8
  9
$HANDSEED
  5
183
  9
$SURFTAB1
 70
     6
  9
$SURFTAB2
 70
     6
  9
$SURFTYPE
 70
     6
  9
$SURFU
 70
     6
  9
$SURFV
 70
     6
  9
$UCSBASE
  2

  9
$UCSNAME
  2

  9
$UCSORG
 10
0.0
 20
0.0
 30
0.0
  9
$UCSXDIR
 10
1.0
 20
0.0
 30
0.0
  9
$UCSYDIR
 10
0.0
 20
1.0
 30
0.0
  9
$UCSORTHOREF
  2

  9
$UCSORTHOVIEW
 70
     0
  9
$UCSORGTOP
 10
0.0
 20
0.0
 30
0.0
  9
$UCSORGBOTTOM
 10
0.0
 20
0.0
 30
0.0
  9
$UCSORGLEFT
 10
0.0
 20
0.0
 30
0.0
  9
$UCSORGRIGHT
 10
0.0
 20
0.0
 30
0.0
  9
$UCSORGFRONT
 10
0.0
 20
0.0
 30
0.0
  9
$UCSORGBACK
 10
0.0
 20
0.0
 30
0.0
  9
$PUCSBASE
  2

  9
$PUCSNAME
  2

  9
$PUCSORG
 10
0.0
 20
0.0
 30
0.0
  9
$PUCSXDIR
 10
1.0
 20
0.0
 30
0.0
  9
$PUCSYDIR
 10
0.0
 20
1.0
 30
0.0
  9
$PUCSORTHOREF
  2

  9
$PUCSORTHOVIEW
 70
     0
  9
$PUCSORGTOP
 10
0.0
 20
0.0
 30
0.0
  9
$PUCSORGBOTTOM
 10
0.0
 20
0.0
 30
0.0
  9
$PUCSORGLEFT
 10
0.0
 20
0.0
 30
0.0
  9
$PUCSORGRIGHT
 10
0.0
 20
0.0
 30
0.0
  9
$PUCSORGFRONT
 10
0.0
 20
0.0
 30
0.0
  9
$PUCSORGBACK
 10
0.0
 20
0.0
 30
0.0
  9
$USERI1
 70
     0
  9
$USERI2
 70
     0
  9
$USERI3
 70
     0
  9
$USERI4
 70
     0
  9
$USERI5
 70
     0
  9
$USERR1
 40
0.0
  9
$USERR2
 40
0.0
  9
$USERR3
 40
0.0
  9
$USERR4
 40
0.0
  9
$USERR5
 40
0.0
  9
$WORLDVIEW
 70
     1
  9
$SHADEDGE
 70
     3
  9
$SHADEDIF
 70
    70
  9
$TILEMODE
 70
     1
  9
$MAXACTVP
 70
    64
  9
$PINSBASE
 10
0.0
 20
0.0
 30
0.0
  9
$PLIMCHECK
 70
     0
  9
$PEXTMIN
 10
1.000000000000000E+20
 20
1.000000000000000E+20
 30
1.000000000000000E+20
  9
$PEXTMAX
 10
-1.000000000000000E+20
 20
-1.000000000000000E+20
 30
-1.000000000000000E+20
  9
$PLIMMIN
 10
0.0
 20
0.0
  9
$PLIMMAX
 10
0.0
 20
0.0
  9
$UNITMODE
 70
     0
  9
$VISRETAIN
 70
     1
  9
$PLINEGEN
 70
     0
  9
$PSLTSCALE
 70
     1
  9
$TREEDEPTH
 70
  3020
  9
$CMLSTYLE
  2
Standard
  9
$CMLJUST
 70
     0
  9
$CMLSCALE
 40
20.0
  9
$PROXYGRAPHICS
 70
     1
  9
$MEASUREMENT
 70
     1
  9
$CELWEIGHT
370
    -1
  9
$ENDCAPS
280
     0
  9
$JOINSTYLE
280
     0
  9
$LWDISPLAY
290
     1
  9
$INSUNITS
 70
     4
  9
$HYPERLINKBASE
  1

  9
$STYLESHEET
  1

  9
$XEDIT
290
     1
  9
$CEPSNTYPE
380
     0
  9
$PSTYLEMODE
290
     1
  9
$FINGERPRINTGUID
  2
{D30879CD-53DA-4B96-91F1-04AF72E311AC}
  9
$VERSIONGUID
  2
{FAEB1C32-E019-11D5-929B-00C0DF256EC4}
  9
$EXTNAMES
290
     1
  9
$PSVPSCALE
 40
0.0
  9
$OLESTARTUP
290
     0
  0
ENDSEC
  0
SECTION
  2
CLASSES
  0
CLASS
  1
ACDBDICTIONARYWDFLT
  2
AcDbDictionaryWithDefault
  3
ObjectDBX Classes
 90
        0
280
     0
281
     0
  0
CLASS
  1
VISUALSTYLE
  2
AcDbVisualStyle
  3
ObjectDBX Classes
 90
     4095
280
     0
281
     0
  0
CLASS
  1
MATERIAL
  2
AcDbMaterial
  3
ObjectDBX Classes
 90
     1153
280
     0
281
     0
  0
CLASS
  1
SCALE
  2
AcDbScale
  3
ObjectDBX Classes
 90
     1153
280
     0
281
     0
  0
CLASS
  1
SUN
  2
AcDbSun
  3
SCENEOE
 90
     1153
280
     0
281
     0
  0
CLASS
  1
ACDBPLACEHOLDER
  2
AcDbPlaceHolder
  3
ObjectDBX Classes
 90
        0
280
     0
281
     0
  0
CLASS
  1
LAYOUT
  2
AcDbLayout
  3
ObjectDBX Classes
 90
        0
280
     0
281
     0
  0
CLASS
  1
TABLESTYLE
  2
AcDbTableStyle
  3
ObjectDBX Classes
 90
     4095
280
     0
281
     0
  0
CLASS
  1
MLEADERSTYLE
  2
AcDbMLeaderStyle
  3
ACDB_MLEADERSTYLE_CLASS
 90
     4095
280
     0
281
     0
  0
CLASS
  1
RASTERVARIABLES
  2
AcDbRasterVariables
  3
ISM
 90
        0
280
     0
281
     0
  0
CLASS
  1
DIMASSOC
  2
AcDbDimAssoc
  3
"AcDbDimAssoc|Product Desc:     AcDim ARX App For Dimension|Company:          Autodesk, Inc.|WEB Address:      www.autodesk.com"
 90
        0
280
     0
281
     0
  0
CLASS
  1
DICTIONARYVAR
  2
AcDbDictionaryVar
  3
ObjectDBX Classes
 90
        0
280
     0
281
     0
  0
ENDSEC
  0
SECTION
  2
TABLES
  0
TABLE
  2
VPORT
  5
8
330
0
100
AcDbSymbolTable
 70
     1
  0
VPORT
  5
29
330
8
100
AcDbSymbolTableRecord
100
AcDbViewportTableRecord
  2
*Active
 70
     0
 10
0.0
 20
0.0
 11
1.0
 21
1.0
 12
-10.03757319006526
 22
-7.734893075761207
 13
0.0
 23
0.0
 14
10.0
 24
10.0
 15
10.0
 25
10.0
 16
0.0
 26
0.0
 36
1.0
 17
0.0
 27
0.0
 37
0.0
 40
113.0842463478219
 41
1.435126582278481
 42
50.0
 43
0.0
 44
0.0
 50
0.0
 51
0.0
 71
    16
 72
  2000
 73
     1
 74
     3
 75
     0
 76
     0
 77
     0
 78
     0
281
     0
 65
     1
110
0.0
120
0.0
130
0.0
111
1.0
121
0.0
131
0.0
112
0.0
122
1.0
132
0.0
 79
     0
146
0.0
  0
ENDTAB
  0
TABLE
  2
LTYPE
  5
5
330
0
100
AcDbSymbolTable
 70
     6
  0
LTYPE
  5
14
330
5
100
AcDbSymbolTableRecord
100
AcDbLinetypeTableRecord
  2
ByBlock
 70
     0
  3

 72
    65
 73
     0
 40
0.0
  0
LTYPE
  5
15
330
5
100
AcDbSymbolTableRecord
100
AcDbLinetypeTableRecord
  2
ByLayer
 70
     0
  3

 72
    65
 73
     0
 40
0.0
  0
LTYPE
  5
16
330
5
100
AcDbSymbolTableRecord
100
AcDbLinetypeTableRecord
  2
Continuous
 70
     0
  3
Solid line
 72
    65
 73
     0
 40
0.0
  0
LTYPE
  5
6A
330
5
100
AcDbSymbolTableRecord
100
AcDbLinetypeTableRecord
  2
HIDDEN
 70
     0
  3
Hidden __ __ __ __ __ __ __ __ __ __ __ __ __ __
 72
    65
 73
     2
 40
1.905
 49
1.27
 74
     0
 49
-0.635
 74
     0
  0
LTYPE
  5
6B
330
5
100
AcDbSymbolTableRecord
100
AcDbLinetypeTableRecord
  2
PHANTOM
 70
     0
  3
Phantom ______  __  __  ______  __  __  ______
 72
    65
 73
     6
 40
12.7
 49
6.35
 74
     0
 49
-1.27
 74
     0
 49
1.27
 74
     0
 49
-1.27
 74
     0
 49
1.27
 74
     0
 49
-1.27
 74
     0
  0
LTYPE
  5
6C
330
5
100
AcDbSymbolTableRecord
100
AcDbLinetypeTableRecord
  2
CENTER
 70
     0
  3
Center ____ _ ____ _ ____ _ ____ _ ____ _ ____
 72
    65
 73
     4
 40
10.16
 49
6.35
 74
     0
 49
-1.27
 74
     0
 49
1.27
 74
     0
 49
-1.27
 74
     0
  0
LTYPE
  5
6D
330
5
100
AcDbSymbolTableRecord
100
AcDbLinetypeTableRecord
  2
CENTERX2
 70
     0
  3
Center (2x) ________  __  ________  __  _____
 72
    65
 73
     4
 40
20.32
 49
12.7
 74
     0
 49
-2.54
 74
     0
 49
2.54
 74
     0
 49
-2.54
 74
     0
  0
LTYPE
  5
6E
330
5
100
AcDbSymbolTableRecord
100
AcDbLinetypeTableRecord
  2
DOT2
 70
     0
  3
Dot (.5x) ........................................
 72
    65
 73
     2
 40
0.635
 49
0.0
 74
     0
 49
-0.635
 74
     0
  0
ENDTAB
  0
TABLE
  2
LAYER
  5
2
330
0
100
AcDbSymbolTable
 70
    17
  0
LAYER
  5
10
330
2
100
AcDbSymbolTableRecord
100
AcDbLayerTableRecord
  2
0
 70
     0
 62
     7
  6
Continuous
370
    -3
390
F
  0
LAYER
  5
6F
330
2
100
AcDbSymbolTableRecord
100
AcDbLayerTableRecord
  2
FORMAT
 70
     0
 62
     2
  6
Continuous
370
    -3
390
F
  0
LAYER
  5
70
330
2
100
AcDbSymbolTableRecord
100
AcDbLayerTableRecord
  2
외형선
 70
     0
 62
   100
  6
Continuous
370
    30
390
F
  0
LAYER
  5
71
330
2
100
AcDbSymbolTableRecord
100
AcDbLayerTableRecord
  2
숨은선
 70
     0
 62
     2
  6
HIDDEN
370
    15
390
F
  0
LAYER
  5
72
330
2
100
AcDbSymbolTableRecord
100
AcDbLayerTableRecord
  2
중심선
 70
     0
 62
     1
  6
CENTERX2
370
    -3
390
F
  0
LAYER
  5
73
330
2
100
AcDbSymbolTableRecord
100
AcDbLayerTableRecord
  2
파단선
 70
     0
 62
     4
  6
Continuous
370
    -3
390
F
  0
LAYER
  5
74
330
2
100
AcDbSymbolTableRecord
100
AcDbLayerTableRecord
  2
해칭선
 70
     0
 62
     4
  6
Continuous
370
    -3
390
F
  0
LAYER
  5
75
330
2
100
AcDbSymbolTableRecord
100
AcDbLayerTableRecord
  2
가는실선
 70
     0
 62
     4
  6
Continuous
370
    -3
390
F
  0
LAYER
  5
76
330
2
100
AcDbSymbolTableRecord
100
AcDbLayerTableRecord
  2
치수_보조선
 70
     0
 62
     4
  6
Continuous
370
    -3
390
F
  0
LAYER
  5
77
330
2
100
AcDbSymbolTableRecord
100
AcDbLayerTableRecord
  2
치수문자_일반주서
 70
     0
 62
     7
  6
Continuous
370
    15
390
F
  0
LAYER
  5
78
330
2
100
AcDbSymbolTableRecord
100
AcDbLayerTableRecord
  2
개별주서
 70
     0
 62
   100
  6
Continuous
370
    30
390
F
  0
LAYER
  5
79
330
2
100
AcDbSymbolTableRecord
100
AcDbLayerTableRecord
  2
중간선
 70
     0
 62
     2
  6
Continuous
370
    15
390
F
  0
LAYER
  5
7A
330
2
100
AcDbSymbolTableRecord
100
AcDbLayerTableRecord
  2
윤곽선
 70
     0
 62
     3
  6
Continuous
370
    40
390
F
  0
LAYER
  5
7B
330
2
100
AcDbSymbolTableRecord
100
AcDbLayerTableRecord
  2
중심마크
 70
     0
 62
   100
  6
Continuous
370
    30
390
F
  0
LAYER
  5
7C
330
2
100
AcDbSymbolTableRecord
100
AcDbLayerTableRecord
  2
가상선
 70
     0
 62
     4
  6
PHANTOM
370
    -3
390
F
  0
LAYER
  5
7D
330
2
100
AcDbSymbolTableRecord
100
AcDbLayerTableRecord
  2
특수지정선
 70
     0
 62
     5
  6
CENTERX2
370
    60
390
F
  0
LAYER
  5
13C
330
2
100
AcDbSymbolTableRecord
100
AcDbLayerTableRecord
  2
Defpoints
 70
     0
 62
     7
  6
Continuous
290
     0
370
    -3
390
F
  0
ENDTAB
  0
TABLE
  2
STYLE
  5
3
330
0
100
AcDbSymbolTable
 70
     2
  0
STYLE
  5
11
330
3
100
AcDbSymbolTableRecord
100
AcDbTextStyleTableRecord
  2
Standard
 70
     0
 40
0.0
 41
1.0
 50
0.0
 71
     0
 42
3.5
  3
txt
  4

  0
STYLE
  5
93
330
3
100
AcDbSymbolTableRecord
100
AcDbTextStyleTableRecord
  2
SLDTEXTSTYLE0
 70
     0
 40
0.0
 41
0.75
 50
0.0
 71
     0
 42
3.5
  3
TXT
  4

  0
ENDTAB
  0
TABLE
  2
VIEW
  5
6
330
0
100
AcDbSymbolTable
 70
     0
  0
ENDTAB
  0
TABLE
  2
UCS
  5
7
330
0
100
AcDbSymbolTable
 70
     0
  0
ENDTAB
  0
TABLE
  2
APPID
  5
9
330
0
100
AcDbSymbolTable
 70
     2
  0
APPID
  5
12
330
9
100
AcDbSymbolTableRecord
100
AcDbRegAppTableRecord
  2
ACAD
 70
     0
  0
APPID
  5
14F
330
9
100
AcDbSymbolTableRecord
100
AcDbRegAppTableRecord
  2
PE_DIMMEASUREMENT
 70
     0
  0
ENDTAB
  0
TABLE
  2
DIMSTYLE
  5
A
330
0
100
AcDbSymbolTable
 70
     4
100
AcDbDimStyleTable
  0
DIMSTYLE
105
27
330
A
100
AcDbSymbolTableRecord
100
AcDbDimStyleTableRecord
  2
ISO-25
 70
     0
 41
2.5
 42
0.625
 43
3.75
 44
1.25
 73
     0
 74
     0
 77
     1
 78
     8
140
2.5
141
2.5
143
0.03937007874016
147
0.625
171
     3
172
     1
178
     0
271
     2
272
     2
274
     3
278
    44
283
     0
284
     8
340
11
  0
DIMSTYLE
105
D7
102
{ACAD_REACTORS
330
D6
330
13D
330
155
330
16F
102
}
330
A
100
AcDbSymbolTableRecord
100
AcDbDimStyleTableRecord
  2
SLDDIMSTYLE0
 70
     0
 41
3.302
 44
0.0
 45
0.000000001
 73
     0
 74
     0
 77
     1
 78
    12
 79
     3
140
3.5
143
0.0393700787401575
147
0.875
148
0.000000001
170
     1
172
     1
173
     1
178
     0
271
     2
272
     2
276
     2
284
    12
289
     0
340
93
  0
DIMSTYLE
105
ED
102
{ACAD_REACTORS
330
EC
102
}
330
A
100
AcDbSymbolTableRecord
100
AcDbDimStyleTableRecord
  2
SLDDIMSTYLE1
 70
     0
 41
3.302
 44
0.0
 45
0.000000001
 73
     0
 74
     0
 77
     1
 78
     4
 79
     1
140
3.5
143
0.0393700787401575
147
0.875
148
0.000000001
170
     1
173
     1
178
     0
271
     2
272
     2
276
     2
284
    12
340
93
  0
DIMSTYLE
105
101
330
A
100
AcDbSymbolTableRecord
100
AcDbDimStyleTableRecord
  2
SLDDIMSTYLE2
 70
     0
 41
3.302
 44
0.0
 45
0.000000001
 73
     0
 74
     0
 77
     1
 78
     8
 79
     2
140
3.5
143
0.0393700787401575
147
0.875
148
0.000000001
170
     1
172
     1
173
     1
178
     0
271
     2
272
     2
276
     2
284
    12
289
     0
340
93
341
102
343
102
344
102
  0
ENDTAB
  0
TABLE
  2
BLOCK_RECORD
  5
1
330
0
100
AcDbSymbolTable
 70
    10
  0
BLOCK_RECORD
  5
1F
330
1
100
AcDbSymbolTableRecord
100
AcDbBlockTableRecord
  2
*Model_Space
340
22
  0
BLOCK_RECORD
  5
1B
330
1
100
AcDbSymbolTableRecord
100
AcDbBlockTableRecord
  2
*Paper_Space
340
1E
  0
BLOCK_RECORD
  5
23
330
1
100
AcDbSymbolTableRecord
100
AcDbBlockTableRecord
  2
*Paper_Space0
340
26
  0
BLOCK_RECORD
  5
7E
330
1
100
AcDbSymbolTableRecord
100
AcDbBlockTableRecord
  2
블럭10
340
0
102
{BLKREFS
331
CE
102
}
  0
BLOCK_RECORD
  5
D8
330
1
100
AcDbSymbolTableRecord
100
AcDbBlockTableRecord
  2
_D
340
0
  0
BLOCK_RECORD
  5
EE
330
1
100
AcDbSymbolTableRecord
100
AcDbBlockTableRecord
  2
_D_1
340
0
  0
BLOCK_RECORD
  5
102
330
1
100
AcDbSymbolTableRecord
100
AcDbBlockTableRecord
  2
_NONE
340
0
  0
BLOCK_RECORD
  5
105
330
1
100
AcDbSymbolTableRecord
100
AcDbBlockTableRecord
  2
_D_2
340
0
  0
BLOCK_RECORD
  5
111
330
1
100
AcDbSymbolTableRecord
100
AcDbBlockTableRecord
  2
SW_DOWELSYMBOL_0
340
0
102
{BLKREFS
331
117
102
}
  0
BLOCK_RECORD
  5
140
330
1
100
AcDbSymbolTableRecord
100
AcDbBlockTableRecord
  2
*D7
340
0
  0
BLOCK_RECORD
  5
158
330
1
100
AcDbSymbolTableRecord
100
AcDbBlockTableRecord
  2
*D8
340
0
  0
BLOCK_RECORD
  5
172
330
1
100
AcDbSymbolTableRecord
100
AcDbBlockTableRecord
  2
*D9
340
0
  0
ENDTAB
  0
ENDSEC
  0
SECTION
  2
BLOCKS
  0
BLOCK
  5
20
330
1F
100
AcDbEntity
  8
0
100
AcDbBlockBegin
  2
*Model_Space
 70
     0
 10
0.0
 20
0.0
 30
0.0
  3
*Model_Space
  1
*Model_Space
  0
ENDBLK
  5
21
330
1F
100
AcDbEntity
  8
0
100
AcDbBlockEnd
  0
BLOCK
  5
1C
330
1B
100
AcDbEntity
 67
     1
  8
0
100
AcDbBlockBegin
  2
*Paper_Space
 70
     0
 10
0.0
 20
0.0
 30
0.0
  3
*Paper_Space
  1
*Paper_Space
  0
ENDBLK
  5
1D
330
1B
100
AcDbEntity
 67
     1
  8
0
100
AcDbBlockEnd
  0
BLOCK
  5
24
330
23
100
AcDbEntity
  8
0
100
AcDbBlockBegin
  2
*Paper_Space0
 70
     0
 10
0.0
 20
0.0
 30
0.0
  3
*Paper_Space0
  1
*Paper_Space0
  0
ENDBLK
  5
25
330
23
100
AcDbEntity
  8
0
100
AcDbBlockEnd
  0
BLOCK
  5
7F
330
7E
100
AcDbEntity
  8
0
100
AcDbBlockBegin
  2
블럭10
 70
     2
 10
0.0
 20
0.0
 30
0.0
  3
블럭10
  1
블럭10
  0
ELLIPSE
  5
81
330
7E
100
AcDbEntity
  8
중심선
100
AcDbEllipse
 10
20.54032771741204
 20
12.0471743016438
 30
0.0
 11
6.600054785286829
 21
-1.261213355974178E-13
 31
0.0
210
0.0
220
0.0
230
1.0
 40
0.636358354079598
 41
0.9219305317359503
 42
6.513795318482858
  0
ELLIPSE
  5
82
330
7E
100
AcDbEntity
  8
중심선
100
AcDbEllipse
 10
20.54032771746488
 20
12.04717430159265
 30
0.0
 11
3.960054785062283
 21
1.540847449632565E-10
 31
0.0
210
0.0
220
0.0
230
1.0
 40
0.3939339440162632
 41
1.131841032648279
 42
5.62031148352944
  0
LINE
  5
83
330
7E
100
AcDbEntity
  8
중심선
100
AcDbLine
 10
2.268634060543552
 20
16.24717430164393
 30
0.0
 11
5.714909304380834
 21
16.24717430164393
 31
0.0
  0
LINE
  5
84
330
7E
100
AcDbEntity
  8
중심선
100
AcDbLine
 10
5.245725140726316
 20
7.84717430164391
 30
0.0
 11
8.692000384563599
 21
7.84717430164391
 31
0.0
  0
LINE
  5
85
330
7E
100
AcDbEntity
  8
중심선
100
AcDbLine
 10
15.74043728645272
 20
16.24717430164393
 30
0.0
 11
8.692000384563599
 21
7.84717430164391
 31
0.0
  0
LINE
  5
86
330
7E
100
AcDbEntity
  8
중심선
100
AcDbLine
 10
0.1404042013395286
 20
13.71084872107135
 30
0.0
 11
3.58671253028996
 21
13.71088815037384
 31
0.0
  0
LINE
  5
87
330
7E
100
AcDbEntity
  8
중심선
100
AcDbLine
 10
2.750260043222114
 20
10.84717430164391
 30
0.0
 11
6.196535287059397
 21
10.84717430164391
 31
0.0
  0
LINE
  5
88
330
7E
100
AcDbEntity
  8
중심선
100
AcDbLine
 10
12.29416204261559
 20
16.24717430164393
 30
0.0
 11
5.245725140726316
 21
7.84717430164391
 31
0.0
  0
LINE
  5
89
330
7E
100
AcDbEntity
  8
중심선
100
AcDbLine
 10
10.72767329541681
 20
16.24717430164393
 30
0.0
 11
6.196535287059397
 21
10.84717430164391
 31
0.0
  0
LINE
  5
8A
330
7E
100
AcDbEntity
  8
중심선
100
AcDbLine
 10
7.28139805157953
 20
16.24717430164393
 30
0.0
 11
2.750260043222114
 21
10.84717430164391
 31
0.0
  0
LINE
  5
8B
330
7E
100
AcDbEntity
  8
중심선
100
AcDbLine
 10
5.714909304380834
 20
16.24717430164393
 30
0.0
 11
3.58671253028996
 21
13.71088815037384
 31
0.0
  0
LINE
  5
8C
330
7E
100
AcDbEntity
  8
중심선
100
AcDbLine
 10
2.268634060543552
 20
16.24717430164393
 30
0.0
 11
0.1404042013395286
 21
13.71084872107135
 31
0.0
  0
LINE
  5
8D
330
7E
100
AcDbEntity
  8
중심선
100
AcDbLine
 10
7.28139805157953
 20
16.24717430164393
 30
0.0
 11
10.72767329541681
 21
16.24717430164393
 31
0.0
  0
LINE
  5
8E
330
7E
100
AcDbEntity
  8
중심선
100
AcDbLine
 10
12.29416204261559
 20
16.24717430164393
 30
0.0
 11
15.74043728645272
 21
16.24717430164393
 31
0.0
  0
LINE
  5
8F
330
7E
100
AcDbEntity
  8
중심선
100
AcDbLine
 10
19.22036997980202
 20
11.08717430171403
 30
0.0
 11
23.66174974927406
 21
11.08717430171406
 31
0.0
  0
LINE
  5
90
330
7E
100
AcDbEntity
  8
중심선
100
AcDbLine
 10
19.22039502424796
 20
13.00717430171391
 30
0.0
 11
19.22036997980202
 21
11.08717430171403
 31
0.0
  0
LINE
  5
91
330
7E
100
AcDbEntity
  8
중심선
100
AcDbLine
 10
19.22039502424796
 20
13.00717430171391
 30
0.0
 11
26.96566020931264
 21
13.00717430171391
 31
0.0
  0
LINE
  5
92
330
7E
100
AcDbEntity
  8
중심선
100
AcDbLine
 10
22.22332737316547
 20
13.45928029700563
 30
0.0
 11
24.52862924686651
 21
15.39360700705356
 31
0.0
  0
ATTDEF
  5
94
330
7E
100
AcDbEntity
  8
FORMAT
 62
     2
100
AcDbText
 10
-9.18129528874128
 20
2.075366912832191
 30
0.0
 40
4.233333333333333
  1
E5077006 [ 3 FLUTE ]
 41
0.75
  7
SLDTEXTSTYLE0
 11
-9.18129528874128
 21
-0.0412997538344756
 31
0.0
100
AcDbAttributeDefinition
  3

  2
AUTOATTR0
 70
     0
 74
     1
  0
ENDBLK
  5
80
330
7E
100
AcDbEntity
  8
0
100
AcDbBlockEnd
  0
BLOCK
  5
D9
330
D8
100
AcDbEntity
  8
0
100
AcDbBlockBegin
  2
_D
 70
     0
 10
0.0
 20
0.0
 30
0.0
  3
_D
  1
_D
  0
LINE
  5
DB
330
D8
100
AcDbEntity
  8
치수문자_일반주서
 62
     0
370
    -2
100
AcDbLine
 10
22.5749081826537
 20
1.257960151814094
 30
0.0
 11
22.5749081826537
 21
26.80433703156156
 31
0.0
  0
LINE
  5
DC
330
D8
100
AcDbEntity
  8
치수문자_일반주서
 62
     0
370
    -2
100
AcDbLine
 10
9.8749081826537
 20
3.497312806811602
 30
0.0
 11
9.8749081826537
 21
26.80433703156156
 31
0.0
  0
LINE
  5
DD
330
D8
100
AcDbEntity
  8
치수문자_일반주서
 62
     0
370
    -2
100
AcDbLine
 10
9.8749081826537
 20
26.80433703156156
 30
0.0
 11
-20.84307506104191
 21
26.80433703156156
 31
0.0
  0
LINE
  5
DE
330
D8
100
AcDbEntity
  8
치수문자_일반주서
 62
     0
370
    -2
100
AcDbLine
 10
22.5749081826537
 20
26.80433703156156
 30
0.0
 11
9.8749081826537
 21
26.80433703156156
 31
0.0
  0
LINE
  5
DF
330
D8
100
AcDbEntity
  8
치수문자_일반주서
 62
     0
370
    -2
100
AcDbLine
 10
25.8769081826537
 20
26.80433703156156
 30
0.0
 11
29.1789081826537
 21
26.80433703156156
 31
0.0
  0
LINE
  5
E0
330
D8
100
AcDbEntity
  8
치수문자_일반주서
 62
     0
370
    -2
100
AcDbLine
 10
6.5729081826537
 20
26.80433703156156
 30
0.0
 11
3.270908182653701
 21
26.80433703156156
 31
0.0
  0
SOLID
  5
E1
330
D8
100
AcDbEntity
  8
치수문자_일반주서
 62
     0
100
AcDbTrace
 10
25.8769081826537
 20
27.3546703648949
 30
0.0
 11
25.8769081826537
 21
26.25400369822823
 31
0.0
 12
22.5749081826537
 22
26.80433703156156
 32
0.0
 13
22.5749081826537
 23
26.80433703156156
 33
0.0
  0
SOLID
  5
E2
330
D8
100
AcDbEntity
  8
치수문자_일반주서
 62
     0
100
AcDbTrace
 10
6.5729081826537
 20
26.25400369822823
 30
0.0
 11
6.5729081826537
 21
27.3546703648949
 31
0.0
 12
9.8749081826537
 22
26.80433703156156
 32
0.0
 13
9.8749081826537
 23
26.80433703156156
 33
0.0
  0
MTEXT
  5
E3
330
D8
100
AcDbEntity
  8
치수문자_일반주서
 62
     0
100
AcDbMText
 10
-9.90557506104191
 20
31.17933703156156
 30
0.0
 40
3.5
 41
0.0
 71
     2
 72
     1
  1
\A1;12.7 [1/2]
  7
SLDTEXTSTYLE0
 73
     1
 44
1.0
  0
POINT
  5
150
330
D8
100
AcDbEntity
  8
Defpoints
 62
     0
100
AcDbPoint
 10
22.5749081826537
 20
1.195460151814094
 30
0.0
  0
POINT
  5
151
330
D8
100
AcDbEntity
  8
Defpoints
 62
     0
100
AcDbPoint
 10
9.8749081826537
 20
3.434812806811602
 30
0.0
  0
POINT
  5
152
330
D8
100
AcDbEntity
  8
Defpoints
 62
     0
100
AcDbPoint
 10
9.8749081826537
 20
26.80433703156156
 30
0.0
  0
ENDBLK
  5
DA
330
D8
100
AcDbEntity
  8
0
100
AcDbBlockEnd
  0
BLOCK
  5
EF
330
EE
100
AcDbEntity
  8
0
100
AcDbBlockBegin
  2
_D_1
 70
     0
 10
0.0
 20
0.0
 30
0.0
  3
_D_1
  1
_D_1
  0
LINE
  5
F1
330
EE
100
AcDbEntity
  8
치수문자_일반주서
 62
     0
370
    -2
100
AcDbLine
 10
22.5749081826537
 20
1.24999011440666
 30
0.0
 11
22.5749081826537
 21
39.86628320781314
 31
0.0
  0
LINE
  5
F2
330
EE
100
AcDbEntity
  8
치수문자_일반주서
 62
     0
370
    -2
100
AcDbLine
 10
-53.6250918173463
 20
2.432335151814059
 30
0.0
 11
-53.6250918173463
 21
39.86628320781314
 31
0.0
  0
LINE
  5
F3
330
EE
100
AcDbEntity
  8
치수문자_일반주서
 62
     0
370
    -2
100
AcDbLine
 10
19.2729081826537
 20
39.86628320781314
 30
0.0
 11
-50.3230918173463
 21
39.86628320781314
 31
0.0
  0
SOLID
  5
F4
330
EE
100
AcDbEntity
  8
치수문자_일반주서
 62
     0
100
AcDbTrace
 10
19.2729081826537
 20
39.31594987447981
 30
0.0
 11
19.2729081826537
 21
40.41661654114647
 31
0.0
 12
22.5749081826537
 22
39.86628320781314
 32
0.0
 13
22.5749081826537
 23
39.86628320781314
 33
0.0
  0
SOLID
  5
F5
330
EE
100
AcDbEntity
  8
치수문자_일반주서
 62
     0
100
AcDbTrace
 10
-50.3230918173463
 20
40.41661654114647
 30
0.0
 11
-50.3230918173463
 21
39.31594987447981
 31
0.0
 12
-53.6250918173463
 22
39.86628320781314
 32
0.0
 13
-53.6250918173463
 23
39.86628320781314
 33
0.0
  0
MTEXT
  5
F6
330
EE
100
AcDbEntity
  8
치수문자_일반주서
 62
     0
100
AcDbMText
 10
-12.8950432689867
 20
44.24128320781314
 30
0.0
 40
3.5
 41
0.0
 71
     2
 72
     1
  1
\A1;76.20 [3]
  7
SLDTEXTSTYLE0
 73
     1
 44
1.0
  0
POINT
  5
F7
330
EE
100
AcDbEntity
  8
Defpoints
 62
     0
100
AcDbPoint
 10
22.5749081826537
 20
1.18749011440666
 30
0.0
  0
POINT
  5
F8
330
EE
100
AcDbEntity
  8
Defpoints
 62
     0
100
AcDbPoint
 10
-53.6250918173463
 20
2.369835151814059
 30
0.0
  0
POINT
  5
F9
330
EE
100
AcDbEntity
  8
Defpoints
 62
     0
100
AcDbPoint
 10
-53.6250918173463
 20
39.86628320781314
 30
0.0
  0
ENDBLK
  5
F0
330
EE
100
AcDbEntity
  8
0
100
AcDbBlockEnd
  0
BLOCK
  5
103
330
102
100
AcDbEntity
  8
0
100
AcDbBlockBegin
  2
_NONE
 70
     0
 10
0.0
 20
0.0
 30
0.0
  3
_NONE
  1
_NONE
  0
ENDBLK
  5
104
330
102
100
AcDbEntity
  8
0
100
AcDbBlockEnd
  0
BLOCK
  5
106
330
105
100
AcDbEntity
  8
0
100
AcDbBlockBegin
  2
_D_2
 70
     0
 10
0.0
 20
0.0
 30
0.0
  3
_D_2
  1
_D_2
  0
LINE
  5
108
330
105
100
AcDbEntity
  8
치수문자_일반주서
100
AcDbLine
 10
-77.41797353338902
 20
-8.584531279254593
 30
0.0
 11
-77.41797353338902
 21
-9.295468764819093
 31
0.0
  0
LINE
  5
109
330
105
100
AcDbEntity
  8
치수문자_일반주서
100
AcDbLine
 10
-77.41797353338902
 20
-9.295468764819093
 30
0.0
 11
-71.86172354232971
 21
-9.295468764819052
 31
0.0
  0
LINE
  5
10A
330
105
100
AcDbEntity
  8
치수문자_일반주서
100
AcDbLine
 10
-71.86172354232971
 20
-9.295468764819052
 30
0.0
 11
-71.86172354232971
 21
-8.584531279254552
 31
0.0
  0
LINE
  5
10B
330
105
100
AcDbEntity
  8
치수문자_일반주서
100
AcDbLine
 10
-77.4179735333891
 20
2.244201582882665
 30
0.0
 11
-77.4179735333891
 21
2.955139068447165
 31
0.0
  0
LINE
  5
10C
330
105
100
AcDbEntity
  8
치수문자_일반주서
100
AcDbLine
 10
-77.4179735333891
 20
2.955139068447165
 30
0.0
 11
-71.8617235423298
 21
2.955139068447204
 31
0.0
  0
LINE
  5
10D
330
105
100
AcDbEntity
  8
치수문자_일반주서
100
AcDbLine
 10
-71.8617235423298
 20
2.955139068447204
 30
0.0
 11
-71.8617235423298
 21
2.244201582882704
 31
0.0
  0
MTEXT
  5
10E
330
105
100
AcDbEntity
  8
치수문자_일반주서
100
AcDbMText
 10
-76.37346045690863
 20
-7.695859378643214
 30
0.0
 40
3.5
 41
0.0
 71
     1
 72
     1
  1
0.00
  7
SLDTEXTSTYLE0
 11
-7.044195017643634E-15
 21
1.0
 31
0.0
 73
     1
 44
1.0
  0
MTEXT
  5
10F
330
105
100
AcDbEntity
  8
치수문자_일반주서
100
AcDbMText
 10
-71.13682890654816
 20
-7.102439260549689
 30
0.0
 40
3.5
 41
0.0
 71
     1
 72
     1
  1
%%c
  7
SLDTEXTSTYLE0
 11
-7.044195017643634E-15
 21
1.0
 31
0.0
 73
     1
 44
1.0
  0
MTEXT
  5
110
330
105
100
AcDbEntity
  8
치수문자_일반주서
100
AcDbMText
 10
-71.1368289065482
 20
-1.824001862175608
 30
0.0
 40
3.5
 41
0.0
 71
     1
 72
     1
  1
0
  7
SLDTEXTSTYLE0
 11
-7.044195017643634E-15
 21
1.0
 31
0.0
 73
     1
 44
1.0
  0
ENDBLK
  5
107
330
105
100
AcDbEntity
  8
0
100
AcDbBlockEnd
  0
BLOCK
  5
112
330
111
100
AcDbEntity
  8
0
100
AcDbBlockBegin
  2
SW_DOWELSYMBOL_0
 70
     0
 10
0.0
 20
0.0
 30
0.0
  3
SW_DOWELSYMBOL_0
  1
SW_DOWELSYMBOL_0
  0
CIRCLE
  5
114
330
111
100
AcDbEntity
  8
외형선
 62
     0
100
AcDbCircle
 10
0.0
 20
0.0
 30
0.0
 40
3.000000000000004
  0
HATCH
  5
115
330
111
100
AcDbEntity
  8
0
  6
Continuous
 62
     0
370
    30
100
AcDbHatch
 10
0.0
 20
0.0
 30
0.0
210
0.0
220
0.0
230
1.0
  2
SOLID
 70
     1
 71
     0
 91
        1
 92
        0
 93
        3
 72
     2
 10
-0.0000000000000013
 20
-0.0000000000000039
 40
3.000000000000004
 50
0.0
 51
90.0
 73
     1
 72
     1
 10
-0.0000000000000013
 20
3.0
 11
-0.0000000000000013
 21
-0.000000000000004
 72
     1
 10
-0.0000000000000013
 20
-0.0000000000000039
 11
3.000000000000003
 21
-0.0000000000000039
 97
        0
 75
     0
 76
     1
 98
        1
 10
0.0
 20
0.0
  0
HATCH
  5
116
330
111
100
AcDbEntity
  8
0
  6
Continuous
 62
     0
370
    30
100
AcDbHatch
 10
0.0
 20
0.0
 30
0.0
210
0.0
220
0.0
230
1.0
  2
SOLID
 70
     1
 71
     0
 91
        1
 92
        0
 93
        3
 72
     2
 10
-0.0000000000000013
 20
-0.0000000000000039
 40
3.000000000000004
 50
180.0
 51
270.0000000000008
 73
     1
 72
     1
 10
-0.0000000000000013
 20
-3.000000000000008
 11
-0.0000000000000013
 21
-0.000000000000004
 72
     1
 10
-0.0000000000000013
 20
-0.0000000000000039
 11
-3.000000000000006
 21
-0.0000000000000039
 97
        0
 75
     0
 76
     1
 98
        1
 10
0.0
 20
0.0
  0
ENDBLK
  5
113
330
111
100
AcDbEntity
  8
0
100
AcDbBlockEnd
  0
BLOCK
  5
141
330
140
100
AcDbEntity
  8
0
100
AcDbBlockBegin
  2
*D7
 70
     1
 10
0.0
 20
0.0
 30
0.0
  3
*D7
  1
*D7
  0
LINE
  5
143
330
140
100
AcDbEntity
  8
치수문자_일반주서
 62
     0
370
    -2
100
AcDbLine
 10
-52.8775918173463
 20
-3.170164848185888
 30
0.0
 11
-69.64331122566855
 21
-3.170164848185888
 31
0.0
  0
LINE
  5
144
330
140
100
AcDbEntity
  8
치수문자_일반주서
 62
     0
370
    -2
100
AcDbLine
 10
-52.8775918173463
 20
3.179835151814064
 30
0.0
 11
-69.64331122566855
 21
3.179835151814065
 31
0.0
  0
LINE
  5
145
330
140
100
AcDbEntity
  8
치수문자_일반주서
 62
     0
370
    -2
100
AcDbLine
 10
-69.64331122566855
 20
6.481835151814065
 30
0.0
 11
-69.64331122566855
 21
35.15883515181407
 31
0.0
  0
LINE
  5
146
330
140
100
AcDbEntity
  8
치수문자_일반주서
 62
     0
370
    -2
100
AcDbLine
 10
-69.64331122566855
 20
-3.170164848185888
 30
0.0
 11
-69.64331122566855
 21
3.179835151814065
 31
0.0
  0
LINE
  5
147
330
140
100
AcDbEntity
  8
치수문자_일반주서
 62
     0
370
    -2
100
AcDbLine
 10
-69.64331122566855
 20
-6.472164848185887
 30
0.0
 11
-69.64331122566855
 21
-9.774164848185887
 31
0.0
  0
SOLID
  5
148
330
140
100
AcDbEntity
  8
치수문자_일반주서
 62
     0
100
AcDbTrace
 10
-69.09297789233523
 20
-6.472164848185887
 30
0.0
 11
-70.19364455900188
 21
-6.472164848185887
 31
0.0
 12
-69.64331122566855
 22
-3.170164848185888
 32
0.0
 13
-69.64331122566855
 23
-3.170164848185888
 33
0.0
  0
SOLID
  5
149
330
140
100
AcDbEntity
  8
치수문자_일반주서
 62
     0
100
AcDbTrace
 10
-70.19364455900188
 20
6.481835151814065
 30
0.0
 11
-69.09297789233523
 21
6.481835151814065
 31
0.0
 12
-69.64331122566855
 22
3.179835151814065
 32
0.0
 13
-69.64331122566855
 23
3.179835151814065
 33
0.0
  0
MTEXT
  5
14A
330
140
100
AcDbEntity
  8
치수문자_일반주서
 62
     0
100
AcDbMText
 10
-72.26831122566855
 20
22.47133515181406
 30
0.0
 40
3.5
 41
0.0
 71
     5
 72
     1
  1
\A1;{%%c6.35 [1/4]}
  7
SLDTEXTSTYLE0
 11
0.0
 21
1.0
 31
0.0
 73
     1
 44
1.0
  0
POINT
  5
14B
330
140
100
AcDbEntity
  8
Defpoints
 62
     0
100
AcDbPoint
 10
-52.8150918173463
 20
-3.170164848185888
 30
0.0
  0
POINT
  5
14C
330
140
100
AcDbEntity
  8
Defpoints
 62
     0
100
AcDbPoint
 10
-52.8150918173463
 20
3.179835151814064
 30
0.0
  0
POINT
  5
14D
330
140
100
AcDbEntity
  8
Defpoints
 62
     0
100
AcDbPoint
 10
-69.64331122566855
 20
3.179835151814065
 30
0.0
  0
ENDBLK
  5
142
330
140
100
AcDbEntity
  8
0
100
AcDbBlockEnd
  0
BLOCK
  5
159
330
158
100
AcDbEntity
  8
0
100
AcDbBlockBegin
  2
*D8
 70
     1
 10
0.0
 20
0.0
 30
0.0
  3
*D8
  1
*D8
  0
LINE
  5
15B
330
158
100
AcDbEntity
  8
치수문자_일반주서
 62
     0
370
    -2
100
AcDbLine
 10
22.6374081826537
 20
1.195460151814094
 30
0.0
 11
37.69046245359281
 21
1.195460151814093
 31
0.0
  0
LINE
  5
15C
330
158
100
AcDbEntity
  8
치수문자_일반주서
 62
     0
370
    -2
100
AcDbLine
 10
22.6374081826537
 20
-1.190625000000004
 30
0.0
 11
37.69046245359281
 21
-1.190625000000004
 31
0.0
  0
LINE
  5
15D
330
158
100
AcDbEntity
  8
치수문자_일반주서
 62
     0
370
    -2
100
AcDbLine
 10
37.69046245359281
 20
1.195460151814093
 30
0.0
 11
37.69046245359281
 21
36.67446015181409
 31
0.0
  0
LINE
  5
15E
330
158
100
AcDbEntity
  8
치수문자_일반주서
 62
     0
370
    -2
100
AcDbLine
 10
37.69046245359281
 20
1.195460151814093
 30
0.0
 11
37.69046245359281
 21
-1.190625000000004
 31
0.0
  0
LINE
  5
15F
330
158
100
AcDbEntity
  8
치수문자_일반주서
 62
     0
370
    -2
100
AcDbLine
 10
37.69046245359281
 20
4.497460151814092
 30
0.0
 11
37.69046245359281
 21
7.799460151814092
 31
0.0
  0
LINE
  5
160
330
158
100
AcDbEntity
  8
치수문자_일반주서
 62
     0
370
    -2
100
AcDbLine
 10
37.69046245359281
 20
-4.492625000000004
 30
0.0
 11
37.69046245359281
 21
-7.794625000000003
 31
0.0
  0
SOLID
  5
161
330
158
100
AcDbEntity
  8
치수문자_일반주서
 62
     0
100
AcDbTrace
 10
37.14012912025948
 20
4.497460151814092
 30
0.0
 11
38.24079578692615
 21
4.497460151814092
 31
0.0
 12
37.69046245359281
 22
1.195460151814093
 32
0.0
 13
37.69046245359281
 23
1.195460151814093
 33
0.0
  0
SOLID
  5
162
330
158
100
AcDbEntity
  8
치수문자_일반주서
 62
     0
100
AcDbTrace
 10
38.24079578692615
 20
-4.492625000000004
 30
0.0
 11
37.14012912025948
 21
-4.492625000000004
 31
0.0
 12
37.69046245359281
 22
-1.190625000000004
 32
0.0
 13
37.69046245359281
 23
-1.190625000000004
 33
0.0
  0
MTEXT
  5
163
330
158
100
AcDbEntity
  8
치수문자_일반주서
 62
     0
100
AcDbMText
 10
35.06546245359281
 20
22.23696015181409
 30
0.0
 40
3.5
 41
0.0
 71
     5
 72
     1
  1
\A1;{%%c2.39 [3/32]}
  7
SLDTEXTSTYLE0
 11
0.0
 21
1.0
 31
0.0
 73
     1
 44
1.0
  0
POINT
  5
164
330
158
100
AcDbEntity
  8
Defpoints
 62
     0
100
AcDbPoint
 10
22.5749081826537
 20
1.195460151814094
 30
0.0
  0
POINT
  5
165
330
158
100
AcDbEntity
  8
Defpoints
 62
     0
100
AcDbPoint
 10
22.5749081826537
 20
-1.190625000000004
 30
0.0
  0
POINT
  5
16E
330
158
100
AcDbEntity
  8
Defpoints
 62
     0
100
AcDbPoint
 10
37.69046245359281
 20
-1.190625000000004
 30
0.0
  0
ENDBLK
  5
15A
330
158
100
AcDbEntity
  8
0
100
AcDbBlockEnd
  0
BLOCK
  5
173
330
172
100
AcDbEntity
  8
0
100
AcDbBlockBegin
  2
*D9
 70
     1
 10
0.0
 20
0.0
 30
0.0
  3
*D9
  1
*D9
  0
LINE
  5
175
330
172
100
AcDbEntity
  8
치수문자_일반주서
 62
     0
370
    -2
100
AcDbLine
 10
-4.834782963977727
 20
12.60413376918364
 30
0.0
 11
-1.52809893915382
 21
18.27266506132399
 31
0.0
  0
LINE
  5
176
330
172
100
AcDbEntity
  8
치수문자_일반주서
 62
     0
370
    -2
100
AcDbLine
 10
9.813357698090437
 20
3.445665817915786
 30
0.0
 11
-7.098511132260381
 21
6.427684586909147
 31
0.0
  0
ARC
  5
177
330
172
100
AcDbEntity
  8
치수문자_일반주서
 62
     0
370
    -2
100
AcDbCircle
 10
11.32095832184996
 20
3.179835151814072
 30
0.0
 40
18.70361946052023
100
AcDbArc
 50
149.7432553626999
 51
159.8716276813499
  0
ARC
  5
178
330
172
100
AcDbEntity
  8
치수문자_일반주서
 62
     0
370
    -2
100
AcDbCircle
 10
11.32095832184996
 20
3.179835151814072
 30
0.0
 40
18.70361946052023
100
AcDbArc
 50
190.1283723186501
 51
200.2567446373001
  0
ARC
  5
179
330
172
100
AcDbEntity
  8
치수문자_일반주서
 62
     0
370
    -2
100
AcDbCircle
 10
11.32095832184996
 20
3.179835151814072
 30
0.0
 40
18.70361946052023
100
AcDbArc
 50
170.0
 51
180.0
  0
SOLID
  5
17A
330
172
100
AcDbEntity
  8
치수문자_일반주서
 62
     0
100
AcDbTrace
 10
-6.771739408183981
 20
9.759244434506353
 30
0.0
 11
-5.708896848102532
 21
9.473180099800643
 31
0.0
 12
-7.098511132260381
 22
6.427684586909147
 32
0.0
 13
-7.098511132260381
 23
6.427684586909147
 33
0.0
  0
SOLID
  5
17B
330
172
100
AcDbEntity
  8
치수문자_일반주서
 62
     0
100
AcDbTrace
 10
-6.543002963841534
 20
-0.0606964291493133
 30
0.0
 11
-7.639373107658239
 21
-0.1578541301227763
 31
0.0
 12
-7.382661138670276
 22
3.17983515181407
 32
0.0
 13
-7.382661138670276
 23
3.17983515181407
 33
0.0
  0
MTEXT
  5
17C
330
172
100
AcDbEntity
  8
치수문자_일반주서
 62
     0
100
AcDbMText
 10
-5.448853468421914
 20
16.76107302518338
 30
0.0
 40
3.5
 41
0.0
 71
     5
 72
     1
  1
\A1;10%%d
  7
SLDTEXTSTYLE0
 11
0.5038756609255477
 21
0.8637761968975775
 31
0.0
 73
     1
 44
1.0
  0
POINT
  5
17D
330
172
100
AcDbEntity
  8
Defpoints
 62
     0
100
AcDbPoint
 10
-7.351017574788647
 20
4.26735390535266
 30
0.0
  0
POINT
  5
17E
330
172
100
AcDbEntity
  8
Defpoints
 62
     0
100
AcDbPoint
 10
9.3749081826537
 20
3.179835151814072
 30
0.0
  0
POINT
  5
17F
330
172
100
AcDbEntity
  8
Defpoints
 62
     0
100
AcDbPoint
 10
11.10993510242257
 20
3.217044238955082
 30
0.0
  0
POINT
  5
180
330
172
100
AcDbEntity
  8
Defpoints
 62
     0
100
AcDbPoint
 10
9.8749081826537
 20
3.434812806811602
 30
0.0
  0
POINT
  5
181
330
172
100
AcDbEntity
  8
Defpoints
 62
     0
100
AcDbPoint
 10
-52.8150918173463
 20
3.179835151814064
 30
0.0
  0
ENDBLK
  5
174
330
172
100
AcDbEntity
  8
0
100
AcDbBlockEnd
  0
ENDSEC
  0
SECTION
  2
ENTITIES
  0
LINE
  5
95
330
1F
100
AcDbEntity
  8
0
  6
Continuous
 62
     1
370
    15
100
AcDbLine
 10
20.50988438747093
 20
-1.54990925908162
 30
0.0
 11
21.60224534558191
 21
-1.357296549494103
 31
0.0
  0
LINE
  5
96
330
1F
100
AcDbEntity
  8
0
  6
Continuous
 62
     1
370
    15
100
AcDbLine
 10
10.14978743742926
 20
-3.376673874129443
 30
0.0
 11
12.73560938551275
 21
-2.920723697374201
 31
0.0
  0
LINE
  5
97
330
1F
100
AcDbEntity
  8
0
  6
Continuous
 62
     1
370
    15
100
AcDbLine
 10
17.56946738104871
 20
2.078054415476062
 30
0.0
 11
15.2483128590783
 21
2.487336584092906
 31
0.0
  0
LINE
  5
98
330
1F
100
AcDbEntity
  8
0
  6
Continuous
 62
     1
370
    15
100
AcDbLine
 10
13.53680840936615
 20
-2.779450692551561
 30
0.0
 11
15.96841970194461
 21
-2.350692015074593
 31
0.0
  0
LINE
  5
99
102
{ACAD_REACTORS
102
}
330
1F
100
AcDbEntity
  8
0
  6
Continuous
 62
     1
370
    15
100
AcDbLine
 10
11.10993510242257
 20
3.217044238955082
 30
0.0
 11
9.8749081826537
 21
3.434812806811602
 31
0.0
  0
LINE
  5
9A
330
1F
100
AcDbEntity
  8
0
  6
Continuous
 62
     1
370
    15
100
AcDbLine
 10
20.71911179682767
 20
1.522687125336481
 30
0.0
 11
18.72121333263973
 21
1.874970529288818
 31
0.0
  0
LINE
  5
9B
102
{ACAD_REACTORS
102
}
330
1F
100
AcDbEntity
  8
0
  6
Continuous
 62
     4
370
    15
100
AcDbLine
 10
9.3749081826537
 20
3.179835151814072
 30
0.0
 11
-52.8150918173463
 21
3.179835151814064
 31
0.0
  0
LINE
  5
9C
330
1F
100
AcDbEntity
  8
0
  6
Continuous
 62
     4
370
    15
100
AcDbLine
 10
-52.8150918173463
 20
-3.170164848185888
 30
0.0
 11
9.3749081826537
 21
-3.17016484818588
 31
0.0
  0
LINE
  5
9D
330
1F
100
AcDbEntity
  8
0
  6
Continuous
 62
     4
370
    15
100
AcDbLine
 10
-52.8150918173463
 20
3.179835151814064
 30
0.0
 11
-53.6250918173463
 21
2.369835151814058
 31
0.0
  0
LINE
  5
9E
102
{ACAD_REACTORS
102
}
330
1F
100
AcDbEntity
  8
0
  6
Continuous
 62
     4
370
    15
100
AcDbLine
 10
-53.6250918173463
 20
-2.360164848185883
 30
0.0
 11
-52.8150918173463
 21
-3.170164848185888
 31
0.0
  0
LINE
  5
9F
330
1F
100
AcDbEntity
  8
0
  6
Continuous
 62
     1
370
    15
100
AcDbLine
 10
16.97398980782031
 20
-2.173382874414841
 30
0.0
 11
19.1549229863676
 21
-1.788825511914681
 31
0.0
  0
LINE
  5
A0
330
1F
100
AcDbEntity
  8
0
  6
Continuous
 62
     1
370
    15
100
AcDbLine
 10
14.35391017759385
 20
2.645043908456614
 30
0.0
 11
11.84057009966154
 21
3.088213575891997
 31
0.0
  0
LINE
  5
A1
102
{ACAD_REACTORS
102
}
330
1F
100
AcDbEntity
  8
0
  6
Continuous
 62
     1
370
    15
100
AcDbLine
 10
22.5749081826537
 20
1.195460151814094
 30
0.0
 11
22.36226158297711
 21
1.232955484692989
 31
0.0
  0
LINE
  5
A2
330
1F
100
AcDbEntity
  8
0
  6
Continuous
 62
     4
370
    15
100
AcDbLine
 10
9.8749081826537
 20
3.434812806811602
 30
0.0
 11
9.3749081826537
 21
3.179835151814096
 31
0.0
  0
LINE
  5
A3
330
1F
100
AcDbEntity
  8
0
  6
Continuous
 62
     4
370
    15
100
AcDbLine
 10
9.3749081826537
 20
-3.170164848185904
 30
0.0
 11
9.519868021025689
 21
-3.244087887499719
 31
0.0
  0
SPLINE
  5
A4
330
1F
100
AcDbEntity
  8
0
  6
Continuous
 62
     1
370
    15
100
AcDbSpline
210
0.0
220
0.0
230
1.0
 70
     8
 71
     3
 72
     9
 73
     5
 74
     0
 42
0.000000001
 43
0.00000001
 40
0.0
 40
0.0
 40
0.0
 40
0.0
 40
0.6741522156220617
 40
1.0
 40
1.0
 40
1.0
 40
1.0
 10
9.87490818265387
 20
-3.376837579177115
 30
0.0
 10
9.93547635265709
 20
-3.388122635907067
 30
0.0
 10
10.02531981619497
 20
-3.404862263054237
 30
0.0
 10
10.1170408876881
 20
-3.371370417441156
 30
0.0
 10
10.1469279956149
 20
-3.360457173753406
 30
0.0
  0
SPLINE
  5
A5
330
1F
100
AcDbEntity
  8
0
  6
Continuous
 62
     1
370
    15
100
AcDbSpline
210
0.0
220
0.0
230
1.0
 70
     8
 71
     3
 72
    24
 73
    20
 74
     0
 42
0.000000001
 43
0.00000001
 40
0.0
 40
0.0
 40
0.0
 40
0.0
 40
0.013891258487987
 40
0.0790088966571735
 40
0.1460848444630968
 40
0.2099878205276692
 40
0.2758090928820311
 40
0.338596002552502
 40
0.4032645923742577
 40
0.4649973749840003
 40
0.528569005604687
 40
0.5894211868118479
 40
0.6520767122309405
 40
0.712219820483831
 40
0.7741366404230685
 40
0.8337501221147101
 40
0.8951056336211862
 40
0.9544977147570719
 40
0.9999999999999999
 40
0.9999999999999999
 40
0.9999999999999999
 40
0.9999999999999999
 10
14.78453702008028
 20
2.459208441608735
 30
0.0
 10
14.80714635359583
 20
2.468017847373615
 30
0.0
 10
14.93574078560951
 20
2.518122841841207
 30
0.0
 10
15.1788784946119
 20
2.509067078234038
 30
0.0
 10
15.50927582833324
 20
2.427345556815804
 30
0.0
 10
15.8470968775922
 20
2.237604110747807
 30
0.0
 10
16.18387753769963
 20
1.966538125181587
 30
0.0
 10
16.52765246768284
 20
1.618553097672502
 30
0.0
 10
16.87111027298186
 20
1.220355023791559
 30
0.0
 10
17.22234215215679
 20
0.7816938960084152
 30
0.0
 10
17.57330200496454
 20
0.333743066990568
 30
0.0
 10
17.93345537962633
 20
-0.1118921664338398
 30
0.0
 10
18.29381019624054
 20
-0.5250376196077728
 30
0.0
 10
18.66448069863002
 20
-0.8941343128520756
 30
0.0
 10
19.03648016234352
 20
-1.19485031124125
 30
0.0
 10
19.41950774421705
 20
-1.419786089058715
 30
0.0
 10
19.80599880077544
 20
-1.551554570913233
 30
0.0
 10
20.16940598558107
 20
-1.597582324705311
 30
0.0
 10
20.40585402988531
 20
-1.558552963721159
 30
0.0
 10
20.50842318329636
 20
-1.541622358411655
 30
0.0
  0
LINE
  5
A6
330
1F
100
AcDbEntity
  8
0
  6
Continuous
 62
     4
370
    15
100
AcDbLine
 10
9.8749081826537
 20
0.9124497310374414
 30
0.0
 11
9.874908182653702
 21
-3.376837579176279
 31
0.0
  0
SPLINE
  5
A7
330
1F
100
AcDbEntity
  8
0
  6
Continuous
 62
     1
370
    15
100
AcDbSpline
210
0.0
220
0.0
230
1.0
 70
     8
 71
     3
 72
    21
 73
    17
 74
     0
 42
0.000000001
 43
0.00000001
 40
0.0
 40
0.0
 40
0.0
 40
0.0
 40
0.0253998270540788
 40
0.1004334713823007
 40
0.1775798535435705
 40
0.2536828574835279
 40
0.3319275877518604
 40
0.4092045424288959
 40
0.488655859558309
 40
0.5671532703719528
 40
0.6478495758665441
 40
0.7277426907688894
 40
0.8098668252934521
 40
0.8912786135695641
 40
0.9749644927026608
 40
0.9999999999999999
 40
0.9999999999999999
 40
0.9999999999999999
 40
0.9999999999999999
 10
21.63082833444994
 20
-1.232839632957603
 30
0.0
 10
21.59269815094337
 20
-1.223456108570986
 30
0.0
 10
21.44192756948013
 20
-1.186352709168226
 30
0.0
 10
21.17837333195887
 20
-1.075189590712625
 30
0.0
 10
20.84496461439132
 20
-0.8651771728519996
 30
0.0
 10
20.51304143104547
 20
-0.5905843316698715
 30
0.0
 10
20.18618018885512
 20
-0.2695350688175277
 30
0.0
 10
19.86022472278407
 20
0.0871529118412452
 30
0.0
 10
19.53950675867556
 20
0.4579193594304476
 30
0.0
 10
19.21915722355979
 20
0.828857842487433
 30
0.0
 10
18.9037010896874
 20
1.178355682564867
 30
0.0
 10
18.58863972445634
 20
1.492797436855334
 30
0.0
 10
18.27735838295369
 20
1.755172625507249
 30
0.0
 10
17.96692595599029
 20
1.947695906464674
 30
0.0
 10
17.73074142180239
 20
2.054090986110267
 30
0.0
 10
17.59843799818533
 20
2.066676706951964
 30
0.0
 10
17.56797220450685
 20
2.069574847937098
 30
0.0
  0
SPLINE
  5
A8
330
1F
100
AcDbEntity
  8
0
  6
Continuous
 62
     1
370
    15
100
AcDbSpline
210
0.0
220
0.0
230
1.0
 70
     8
 71
     3
 72
    19
 73
    15
 74
     0
 42
0.000000001
 43
0.00000001
 40
0.0
 40
0.0
 40
0.0
 40
0.0
 40
0.0575483900322642
 40
0.1402528952755664
 40
0.2252616042456994
 40
0.3096795595026943
 40
0.396449998279754
 40
0.4826069004408624
 40
0.5711655426014788
 40
0.6590846267644223
 40
0.7494555584182222
 40
0.8391532136468041
 40
0.9313532004086104
 40
1.0
 40
1.0
 40
1.0
 40
1.0
 10
13.12664506265704
 20
-2.749982506241289
 30
0.0
 10
13.05959714679607
 20
-2.792177566070204
 30
0.0
 10
12.8961926742049
 20
-2.895012403048495
 30
0.0
 10
12.638149249133
 20
-2.947152870366927
 30
0.0
 10
12.35245019359015
 20
-2.916574715417653
 30
0.0
 10
12.06600378632534
 20
-2.778664703444881
 30
0.0
 10
11.78179572560674
 20
-2.541843959896477
 30
0.0
 10
11.49662855011478
 20
-2.208131713021889
 30
0.0
 10
11.21368497951895
 20
-1.790741861448298
 30
0.0
 10
10.92971710843181
 20
-1.297413034746869
 30
0.0
 10
10.64789890569514
 20
-0.7485735411635385
 30
0.0
 10
10.36508264132491
 20
-0.1559648047841333
 30
0.0
 10
10.10760851252017
 20
0.40529464955626
 30
0.0
 10
9.944514192963075
 20
0.7607480043992075
 30
0.0
 10
9.8749081826537
 20
0.9124497310374414
 30
0.0
  0
ELLIPSE
  5
A9
330
1F
100
AcDbEntity
  8
0
  6
Continuous
 62
     1
370
    15
100
AcDbEllipse
 10
22.1177226661605
 20
-0.2520559583654398
 30
0.0
 11
1.783589862329887
 21
1.139260004899092
 31
0.0
210
0.0
220
0.0
230
1.0
 40
0.2975493098399327
 41
4.236679382383079
 42
4.253062415158251
  0
ELLIPSE
  5
AA
330
1F
100
AcDbEntity
  8
0
  6
Continuous
 62
     1
370
    15
100
AcDbEllipse
 10
19.00574333746911
 20
0.4355014190584418
 30
0.0
 11
2.583805982524619
 21
-1.765515008620328
 31
0.0
210
0.0
220
0.0
230
1.0
 40
0.1598839377525345
 41
6.15057588456756
 42
6.437434259616558
  0
ELLIPSE
  5
AB
330
1F
100
AcDbEntity
  8
0
  6
Continuous
 62
     1
370
    15
100
AcDbEllipse
 10
22.1177226661605
 20
-0.1552272206903204
 30
0.0
 11
1.762213264983323
 21
0.8732386031837251
 31
0.0
210
0.0
220
0.0
230
1.0
 40
0.5000948292701728
 41
4.139540608254144
 42
4.724029715198067
  0
SPLINE
  5
AC
330
1F
100
AcDbEntity
  8
0
  6
Continuous
 62
     1
370
    15
100
AcDbSpline
210
0.0
220
0.0
230
1.0
 70
     8
 71
     3
 72
    19
 73
    15
 74
     0
 42
0.000000001
 43
0.00000001
 40
0.0
 40
0.0
 40
0.0
 40
0.0
 40
0.0539475248776394
 40
0.1648457967508514
 40
0.2497546870335773
 40
0.3371325033549004
 40
0.4217996101043386
 40
0.5090187920638881
 40
0.5920088343891396
 40
0.6775011728079958
 40
0.7588384564890933
 40
0.8426286293835292
 40
0.9223353764932074
 40
1.0
 40
1.0
 40
1.0
 40
1.0
 10
9.87490818265387
 20
2.192438254011819
 30
0.0
 10
9.935645664309893
 20
2.0837823820676
 30
0.0
 10
10.1212393236842
 20
1.751765967543876
 30
0.0
 10
10.40731492880897
 20
1.187981654672071
 30
0.0
 10
10.73558180588197
 20
0.5200620833902576
 30
0.0
 10
11.03777539237325
 20
-0.0937341407507729
 30
0.0
 10
11.34682854491085
 20
-0.6964982119077092
 30
0.0
 10
11.65507533433401
 20
-1.251755483015968
 30
0.0
 10
11.96870190611377
 20
-1.749902388528953
 30
0.0
 10
12.27974596611558
 20
-2.161301243509736
 30
0.0
 10
12.59633529153578
 20
-2.48339263578706
 30
0.0
 10
12.91051826255308
 20
-2.695095024099127
 30
0.0
 10
13.22426389932462
 20
-2.805747802857502
 30
0.0
 10
13.43319907310355
 20
-2.786251585351256
 30
0.0
 10
13.5363110403267
 20
-2.776629972560457
 30
0.0
  0
SPLINE
  5
AD
330
1F
100
AcDbEntity
  8
0
  6
Continuous
 62
     1
370
    15
100
AcDbSpline
210
0.0
220
0.0
230
1.0
 70
     8
 71
     3
 72
    19
 73
    15
 74
     0
 42
0.000000001
 43
0.00000001
 40
0.0
 40
0.0
 40
0.0
 40
0.0
 40
0.0462834188587137
 40
0.1365344951568617
 40
0.2294472128863478
 40
0.318903528677808
 40
0.4109739439114058
 40
0.5000980248212574
 40
0.5917903984559048
 40
0.6812544121802965
 40
0.7732434669694658
 40
0.864041154357457
 40
0.9573220843232984
 40
1.0
 40
1.0
 40
1.0
 40
1.0
 10
18.11848346780869
 20
1.843754784944839
 30
0.0
 10
18.17884850770062
 20
1.861306270897953
 30
0.0
 10
18.35692330100682
 20
1.913082551323056
 30
0.0
 10
18.66473741161569
 20
1.896278321118575
 30
0.0
 10
19.03639948977744
 20
1.801899447680576
 30
0.0
 10
19.41957994014326
 20
1.61517133349145
 30
0.0
 10
19.80578745282831
 20
1.358769754810909
 30
0.0
 10
20.20426256545754
 20
1.042668244651407
 30
0.0
 10
20.60847129169782
 20
0.6930004168717372
 30
0.0
 10
21.02673851710568
 20
0.3260303361743622
 30
0.0
 10
21.45430868233903
 20
-0.0290727427946242
 30
0.0
 10
21.89886938483509
 20
-0.3525384350894322
 30
0.0
 10
22.27353203348008
 20
-0.5736590106787629
 30
0.0
 10
22.50290673241236
 20
-0.6740771954492717
 30
0.0
 10
22.57490818265369
 20
-0.705598784219677
 30
0.0
  0
LINE
  5
AE
330
1F
100
AcDbEntity
  8
0
  6
Continuous
 62
     4
370
    15
100
AcDbLine
 10
9.8749081826537
 20
3.434812806811602
 30
0.0
 11
9.8749081826537
 21
2.192438254011468
 31
0.0
  0
SPLINE
  5
AF
330
1F
100
AcDbEntity
  8
0
  6
Continuous
 62
     1
370
    15
100
AcDbSpline
210
0.0
220
0.0
230
1.0
 70
     8
 71
     3
 72
    11
 73
     7
 74
     0
 42
0.000000001
 43
0.00000001
 40
0.0
 40
0.0
 40
0.0
 40
0.0
 40
0.1226662963160178
 40
0.4850348758043897
 40
0.8576067422881761
 40
1.0
 40
1.0
 40
1.0
 40
1.0
 10
21.63082833444994
 20
1.105745523247281
 30
0.0
 10
21.59269494537847
 20
1.131526282196402
 30
0.0
 10
21.44191168878913
 20
1.233465996613271
 30
0.0
 10
21.17860088982947
 20
1.378458581149677
 30
0.0
 10
20.91242452017294
 20
1.489911650135965
 30
0.0
 10
20.75979238426283
 20
1.508817552036596
 30
0.0
 10
20.71758799790229
 20
1.514045232194192
 30
0.0
  0
SPLINE
  5
B0
330
1F
100
AcDbEntity
  8
0
  6
Continuous
 62
     1
370
    15
100
AcDbSpline
210
0.0
220
0.0
230
1.0
 70
     8
 71
     3
 72
    27
 73
    23
 74
     0
 42
0.000000001
 43
0.00000001
 40
0.0
 40
0.0
 40
0.0
 40
0.0
 40
0.0017909529409558
 40
0.0509645146307261
 40
0.1015073136649891
 40
0.1517077513993737
 40
0.2033074319113045
 40
0.2545340653714778
 40
0.3071870072692548
 40
0.3594912191019695
 40
0.4132520240317128
 40
0.4666510376531798
 40
0.5215371812924497
 40
0.5760526706382191
 40
0.6320865822608911
 40
0.6877403274390085
 40
0.7449446237832837
 40
0.8017513884995388
 40
0.860141192954393
 40
0.918118134647042
 40
0.9777112618851277
 40
1.0
 40
1.0
 40
1.0
 40
1.0
 10
16.45627653883245
 20
-2.147870027264295
 30
0.0
 10
16.45261464577375
 20
-2.150622155575642
 30
0.0
 10
16.34840944970286
 20
-2.228938497888033
 30
0.0
 10
16.14520886170327
 20
-2.312194975282952
 30
0.0
 10
15.84716849426909
 20
-2.381751485520895
 30
0.0
 10
15.54945071317941
 20
-2.351219891307282
 30
0.0
 10
15.25445659458972
 20
-2.231349413410884
 30
0.0
 10
14.95906486632724
 20
-2.019915868697246
 30
0.0
 10
14.66644816722124
 20
-1.725768065006338
 30
0.0
 10
14.37322569630334
 20
-1.354413871646601
 30
0.0
 10
14.08262052152227
 20
-0.9217986312137971
 30
0.0
 10
13.79134750756147
 20
-0.4376895145753824
 30
0.0
 10
13.50259038345337
 20
0.0762145105176262
 30
0.0
 10
13.21307079124321
 20
0.607538805384387
 30
0.0
 10
12.92598685572614
 20
1.131819878183868
 30
0.0
 10
12.63805892844715
 20
1.635764141358721
 30
0.0
 10
12.35247215553921
 20
2.095642947505937
 30
0.0
 10
12.06600634460232
 20
2.498586506568748
 30
0.0
 10
11.78176187684673
 20
2.826931113852376
 30
0.0
 10
11.49676151758767
 20
3.062592851804828
 30
0.0
 10
11.27234168695513
 20
3.190892462339926
 30
0.0
 10
11.14302748741977
 20
3.202052838267998
 30
0.0
 10
11.10782738156539
 20
3.205090759976938
 30
0.0
  0
ELLIPSE
  5
B1
330
1F
100
AcDbEntity
  8
0
  6
Continuous
 62
     1
370
    15
100
AcDbEllipse
 10
22.1177226661605
 20
-0.0321433161649508
 30
0.0
 11
1.806961086139467
 21
0.2646570460734924
 31
0.0
210
0.0
220
0.0
230
1.0
 40
0.6652257738619229
 41
1.745178786863627
 42
1.761561819638798
  0
ELLIPSE
  5
B2
330
1F
100
AcDbEntity
  8
0
  6
Continuous
 62
     1
370
    15
100
AcDbEllipse
 10
19.00574333746911
 20
-0.3462472059311487
 30
0.0
 11
2.546757021003927
 21
1.592289838856936
 31
0.0
210
0.0
220
0.0
230
1.0
 40
0.3261885834061552
 41
5.840577153455125
 42
6.127435528504222
  0
LINE
  5
B3
330
1F
100
AcDbEntity
  8
0
  6
Continuous
 62
     1
370
    15
100
AcDbLine
 10
21.52954110317782
 20
0.7368090610593784
 30
0.0
 11
22.5749081826537
 21
0.0048351518140938
 31
0.0
  0
LINE
  5
B4
330
1F
100
AcDbEntity
  8
0
  6
Continuous
 62
     1
370
    15
100
AcDbLine
 10
22.5749081826537
 20
0.0048351518140942
 30
0.0
 11
22.5749081826537
 21
-0.7055987842196764
 31
0.0
  0
SPLINE
  5
B5
330
1F
100
AcDbEntity
  8
0
  6
Continuous
 62
     4
370
    15
100
AcDbSpline
210
0.0
220
0.0
230
1.0
 70
     8
 71
     3
 72
    10
 73
     6
 74
     0
 42
0.000000001
 43
0.00000001
 40
0.0
 40
0.0
 40
0.0
 40
0.0
 40
0.5
 40
0.5
 40
1.0
 40
1.0
 40
1.0
 40
1.0
 10
9.8749081826537
 20
0.9124497310374414
 30
0.0
 10
9.787730490645988
 20
1.097202134940312
 30
0.0
 10
9.702525531599328
 20
1.272715081705398
 30
0.0
 10
9.535220564621369
 20
1.604394058982519
 30
0.0
 10
9.453134086346772
 20
1.760214060770396
 30
0.0
 10
9.3749081826537
 20
1.903360270584763
 30
0.0
  0
SPLINE
  5
B6
330
1F
100
AcDbEntity
  8
0
  6
Continuous
 62
     4
370
    15
100
AcDbSpline
210
0.0
220
0.0
230
1.0
 70
     8
 71
     3
 72
    10
 73
     6
 74
     0
 42
0.000000001
 43
0.00000001
 40
0.0
 40
0.0
 40
0.0
 40
0.0
 40
0.4999999999999999
 40
0.4999999999999999
 40
1.0
 40
1.0
 40
1.0
 40
1.0
 10
9.374908182653707
 20
-2.886162769011912
 30
0.0
 10
9.47261088129054
 20
-2.985881787760747
 30
0.0
 10
9.558536759418729
 20
-3.077502543499254
 30
0.0
 10
9.723008812381515
 20
-3.241969502431516
 30
0.0
 10
9.800180522935184
 20
-3.314362306678362
 30
0.0
 10
9.874908182653702
 20
-3.376837579176279
 30
0.0
  0
LINE
  5
B7
330
1F
100
AcDbEntity
  8
0
  6
Continuous
 62
     4
370
    15
100
AcDbLine
 10
9.3749081826537
 20
1.903360270584767
 30
0.0
 11
9.3749081826537
 21
-2.886162769011969
 31
0.0
  0
SPLINE
  5
B8
330
1F
100
AcDbEntity
  8
0
  6
Continuous
 62
     4
370
    15
100
AcDbSpline
210
0.0
220
0.0
230
1.0
 70
     8
 71
     3
 72
     8
 73
     4
 74
     0
 42
0.000000001
 43
0.00000001
 40
0.0
 40
0.0
 40
0.0
 40
0.0
 40
1.0
 40
1.0
 40
1.0
 40
1.0
 10
9.3749081826537
 20
1.903360270584767
 30
0.0
 10
9.243503160200147
 20
2.134268839396529
 30
0.0
 10
9.11364281354602
 20
2.341193531470977
 30
0.0
 10
8.9849081826537
 20
2.517984768825346
 30
0.0
  0
SPLINE
  5
B9
330
1F
100
AcDbEntity
  8
0
  6
Continuous
 62
     4
370
    15
100
AcDbSpline
210
0.0
220
0.0
230
1.0
 70
     8
 71
     3
 72
     8
 73
     4
 74
     0
 42
0.000000001
 43
0.00000001
 40
0.0
 40
0.0
 40
0.0
 40
0.0
 40
1.0
 40
1.0
 40
1.0
 40
1.0
 10
8.984908182664999
 20
2.928066946644782
 30
0.0
 10
9.116667556548915
 20
2.837453009285659
 30
0.0
 10
9.24617523628996
 20
2.72311136043071
 30
0.0
 10
9.374908182653712
 20
2.587025370368343
 30
0.0
  0
SPLINE
  5
BA
330
1F
100
AcDbEntity
  8
0
  6
Continuous
 62
     4
370
    15
100
AcDbSpline
210
0.0
220
0.0
230
1.0
 70
     8
 71
     3
 72
    10
 73
     6
 74
     0
 42
0.000000001
 43
0.00000001
 40
0.0
 40
0.0
 40
0.0
 40
0.0
 40
0.5
 40
0.5
 40
1.0
 40
1.0
 40
1.0
 40
1.0
 10
9.374908182653705
 20
2.587025370368367
 30
0.0
 10
9.472610881290544
 20
2.551046106495682
 30
0.0
 10
9.558536759418715
 20
2.496191899598321
 30
0.0
 10
9.723008812381508
 20
2.362172228517189
 30
0.0
 10
9.80018052293518
 20
2.282830344370809
 30
0.0
 10
9.874908182653702
 20
2.192438254011468
 30
0.0
  0
SPLINE
  5
BB
330
1F
100
AcDbEntity
  8
0
  6
Continuous
 62
     1
370
    15
100
AcDbSpline
210
0.0
220
0.0
230
1.0
 70
     8
 71
     3
 72
    12
 73
     8
 74
     0
 42
0.000000001
 43
0.00000001
 40
0.0
 40
0.0
 40
0.0
 40
0.0
 40
0.2356460136600066
 40
0.5087178185659834
 40
0.735662831171086
 40
0.9189706385010736
 40
1.0
 40
1.0
 40
1.0
 40
1.0
 10
21.63082833444994
 20
-1.232839632957602
 30
0.0
 10
21.66016937968092
 20
-1.17321482015347
 30
0.0
 10
21.72351147612686
 20
-1.044495457449178
 30
0.0
 10
21.87523282454696
 20
-0.8520528097693316
 30
0.0
 10
22.04869682298763
 20
-0.6945043413570254
 30
0.0
 10
22.18898355916354
 20
-0.5980024175920905
 30
0.0
 10
22.26071553162375
 20
-0.5716798693703325
 30
0.0
 10
22.28270410006177
 20
-0.5636110106287373
 30
0.0
  0
LINE
  5
BC
330
1F
100
AcDbEntity
  8
0
  6
Continuous
 62
     4
370
    15
100
AcDbLine
 10
9.3749081826537
 20
3.179835151814072
 30
0.0
 11
9.3749081826537
 21
2.587025370368325
 31
0.0
  0
LINE
  5
BD
330
1F
100
AcDbEntity
  8
0
  6
Continuous
 62
     4
370
    15
100
AcDbLine
 10
8.9849081826537
 20
2.517984768823597
 30
0.0
 11
8.9849081826537
 21
2.928066946652553
 31
0.0
  0
SPLINE
  5
BE
330
1F
100
AcDbEntity
  8
0
  6
Continuous
 62
     4
370
    15
100
AcDbSpline
210
0.0
220
0.0
230
1.0
 70
     8
 71
     3
 72
     8
 73
     4
 74
     0
 42
0.000000001
 43
0.00000001
 40
0.0
 40
0.0
 40
0.0
 40
0.0
 40
1.0
 40
1.0
 40
1.0
 40
1.0
 10
8.984908182665
 20
-2.529863060835325
 30
0.0
 10
9.116667556548924
 20
-2.669690218622019
 30
0.0
 10
9.246175236289952
 20
-2.789477049015166
 30
0.0
 10
9.374908182653714
 20
-2.886162769011898
 30
0.0
  0
LINE
  5
BF
330
1F
100
AcDbEntity
  8
0
  6
Continuous
 62
     4
370
    15
100
AcDbLine
 10
8.9849081826537
 20
-2.932075338003663
 30
0.0
 11
8.9849081826537
 21
-2.529863060823333
 31
0.0
  0
SPLINE
  5
C0
330
1F
100
AcDbEntity
  8
0
  6
Continuous
 62
     4
370
    15
100
AcDbSpline
210
0.0
220
0.0
230
1.0
 70
     8
 71
     3
 72
     8
 73
     4
 74
     0
 42
0.000000001
 43
0.00000001
 40
0.0
 40
0.0
 40
0.0
 40
0.0
 40
1.0
 40
1.0
 40
1.0
 40
1.0
 10
9.374908182653702
 20
-3.148326345827597
 30
0.0
 10
9.243503160200149
 20
-3.11459534645567
 30
0.0
 10
9.11364281354602
 20
-3.041989572857207
 30
0.0
 10
8.9849081826537
 20
-2.932075338008662
 30
0.0
  0
LINE
  5
C1
330
1F
100
AcDbEntity
  8
0
  6
Continuous
 62
     4
370
    15
100
AcDbLine
 10
9.374908182653702
 20
-3.148326345827597
 30
0.0
 11
9.3749081826537
 21
-3.17016484818588
 31
0.0
  0
LINE
  5
C2
102
{ACAD_REACTORS
102
}
330
1F
100
AcDbEntity
  8
0
  6
Continuous
 62
     4
370
    15
100
AcDbLine
 10
-52.8150918173463
 20
3.179835151814064
 30
0.0
 11
-52.8150918173463
 21
-3.170164848185888
 31
0.0
  0
LINE
  5
C3
330
1F
100
AcDbEntity
  8
0
  6
Continuous
 62
     4
370
    15
100
AcDbLine
 10
-53.6250918173463
 20
-2.360164848185883
 30
0.0
 11
-53.6250918173463
 21
2.369835151814061
 31
0.0
  0
SPLINE
  5
C4
330
1F
100
AcDbEntity
  8
0
  6
Continuous
 62
     1
370
    15
100
AcDbSpline
210
0.0
220
0.0
230
1.0
 70
     8
 71
     3
 72
    25
 73
    21
 74
     0
 42
0.000000001
 43
0.00000001
 40
0.0
 40
0.0
 40
0.0
 40
0.0
 40
0.0381674651353541
 40
0.1005992057561822
 40
0.164913373428441
 40
0.226101776944123
 40
0.2891354397083609
 40
0.3490972233375185
 40
0.4108662618389006
 40
0.4696450235971425
 40
0.530195061503118
 40
0.5878169497100939
 40
0.6471732397402394
 40
0.7036966397975924
 40
0.7619198914181401
 40
0.8173889407035068
 40
0.8745231091741638
 40
0.9290233907176711
 40
0.9851570079127989
 40
0.9999999999999999
 40
0.9999999999999999
 40
0.9999999999999999
 40
0.9999999999999999
 10
11.47687830065451
 20
3.059811617233832
 30
0.0
 10
11.53809460424195
 20
3.077495831103636
 30
0.0
 10
11.69944436897973
 20
3.124106677892012
 30
0.0
 10
11.96882905658416
 20
3.070870720750463
 30
0.0
 10
12.27970837079802
 20
2.917072688806779
 30
0.0
 10
12.5963631615442
 20
2.651464810006356
 30
0.0
 10
12.91044368856984
 20
2.299773455988239
 30
0.0
 10
13.23030504560389
 20
1.867325230962522
 30
0.0
 10
13.54782027442124
 20
1.383870386434366
 30
0.0
 10
13.87137482508853
 20
0.8576814604392905
 30
0.0
 10
14.19275146540149
 20
0.3234594078315203
 30
0.0
 10
14.52042151031708
 20
-0.2101539896909018
 30
0.0
 10
14.84617109176257
 20
-0.7087387142248298
 30
0.0
 10
15.17857548982496
 20
-1.16474942832127
 30
0.0
 10
15.50934773275299
 20
-1.549650856913731
 30
0.0
 10
15.84709832743931
 20
-1.857623776079196
 30
0.0
 10
16.18379700199766
 20
-2.072691902051599
 30
0.0
 10
16.52795910074305
 20
-2.184118870645785
 30
0.0
 10
16.78926306958868
 20
-2.212444641222124
 30
0.0
 10
16.94074101258141
 20
-2.172770436373222
 30
0.0
 10
16.97241885591544
 20
-2.164473563437298
 30
0.0
  0
SPLINE
  5
C5
330
1F
100
AcDbEntity
  8
0
  6
Continuous
 62
     1
370
    15
100
AcDbSpline
210
0.0
220
0.0
230
1.0
 70
     8
 71
     3
 72
    11
 73
     7
 74
     0
 42
0.000000001
 43
0.00000001
 40
0.0
 40
0.0
 40
0.0
 40
0.0
 40
0.0065267931093922
 40
0.4043326179825895
 40
0.8130181072003317
 40
1.0
 40
1.0
 40
1.0
 40
1.0
 10
21.45100461941421
 20
1.218571428636114
 30
0.0
 10
21.4533438700543
 20
1.21934842669809
 30
0.0
 10
21.59825965328362
 20
1.267483192930244
 30
0.0
 10
21.8997300297303
 20
1.279740611321864
 30
0.0
 10
22.27344476581024
 20
1.257040335745107
 30
0.0
 10
22.50288588338763
 20
1.204106282655891
 30
0.0
 10
22.57490818265369
 20
1.187490114406661
 30
0.0
  0
SPLINE
  5
C6
330
1F
100
AcDbEntity
  8
0
  6
Continuous
 62
     1
370
    15
100
AcDbSpline
210
0.0
220
0.0
230
1.0
 70
     8
 71
     3
 72
    26
 73
    22
 74
     0
 42
0.000000001
 43
0.00000001
 40
0.0
 40
0.0
 40
0.0
 40
0.0
 40
0.0385641302076387
 40
0.0901955457370959
 40
0.1432732770596574
 40
0.1958227123940097
 40
0.2498395935966417
 40
0.3033879313814284
 40
0.3584320449984582
 40
0.4130201102689313
 40
0.4691333508695764
 40
0.5247783517803896
 40
0.5819734664975986
 40
0.6387647957625925
 40
0.6971374790357339
 40
0.7551147637930697
 40
0.81470805631089
 40
0.873870510849526
 40
0.934680231710346
 40
0.9950871986670555
 40
1.0
 40
1.0
 40
1.0
 40
1.0
 10
19.77895258785573
 20
-1.527610624598979
 30
0.0
 10
19.69875216952415
 20
-1.576346251841544
 30
0.0
 10
19.51117577506609
 20
-1.690331358527864
 30
0.0
 10
19.21927442067193
 20
-1.787381581514322
 30
0.0
 10
18.90367342763621
 20
-1.822471449485845
 30
0.0
 10
18.58863349111271
 20
-1.771943542925282
 30
0.0
 10
18.27741337411008
 20
-1.639471793740691
 30
0.0
 10
17.96671240301088
 20
-1.426009383965137
 30
0.0
 10
17.65956828531131
 20
-1.141629082596931
 30
0.0
 10
17.35242761553996
 20
-0.7933452611225373
 30
0.0
 10
17.0490945799606
 20
-0.3979834434695324
 30
0.0
 10
16.7454606705039
 20
0.033207181018668
 30
0.0
 10
16.44522633614492
 20
0.4789631304311482
 30
0.0
 10
16.14486006528561
 20
0.9266125679855923
 30
0.0
 10
15.84726344550364
 20
1.353136933599804
 30
0.0
 10
15.54942005162159
 20
1.74619837547959
 30
0.0
 10
15.25448216185983
 20
2.084214321435008
 30
0.0
 10
14.95899321977179
 20
2.359780156495394
 30
0.0
 10
14.66671631801989
 20
2.544930935548675
 30
0.0
 10
14.46408098274871
 20
2.638667586259702
 30
0.0
 10
14.36105457220369
 20
2.64141002520002
 30
0.0
 10
14.35330579568003
 20
2.641616288296696
 30
0.0
  0
LINE
  5
C7
330
1F
100
AcDbEntity
  8
0
  6
Continuous
 62
     1
370
    15
100
AcDbLine
 10
22.5749081826537
 20
1.195460151814094
 30
0.0
 11
22.5749081826537
 21
1.18749011440666
 31
0.0
  0
SPLINE
  5
C8
330
1F
100
AcDbEntity
  8
0
  6
Continuous
 62
     1
370
    15
100
AcDbSpline
210
0.0
220
0.0
230
1.0
 70
     8
 71
     3
 72
    18
 73
    14
 74
     0
 42
0.000000001
 43
0.00000001
 40
0.0
 40
0.0
 40
0.0
 40
0.0
 40
0.25
 40
0.25
 40
0.5
 40
0.5
 40
0.625
 40
0.625
 40
0.75
 40
0.75
 40
0.875
 40
0.875
 40
1.0
 40
1.0
 40
1.0
 40
1.0
 10
21.63082833444994
 20
1.105745523247279
 30
0.0
 10
21.67517042863538
 20
0.9793728014247747
 30
0.0
 10
21.74229178439621
 20
0.8646426351039331
 30
0.0
 10
21.91668914561038
 20
0.6926427517062779
 30
0.0
 10
22.02665159832684
 20
0.6339009213861206
 30
0.0
 10
22.20026346502826
 20
0.6245727121305319
 30
0.0
 10
22.26012418019334
 20
0.6348525251392821
 30
0.0
 10
22.3715766154125
 20
0.6876632822390596
 30
0.0
 10
22.4227410496401
 20
0.7305121892163151
 30
0.0
 10
22.50314539833569
 20
0.8408746771461313
 30
0.0
 10
22.53185850830898
 20
0.907260554659091
 30
0.0
 10
22.56729970244932
 20
1.0446878514754
 30
0.0
 10
22.57473227990076
 20
1.117034615132042
 30
0.0
 10
22.5749081826537
 20
1.187490114405808
 30
0.0
  0
SPLINE
  5
C9
330
1F
100
AcDbEntity
  8
0
  6
Continuous
 62
     4
370
    15
100
AcDbSpline
210
0.0
220
0.0
230
1.0
 70
     8
 71
     3
 72
     9
 73
     5
 74
     0
 42
0.000000001
 43
0.00000001
 40
0.0
 40
0.0
 40
0.0
 40
0.0
 40
0.575811519884578
 40
1.0
 40
1.0
 40
1.0
 40
1.0
 10
9.792357522477678
 20
-3.299324528116782
 30
0.0
 10
9.709069624817523
 20
-3.29529173053339
 30
0.0
 10
9.5644252493857
 20
-3.288288054080025
 30
0.0
 10
9.431355034749053
 20
-3.190013345214904
 30
0.0
 10
9.374908182653702
 20
-3.148326345827623
 30
0.0
  0
LINE
  5
CA
330
1F
100
AcDbEntity
  8
0
  6
Continuous
 62
     1
370
    15
100
AcDbLine
 10
22.5749081826537
 20
0.004835151814099
 30
0.0
 11
22.5749081826537
 21
1.18749011440666
 31
0.0
  0
LINE
  5
CB
330
1F
100
AcDbEntity
  8
0
  6
Continuous
 62
     1
370
    15
100
AcDbLine
 10
22.5749081826537
 20
-0.7055987842196773
 30
0.0
 11
22.5749081826537
 21
-1.026276344566746
 31
0.0
  0
LINE
  5
CC
330
1F
100
AcDbEntity
  8
중심선
100
AcDbLine
 10
-56.62509181734629
 20
-0.0000000000000035
 30
0.0
 11
25.57490428620234
 21
-0.0000000000000035
 31
0.0
  0
CIRCLE
  5
CD
330
1F
100
AcDbEntity
  8
외형선
100
AcDbCircle
 10
-0.0000000000000013
 20
-0.0000000000000039
 30
0.0
 40
3.000000000000004
  0
INSERT
  5
CE
330
1F
100
AcDbEntity
  8
0
  6
Continuous
 62
     7
100
AcDbBlockReference
 66
     1
  2
블럭10
 10
-16.63945112874702
 20
-52.04717430164393
 30
0.0
  0
ATTRIB
  5
CF
330
CE
100
AcDbEntity
  8
FORMAT
 62
     2
100
AcDbText
 10
-25.8207464174883
 20
-49.97180738881174
 30
0.0
 40
4.233333333333333
  1
E5077006 [ 3 FLUTE ]
 41
0.75
  7
SLDTEXTSTYLE0
 11
-25.8207464174883
 21
-52.08847405547841
 31
0.0
100
AcDbAttribute
  2
AUTOATTR0
 70
     0
 74
     1
  0
SEQEND
  5
D0
330
CE
100
AcDbEntity
  8
0
  6
Continuous
 62
     7
  0
HATCH
  5
D1
330
1F
100
AcDbEntity
  8
중심선
100
AcDbHatch
 10
0.0
 20
0.0
 30
0.0
210
0.0
220
0.0
230
1.0
  2
SOLID
 70
     1
 71
     0
 91
        1
 92
        0
 93
        4
 72
     1
 10
-10.92454182436617
 20
-35.8
 11
-14.37081706820345
 21
-35.8
 72
     1
 10
-14.37081706820345
 20
-35.8
 11
-16.49904692740747
 21
-38.33632558057259
 72
     1
 10
-16.49904692740747
 20
-38.33632558057259
 11
-13.05273859845704
 21
-38.3362861512701
 72
     1
 10
-13.05273859845704
 20
-38.3362861512701
 11
-10.92454182436617
 21
-35.8
 97
        0
 75
     0
 76
     1
 98
        1
 10
0.0
 20
0.0
  0
HATCH
  5
D2
330
1F
100
AcDbEntity
  8
중심선
100
AcDbHatch
 10
0.0
 20
0.0
 30
0.0
210
0.0
220
0.0
230
1.0
  2
SOLID
 70
     1
 71
     0
 91
        1
 92
        0
 93
        4
 72
     1
 10
-5.911777833330217
 20
-35.8
 11
-9.358053077167499
 21
-35.8
 72
     1
 10
-9.358053077167499
 20
-35.8
 11
-13.88919108552489
 21
-41.20000000000002
 72
     1
 10
-13.88919108552489
 20
-41.20000000000002
 11
-10.44291584168761
 21
-41.20000000000002
 72
     1
 10
-10.44291584168761
 20
-41.20000000000002
 11
-5.911777833330217
 21
-35.8
 97
        0
 75
     0
 76
     1
 98
        1
 10
0.0
 20
0.0
  0
HATCH
  5
D3
330
1F
100
AcDbEntity
  8
중심선
100
AcDbHatch
 10
0.0
 20
0.0
 30
0.0
210
0.0
220
0.0
230
1.0
  2
SOLID
 70
     1
 71
     0
 91
        1
 92
        0
 93
        4
 72
     1
 10
-0.8990138422943217
 20
-35.80000000000003
 11
-4.345289086131437
 21
-35.8
 72
     1
 10
-4.345289086131437
 20
-35.8
 11
-11.39372598802069
 21
-44.20000000000002
 72
     1
 10
-11.39372598802069
 20
-44.20000000000002
 11
-7.947450744183405
 21
-44.20000000000002
 72
     1
 10
-7.947450744183405
 20
-44.20000000000002
 11
-0.8990138422943215
 21
-35.80000000000003
 97
        0
 75
     0
 76
     1
 98
        1
 10
0.0
 20
0.0
  0
HATCH
  5
D4
330
1F
100
AcDbEntity
  8
중심선
100
AcDbHatch
 10
0.0
 20
0.0
 30
0.0
210
0.0
220
0.0
230
1.0
  2
SOLID
 70
     1
 71
     0
 91
        1
 92
        0
 93
        6
 72
     3
 10
3.900876588717877
 20
-40.00000000005127
 11
3.960054785062284
 21
1.540850780301639E-10
 40
0.3939339440162633
 50
17.09539180608433
 51
320.0019657685079
 73
     0
 72
     1
 10
5.583876244418473
 20
-38.5878940046383
 11
7.889178118119511
 21
-36.65356729459038
 72
     3
 10
3.900876588665031
 20
-40.00000000000015
 11
6.600054785286829
 21
-1.249000902703301E-13
 40
0.6363583540795982
 50
39.99873849337408
 51
368.4976242363725
 73
     1
 72
     1
 10
10.32620908056564
 20
-39.03999999993002
 11
2.580943895500953
 21
-39.03999999992999
 72
     1
 10
2.580943895500953
 20
-39.03999999992999
 11
2.58091885105502
 21
-40.95999999992991
 72
     1
 10
2.58091885105502
 20
-40.95999999992991
 11
7.022298620527057
 21
-40.95999999992988
 97
        0
 75
     0
 76
     1
 98
        1
 10
0.0
 20
0.0
  0
POINT
  5
D5
330
1F
100
AcDbEntity
  8
치수문자_일반주서
100
AcDbPoint
 10
-0.0000000000000013
 20
-0.0000000000000039
 30
0.0
  0
DIMENSION
  5
D6
330
1F
100
AcDbEntity
  8
치수문자_일반주서
100
AcDbDimension
  2
_D
 10
9.8749081826537
 20
26.80433703156156
 30
0.0
 11
-9.90557506104191
 21
26.80433703156156
 31
0.0
 70
   160
  1
<>
 71
     2
 42
12.7
  3
SLDDIMSTYLE0
100
AcDbAlignedDimension
 13
22.5749081826537
 23
1.195460151814094
 33
0.0
 14
9.8749081826537
 24
3.434812806811602
 34
0.0
100
AcDbRotatedDimension
1001
ACAD
1000
DSTYLE
1002
{
1070
   171
1070
     6
1070
   273
1070
     7
1002
}
  0
DIMENSION
  5
EC
330
1F
100
AcDbEntity
  8
치수문자_일반주서
100
AcDbDimension
  2
_D_1
 10
-53.6250918173463
 20
39.86628320781314
 30
0.0
 11
-12.8950432689867
 21
39.86628320781314
 31
0.0
 70
   160
  1
<>
 71
     2
 42
76.2
  3
SLDDIMSTYLE1
100
AcDbAlignedDimension
 13
22.5749081826537
 23
1.18749011440666
 33
0.0
 14
-53.6250918173463
 24
2.369835151814059
 34
0.0
 50
0.0000000000000053
100
AcDbRotatedDimension
1001
ACAD
1000
DSTYLE
1002
{
1070
   171
1070
     6
1070
   273
1070
     7
1002
}
  0
INSERT
  5
117
330
1F
100
AcDbEntity
  8
외형선
100
AcDbBlockReference
  2
SW_DOWELSYMBOL_0
 10
-0.0000000000000013
 20
-0.0000000000000039
 30
0.0
  0
DIMENSION
  5
13D
102
{ACAD_REACTORS
102
}
102
{ACAD_XDICTIONARY
360
13E
102
}
330
1F
100
AcDbEntity
  8
치수문자_일반주서
100
AcDbDimension
  2
*D7
 10
-69.64331122566855
 20
3.179835151814065
 30
0.0
 11
-72.26831122566855
 21
22.47133515181406
 31
0.0
 70
    32
  1
{%%c<>[]}
 71
     5
 42
6.349999999999953
  3
SLDDIMSTYLE0
100
AcDbAlignedDimension
 13
-52.8150918173463
 23
-3.170164848185888
 33
0.0
 14
-52.8150918173463
 24
3.179835151814064
 34
0.0
 50
90.0
100
AcDbRotatedDimension
1001
ACAD
1000
DSTYLE
1002
{
1070
   171
1070
     6
1070
   273
1070
     7
1070
   283
1070
     1
1070
   170
1070
     1
1002
}
  0
DIMENSION
  5
155
102
{ACAD_REACTORS
102
}
102
{ACAD_XDICTIONARY
360
156
102
}
330
1F
100
AcDbEntity
  8
치수문자_일반주서
100
AcDbDimension
  2
*D8
 10
37.69046245359281
 20
-1.190625000000004
 30
0.0
 11
37.69046245359281
 21
22.23696015181409
 31
0.0
 70
   160
  1
{%%c<>[]}
 71
     5
 42
2.386085151814098
  3
SLDDIMSTYLE0
100
AcDbAlignedDimension
 13
22.5749081826537
 23
1.195460151814094
 33
0.0
 14
22.5749081826537
 24
-1.190625000000004
 34
0.0
 50
90.0
100
AcDbRotatedDimension
1001
ACAD
1000
DSTYLE
1002
{
1070
   283
1070
     1
1070
   170
1070
     1
1070
   171
1070
     6
1070
   273
1070
     7
1002
}
  0
DIMENSION
  5
16F
102
{ACAD_REACTORS
102
}
102
{ACAD_XDICTIONARY
360
170
102
}
330
1F
100
AcDbEntity
  8
치수문자_일반주서
100
AcDbDimension
  2
*D9
 10
-52.8150918173463
 20
3.179835151814064
 30
0.0
 11
-5.448853468421914
 21
16.76107302518338
 31
0.0
 70
    34
  1
<>
 71
     5
 42
0.1745329251994331
  3
SLDDIMSTYLE0
100
AcDb2LineAngularDimension
 13
11.10993510242257
 23
3.217044238955082
 33
0.0
 14
9.8749081826537
 24
3.434812806811602
 34
0.0
 15
9.3749081826537
 25
3.179835151814072
 35
0.0
 16
-7.351017574788647
 26
4.26735390535266
 36
0.0
1001
ACAD
1000
DSTYLE
1002
{
1070
   171
1070
     6
1070
   273
1070
     7
1002
}
  0
ENDSEC
  0
SECTION
  2
OBJECTS
  0
DICTIONARY
  5
C
330
0
100
AcDbDictionary
281
     1
  3
ACAD_DETAILVIEWSTYLE
350
16C
  3
ACAD_GROUP
350
D
  3
ACAD_IMAGE_VARS
350
13B
  3
ACAD_LAYOUT
350
1A
  3
ACAD_MLINESTYLE
350
17
  3
ACAD_PLOTSETTINGS
350
19
  3
ACAD_PLOTSTYLENAME
350
E
  3
ACAD_SCALELIST
350
47
  3
ACAD_SECTIONVIEWSTYLE
350
16D
  3
AcDbVariableDictionary
350
167
  3
APPDATA
350
139
  3
DWGPROPS
350
182
  0
DICTIONARY
  5
13E
330
13D
100
AcDbDictionary
280
     1
281
     1
  0
DICTIONARY
  5
156
330
155
100
AcDbDictionary
280
     1
281
     1
  0
DICTIONARY
  5
170
330
16F
100
AcDbDictionary
280
     1
281
     1
  0
DICTIONARY
  5
16C
102
{ACAD_REACTORS
330
C
102
}
330
C
100
AcDbDictionary
281
     1
  0
DICTIONARY
  5
D
102
{ACAD_REACTORS
330
C
102
}
330
C
100
AcDbDictionary
281
     1
  0
RASTERVARIABLES
  5
13B
102
{ACAD_REACTORS
330
C
102
}
330
C
100
AcDbRasterVariables
 90
        0
 70
     1
 71
     1
 72
     1
  0
DICTIONARY
  5
1A
102
{ACAD_REACTORS
330
C
102
}
330
C
100
AcDbDictionary
281
     1
  3
Layout1
350
1E
  3
Layout2
350
26
  3
Model
350
22
  0
DICTIONARY
  5
17
102
{ACAD_REACTORS
330
C
102
}
330
C
100
AcDbDictionary
281
     1
  3
Standard
350
18
  0
DICTIONARY
  5
19
102
{ACAD_REACTORS
330
C
102
}
330
C
100
AcDbDictionary
281
     1
  0
ACDBDICTIONARYWDFLT
  5
E
102
{ACAD_REACTORS
330
C
102
}
330
C
100
AcDbDictionary
281
     1
  3
Normal
350
F
100
AcDbDictionaryWithDefault
340
F
  0
DICTIONARY
  5
47
102
{ACAD_REACTORS
330
C
102
}
330
C
100
AcDbDictionary
281
     1
  3
A0
350
48
  3
A1
350
49
  3
A2
350
4A
  3
A3
350
4B
  3
A4
350
4C
  3
A5
350
4D
  3
A6
350
4E
  3
A7
350
4F
  3
A8
350
50
  3
A9
350
51
  3
B0
350
52
  3
B1
350
53
  3
B2
350
54
  3
B3
350
55
  3
B4
350
56
  3
B5
350
57
  3
B6
350
58
  3
B7
350
59
  3
B8
350
5A
  3
B9
350
5B
  3
C0
350
5C
  3
C1
350
5D
  3
C2
350
5E
  3
C3
350
5F
  3
C4
350
60
  3
C5
350
61
  3
C6
350
62
  3
C7
350
63
  3
C8
350
64
  3
C9
350
65
  3
D0
350
66
  3
D1
350
67
  3
D2
350
68
  0
DICTIONARY
  5
16D
102
{ACAD_REACTORS
330
C
102
}
330
C
100
AcDbDictionary
281
     1
  0
DICTIONARY
  5
167
102
{ACAD_REACTORS
330
C
102
}
330
C
100
AcDbDictionary
281
     1
  0
DICTIONARY
  5
139
102
{ACAD_REACTORS
330
C
102
}
330
C
100
AcDbDictionary
281
     1
  0
XRECORD
  5
182
102
{ACAD_REACTORS
330
C
102
}
330
C
100
AcDbXrecord
280
     1
  1
DWGPROPS COOKIE
  2

  3

  4

  6

  7

  8
12015048
  9

300
=
301
=
302
=
303
=
304
=
305
=
306
=
307
=
308
=
309
=
 40
0.0
 41
2458333.356125498
 42
2458339.246577268
  1

 90
        0
  0
LAYOUT
  5
1E
102
{ACAD_REACTORS
330
1A
102
}
330
1A
100
AcDbPlotSettings
  1

  2
none_device
  4

  6

 40
0.0
 41
0.0
 42
0.0
 43
0.0
 44
0.0
 45
0.0
 46
0.0
 47
0.0
 48
0.0
 49
0.0
140
0.0
141
0.0
142
1.0
143
1.0
 70
   688
 72
     1
 73
     0
 74
     5
  7

 75
    16
147
1.0
148
0.0
149
0.0
100
AcDbLayout
  1
Layout1
 70
     1
 71
     1
 10
0.0
 20
0.0
 11
420.0
 21
297.0
 12
0.0
 22
0.0
 32
0.0
 14
1.000000000000000E+20
 24
1.000000000000000E+20
 34
1.000000000000000E+20
 15
-1.000000000000000E+20
 25
-1.000000000000000E+20
 35
-1.000000000000000E+20
146
0.0
 13
0.0
 23
0.0
 33
0.0
 16
1.0
 26
0.0
 36
0.0
 17
0.0
 27
1.0
 37
0.0
 76
     0
330
1B
  0
LAYOUT
  5
26
102
{ACAD_REACTORS
330
1A
102
}
330
1A
100
AcDbPlotSettings
  1

  2
none_device
  4

  6

 40
0.0
 41
0.0
 42
0.0
 43
0.0
 44
0.0
 45
0.0
 46
0.0
 47
0.0
 48
0.0
 49
0.0
140
0.0
141
0.0
142
1.0
143
1.0
 70
   688
 72
     1
 73
     0
 74
     5
  7

 75
    16
147
1.0
148
0.0
149
0.0
100
AcDbLayout
  1
Layout2
 70
     1
 71
     2
 10
0.0
 20
0.0
 11
0.0
 21
0.0
 12
0.0
 22
0.0
 32
0.0
 14
0.0
 24
0.0
 34
0.0
 15
0.0
 25
0.0
 35
0.0
146
0.0
 13
0.0
 23
0.0
 33
0.0
 16
1.0
 26
0.0
 36
0.0
 17
0.0
 27
1.0
 37
0.0
 76
     0
330
23
  0
LAYOUT
  5
22
102
{ACAD_REACTORS
330
1A
102
}
330
1A
100
AcDbPlotSettings
  1

  2
none_device
  4
ANSI_A_(11.00_x_8.50_Inches)
  6

 40
6.35
 41
19.05
 42
6.35000508
 43
19.05000254
 44
279.4
 45
215.9
 46
174.9340741040017
 47
105.2937130607498
 48
0.0
 49
0.0
140
0.0
141
0.0
142
0.0914796403028642
143
1.0
 70
  1696
 72
     0
 73
     0
 74
     0
  7

 75
     0
147
0.0235690232323232
148
0.0
149
0.0
100
AcDbLayout
  1
Model
 70
     1
 71
     0
 10
0.0
 20
0.0
 11
420.0
 21
297.0
 12
0.0
 22
0.0
 32
0.0
 14
-74.01831122566855
 24
-49.97180738881174
 34
0.0
 15
38.24079578692614
 25
44.24128320781314
 35
0.0
146
0.0
 13
0.0
 23
0.0
 33
0.0
 16
1.0
 26
0.0
 36
0.0
 17
0.0
 27
1.0
 37
0.0
 76
     0
330
1F
331
29
  0
MLINESTYLE
  5
18
102
{ACAD_REACTORS
330
17
102
}
330
17
100
AcDbMlineStyle
  2
Standard
 70
     0
  3

 62
   256
 51
90.0
 52
90.0
 71
     2
 49
0.5
 62
   256
  6
BYLAYER
 49
-0.5
 62
   256
  6
BYLAYER
  0
ACDBPLACEHOLDER
  5
F
102
{ACAD_REACTORS
330
E
102
}
330
E
  0
SCALE
  5
48
102
{ACAD_REACTORS
330
47
102
}
330
47
100
AcDbScale
 70
     0
300
1:1
140
1.0
141
1.0
290
     1
  0
SCALE
  5
49
102
{ACAD_REACTORS
330
47
102
}
330
47
100
AcDbScale
 70
     0
300
1:2
140
1.0
141
2.0
290
     0
  0
SCALE
  5
4A
102
{ACAD_REACTORS
330
47
102
}
330
47
100
AcDbScale
 70
     0
300
1:4
140
1.0
141
4.0
290
     0
  0
SCALE
  5
4B
102
{ACAD_REACTORS
330
47
102
}
330
47
100
AcDbScale
 70
     0
300
1:5
140
1.0
141
5.0
290
     0
  0
SCALE
  5
4C
102
{ACAD_REACTORS
330
47
102
}
330
47
100
AcDbScale
 70
     0
300
1:8
140
1.0
141
8.0
290
     0
  0
SCALE
  5
4D
102
{ACAD_REACTORS
330
47
102
}
330
47
100
AcDbScale
 70
     0
300
1:10
140
1.0
141
10.0
290
     0
  0
SCALE
  5
4E
102
{ACAD_REACTORS
330
47
102
}
330
47
100
AcDbScale
 70
     0
300
1:16
140
1.0
141
16.0
290
     0
  0
SCALE
  5
4F
102
{ACAD_REACTORS
330
47
102
}
330
47
100
AcDbScale
 70
     0
300
1:20
140
1.0
141
20.0
290
     0
  0
SCALE
  5
50
102
{ACAD_REACTORS
330
47
102
}
330
47
100
AcDbScale
 70
     0
300
1:30
140
1.0
141
30.0
290
     0
  0
SCALE
  5
51
102
{ACAD_REACTORS
330
47
102
}
330
47
100
AcDbScale
 70
     0
300
1:40
140
1.0
141
40.0
290
     0
  0
SCALE
  5
52
102
{ACAD_REACTORS
330
47
102
}
330
47
100
AcDbScale
 70
     0
300
1:50
140
1.0
141
50.0
290
     0
  0
SCALE
  5
53
102
{ACAD_REACTORS
330
47
102
}
330
47
100
AcDbScale
 70
     0
300
1:100
140
1.0
141
100.0
290
     0
  0
SCALE
  5
54
102
{ACAD_REACTORS
330
47
102
}
330
47
100
AcDbScale
 70
     0
300
2:1
140
2.0
141
1.0
290
     0
  0
SCALE
  5
55
102
{ACAD_REACTORS
330
47
102
}
330
47
100
AcDbScale
 70
     0
300
4:1
140
4.0
141
1.0
290
     0
  0
SCALE
  5
56
102
{ACAD_REACTORS
330
47
102
}
330
47
100
AcDbScale
 70
     0
300
8:1
140
8.0
141
1.0
290
     0
  0
SCALE
  5
57
102
{ACAD_REACTORS
330
47
102
}
330
47
100
AcDbScale
 70
     0
300
10:1
140
10.0
141
1.0
290
     0
  0
SCALE
  5
58
102
{ACAD_REACTORS
330
47
102
}
330
47
100
AcDbScale
 70
     0
300
100:1
140
100.0
141
1.0
290
     0
  0
SCALE
  5
59
102
{ACAD_REACTORS
330
47
102
}
330
47
100
AcDbScale
 70
     0
300
1/128" = 1'-0"
140
0.0078125
141
12.0
290
     0
  0
SCALE
  5
5A
102
{ACAD_REACTORS
330
47
102
}
330
47
100
AcDbScale
 70
     0
300
1/64" = 1'-0"
140
0.015625
141
12.0
290
     0
  0
SCALE
  5
5B
102
{ACAD_REACTORS
330
47
102
}
330
47
100
AcDbScale
 70
     0
300
1/32" = 1'-0"
140
0.03125
141
12.0
290
     0
  0
SCALE
  5
5C
102
{ACAD_REACTORS
330
47
102
}
330
47
100
AcDbScale
 70
     0
300
1/16" = 1'-0"
140
0.0625
141
12.0
290
     0
  0
SCALE
  5
5D
102
{ACAD_REACTORS
330
47
102
}
330
47
100
AcDbScale
 70
     0
300
3/32" = 1'-0"
140
0.09375
141
12.0
290
     0
  0
SCALE
  5
5E
102
{ACAD_REACTORS
330
47
102
}
330
47
100
AcDbScale
 70
     0
300
1/8" = 1'-0"
140
0.125
141
12.0
290
     0
  0
SCALE
  5
5F
102
{ACAD_REACTORS
330
47
102
}
330
47
100
AcDbScale
 70
     0
300
3/16" = 1'-0"
140
0.1875
141
12.0
290
     0
  0
SCALE
  5
60
102
{ACAD_REACTORS
330
47
102
}
330
47
100
AcDbScale
 70
     0
300
1/4" = 1'-0"
140
0.25
141
12.0
290
     0
  0
SCALE
  5
61
102
{ACAD_REACTORS
330
47
102
}
330
47
100
AcDbScale
 70
     0
300
3/8" = 1'-0"
140
0.375
141
12.0
290
     0
  0
SCALE
  5
62
102
{ACAD_REACTORS
330
47
102
}
330
47
100
AcDbScale
 70
     0
300
1/2" = 1'-0"
140
0.5
141
12.0
290
     0
  0
SCALE
  5
63
102
{ACAD_REACTORS
330
47
102
}
330
47
100
AcDbScale
 70
     0
300
3/4" = 1'-0"
140
0.75
141
12.0
290
     0
  0
SCALE
  5
64
102
{ACAD_REACTORS
330
47
102
}
330
47
100
AcDbScale
 70
     0
300
1" = 1'-0"
140
1.0
141
12.0
290
     0
  0
SCALE
  5
65
102
{ACAD_REACTORS
330
47
102
}
330
47
100
AcDbScale
 70
     0
300
1-1/2" = 1'-0"
140
1.5
141
12.0
290
     0
  0
SCALE
  5
66
102
{ACAD_REACTORS
330
47
102
}
330
47
100
AcDbScale
 70
     0
300
3" = 1'-0"
140
3.0
141
12.0
290
     0
  0
SCALE
  5
67
102
{ACAD_REACTORS
330
47
102
}
330
47
100
AcDbScale
 70
     0
300
6" = 1'-0"
140
6.0
141
12.0
290
     0
  0
SCALE
  5
68
102
{ACAD_REACTORS
330
47
102
}
330
47
100
AcDbScale
 70
     0
300
1'-0" = 1'-0"
140
12.0
141
12.0
290
     0
  0
ENDSEC
  0
EOF
